  0
SECTION
  2
HEADER
  9
$ACADVER
  1
AC1015
  9
$ACADMAINTVER
 70
     6
  9
$DWGCODEPAGE
  3
ANSI_949
  9
$INSBASE
 10
0.0
 20
0.0
 30
0.0
  9
$EXTMIN
 10
-68.37500000000011
 20
-36.96665620059213
 30
0.0
  9
$EXTMAX
 10
84.90645045598917
 20
50.94860365728746
 30
0.0
  9
$LIMMIN
 10
0.0
 20
0.0
  9
$LIMMAX
 10
420.0
 20
297.0
  9
$ORTHOMODE
 70
     0
  9
$REGENMODE
 70
     1
  9
$FILLMODE
 70
     1
  9
$QTEXTMODE
 70
     0
  9
$MIRRTEXT
 70
     1
  9
$LTSCALE
 40
1.0
  9
$ATTMODE
 70
     1
  9
$TEXTSIZE
 40
3.5
  9
$TRACEWID
 40
1.0
  9
$TEXTSTYLE
  7
Standard
  9
$CLAYER
  8
0
  9
$CELTYPE
  6
ByLayer
  9
$CECOLOR
 62
   256
  9
$CELTSCALE
 40
1.0
  9
$DISPSILH
 70
     0
  9
$DIMSCALE
 40
1.0
  9
$DIMASZ
 40
3.302
  9
$DIMEXO
 40
1.0
  9
$DIMDLI
 40
3.75
  9
$DIMRND
 40
0.0
  9
$DIMDLE
 40
0.0
  9
$DIMEXE
 40
1.0
  9
$DIMTP
 40
0.0
  9
$DIMTM
 40
0.0
  9
$DIMTXT
 40
3.5
  9
$DIMCEN
 40
2.5
  9
$DIMTSZ
 40
0.0
  9
$DIMTOL
 70
     0
  9
$DIMLIM
 70
     0
  9
$DIMTIH
 70
     1
  9
$DIMTOH
 70
     1
  9
$DIMSE1
 70
     0
  9
$DIMSE2
 70
     0
  9
$DIMTAD
 70
     1
  9
$DIMZIN
 70
     0
  9
$DIMBLK
  1

  9
$DIMASO
 70
     1
  9
$DIMSHO
 70
     1
  9
$DIMPOST
  1

  9
$DIMAPOST
  1

  9
$DIMALT
 70
     0
  9
$DIMALTD
 70
     3
  9
$DIMALTF
 40
0.0393700787401575
  9
$DIMLFAC
 40
1.0
  9
$DIMTOFL
 70
     1
  9
$DIMTVP
 40
0.0
  9
$DIMTIX
 70
     0
  9
$DIMSOXD
 70
     0
  9
$DIMSAH
 70
     0
  9
$DIMBLK1
  1

  9
$DIMBLK2
  1

  9
$DIMSTYLE
  2
ISO-25
  9
$DIMCLRD
 70
     0
  9
$DIMCLRE
 70
     0
  9
$DIMCLRT
 70
     0
  9
$DIMTFAC
 40
1.0
  9
$DIMGAP
 40
1.524
  9
$DIMJUST
 70
     0
  9
$DIMSD1
 70
     0
  9
$DIMSD2
 70
     0
  9
$DIMTOLJ
 70
     0
  9
$DIMTZIN
 70
     0
  9
$DIMALTZ
 70
     0
  9
$DIMALTTZ
 70
     0
  9
$DIMUPT
 70
     0
  9
$DIMDEC
 70
     2
  9
$DIMTDEC
 70
     2
  9
$DIMALTU
 70
     2
  9
$DIMALTTD
 70
     3
  9
$DIMTXSTY
  7
Standard
  9
$DIMAUNIT
 70
     0
  9
$DIMADEC
 70
     2
  9
$DIMALTRND
 40
0.0
  9
$DIMAZIN
 70
     0
  9
$DIMDSEP
 70
    44
  9
$DIMATFIT
 70
     3
  9
$DIMFRAC
 70
     0
  9
$DIMLDRBLK
  1

  9
$DIMLUNIT
 70
     2
  9
$DIMLWD
 70
    -2
  9
$DIMLWE
 70
    -2
  9
$DIMTMOVE
 70
     0
  9
$LUNITS
 70
     2
  9
$LUPREC
 70
     2
  9
$SKETCHINC
 40
1.0
  9
$FILLETRAD
 40
10.0
  9
$AUNITS
 70
     0
  9
$AUPREC
 70
     2
  9
$MENU
  1
.
  9
$ELEVATION
 40
0.0
  9
$PELEVATION
 40
0.0
  9
$THICKNESS
 40
0.0
  9
$LIMCHECK
 70
     0
  9
$CHAMFERA
 40
0.0
  9
$CHAMFERB
 40
0.0
  9
$CHAMFERC
 40
0.0
  9
$CHAMFERD
 40
0.0
  9
$SKPOLY
 70
     0
  9
$TDCREATE
 40
2458269.396909942
  9
$TDUCREATE
 40
2458269.021909942
  9
$TDUPDATE
 40
2458269.835329456
  9
$TDUUPDATE
 40
2458269.460329456
  9
$TDINDWG
 40
0.0012156366
  9
$TDUSRTIMER
 40
2458269.459113924
  9
$USRTIMER
 70
     1
  9
$ANGBASE
 50
0.0
  9
$ANGDIR
 70
     0
  9
$PDMODE
 70
     0
  9
$PDSIZE
 40
-1.0
  9
$PLINEWID
 40
0.0
  9
$SPLFRAME
 70
     0
  9
$SPLINETYPE
 70
     6
  9
$SPLINESEGS
 70
     8
  9
$HANDSEED
  5
15F
  9
$SURFTAB1
 70
     6
  9
$SURFTAB2
 70
     6
  9
$SURFTYPE
 70
     6
  9
$SURFU
 70
     6
  9
$SURFV
 70
     6
  9
$UCSBASE
  2

  9
$UCSNAME
  2

  9
$UCSORG
 10
0.0
 20
0.0
 30
0.0
  9
$UCSXDIR
 10
1.0
 20
0.0
 30
0.0
  9
$UCSYDIR
 10
0.0
 20
1.0
 30
0.0
  9
$UCSORTHOREF
  2

  9
$UCSORTHOVIEW
 70
     0
  9
$UCSORGTOP
 10
0.0
 20
0.0
 30
0.0
  9
$UCSORGBOTTOM
 10
0.0
 20
0.0
 30
0.0
  9
$UCSORGLEFT
 10
0.0
 20
0.0
 30
0.0
  9
$UCSORGRIGHT
 10
0.0
 20
0.0
 30
0.0
  9
$UCSORGFRONT
 10
0.0
 20
0.0
 30
0.0
  9
$UCSORGBACK
 10
0.0
 20
0.0
 30
0.0
  9
$PUCSBASE
  2

  9
$PUCSNAME
  2

  9
$PUCSORG
 10
0.0
 20
0.0
 30
0.0
  9
$PUCSXDIR
 10
1.0
 20
0.0
 30
0.0
  9
$PUCSYDIR
 10
0.0
 20
1.0
 30
0.0
  9
$PUCSORTHOREF
  2

  9
$PUCSORTHOVIEW
 70
     0
  9
$PUCSORGTOP
 10
0.0
 20
0.0
 30
0.0
  9
$PUCSORGBOTTOM
 10
0.0
 20
0.0
 30
0.0
  9
$PUCSORGLEFT
 10
0.0
 20
0.0
 30
0.0
  9
$PUCSORGRIGHT
 10
0.0
 20
0.0
 30
0.0
  9
$PUCSORGFRONT
 10
0.0
 20
0.0
 30
0.0
  9
$PUCSORGBACK
 10
0.0
 20
0.0
 30
0.0
  9
$USERI1
 70
     0
  9
$USERI2
 70
     0
  9
$USERI3
 70
     0
  9
$USERI4
 70
     0
  9
$USERI5
 70
     0
  9
$USERR1
 40
0.0
  9
$USERR2
 40
0.0
  9
$USERR3
 40
0.0
  9
$USERR4
 40
0.0
  9
$USERR5
 40
0.0
  9
$WORLDVIEW
 70
     1
  9
$SHADEDGE
 70
     3
  9
$SHADEDIF
 70
    70
  9
$TILEMODE
 70
     1
  9
$MAXACTVP
 70
    64
  9
$PINSBASE
 10
0.0
 20
0.0
 30
0.0
  9
$PLIMCHECK
 70
     0
  9
$PEXTMIN
 10
1.000000000000000E+20
 20
1.000000000000000E+20
 30
1.000000000000000E+20
  9
$PEXTMAX
 10
-1.000000000000000E+20
 20
-1.000000000000000E+20
 30
-1.000000000000000E+20
  9
$PLIMMIN
 10
0.0
 20
0.0
  9
$PLIMMAX
 10
0.0
 20
0.0
  9
$UNITMODE
 70
     0
  9
$VISRETAIN
 70
     1
  9
$PLINEGEN
 70
     0
  9
$PSLTSCALE
 70
     1
  9
$TREEDEPTH
 70
  3020
  9
$CMLSTYLE
  2
Standard
  9
$CMLJUST
 70
     0
  9
$CMLSCALE
 40
20.0
  9
$PROXYGRAPHICS
 70
     1
  9
$MEASUREMENT
 70
     1
  9
$CELWEIGHT
370
    -1
  9
$ENDCAPS
280
     0
  9
$JOINSTYLE
280
     0
  9
$LWDISPLAY
290
     1
  9
$INSUNITS
 70
     4
  9
$HYPERLINKBASE
  1

  9
$STYLESHEET
  1

  9
$XEDIT
290
     1
  9
$CEPSNTYPE
380
     0
  9
$PSTYLEMODE
290
     1
  9
$FINGERPRINTGUID
  2
{1ADB1ECB-299F-4DD3-A500-5C668BABBF5B}
  9
$VERSIONGUID
  2
{FAEB1C32-E019-11D5-929B-00C0DF256EC4}
  9
$EXTNAMES
290
     1
  9
$PSVPSCALE
 40
0.0
  9
$OLESTARTUP
290
     0
  0
ENDSEC
  0
SECTION
  2
CLASSES
  0
CLASS
  1
ACDBDICTIONARYWDFLT
  2
AcDbDictionaryWithDefault
  3
ObjectDBX Classes
 90
        0
280
     0
281
     0
  0
CLASS
  1
VISUALSTYLE
  2
AcDbVisualStyle
  3
ObjectDBX Classes
 90
     4095
280
     0
281
     0
  0
CLASS
  1
MATERIAL
  2
AcDbMaterial
  3
ObjectDBX Classes
 90
     1153
280
     0
281
     0
  0
CLASS
  1
SCALE
  2
AcDbScale
  3
ObjectDBX Classes
 90
     1153
280
     0
281
     0
  0
CLASS
  1
SUN
  2
AcDbSun
  3
SCENEOE
 90
     1153
280
     0
281
     0
  0
CLASS
  1
ACDBPLACEHOLDER
  2
AcDbPlaceHolder
  3
ObjectDBX Classes
 90
        0
280
     0
281
     0
  0
CLASS
  1
LAYOUT
  2
AcDbLayout
  3
ObjectDBX Classes
 90
        0
280
     0
281
     0
  0
CLASS
  1
TABLESTYLE
  2
AcDbTableStyle
  3
ObjectDBX Classes
 90
     4095
280
     0
281
     0
  0
CLASS
  1
MLEADERSTYLE
  2
AcDbMLeaderStyle
  3
ACDB_MLEADERSTYLE_CLASS
 90
     4095
280
     0
281
     0
  0
CLASS
  1
RASTERVARIABLES
  2
AcDbRasterVariables
  3
ISM
 90
        0
280
     0
281
     0
  0
CLASS
  1
DIMASSOC
  2
AcDbDimAssoc
  3
"AcDbDimAssoc|Product Desc:     AcDim ARX App For Dimension|Company:          Autodesk, Inc.|WEB Address:      www.autodesk.com"
 90
        0
280
     0
281
     0
  0
ENDSEC
  0
SECTION
  2
TABLES
  0
TABLE
  2
VPORT
  5
8
330
0
100
AcDbSymbolTable
 70
     1
  0
VPORT
  5
29
330
8
100
AcDbSymbolTableRecord
100
AcDbViewportTableRecord
  2
*Active
 70
     0
 10
0.0
 20
0.0
 11
1.0
 21
1.0
 12
30.61113256482717
 22
6.050696400256776
 13
0.0
 23
0.0
 14
10.0
 24
10.0
 15
10.0
 25
10.0
 16
0.0
 26
0.0
 36
1.0
 17
0.0
 27
0.0
 37
0.0
 40
111.6616681482032
 41
1.970186335403727
 42
50.0
 43
0.0
 44
0.0
 50
0.0
 51
0.0
 71
    16
 72
  2000
 73
     1
 74
     3
 75
     0
 76
     0
 77
     0
 78
     0
281
     0
 65
     1
110
0.0
120
0.0
130
0.0
111
1.0
121
0.0
131
0.0
112
0.0
122
1.0
132
0.0
 79
     0
146
0.0
  0
ENDTAB
  0
TABLE
  2
LTYPE
  5
5
330
0
100
AcDbSymbolTable
 70
     6
  0
LTYPE
  5
14
330
5
100
AcDbSymbolTableRecord
100
AcDbLinetypeTableRecord
  2
ByBlock
 70
     0
  3

 72
    65
 73
     0
 40
0.0
  0
LTYPE
  5
15
330
5
100
AcDbSymbolTableRecord
100
AcDbLinetypeTableRecord
  2
ByLayer
 70
     0
  3

 72
    65
 73
     0
 40
0.0
  0
LTYPE
  5
16
330
5
100
AcDbSymbolTableRecord
100
AcDbLinetypeTableRecord
  2
Continuous
 70
     0
  3
Solid line
 72
    65
 73
     0
 40
0.0
  0
LTYPE
  5
6A
330
5
100
AcDbSymbolTableRecord
100
AcDbLinetypeTableRecord
  2
HIDDEN
 70
     0
  3
Hidden __ __ __ __ __ __ __ __ __ __ __ __ __ __
 72
    65
 73
     2
 40
1.905
 49
1.27
 74
     0
 49
-0.635
 74
     0
  0
LTYPE
  5
6B
330
5
100
AcDbSymbolTableRecord
100
AcDbLinetypeTableRecord
  2
PHANTOM
 70
     0
  3
Phantom ______  __  __  ______  __  __  ______
 72
    65
 73
     6
 40
12.7
 49
6.35
 74
     0
 49
-1.27
 74
     0
 49
1.27
 74
     0
 49
-1.27
 74
     0
 49
1.27
 74
     0
 49
-1.27
 74
     0
  0
LTYPE
  5
6C
330
5
100
AcDbSymbolTableRecord
100
AcDbLinetypeTableRecord
  2
CENTER
 70
     0
  3
Center ____ _ ____ _ ____ _ ____ _ ____ _ ____
 72
    65
 73
     4
 40
10.16
 49
6.35
 74
     0
 49
-1.27
 74
     0
 49
1.27
 74
     0
 49
-1.27
 74
     0
  0
LTYPE
  5
6D
330
5
100
AcDbSymbolTableRecord
100
AcDbLinetypeTableRecord
  2
CENTERX2
 70
     0
  3
Center (2x) ________  __  ________  __  _____
 72
    65
 73
     4
 40
20.32
 49
12.7
 74
     0
 49
-2.54
 74
     0
 49
2.54
 74
     0
 49
-2.54
 74
     0
  0
LTYPE
  5
6E
330
5
100
AcDbSymbolTableRecord
100
AcDbLinetypeTableRecord
  2
DOT2
 70
     0
  3
Dot (.5x) ........................................
 72
    65
 73
     2
 40
0.635
 49
0.0
 74
     0
 49
-0.635
 74
     0
  0
ENDTAB
  0
TABLE
  2
LAYER
  5
2
330
0
100
AcDbSymbolTable
 70
    17
  0
LAYER
  5
10
330
2
100
AcDbSymbolTableRecord
100
AcDbLayerTableRecord
  2
0
 70
     0
 62
     7
  6
Continuous
370
    -3
390
F
  0
LAYER
  5
6F
330
2
100
AcDbSymbolTableRecord
100
AcDbLayerTableRecord
  2
FORMAT
 70
     0
 62
     2
  6
Continuous
370
    -3
390
F
  0
LAYER
  5
70
330
2
100
AcDbSymbolTableRecord
100
AcDbLayerTableRecord
  2
외형선
 70
     0
 62
   100
  6
Continuous
370
    30
390
F
  0
LAYER
  5
71
330
2
100
AcDbSymbolTableRecord
100
AcDbLayerTableRecord
  2
숨은선
 70
     0
 62
     2
  6
HIDDEN
370
    15
390
F
  0
LAYER
  5
72
330
2
100
AcDbSymbolTableRecord
100
AcDbLayerTableRecord
  2
중심선
 70
     0
 62
     1
  6
CENTERX2
370
    -3
390
F
  0
LAYER
  5
73
330
2
100
AcDbSymbolTableRecord
100
AcDbLayerTableRecord
  2
파단선
 70
     0
 62
     4
  6
Continuous
370
    -3
390
F
  0
LAYER
  5
74
330
2
100
AcDbSymbolTableRecord
100
AcDbLayerTableRecord
  2
해칭선
 70
     0
 62
     4
  6
Continuous
370
    -3
390
F
  0
LAYER
  5
75
330
2
100
AcDbSymbolTableRecord
100
AcDbLayerTableRecord
  2
가는실선
 70
     0
 62
     4
  6
Continuous
370
    -3
390
F
  0
LAYER
  5
76
330
2
100
AcDbSymbolTableRecord
100
AcDbLayerTableRecord
  2
치수_보조선
 70
     0
 62
     4
  6
Continuous
370
    -3
390
F
  0
LAYER
  5
77
330
2
100
AcDbSymbolTableRecord
100
AcDbLayerTableRecord
  2
치수문자_일반주서
 70
     0
 62
     7
  6
Continuous
370
    15
390
F
  0
LAYER
  5
78
330
2
100
AcDbSymbolTableRecord
100
AcDbLayerTableRecord
  2
개별주서
 70
     0
 62
   100
  6
Continuous
370
    30
390
F
  0
LAYER
  5
79
330
2
100
AcDbSymbolTableRecord
100
AcDbLayerTableRecord
  2
중간선
 70
     0
 62
     2
  6
Continuous
370
    15
390
F
  0
LAYER
  5
7A
330
2
100
AcDbSymbolTableRecord
100
AcDbLayerTableRecord
  2
윤곽선
 70
     0
 62
     3
  6
Continuous
370
    40
390
F
  0
LAYER
  5
7B
330
2
100
AcDbSymbolTableRecord
100
AcDbLayerTableRecord
  2
중심마크
 70
     0
 62
   100
  6
Continuous
370
    30
390
F
  0
LAYER
  5
7C
330
2
100
AcDbSymbolTableRecord
100
AcDbLayerTableRecord
  2
가상선
 70
     0
 62
     4
  6
PHANTOM
370
    -3
390
F
  0
LAYER
  5
7D
330
2
100
AcDbSymbolTableRecord
100
AcDbLayerTableRecord
  2
특수지정선
 70
     0
 62
     5
  6
CENTERX2
370
    60
390
F
  0
LAYER
  5
148
330
2
100
AcDbSymbolTableRecord
100
AcDbLayerTableRecord
  2
Defpoints
 70
     0
 62
     7
  6
Continuous
290
     0
370
    -3
390
F
  0
ENDTAB
  0
TABLE
  2
STYLE
  5
3
330
0
100
AcDbSymbolTable
 70
     2
  0
STYLE
  5
11
330
3
100
AcDbSymbolTableRecord
100
AcDbTextStyleTableRecord
  2
Standard
 70
     0
 40
0.0
 41
1.0
 50
0.0
 71
     0
 42
3.5
  3
txt
  4

  0
STYLE
  5
93
330
3
100
AcDbSymbolTableRecord
100
AcDbTextStyleTableRecord
  2
SLDTEXTSTYLE0
 70
     0
 40
0.0
 41
0.75
 50
0.0
 71
     0
 42
3.5
  3
TXT
  4

  0
ENDTAB
  0
TABLE
  2
VIEW
  5
6
330
0
100
AcDbSymbolTable
 70
     0
  0
ENDTAB
  0
TABLE
  2
UCS
  5
7
330
0
100
AcDbSymbolTable
 70
     0
  0
ENDTAB
  0
TABLE
  2
APPID
  5
9
330
0
100
AcDbSymbolTable
 70
     2
  0
APPID
  5
12
330
9
100
AcDbSymbolTableRecord
100
AcDbRegAppTableRecord
  2
ACAD
 70
     0
  0
APPID
  5
15A
330
9
100
AcDbSymbolTableRecord
100
AcDbRegAppTableRecord
  2
PE_DIMMEASUREMENT
 70
     0
  0
ENDTAB
  0
TABLE
  2
DIMSTYLE
  5
A
330
0
100
AcDbSymbolTable
 70
     5
100
AcDbDimStyleTable
  0
DIMSTYLE
105
27
330
A
100
AcDbSymbolTableRecord
100
AcDbDimStyleTableRecord
  2
ISO-25
 70
     0
 41
2.5
 42
0.625
 43
3.75
 44
1.25
 73
     0
 74
     0
 77
     1
 78
     8
140
2.5
141
2.5
143
0.03937007874016
147
0.625
171
     3
172
     1
178
     0
271
     2
272
     2
274
     3
278
    44
283
     0
284
     8
340
11
  0
DIMSTYLE
105
D4
330
A
100
AcDbSymbolTableRecord
100
AcDbDimStyleTableRecord
  2
SLDDIMSTYLE0
 70
     0
 41
3.302
 44
0.0
 45
0.000000001
 73
     0
 74
     0
 77
     1
 78
    12
 79
     3
140
3.5
147
0.875
173
     1
178
     0
271
     2
272
     2
276
     2
284
    12
340
93
  0
DIMSTYLE
105
DF
102
{ACAD_REACTORS
330
DE
102
}
330
A
100
AcDbSymbolTableRecord
100
AcDbDimStyleTableRecord
  2
SLDDIMSTYLE1
 70
     0
 41
3.302
 44
0.0
 45
0.000000001
 73
     0
 74
     0
 77
     1
 78
     4
 79
     1
140
3.5
143
0.0393700787401575
147
0.875
148
0.000000001
170
     1
173
     1
178
     0
271
     2
272
     2
276
     2
284
    12
340
93
  0
DIMSTYLE
105
F3
102
{ACAD_REACTORS
330
F2
102
}
330
A
100
AcDbSymbolTableRecord
100
AcDbDimStyleTableRecord
  2
SLDDIMSTYLE2
 70
     0
 41
3.302
 44
0.0
 45
0.000000001
 73
     0
 74
     0
 77
     1
 78
    12
 79
     3
140
3.5
143
0.0393700787401575
147
0.875
148
0.000000001
170
     1
173
     1
178
     0
271
     2
272
     2
276
     2
284
    12
340
93
  0
DIMSTYLE
105
107
102
{ACAD_REACTORS
330
106
330
149
102
}
330
A
100
AcDbSymbolTableRecord
100
AcDbDimStyleTableRecord
  2
SLDDIMSTYLE3
 70
     0
 41
3.302
 44
0.0
 45
0.000000001
 73
     0
 74
     0
 77
     1
 78
    12
 79
     3
140
3.5
143
0.0393700787401575
147
0.875
148
0.000000001
170
     1
172
     1
173
     1
178
     0
271
     2
272
     2
276
     2
284
    12
289
     0
340
93
  0
ENDTAB
  0
TABLE
  2
BLOCK_RECORD
  5
1
330
0
100
AcDbSymbolTable
 70
     8
  0
BLOCK_RECORD
  5
1F
330
1
100
AcDbSymbolTableRecord
100
AcDbBlockTableRecord
  2
*Model_Space
340
22
  0
BLOCK_RECORD
  5
1B
330
1
100
AcDbSymbolTableRecord
100
AcDbBlockTableRecord
  2
*Paper_Space
340
1E
  0
BLOCK_RECORD
  5
23
330
1
100
AcDbSymbolTableRecord
100
AcDbBlockTableRecord
  2
*Paper_Space0
340
26
  0
BLOCK_RECORD
  5
7E
330
1
100
AcDbSymbolTableRecord
100
AcDbBlockTableRecord
  2
블럭10
340
0
102
{BLKREFS
331
CB
102
}
  0
BLOCK_RECORD
  5
D5
330
1
100
AcDbSymbolTableRecord
100
AcDbBlockTableRecord
  2
_D
340
0
  0
BLOCK_RECORD
  5
E0
330
1
100
AcDbSymbolTableRecord
100
AcDbBlockTableRecord
  2
_D_1
340
0
  0
BLOCK_RECORD
  5
F4
330
1
100
AcDbSymbolTableRecord
100
AcDbBlockTableRecord
  2
_D_2
340
0
  0
BLOCK_RECORD
  5
108
330
1
100
AcDbSymbolTableRecord
100
AcDbBlockTableRecord
  2
_D_3
340
0
  0
BLOCK_RECORD
  5
11B
330
1
100
AcDbSymbolTableRecord
100
AcDbBlockTableRecord
  2
SW_DOWELSYMBOL_0
340
0
102
{BLKREFS
331
121
102
}
  0
BLOCK_RECORD
  5
14C
330
1
100
AcDbSymbolTableRecord
100
AcDbBlockTableRecord
  2
*D7
340
0
  0
ENDTAB
  0
ENDSEC
  0
SECTION
  2
BLOCKS
  0
BLOCK
  5
20
330
1F
100
AcDbEntity
  8
0
100
AcDbBlockBegin
  2
*Model_Space
 70
     0
 10
0.0
 20
0.0
 30
0.0
  3
*Model_Space
  1
*Model_Space
  0
ENDBLK
  5
21
330
1F
100
AcDbEntity
  8
0
100
AcDbBlockEnd
  0
BLOCK
  5
1C
330
1B
100
AcDbEntity
 67
     1
  8
0
100
AcDbBlockBegin
  2
*Paper_Space
 70
     0
 10
0.0
 20
0.0
 30
0.0
  3
*Paper_Space
  1
*Paper_Space
  0
ENDBLK
  5
1D
330
1B
100
AcDbEntity
 67
     1
  8
0
100
AcDbBlockEnd
  0
BLOCK
  5
24
330
23
100
AcDbEntity
  8
0
100
AcDbBlockBegin
  2
*Paper_Space0
 70
     0
 10
0.0
 20
0.0
 30
0.0
  3
*Paper_Space0
  1
*Paper_Space0
  0
ENDBLK
  5
25
330
23
100
AcDbEntity
  8
0
100
AcDbBlockEnd
  0
BLOCK
  5
7F
330
7E
100
AcDbEntity
  8
0
100
AcDbBlockBegin
  2
블럭10
 70
     2
 10
0.0
 20
0.0
 30
0.0
  3
블럭10
  1
블럭10
  0
ELLIPSE
  5
81
330
7E
100
AcDbEntity
  8
중심선
100
AcDbEllipse
 10
20.54032771741204
 20
12.0471743016438
 30
0.0
 11
6.600054785286829
 21
-1.261213355974178E-13
 31
0.0
210
0.0
220
0.0
230
1.0
 40
0.636358354079598
 41
0.9219305317359503
 42
6.513795318482858
  0
ELLIPSE
  5
82
330
7E
100
AcDbEntity
  8
중심선
100
AcDbEllipse
 10
20.54032771746488
 20
12.04717430159265
 30
0.0
 11
3.960054785062283
 21
1.540847449632565E-10
 31
0.0
210
0.0
220
0.0
230
1.0
 40
0.3939339440162632
 41
1.131841032648279
 42
5.62031148352944
  0
LINE
  5
83
330
7E
100
AcDbEntity
  8
중심선
100
AcDbLine
 10
2.268634060543552
 20
16.24717430164393
 30
0.0
 11
5.714909304380834
 21
16.24717430164393
 31
0.0
  0
LINE
  5
84
330
7E
100
AcDbEntity
  8
중심선
100
AcDbLine
 10
5.245725140726316
 20
7.84717430164391
 30
0.0
 11
8.692000384563599
 21
7.84717430164391
 31
0.0
  0
LINE
  5
85
330
7E
100
AcDbEntity
  8
중심선
100
AcDbLine
 10
15.74043728645272
 20
16.24717430164393
 30
0.0
 11
8.692000384563599
 21
7.84717430164391
 31
0.0
  0
LINE
  5
86
330
7E
100
AcDbEntity
  8
중심선
100
AcDbLine
 10
0.1404042013395286
 20
13.71084872107135
 30
0.0
 11
3.58671253028996
 21
13.71088815037384
 31
0.0
  0
LINE
  5
87
330
7E
100
AcDbEntity
  8
중심선
100
AcDbLine
 10
2.750260043222114
 20
10.84717430164391
 30
0.0
 11
6.196535287059397
 21
10.84717430164391
 31
0.0
  0
LINE
  5
88
330
7E
100
AcDbEntity
  8
중심선
100
AcDbLine
 10
12.29416204261559
 20
16.24717430164393
 30
0.0
 11
5.245725140726316
 21
7.84717430164391
 31
0.0
  0
LINE
  5
89
330
7E
100
AcDbEntity
  8
중심선
100
AcDbLine
 10
10.72767329541681
 20
16.24717430164393
 30
0.0
 11
6.196535287059397
 21
10.84717430164391
 31
0.0
  0
LINE
  5
8A
330
7E
100
AcDbEntity
  8
중심선
100
AcDbLine
 10
7.28139805157953
 20
16.24717430164393
 30
0.0
 11
2.750260043222114
 21
10.84717430164391
 31
0.0
  0
LINE
  5
8B
330
7E
100
AcDbEntity
  8
중심선
100
AcDbLine
 10
5.714909304380834
 20
16.24717430164393
 30
0.0
 11
3.58671253028996
 21
13.71088815037384
 31
0.0
  0
LINE
  5
8C
330
7E
100
AcDbEntity
  8
중심선
100
AcDbLine
 10
2.268634060543552
 20
16.24717430164393
 30
0.0
 11
0.1404042013395286
 21
13.71084872107135
 31
0.0
  0
LINE
  5
8D
330
7E
100
AcDbEntity
  8
중심선
100
AcDbLine
 10
7.28139805157953
 20
16.24717430164393
 30
0.0
 11
10.72767329541681
 21
16.24717430164393
 31
0.0
  0
LINE
  5
8E
330
7E
100
AcDbEntity
  8
중심선
100
AcDbLine
 10
12.29416204261559
 20
16.24717430164393
 30
0.0
 11
15.74043728645272
 21
16.24717430164393
 31
0.0
  0
LINE
  5
8F
330
7E
100
AcDbEntity
  8
중심선
100
AcDbLine
 10
19.22036997980202
 20
11.08717430171403
 30
0.0
 11
23.66174974927406
 21
11.08717430171406
 31
0.0
  0
LINE
  5
90
330
7E
100
AcDbEntity
  8
중심선
100
AcDbLine
 10
19.22039502424796
 20
13.00717430171391
 30
0.0
 11
19.22036997980202
 21
11.08717430171403
 31
0.0
  0
LINE
  5
91
330
7E
100
AcDbEntity
  8
중심선
100
AcDbLine
 10
19.22039502424796
 20
13.00717430171391
 30
0.0
 11
26.96566020931264
 21
13.00717430171391
 31
0.0
  0
LINE
  5
92
330
7E
100
AcDbEntity
  8
중심선
100
AcDbLine
 10
22.22332737316547
 20
13.45928029700563
 30
0.0
 11
24.52862924686651
 21
15.39360700705356
 31
0.0
  0
ATTDEF
  5
94
330
7E
100
AcDbEntity
  8
FORMAT
 62
     2
100
AcDbText
 10
-9.18129528874128
 20
2.075366912832191
 30
0.0
 40
4.233333333333333
  1
E5982040 [ 3 FLUTE ]
 41
0.75
  7
SLDTEXTSTYLE0
 11
-9.18129528874128
 21
-0.0412997538344756
 31
0.0
100
AcDbAttributeDefinition
  3

  2
AUTOATTR0
 70
     0
 74
     1
  0
ENDBLK
  5
80
330
7E
100
AcDbEntity
  8
0
100
AcDbBlockEnd
  0
BLOCK
  5
D6
330
D5
100
AcDbEntity
  8
0
100
AcDbBlockBegin
  2
_D
 70
     0
 10
0.0
 20
0.0
 30
0.0
  3
_D
  1
_D
  0
SOLID
  5
D8
330
D5
100
AcDbEntity
  8
치수문자_일반주서
100
AcDbTrace
 10
-55.99999999999999
 20
-0.4854796965059789
 30
0.0
 11
-52.69799999999999
 21
-0.9934796965059789
 31
0.0
 12
-52.69799999999999
 22
0.0225203034940211
 32
0.0
 13
-52.69799999999999
 23
0.0225203034940211
 33
0.0
  0
SOLID
  5
D9
330
D5
100
AcDbEntity
  8
치수문자_일반주서
100
AcDbTrace
 10
15.46254243902306
 20
-0.4854796965059746
 30
0.0
 11
12.16054243902306
 21
0.0225203034940255
 31
0.0
 12
12.16054243902306
 22
-0.9934796965059746
 32
0.0
 13
12.16054243902306
 23
-0.9934796965059746
 33
0.0
  0
LINE
  5
DA
330
D5
100
AcDbEntity
  8
치수문자_일반주서
100
AcDbLine
 10
-55.99999999999999
 20
-0.9816608253754013
 30
0.0
 11
-55.99999999999999
 21
-1.485479696505979
 31
0.0
  0
LINE
  5
DB
330
D5
100
AcDbEntity
  8
치수문자_일반주서
100
AcDbLine
 10
15.46254243902306
 20
-0.9816608253754013
 30
0.0
 11
15.46254243902306
 21
-1.485479696505974
 31
0.0
  0
LINE
  5
DC
330
D5
100
AcDbEntity
  8
치수문자_일반주서
100
AcDbLine
 10
-55.99999999999999
 20
-0.4854796965059789
 30
0.0
 11
15.46254243902306
 21
-0.4854796965059746
 31
0.0
  0
MTEXT
  5
DD
330
D5
100
AcDbEntity
  8
치수문자_일반주서
100
AcDbMText
 10
4.279503310635979
 20
4.02625721807292
 30
0.0
 40
3.5
 41
0.0
 71
     1
 72
     1
  1
71.46
  7
SLDTEXTSTYLE0
 73
     1
 44
1.0
  0
ENDBLK
  5
D7
330
D5
100
AcDbEntity
  8
0
100
AcDbBlockEnd
  0
BLOCK
  5
E1
330
E0
100
AcDbEntity
  8
0
100
AcDbBlockBegin
  2
_D_1
 70
     0
 10
0.0
 20
0.0
 30
0.0
  3
_D_1
  1
_D_1
  0
LINE
  5
E3
330
E0
100
AcDbEntity
  8
치수문자_일반주서
 62
     0
370
    -2
100
AcDbLine
 10
75.5
 20
8.000000000000021
 30
0.0
 11
75.5
 21
28.55091845233053
 31
0.0
  0
LINE
  5
E4
330
E0
100
AcDbEntity
  8
치수문자_일반주서
 62
     0
370
    -2
100
AcDbLine
 10
12.0
 20
8.000000000000014
 30
0.0
 11
12.0
 21
28.55091845233053
 31
0.0
  0
LINE
  5
E5
330
E0
100
AcDbEntity
  8
치수문자_일반주서
 62
     0
370
    -2
100
AcDbLine
 10
72.19800000000001
 20
28.55091845233053
 30
0.0
 11
15.302
 21
28.55091845233053
 31
0.0
  0
SOLID
  5
E6
330
E0
100
AcDbEntity
  8
치수문자_일반주서
 62
     0
100
AcDbTrace
 10
72.19800000000001
 20
28.0005851189972
 30
0.0
 11
72.19800000000001
 21
29.10125178566387
 31
0.0
 12
75.5
 22
28.55091845233053
 32
0.0
 13
75.5
 23
28.55091845233053
 33
0.0
  0
SOLID
  5
E7
330
E0
100
AcDbEntity
  8
치수문자_일반주서
 62
     0
100
AcDbTrace
 10
15.302
 20
29.10125178566387
 30
0.0
 11
15.302
 21
28.0005851189972
 31
0.0
 12
12.0
 22
28.55091845233053
 32
0.0
 13
12.0
 23
28.55091845233053
 33
0.0
  0
MTEXT
  5
E8
330
E0
100
AcDbEntity
  8
치수문자_일반주서
 62
     0
100
AcDbMText
 10
43.75000000000001
 20
32.92591845233054
 30
0.0
 40
3.5
 41
0.0
 71
     2
 72
     1
  1
\A1;63.50 [2 1/2]
  7
SLDTEXTSTYLE0
 73
     1
 44
1.0
  0
POINT
  5
E9
330
E0
100
AcDbEntity
  8
Defpoints
 62
     0
100
AcDbPoint
 10
75.5
 20
7.937500000000021
 30
0.0
  0
POINT
  5
EA
330
E0
100
AcDbEntity
  8
Defpoints
 62
     0
100
AcDbPoint
 10
12.0
 20
7.937500000000014
 30
0.0
  0
POINT
  5
EB
330
E0
100
AcDbEntity
  8
Defpoints
 62
     0
100
AcDbPoint
 10
12.0
 20
28.55091845233053
 30
0.0
  0
ENDBLK
  5
E2
330
E0
100
AcDbEntity
  8
0
100
AcDbBlockEnd
  0
BLOCK
  5
F5
330
F4
100
AcDbEntity
  8
0
100
AcDbBlockBegin
  2
_D_2
 70
     0
 10
0.0
 20
0.0
 30
0.0
  3
_D_2
  1
_D_2
  0
LINE
  5
F7
330
F4
100
AcDbEntity
  8
치수문자_일반주서
 62
     0
370
    -2
100
AcDbLine
 10
75.5
 20
8.000000000000021
 30
0.0
 11
75.5
 21
46.57360365728746
 31
0.0
  0
LINE
  5
F8
330
F4
100
AcDbEntity
  8
치수문자_일반주서
 62
     0
370
    -2
100
AcDbLine
 10
-51.49999999999999
 20
7.500000000000007
 30
0.0
 11
-51.49999999999999
 21
46.57360365728746
 31
0.0
  0
LINE
  5
F9
330
F4
100
AcDbEntity
  8
치수문자_일반주서
 62
     0
370
    -2
100
AcDbLine
 10
72.19800000000001
 20
46.57360365728746
 30
0.0
 11
-48.19799999999999
 21
46.57360365728746
 31
0.0
  0
SOLID
  5
FA
330
F4
100
AcDbEntity
  8
치수문자_일반주서
 62
     0
100
AcDbTrace
 10
72.19800000000001
 20
46.02327032395413
 30
0.0
 11
72.19800000000001
 21
47.1239369906208
 31
0.0
 12
75.5
 22
46.57360365728746
 32
0.0
 13
75.5
 23
46.57360365728746
 33
0.0
  0
SOLID
  5
FB
330
F4
100
AcDbEntity
  8
치수문자_일반주서
 62
     0
100
AcDbTrace
 10
-48.19799999999999
 20
47.1239369906208
 30
0.0
 11
-48.19799999999999
 21
46.02327032395413
 31
0.0
 12
-51.49999999999999
 22
46.57360365728746
 32
0.0
 13
-51.49999999999999
 23
46.57360365728746
 33
0.0
  0
MTEXT
  5
FC
330
F4
100
AcDbEntity
  8
치수문자_일반주서
 62
     0
100
AcDbMText
 10
12.00000000000001
 20
50.94860365728746
 30
0.0
 40
3.5
 41
0.0
 71
     2
 72
     1
  1
\A1;127 [5]
  7
SLDTEXTSTYLE0
 73
     1
 44
1.0
  0
POINT
  5
FD
330
F4
100
AcDbEntity
  8
Defpoints
 62
     0
100
AcDbPoint
 10
75.5
 20
7.937500000000021
 30
0.0
  0
POINT
  5
FE
330
F4
100
AcDbEntity
  8
Defpoints
 62
     0
100
AcDbPoint
 10
-51.49999999999999
 20
7.437500000000007
 30
0.0
  0
POINT
  5
FF
330
F4
100
AcDbEntity
  8
Defpoints
 62
     0
100
AcDbPoint
 10
-51.49999999999999
 20
46.57360365728746
 30
0.0
  0
ENDBLK
  5
F6
330
F4
100
AcDbEntity
  8
0
100
AcDbBlockEnd
  0
BLOCK
  5
109
330
108
100
AcDbEntity
  8
0
100
AcDbBlockBegin
  2
_D_3
 70
     0
 10
0.0
 20
0.0
 30
0.0
  3
_D_3
  1
_D_3
  0
LINE
  5
10B
330
108
100
AcDbEntity
  8
치수문자_일반주서
 62
     0
370
    -2
100
AcDbLine
 10
-51.06249999999999
 20
7.937500000000011
 30
0.0
 11
-63.99999999999999
 21
7.937499999999964
 31
0.0
  0
LINE
  5
10C
330
108
100
AcDbEntity
  8
치수문자_일반주서
 62
     0
370
    -2
100
AcDbLine
 10
-51.06249999999999
 20
-7.937499999999989
 30
0.0
 11
-63.99999999999993
 21
-7.937500000000043
 31
0.0
  0
LINE
  5
10D
330
108
100
AcDbEntity
  8
치수문자_일반주서
 62
     0
370
    -2
100
AcDbLine
 10
-63.99999999999999
 20
7.937499999999964
 30
0.0
 11
-64.00000000000011
 21
42.76024999999996
 31
0.0
  0
LINE
  5
10E
330
108
100
AcDbEntity
  8
치수문자_일반주서
 62
     0
370
    -2
100
AcDbLine
 10
-63.99999999999999
 20
7.937499999999964
 30
0.0
 11
-63.99999999999993
 21
-7.937500000000043
 31
0.0
  0
LINE
  5
10F
330
108
100
AcDbEntity
  8
치수문자_일반주서
 62
     0
370
    -2
100
AcDbLine
 10
-64.0
 20
11.23949999999996
 30
0.0
 11
-64.00000000000001
 21
14.54149999999996
 31
0.0
  0
LINE
  5
110
330
108
100
AcDbEntity
  8
치수문자_일반주서
 62
     0
370
    -2
100
AcDbLine
 10
-63.99999999999991
 20
-11.23950000000004
 30
0.0
 11
-63.9999999999999
 21
-14.54150000000004
 31
0.0
  0
SOLID
  5
111
330
108
100
AcDbEntity
  8
치수문자_일반주서
 62
     0
100
AcDbTrace
 10
-64.55033333333333
 20
11.23949999999996
 30
0.0
 11
-63.44966666666667
 21
11.23949999999997
 31
0.0
 12
-63.99999999999999
 22
7.937499999999964
 32
0.0
 13
-63.99999999999999
 23
7.937499999999964
 33
0.0
  0
SOLID
  5
112
330
108
100
AcDbEntity
  8
치수문자_일반주서
 62
     0
100
AcDbTrace
 10
-63.44966666666658
 20
-11.23950000000004
 30
0.0
 11
-64.55033333333324
 21
-11.23950000000004
 31
0.0
 12
-63.99999999999993
 22
-7.937500000000043
 32
0.0
 13
-63.99999999999993
 23
-7.937500000000043
 33
0.0
  0
MTEXT
  5
113
330
108
100
AcDbEntity
  8
치수문자_일반주서
 62
     0
100
AcDbMText
 10
-68.37500000000006
 20
28.76024999999995
 30
0.0
 40
3.5
 41
0.0
 71
     2
 72
     1
  1
\A1;%%c15.88 [5/8]
  7
SLDTEXTSTYLE0
 11
-3.580687802255623E-15
 21
1.0
 31
0.0
 73
     1
 44
1.0
  0
POINT
  5
114
330
108
100
AcDbEntity
  8
Defpoints
 62
     0
100
AcDbPoint
 10
-50.99999999999999
 20
7.937500000000011
 30
0.0
  0
POINT
  5
115
330
108
100
AcDbEntity
  8
Defpoints
 62
     0
100
AcDbPoint
 10
-50.99999999999999
 20
-7.937499999999989
 30
0.0
  0
POINT
  5
116
330
108
100
AcDbEntity
  8
Defpoints
 62
     0
100
AcDbPoint
 10
-63.99999999999992
 20
-7.937500000000038
 30
0.0
  0
ENDBLK
  5
10A
330
108
100
AcDbEntity
  8
0
100
AcDbBlockEnd
  0
BLOCK
  5
11C
330
11B
100
AcDbEntity
  8
0
100
AcDbBlockBegin
  2
SW_DOWELSYMBOL_0
 70
     0
 10
0.0
 20
0.0
 30
0.0
  3
SW_DOWELSYMBOL_0
  1
SW_DOWELSYMBOL_0
  0
CIRCLE
  5
11E
330
11B
100
AcDbEntity
  8
외형선
 62
     0
100
AcDbCircle
 10
0.0
 20
0.0
 30
0.0
 40
3.000000000000008
  0
HATCH
  5
11F
330
11B
100
AcDbEntity
  8
0
  6
Continuous
 62
     0
370
    30
100
AcDbHatch
 10
0.0
 20
0.0
 30
0.0
210
0.0
220
0.0
230
1.0
  2
SOLID
 70
     1
 71
     0
 91
        1
 92
        0
 93
        3
 72
     2
 10
0.0000000000000087
 20
0.0
 40
3.000000000000008
 50
0.0
 51
90.0
 73
     1
 72
     1
 10
0.0000000000000087
 20
3.000000000000008
 11
0.0000000000000087
 21
0.0
 72
     1
 10
0.0000000000000087
 20
0.0
 11
3.000000000000017
 21
0.0
 97
        0
 75
     0
 76
     1
 98
        1
 10
0.0
 20
0.0
  0
HATCH
  5
120
330
11B
100
AcDbEntity
  8
0
  6
Continuous
 62
     0
370
    30
100
AcDbHatch
 10
0.0
 20
0.0
 30
0.0
210
0.0
220
0.0
230
1.0
  2
SOLID
 70
     1
 71
     0
 91
        1
 92
        0
 93
        3
 72
     2
 10
0.0000000000000087
 20
0.0
 40
3.000000000000008
 50
180.0
 51
270.0000000000008
 73
     1
 72
     1
 10
0.0000000000000087
 20
-3.000000000000008
 11
0.0000000000000087
 21
0.0
 72
     1
 10
0.0000000000000087
 20
0.0
 11
-3.0
 21
0.0
 97
        0
 75
     0
 76
     1
 98
        1
 10
0.0
 20
0.0
  0
ENDBLK
  5
11D
330
11B
100
AcDbEntity
  8
0
100
AcDbBlockEnd
  0
BLOCK
  5
14D
330
14C
100
AcDbEntity
  8
0
100
AcDbBlockBegin
  2
*D7
 70
     1
 10
0.0
 20
0.0
 30
0.0
  3
*D7
  1
*D7
  0
LINE
  5
14F
330
14C
100
AcDbEntity
  8
치수문자_일반주서
 62
     0
370
    -2
100
AcDbLine
 10
75.5625
 20
-7.937499999999986
 30
0.0
 11
84.35611712265585
 21
-7.937499999999987
 31
0.0
  0
LINE
  5
150
330
14C
100
AcDbEntity
  8
치수문자_일반주서
 62
     0
370
    -2
100
AcDbLine
 10
75.5625
 20
7.937500000000021
 30
0.0
 11
84.35611712265585
 21
7.93750000000002
 31
0.0
  0
LINE
  5
151
330
14C
100
AcDbEntity
  8
치수문자_일반주서
 62
     0
370
    -2
100
AcDbLine
 10
84.35611712265585
 20
11.23950000000002
 30
0.0
 11
84.35611712265585
 21
42.54150000000002
 31
0.0
  0
LINE
  5
152
330
14C
100
AcDbEntity
  8
치수문자_일반주서
 62
     0
370
    -2
100
AcDbLine
 10
84.35611712265585
 20
-7.937499999999987
 30
0.0
 11
84.35611712265585
 21
7.93750000000002
 31
0.0
  0
LINE
  5
153
330
14C
100
AcDbEntity
  8
치수문자_일반주서
 62
     0
370
    -2
100
AcDbLine
 10
84.35611712265585
 20
-11.23949999999999
 30
0.0
 11
84.35611712265585
 21
-14.54149999999998
 31
0.0
  0
SOLID
  5
154
330
14C
100
AcDbEntity
  8
치수문자_일반주서
 62
     0
100
AcDbTrace
 10
84.90645045598917
 20
-11.23949999999999
 30
0.0
 11
83.80578378932252
 21
-11.23949999999999
 31
0.0
 12
84.35611712265585
 22
-7.937499999999987
 32
0.0
 13
84.35611712265585
 23
-7.937499999999987
 33
0.0
  0
SOLID
  5
155
330
14C
100
AcDbEntity
  8
치수문자_일반주서
 62
     0
100
AcDbTrace
 10
83.80578378932252
 20
11.23950000000002
 30
0.0
 11
84.90645045598917
 21
11.23950000000002
 31
0.0
 12
84.35611712265585
 22
7.93750000000002
 32
0.0
 13
84.35611712265585
 23
7.93750000000002
 33
0.0
  0
MTEXT
  5
156
330
14C
100
AcDbEntity
  8
치수문자_일반주서
 62
     0
100
AcDbMText
 10
81.73111712265585
 20
28.54150000000002
 30
0.0
 40
3.5
 41
0.0
 71
     5
 72
     1
  1
\A1;{Ø15.88 [5/8]}
  7
SLDTEXTSTYLE0
 11
0.0
 21
1.0
 31
0.0
 73
     1
 44
1.0
  0
POINT
  5
157
330
14C
100
AcDbEntity
  8
Defpoints
 62
     0
100
AcDbPoint
 10
75.5
 20
-7.937499999999986
 30
0.0
  0
POINT
  5
158
330
14C
100
AcDbEntity
  8
Defpoints
 62
     0
100
AcDbPoint
 10
75.5
 20
7.937500000000021
 30
0.0
  0
POINT
  5
159
330
14C
100
AcDbEntity
  8
Defpoints
 62
     0
100
AcDbPoint
 10
84.35611712265585
 20
7.93750000000002
 30
0.0
  0
ENDBLK
  5
14E
330
14C
100
AcDbEntity
  8
0
100
AcDbBlockEnd
  0
ENDSEC
  0
SECTION
  2
ENTITIES
  0
LINE
  5
95
330
1F
100
AcDbEntity
  8
0
  6
Continuous
 62
     4
370
    15
100
AcDbLine
 10
12.0
 20
7.937500000000014
 30
0.0
 11
-50.99999999999999
 21
7.937500000000011
 31
0.0
  0
LINE
  5
96
330
1F
100
AcDbEntity
  8
0
  6
Continuous
 62
     4
370
    15
100
AcDbLine
 10
-50.99999999999999
 20
-7.937499999999989
 30
0.0
 11
8.949591645039277
 21
-7.937499999999986
 31
0.0
  0
LINE
  5
97
330
1F
100
AcDbEntity
  8
0
  6
Continuous
 62
     4
370
    15
100
AcDbLine
 10
-50.99999999999999
 20
7.937500000000007
 30
0.0
 11
-51.49999999999999
 21
7.437500000000006
 31
0.0
  0
LINE
  5
98
330
1F
100
AcDbEntity
  8
0
  6
Continuous
 62
     4
370
    15
100
AcDbLine
 10
-51.49999999999999
 20
-7.437499999999987
 30
0.0
 11
-50.99999999999999
 21
-7.937499999999986
 31
0.0
  0
LINE
  5
99
330
1F
100
AcDbEntity
  8
0
  6
Continuous
 62
     1
370
    15
100
AcDbLine
 10
50.06622816643769
 20
-7.937499999999993
 30
0.0
 11
55.2165961194744
 21
-7.937499999999993
 31
0.0
  0
LINE
  5
9A
330
1F
100
AcDbEntity
  8
0
  6
Continuous
 62
     1
370
    15
100
AcDbLine
 10
30.28027330368491
 20
7.937500000000021
 30
0.0
 11
25.12991982035966
 21
7.937500000000021
 31
0.0
  0
LINE
  5
9B
102
{ACAD_REACTORS
102
}
330
1F
100
AcDbEntity
  8
0
  6
Continuous
 62
     1
370
    15
100
AcDbLine
 10
75.5
 20
7.937500000000021
 30
0.0
 11
75.00253541210614
 21
7.937500000000021
 31
0.0
  0
LINE
  5
9C
330
1F
100
AcDbEntity
  8
0
  6
Continuous
 62
     1
370
    15
100
AcDbLine
 10
66.69131365183085
 20
-7.937499999999993
 30
0.0
 11
71.84174887348387
 21
-7.937499999999993
 31
0.0
  0
LINE
  5
9D
330
1F
100
AcDbEntity
  8
0
  6
Continuous
 62
     1
370
    15
100
AcDbLine
 10
16.81843177590871
 20
-7.937499999999993
 30
0.0
 11
21.96896636645713
 21
-7.937499999999993
 31
0.0
  0
LINE
  5
9E
330
1F
100
AcDbEntity
  8
0
  6
Continuous
 62
     1
370
    15
100
AcDbLine
 10
46.90535918767023
 20
7.937500000000021
 30
0.0
 11
41.75494163884208
 21
7.937500000000021
 31
0.0
  0
LINE
  5
9F
330
1F
100
AcDbEntity
  8
0
  6
Continuous
 62
     1
370
    15
100
AcDbLine
 10
33.44185836069828
 20
-7.937499999999993
 30
0.0
 11
38.59222202224947
 21
-7.937499999999993
 31
0.0
  0
LINE
  5
A0
330
1F
100
AcDbEntity
  8
0
  6
Continuous
 62
     1
370
    15
100
AcDbLine
 10
13.65619414166858
 20
7.937500000000021
 30
0.0
 11
12.00000000000001
 21
7.937500000000021
 31
0.0
  0
LINE
  5
A1
330
1F
100
AcDbEntity
  8
0
  6
Continuous
 62
     1
370
    15
100
AcDbLine
 10
63.5286357248271
 20
7.937500000000021
 30
0.0
 11
58.3782829640522
 21
7.937500000000021
 31
0.0
  0
SPLINE
  5
A2
330
1F
100
AcDbEntity
  8
0
  6
Continuous
 62
     4
370
    15
100
AcDbSpline
210
0.0
220
0.0
230
1.0
 70
     8
 71
     3
 72
    12
 73
     8
 74
     0
 42
0.000000001
 43
0.00000001
 40
0.0
 40
0.0
 40
0.0
 40
0.0
 40
0.25
 40
0.25
 40
0.5
 40
0.5
 40
1.0
 40
1.0
 40
1.0
 40
1.0
 10
9.420317836982306
 20
0.0802661555843629
 30
0.0
 10
9.344099678480863
 20
0.1563008254564056
 30
0.0
 10
9.276918898448166
 20
0.2387227755398812
 30
0.0
 10
9.159768043269768
 20
0.4156833754545654
 30
0.0
 10
9.109406219427047
 20
0.511410386570452
 30
0.0
 10
8.98958067394464
 20
0.8073189971989261
 30
0.0
 10
8.949591645039275
 20
1.018785138177485
 30
0.0
 10
8.949591645039272
 20
1.231390721257752
 30
0.0
  0
SPLINE
  5
A3
330
1F
100
AcDbEntity
  8
0
  6
Continuous
 62
     4
370
    15
100
AcDbSpline
210
0.0
220
0.0
230
1.0
 70
     8
 71
     3
 72
    20
 73
    16
 74
     0
 42
0.000000001
 43
0.00000001
 40
0.0
 40
0.0
 40
0.0
 40
0.0
 40
0.125
 40
0.125
 40
0.2500000000000001
 40
0.2500000000000001
 40
0.3750000000000001
 40
0.3750000000000001
 40
0.5000000000000001
 40
0.5000000000000001
 40
0.75
 40
0.75
 40
0.8750000000000001
 40
0.8750000000000001
 40
1.0
 40
1.0
 40
1.0
 40
1.0
 10
8.949591645039275
 20
6.799138630719279
 30
0.0
 10
8.949591645039275
 20
6.880747314952555
 30
0.0
 10
8.970669235883328
 20
6.956456543039911
 30
0.0
 10
9.057015951965344
 20
7.096996020972273
 30
0.0
 10
9.121969308240038
 20
7.160199431914685
 30
0.0
 10
9.290822434691167
 20
7.269863883274802
 30
0.0
 10
9.39609712276004
 20
7.316920793166693
 30
0.0
 10
9.634348859110853
 20
7.39276564291335
 30
0.0
 10
9.770642150599796
 20
7.4226361686609
 30
0.0
 10
10.20104792726335
 20
7.486577034057019
 30
0.0
 10
10.52843854224462
 20
7.497626011034622
 30
0.0
 10
10.98986612737241
 20
7.467888493182008
 30
0.0
 10
11.13894584364724
 20
7.450258047090884
 30
0.0
 10
11.41698468134595
 20
7.398160684000405
 30
0.0
 10
11.54260507164764
 20
7.364526519378453
 30
0.0
 10
11.65458640616361
 20
7.321314076125598
 30
0.0
  0
SPLINE
  5
A4
330
1F
100
AcDbEntity
  8
0
  6
Continuous
 62
     4
370
    15
100
AcDbSpline
210
0.0
220
0.0
230
1.0
 70
    24
 71
     3
 72
    20
 73
    16
 74
     0
 42
0.000000001
 43
0.00000001
 40
0.0
 40
0.0
 40
0.0
 40
0.0
 40
0.2499999999999999
 40
0.2499999999999999
 40
0.3749999999999999
 40
0.3749999999999999
 40
0.5
 40
0.5
 40
0.6250000000000001
 40
0.6250000000000001
 40
0.75
 40
0.75
 40
0.875
 40
0.875
 40
1.0
 40
1.0
 40
1.0
 40
1.0
 10
12.0
 20
7.180935049231363
 30
0.0
 10
12.0
 20
6.574169402715041
 30
0.0
 10
12.0
 20
5.872176918468663
 30
0.0
 10
12.0
 20
4.678130629724481
 30
0.0
 10
12.0
 20
4.257093117448091
 30
0.0
 10
12.0
 20
3.378775277728823
 30
0.0
 10
12.0
 20
2.921425554183726
 30
0.0
 10
12.0
 20
1.989816928443758
 30
0.0
 10
12.0
 20
1.515572518990463
 30
0.0
 10
12.0
 20
0.5803033593168425
 30
0.0
 10
12.0
 20
0.1194378582398819
 30
0.0
 10
12.0
 20
-0.7505477058691387
 30
0.0
 10
12.0
 20
-1.159361872560768
 30
0.0
 10
12.0
 20
-1.885389862602997
 30
0.0
 10
12.0
 20
-2.202258827153896
 30
0.0
 10
12.0
 20
-2.457879818124548
 30
0.0
  0
SPLINE
  5
A5
330
1F
100
AcDbEntity
  8
0
  6
Continuous
 62
     4
370
    15
100
AcDbSpline
210
0.0
220
0.0
230
1.0
 70
     8
 71
     3
 72
    12
 73
     8
 74
     0
 42
0.000000001
 43
0.00000001
 40
0.0
 40
0.0
 40
0.0
 40
0.0
 40
0.5
 40
0.5
 40
0.75
 40
0.75
 40
1.0
 40
1.0
 40
1.0
 40
1.0
 10
12.0
 20
-2.457879818128762
 30
0.0
 10
11.57154216214899
 20
-2.049609107828632
 30
0.0
 10
11.13807220630258
 20
-1.628898878813287
 30
0.0
 10
10.49314035874457
 20
-0.9915496072088357
 30
0.0
 10
10.28009238726176
 20
-0.7784150602698066
 30
0.0
 10
9.851511415645643
 20
-0.350085552249408
 30
0.0
 10
9.635996173440262
 20
-0.134892953918683
 30
0.0
 10
9.420317836982306
 20
0.0802661555843637
 30
0.0
  0
SPLINE
  5
A6
330
1F
100
AcDbEntity
  8
0
  6
Continuous
 62
     4
370
    15
100
AcDbSpline
210
0.0
220
0.0
230
1.0
 70
     8
 71
     3
 72
     8
 73
     4
 74
     0
 42
0.000000001
 43
0.00000001
 40
0.0
 40
0.0
 40
0.0
 40
0.0
 40
1.0
 40
1.0
 40
1.0
 40
1.0
 10
12.0
 20
7.180935049231364
 30
0.0
 10
11.88516695631508
 20
7.22996801106845
 30
0.0
 10
11.76997491639439
 20
7.276786838868328
 30
0.0
 10
11.65458640616361
 20
7.321314076125602
 30
0.0
  0
LINE
  5
A7
330
1F
100
AcDbEntity
  8
0
  6
Continuous
 62
     4
370
    15
100
AcDbLine
 10
12.0
 20
7.937500000000014
 30
0.0
 11
12.0
 21
7.180935049231367
 31
0.0
  0
LINE
  5
A8
330
1F
100
AcDbEntity
  8
0
  6
Continuous
 62
     4
370
    15
100
AcDbLine
 10
12.0
 20
-2.457879818124548
 30
0.0
 11
12.0
 21
-6.519385166260903
 31
0.0
  0
SPLINE
  5
A9
330
1F
100
AcDbEntity
  8
0
  6
Continuous
 62
     4
370
    15
100
AcDbSpline
210
0.0
220
0.0
230
1.0
 70
     8
 71
     3
 72
     8
 73
     4
 74
     0
 42
0.000000001
 43
0.00000001
 40
0.0
 40
0.0
 40
0.0
 40
0.0
 40
1.0
 40
1.0
 40
1.0
 40
1.0
 10
12.0
 20
-6.519385166260903
 30
0.0
 10
11.88516695631508
 20
-6.453739710936222
 30
0.0
 10
11.76997491639439
 20
-6.385969439161913
 30
0.0
 10
11.65458640616361
 20
-6.316160725980412
 30
0.0
  0
SPLINE
  5
AA
330
1F
100
AcDbEntity
  8
0
  6
Continuous
 62
     4
370
    15
100
AcDbSpline
210
0.0
220
0.0
230
1.0
 70
     8
 71
     3
 72
    20
 73
    16
 74
     0
 42
0.000000001
 43
0.00000001
 40
0.0
 40
0.0
 40
0.0
 40
0.0
 40
0.125
 40
0.125
 40
0.2499999999999999
 40
0.2499999999999999
 40
0.375
 40
0.375
 40
0.5000000000000001
 40
0.5000000000000001
 40
0.75
 40
0.75
 40
0.875
 40
0.875
 40
1.0
 40
1.0
 40
1.0
 40
1.0
 10
8.949591645039277
 20
-6.946640656296514
 30
0.0
 10
8.949591645039275
 20
-6.870122416434985
 30
0.0
 10
8.970669235883328
 20
-6.791207872881467
 30
0.0
 10
9.057015951965344
 20
-6.62981837263081
 30
0.0
 10
9.121969308240038
 20
-6.549033097015749
 30
0.0
 10
9.290822434691169
 20
-6.396764067011589
 30
0.0
 10
9.39609712276004
 20
-6.324460944654908
 30
0.0
 10
9.634348859110855
 20
-6.200543050783899
 30
0.0
 10
9.770642150599798
 20
-6.147321265064979
 30
0.0
 10
10.20104792726335
 20
-6.029685953057688
 30
0.0
 10
10.52843854224462
 20
-6.005969095289361
 30
0.0
 10
10.98986612737241
 20
-6.063443328331768
 30
0.0
 10
11.13894584364724
 20
-6.097308873800118
 30
0.0
 10
11.41698468134595
 20
-6.190547748654201
 30
0.0
 10
11.54260507164764
 20
-6.248413314671674
 30
0.0
 10
11.65458640616361
 20
-6.316160725980412
 30
0.0
  0
LINE
  5
AB
330
1F
100
AcDbEntity
  8
0
  6
Continuous
 62
     4
370
    15
100
AcDbLine
 10
8.949591645039277
 20
-6.946640656296512
 30
0.0
 11
8.949591645039277
 21
-7.937499999999986
 31
0.0
  0
SPLINE
  5
AC
330
1F
100
AcDbEntity
  8
0
  6
Continuous
 62
     4
370
    15
100
AcDbSpline
210
0.0
220
0.0
230
1.0
 70
     8
 71
     3
 72
    12
 73
     8
 74
     0
 42
0.000000001
 43
0.00000001
 40
0.0
 40
0.0
 40
0.0
 40
0.0
 40
0.2500000000000003
 40
0.2500000000000003
 40
0.5000000000000006
 40
0.5000000000000006
 40
1.0
 40
1.0
 40
1.0
 40
1.0
 10
9.420317836982306
 20
-6.913858246556223
 30
0.0
 10
9.344099678480863
 20
-6.951209675034113
 30
0.0
 10
9.276918898448166
 20
-6.990756430402972
 30
0.0
 10
9.159768043269768
 20
-7.07291391991253
 30
0.0
 10
9.109406219427047
 20
-7.116034225699536
 30
0.0
 10
8.98958067394464
 20
-7.244234580235156
 30
0.0
 10
8.949591645039277
 20
-7.329159734196623
 30
0.0
 10
8.949591645039273
 20
-7.406548573311343
 30
0.0
  0
SPLINE
  5
AD
330
1F
100
AcDbEntity
  8
0
  6
Continuous
 62
     4
370
    15
100
AcDbSpline
210
0.0
220
0.0
230
1.0
 70
     8
 71
     3
 72
     9
 73
     5
 74
     0
 42
0.000000001
 43
0.00000001
 40
0.0
 40
0.0
 40
0.0
 40
0.0
 40
0.1256175431024912
 40
1.0
 40
1.0
 40
1.0
 40
1.0
 10
10.89332378892737
 20
-6.065623310011889
 30
0.0
 10
10.83158431771075
 20
-6.108415126164965
 30
0.0
 10
10.34009666644974
 20
-6.449066719057217
 30
0.0
 10
9.849386338852106
 20
-6.697037204370197
 30
0.0
 10
9.420317836982306
 20
-6.913858246556225
 30
0.0
  0
LINE
  5
AE
330
1F
100
AcDbEntity
  8
0
  6
Continuous
 62
     4
370
    15
100
AcDbLine
 10
-50.99999999999999
 20
7.937500000000007
 30
0.0
 11
-50.99999999999999
 21
-7.937499999999989
 31
0.0
  0
LINE
  5
AF
330
1F
100
AcDbEntity
  8
0
  6
Continuous
 62
     4
370
    15
100
AcDbLine
 10
8.949591645039275
 20
6.799138630719276
 30
0.0
 11
8.949591645039277
 21
1.231390721257762
 31
0.0
  0
LINE
  5
B0
330
1F
100
AcDbEntity
  8
0
  6
Continuous
 62
     4
370
    15
100
AcDbLine
 10
-51.49999999999999
 20
7.437500000000007
 30
0.0
 11
-51.49999999999999
 21
-7.437499999999987
 31
0.0
  0
SPLINE
  5
B1
330
1F
100
AcDbEntity
  8
0
  6
Continuous
 62
     1
370
    15
100
AcDbSpline
210
0.0
220
0.0
230
1.0
 70
     8
 71
     3
 72
    28
 73
    24
 74
     0
 42
0.000000001
 43
0.00000001
 40
0.0
 40
0.0
 40
0.0
 40
0.0
 40
0.048514763088371
 40
0.0969623489671012
 40
0.1454263758995749
 40
0.1939670718284387
 40
0.242445534395358
 40
0.2908895872698292
 40
0.3393829153854128
 40
0.3879160125764885
 40
0.4363709927230077
 40
0.4848244309476015
 40
0.5333550959605791
 40
0.5818518285142849
 40
0.630296212731095
 40
0.6787719272911992
 40
0.727313335887253
 40
0.7757795651150311
 40
0.8242262707899588
 40
0.8727370877838836
 40
0.9212557058083792
 40
0.9697042854249476
 40
1.0
 40
1.0
 40
1.0
 40
1.0
 10
75.5
 20
-7.109119296257978
 30
0.0
 10
75.0373516454844
 20
-7.293784562998057
 30
0.0
 10
74.11269555435017
 20
-7.662859394985566
 30
0.0
 10
72.72737278179615
 20
-7.925772047129664
 30
0.0
 10
71.34157764640496
 20
-7.962745391770765
 30
0.0
 10
69.9534761107858
 20
-7.75348082987295
 30
0.0
 10
68.5672652911919
 20
-7.309185999680452
 30
0.0
 10
67.18205001584094
 20
-6.6419601570295
 30
0.0
 10
65.79539663719466
 20
-5.772827580947598
 30
0.0
 10
64.40752984203333
 20
-4.728804547093032
 30
0.0
 10
63.02199044736111
 20
-3.539686022741312
 30
0.0
 10
61.63649536259637
 20
-2.242722738494627
 30
0.0
 10
60.24870331765
 20
-0.8789559497226422
 30
0.0
 10
58.86194738052716
 20
0.5123843096326858
 30
0.0
 10
57.47672198788922
 20
1.888610086600196
 30
0.0
 10
56.090591790734
 20
3.207269386528332
 30
0.0
 10
54.70246776174752
 20
4.42691611559802
 30
0.0
 10
53.31661143567255
 20
5.51352013917632
 30
0.0
 10
51.93131248354549
 20
6.43143575587838
 30
0.0
 10
50.54413972228101
 20
7.155808528715099
 30
0.0
 10
49.15667619892677
 20
7.652351255087042
 30
0.0
 10
47.94450792911182
 20
7.916454852884116
 30
0.0
 10
47.19407664127118
 20
7.911187023376353
 30
0.0
 10
46.90535918767023
 20
7.909160303080799
 30
0.0
  0
SPLINE
  5
B2
330
1F
100
AcDbEntity
  8
0
  6
Continuous
 62
     1
370
    15
100
AcDbSpline
210
0.0
220
0.0
230
1.0
 70
     8
 71
     3
 72
    19
 73
    15
 74
     0
 42
0.000000001
 43
0.00000001
 40
0.0
 40
0.0
 40
0.0
 40
0.0
 40
0.0464765580494988
 40
0.1347906986635841
 40
0.2231325056629867
 40
0.3113423305175534
 40
0.3995708622931742
 40
0.4879421766603594
 40
0.5762150139095966
 40
0.6644139953607487
 40
0.7483279957265945
 40
0.8323026444697237
 40
0.9161225234003026
 40
1.0
 40
1.0
 40
1.0
 40
1.0
 10
27.70534849483803
 20
-5.930520396255221
 30
0.0
 10
27.46215374018732
 20
-6.09545208091468
 30
0.0
 10
26.75684353077433
 20
-6.573784770339172
 30
0.0
 10
25.58824098756922
 20
-7.15713699053791
 30
0.0
 10
24.20072749150606
 20
-7.665688858362553
 30
0.0
 10
22.81533707548915
 20
-7.932245906933113
 30
0.0
 10
21.42965693327718
 20
-7.959579248195356
 30
0.0
 10
20.04162874260102
 20
-7.744253303507104
 30
0.0
 10
18.65523821727734
 20
-7.293326076942335
 30
0.0
 10
17.29288989019228
 20
-6.631105659103116
 30
0.0
 10
15.95220001463416
 20
-5.790741894638252
 30
0.0
 10
14.63331454816179
 20
-4.805143557932826
 30
0.0
 10
13.31704588761248
 20
-3.690528561472072
 30
0.0
 10
12.43911580774411
 20
-2.868856803584573
 30
0.0
 10
11.99999999999939
 20
-2.457879818128186
 30
0.0
  0
SPLINE
  5
B3
330
1F
100
AcDbEntity
  8
0
  6
Continuous
 62
     4
370
    15
100
AcDbSpline
210
0.0
220
0.0
230
1.0
 70
    24
 71
     3
 72
    20
 73
    16
 74
     0
 42
0.000000001
 43
0.00000001
 40
0.0
 40
0.0
 40
0.0
 40
0.0
 40
0.2500000000000001
 40
0.2500000000000001
 40
0.375
 40
0.375
 40
0.5
 40
0.5
 40
0.6249999999999999
 40
0.6249999999999999
 40
0.75
 40
0.75
 40
0.875
 40
0.875
 40
1.0
 40
1.0
 40
1.0
 40
1.0
 10
12.00000000000001
 20
7.18093504925524
 30
0.0
 10
12.00000000000001
 20
6.57416940273936
 30
0.0
 10
12.00000000000001
 20
5.872176918492979
 30
0.0
 10
12.00000000000001
 20
4.67813062974756
 30
0.0
 10
12.00000000000001
 20
4.257093117470547
 30
0.0
 10
12.00000000000001
 20
3.378775277749563
 30
0.0
 10
12.00000000000001
 20
2.92142555420337
 30
0.0
 10
12.00000000000001
 20
1.989816928460766
 30
0.0
 10
12.00000000000001
 20
1.515572519005933
 30
0.0
 10
12.00000000000001
 20
0.5803033593289673
 30
0.0
 10
12.00000000000001
 20
0.1194378582502091
 30
0.0
 10
12.00000000000001
 20
-0.7505477058623503
 30
0.0
 10
12.00000000000001
 20
-1.159361872555716
 30
0.0
 10
12.00000000000001
 20
-1.885389862600925
 30
0.0
 10
12.00000000000001
 20
-2.202258827153069
 30
0.0
 10
12.00000000000001
 20
-2.457879818124559
 30
0.0
  0
SPLINE
  5
B4
330
1F
100
AcDbEntity
  8
0
  6
Continuous
 62
     1
370
    15
100
AcDbSpline
210
0.0
220
0.0
230
1.0
 70
     8
 71
     3
 72
    23
 73
    19
 74
     0
 42
0.000000001
 43
0.00000001
 40
0.0
 40
0.0
 40
0.0
 40
0.0
 40
0.0614368884280094
 40
0.1228315888728469
 40
0.1843396519996719
 40
0.2458032926219151
 40
0.3104055100770021
 40
0.3750618239428372
 40
0.4397902683489956
 40
0.5044141302318949
 40
0.5690242900452014
 40
0.6337311214875964
 40
0.698417688412069
 40
0.7630228502935624
 40
0.8276581578453452
 40
0.8923911903477655
 40
0.957032545272561
 40
0.9999999999999999
 40
0.9999999999999999
 40
0.9999999999999999
 40
0.9999999999999999
 10
11.99999999999844
 20
7.180935049232032
 30
0.0
 10
12.43911580771384
 20
6.97479294174779
 30
0.0
 10
13.3170458875236
 20
6.562650282121448
 30
0.0
 10
14.63331454851393
 20
5.71000503573165
 30
0.0
 10
15.95220001330925
 20
4.716036850271905
 30
0.0
 10
17.29288989523999
 20
3.568323895353842
 30
0.0
 10
18.65523819735668
 20
2.296588317937796
 30
0.0
 10
20.04162881692726
 20
0.9336083932938738
 30
0.0
 10
21.42965665577389
 20
-0.4564050325250094
 30
0.0
 10
22.81533810914106
 20
-1.834210556633691
 30
0.0
 10
24.20072363214167
 20
-3.156135790654393
 30
0.0
 10
25.5882554131511
 20
-4.380842014100733
 30
0.0
 10
26.97532190088748
 20
-5.472834260793055
 30
0.0
 10
28.36059569028828
 20
-6.39813921789754
 30
0.0
 10
29.74651457136198
 20
-7.131082958322759
 30
0.0
 10
31.13466662711386
 20
-7.636963287985305
 30
0.0
 10
32.36607009996029
 20
-7.911721167880319
 30
0.0
 10
33.13487848189735
 20
-7.910901594604421
 30
0.0
 10
33.44185836069828
 20
-7.91057434465396
 30
0.0
  0
SPLINE
  5
B5
330
1F
100
AcDbEntity
  8
0
  6
Continuous
 62
     1
370
    15
100
AcDbSpline
210
0.0
220
0.0
230
1.0
 70
     8
 71
     3
 72
    24
 73
    20
 74
     0
 42
0.000000001
 43
0.00000001
 40
0.0
 40
0.0
 40
0.0
 40
0.0
 40
0.0295254307541918
 40
0.0901550800100627
 40
0.1508787761683328
 40
0.2115202912611213
 40
0.272122613131015
 40
0.3327904210384174
 40
0.3935006773297114
 40
0.4541143254637899
 40
0.5147299024911822
 40
0.5754432013568087
 40
0.6361067504247557
 40
0.6967086577963458
 40
0.7573536105547419
 40
0.818076415189936
 40
0.8787033094472443
 40
0.9393096364902728
 40
1.0
 40
1.0
 40
1.0
 40
1.0
 10
52.64184001080314
 20
5.930469103124181
 30
0.0
 10
52.86671844095242
 20
6.083876765796179
 30
0.0
 10
53.55337846062943
 20
6.552302788687893
 30
0.0
 10
54.70244956893261
 20
7.1322658937434
 30
0.0
 10
56.09059666142076
 20
7.650109536821641
 30
0.0
 10
57.47672068452701
 20
7.926060424091593
 30
0.0
 10
58.86194773007978
 20
7.963218181321107
 30
0.0
 10
60.24870322386699
 20
7.757293112607297
 30
0.0
 10
61.63649538768825
 20
7.315855791143101
 30
0.0
 10
63.0219904406424
 20
6.65121073514274
 30
0.0
 10
64.40752984383687
 20
5.783935325426683
 30
0.0
 10
65.79539663671154
 20
4.741767589672005
 30
0.0
 10
67.1820500159702
 20
3.554622849447579
 30
0.0
 10
68.56726529115727
 20
2.25884907570088
 30
0.0
 10
69.9534761107951
 20
0.8945685107892805
 30
0.0
 10
71.34157764640247
 20
-0.4961298365093375
 30
0.0
 10
72.72737278179684
 20
-1.870860738715302
 30
0.0
 10
74.11269555435003
 20
-3.198161831709906
 30
0.0
 10
75.03735164548438
 20
-3.993493652639848
 30
0.0
 10
75.50000000000003
 20
-4.391435072996225
 30
0.0
  0
SPLINE
  5
B6
330
1F
100
AcDbEntity
  8
0
  6
Continuous
 62
     1
370
    15
100
AcDbSpline
210
0.0
220
0.0
230
1.0
 70
     8
 71
     3
 72
    11
 73
     7
 74
     0
 42
0.000000001
 43
0.00000001
 40
0.0
 40
0.0
 40
0.0
 40
0.0
 40
0.0774317621653475
 40
0.3069647408377049
 40
0.5433166710979438
 40
1.0
 40
1.0
 40
1.0
 40
1.0
 10
74.43198017779282
 20
-3.455353724851873
 30
0.0
 10
74.39364406848877
 20
-3.461996943277661
 30
0.0
 10
74.24166723717092
 20
-3.488332826194102
 30
0.0
 10
73.93367539122929
 20
-3.598447970142584
 30
0.0
 10
73.39176300989321
 20
-3.835226647546163
 30
0.0
 10
72.96808020304158
 20
-4.103701171679747
 30
0.0
 10
72.68888968268418
 20
-4.280615459640972
 30
0.0
  0
SPLINE
  5
B7
330
1F
100
AcDbEntity
  8
0
  6
Continuous
 62
     1
370
    15
100
AcDbSpline
210
0.0
220
0.0
230
1.0
 70
     8
 71
     3
 72
    10
 73
     6
 74
     0
 42
0.000000001
 43
0.00000001
 40
0.0
 40
0.0
 40
0.0
 40
0.0
 40
0.5
 40
0.5
 40
1.0
 40
1.0
 40
1.0
 40
1.0
 10
75.5
 20
-4.640327385311426
 30
0.0
 10
75.01872807796788
 20
-4.664755845293663
 30
0.0
 10
74.54340198411006
 20
-4.64984528196111
 30
0.0
 10
73.6054424636258
 20
-4.536046428813566
 30
0.0
 10
73.14278355023087
 20
-4.437326765563456
 30
0.0
 10
72.68888968268043
 20
-4.280615459648763
 30
0.0
  0
LINE
  5
B8
330
1F
100
AcDbEntity
  8
0
  6
Continuous
 62
     1
370
    15
100
AcDbLine
 10
75.5
 20
-7.109119296257983
 30
0.0
 11
75.5
 21
-4.640327385311427
 31
0.0
  0
SPLINE
  5
B9
330
1F
100
AcDbEntity
  8
0
  6
Continuous
 62
     1
370
    15
100
AcDbSpline
210
0.0
220
0.0
230
1.0
 70
     8
 71
     3
 72
    16
 73
    12
 74
     0
 42
0.000000001
 43
0.00000001
 40
0.0
 40
0.0
 40
0.0
 40
0.0
 40
0.1158846520926703
 40
0.2316088415328981
 40
0.3473723028498045
 40
0.4633188993488157
 40
0.579116842303248
 40
0.6948325926428116
 40
0.8106660441481564
 40
0.9265944899435703
 40
1.0
 40
1.0
 40
1.0
 40
1.0
 10
75.5
 20
0.4970693683114237
 30
0.0
 10
75.03735164794865
 20
0.9569016684642119
 30
0.0
 10
74.11269556173956
 20
1.875929550194646
 30
0.0
 10
72.72737275228212
 20
3.194646074036174
 30
0.0
 10
71.34157775720358
 20
4.417089699136269
 30
0.0
 10
69.95347569663672
 20
5.503678008483539
 30
0.0
 10
68.56726683410437
 20
6.42332838359811
 30
0.0
 10
67.18204425945558
 20
7.150075385654044
 30
0.0
 10
65.79541815267301
 20
7.648997398484431
 30
0.0
 10
64.5765455864971
 20
7.915325400986339
 30
0.0
 10
63.82140619850959
 20
7.911091072260351
 30
0.0
 10
63.5286357248271
 20
7.909449406567163
 30
0.0
  0
SPLINE
  5
BA
330
1F
100
AcDbEntity
  8
0
  6
Continuous
 62
     1
370
    15
100
AcDbSpline
210
0.0
220
0.0
230
1.0
 70
     8
 71
     3
 72
    30
 73
    26
 74
     0
 42
0.000000001
 43
0.00000001
 40
0.0
 40
0.0
 40
0.0
 40
0.0
 40
0.0234038811309109
 40
0.0685654302336477
 40
0.1137700499033311
 40
0.1590168057881524
 40
0.2041902878724019
 40
0.2493594576440157
 40
0.2945994114394059
 40
0.3398135523446699
 40
0.3849760281167293
 40
0.4301648400032668
 40
0.4754177409054864
 40
0.5206023252568525
 40
0.5657658356838634
 40
0.6109862539089558
 40
0.6562208384442915
 40
0.7013878427739408
 40
0.7465644258051194
 40
0.7918141193083121
 40
0.8370133885371106
 40
0.8821748406048687
 40
0.9251422087420487
 40
0.9681406313056928
 40
1.0
 40
1.0
 40
1.0
 40
1.0
 10
44.32883954126789
 20
-5.930466879767209
 30
0.0
 10
44.08953837616254
 20
-6.092816200492843
 30
0.0
 10
43.38846716284181
 20
-6.568444621327338
 30
0.0
 10
42.226080625806
 20
-7.151381095795214
 30
0.0
 10
40.83948117367068
 20
-7.662302539412027
 30
0.0
 10
39.45156063594881
 20
-7.930728733131467
 30
0.0
 10
38.06597075215468
 20
-7.960539101522532
 30
0.0
 10
36.68051787706326
 20
-7.747158386865186
 30
0.0
 10
35.29280932616648
 20
-7.298590603199946
 30
0.0
 10
33.90594712440121
 20
-6.627747700506289
 30
0.0
 10
32.5207081791274
 20
-5.754843927369262
 30
0.0
 10
31.13465465448535
 20
-4.706683167306132
 30
0.0
 10
29.74651777598457
 20
-3.516677366942723
 30
0.0
 10
28.36059483264621
 20
-2.218216536305495
 30
0.0
 10
26.97532213095385
 20
-0.8521931175721243
 30
0.0
 10
25.58825535149823
 20
0.539001510686839
 30
0.0
 10
24.20072364844728
 20
1.913416796581959
 30
0.0
 10
22.81533810547709
 20
3.230825859596172
 30
0.0
 10
21.4296566541307
 20
4.449772441464144
 30
0.0
 10
20.04162882718585
 20
5.532141693734912
 30
0.0
 10
18.65523815803469
 20
6.446642902707445
 30
0.0
 10
17.29289003913913
 20
7.155249639033276
 30
0.0
 10
15.95219950499216
 20
7.638409300766567
 30
0.0
 10
14.74649171355302
 20
7.905605564146448
 30
0.0
 10
13.98169186241671
 20
7.913332261957271
 30
0.0
 10
13.65619414166858
 20
7.91662073347383
 30
0.0
  0
SPLINE
  5
BB
330
1F
100
AcDbEntity
  8
0
  6
Continuous
 62
     1
370
    15
100
AcDbSpline
210
0.0
220
0.0
230
1.0
 70
     8
 71
     3
 72
    30
 73
    26
 74
     0
 42
0.000000001
 43
0.00000001
 40
0.0
 40
0.0
 40
0.0
 40
0.0
 40
0.0211570843274822
 40
0.0664061305533618
 40
0.1115820673530409
 40
0.1567484255882099
 40
0.2019823630623593
 40
0.247202134428909
 40
0.2923649988114183
 40
0.3375489368168295
 40
0.3828011903958556
 40
0.4279893558759651
 40
0.4731511856183229
 40
0.5183646797548384
 40
0.5636039864122376
 40
0.6087725100583955
 40
0.6539453459555032
 40
0.6991914546050327
 40
0.7443954276421643
 40
0.7895563307284558
 40
0.8347521814843033
 40
0.8800024419705521
 40
0.9251802208767735
 40
0.9703455469012133
 40
1.0
 40
1.0
 40
1.0
 40
1.0
 10
19.3924038194702
 20
5.93052917896119
 30
0.0
 10
19.60869410914803
 20
6.078420584830701
 30
0.0
 10
20.28756842809722
 20
6.54261006641886
 30
0.0
 10
21.42969510462879
 20
7.119727111478592
 30
0.0
 10
22.81532781267227
 20
7.642843880535875
 30
0.0
 10
24.20072641078075
 20
7.923085318172154
 30
0.0
 10
25.58825461108918
 20
7.964789579214732
 30
0.0
 10
26.97532232905473
 20
7.76354748448812
 30
0.0
 10
28.36059477950594
 20
7.32602747828776
 30
0.0
 10
29.74651779048443
 20
6.66530194981922
 30
0.0
 10
31.13465464973131
 20
5.802791880349485
 30
0.0
 10
32.52070818364876
 20
4.762698738031387
 30
0.0
 10
33.90594711106454
 20
3.577522348923674
 30
0.0
 10
35.29280937506637
 20
2.283964663575404
 30
0.0
 10
36.68051769483234
 20
0.9216209378760383
 30
0.0
 10
38.06597143101003
 20
-0.4701624432789345
 30
0.0
 10
39.45155810030973
 20
-1.847622001627308
 30
0.0
 10
40.8394906501617
 20
-3.16733378612489
 30
0.0
 10
42.22604531185565
 20
-4.391700338573169
 30
0.0
 10
43.61125362712685
 20
-5.48281235004326
 30
0.0
 10
44.99754999973718
 20
-6.406165445998097
 30
0.0
 10
46.38561574042055
 20
-7.136432465169886
 30
0.0
 10
47.77136874369891
 20
-7.640806643014908
 30
0.0
 10
48.99750296648364
 20
-7.912847121675038
 30
0.0
 10
49.76287622363346
 20
-7.910926481798105
 30
0.0
 10
50.06622816643769
 20
-7.910165245587341
 30
0.0
  0
SPLINE
  5
BC
330
1F
100
AcDbEntity
  8
0
  6
Continuous
 62
     1
370
    15
100
AcDbSpline
210
0.0
220
0.0
230
1.0
 70
     8
 71
     3
 72
    12
 73
     8
 74
     0
 42
0.000000001
 43
0.00000001
 40
0.0
 40
0.0
 40
0.0
 40
0.0
 40
0.1103448261007935
 40
0.3329830340744538
 40
0.5552695897358263
 40
0.7774807363682882
 40
1.0
 40
1.0
 40
1.0
 40
1.0
 10
69.26528103599848
 20
5.930440599511192
 30
0.0
 10
69.49454151964989
 20
6.08654020567979
 30
0.0
 10
70.1863714326346
 20
6.557595553869545
 30
0.0
 10
71.34161461034614
 20
7.138415491110627
 30
0.0
 10
72.7273629355113
 20
7.651074333260451
 30
0.0
 10
74.11269801955535
 20
7.938426659667297
 30
0.0
 10
75.03735246759895
 20
7.92742525733766
 30
0.0
 10
75.50000000000003
 20
7.921920745190957
 30
0.0
  0
LINE
  5
BD
330
1F
100
AcDbEntity
  8
0
  6
Continuous
 62
     1
370
    15
100
AcDbLine
 10
75.5
 20
5.139562718984688
 30
0.0
 11
75.5
 21
7.921920745190964
 31
0.0
  0
SPLINE
  5
BE
330
1F
100
AcDbEntity
  8
0
  6
Continuous
 62
     1
370
    15
100
AcDbSpline
210
0.0
220
0.0
230
1.0
 70
     8
 71
     3
 72
    14
 73
    10
 74
     0
 42
0.000000001
 43
0.00000001
 40
0.0
 40
0.0
 40
0.0
 40
0.0
 40
0.1457554362401978
 40
0.2950433729197606
 40
0.4178170720155062
 40
0.5440466503663123
 40
0.6668819490685501
 40
0.7933664312562215
 40
1.0
 40
1.0
 40
1.0
 40
1.0
 10
75.5
 20
5.139562718986267
 30
0.0
 10
75.42875492091964
 20
4.957338210281061
 30
0.0
 10
75.28453808086186
 20
4.58847283507523
 30
0.0
 10
75.00011497190174
 20
4.121395422129826
 30
0.0
 10
74.67491994757393
 20
3.736904206160839
 30
0.0
 10
74.32489645445094
 20
3.445163638278987
 30
0.0
 10
73.9353867336164
 20
3.232331336626373
 30
0.0
 10
73.43271358225604
 20
3.064047418004924
 30
0.0
 10
73.05283184293913
 20
3.082197707248149
 30
0.0
 10
72.81719069627609
 20
3.093456355734992
 30
0.0
  0
SPLINE
  5
BF
330
1F
100
AcDbEntity
  8
0
  6
Continuous
 62
     1
370
    15
100
AcDbSpline
210
0.0
220
0.0
230
1.0
 70
     8
 71
     3
 72
     9
 73
     5
 74
     0
 42
0.000000001
 43
0.00000001
 40
0.0
 40
0.0
 40
0.0
 40
0.0
 40
0.6406622970666572
 40
1.0
 40
1.0
 40
1.0
 40
1.0
 10
75.5
 20
1.531147021911067
 30
0.0
 10
74.95079939989606
 20
1.868752260305012
 30
0.0
 10
74.09356056655359
 20
2.39571512348536
 30
0.0
 10
73.26921324736384
 20
2.800434382507581
 30
0.0
 10
72.97299417526693
 20
2.94586527137751
 30
0.0
  0
LINE
  5
C0
330
1F
100
AcDbEntity
  8
0
  6
Continuous
 62
     1
370
    15
100
AcDbLine
 10
75.5
 20
0.4970693683114196
 30
0.0
 11
75.5
 21
1.531147021911067
 31
0.0
  0
SPLINE
  5
C1
330
1F
100
AcDbEntity
  8
0
  6
Continuous
 62
     1
370
    15
100
AcDbSpline
210
0.0
220
0.0
230
1.0
 70
     8
 71
     3
 72
    30
 73
    26
 74
     0
 42
0.000000001
 43
0.00000001
 40
0.0
 40
0.0
 40
0.0
 40
0.0
 40
0.0229885145280203
 40
0.0681989440900445
 40
0.1133605726159311
 40
0.1585514084348468
 40
0.2038034866391471
 40
0.2489854798840082
 40
0.2941492725581411
 40
0.3393728321509717
 40
0.3846036641500978
 40
0.4297692037812336
 40
0.4749471963530461
 40
0.5201976708476831
 40
0.5653937353545915
 40
0.6105548520266606
 40
0.655759038853267
 40
0.701005361491549
 40
0.74617841103087
 40
0.7913471482988467
 40
0.8365866689128287
 40
0.881800376883848
 40
0.9269624202163667
 40
0.97215079941119
 40
1.0
 40
1.0
 40
1.0
 40
1.0
 10
60.95400379425764
 20
-5.930420917621286
 30
0.0
 10
60.71883997227551
 20
-6.090053803001198
 30
0.0
 10
60.02119052964568
 20
-6.563629170895776
 30
0.0
 10
58.86193170137251
 20
-7.145194442345333
 30
0.0
 10
57.47672620112376
 20
-7.658622680379365
 30
0.0
 10
56.09059061830029
 20
-7.929416574841544
 30
0.0
 10
54.70246823031702
 20
-7.96140328500244
 30
0.0
 10
53.31661073387727
 20
-7.750465779924859
 30
0.0
 10
51.93131482322332
 20
-7.303619113652676
 30
0.0
 10
50.54413105208319
 20
-6.634802277973367
 30
0.0
 10
49.15670852107977
 20
-5.764350175108612
 30
0.0
 10
47.77135577743476
 20
-4.717706633214874
 30
0.0
 10
46.38561922149111
 20
-3.527331216998397
 30
0.0
 10
44.99754906753017
 20
-2.231179779709491
 30
0.0
 10
43.61125387675634
 20
-0.865825796244886
 30
0.0
 10
42.22604524419019
 20
0.5260446244930597
 30
0.0
 10
40.83949067104876
 20
1.901569446503902
 30
0.0
 10
39.45155808453126
 20
3.218198763215458
 30
0.0
 10
38.06597147318324
 20
4.438344337412901
 30
0.0
 10
36.68051754179998
 20
5.523462106528434
 30
0.0
 10
35.29280994585595
 20
6.438776162645332
 30
0.0
 10
33.90594498365979
 20
7.161467632403832
 30
0.0
 10
32.52071611512198
 20
7.656106806450558
 30
0.0
 10
31.31251586240803
 20
7.917560021390069
 30
0.0
 10
30.56521777280228
 20
7.911239647534135
 30
0.0
 10
30.28027330368491
 20
7.908829691456298
 30
0.0
  0
SPLINE
  5
C2
330
1F
100
AcDbEntity
  8
0
  6
Continuous
 62
     1
370
    15
100
AcDbSpline
210
0.0
220
0.0
230
1.0
 70
     8
 71
     3
 72
    11
 73
     7
 74
     0
 42
0.000000001
 43
0.00000001
 40
0.0
 40
0.0
 40
0.0
 40
0.0
 40
0.2733813488272607
 40
0.5465749699222271
 40
0.8202730313249853
 40
1.0
 40
1.0
 40
1.0
 40
1.0
 10
11.99999999999845
 20
-6.519385166260017
 30
0.0
 10
12.43911770738802
 20
-6.753001463631824
 30
0.0
 10
13.31705158524167
 20
-7.22007363683271
 30
0.0
 10
14.63329175838001
 20
-7.666899595876126
 30
0.0
 10
15.80152043617613
 20
-7.915335922717286
 30
0.0
 10
16.52977061261553
 20
-7.913572657144372
 30
0.0
 10
16.81843177590871
 20
-7.912873740332622
 30
0.0
  0
SPLINE
  5
C3
330
1F
100
AcDbEntity
  8
0
  6
Continuous
 62
     1
370
    15
100
AcDbSpline
210
0.0
220
0.0
230
1.0
 70
     8
 71
     3
 72
    30
 73
    26
 74
     0
 42
0.000000001
 43
0.00000001
 40
0.0
 40
0.0
 40
0.0
 40
0.0
 40
0.021615834432293
 40
0.0667844820547153
 40
0.1119574419399234
 40
0.1572036747786688
 40
0.2024077718893645
 40
0.2475687989310039
 40
0.2927647737381221
 40
0.3380151584249825
 40
0.3831930613328718
 40
0.4283585113247993
 40
0.4735892535551327
 40
0.5188127233936035
 40
0.5639764264319957
 40
0.6091583300049936
 40
0.6544103183983342
 40
0.6996010645278371
 40
0.744762603422278
 40
0.7899729432560019
 40
0.8352149161077518
 40
0.8803848954629658
 40
0.9255563122513959
 40
0.9708005524641119
 40
1.0
 40
1.0
 40
1.0
 40
1.0
 10
36.01761102750833
 20
5.930461002568701
 30
0.0
 10
36.23874778461174
 20
6.081247022465616
 30
0.0
 10
36.92197395534642
 20
6.547116904632323
 30
0.0
 10
38.06595244276247
 20
7.126080179830539
 30
0.0
 10
39.45156319330134
 20
7.646733228199839
 30
0.0
 10
40.83948930259913
 20
7.924501597808979
 30
0.0
 10
42.2260456103236
 20
7.964046462291456
 30
0.0
 10
43.61125377860241
 20
7.760390606752372
 30
0.0
 10
44.99754909390327
 20
7.320640583113795
 30
0.0
 10
46.3856192143305
 20
6.658770134641404
 30
0.0
 10
47.77135577973486
 20
5.793450974575817
 30
0.0
 10
49.15670851903126
 20
4.751641125292275
 30
0.0
 10
50.54413105798325
 20
3.566149771426892
 30
0.0
 10
51.93131480169116
 20
2.272035846812745
 30
0.0
 10
53.31661081400639
 20
0.9079251929176908
 30
0.0
 10
54.70246793096129
 20
-0.4838569613701407
 30
0.0
 10
56.09059173677969
 20
-1.859234156854942
 30
0.0
 10
57.47672203454915
 20
-3.179590797154699
 30
0.0
 10
58.86194724779125
 20
-4.403120018255521
 30
0.0
 10
60.24870380266823
 20
-5.492388578381247
 30
0.0
 10
61.63649355533187
 20
-6.413318724399048
 30
0.0
 10
63.02199717933896
 20
-7.142637524418084
 30
0.0
 10
64.40750469886615
 20
-7.644586437548139
 30
0.0
 10
65.63166502764874
 20
-7.913938264224401
 30
0.0
 10
66.39277815960216
 20
-7.910983144783478
 30
0.0
 10
66.69131365183085
 20
-7.909824042411105
 30
0.0
  0
LINE
  5
C4
330
1F
100
AcDbEntity
  8
0
  6
Continuous
 62
     1
370
    15
100
AcDbLine
 10
75.5
 20
7.921920745190964
 30
0.0
 11
75.5
 21
7.937500000000021
 31
0.0
  0
LINE
  5
C5
330
1F
100
AcDbEntity
  8
0
  6
Continuous
 62
     4
370
    15
100
AcDbLine
 10
12.00000000000001
 20
7.180935049255245
 30
0.0
 11
12.00000000000001
 21
7.937500000000021
 31
0.0
  0
LINE
  5
C6
330
1F
100
AcDbEntity
  8
0
  6
Continuous
 62
     1
370
    15
100
AcDbLine
 10
75.5
 20
-4.391435072996228
 30
0.0
 11
75.5
 21
0.4970693683114196
 31
0.0
  0
LINE
  5
C7
330
1F
100
AcDbEntity
  8
0
  6
Continuous
 62
     1
370
    15
100
AcDbLine
 10
75.5
 20
1.531147021911067
 30
0.0
 11
75.5
 21
5.139562718984688
 31
0.0
  0
LINE
  5
C8
330
1F
100
AcDbEntity
  8
0
  6
Continuous
 62
     1
370
    15
100
AcDbLine
 10
75.5
 20
-4.391435072996229
 30
0.0
 11
75.5
 21
-4.640327385311427
 31
0.0
  0
LINE
  5
C9
330
1F
100
AcDbEntity
  8
중심선
100
AcDbLine
 10
-54.0
 20
-0.0000000000000015
 30
0.0
 11
17.46254243902305
 21
-0.0000000000000018
 31
0.0
  0
CIRCLE
  5
CA
330
1F
100
AcDbEntity
  8
외형선
100
AcDbCircle
 10
0.0
 20
0.0
 30
0.0
 40
3.000000000000008
  0
INSERT
  5
CB
330
1F
100
AcDbEntity
  8
0
  6
Continuous
 62
     7
100
AcDbBlockReference
 66
     1
  2
블럭10
 10
-6.499864955544638
 20
-39.04202311342432
 30
0.0
  0
ATTRIB
  5
CC
330
CB
100
AcDbEntity
  8
FORMAT
 62
     2
100
AcDbText
 10
-15.68116024428592
 20
-36.96665620059213
 30
0.0
 40
4.233333333333333
  1
E5982040 [ 3 FLUTE ]
 41
0.75
  7
SLDTEXTSTYLE0
 11
-15.68116024428592
 21
-39.0833228672588
 31
0.0
100
AcDbAttribute
  2
AUTOATTR0
 70
     0
 74
     1
  0
SEQEND
  5
CD
330
CB
100
AcDbEntity
  8
0
  6
Continuous
 62
     7
  0
HATCH
  5
CE
330
1F
100
AcDbEntity
  8
중심선
100
AcDbHatch
 10
0.0
 20
0.0
 30
0.0
210
0.0
220
0.0
230
1.0
  2
SOLID
 70
     1
 71
     0
 91
        1
 92
        0
 93
        4
 72
     1
 10
-0.7849556511637861
 20
-22.79484881178038
 11
-4.231230895001069
 21
-22.79484881178038
 72
     1
 10
-4.231230895001069
 20
-22.79484881178038
 11
-6.359460754205092
 21
-25.33117439235298
 72
     1
 10
-6.359460754205092
 20
-25.33117439235298
 11
-2.913152425254658
 21
-25.33113496305049
 72
     1
 10
-2.913152425254658
 20
-25.33113496305049
 11
-0.7849556511637861
 21
-22.79484881178038
 97
        0
 75
     0
 76
     1
 98
        1
 10
13.27499451490189
 20
13.00407625949572
  0
HATCH
  5
CF
330
1F
100
AcDbEntity
  8
중심선
100
AcDbHatch
 10
0.0
 20
0.0
 30
0.0
210
0.0
220
0.0
230
1.0
  2
SOLID
 70
     1
 71
     0
 91
        1
 92
        0
 93
        4
 72
     1
 10
4.227808339872166
 20
-22.79484881178038
 11
0.7815330960348827
 21
-22.79484881178038
 72
     1
 10
0.7815330960348827
 20
-22.79484881178038
 11
-3.749604912322503
 21
-28.1948488117804
 72
     1
 10
-3.749604912322503
 20
-28.1948488117804
 11
-0.3033296684852225
 21
-28.1948488117804
 72
     1
 10
-0.3033296684852225
 20
-28.1948488117804
 11
4.227808339872166
 21
-22.79484881178038
 97
        0
 75
     0
 76
     1
 98
        1
 10
13.27499451490189
 20
13.00407625949572
  0
HATCH
  5
D0
330
1F
100
AcDbEntity
  8
중심선
100
AcDbHatch
 10
0.0
 20
0.0
 30
0.0
210
0.0
220
0.0
230
1.0
  2
SOLID
 70
     1
 71
     0
 91
        1
 92
        0
 93
        4
 72
     1
 10
9.240572330908062
 20
-22.79484881178041
 11
5.794297087070946
 21
-22.79484881178038
 72
     1
 10
5.794297087070945
 20
-22.79484881178038
 11
-1.254139814818304
 21
-31.1948488117804
 72
     1
 10
-1.254139814818304
 20
-31.1948488117804
 11
2.192135429018979
 21
-31.1948488117804
 72
     1
 10
2.192135429018979
 20
-31.1948488117804
 11
9.240572330908062
 21
-22.79484881178041
 97
        0
 75
     0
 76
     1
 98
        1
 10
13.27499451490189
 20
13.00407625949572
  0
HATCH
  5
D1
330
1F
100
AcDbEntity
  8
중심선
100
AcDbHatch
 10
0.0
 20
0.0
 30
0.0
210
0.0
220
0.0
230
1.0
  2
SOLID
 70
     1
 71
     0
 91
        1
 92
        0
 93
        6
 72
     3
 10
14.04046276192026
 20
-26.99484881183166
 11
3.960054785062283
 21
1.540882976769353E-10
 40
0.3939339440162628
 50
17.09539180608437
 51
320.0019657685081
 73
     0
 72
     1
 10
15.72346241762086
 20
-25.58274281641869
 11
18.0287642913219
 21
-23.64841610637077
 72
     3
 10
14.04046276186741
 20
-26.99484881178054
 11
6.600054785286829
 21
-1.278976924368180E-13
 40
0.636358354079598
 50
39.99873849337411
 51
368.4976242363725
 73
     1
 72
     1
 10
20.46579525376802
 20
-26.03484881171041
 11
12.72053006870333
 21
-26.03484881171038
 72
     1
 10
12.72053006870334
 20
-26.03484881171038
 11
12.7205050242574
 21
-27.9548488117103
 72
     1
 10
12.7205050242574
 20
-27.9548488117103
 11
17.16188479372944
 21
-27.95484881171027
 97
        0
 75
     0
 76
     1
 98
        1
 10
13.27499451490189
 20
13.00407625949572
  0
POINT
  5
D2
330
1F
100
AcDbEntity
  8
치수문자_일반주서
100
AcDbPoint
 10
-51.5
 20
-0.0000000000000018
 30
0.0
  0
DIMENSION
  5
DE
330
1F
100
AcDbEntity
  8
치수문자_일반주서
100
AcDbDimension
  2
_D_1
 10
12.0
 20
28.55091845233053
 30
0.0
 11
43.75000000000001
 21
28.55091845233053
 31
0.0
 70
   160
  1
<>
 71
     2
 42
63.5
  3
SLDDIMSTYLE1
100
AcDbAlignedDimension
 13
75.5
 23
7.937500000000021
 33
0.0
 14
12.0
 24
7.937500000000014
 34
0.0
 50
-0.0000000000000128
100
AcDbRotatedDimension
1001
ACAD
1000
DSTYLE
1002
{
1070
   171
1070
     6
1070
   273
1070
     5
1002
}
  0
DIMENSION
  5
F2
330
1F
100
AcDbEntity
  8
치수문자_일반주서
100
AcDbDimension
  2
_D_2
 10
-51.49999999999999
 20
46.57360365728746
 30
0.0
 11
12.00000000000001
 21
46.57360365728746
 31
0.0
 70
   160
  1
<>
 71
     2
 42
127.0
  3
SLDDIMSTYLE2
100
AcDbAlignedDimension
 13
75.5
 23
7.937500000000021
 33
0.0
 14
-51.49999999999999
 24
7.437500000000007
 34
0.0
 50
0.0000000000000064
100
AcDbRotatedDimension
1001
ACAD
1000
DSTYLE
1002
{
1070
   171
1070
     6
1070
   273
1070
     5
1002
}
  0
DIMENSION
  5
106
330
1F
100
AcDbEntity
  8
치수문자_일반주서
100
AcDbDimension
  2
_D_3
 10
-63.99999999999993
 20
-7.937500000000043
 30
0.0
 11
-64.00000000000006
 21
28.76024999999996
 31
0.0
 70
   160
  1
%%c<>
 71
     2
 42
15.875
 52
-270.0
  3
SLDDIMSTYLE3
100
AcDbAlignedDimension
 13
-50.99999999999999
 23
7.937500000000011
 33
0.0
 14
-50.99999999999999
 24
-7.937499999999989
 34
0.0
 50
90.0000000000002
100
AcDbRotatedDimension
1001
ACAD
1000
DSTYLE
1002
{
1070
   171
1070
     6
1070
   273
1070
     5
1002
}
  0
INSERT
  5
121
330
1F
100
AcDbEntity
  8
외형선
100
AcDbBlockReference
  2
SW_DOWELSYMBOL_0
 10
0.0
 20
0.0
 30
0.0
  0
DIMENSION
  5
149
102
{ACAD_REACTORS
102
}
102
{ACAD_XDICTIONARY
360
14A
102
}
330
1F
100
AcDbEntity
  8
치수문자_일반주서
100
AcDbDimension
  2
*D7
 10
84.35611712265585
 20
7.93750000000002
 30
0.0
 11
81.73111712265585
 21
28.54150000000002
 31
0.0
 70
    32
  1
{Ø<>[]}
 71
     5
 42
15.87500000000001
  3
SLDDIMSTYLE3
100
AcDbAlignedDimension
 13
75.5
 23
-7.937499999999986
 33
0.0
 14
75.5
 24
7.937500000000021
 34
0.0
 50
90.0
100
AcDbRotatedDimension
1001
ACAD
1000
DSTYLE
1002
{
1070
   283
1070
     1
1070
   170
1070
     1
1070
   171
1070
     6
1070
   273
1070
     5
1002
}
  0
ENDSEC
  0
SECTION
  2
OBJECTS
  0
DICTIONARY
  5
C
330
0
100
AcDbDictionary
281
     1
  3
ACAD_GROUP
350
D
  3
ACAD_IMAGE_VARS
350
145
  3
ACAD_LAYOUT
350
1A
  3
ACAD_MLINESTYLE
350
17
  3
ACAD_PLOTSETTINGS
350
19
  3
ACAD_PLOTSTYLENAME
350
E
  3
ACAD_SCALELIST
350
47
  3
APPDATA
350
143
  3
DWGPROPS
350
15E
  0
DICTIONARY
  5
14A
330
149
100
AcDbDictionary
280
     1
281
     1
  0
DICTIONARY
  5
D
102
{ACAD_REACTORS
330
C
102
}
330
C
100
AcDbDictionary
281
     1
  0
RASTERVARIABLES
  5
145
102
{ACAD_REACTORS
330
C
102
}
330
C
100
AcDbRasterVariables
 90
        0
 70
     1
 71
     1
 72
     1
  0
DICTIONARY
  5
1A
102
{ACAD_REACTORS
330
C
102
}
330
C
100
AcDbDictionary
281
     1
  3
Layout1
350
1E
  3
Layout2
350
26
  3
Model
350
22
  0
DICTIONARY
  5
17
102
{ACAD_REACTORS
330
C
102
}
330
C
100
AcDbDictionary
281
     1
  3
Standard
350
18
  0
DICTIONARY
  5
19
102
{ACAD_REACTORS
330
C
102
}
330
C
100
AcDbDictionary
281
     1
  0
ACDBDICTIONARYWDFLT
  5
E
102
{ACAD_REACTORS
330
C
102
}
330
C
100
AcDbDictionary
281
     1
  3
Normal
350
F
100
AcDbDictionaryWithDefault
340
F
  0
DICTIONARY
  5
47
102
{ACAD_REACTORS
330
C
102
}
330
C
100
AcDbDictionary
281
     1
  3
A0
350
48
  3
A1
350
49
  3
A2
350
4A
  3
A3
350
4B
  3
A4
350
4C
  3
A5
350
4D
  3
A6
350
4E
  3
A7
350
4F
  3
A8
350
50
  3
A9
350
51
  3
B0
350
52
  3
B1
350
53
  3
B2
350
54
  3
B3
350
55
  3
B4
350
56
  3
B5
350
57
  3
B6
350
58
  3
B7
350
59
  3
B8
350
5A
  3
B9
350
5B
  3
C0
350
5C
  3
C1
350
5D
  3
C2
350
5E
  3
C3
350
5F
  3
C4
350
60
  3
C5
350
61
  3
C6
350
62
  3
C7
350
63
  3
C8
350
64
  3
C9
350
65
  3
D0
350
66
  3
D1
350
67
  3
D2
350
68
  0
DICTIONARY
  5
143
102
{ACAD_REACTORS
330
C
102
}
330
C
100
AcDbDictionary
281
     1
  0
XRECORD
  5
15E
102
{ACAD_REACTORS
330
C
102
}
330
C
100
AcDbXrecord
280
     1
  1
DWGPROPS COOKIE
  2

  3

  4

  6

  7

  8
12014074
  9

300
=
301
=
302
=
303
=
304
=
305
=
306
=
307
=
308
=
309
=
 40
0.0
 41
2458269.021909942
 42
2458269.460329456
  1

 90
        0
  0
LAYOUT
  5
1E
102
{ACAD_REACTORS
330
1A
102
}
330
1A
100
AcDbPlotSettings
  1

  2
none_device
  4

  6

 40
0.0
 41
0.0
 42
0.0
 43
0.0
 44
0.0
 45
0.0
 46
0.0
 47
0.0
 48
0.0
 49
0.0
140
0.0
141
0.0
142
1.0
143
1.0
 70
   688
 72
     1
 73
     0
 74
     5
  7

 75
    16
147
1.0
148
0.0
149
0.0
100
AcDbLayout
  1
Layout1
 70
     1
 71
     1
 10
0.0
 20
0.0
 11
420.0
 21
297.0
 12
0.0
 22
0.0
 32
0.0
 14
1.000000000000000E+20
 24
1.000000000000000E+20
 34
1.000000000000000E+20
 15
-1.000000000000000E+20
 25
-1.000000000000000E+20
 35
-1.000000000000000E+20
146
0.0
 13
0.0
 23
0.0
 33
0.0
 16
1.0
 26
0.0
 36
0.0
 17
0.0
 27
1.0
 37
0.0
 76
     0
330
1B
  0
LAYOUT
  5
26
102
{ACAD_REACTORS
330
1A
102
}
330
1A
100
AcDbPlotSettings
  1

  2
none_device
  4

  6

 40
0.0
 41
0.0
 42
0.0
 43
0.0
 44
0.0
 45
0.0
 46
0.0
 47
0.0
 48
0.0
 49
0.0
140
0.0
141
0.0
142
1.0
143
1.0
 70
   688
 72
     1
 73
     0
 74
     5
  7

 75
    16
147
1.0
148
0.0
149
0.0
100
AcDbLayout
  1
Layout2
 70
     1
 71
     2
 10
0.0
 20
0.0
 11
0.0
 21
0.0
 12
0.0
 22
0.0
 32
0.0
 14
0.0
 24
0.0
 34
0.0
 15
0.0
 25
0.0
 35
0.0
146
0.0
 13
0.0
 23
0.0
 33
0.0
 16
1.0
 26
0.0
 36
0.0
 17
0.0
 27
1.0
 37
0.0
 76
     0
330
23
  0
LAYOUT
  5
22
102
{ACAD_REACTORS
330
1A
102
}
330
1A
100
AcDbPlotSettings
  1

  2
none_device
  4
ANSI_A_(11.00_x_8.50_Inches)
  6

 40
6.35
 41
19.05
 42
6.35000508
 43
19.05000254
 44
279.4
 45
215.9
 46
136.380183685548
 47
82.76199356268944
 48
0.0
 49
0.0
140
0.0
141
0.0
142
0.0724585214925556
143
1.0
 70
  1696
 72
     0
 73
     0
 74
     0
  7

 75
     0
147
0.0235690232323232
148
0.0
149
0.0
100
AcDbLayout
  1
Model
 70
     1
 71
     0
 10
0.0
 20
0.0
 11
420.0
 21
297.0
 12
0.0
 22
0.0
 32
0.0
 14
-68.37500000000011
 24
-36.96665620059213
 34
0.0
 15
84.90645045598917
 25
50.94860365728746
 35
0.0
146
0.0
 13
0.0
 23
0.0
 33
0.0
 16
1.0
 26
0.0
 36
0.0
 17
0.0
 27
1.0
 37
0.0
 76
     0
330
1F
331
29
  0
MLINESTYLE
  5
18
102
{ACAD_REACTORS
330
17
102
}
330
17
100
AcDbMlineStyle
  2
Standard
 70
     0
  3

 62
   256
 51
90.0
 52
90.0
 71
     2
 49
0.5
 62
   256
  6
BYLAYER
 49
-0.5
 62
   256
  6
BYLAYER
  0
ACDBPLACEHOLDER
  5
F
102
{ACAD_REACTORS
330
E
102
}
330
E
  0
SCALE
  5
48
102
{ACAD_REACTORS
330
47
102
}
330
47
100
AcDbScale
 70
     0
300
1:1
140
1.0
141
1.0
290
     1
  0
SCALE
  5
49
102
{ACAD_REACTORS
330
47
102
}
330
47
100
AcDbScale
 70
     0
300
1:2
140
1.0
141
2.0
290
     0
  0
SCALE
  5
4A
102
{ACAD_REACTORS
330
47
102
}
330
47
100
AcDbScale
 70
     0
300
1:4
140
1.0
141
4.0
290
     0
  0
SCALE
  5
4B
102
{ACAD_REACTORS
330
47
102
}
330
47
100
AcDbScale
 70
     0
300
1:5
140
1.0
141
5.0
290
     0
  0
SCALE
  5
4C
102
{ACAD_REACTORS
330
47
102
}
330
47
100
AcDbScale
 70
     0
300
1:8
140
1.0
141
8.0
290
     0
  0
SCALE
  5
4D
102
{ACAD_REACTORS
330
47
102
}
330
47
100
AcDbScale
 70
     0
300
1:10
140
1.0
141
10.0
290
     0
  0
SCALE
  5
4E
102
{ACAD_REACTORS
330
47
102
}
330
47
100
AcDbScale
 70
     0
300
1:16
140
1.0
141
16.0
290
     0
  0
SCALE
  5
4F
102
{ACAD_REACTORS
330
47
102
}
330
47
100
AcDbScale
 70
     0
300
1:20
140
1.0
141
20.0
290
     0
  0
SCALE
  5
50
102
{ACAD_REACTORS
330
47
102
}
330
47
100
AcDbScale
 70
     0
300
1:30
140
1.0
141
30.0
290
     0
  0
SCALE
  5
51
102
{ACAD_REACTORS
330
47
102
}
330
47
100
AcDbScale
 70
     0
300
1:40
140
1.0
141
40.0
290
     0
  0
SCALE
  5
52
102
{ACAD_REACTORS
330
47
102
}
330
47
100
AcDbScale
 70
     0
300
1:50
140
1.0
141
50.0
290
     0
  0
SCALE
  5
53
102
{ACAD_REACTORS
330
47
102
}
330
47
100
AcDbScale
 70
     0
300
1:100
140
1.0
141
100.0
290
     0
  0
SCALE
  5
54
102
{ACAD_REACTORS
330
47
102
}
330
47
100
AcDbScale
 70
     0
300
2:1
140
2.0
141
1.0
290
     0
  0
SCALE
  5
55
102
{ACAD_REACTORS
330
47
102
}
330
47
100
AcDbScale
 70
     0
300
4:1
140
4.0
141
1.0
290
     0
  0
SCALE
  5
56
102
{ACAD_REACTORS
330
47
102
}
330
47
100
AcDbScale
 70
     0
300
8:1
140
8.0
141
1.0
290
     0
  0
SCALE
  5
57
102
{ACAD_REACTORS
330
47
102
}
330
47
100
AcDbScale
 70
     0
300
10:1
140
10.0
141
1.0
290
     0
  0
SCALE
  5
58
102
{ACAD_REACTORS
330
47
102
}
330
47
100
AcDbScale
 70
     0
300
100:1
140
100.0
141
1.0
290
     0
  0
SCALE
  5
59
102
{ACAD_REACTORS
330
47
102
}
330
47
100
AcDbScale
 70
     0
300
1/128" = 1'-0"
140
0.0078125
141
12.0
290
     0
  0
SCALE
  5
5A
102
{ACAD_REACTORS
330
47
102
}
330
47
100
AcDbScale
 70
     0
300
1/64" = 1'-0"
140
0.015625
141
12.0
290
     0
  0
SCALE
  5
5B
102
{ACAD_REACTORS
330
47
102
}
330
47
100
AcDbScale
 70
     0
300
1/32" = 1'-0"
140
0.03125
141
12.0
290
     0
  0
SCALE
  5
5C
102
{ACAD_REACTORS
330
47
102
}
330
47
100
AcDbScale
 70
     0
300
1/16" = 1'-0"
140
0.0625
141
12.0
290
     0
  0
SCALE
  5
5D
102
{ACAD_REACTORS
330
47
102
}
330
47
100
AcDbScale
 70
     0
300
3/32" = 1'-0"
140
0.09375
141
12.0
290
     0
  0
SCALE
  5
5E
102
{ACAD_REACTORS
330
47
102
}
330
47
100
AcDbScale
 70
     0
300
1/8" = 1'-0"
140
0.125
141
12.0
290
     0
  0
SCALE
  5
5F
102
{ACAD_REACTORS
330
47
102
}
330
47
100
AcDbScale
 70
     0
300
3/16" = 1'-0"
140
0.1875
141
12.0
290
     0
  0
SCALE
  5
60
102
{ACAD_REACTORS
330
47
102
}
330
47
100
AcDbScale
 70
     0
300
1/4" = 1'-0"
140
0.25
141
12.0
290
     0
  0
SCALE
  5
61
102
{ACAD_REACTORS
330
47
102
}
330
47
100
AcDbScale
 70
     0
300
3/8" = 1'-0"
140
0.375
141
12.0
290
     0
  0
SCALE
  5
62
102
{ACAD_REACTORS
330
47
102
}
330
47
100
AcDbScale
 70
     0
300
1/2" = 1'-0"
140
0.5
141
12.0
290
     0
  0
SCALE
  5
63
102
{ACAD_REACTORS
330
47
102
}
330
47
100
AcDbScale
 70
     0
300
3/4" = 1'-0"
140
0.75
141
12.0
290
     0
  0
SCALE
  5
64
102
{ACAD_REACTORS
330
47
102
}
330
47
100
AcDbScale
 70
     0
300
1" = 1'-0"
140
1.0
141
12.0
290
     0
  0
SCALE
  5
65
102
{ACAD_REACTORS
330
47
102
}
330
47
100
AcDbScale
 70
     0
300
1-1/2" = 1'-0"
140
1.5
141
12.0
290
     0
  0
SCALE
  5
66
102
{ACAD_REACTORS
330
47
102
}
330
47
100
AcDbScale
 70
     0
300
3" = 1'-0"
140
3.0
141
12.0
290
     0
  0
SCALE
  5
67
102
{ACAD_REACTORS
330
47
102
}
330
47
100
AcDbScale
 70
     0
300
6" = 1'-0"
140
6.0
141
12.0
290
     0
  0
SCALE
  5
68
102
{ACAD_REACTORS
330
47
102
}
330
47
100
AcDbScale
 70
     0
300
1'-0" = 1'-0"
140
12.0
141
12.0
290
     0
  0
ENDSEC
  0
EOF
