  0
SECTION
  2
HEADER
  9
$ACADVER
  1
AC1015
  9
$ACADMAINTVER
 70
     6
  9
$DWGCODEPAGE
  3
ANSI_949
  9
$INSBASE
 10
0.0
 20
0.0
 30
0.0
  9
$EXTMIN
 10
-74.72500000000012
 20
-49.97073246008785
 30
0.0
  9
$EXTMAX
 10
109.572583796017
 20
52.53610365728746
 30
0.0
  9
$LIMMIN
 10
0.0
 20
0.0
  9
$LIMMAX
 10
420.0
 20
297.0
  9
$ORTHOMODE
 70
     1
  9
$REGENMODE
 70
     1
  9
$FILLMODE
 70
     1
  9
$QTEXTMODE
 70
     0
  9
$MIRRTEXT
 70
     1
  9
$LTSCALE
 40
1.0
  9
$ATTMODE
 70
     1
  9
$TEXTSIZE
 40
3.5
  9
$TRACEWID
 40
1.0
  9
$TEXTSTYLE
  7
Standard
  9
$CLAYER
  8
0
  9
$CELTYPE
  6
ByLayer
  9
$CECOLOR
 62
   256
  9
$CELTSCALE
 40
1.0
  9
$DISPSILH
 70
     0
  9
$DIMSCALE
 40
1.0
  9
$DIMASZ
 40
3.302
  9
$DIMEXO
 40
1.0
  9
$DIMDLI
 40
3.75
  9
$DIMRND
 40
0.0
  9
$DIMDLE
 40
0.0
  9
$DIMEXE
 40
1.0
  9
$DIMTP
 40
0.0
  9
$DIMTM
 40
0.0
  9
$DIMTXT
 40
3.5
  9
$DIMCEN
 40
2.5
  9
$DIMTSZ
 40
0.0
  9
$DIMTOL
 70
     0
  9
$DIMLIM
 70
     0
  9
$DIMTIH
 70
     1
  9
$DIMTOH
 70
     1
  9
$DIMSE1
 70
     0
  9
$DIMSE2
 70
     0
  9
$DIMTAD
 70
     1
  9
$DIMZIN
 70
     0
  9
$DIMBLK
  1

  9
$DIMASO
 70
     1
  9
$DIMSHO
 70
     1
  9
$DIMPOST
  1

  9
$DIMAPOST
  1

  9
$DIMALT
 70
     0
  9
$DIMALTD
 70
     3
  9
$DIMALTF
 40
0.0393700787401575
  9
$DIMLFAC
 40
1.0
  9
$DIMTOFL
 70
     1
  9
$DIMTVP
 40
0.0
  9
$DIMTIX
 70
     0
  9
$DIMSOXD
 70
     0
  9
$DIMSAH
 70
     0
  9
$DIMBLK1
  1

  9
$DIMBLK2
  1

  9
$DIMSTYLE
  2
ISO-25
  9
$DIMCLRD
 70
     0
  9
$DIMCLRE
 70
     0
  9
$DIMCLRT
 70
     0
  9
$DIMTFAC
 40
1.0
  9
$DIMGAP
 40
1.524
  9
$DIMJUST
 70
     0
  9
$DIMSD1
 70
     0
  9
$DIMSD2
 70
     0
  9
$DIMTOLJ
 70
     0
  9
$DIMTZIN
 70
     0
  9
$DIMALTZ
 70
     0
  9
$DIMALTTZ
 70
     0
  9
$DIMUPT
 70
     0
  9
$DIMDEC
 70
     2
  9
$DIMTDEC
 70
     2
  9
$DIMALTU
 70
     2
  9
$DIMALTTD
 70
     3
  9
$DIMTXSTY
  7
Standard
  9
$DIMAUNIT
 70
     0
  9
$DIMADEC
 70
     2
  9
$DIMALTRND
 40
0.0
  9
$DIMAZIN
 70
     0
  9
$DIMDSEP
 70
    44
  9
$DIMATFIT
 70
     3
  9
$DIMFRAC
 70
     0
  9
$DIMLDRBLK
  1

  9
$DIMLUNIT
 70
     2
  9
$DIMLWD
 70
    -2
  9
$DIMLWE
 70
    -2
  9
$DIMTMOVE
 70
     0
  9
$LUNITS
 70
     2
  9
$LUPREC
 70
     2
  9
$SKETCHINC
 40
1.0
  9
$FILLETRAD
 40
10.0
  9
$AUNITS
 70
     0
  9
$AUPREC
 70
     2
  9
$MENU
  1
.
  9
$ELEVATION
 40
0.0
  9
$PELEVATION
 40
0.0
  9
$THICKNESS
 40
0.0
  9
$LIMCHECK
 70
     0
  9
$CHAMFERA
 40
0.0
  9
$CHAMFERB
 40
0.0
  9
$CHAMFERC
 40
0.0
  9
$CHAMFERD
 40
0.0
  9
$SKPOLY
 70
     0
  9
$TDCREATE
 40
2458269.397025683
  9
$TDUCREATE
 40
2458269.022025683
  9
$TDUPDATE
 40
2458269.83687441
  9
$TDUUPDATE
 40
2458269.46187441
  9
$TDINDWG
 40
0.0014872917
  9
$TDUSRTIMER
 40
2458269.460387234
  9
$USRTIMER
 70
     1
  9
$ANGBASE
 50
0.0
  9
$ANGDIR
 70
     0
  9
$PDMODE
 70
     0
  9
$PDSIZE
 40
-1.0
  9
$PLINEWID
 40
0.0
  9
$SPLFRAME
 70
     0
  9
$SPLINETYPE
 70
     6
  9
$SPLINESEGS
 70
     8
  9
$HANDSEED
  5
15F
  9
$SURFTAB1
 70
     6
  9
$SURFTAB2
 70
     6
  9
$SURFTYPE
 70
     6
  9
$SURFU
 70
     6
  9
$SURFV
 70
     6
  9
$UCSBASE
  2

  9
$UCSNAME
  2

  9
$UCSORG
 10
0.0
 20
0.0
 30
0.0
  9
$UCSXDIR
 10
1.0
 20
0.0
 30
0.0
  9
$UCSYDIR
 10
0.0
 20
1.0
 30
0.0
  9
$UCSORTHOREF
  2

  9
$UCSORTHOVIEW
 70
     0
  9
$UCSORGTOP
 10
0.0
 20
0.0
 30
0.0
  9
$UCSORGBOTTOM
 10
0.0
 20
0.0
 30
0.0
  9
$UCSORGLEFT
 10
0.0
 20
0.0
 30
0.0
  9
$UCSORGRIGHT
 10
0.0
 20
0.0
 30
0.0
  9
$UCSORGFRONT
 10
0.0
 20
0.0
 30
0.0
  9
$UCSORGBACK
 10
0.0
 20
0.0
 30
0.0
  9
$PUCSBASE
  2

  9
$PUCSNAME
  2

  9
$PUCSORG
 10
0.0
 20
0.0
 30
0.0
  9
$PUCSXDIR
 10
1.0
 20
0.0
 30
0.0
  9
$PUCSYDIR
 10
0.0
 20
1.0
 30
0.0
  9
$PUCSORTHOREF
  2

  9
$PUCSORTHOVIEW
 70
     0
  9
$PUCSORGTOP
 10
0.0
 20
0.0
 30
0.0
  9
$PUCSORGBOTTOM
 10
0.0
 20
0.0
 30
0.0
  9
$PUCSORGLEFT
 10
0.0
 20
0.0
 30
0.0
  9
$PUCSORGRIGHT
 10
0.0
 20
0.0
 30
0.0
  9
$PUCSORGFRONT
 10
0.0
 20
0.0
 30
0.0
  9
$PUCSORGBACK
 10
0.0
 20
0.0
 30
0.0
  9
$USERI1
 70
     0
  9
$USERI2
 70
     0
  9
$USERI3
 70
     0
  9
$USERI4
 70
     0
  9
$USERI5
 70
     0
  9
$USERR1
 40
0.0
  9
$USERR2
 40
0.0
  9
$USERR3
 40
0.0
  9
$USERR4
 40
0.0
  9
$USERR5
 40
0.0
  9
$WORLDVIEW
 70
     1
  9
$SHADEDGE
 70
     3
  9
$SHADEDIF
 70
    70
  9
$TILEMODE
 70
     1
  9
$MAXACTVP
 70
    64
  9
$PINSBASE
 10
0.0
 20
0.0
 30
0.0
  9
$PLIMCHECK
 70
     0
  9
$PEXTMIN
 10
1.000000000000000E+20
 20
1.000000000000000E+20
 30
1.000000000000000E+20
  9
$PEXTMAX
 10
-1.000000000000000E+20
 20
-1.000000000000000E+20
 30
-1.000000000000000E+20
  9
$PLIMMIN
 10
0.0
 20
0.0
  9
$PLIMMAX
 10
0.0
 20
0.0
  9
$UNITMODE
 70
     0
  9
$VISRETAIN
 70
     1
  9
$PLINEGEN
 70
     0
  9
$PSLTSCALE
 70
     1
  9
$TREEDEPTH
 70
  3020
  9
$CMLSTYLE
  2
Standard
  9
$CMLJUST
 70
     0
  9
$CMLSCALE
 40
20.0
  9
$PROXYGRAPHICS
 70
     1
  9
$MEASUREMENT
 70
     1
  9
$CELWEIGHT
370
    -1
  9
$ENDCAPS
280
     0
  9
$JOINSTYLE
280
     0
  9
$LWDISPLAY
290
     1
  9
$INSUNITS
 70
     4
  9
$HYPERLINKBASE
  1

  9
$STYLESHEET
  1

  9
$XEDIT
290
     1
  9
$CEPSNTYPE
380
     0
  9
$PSTYLEMODE
290
     1
  9
$FINGERPRINTGUID
  2
{C8BA9B3B-B992-48E8-8363-94FD8399AA58}
  9
$VERSIONGUID
  2
{FAEB1C32-E019-11D5-929B-00C0DF256EC4}
  9
$EXTNAMES
290
     1
  9
$PSVPSCALE
 40
0.0
  9
$OLESTARTUP
290
     0
  0
ENDSEC
  0
SECTION
  2
CLASSES
  0
CLASS
  1
ACDBDICTIONARYWDFLT
  2
AcDbDictionaryWithDefault
  3
ObjectDBX Classes
 90
        0
280
     0
281
     0
  0
CLASS
  1
VISUALSTYLE
  2
AcDbVisualStyle
  3
ObjectDBX Classes
 90
     4095
280
     0
281
     0
  0
CLASS
  1
MATERIAL
  2
AcDbMaterial
  3
ObjectDBX Classes
 90
     1153
280
     0
281
     0
  0
CLASS
  1
SCALE
  2
AcDbScale
  3
ObjectDBX Classes
 90
     1153
280
     0
281
     0
  0
CLASS
  1
SUN
  2
AcDbSun
  3
SCENEOE
 90
     1153
280
     0
281
     0
  0
CLASS
  1
ACDBPLACEHOLDER
  2
AcDbPlaceHolder
  3
ObjectDBX Classes
 90
        0
280
     0
281
     0
  0
CLASS
  1
LAYOUT
  2
AcDbLayout
  3
ObjectDBX Classes
 90
        0
280
     0
281
     0
  0
CLASS
  1
TABLESTYLE
  2
AcDbTableStyle
  3
ObjectDBX Classes
 90
     4095
280
     0
281
     0
  0
CLASS
  1
MLEADERSTYLE
  2
AcDbMLeaderStyle
  3
ACDB_MLEADERSTYLE_CLASS
 90
     4095
280
     0
281
     0
  0
CLASS
  1
RASTERVARIABLES
  2
AcDbRasterVariables
  3
ISM
 90
        0
280
     0
281
     0
  0
CLASS
  1
DIMASSOC
  2
AcDbDimAssoc
  3
"AcDbDimAssoc|Product Desc:     AcDim ARX App For Dimension|Company:          Autodesk, Inc.|WEB Address:      www.autodesk.com"
 90
        0
280
     0
281
     0
  0
ENDSEC
  0
SECTION
  2
TABLES
  0
TABLE
  2
VPORT
  5
8
330
0
100
AcDbSymbolTable
 70
     1
  0
VPORT
  5
29
330
8
100
AcDbSymbolTableRecord
100
AcDbViewportTableRecord
  2
*Active
 70
     0
 10
0.0
 20
0.0
 11
1.0
 21
1.0
 12
45.46091707306644
 22
-5.129562919535971
 13
0.0
 23
0.0
 14
10.0
 24
10.0
 15
10.0
 25
10.0
 16
0.0
 26
0.0
 36
1.0
 17
0.0
 27
0.0
 37
0.0
 40
141.6011476852541
 41
1.970186335403727
 42
50.0
 43
0.0
 44
0.0
 50
0.0
 51
0.0
 71
    16
 72
  2000
 73
     1
 74
     3
 75
     0
 76
     0
 77
     0
 78
     0
281
     0
 65
     1
110
0.0
120
0.0
130
0.0
111
1.0
121
0.0
131
0.0
112
0.0
122
1.0
132
0.0
 79
     0
146
0.0
  0
ENDTAB
  0
TABLE
  2
LTYPE
  5
5
330
0
100
AcDbSymbolTable
 70
     6
  0
LTYPE
  5
14
330
5
100
AcDbSymbolTableRecord
100
AcDbLinetypeTableRecord
  2
ByBlock
 70
     0
  3

 72
    65
 73
     0
 40
0.0
  0
LTYPE
  5
15
330
5
100
AcDbSymbolTableRecord
100
AcDbLinetypeTableRecord
  2
ByLayer
 70
     0
  3

 72
    65
 73
     0
 40
0.0
  0
LTYPE
  5
16
330
5
100
AcDbSymbolTableRecord
100
AcDbLinetypeTableRecord
  2
Continuous
 70
     0
  3
Solid line
 72
    65
 73
     0
 40
0.0
  0
LTYPE
  5
6A
330
5
100
AcDbSymbolTableRecord
100
AcDbLinetypeTableRecord
  2
HIDDEN
 70
     0
  3
Hidden __ __ __ __ __ __ __ __ __ __ __ __ __ __
 72
    65
 73
     2
 40
1.905
 49
1.27
 74
     0
 49
-0.635
 74
     0
  0
LTYPE
  5
6B
330
5
100
AcDbSymbolTableRecord
100
AcDbLinetypeTableRecord
  2
PHANTOM
 70
     0
  3
Phantom ______  __  __  ______  __  __  ______
 72
    65
 73
     6
 40
12.7
 49
6.35
 74
     0
 49
-1.27
 74
     0
 49
1.27
 74
     0
 49
-1.27
 74
     0
 49
1.27
 74
     0
 49
-1.27
 74
     0
  0
LTYPE
  5
6C
330
5
100
AcDbSymbolTableRecord
100
AcDbLinetypeTableRecord
  2
CENTER
 70
     0
  3
Center ____ _ ____ _ ____ _ ____ _ ____ _ ____
 72
    65
 73
     4
 40
10.16
 49
6.35
 74
     0
 49
-1.27
 74
     0
 49
1.27
 74
     0
 49
-1.27
 74
     0
  0
LTYPE
  5
6D
330
5
100
AcDbSymbolTableRecord
100
AcDbLinetypeTableRecord
  2
CENTERX2
 70
     0
  3
Center (2x) ________  __  ________  __  _____
 72
    65
 73
     4
 40
20.32
 49
12.7
 74
     0
 49
-2.54
 74
     0
 49
2.54
 74
     0
 49
-2.54
 74
     0
  0
LTYPE
  5
6E
330
5
100
AcDbSymbolTableRecord
100
AcDbLinetypeTableRecord
  2
DOT2
 70
     0
  3
Dot (.5x) ........................................
 72
    65
 73
     2
 40
0.635
 49
0.0
 74
     0
 49
-0.635
 74
     0
  0
ENDTAB
  0
TABLE
  2
LAYER
  5
2
330
0
100
AcDbSymbolTable
 70
    17
  0
LAYER
  5
10
330
2
100
AcDbSymbolTableRecord
100
AcDbLayerTableRecord
  2
0
 70
     0
 62
     7
  6
Continuous
370
    -3
390
F
  0
LAYER
  5
6F
330
2
100
AcDbSymbolTableRecord
100
AcDbLayerTableRecord
  2
FORMAT
 70
     0
 62
     2
  6
Continuous
370
    -3
390
F
  0
LAYER
  5
70
330
2
100
AcDbSymbolTableRecord
100
AcDbLayerTableRecord
  2
외형선
 70
     0
 62
   100
  6
Continuous
370
    30
390
F
  0
LAYER
  5
71
330
2
100
AcDbSymbolTableRecord
100
AcDbLayerTableRecord
  2
숨은선
 70
     0
 62
     2
  6
HIDDEN
370
    15
390
F
  0
LAYER
  5
72
330
2
100
AcDbSymbolTableRecord
100
AcDbLayerTableRecord
  2
중심선
 70
     0
 62
     1
  6
CENTERX2
370
    -3
390
F
  0
LAYER
  5
73
330
2
100
AcDbSymbolTableRecord
100
AcDbLayerTableRecord
  2
파단선
 70
     0
 62
     4
  6
Continuous
370
    -3
390
F
  0
LAYER
  5
74
330
2
100
AcDbSymbolTableRecord
100
AcDbLayerTableRecord
  2
해칭선
 70
     0
 62
     4
  6
Continuous
370
    -3
390
F
  0
LAYER
  5
75
330
2
100
AcDbSymbolTableRecord
100
AcDbLayerTableRecord
  2
가는실선
 70
     0
 62
     4
  6
Continuous
370
    -3
390
F
  0
LAYER
  5
76
330
2
100
AcDbSymbolTableRecord
100
AcDbLayerTableRecord
  2
치수_보조선
 70
     0
 62
     4
  6
Continuous
370
    -3
390
F
  0
LAYER
  5
77
330
2
100
AcDbSymbolTableRecord
100
AcDbLayerTableRecord
  2
치수문자_일반주서
 70
     0
 62
     7
  6
Continuous
370
    15
390
F
  0
LAYER
  5
78
330
2
100
AcDbSymbolTableRecord
100
AcDbLayerTableRecord
  2
개별주서
 70
     0
 62
   100
  6
Continuous
370
    30
390
F
  0
LAYER
  5
79
330
2
100
AcDbSymbolTableRecord
100
AcDbLayerTableRecord
  2
중간선
 70
     0
 62
     2
  6
Continuous
370
    15
390
F
  0
LAYER
  5
7A
330
2
100
AcDbSymbolTableRecord
100
AcDbLayerTableRecord
  2
윤곽선
 70
     0
 62
     3
  6
Continuous
370
    40
390
F
  0
LAYER
  5
7B
330
2
100
AcDbSymbolTableRecord
100
AcDbLayerTableRecord
  2
중심마크
 70
     0
 62
   100
  6
Continuous
370
    30
390
F
  0
LAYER
  5
7C
330
2
100
AcDbSymbolTableRecord
100
AcDbLayerTableRecord
  2
가상선
 70
     0
 62
     4
  6
PHANTOM
370
    -3
390
F
  0
LAYER
  5
7D
330
2
100
AcDbSymbolTableRecord
100
AcDbLayerTableRecord
  2
특수지정선
 70
     0
 62
     5
  6
CENTERX2
370
    60
390
F
  0
LAYER
  5
149
330
2
100
AcDbSymbolTableRecord
100
AcDbLayerTableRecord
  2
Defpoints
 70
     0
 62
     7
  6
Continuous
290
     0
370
    -3
390
F
  0
ENDTAB
  0
TABLE
  2
STYLE
  5
3
330
0
100
AcDbSymbolTable
 70
     2
  0
STYLE
  5
11
330
3
100
AcDbSymbolTableRecord
100
AcDbTextStyleTableRecord
  2
Standard
 70
     0
 40
0.0
 41
1.0
 50
0.0
 71
     0
 42
3.5
  3
txt
  4

  0
STYLE
  5
93
330
3
100
AcDbSymbolTableRecord
100
AcDbTextStyleTableRecord
  2
SLDTEXTSTYLE0
 70
     0
 40
0.0
 41
0.75
 50
0.0
 71
     0
 42
3.5
  3
TXT
  4

  0
ENDTAB
  0
TABLE
  2
VIEW
  5
6
330
0
100
AcDbSymbolTable
 70
     0
  0
ENDTAB
  0
TABLE
  2
UCS
  5
7
330
0
100
AcDbSymbolTable
 70
     0
  0
ENDTAB
  0
TABLE
  2
APPID
  5
9
330
0
100
AcDbSymbolTable
 70
     2
  0
APPID
  5
12
330
9
100
AcDbSymbolTableRecord
100
AcDbRegAppTableRecord
  2
ACAD
 70
     0
  0
APPID
  5
15B
330
9
100
AcDbSymbolTableRecord
100
AcDbRegAppTableRecord
  2
PE_DIMMEASUREMENT
 70
     0
  0
ENDTAB
  0
TABLE
  2
DIMSTYLE
  5
A
330
0
100
AcDbSymbolTable
 70
     5
100
AcDbDimStyleTable
  0
DIMSTYLE
105
27
330
A
100
AcDbSymbolTableRecord
100
AcDbDimStyleTableRecord
  2
ISO-25
 70
     0
 41
2.5
 42
0.625
 43
3.75
 44
1.25
 73
     0
 74
     0
 77
     1
 78
     8
140
2.5
141
2.5
143
0.03937007874016
147
0.625
171
     3
172
     1
178
     0
271
     2
272
     2
274
     3
278
    44
283
     0
284
     8
340
11
  0
DIMSTYLE
105
D5
330
A
100
AcDbSymbolTableRecord
100
AcDbDimStyleTableRecord
  2
SLDDIMSTYLE0
 70
     0
 41
3.302
 44
0.0
 45
0.000000001
 73
     0
 74
     0
 77
     1
 78
    12
 79
     3
140
3.5
147
0.875
173
     1
178
     0
271
     2
272
     2
276
     2
284
    12
340
93
  0
DIMSTYLE
105
E0
102
{ACAD_REACTORS
330
DF
102
}
330
A
100
AcDbSymbolTableRecord
100
AcDbDimStyleTableRecord
  2
SLDDIMSTYLE1
 70
     0
 41
3.302
 44
0.0
 45
0.000000001
 73
     0
 74
     0
 77
     1
 78
    12
 79
     3
140
3.5
143
0.0393700787401575
147
0.875
148
0.000000001
170
     1
173
     1
178
     0
271
     2
272
     2
276
     2
284
    12
340
93
  0
DIMSTYLE
105
F4
102
{ACAD_REACTORS
330
F3
102
}
330
A
100
AcDbSymbolTableRecord
100
AcDbDimStyleTableRecord
  2
SLDDIMSTYLE2
 70
     0
 41
3.302
 44
0.0
 45
0.000000001
 73
     0
 74
     0
 77
     1
 78
     4
 79
     1
140
3.5
143
0.0393700787401575
147
0.875
148
0.000000001
170
     1
173
     1
178
     0
271
     2
272
     2
276
     2
284
    12
340
93
  0
DIMSTYLE
105
108
102
{ACAD_REACTORS
330
107
330
14A
102
}
330
A
100
AcDbSymbolTableRecord
100
AcDbDimStyleTableRecord
  2
SLDDIMSTYLE3
 70
     0
 41
3.302
 44
0.0
 45
0.000000001
 73
     0
 74
     0
 77
     1
 78
    12
 79
     3
140
3.5
143
0.0393700787401575
147
0.875
148
0.000000001
170
     1
172
     1
173
     1
178
     0
271
     2
272
     2
276
     2
284
    12
289
     0
340
93
  0
ENDTAB
  0
TABLE
  2
BLOCK_RECORD
  5
1
330
0
100
AcDbSymbolTable
 70
     8
  0
BLOCK_RECORD
  5
1F
330
1
100
AcDbSymbolTableRecord
100
AcDbBlockTableRecord
  2
*Model_Space
340
22
  0
BLOCK_RECORD
  5
1B
330
1
100
AcDbSymbolTableRecord
100
AcDbBlockTableRecord
  2
*Paper_Space
340
1E
  0
BLOCK_RECORD
  5
23
330
1
100
AcDbSymbolTableRecord
100
AcDbBlockTableRecord
  2
*Paper_Space0
340
26
  0
BLOCK_RECORD
  5
7E
330
1
100
AcDbSymbolTableRecord
100
AcDbBlockTableRecord
  2
블럭10
340
0
102
{BLKREFS
331
CC
102
}
  0
BLOCK_RECORD
  5
D6
330
1
100
AcDbSymbolTableRecord
100
AcDbBlockTableRecord
  2
_D
340
0
  0
BLOCK_RECORD
  5
E1
330
1
100
AcDbSymbolTableRecord
100
AcDbBlockTableRecord
  2
_D_1
340
0
  0
BLOCK_RECORD
  5
F5
330
1
100
AcDbSymbolTableRecord
100
AcDbBlockTableRecord
  2
_D_2
340
0
  0
BLOCK_RECORD
  5
109
330
1
100
AcDbSymbolTableRecord
100
AcDbBlockTableRecord
  2
_D_3
340
0
  0
BLOCK_RECORD
  5
11C
330
1
100
AcDbSymbolTableRecord
100
AcDbBlockTableRecord
  2
SW_DOWELSYMBOL_0
340
0
102
{BLKREFS
331
122
102
}
  0
BLOCK_RECORD
  5
14D
330
1
100
AcDbSymbolTableRecord
100
AcDbBlockTableRecord
  2
*D7
340
0
  0
ENDTAB
  0
ENDSEC
  0
SECTION
  2
BLOCKS
  0
BLOCK
  5
20
330
1F
100
AcDbEntity
  8
0
100
AcDbBlockBegin
  2
*Model_Space
 70
     0
 10
0.0
 20
0.0
 30
0.0
  3
*Model_Space
  1
*Model_Space
  0
ENDBLK
  5
21
330
1F
100
AcDbEntity
  8
0
100
AcDbBlockEnd
  0
BLOCK
  5
1C
330
1B
100
AcDbEntity
 67
     1
  8
0
100
AcDbBlockBegin
  2
*Paper_Space
 70
     0
 10
0.0
 20
0.0
 30
0.0
  3
*Paper_Space
  1
*Paper_Space
  0
ENDBLK
  5
1D
330
1B
100
AcDbEntity
 67
     1
  8
0
100
AcDbBlockEnd
  0
BLOCK
  5
24
330
23
100
AcDbEntity
  8
0
100
AcDbBlockBegin
  2
*Paper_Space0
 70
     0
 10
0.0
 20
0.0
 30
0.0
  3
*Paper_Space0
  1
*Paper_Space0
  0
ENDBLK
  5
25
330
23
100
AcDbEntity
  8
0
100
AcDbBlockEnd
  0
BLOCK
  5
7F
330
7E
100
AcDbEntity
  8
0
100
AcDbBlockBegin
  2
블럭10
 70
     2
 10
0.0
 20
0.0
 30
0.0
  3
블럭10
  1
블럭10
  0
ELLIPSE
  5
81
330
7E
100
AcDbEntity
  8
중심선
100
AcDbEllipse
 10
20.54032771741204
 20
12.0471743016438
 30
0.0
 11
6.600054785286829
 21
-1.261213355974178E-13
 31
0.0
210
0.0
220
0.0
230
1.0
 40
0.636358354079598
 41
0.9219305317359503
 42
6.513795318482858
  0
ELLIPSE
  5
82
330
7E
100
AcDbEntity
  8
중심선
100
AcDbEllipse
 10
20.54032771746488
 20
12.04717430159265
 30
0.0
 11
3.960054785062283
 21
1.540847449632565E-10
 31
0.0
210
0.0
220
0.0
230
1.0
 40
0.3939339440162632
 41
1.131841032648279
 42
5.62031148352944
  0
LINE
  5
83
330
7E
100
AcDbEntity
  8
중심선
100
AcDbLine
 10
2.268634060543552
 20
16.24717430164393
 30
0.0
 11
5.714909304380834
 21
16.24717430164393
 31
0.0
  0
LINE
  5
84
330
7E
100
AcDbEntity
  8
중심선
100
AcDbLine
 10
5.245725140726316
 20
7.84717430164391
 30
0.0
 11
8.692000384563599
 21
7.84717430164391
 31
0.0
  0
LINE
  5
85
330
7E
100
AcDbEntity
  8
중심선
100
AcDbLine
 10
15.74043728645272
 20
16.24717430164393
 30
0.0
 11
8.692000384563599
 21
7.84717430164391
 31
0.0
  0
LINE
  5
86
330
7E
100
AcDbEntity
  8
중심선
100
AcDbLine
 10
0.1404042013395286
 20
13.71084872107135
 30
0.0
 11
3.58671253028996
 21
13.71088815037384
 31
0.0
  0
LINE
  5
87
330
7E
100
AcDbEntity
  8
중심선
100
AcDbLine
 10
2.750260043222114
 20
10.84717430164391
 30
0.0
 11
6.196535287059397
 21
10.84717430164391
 31
0.0
  0
LINE
  5
88
330
7E
100
AcDbEntity
  8
중심선
100
AcDbLine
 10
12.29416204261559
 20
16.24717430164393
 30
0.0
 11
5.245725140726316
 21
7.84717430164391
 31
0.0
  0
LINE
  5
89
330
7E
100
AcDbEntity
  8
중심선
100
AcDbLine
 10
10.72767329541681
 20
16.24717430164393
 30
0.0
 11
6.196535287059397
 21
10.84717430164391
 31
0.0
  0
LINE
  5
8A
330
7E
100
AcDbEntity
  8
중심선
100
AcDbLine
 10
7.28139805157953
 20
16.24717430164393
 30
0.0
 11
2.750260043222114
 21
10.84717430164391
 31
0.0
  0
LINE
  5
8B
330
7E
100
AcDbEntity
  8
중심선
100
AcDbLine
 10
5.714909304380834
 20
16.24717430164393
 30
0.0
 11
3.58671253028996
 21
13.71088815037384
 31
0.0
  0
LINE
  5
8C
330
7E
100
AcDbEntity
  8
중심선
100
AcDbLine
 10
2.268634060543552
 20
16.24717430164393
 30
0.0
 11
0.1404042013395286
 21
13.71084872107135
 31
0.0
  0
LINE
  5
8D
330
7E
100
AcDbEntity
  8
중심선
100
AcDbLine
 10
7.28139805157953
 20
16.24717430164393
 30
0.0
 11
10.72767329541681
 21
16.24717430164393
 31
0.0
  0
LINE
  5
8E
330
7E
100
AcDbEntity
  8
중심선
100
AcDbLine
 10
12.29416204261559
 20
16.24717430164393
 30
0.0
 11
15.74043728645272
 21
16.24717430164393
 31
0.0
  0
LINE
  5
8F
330
7E
100
AcDbEntity
  8
중심선
100
AcDbLine
 10
19.22036997980202
 20
11.08717430171403
 30
0.0
 11
23.66174974927406
 21
11.08717430171406
 31
0.0
  0
LINE
  5
90
330
7E
100
AcDbEntity
  8
중심선
100
AcDbLine
 10
19.22039502424796
 20
13.00717430171391
 30
0.0
 11
19.22036997980202
 21
11.08717430171403
 31
0.0
  0
LINE
  5
91
330
7E
100
AcDbEntity
  8
중심선
100
AcDbLine
 10
19.22039502424796
 20
13.00717430171391
 30
0.0
 11
26.96566020931264
 21
13.00717430171391
 31
0.0
  0
LINE
  5
92
330
7E
100
AcDbEntity
  8
중심선
100
AcDbLine
 10
22.22332737316547
 20
13.45928029700563
 30
0.0
 11
24.52862924686651
 21
15.39360700705356
 31
0.0
  0
ATTDEF
  5
94
330
7E
100
AcDbEntity
  8
FORMAT
 62
     2
100
AcDbText
 10
-9.18129528874128
 20
2.075366912832191
 30
0.0
 40
4.233333333333333
  1
E5982048 [ 3 FLUTE ]
 41
0.75
  7
SLDTEXTSTYLE0
 11
-9.18129528874128
 21
-0.0412997538344756
 31
0.0
100
AcDbAttributeDefinition
  3

  2
AUTOATTR0
 70
     0
 74
     1
  0
ENDBLK
  5
80
330
7E
100
AcDbEntity
  8
0
100
AcDbBlockEnd
  0
BLOCK
  5
D7
330
D6
100
AcDbEntity
  8
0
100
AcDbBlockBegin
  2
_D
 70
     0
 10
0.0
 20
0.0
 30
0.0
  3
_D
  1
_D
  0
SOLID
  5
D9
330
D6
100
AcDbEntity
  8
치수문자_일반주서
100
AcDbTrace
 10
-62.34999999999999
 20
-0.4854796965059789
 30
0.0
 11
-59.04799999999999
 21
-0.9934796965059789
 31
0.0
 12
-59.04799999999999
 22
0.0225203034940211
 32
0.0
 13
-59.04799999999999
 23
0.0225203034940211
 33
0.0
  0
SOLID
  5
DA
330
D6
100
AcDbEntity
  8
치수문자_일반주서
100
AcDbTrace
 10
9.11254243902307
 20
-0.4854796965059746
 30
0.0
 11
5.81054243902307
 21
0.0225203034940255
 31
0.0
 12
5.81054243902307
 22
-0.9934796965059746
 32
0.0
 13
5.81054243902307
 23
-0.9934796965059746
 33
0.0
  0
LINE
  5
DB
330
D6
100
AcDbEntity
  8
치수문자_일반주서
100
AcDbLine
 10
-62.34999999999999
 20
-0.9816608253754013
 30
0.0
 11
-62.34999999999999
 21
-1.485479696505979
 31
0.0
  0
LINE
  5
DC
330
D6
100
AcDbEntity
  8
치수문자_일반주서
100
AcDbLine
 10
9.11254243902307
 20
-0.9816608253754013
 30
0.0
 11
9.11254243902307
 21
-1.485479696505974
 31
0.0
  0
LINE
  5
DD
330
D6
100
AcDbEntity
  8
치수문자_일반주서
100
AcDbLine
 10
-62.34999999999999
 20
-0.4854796965059789
 30
0.0
 11
9.11254243902307
 21
-0.4854796965059746
 31
0.0
  0
MTEXT
  5
DE
330
D6
100
AcDbEntity
  8
치수문자_일반주서
100
AcDbMText
 10
-2.070496689364015
 20
4.02625721807292
 30
0.0
 40
3.5
 41
0.0
 71
     1
 72
     1
  1
71.46
  7
SLDTEXTSTYLE0
 73
     1
 44
1.0
  0
ENDBLK
  5
D8
330
D6
100
AcDbEntity
  8
0
100
AcDbBlockEnd
  0
BLOCK
  5
E2
330
E1
100
AcDbEntity
  8
0
100
AcDbBlockBegin
  2
_D_1
 70
     0
 10
0.0
 20
0.0
 30
0.0
  3
_D_1
  1
_D_1
  0
LINE
  5
E4
330
E1
100
AcDbEntity
  8
치수문자_일반주서
 62
     0
370
    -2
100
AcDbLine
 10
94.55000000000001
 20
9.587500000000023
 30
0.0
 11
94.55000000000001
 21
30.13841845233052
 31
0.0
  0
LINE
  5
E5
330
E1
100
AcDbEntity
  8
치수문자_일반주서
 62
     0
370
    -2
100
AcDbLine
 10
12.0
 20
9.344497010043
 30
0.0
 11
12.0
 21
30.13841845233052
 31
0.0
  0
LINE
  5
E6
330
E1
100
AcDbEntity
  8
치수문자_일반주서
 62
     0
370
    -2
100
AcDbLine
 10
91.24800000000002
 20
30.13841845233052
 30
0.0
 11
15.302
 21
30.13841845233052
 31
0.0
  0
SOLID
  5
E7
330
E1
100
AcDbEntity
  8
치수문자_일반주서
 62
     0
100
AcDbTrace
 10
91.24800000000002
 20
29.58808511899718
 30
0.0
 11
91.24800000000002
 21
30.68875178566385
 31
0.0
 12
94.55000000000001
 22
30.13841845233052
 32
0.0
 13
94.55000000000001
 23
30.13841845233052
 33
0.0
  0
SOLID
  5
E8
330
E1
100
AcDbEntity
  8
치수문자_일반주서
 62
     0
100
AcDbTrace
 10
15.302
 20
30.68875178566385
 30
0.0
 11
15.302
 21
29.58808511899718
 31
0.0
 12
12.0
 22
30.13841845233052
 32
0.0
 13
12.0
 23
30.13841845233052
 33
0.0
  0
MTEXT
  5
E9
330
E1
100
AcDbEntity
  8
치수문자_일반주서
 62
     0
100
AcDbMText
 10
53.27499999999999
 20
34.51341845233051
 30
0.0
 40
3.5
 41
0.0
 71
     2
 72
     1
  1
\A1;82.55 [3 1/4]
  7
SLDTEXTSTYLE0
 73
     1
 44
1.0
  0
POINT
  5
EA
330
E1
100
AcDbEntity
  8
Defpoints
 62
     0
100
AcDbPoint
 10
94.55000000000001
 20
9.525000000000023
 30
0.0
  0
POINT
  5
EB
330
E1
100
AcDbEntity
  8
Defpoints
 62
     0
100
AcDbPoint
 10
12.0
 20
9.281997010043
 30
0.0
  0
POINT
  5
EC
330
E1
100
AcDbEntity
  8
Defpoints
 62
     0
100
AcDbPoint
 10
12.0
 20
30.13841845233052
 30
0.0
  0
ENDBLK
  5
E3
330
E1
100
AcDbEntity
  8
0
100
AcDbBlockEnd
  0
BLOCK
  5
F6
330
F5
100
AcDbEntity
  8
0
100
AcDbBlockBegin
  2
_D_2
 70
     0
 10
0.0
 20
0.0
 30
0.0
  3
_D_2
  1
_D_2
  0
LINE
  5
F8
330
F5
100
AcDbEntity
  8
치수문자_일반주서
 62
     0
370
    -2
100
AcDbLine
 10
94.55000000000001
 20
9.587500000000023
 30
0.0
 11
94.55000000000001
 21
48.16110365728746
 31
0.0
  0
LINE
  5
F9
330
F5
100
AcDbEntity
  8
치수문자_일반주서
 62
     0
370
    -2
100
AcDbLine
 10
-57.85
 20
9.087500000000006
 30
0.0
 11
-57.85
 21
48.16110365728746
 31
0.0
  0
LINE
  5
FA
330
F5
100
AcDbEntity
  8
치수문자_일반주서
 62
     0
370
    -2
100
AcDbLine
 10
91.24800000000002
 20
48.16110365728746
 30
0.0
 11
-54.548
 21
48.16110365728746
 31
0.0
  0
SOLID
  5
FB
330
F5
100
AcDbEntity
  8
치수문자_일반주서
 62
     0
100
AcDbTrace
 10
91.24800000000002
 20
47.61077032395412
 30
0.0
 11
91.24800000000002
 21
48.71143699062079
 31
0.0
 12
94.55000000000001
 22
48.16110365728746
 32
0.0
 13
94.55000000000001
 23
48.16110365728746
 33
0.0
  0
SOLID
  5
FC
330
F5
100
AcDbEntity
  8
치수문자_일반주서
 62
     0
100
AcDbTrace
 10
-54.548
 20
48.71143699062079
 30
0.0
 11
-54.548
 21
47.61077032395412
 31
0.0
 12
-57.85
 22
48.16110365728746
 32
0.0
 13
-57.85
 23
48.16110365728746
 33
0.0
  0
MTEXT
  5
FD
330
F5
100
AcDbEntity
  8
치수문자_일반주서
 62
     0
100
AcDbMText
 10
18.35
 20
52.53610365728746
 30
0.0
 40
3.5
 41
0.0
 71
     2
 72
     1
  1
\A1;152.40 [6]
  7
SLDTEXTSTYLE0
 73
     1
 44
1.0
  0
POINT
  5
FE
330
F5
100
AcDbEntity
  8
Defpoints
 62
     0
100
AcDbPoint
 10
94.55000000000001
 20
9.525000000000023
 30
0.0
  0
POINT
  5
FF
330
F5
100
AcDbEntity
  8
Defpoints
 62
     0
100
AcDbPoint
 10
-57.85
 20
9.025000000000006
 30
0.0
  0
POINT
  5
100
330
F5
100
AcDbEntity
  8
Defpoints
 62
     0
100
AcDbPoint
 10
-57.85
 20
48.16110365728746
 30
0.0
  0
ENDBLK
  5
F7
330
F5
100
AcDbEntity
  8
0
100
AcDbBlockEnd
  0
BLOCK
  5
10A
330
109
100
AcDbEntity
  8
0
100
AcDbBlockBegin
  2
_D_3
 70
     0
 10
0.0
 20
0.0
 30
0.0
  3
_D_3
  1
_D_3
  0
LINE
  5
10C
330
109
100
AcDbEntity
  8
치수문자_일반주서
 62
     0
370
    -2
100
AcDbLine
 10
-57.4125
 20
9.525000000000011
 30
0.0
 11
-70.35000000000001
 21
9.524999999999956
 31
0.0
  0
LINE
  5
10D
330
109
100
AcDbEntity
  8
치수문자_일반주서
 62
     0
370
    -2
100
AcDbLine
 10
-57.4125
 20
-9.52499999999999
 30
0.0
 11
-70.34999999999994
 21
-9.525000000000038
 31
0.0
  0
LINE
  5
10E
330
109
100
AcDbEntity
  8
치수문자_일반주서
 62
     0
370
    -2
100
AcDbLine
 10
-70.35000000000001
 20
9.524999999999956
 30
0.0
 11
-70.35000000000014
 21
43.91024999999996
 31
0.0
  0
LINE
  5
10F
330
109
100
AcDbEntity
  8
치수문자_일반주서
 62
     0
370
    -2
100
AcDbLine
 10
-70.35000000000001
 20
9.524999999999956
 30
0.0
 11
-70.34999999999994
 21
-9.525000000000038
 31
0.0
  0
LINE
  5
110
330
109
100
AcDbEntity
  8
치수문자_일반주서
 62
     0
370
    -2
100
AcDbLine
 10
-70.35000000000002
 20
12.82699999999996
 30
0.0
 11
-70.35000000000004
 21
16.12899999999996
 31
0.0
  0
LINE
  5
111
330
109
100
AcDbEntity
  8
치수문자_일반주서
 62
     0
370
    -2
100
AcDbLine
 10
-70.34999999999992
 20
-12.82700000000004
 30
0.0
 11
-70.34999999999991
 21
-16.12900000000004
 31
0.0
  0
SOLID
  5
112
330
109
100
AcDbEntity
  8
치수문자_일반주서
 62
     0
100
AcDbTrace
 10
-70.90033333333335
 20
12.82699999999995
 30
0.0
 11
-69.7996666666667
 21
12.82699999999996
 31
0.0
 12
-70.35000000000001
 22
9.524999999999956
 32
0.0
 13
-70.35000000000001
 23
9.524999999999956
 33
0.0
  0
SOLID
  5
113
330
109
100
AcDbEntity
  8
치수문자_일반주서
 62
     0
100
AcDbTrace
 10
-69.7996666666666
 20
-12.82700000000004
 30
0.0
 11
-70.90033333333325
 21
-12.82700000000004
 31
0.0
 12
-70.34999999999994
 22
-9.525000000000038
 32
0.0
 13
-70.34999999999994
 23
-9.525000000000038
 33
0.0
  0
MTEXT
  5
114
330
109
100
AcDbEntity
  8
치수문자_일반주서
 62
     0
100
AcDbMText
 10
-74.72500000000008
 20
30.12899999999995
 30
0.0
 40
3.5
 41
0.0
 71
     2
 72
     1
  1
\A1;%%c19.05 [3/4]
  7
SLDTEXTSTYLE0
 11
-3.729883127349608E-15
 21
1.0
 31
0.0
 73
     1
 44
1.0
  0
POINT
  5
115
330
109
100
AcDbEntity
  8
Defpoints
 62
     0
100
AcDbPoint
 10
-57.35
 20
9.525000000000011
 30
0.0
  0
POINT
  5
116
330
109
100
AcDbEntity
  8
Defpoints
 62
     0
100
AcDbPoint
 10
-57.35
 20
-9.52499999999999
 30
0.0
  0
POINT
  5
117
330
109
100
AcDbEntity
  8
Defpoints
 62
     0
100
AcDbPoint
 10
-70.34999999999994
 20
-9.525000000000038
 30
0.0
  0
ENDBLK
  5
10B
330
109
100
AcDbEntity
  8
0
100
AcDbBlockEnd
  0
BLOCK
  5
11D
330
11C
100
AcDbEntity
  8
0
100
AcDbBlockBegin
  2
SW_DOWELSYMBOL_0
 70
     0
 10
0.0
 20
0.0
 30
0.0
  3
SW_DOWELSYMBOL_0
  1
SW_DOWELSYMBOL_0
  0
CIRCLE
  5
11F
330
11C
100
AcDbEntity
  8
외형선
 62
     0
100
AcDbCircle
 10
0.0
 20
0.0
 30
0.0
 40
3.000000000000008
  0
HATCH
  5
120
330
11C
100
AcDbEntity
  8
0
  6
Continuous
 62
     0
370
    30
100
AcDbHatch
 10
0.0
 20
0.0
 30
0.0
210
0.0
220
0.0
230
1.0
  2
SOLID
 70
     1
 71
     0
 91
        1
 92
        0
 93
        3
 72
     2
 10
0.0000000000000087
 20
0.0
 40
3.000000000000008
 50
0.0
 51
90.0
 73
     1
 72
     1
 10
0.0000000000000087
 20
3.000000000000008
 11
0.0000000000000087
 21
0.0
 72
     1
 10
0.0000000000000087
 20
0.0
 11
3.000000000000017
 21
0.0
 97
        0
 75
     0
 76
     1
 98
        1
 10
0.0
 20
0.0
  0
HATCH
  5
121
330
11C
100
AcDbEntity
  8
0
  6
Continuous
 62
     0
370
    30
100
AcDbHatch
 10
0.0
 20
0.0
 30
0.0
210
0.0
220
0.0
230
1.0
  2
SOLID
 70
     1
 71
     0
 91
        1
 92
        0
 93
        3
 72
     2
 10
0.0000000000000087
 20
0.0
 40
3.000000000000008
 50
180.0
 51
270.0000000000008
 73
     1
 72
     1
 10
0.0000000000000087
 20
-3.000000000000008
 11
0.0000000000000087
 21
0.0
 72
     1
 10
0.0000000000000087
 20
0.0
 11
-3.0
 21
0.0
 97
        0
 75
     0
 76
     1
 98
        1
 10
0.0
 20
0.0
  0
ENDBLK
  5
11E
330
11C
100
AcDbEntity
  8
0
100
AcDbBlockEnd
  0
BLOCK
  5
14E
330
14D
100
AcDbEntity
  8
0
100
AcDbBlockBegin
  2
*D7
 70
     1
 10
0.0
 20
0.0
 30
0.0
  3
*D7
  1
*D7
  0
LINE
  5
150
330
14D
100
AcDbEntity
  8
치수문자_일반주서
 62
     0
370
    -2
100
AcDbLine
 10
94.61249999999998
 20
-9.524999999999986
 30
0.0
 11
109.0222504626837
 21
-9.524999999999988
 31
0.0
  0
LINE
  5
151
330
14D
100
AcDbEntity
  8
치수문자_일반주서
 62
     0
370
    -2
100
AcDbLine
 10
94.61250000000001
 20
9.525000000000023
 30
0.0
 11
109.0222504626837
 21
9.525000000000023
 31
0.0
  0
LINE
  5
152
330
14D
100
AcDbEntity
  8
치수문자_일반주서
 62
     0
370
    -2
100
AcDbLine
 10
109.0222504626837
 20
12.82700000000002
 30
0.0
 11
109.0222504626837
 21
43.69150000000002
 31
0.0
  0
LINE
  5
153
330
14D
100
AcDbEntity
  8
치수문자_일반주서
 62
     0
370
    -2
100
AcDbLine
 10
109.0222504626837
 20
-9.524999999999988
 30
0.0
 11
109.0222504626837
 21
9.525000000000023
 31
0.0
  0
LINE
  5
154
330
14D
100
AcDbEntity
  8
치수문자_일반주서
 62
     0
370
    -2
100
AcDbLine
 10
109.0222504626837
 20
-12.82699999999999
 30
0.0
 11
109.0222504626837
 21
-16.12899999999999
 31
0.0
  0
SOLID
  5
155
330
14D
100
AcDbEntity
  8
치수문자_일반주서
 62
     0
100
AcDbTrace
 10
109.572583796017
 20
-12.82699999999999
 30
0.0
 11
108.4719171293503
 21
-12.82699999999999
 31
0.0
 12
109.0222504626837
 22
-9.524999999999988
 32
0.0
 13
109.0222504626837
 23
-9.524999999999988
 33
0.0
  0
SOLID
  5
156
330
14D
100
AcDbEntity
  8
치수문자_일반주서
 62
     0
100
AcDbTrace
 10
108.4719171293503
 20
12.82700000000002
 30
0.0
 11
109.572583796017
 21
12.82700000000002
 31
0.0
 12
109.0222504626837
 22
9.525000000000023
 32
0.0
 13
109.0222504626837
 23
9.525000000000023
 33
0.0
  0
MTEXT
  5
157
330
14D
100
AcDbEntity
  8
치수문자_일반주서
 62
     0
100
AcDbMText
 10
106.3972504626837
 20
29.91025000000002
 30
0.0
 40
3.5
 41
0.0
 71
     5
 72
     1
  1
\A1;{Ø19.05 [3/4]}
  7
SLDTEXTSTYLE0
 11
0.0
 21
1.0
 31
0.0
 73
     1
 44
1.0
  0
POINT
  5
158
330
14D
100
AcDbEntity
  8
Defpoints
 62
     0
100
AcDbPoint
 10
94.54999999999998
 20
-9.524999999999986
 30
0.0
  0
POINT
  5
159
330
14D
100
AcDbEntity
  8
Defpoints
 62
     0
100
AcDbPoint
 10
94.55000000000001
 20
9.525000000000023
 30
0.0
  0
POINT
  5
15A
330
14D
100
AcDbEntity
  8
Defpoints
 62
     0
100
AcDbPoint
 10
109.0222504626837
 20
9.525000000000023
 30
0.0
  0
ENDBLK
  5
14F
330
14D
100
AcDbEntity
  8
0
100
AcDbBlockEnd
  0
ENDSEC
  0
SECTION
  2
ENTITIES
  0
LINE
  5
95
330
1F
100
AcDbEntity
  8
0
  6
Continuous
 62
     4
370
    15
100
AcDbLine
 10
8.950199149777003
 20
9.525000000000015
 30
0.0
 11
-57.35
 21
9.525000000000011
 31
0.0
  0
LINE
  5
96
330
1F
100
AcDbEntity
  8
0
  6
Continuous
 62
     4
370
    15
100
AcDbLine
 10
-57.35
 20
-9.52499999999999
 30
0.0
 11
10.36359649989132
 21
-9.524999999999986
 31
0.0
  0
LINE
  5
97
330
1F
100
AcDbEntity
  8
0
  6
Continuous
 62
     4
370
    15
100
AcDbLine
 10
-57.35
 20
9.525000000000006
 30
0.0
 11
-57.85
 21
9.025000000000006
 31
0.0
  0
LINE
  5
98
330
1F
100
AcDbEntity
  8
0
  6
Continuous
 62
     4
370
    15
100
AcDbLine
 10
-57.85
 20
-9.024999999999984
 30
0.0
 11
-57.35
 21
-9.524999999999984
 31
0.0
  0
LINE
  5
99
330
1F
100
AcDbEntity
  8
0
  6
Continuous
 62
     1
370
    15
100
AcDbLine
 10
64.03063614810044
 20
-9.524999999999995
 30
0.0
 11
70.20938773666403
 21
-9.524999999999995
 31
0.0
  0
LINE
  5
9A
330
1F
100
AcDbEntity
  8
0
  6
Continuous
 62
     1
370
    15
100
AcDbLine
 10
40.28681149274213
 20
9.525000000000023
 30
0.0
 11
34.10587507425237
 21
9.525000000000023
 31
0.0
  0
LINE
  5
9B
330
1F
100
AcDbEntity
  8
0
  6
Continuous
 62
     1
370
    15
100
AcDbLine
 10
94.55000000000001
 20
9.525000000000023
 30
0.0
 11
93.95323306810064
 21
9.525000000000023
 31
0.0
  0
LINE
  5
9C
330
1F
100
AcDbEntity
  8
0
  6
Continuous
 62
     1
370
    15
100
AcDbLine
 10
83.97838091386355
 20
-9.524999999999995
 30
0.0
 11
90.15932650241861
 21
-9.524999999999995
 31
0.0
  0
LINE
  5
9D
330
1F
100
AcDbEntity
  8
0
  6
Continuous
 62
     1
370
    15
100
AcDbLine
 10
24.1314308847946
 20
-9.524999999999995
 30
0.0
 11
30.31262921569621
 21
-9.524999999999995
 31
0.0
  0
LINE
  5
9E
330
1F
100
AcDbEntity
  8
0
  6
Continuous
 62
     1
370
    15
100
AcDbLine
 10
60.23564150349487
 20
9.525000000000023
 30
0.0
 11
54.05523176692435
 21
9.525000000000023
 31
0.0
  0
LINE
  5
9F
330
1F
100
AcDbEntity
  8
0
  6
Continuous
 62
     1
370
    15
100
AcDbLine
 10
44.08143958500189
 20
-9.524999999999995
 30
0.0
 11
50.26026805551902
 21
-9.524999999999995
 31
0.0
  0
LINE
  5
A0
330
1F
100
AcDbEntity
  8
0
  6
Continuous
 62
     1
370
    15
100
AcDbLine
 10
20.3379547915313
 20
9.525000000000023
 30
0.0
 11
14.1553277763599
 21
9.525000000000023
 31
0.0
  0
LINE
  5
A1
330
1F
100
AcDbEntity
  8
0
  6
Continuous
 62
     1
370
    15
100
AcDbLine
 10
80.18462547118256
 20
9.525000000000023
 30
0.0
 11
74.00441741712109
 21
9.525000000000023
 31
0.0
  0
SPLINE
  5
A2
330
1F
100
AcDbEntity
  8
0
  6
Continuous
 62
     4
370
    15
100
AcDbSpline
210
0.0
220
0.0
230
1.0
 70
     8
 71
     3
 72
    22
 73
    18
 74
     0
 42
0.000000001
 43
0.00000001
 40
0.0
 40
0.0
 40
0.0
 40
0.0
 40
0.1249999999999999
 40
0.1249999999999999
 40
0.2499999999999998
 40
0.2499999999999998
 40
0.3749999999999998
 40
0.3749999999999998
 40
0.4999999999999998
 40
0.4999999999999998
 40
0.6249999999999998
 40
0.6249999999999998
 40
0.7499999999999998
 40
0.7499999999999998
 40
0.875
 40
0.875
 40
1.0
 40
1.0
 40
1.0
 40
1.0
 10
8.950199149777003
 20
9.507717279883481
 30
0.0
 10
8.950199149777003
 20
9.496954460168059
 30
0.0
 10
8.972681915507469
 20
9.481403394429691
 30
0.0
 10
9.064376885436507
 20
9.441988085337902
 30
0.0
 10
9.133898205425595
 20
9.418212950459278
 30
0.0
 10
9.314068757904398
 20
9.367939185268396
 30
0.0
 10
9.427266821356788
 20
9.340842837912396
 30
0.0
 10
9.684327666945098
 20
9.29048273351217
 30
0.0
 10
9.831707621040403
 20
9.266560539014687
 30
0.0
 10
10.14661355060844
 20
9.227887368754516
 30
0.0
 10
10.31510478473799
 20
9.212941417152289
 30
0.0
 10
10.66436318717891
 20
9.195332832429598
 30
0.0
 10
10.84045424227055
 20
9.19279641877675
 30
0.0
 10
11.19557190233461
 20
9.200739726748578
 30
0.0
 10
11.36882342890279
 20
9.211173955706629
 30
0.0
 10
11.69946953174801
 20
9.242571949053076
 30
0.0
 10
11.85731089511046
 20
9.263659869911951
 30
0.0
 10
11.99999999999955
 20
9.287594999506117
 30
0.0
  0
LINE
  5
A3
330
1F
100
AcDbEntity
  8
0
  6
Continuous
 62
     4
370
    15
100
AcDbLine
 10
8.950199149777003
 20
9.525000000000015
 30
0.0
 11
8.950199149777003
 21
6.549475430962873
 31
0.0
  0
SPLINE
  5
A4
330
1F
100
AcDbEntity
  8
0
  6
Continuous
 62
     4
370
    15
100
AcDbSpline
210
0.0
220
0.0
230
1.0
 70
     8
 71
     3
 72
    12
 73
     8
 74
     0
 42
0.000000001
 43
0.00000001
 40
0.0
 40
0.0
 40
0.0
 40
0.0
 40
0.2499999999999997
 40
0.2499999999999997
 40
0.4999999999999993
 40
0.4999999999999993
 40
1.0
 40
1.0
 40
1.0
 40
1.0
 10
9.513514766266383
 20
5.477682684660369
 30
0.0
 10
9.422291418755176
 20
5.55230749760825
 30
0.0
 10
9.341890290543276
 20
5.63243493567246
 30
0.0
 10
9.201696771434069
 20
5.802267518138801
 30
0.0
 10
9.141435181258778
 20
5.89307742299442
 30
0.0
 10
8.998041763797762
 20
6.169797395041424
 30
0.0
 10
8.950199149776996
 20
6.362236537499613
 30
0.0
 10
8.950199149776996
 20
6.549475430962872
 30
0.0
  0
SPLINE
  5
A5
330
1F
100
AcDbEntity
  8
0
  6
Continuous
 62
     4
370
    15
100
AcDbSpline
210
0.0
220
0.0
230
1.0
 70
     8
 71
     3
 72
    10
 73
     6
 74
     0
 42
0.000000001
 43
0.00000001
 40
0.0
 40
0.0
 40
0.0
 40
0.0
 40
0.5
 40
0.5
 40
1.0
 40
1.0
 40
1.0
 40
1.0
 10
12.0
 20
3.28127480530297
 30
0.0
 10
11.58459797445267
 20
3.670576594307033
 30
0.0
 10
11.17332995961429
 20
4.049278187970544
 30
0.0
 10
10.34483769114676
 20
4.783428998766131
 30
0.0
 10
9.927878581349763
 20
5.138714393794151
 30
0.0
 10
9.513514766266379
 20
5.477682684660359
 30
0.0
  0
LINE
  5
A6
330
1F
100
AcDbEntity
  8
0
  6
Continuous
 62
     4
370
    15
100
AcDbLine
 10
12.0
 20
3.281274805302973
 30
0.0
 11
12.0
 21
-2.813591747968507
 31
0.0
  0
SPLINE
  5
A7
330
1F
100
AcDbEntity
  8
0
  6
Continuous
 62
     4
370
    15
100
AcDbSpline
210
0.0
220
0.0
230
1.0
 70
     8
 71
     3
 72
    22
 73
    18
 74
     0
 42
0.000000001
 43
0.00000001
 40
0.0
 40
0.0
 40
0.0
 40
0.0
 40
0.125
 40
0.125
 40
0.2499999999999999
 40
0.2499999999999999
 40
0.3749999999999999
 40
0.3749999999999999
 40
0.4999999999999998
 40
0.4999999999999998
 40
0.6249999999999999
 40
0.6249999999999999
 40
0.75
 40
0.75
 40
0.875
 40
0.875
 40
1.0
 40
1.0
 40
1.0
 40
1.0
 10
8.950199149777006
 20
-4.257166739107837
 30
0.0
 10
8.950199149777003
 20
-4.0972682430794
 30
0.0
 10
8.972681915507469
 20
-3.938549185166988
 30
0.0
 10
9.064376885436507
 20
-3.624247879801424
 30
0.0
 10
9.133898205425595
 20
-3.470399682705656
 30
0.0
 10
9.314068757904401
 20
-3.186394062375741
 30
0.0
 10
9.42726682135679
 20
-3.052815576597874
 30
0.0
 10
9.684327666945101
 20
-2.823057159026123
 30
0.0
 10
9.831707621040405
 20
-2.72350549513996
 30
0.0
 10
10.14661355060844
 20
-2.568541795159948
 30
0.0
 10
10.31510478473799
 20
-2.512102241320917
 30
0.0
 10
10.66436318717891
 20
-2.446042141585339
 30
0.0
 10
10.84045424227055
 20
-2.436823270335861
 30
0.0
 10
11.19557190233461
 20
-2.466316261502377
 30
0.0
 10
11.36882342890279
 20
-2.504890832413373
 30
0.0
 10
11.69946953174801
 20
-2.626701719069982
 30
0.0
 10
11.85731089511046
 20
-2.710527954081159
 30
0.0
 10
11.99999999999955
 20
-2.813591747969429
 30
0.0
  0
LINE
  5
A8
330
1F
100
AcDbEntity
  8
0
  6
Continuous
 62
     4
370
    15
100
AcDbLine
 10
8.950199149777006
 20
-4.257166739107837
 30
0.0
 11
8.950199149777006
 21
-9.26410307705442
 31
0.0
  0
SPLINE
  5
A9
330
1F
100
AcDbEntity
  8
0
  6
Continuous
 62
     4
370
    15
100
AcDbSpline
210
0.0
220
0.0
230
1.0
 70
     8
 71
     3
 72
    12
 73
     8
 74
     0
 42
0.000000001
 43
0.00000001
 40
0.0
 40
0.0
 40
0.0
 40
0.0
 40
0.2499999999999999
 40
0.2499999999999999
 40
0.4999999999999999
 40
0.4999999999999999
 40
1.0
 40
1.0
 40
1.0
 40
1.0
 10
9.513514766266383
 20
-9.487208778579395
 30
0.0
 10
9.422291418755176
 20
-9.479091192215192
 30
0.0
 10
9.34189029054328
 20
-9.46899360370359
 30
0.0
 10
9.201696771434069
 20
-9.443529461590572
 30
0.0
 10
9.14143518125878
 20
-9.427934592777609
 30
0.0
 10
8.998041763797762
 20
-9.372712200467346
 30
0.0
 10
8.95019914977701
 20
-9.324045375820006
 30
0.0
 10
8.95019914977701
 20
-9.26410307705442
 30
0.0
  0
SPLINE
  5
AA
330
1F
100
AcDbEntity
  8
0
  6
Continuous
 62
     4
370
    15
100
AcDbSpline
210
0.0
220
0.0
230
1.0
 70
     8
 71
     3
 72
    10
 73
     6
 74
     0
 42
0.000000001
 43
0.00000001
 40
0.0
 40
0.0
 40
0.0
 40
0.0
 40
0.5
 40
0.5
 40
1.0
 40
1.0
 40
1.0
 40
1.0
 10
12.0
 20
-9.384612188836062
 30
0.0
 10
11.58459797445267
 20
-9.455546950422997
 30
0.0
 10
11.17332995961429
 20
-9.499628171044757
 30
0.0
 10
10.34483769114676
 20
-9.533987061051485
 30
0.0
 10
9.927878581349765
 20
-9.52408129144927
 30
0.0
 10
9.51351476626638
 20
-9.487208778579395
 30
0.0
  0
LINE
  5
AB
330
1F
100
AcDbEntity
  8
0
  6
Continuous
 62
     4
370
    15
100
AcDbLine
 10
-57.35
 20
9.525000000000006
 30
0.0
 11
-57.35
 21
-9.52499999999999
 31
0.0
  0
LINE
  5
AC
330
1F
100
AcDbEntity
  8
0
  6
Continuous
 62
     4
370
    15
100
AcDbLine
 10
-57.85
 20
9.025000000000006
 30
0.0
 11
-57.85
 21
-9.024999999999984
 31
0.0
  0
SPLINE
  5
AD
330
1F
100
AcDbEntity
  8
0
  6
Continuous
 62
     4
370
    15
100
AcDbSpline
210
0.0
220
0.0
230
1.0
 70
    24
 71
     3
 72
    15
 73
    11
 74
     0
 42
0.000000001
 43
0.00000001
 40
0.0
 40
0.0
 40
0.0
 40
0.0
 40
0.0428864877034521
 40
0.0858474463880982
 40
0.257027992168146
 40
0.4331727853724099
 40
0.6043533311524582
 40
0.7804981243567216
 40
0.9516786701367703
 40
0.9999999999999999
 40
0.9999999999999999
 40
0.9999999999999999
 40
0.9999999999999999
 10
12.0
 20
7.597627540435991
 30
0.0
 10
12.0
 20
7.485716477000274
 30
0.0
 10
12.0
 20
7.261700020232711
 30
0.0
 10
12.0
 20
6.613881106370934
 30
0.0
 10
12.0
 20
5.700260970487959
 30
0.0
 10
12.0
 20
4.683628522403567
 30
0.0
 10
12.0
 20
3.876181843451604
 30
0.0
 10
12.0
 20
3.342769510034466
 30
0.0
 10
12.0
 20
3.07528506193084
 30
0.0
 10
12.0
 20
3.07788674053087
 30
0.0
 10
12.0
 20
3.078459476273842
 30
0.0
  0
SPLINE
  5
AE
330
1F
100
AcDbEntity
  8
0
  6
Continuous
 62
     1
370
    15
100
AcDbSpline
210
0.0
220
0.0
230
1.0
 70
    24
 71
     3
 72
     8
 73
     4
 74
     0
 42
0.000000001
 43
0.00000001
 40
0.0
 40
0.0
 40
0.0
 40
0.0
 40
1.0
 40
1.0
 40
1.0
 40
1.0
 10
12.0
 20
9.287594999506423
 30
0.0
 10
12.0
 20
8.695760048321544
 30
0.0
 10
12.0
 20
8.131501572817855
 30
0.0
 10
12.0
 20
7.597627540435856
 30
0.0
  0
SPLINE
  5
AF
330
1F
100
AcDbEntity
  8
0
  6
Continuous
 62
     4
370
    15
100
AcDbSpline
210
0.0
220
0.0
230
1.0
 70
    24
 71
     3
 72
    14
 73
    10
 74
     0
 42
0.000000001
 43
0.00000001
 40
0.0
 40
0.0
 40
0.0
 40
0.0
 40
0.0986418496823254
 40
0.2511720575950355
 40
0.4037022655077454
 40
0.5562324734204553
 40
0.7087626813331653
 40
0.8612928892458753
 40
1.0
 40
1.0
 40
1.0
 40
1.0
 10
12.0
 20
-2.813591747969691
 30
0.0
 10
12.0
 20
-2.870504812247069
 30
0.0
 10
12.0
 20
-3.015422729993183
 30
0.0
 10
12.0
 20
-3.543804988208859
 30
0.0
 10
12.0
 20
-4.352620621926458
 30
0.0
 10
12.0
 20
-5.389314926646854
 30
0.0
 10
12.0
 20
-6.621042565830093
 30
0.0
 10
12.0
 20
-7.961146783915277
 30
0.0
 10
12.0
 20
-8.925378948296295
 30
0.0
 10
12.0
 20
-9.384612188836076
 30
0.0
  0
SPLINE
  5
B0
330
1F
100
AcDbEntity
  8
0
  6
Continuous
 62
     1
370
    15
100
AcDbSpline
210
0.0
220
0.0
230
1.0
 70
     8
 71
     3
 72
    29
 73
    25
 74
     0
 42
0.000000001
 43
0.00000001
 40
0.0
 40
0.0
 40
0.0
 40
0.0
 40
0.0102842055273702
 40
0.058727132894211
 40
0.1071959176967324
 40
0.1556694002994996
 40
0.2041153023278878
 40
0.2525466488453085
 40
0.3009767684040429
 40
0.3494189969396383
 40
0.397886597587968
 40
0.4463610828734158
 40
0.4948077733711109
 40
0.5432394193903891
 40
0.5916693476814998
 40
0.6401108953310873
 40
0.6885773295646115
 40
0.7370527272037958
 40
0.7855002240797696
 40
0.8339321876322628
 40
0.8823619427011007
 40
0.9308028274154541
 40
0.9792681129830024
 40
1.0
 40
1.0
 40
1.0
 40
1.0
 10
77.09602058676417
 20
-7.122846244065371
 30
0.0
 10
76.96986199644671
 20
-7.212554716040953
 30
0.0
 10
76.24944345953587
 20
-7.724827768288455
 30
0.0
 10
74.9342991822748
 20
-8.414094690357459
 30
0.0
 10
73.15003771168756
 20
-9.13169642429787
 30
0.0
 10
71.36556927619476
 20
-9.509399567412432
 30
0.0
 10
69.58231210983813
 20
-9.560281845075085
 30
0.0
 10
67.79979375873413
 20
-9.275532412122034
 30
0.0
 10
66.01735129579332
 20
-8.66706211621616
 30
0.0
 10
64.23426973451785
 20
-7.755457334942264
 30
0.0
 10
62.45005065553188
 20
-6.572800947725001
 30
0.0
 10
60.66554224679371
 20
-5.160541238908376
 30
0.0
 10
58.88224739964387
 20
-3.567626812139027
 30
0.0
 10
57.09971154647256
 20
-1.850317676969945
 30
0.0
 10
55.31728100014589
 20
-0.0683725686540199
 30
0.0
 10
53.53423255320909
 20
1.71619427103527
 30
0.0
 10
51.75006293509821
 20
3.440791854967856
 30
0.0
 10
49.96551633043351
 20
5.044819773133235
 30
0.0
 10
48.18218360403754
 20
6.473192322449688
 30
0.0
 10
46.39962997137692
 20
7.673629820317483
 30
0.0
 10
44.61720801004775
 20
8.611183619452207
 30
0.0
 10
42.83420031468789
 20
9.22815944325171
 30
0.0
 10
41.39053044683027
 20
9.525954690584605
 30
0.0
 10
40.54125846189826
 20
9.493784083208256
 30
0.0
 10
40.28681149274213
 20
9.48414557671322
 30
0.0
  0
SPLINE
  5
B1
330
1F
100
AcDbEntity
  8
0
  6
Continuous
 62
     1
370
    15
100
AcDbSpline
210
0.0
220
0.0
230
1.0
 70
     8
 71
     3
 72
    10
 73
     6
 74
     0
 42
0.000000001
 43
0.00000001
 40
0.0
 40
0.0
 40
0.0
 40
0.0
 40
0.2709620442409506
 40
0.6355068888228924
 40
0.9999999999999999
 40
0.9999999999999999
 40
0.9999999999999999
 40
0.9999999999999999
 10
17.2454334788699
 20
-7.116304000921102
 30
0.0
 10
16.77160491607069
 20
-7.424605057863451
 30
0.0
 10
15.66030050211305
 20
-8.147685834977812
 30
0.0
 10
13.91185352527252
 20
-8.942374159015694
 30
0.0
 10
12.63725435939735
 20
-9.237206486114077
 30
0.0
 10
12.0
 20
-9.38461218883608
 30
0.0
  0
SPLINE
  5
B2
330
1F
100
AcDbEntity
  8
0
  6
Continuous
 62
     4
370
    15
100
AcDbSpline
210
0.0
220
0.0
230
1.0
 70
    24
 71
     3
 72
    15
 73
    11
 74
     0
 42
0.000000001
 43
0.00000001
 40
0.0
 40
0.0
 40
0.0
 40
0.0
 40
0.090485139586619
 40
0.220239456445804
 40
0.3537566572840878
 40
0.4835109741432728
 40
0.6170281749815566
 40
0.7467824918407424
 40
0.8802996926790261
 40
0.9999999999999999
 40
0.9999999999999999
 40
0.9999999999999999
 40
0.9999999999999999
 10
12.0
 20
-2.663568168639839
 30
0.0
 10
12.0
 20
-2.667607100673961
 30
0.0
 10
12.0
 20
-2.677437799945469
 30
0.0
 10
12.0
 20
-2.970542184199832
 30
0.0
 10
12.0
 20
-3.53016923737029
 30
0.0
 10
12.0
 20
-4.348661338611688
 30
0.0
 10
12.0
 20
-5.378641675906823
 30
0.0
 10
12.0
 20
-6.61372052554303
 30
0.0
 10
12.0
 20
-7.954127042278941
 30
0.0
 10
12.0
 20
-8.925450667039444
 30
0.0
 10
12.0
 20
-9.38461218883607
 30
0.0
  0
SPLINE
  5
B3
330
1F
100
AcDbEntity
  8
0
  6
Continuous
 62
     1
370
    15
100
AcDbSpline
210
0.0
220
0.0
230
1.0
 70
     8
 71
     3
 72
    14
 73
    10
 74
     0
 42
0.000000001
 43
0.00000001
 40
0.0
 40
0.0
 40
0.0
 40
0.0
 40
0.1575996082719431
 40
0.3152215850443753
 40
0.4728762588708004
 40
0.6305658493646271
 40
0.7776254037515696
 40
0.9246138641872335
 40
1.0
 40
1.0
 40
1.0
 40
1.0
 10
12.0
 20
-2.789615946184796
 30
0.0
 10
12.63725231993793
 20
-3.388157999625393
 30
0.0
 10
13.91184740660477
 20
-4.585327059054134
 30
0.0
 10
15.82408176672357
 20
-6.167227110480233
 30
0.0
 10
17.73683784236287
 20
-7.508196324350743
 30
0.0
 10
19.60726328270977
 20
-8.526981000567122
 30
0.0
 10
21.43411332414447
 20
-9.188360817332946
 30
0.0
 10
22.92771064224677
 20
-9.5134286531799
 30
0.0
 10
23.82667673854727
 20
-9.490956892980185
 30
0.0
 10
24.1314308847946
 20
-9.483338850294793
 30
0.0
  0
SPLINE
  5
B4
330
1F
100
AcDbEntity
  8
0
  6
Continuous
 62
     1
370
    15
100
AcDbSpline
210
0.0
220
0.0
230
1.0
 70
     8
 71
     3
 72
    29
 73
    25
 74
     0
 42
0.000000001
 43
0.00000001
 40
0.0
 40
0.0
 40
0.0
 40
0.0
 40
0.0274780132499187
 40
0.0759275525982815
 40
0.1244049938861087
 40
0.1728734713903916
 40
0.2213170612615578
 40
0.269749031284393
 40
0.3181827191078122
 40
0.3666314520439004
 40
0.4151079809395281
 40
0.4635776249077906
 40
0.5120218956936703
 40
0.5604540569921924
 40
0.6088874453011277
 40
0.6573353897346684
 40
0.7058109159053431
 40
0.7542817440777199
 40
0.8027267137243062
 40
0.851159084343068
 40
0.8995921911720758
 40
0.9480393650192032
 40
0.9965137981419545
 40
1.0
 40
1.0
 40
1.0
 40
1.0
 10
47.17081208971692
 20
7.113049622944347
 30
0.0
 10
47.50787916589223
 20
7.340354187575223
 30
0.0
 10
48.43926666915449
 20
7.968444695060928
 30
0.0
 10
49.96552007503492
 20
8.704429933524088
 30
0.0
 10
51.75006193167977
 20
9.303578055017642
 30
0.0
 10
53.5342328219024
 20
9.565927694360509
 30
0.0
 10
55.3172809281819
 20
9.497010291209973
 30
0.0
 10
57.09971156576433
 20
9.095364317823256
 30
0.0
 10
58.88224739443361
 20
8.37610781927198
 30
0.0
 10
60.66554224833745
 20
7.363848769637071
 30
0.0
 10
62.45005065457076
 20
6.09440970393331
 30
0.0
 10
64.23426973681738
 20
4.611828047494135
 30
0.0
 10
66.01735128756144
 20
2.967991867613342
 30
0.0
 10
67.79979378935616
 20
1.220664077027757
 30
0.0
 10
69.58231199556108
 20
-0.5693382733372834
 30
0.0
 10
71.36556970292122
 20
-2.339750042519996
 30
0.0
 10
73.15003611819641
 20
-4.028152762821641
 30
0.0
 10
74.93430512716485
 20
-5.575692577526295
 30
0.0
 10
76.7174209743972
 20
-6.929094831505853
 30
0.0
 10
78.49987480807276
 20
-8.037534075950257
 30
0.0
 10
80.28238263882646
 20
-8.874808986868606
 30
0.0
 10
82.06557937338536
 20
-9.36581242770775
 30
0.0
 10
83.2979505145953
 20
-9.572091238970074
 30
0.0
 10
83.93559907350185
 20
-9.517537817085964
 30
0.0
 10
83.97838091386357
 20
-9.513877657028157
 30
0.0
  0
SPLINE
  5
B5
330
1F
100
AcDbEntity
  8
0
  6
Continuous
 62
     1
370
    15
100
AcDbSpline
210
0.0
220
0.0
230
1.0
 70
     8
 71
     3
 72
    27
 73
    23
 74
     0
 42
0.000000001
 43
0.00000001
 40
0.0
 40
0.0
 40
0.0
 40
0.0
 40
0.0519954526125864
 40
0.1039621272056225
 40
0.1559142374004954
 40
0.2078660843595345
 40
0.2598319708291158
 40
0.3118261151626188
 40
0.3638228371217248
 40
0.415790319069466
 40
0.4677427118499322
 40
0.5196943149250424
 40
0.5716594325088232
 40
0.6236522875717074
 40
0.6756501820026778
 40
0.7276184905298118
 40
0.7795711852433297
 40
0.8315225637884021
 40
0.8834869317302885
 40
0.9354785165414529
 40
0.9874774865581945
 40
1.0
 40
1.0
 40
1.0
 40
1.0
 10
94.55000000000001
 20
-8.530943155509572
 30
0.0
 10
93.95509992300798
 20
-8.766524864987476
 30
0.0
 10
92.76562902947236
 20
-9.237557896097801
 30
0.0
 10
90.98244381220762
 20
-9.541429434194463
 30
0.0
 10
89.19995871324633
 20
-9.533171854244795
 30
0.0
 10
87.41748891307587
 20
-9.186059005183445
 30
0.0
 10
85.63433898398851
 20
-8.51933131027562
 30
0.0
 10
83.8500192182975
 20
-7.554450849179424
 30
0.0
 10
82.06559864962394
 20
-6.325687301492071
 30
0.0
 10
80.28237747672158
 20
-4.875598741422266
 30
0.0
 10
78.49987619086325
 20
-3.255369250545534
 30
0.0
 10
76.71742060446964
 20
-1.521392383582832
 30
0.0
 10
74.93430522378614
 20
0.2660258996854519
 30
0.0
 10
73.15003610189592
 20
2.044044362988092
 30
0.0
 10
71.3655696714702
 20
3.750541438172152
 30
0.0
 10
69.5823121375426
 20
5.326057078667355
 30
0.0
 10
67.79979325303097
 20
6.715658271396293
 30
0.0
 10
66.01735329110527
 20
7.868635316627336
 30
0.0
 10
64.23426225526498
 20
8.753990431338217
 30
0.0
 10
62.45007859396073
 20
9.306250277977941
 30
0.0
 10
61.11682429438015
 20
9.551276213715795
 30
0.0
 10
60.37886646309582
 20
9.503734435814426
 30
0.0
 10
60.23564150349485
 20
9.494507392031407
 30
0.0
  0
SPLINE
  5
B6
330
1F
100
AcDbEntity
  8
0
  6
Continuous
 62
     1
370
    15
100
AcDbSpline
210
0.0
220
0.0
230
1.0
 70
     8
 71
     3
 72
    21
 73
    17
 74
     0
 42
0.000000001
 43
0.00000001
 40
0.0
 40
0.0
 40
0.0
 40
0.0
 40
0.0593562141562391
 40
0.1301129137130988
 40
0.2008851583106445
 40
0.2716923431332983
 40
0.3425182241626288
 40
0.4133035063308146
 40
0.4840646661083273
 40
0.5548211653189464
 40
0.6255924938300452
 40
0.6963980523301241
 40
0.7723217117693904
 40
0.8482285596920789
 40
0.9241196647874554
 40
1.0
 40
1.0
 40
1.0
 40
1.0
 10
37.1946883285616
 20
-7.126857664557527
 30
0.0
 10
36.69629530898963
 20
-7.446663403012193
 30
0.0
 10
35.60378344864618
 20
-8.147699630541412
 30
0.0
 10
33.91714088704265
 20
-8.898631466901694
 30
0.0
 10
32.1341523717596
 20
-9.407465078589404
 30
0.0
 10
30.35008107054704
 20
-9.580430057512608
 30
0.0
 10
28.56546903378385
 20
-9.420432015650993
 30
0.0
 10
26.78205926240682
 20
-8.930575466726328
 30
0.0
 10
24.99946638877189
 20
-8.128797998121113
 30
0.0
 10
23.21706369586003
 20
-7.042980349392543
 30
0.0
 10
21.43411487224574
 20
-5.710799291465659
 30
0.0
 10
19.60726283430623
 20
-4.142498444521325
 30
0.0
 10
17.73683796596358
 20
-2.377571778378501
 30
0.0
 10
15.82408173377391
 20
-0.4791446095082667
 30
0.0
 10
13.91184741484009
 20
1.447837720377306
 30
0.0
 10
12.6372523226829
 20
2.670158022764359
 30
0.0
 10
12.0
 20
3.281274805302974
 30
0.0
  0
SPLINE
  5
B7
330
1F
100
AcDbEntity
  8
0
  6
Continuous
 62
     4
370
    15
100
AcDbSpline
210
0.0
220
0.0
230
1.0
 70
    24
 71
     3
 72
    15
 73
    11
 74
     0
 42
0.000000001
 43
0.00000001
 40
0.0
 40
0.0
 40
0.0
 40
0.0
 40
0.1133101139631283
 40
0.2288703935008772
 40
0.3647296687247977
 40
0.5045288721339737
 40
0.6403881473578947
 40
0.7801873507670704
 40
0.9160466259909917
 40
0.9999999999999999
 40
0.9999999999999999
 40
0.9999999999999999
 40
0.9999999999999999
 10
12.0
 20
9.281997010043
 30
0.0
 10
12.0
 20
8.874895943862159
 30
0.0
 10
11.99999999999999
 20
8.052609406918465
 30
0.0
 10
12.0
 20
6.853930002481001
 30
0.0
 10
11.99999999999999
 20
5.700430259937854
 30
0.0
 10
12.0
 20
4.683200132906205
 30
0.0
 10
11.99999999999999
 20
3.877693895749236
 30
0.0
 10
12.0
 20
3.337023863745429
 30
0.0
 10
12.0
 20
3.053846661152365
 30
0.0
 10
12.0
 20
3.066838921926899
 30
0.0
 10
12.0
 20
3.071801075523761
 30
0.0
  0
SPLINE
  5
B8
330
1F
100
AcDbEntity
  8
0
  6
Continuous
 62
     1
370
    15
100
AcDbSpline
210
0.0
220
0.0
230
1.0
 70
     8
 71
     3
 72
    25
 73
    21
 74
     0
 42
0.000000001
 43
0.00000001
 40
0.0
 40
0.0
 40
0.0
 40
0.0
 40
0.0595923427630795
 40
0.1191931436141127
 40
0.1788063080367959
 40
0.2384326753223211
 40
0.294039560819717
 40
0.3496195639208976
 40
0.4051879208853727
 40
0.4607599380089527
 40
0.5163508995635138
 40
0.5719737452846679
 40
0.6275819080085284
 40
0.6831626305548376
 40
0.7387311448604977
 40
0.7943027562743219
 40
0.8498927515088452
 40
0.9055147577058982
 40
0.9611242180425569
 40
1.0
 40
1.0
 40
1.0
 40
1.0
 10
12.0
 20
9.281997010043014
 30
0.0
 10
12.63725232268348
 20
9.38893099892624
 30
0.0
 10
13.91184741484182
 20
9.60281415409706
 30
0.0
 10
15.82408173376706
 20
9.437998108835776
 30
0.0
 10
17.73683796598937
 20
8.920786022421694
 30
0.0
 10
19.60726283421272
 20
8.057724018535477
 30
0.0
 10
21.43411487256865
 20
6.918631980647319
 30
0.0
 10
23.21706369465298
 20
5.563919490146908
 30
0.0
 10
24.99946639327673
 20
4.015059323920912
 30
0.0
 10
26.78205924559068
 20
2.32581552830699
 30
0.0
 10
28.56546909658164
 20
0.5549445972942105
 30
0.0
 10
30.35008083606181
 20
-1.234905598244019
 30
0.0
 10
32.13415324641342
 20
-2.981920513098236
 30
0.0
 10
33.91713762486214
 20
-4.624561351614483
 30
0.0
 10
35.69954781841052
 20
-6.105626368921498
 30
0.0
 10
37.48212050380171
 20
-7.372492145547931
 30
0.0
 10
39.26549383957666
 20
-8.385132086055938
 30
0.0
 10
41.05006573147978
 20
-9.09230890322289
 30
0.0
 10
42.65554445353133
 20
-9.483681821838632
 30
0.0
 10
43.6657799982798
 20
-9.488120979230526
 30
0.0
 10
44.08143958500188
 20
-9.489947462506132
 30
0.0
  0
SPLINE
  5
B9
330
1F
100
AcDbEntity
  8
0
  6
Continuous
 62
     1
370
    15
100
AcDbSpline
210
0.0
220
0.0
230
1.0
 70
     8
 71
     3
 72
    23
 73
    19
 74
     0
 42
0.000000001
 43
0.00000001
 40
0.0
 40
0.0
 40
0.0
 40
0.0
 40
0.0248021671334684
 40
0.0897919413262963
 40
0.1548012474842471
 40
0.2198475638727591
 40
0.2848875763073417
 40
0.3498928907822987
 40
0.4148812993995002
 40
0.4798706958917878
 40
0.5448789680473956
 40
0.609923817742368
 40
0.6749654429788817
 40
0.739971719284882
 40
0.8049604329865755
 40
0.8699494759808587
 40
0.9349567381830799
 40
1.0
 40
1.0
 40
1.0
 40
1.0
 10
67.11957792907569
 20
7.114238302734262
 30
0.0
 10
67.3463134932898
 20
7.271731931914091
 30
0.0
 10
68.16717025023924
 20
7.841910281026881
 30
0.0
 10
69.58230919473075
 20
8.557330875895516
 30
0.0
 10
71.36557046059781
 20
9.218540873789072
 30
0.0
 10
73.15003589041793
 20
9.54161304666354
 30
0.0
 10
74.93430528041601
 20
9.535454040350885
 30
0.0
 10
76.71742058930352
 20
9.194822282471145
 30
0.0
 10
78.49987619492661
 20
8.533199190444295
 30
0.0
 10
80.28237747563244
 20
7.573308874432669
 30
0.0
 10
82.06559864991598
 20
6.348533453213703
 30
0.0
 10
83.85001921821926
 20
4.902031280290522
 30
0.0
 10
85.63433898400945
 20
3.284080151674959
 30
0.0
 10
87.41748891307029
 20
1.551453950748419
 30
0.0
 10
89.19995871324777
 20
-0.2360675957851794
 30
0.0
 10
90.9824438122072
 20
-2.011803565855244
 30
0.0
 10
92.76562902947245
 20
-3.730728577007954
 30
0.0
 10
93.955099923008
 20
-4.756629589981014
 30
0.0
 10
94.54999999999998
 20
-5.269722087595472
 30
0.0
  0
SPLINE
  5
BA
330
1F
100
AcDbEntity
  8
0
  6
Continuous
 62
     1
370
    15
100
AcDbSpline
210
0.0
220
0.0
230
1.0
 70
     8
 71
     3
 72
    12
 73
     8
 74
     0
 42
0.000000001
 43
0.00000001
 40
0.0
 40
0.0
 40
0.0
 40
0.0
 40
0.0788909268345413
 40
0.3077186195680303
 40
0.543350154618548
 40
0.7692439560231497
 40
1.0
 40
1.0
 40
1.0
 40
1.0
 10
93.27188716197938
 20
-4.145752958604606
 30
0.0
 10
93.22489444217634
 20
-4.153881946661643
 30
0.0
 10
93.0415966226708
 20
-4.185589534387708
 30
0.0
 10
92.67077587048723
 20
-4.317262303102767
 30
0.0
 10
92.1835288468803
 20
-4.533482667008454
 30
0.0
 10
91.67765101881122
 20
-4.809440119145133
 30
0.0
 10
91.34495678833252
 20
-5.026736181447202
 30
0.0
 10
91.17683846910906
 20
-5.136541057580878
 30
0.0
  0
SPLINE
  5
BB
330
1F
100
AcDbEntity
  8
0
  6
Continuous
 62
     1
370
    15
100
AcDbSpline
210
0.0
220
0.0
230
1.0
 70
     8
 71
     3
 72
    10
 73
     6
 74
     0
 42
0.000000001
 43
0.00000001
 40
0.0
 40
0.0
 40
0.0
 40
0.0
 40
0.5
 40
0.5
 40
1.0
 40
1.0
 40
1.0
 40
1.0
 10
94.55000000000001
 20
-5.568392862373713
 30
0.0
 10
93.97258148783928
 20
-5.597513915569571
 30
0.0
 10
93.40223607016
 20
-5.579668292370703
 30
0.0
 10
92.27666014461384
 20
-5.443611204720239
 30
0.0
 10
91.72156907557215
 20
-5.324473840268954
 30
0.0
 10
91.17683846910444
 20
-5.13654105759042
 30
0.0
  0
LINE
  5
BC
330
1F
100
AcDbEntity
  8
0
  6
Continuous
 62
     1
370
    15
100
AcDbLine
 10
94.55000000000001
 20
-8.530943155509583
 30
0.0
 11
94.55000000000001
 21
-5.568392862373716
 31
0.0
  0
SPLINE
  5
BD
330
1F
100
AcDbEntity
  8
0
  6
Continuous
 62
     1
370
    15
100
AcDbSpline
210
0.0
220
0.0
230
1.0
 70
     8
 71
     3
 72
    16
 73
    12
 74
     0
 42
0.000000001
 43
0.00000001
 40
0.0
 40
0.0
 40
0.0
 40
0.0
 40
0.1242021911125288
 40
0.2483356398080877
 40
0.3724342983427151
 40
0.4965323280825981
 40
0.6206638941777558
 40
0.7448629601875961
 40
0.8690681834041089
 40
0.9932035606379984
 40
1.0
 40
1.0
 40
1.0
 40
1.0
 10
94.55000000000001
 20
0.5964832419737057
 30
0.0
 10
93.95509992413088
 20
1.187839342611305
 30
0.0
 10
92.76562903284054
 20
2.370224244929186
 30
0.0
 10
90.98244379874514
 20
4.055755970902342
 30
0.0
 10
89.1999587637156
 20
5.600563326013405
 30
0.0
 10
87.41748872463482
 20
6.949979672763571
 30
0.0
 10
85.63433968765145
 20
8.054104711796796
 30
0.0
 10
83.8500165905656
 20
8.886587432348263
 30
0.0
 10
82.06560845448037
 20
9.371128528289603
 30
0.0
 10
80.84399508694005
 20
9.574091290205658
 30
0.0
 10
80.2171632070268
 20
9.51922995147545
 30
0.0
 10
80.18462547118258
 20
9.516382196272076
 30
0.0
  0
SPLINE
  5
BE
330
1F
100
AcDbEntity
  8
0
  6
Continuous
 62
     1
370
    15
100
AcDbSpline
210
0.0
220
0.0
230
1.0
 70
     8
 71
     3
 72
    29
 73
    25
 74
     0
 42
0.000000001
 43
0.00000001
 40
0.0
 40
0.0
 40
0.0
 40
0.0
 40
0.0012458858549037
 40
0.0496770675698607
 40
0.0981198689440172
 40
0.1465875575462046
 40
0.1950642097860356
 40
0.2435129605405515
 40
0.291946177569566
 40
0.3403771860577668
 40
0.3888193244795315
 40
0.4372858643860142
 40
0.4857633386630112
 40
0.5342129137195611
 40
0.5826464663192459
 40
0.631077319627919
 40
0.679518813053922
 40
0.7279842220232922
 40
0.7764624279892529
 40
0.8249128452440257
 40
0.8733467514408851
 40
0.9217774676185241
 40
0.9702183340106402
 40
1.0
 40
1.0
 40
1.0
 40
1.0
 10
57.14554791120983
 20
-7.140621552961791
 30
0.0
 10
57.13026443675637
 20
-7.15171877598446
 30
0.0
 10
56.52086816651342
 20
-7.59419711038817
 30
0.0
 10
55.31728837757483
 20
-8.245344481534891
 30
0.0
 10
53.53423057284051
 20
-9.02581687637466
 30
0.0
 10
51.75006347445143
 20
-9.462830438770773
 30
0.0
 10
49.96551615434715
 20
-9.576567780432004
 30
0.0
 10
48.18218376920031
 20
-9.3535431006992
 30
0.0
 10
46.39962948687204
 20
-8.80417851168881
 30
0.0
 10
44.61720978306138
 20
-7.947028989997157
 30
0.0
 10
42.83419370405471
 20
-6.812046604086133
 30
0.0
 10
41.05007299543629
 20
-5.438896458977207
 30
0.0
 10
39.26549189432417
 20
-3.875878673349088
 30
0.0
 10
37.4821210244184
 20
-2.177026373711053
 30
0.0
 10
35.69954768003836
 20
-0.4024094680871177
 30
0.0
 10
33.91713765785099
 20
1.386225156765088
 30
0.0
 10
32.13415325285972
 20
3.126641828555434
 30
0.0
 10
30.35008077722718
 20
4.757755601132249
 30
0.0
 10
28.56546932547661
 20
6.222585118619791
 30
0.0
 10
26.78205838952747
 20
7.46920688071311
 30
0.0
 10
24.99946958757338
 20
8.458332504632704
 30
0.0
 10
23.21705177286358
 20
9.137642353785875
 30
0.0
 10
21.66334655366666
 20
9.497655466603842
 30
0.0
 10
20.70342553582066
 20
9.488833257582339
 30
0.0
 10
20.3379547915313
 20
9.485474377802207
 30
0.0
  0
SPLINE
  5
BF
330
1F
100
AcDbEntity
  8
0
  6
Continuous
 62
     1
370
    15
100
AcDbSpline
210
0.0
220
0.0
230
1.0
 70
     8
 71
     3
 72
    28
 73
    24
 74
     0
 42
0.000000001
 43
0.00000001
 40
0.0
 40
0.0
 40
0.0
 40
0.0
 40
0.0364947108085826
 40
0.0849729333796821
 40
0.1334383589498086
 40
0.1818798689683758
 40
0.230310738865969
 40
0.2787443080554981
 40
0.3271938997073806
 40
0.3756713905892666
 40
0.4241379470968926
 40
0.4725801021114427
 40
0.5210111271886165
 40
0.5694443608073606
 40
0.6178931281569268
 40
0.6663697970013656
 40
0.7148375022050896
 40
0.7632803201722586
 40
0.811711518476248
 40
0.8601444345534499
 40
0.9085923955035908
 40
0.9570681519703683
 40
1.0
 40
1.0
 40
1.0
 40
1.0
 10
27.22196315706253
 20
7.120507231746696
 30
0.0
 10
27.66969821834394
 20
7.412499995353564
 30
0.0
 10
28.71218795702313
 20
8.092365134700842
 30
0.0
 10
30.35008962285787
 20
8.840243041821813
 30
0.0
 10
32.13415088422983
 20
9.377483977148948
 30
0.0
 10
33.91713829223323
 20
9.578535125653996
 30
0.0
 10
35.69954751006691
 20
9.44705980751066
 30
0.0
 10
37.48212106996633
 20
8.984859190871292
 30
0.0
 10
39.26549188215771
 20
8.208631822363907
 30
0.0
 10
41.05007299851806
 20
7.145636708980898
 30
0.0
 10
42.83419370389432
 20
5.832727826137174
 30
0.0
 10
44.61720978062474
 20
4.315947920509368
 30
0.0
 10
46.39962949677674
 20
2.648529726684918
 30
0.0
 10
48.18218373201017
 20
0.8885303445146334
 30
0.0
 10
49.96551629328425
 20
-0.902862596223096
 30
0.0
 10
51.75006295562906
 20
-2.662351951141921
 30
0.0
 10
53.53423250825881
 20
-4.328963576822467
 30
0.0
 10
55.31728115932064
 20
-5.844410429692696
 30
0.0
 10
57.09971095483293
 20
-7.154804888860377
 30
0.0
 10
58.88224960746218
 20
-8.217436631723928
 30
0.0
 10
60.66553400242271
 20
-8.984647588713434
 30
0.0
 10
62.38212005914883
 20
-9.450457443236457
 30
0.0
 10
63.50380772298418
 20
-9.489702444617707
 30
0.0
 10
64.03063614810044
 20
-9.508134832650466
 30
0.0
  0
SPLINE
  5
C0
330
1F
100
AcDbEntity
  8
0
  6
Continuous
 62
     1
370
    15
100
AcDbSpline
210
0.0
220
0.0
230
1.0
 70
     8
 71
     3
 72
    12
 73
     8
 74
     0
 42
0.000000001
 43
0.00000001
 40
0.0
 40
0.0
 40
0.0
 40
0.0
 40
0.0466294539938302
 40
0.284904788106055
 40
0.5231813295402501
 40
0.7615246700786494
 40
1.0
 40
1.0
 40
1.0
 40
1.0
 10
87.06877269657156
 20
7.124078737473044
 30
0.0
 10
87.18505528043636
 20
7.206908027292333
 30
0.0
 10
87.89553893569875
 20
7.712992899486246
 30
0.0
 10
89.19993817876549
 20
8.400296009853488
 30
0.0
 10
90.98244928969405
 20
9.118363547357017
 30
0.0
 10
92.76562765905595
 20
9.520628055284558
 30
0.0
 10
93.9550994661182
 20
9.511080162239766
 30
0.0
 10
94.54999999999998
 20
9.506304894229151
 30
0.0
  0
LINE
  5
C1
330
1F
100
AcDbEntity
  8
0
  6
Continuous
 62
     1
370
    15
100
AcDbLine
 10
94.55000000000001
 20
6.167475262782243
 30
0.0
 11
94.55000000000001
 21
9.506304894229153
 31
0.0
  0
SPLINE
  5
C2
330
1F
100
AcDbEntity
  8
0
  6
Continuous
 62
     1
370
    15
100
AcDbSpline
210
0.0
220
0.0
230
1.0
 70
     8
 71
     3
 72
    14
 73
    10
 74
     0
 42
0.000000001
 43
0.00000001
 40
0.0
 40
0.0
 40
0.0
 40
0.0
 40
0.1454414470579422
 40
0.294401433437314
 40
0.4169535286153114
 40
0.5429534303088412
 40
0.6655679039357696
 40
0.7918281318609534
 40
1.0
 40
1.0
 40
1.0
 40
1.0
 10
94.55000000000001
 20
6.167475262783515
 30
0.0
 10
94.4645247862143
 20
5.948902589467787
 30
0.0
 10
94.29150653061456
 20
5.506469502916193
 30
0.0
 10
93.95035052857313
 20
4.946122913173777
 30
0.0
 10
93.56027858558242
 20
4.484719999741404
 30
0.0
 10
93.1403470973663
 20
4.134526544192102
 30
0.0
 10
92.67299295940333
 20
3.878980744712993
 30
0.0
 10
92.06727143477238
 20
3.676377391441855
 30
0.0
 10
91.6088007031586
 20
3.698206505442819
 30
0.0
 10
91.32341927652428
 20
3.711794338353835
 30
0.0
  0
SPLINE
  5
C3
330
1F
100
AcDbEntity
  8
0
  6
Continuous
 62
     1
370
    15
100
AcDbSpline
210
0.0
220
0.0
230
1.0
 70
     8
 71
     3
 72
    10
 73
     6
 74
     0
 42
0.000000001
 43
0.00000001
 40
0.0
 40
0.0
 40
0.0
 40
0.0
 40
0.3170532594118884
 40
0.6361292958226704
 40
1.0
 40
1.0
 40
1.0
 40
1.0
 10
94.55000000000001
 20
1.837376426293279
 30
0.0
 10
94.22384691006057
 20
2.038784381065498
 30
0.0
 10
93.56945989691835
 20
2.442885258880134
 30
0.0
 10
92.5440959411757
 20
3.03070272969541
 30
0.0
 10
91.86581689911989
 20
3.364008024881162
 30
0.0
 10
91.50443312203497
 20
3.541591466250006
 30
0.0
  0
LINE
  5
C4
330
1F
100
AcDbEntity
  8
0
  6
Continuous
 62
     1
370
    15
100
AcDbLine
 10
94.55000000000001
 20
0.5964832419737036
 30
0.0
 11
94.55000000000001
 21
1.837376426293277
 31
0.0
  0
LINE
  5
C5
102
{ACAD_REACTORS
102
}
330
1F
100
AcDbEntity
  8
0
  6
Continuous
 62
     1
370
    15
100
AcDbLine
 10
94.55000000000001
 20
9.506304894229153
 30
0.0
 11
94.55000000000001
 21
9.525000000000023
 31
0.0
  0
LINE
  5
C6
330
1F
100
AcDbEntity
  8
0
  6
Continuous
 62
     4
370
    15
100
AcDbLine
 10
12.0
 20
-2.789615946184794
 30
0.0
 11
12.0
 21
3.281274805302973
 31
0.0
  0
LINE
  5
C7
330
1F
100
AcDbEntity
  8
0
  6
Continuous
 62
     1
370
    15
100
AcDbLine
 10
94.55000000000001
 20
-5.269722087595473
 30
0.0
 11
94.55000000000001
 21
0.5964832419737036
 31
0.0
  0
LINE
  5
C8
330
1F
100
AcDbEntity
  8
0
  6
Continuous
 62
     1
370
    15
100
AcDbLine
 10
94.55000000000001
 20
1.837376426293278
 30
0.0
 11
94.55000000000001
 21
6.167475262782243
 31
0.0
  0
LINE
  5
C9
330
1F
100
AcDbEntity
  8
0
  6
Continuous
 62
     1
370
    15
100
AcDbLine
 10
94.55000000000001
 20
-5.269722087595474
 30
0.0
 11
94.55000000000001
 21
-5.568392862373715
 31
0.0
  0
LINE
  5
CA
330
1F
100
AcDbEntity
  8
중심선
100
AcDbLine
 10
-60.35000000000001
 20
-0.0000000000000015
 30
0.0
 11
11.11254243902305
 21
-0.0000000000000022
 31
0.0
  0
CIRCLE
  5
CB
330
1F
100
AcDbEntity
  8
외형선
100
AcDbCircle
 10
0.0
 20
0.0
 30
0.0
 40
3.000000000000008
  0
INSERT
  5
CC
330
1F
100
AcDbEntity
  8
0
  6
Continuous
 62
     7
100
AcDbBlockReference
 66
     1
  2
블럭10
 10
-2.360556835862468
 20
-52.04609937292004
 30
0.0
  0
ATTRIB
  5
CD
330
CC
100
AcDbEntity
  8
FORMAT
 62
     2
100
AcDbText
 10
-11.54185212460375
 20
-49.97073246008785
 30
0.0
 40
4.233333333333333
  1
E5982048 [ 3 FLUTE ]
 41
0.75
  7
SLDTEXTSTYLE0
 11
-11.54185212460375
 21
-52.08739912675452
 31
0.0
100
AcDbAttribute
  2
AUTOATTR0
 70
     0
 74
     1
  0
SEQEND
  5
CE
330
CC
100
AcDbEntity
  8
0
  6
Continuous
 62
     7
  0
HATCH
  5
CF
330
1F
100
AcDbEntity
  8
중심선
100
AcDbHatch
 10
0.0
 20
0.0
 30
0.0
210
0.0
220
0.0
230
1.0
  2
SOLID
 70
     1
 71
     0
 91
        1
 92
        0
 93
        4
 72
     1
 10
3.354352468518384
 20
-35.7989250712761
 11
-0.0919227753188991
 21
-35.7989250712761
 72
     1
 10
-0.0919227753188991
 20
-35.7989250712761
 11
-2.220152634522922
 21
-38.3352506518487
 72
     1
 10
-2.220152634522922
 20
-38.3352506518487
 11
1.226155694427511
 21
-38.33521122254621
 72
     1
 10
1.226155694427511
 20
-38.33521122254621
 11
3.354352468518384
 21
-35.7989250712761
 97
        0
 75
     0
 76
     1
 98
        1
 10
17.41430263458406
 20
0.0
  0
HATCH
  5
D0
330
1F
100
AcDbEntity
  8
중심선
100
AcDbHatch
 10
0.0
 20
0.0
 30
0.0
210
0.0
220
0.0
230
1.0
  2
SOLID
 70
     1
 71
     0
 91
        1
 92
        0
 93
        4
 72
     1
 10
8.367116459554335
 20
-35.7989250712761
 11
4.920841215717052
 21
-35.7989250712761
 72
     1
 10
4.920841215717052
 20
-35.7989250712761
 11
0.3897032073596662
 21
-41.19892507127612
 72
     1
 10
0.3897032073596662
 20
-41.19892507127612
 11
3.835978451196947
 21
-41.19892507127612
 72
     1
 10
3.835978451196947
 20
-41.19892507127612
 11
8.367116459554335
 21
-35.7989250712761
 97
        0
 75
     0
 76
     1
 98
        1
 10
17.41430263458406
 20
0.0
  0
HATCH
  5
D1
330
1F
100
AcDbEntity
  8
중심선
100
AcDbHatch
 10
0.0
 20
0.0
 30
0.0
210
0.0
220
0.0
230
1.0
  2
SOLID
 70
     1
 71
     0
 91
        1
 92
        0
 93
        4
 72
     1
 10
13.37988045059023
 20
-35.79892507127613
 11
9.933605206753116
 21
-35.7989250712761
 72
     1
 10
9.933605206753114
 20
-35.7989250712761
 11
2.885168304863865
 21
-44.19892507127612
 72
     1
 10
2.885168304863866
 20
-44.19892507127612
 11
6.331443548701149
 21
-44.19892507127612
 72
     1
 10
6.331443548701149
 20
-44.19892507127612
 11
13.37988045059023
 21
-35.79892507127613
 97
        0
 75
     0
 76
     1
 98
        1
 10
17.41430263458406
 20
0.0
  0
HATCH
  5
D2
330
1F
100
AcDbEntity
  8
중심선
100
AcDbHatch
 10
0.0
 20
0.0
 30
0.0
210
0.0
220
0.0
230
1.0
  2
SOLID
 70
     1
 71
     0
 91
        1
 92
        0
 93
        6
 72
     3
 10
18.17977088160243
 20
-39.99892507132738
 11
3.960054785062283
 21
1.540882976769353E-10
 40
0.3939339440162628
 50
17.09539180608437
 51
320.0019657685081
 73
     0
 72
     1
 10
19.86277053730302
 20
-38.58681907591441
 11
22.16807241100406
 21
-36.65249236586649
 72
     3
 10
18.17977088154958
 20
-39.99892507127625
 11
6.600054785286829
 21
-1.278976924368180E-13
 40
0.636358354079598
 50
39.99873849337411
 51
368.4976242363725
 73
     1
 72
     1
 10
24.60510337345019
 20
-39.03892507120613
 11
16.8598381883855
 21
-39.0389250712061
 72
     1
 10
16.85983818838551
 20
-39.0389250712061
 11
16.85981314393957
 21
-40.95892507120602
 72
     1
 10
16.85981314393957
 20
-40.95892507120602
 11
21.30119291341161
 21
-40.95892507120599
 97
        0
 75
     0
 76
     1
 98
        1
 10
17.41430263458406
 20
0.0
  0
POINT
  5
D3
330
1F
100
AcDbEntity
  8
치수문자_일반주서
100
AcDbPoint
 10
-57.85000000000001
 20
-0.0000000000000022
 30
0.0
  0
DIMENSION
  5
DF
330
1F
100
AcDbEntity
  8
치수문자_일반주서
100
AcDbDimension
  2
_D_1
 10
12.0
 20
30.13841845233052
 30
0.0
 11
53.27499999999999
 21
30.13841845233052
 31
0.0
 70
   160
  1
<>
 71
     2
 42
82.55000000000001
  3
SLDDIMSTYLE1
100
AcDbAlignedDimension
 13
94.55000000000001
 23
9.525000000000023
 33
0.0
 14
12.0
 24
9.281997010043
 34
0.0
 50
0.0000000000000148
100
AcDbRotatedDimension
1001
ACAD
1000
DSTYLE
1002
{
1070
   171
1070
     6
1070
   273
1070
     5
1002
}
  0
DIMENSION
  5
F3
330
1F
100
AcDbEntity
  8
치수문자_일반주서
100
AcDbDimension
  2
_D_2
 10
-57.85
 20
48.16110365728746
 30
0.0
 11
18.35
 21
48.16110365728746
 31
0.0
 70
   160
  1
<>
 71
     2
 42
152.4
  3
SLDDIMSTYLE2
100
AcDbAlignedDimension
 13
94.55000000000001
 23
9.525000000000023
 33
0.0
 14
-57.85
 24
9.025000000000006
 34
0.0
 50
0.000000000000008
100
AcDbRotatedDimension
1001
ACAD
1000
DSTYLE
1002
{
1070
   171
1070
     6
1070
   273
1070
     5
1002
}
  0
DIMENSION
  5
107
330
1F
100
AcDbEntity
  8
치수문자_일반주서
100
AcDbDimension
  2
_D_3
 10
-70.34999999999994
 20
-9.525000000000038
 30
0.0
 11
-70.35000000000008
 21
30.12899999999997
 31
0.0
 70
   160
  1
%%c<>
 71
     2
 42
19.05
 52
-270.0
  3
SLDDIMSTYLE3
100
AcDbAlignedDimension
 13
-57.35
 23
9.525000000000011
 33
0.0
 14
-57.35
 24
-9.52499999999999
 34
0.0
 50
90.0000000000002
100
AcDbRotatedDimension
1001
ACAD
1000
DSTYLE
1002
{
1070
   171
1070
     6
1070
   273
1070
     5
1002
}
  0
INSERT
  5
122
330
1F
100
AcDbEntity
  8
외형선
100
AcDbBlockReference
  2
SW_DOWELSYMBOL_0
 10
0.0
 20
0.0
 30
0.0
  0
DIMENSION
  5
14A
102
{ACAD_REACTORS
102
}
102
{ACAD_XDICTIONARY
360
14B
102
}
330
1F
100
AcDbEntity
  8
치수문자_일반주서
100
AcDbDimension
  2
*D7
 10
109.0222504626837
 20
9.525000000000023
 30
0.0
 11
106.3972504626837
 21
29.91025000000002
 31
0.0
 70
    32
  1
{Ø<>[]}
 71
     5
 42
19.05000000000001
  3
SLDDIMSTYLE3
100
AcDbAlignedDimension
 13
94.54999999999998
 23
-9.524999999999986
 33
0.0
 14
94.55000000000001
 24
9.525000000000023
 34
0.0
 50
90.0
100
AcDbRotatedDimension
1001
ACAD
1000
DSTYLE
1002
{
1070
   283
1070
     1
1070
   170
1070
     1
1070
   171
1070
     6
1070
   273
1070
     5
1002
}
  0
ENDSEC
  0
SECTION
  2
OBJECTS
  0
DICTIONARY
  5
C
330
0
100
AcDbDictionary
281
     1
  3
ACAD_GROUP
350
D
  3
ACAD_IMAGE_VARS
350
146
  3
ACAD_LAYOUT
350
1A
  3
ACAD_MLINESTYLE
350
17
  3
ACAD_PLOTSETTINGS
350
19
  3
ACAD_PLOTSTYLENAME
350
E
  3
ACAD_SCALELIST
350
47
  3
APPDATA
350
144
  3
DWGPROPS
350
15E
  0
DICTIONARY
  5
14B
330
14A
100
AcDbDictionary
280
     1
281
     1
  0
DICTIONARY
  5
D
102
{ACAD_REACTORS
330
C
102
}
330
C
100
AcDbDictionary
281
     1
  0
RASTERVARIABLES
  5
146
102
{ACAD_REACTORS
330
C
102
}
330
C
100
AcDbRasterVariables
 90
        0
 70
     1
 71
     1
 72
     1
  0
DICTIONARY
  5
1A
102
{ACAD_REACTORS
330
C
102
}
330
C
100
AcDbDictionary
281
     1
  3
Layout1
350
1E
  3
Layout2
350
26
  3
Model
350
22
  0
DICTIONARY
  5
17
102
{ACAD_REACTORS
330
C
102
}
330
C
100
AcDbDictionary
281
     1
  3
Standard
350
18
  0
DICTIONARY
  5
19
102
{ACAD_REACTORS
330
C
102
}
330
C
100
AcDbDictionary
281
     1
  0
ACDBDICTIONARYWDFLT
  5
E
102
{ACAD_REACTORS
330
C
102
}
330
C
100
AcDbDictionary
281
     1
  3
Normal
350
F
100
AcDbDictionaryWithDefault
340
F
  0
DICTIONARY
  5
47
102
{ACAD_REACTORS
330
C
102
}
330
C
100
AcDbDictionary
281
     1
  3
A0
350
48
  3
A1
350
49
  3
A2
350
4A
  3
A3
350
4B
  3
A4
350
4C
  3
A5
350
4D
  3
A6
350
4E
  3
A7
350
4F
  3
A8
350
50
  3
A9
350
51
  3
B0
350
52
  3
B1
350
53
  3
B2
350
54
  3
B3
350
55
  3
B4
350
56
  3
B5
350
57
  3
B6
350
58
  3
B7
350
59
  3
B8
350
5A
  3
B9
350
5B
  3
C0
350
5C
  3
C1
350
5D
  3
C2
350
5E
  3
C3
350
5F
  3
C4
350
60
  3
C5
350
61
  3
C6
350
62
  3
C7
350
63
  3
C8
350
64
  3
C9
350
65
  3
D0
350
66
  3
D1
350
67
  3
D2
350
68
  0
DICTIONARY
  5
144
102
{ACAD_REACTORS
330
C
102
}
330
C
100
AcDbDictionary
281
     1
  0
XRECORD
  5
15E
102
{ACAD_REACTORS
330
C
102
}
330
C
100
AcDbXrecord
280
     1
  1
DWGPROPS COOKIE
  2

  3

  4

  6

  7

  8
12014074
  9

300
=
301
=
302
=
303
=
304
=
305
=
306
=
307
=
308
=
309
=
 40
0.0
 41
2458269.022025683
 42
2458269.46187441
  1

 90
        0
  0
LAYOUT
  5
1E
102
{ACAD_REACTORS
330
1A
102
}
330
1A
100
AcDbPlotSettings
  1

  2
none_device
  4

  6

 40
0.0
 41
0.0
 42
0.0
 43
0.0
 44
0.0
 45
0.0
 46
0.0
 47
0.0
 48
0.0
 49
0.0
140
0.0
141
0.0
142
1.0
143
1.0
 70
   688
 72
     1
 73
     0
 74
     5
  7

 75
    16
147
1.0
148
0.0
149
0.0
100
AcDbLayout
  1
Layout1
 70
     1
 71
     1
 10
0.0
 20
0.0
 11
420.0
 21
297.0
 12
0.0
 22
0.0
 32
0.0
 14
1.000000000000000E+20
 24
1.000000000000000E+20
 34
1.000000000000000E+20
 15
-1.000000000000000E+20
 25
-1.000000000000000E+20
 35
-1.000000000000000E+20
146
0.0
 13
0.0
 23
0.0
 33
0.0
 16
1.0
 26
0.0
 36
0.0
 17
0.0
 27
1.0
 37
0.0
 76
     0
330
1B
  0
LAYOUT
  5
26
102
{ACAD_REACTORS
330
1A
102
}
330
1A
100
AcDbPlotSettings
  1

  2
none_device
  4

  6

 40
0.0
 41
0.0
 42
0.0
 43
0.0
 44
0.0
 45
0.0
 46
0.0
 47
0.0
 48
0.0
 49
0.0
140
0.0
141
0.0
142
1.0
143
1.0
 70
   688
 72
     1
 73
     0
 74
     5
  7

 75
    16
147
1.0
148
0.0
149
0.0
100
AcDbLayout
  1
Layout2
 70
     1
 71
     2
 10
0.0
 20
0.0
 11
0.0
 21
0.0
 12
0.0
 22
0.0
 32
0.0
 14
0.0
 24
0.0
 34
0.0
 15
0.0
 25
0.0
 35
0.0
146
0.0
 13
0.0
 23
0.0
 33
0.0
 16
1.0
 26
0.0
 36
0.0
 17
0.0
 27
1.0
 37
0.0
 76
     0
330
23
  0
LAYOUT
  5
22
102
{ACAD_REACTORS
330
1A
102
}
330
1A
100
AcDbPlotSettings
  1

  2
none_device
  4
ANSI_A_(11.00_x_8.50_Inches)
  6

 40
6.35
 41
19.05
 42
6.35000508
 43
19.05000254
 44
279.4
 45
215.9
 46
125.9448444036065
 47
82.39970978301312
 48
0.0
 49
0.0
140
0.0
141
0.0
142
0.0619831600098663
143
1.0
 70
  1696
 72
     0
 73
     0
 74
     0
  7

 75
     0
147
0.0235690232323232
148
0.0
149
0.0
100
AcDbLayout
  1
Model
 70
     1
 71
     0
 10
0.0
 20
0.0
 11
420.0
 21
297.0
 12
0.0
 22
0.0
 32
0.0
 14
-74.72500000000012
 24
-49.97073246008785
 34
0.0
 15
109.572583796017
 25
52.53610365728746
 35
0.0
146
0.0
 13
0.0
 23
0.0
 33
0.0
 16
1.0
 26
0.0
 36
0.0
 17
0.0
 27
1.0
 37
0.0
 76
     0
330
1F
331
29
  0
MLINESTYLE
  5
18
102
{ACAD_REACTORS
330
17
102
}
330
17
100
AcDbMlineStyle
  2
Standard
 70
     0
  3

 62
   256
 51
90.0
 52
90.0
 71
     2
 49
0.5
 62
   256
  6
BYLAYER
 49
-0.5
 62
   256
  6
BYLAYER
  0
ACDBPLACEHOLDER
  5
F
102
{ACAD_REACTORS
330
E
102
}
330
E
  0
SCALE
  5
48
102
{ACAD_REACTORS
330
47
102
}
330
47
100
AcDbScale
 70
     0
300
1:1
140
1.0
141
1.0
290
     1
  0
SCALE
  5
49
102
{ACAD_REACTORS
330
47
102
}
330
47
100
AcDbScale
 70
     0
300
1:2
140
1.0
141
2.0
290
     0
  0
SCALE
  5
4A
102
{ACAD_REACTORS
330
47
102
}
330
47
100
AcDbScale
 70
     0
300
1:4
140
1.0
141
4.0
290
     0
  0
SCALE
  5
4B
102
{ACAD_REACTORS
330
47
102
}
330
47
100
AcDbScale
 70
     0
300
1:5
140
1.0
141
5.0
290
     0
  0
SCALE
  5
4C
102
{ACAD_REACTORS
330
47
102
}
330
47
100
AcDbScale
 70
     0
300
1:8
140
1.0
141
8.0
290
     0
  0
SCALE
  5
4D
102
{ACAD_REACTORS
330
47
102
}
330
47
100
AcDbScale
 70
     0
300
1:10
140
1.0
141
10.0
290
     0
  0
SCALE
  5
4E
102
{ACAD_REACTORS
330
47
102
}
330
47
100
AcDbScale
 70
     0
300
1:16
140
1.0
141
16.0
290
     0
  0
SCALE
  5
4F
102
{ACAD_REACTORS
330
47
102
}
330
47
100
AcDbScale
 70
     0
300
1:20
140
1.0
141
20.0
290
     0
  0
SCALE
  5
50
102
{ACAD_REACTORS
330
47
102
}
330
47
100
AcDbScale
 70
     0
300
1:30
140
1.0
141
30.0
290
     0
  0
SCALE
  5
51
102
{ACAD_REACTORS
330
47
102
}
330
47
100
AcDbScale
 70
     0
300
1:40
140
1.0
141
40.0
290
     0
  0
SCALE
  5
52
102
{ACAD_REACTORS
330
47
102
}
330
47
100
AcDbScale
 70
     0
300
1:50
140
1.0
141
50.0
290
     0
  0
SCALE
  5
53
102
{ACAD_REACTORS
330
47
102
}
330
47
100
AcDbScale
 70
     0
300
1:100
140
1.0
141
100.0
290
     0
  0
SCALE
  5
54
102
{ACAD_REACTORS
330
47
102
}
330
47
100
AcDbScale
 70
     0
300
2:1
140
2.0
141
1.0
290
     0
  0
SCALE
  5
55
102
{ACAD_REACTORS
330
47
102
}
330
47
100
AcDbScale
 70
     0
300
4:1
140
4.0
141
1.0
290
     0
  0
SCALE
  5
56
102
{ACAD_REACTORS
330
47
102
}
330
47
100
AcDbScale
 70
     0
300
8:1
140
8.0
141
1.0
290
     0
  0
SCALE
  5
57
102
{ACAD_REACTORS
330
47
102
}
330
47
100
AcDbScale
 70
     0
300
10:1
140
10.0
141
1.0
290
     0
  0
SCALE
  5
58
102
{ACAD_REACTORS
330
47
102
}
330
47
100
AcDbScale
 70
     0
300
100:1
140
100.0
141
1.0
290
     0
  0
SCALE
  5
59
102
{ACAD_REACTORS
330
47
102
}
330
47
100
AcDbScale
 70
     0
300
1/128" = 1'-0"
140
0.0078125
141
12.0
290
     0
  0
SCALE
  5
5A
102
{ACAD_REACTORS
330
47
102
}
330
47
100
AcDbScale
 70
     0
300
1/64" = 1'-0"
140
0.015625
141
12.0
290
     0
  0
SCALE
  5
5B
102
{ACAD_REACTORS
330
47
102
}
330
47
100
AcDbScale
 70
     0
300
1/32" = 1'-0"
140
0.03125
141
12.0
290
     0
  0
SCALE
  5
5C
102
{ACAD_REACTORS
330
47
102
}
330
47
100
AcDbScale
 70
     0
300
1/16" = 1'-0"
140
0.0625
141
12.0
290
     0
  0
SCALE
  5
5D
102
{ACAD_REACTORS
330
47
102
}
330
47
100
AcDbScale
 70
     0
300
3/32" = 1'-0"
140
0.09375
141
12.0
290
     0
  0
SCALE
  5
5E
102
{ACAD_REACTORS
330
47
102
}
330
47
100
AcDbScale
 70
     0
300
1/8" = 1'-0"
140
0.125
141
12.0
290
     0
  0
SCALE
  5
5F
102
{ACAD_REACTORS
330
47
102
}
330
47
100
AcDbScale
 70
     0
300
3/16" = 1'-0"
140
0.1875
141
12.0
290
     0
  0
SCALE
  5
60
102
{ACAD_REACTORS
330
47
102
}
330
47
100
AcDbScale
 70
     0
300
1/4" = 1'-0"
140
0.25
141
12.0
290
     0
  0
SCALE
  5
61
102
{ACAD_REACTORS
330
47
102
}
330
47
100
AcDbScale
 70
     0
300
3/8" = 1'-0"
140
0.375
141
12.0
290
     0
  0
SCALE
  5
62
102
{ACAD_REACTORS
330
47
102
}
330
47
100
AcDbScale
 70
     0
300
1/2" = 1'-0"
140
0.5
141
12.0
290
     0
  0
SCALE
  5
63
102
{ACAD_REACTORS
330
47
102
}
330
47
100
AcDbScale
 70
     0
300
3/4" = 1'-0"
140
0.75
141
12.0
290
     0
  0
SCALE
  5
64
102
{ACAD_REACTORS
330
47
102
}
330
47
100
AcDbScale
 70
     0
300
1" = 1'-0"
140
1.0
141
12.0
290
     0
  0
SCALE
  5
65
102
{ACAD_REACTORS
330
47
102
}
330
47
100
AcDbScale
 70
     0
300
1-1/2" = 1'-0"
140
1.5
141
12.0
290
     0
  0
SCALE
  5
66
102
{ACAD_REACTORS
330
47
102
}
330
47
100
AcDbScale
 70
     0
300
3" = 1'-0"
140
3.0
141
12.0
290
     0
  0
SCALE
  5
67
102
{ACAD_REACTORS
330
47
102
}
330
47
100
AcDbScale
 70
     0
300
6" = 1'-0"
140
6.0
141
12.0
290
     0
  0
SCALE
  5
68
102
{ACAD_REACTORS
330
47
102
}
330
47
100
AcDbScale
 70
     0
300
1'-0" = 1'-0"
140
12.0
141
12.0
290
     0
  0
ENDSEC
  0
EOF
