  0
SECTION
  2
HEADER
  9
$ACADVER
  1
AC1015
  9
$ACADMAINTVER
 70
     6
  9
$DWGCODEPAGE
  3
ANSI_949
  9
$INSBASE
 10
0.0
 20
0.0
 30
0.0
  9
$EXTMIN
 10
-74.72500000000007
 20
-49.97073246008785
 30
0.0
  9
$EXTMAX
 10
116.517532680385
 20
55.71110365728745
 30
0.0
  9
$LIMMIN
 10
0.0
 20
0.0
  9
$LIMMAX
 10
420.0
 20
297.0
  9
$ORTHOMODE
 70
     1
  9
$REGENMODE
 70
     1
  9
$FILLMODE
 70
     1
  9
$QTEXTMODE
 70
     0
  9
$MIRRTEXT
 70
     1
  9
$LTSCALE
 40
1.0
  9
$ATTMODE
 70
     1
  9
$TEXTSIZE
 40
3.5
  9
$TRACEWID
 40
1.0
  9
$TEXTSTYLE
  7
Standard
  9
$CLAYER
  8
0
  9
$CELTYPE
  6
ByLayer
  9
$CECOLOR
 62
   256
  9
$CELTSCALE
 40
1.0
  9
$DISPSILH
 70
     0
  9
$DIMSCALE
 40
1.0
  9
$DIMASZ
 40
3.302
  9
$DIMEXO
 40
1.0
  9
$DIMDLI
 40
3.75
  9
$DIMRND
 40
0.0
  9
$DIMDLE
 40
0.0
  9
$DIMEXE
 40
1.0
  9
$DIMTP
 40
0.0
  9
$DIMTM
 40
0.0
  9
$DIMTXT
 40
3.5
  9
$DIMCEN
 40
2.5
  9
$DIMTSZ
 40
0.0
  9
$DIMTOL
 70
     0
  9
$DIMLIM
 70
     0
  9
$DIMTIH
 70
     1
  9
$DIMTOH
 70
     1
  9
$DIMSE1
 70
     0
  9
$DIMSE2
 70
     0
  9
$DIMTAD
 70
     1
  9
$DIMZIN
 70
     0
  9
$DIMBLK
  1

  9
$DIMASO
 70
     1
  9
$DIMSHO
 70
     1
  9
$DIMPOST
  1

  9
$DIMAPOST
  1

  9
$DIMALT
 70
     0
  9
$DIMALTD
 70
     3
  9
$DIMALTF
 40
0.0393700787401575
  9
$DIMLFAC
 40
1.0
  9
$DIMTOFL
 70
     1
  9
$DIMTVP
 40
0.0
  9
$DIMTIX
 70
     0
  9
$DIMSOXD
 70
     0
  9
$DIMSAH
 70
     0
  9
$DIMBLK1
  1

  9
$DIMBLK2
  1

  9
$DIMSTYLE
  2
ISO-25
  9
$DIMCLRD
 70
     0
  9
$DIMCLRE
 70
     0
  9
$DIMCLRT
 70
     0
  9
$DIMTFAC
 40
1.0
  9
$DIMGAP
 40
1.524
  9
$DIMJUST
 70
     0
  9
$DIMSD1
 70
     0
  9
$DIMSD2
 70
     0
  9
$DIMTOLJ
 70
     0
  9
$DIMTZIN
 70
     0
  9
$DIMALTZ
 70
     0
  9
$DIMALTTZ
 70
     0
  9
$DIMUPT
 70
     0
  9
$DIMDEC
 70
     2
  9
$DIMTDEC
 70
     2
  9
$DIMALTU
 70
     2
  9
$DIMALTTD
 70
     3
  9
$DIMTXSTY
  7
Standard
  9
$DIMAUNIT
 70
     0
  9
$DIMADEC
 70
     2
  9
$DIMALTRND
 40
0.0
  9
$DIMAZIN
 70
     0
  9
$DIMDSEP
 70
    44
  9
$DIMATFIT
 70
     3
  9
$DIMFRAC
 70
     0
  9
$DIMLDRBLK
  1

  9
$DIMLUNIT
 70
     2
  9
$DIMLWD
 70
    -2
  9
$DIMLWE
 70
    -2
  9
$DIMTMOVE
 70
     0
  9
$LUNITS
 70
     2
  9
$LUPREC
 70
     2
  9
$SKETCHINC
 40
1.0
  9
$FILLETRAD
 40
10.0
  9
$AUNITS
 70
     0
  9
$AUPREC
 70
     2
  9
$MENU
  1
.
  9
$ELEVATION
 40
0.0
  9
$PELEVATION
 40
0.0
  9
$THICKNESS
 40
0.0
  9
$LIMCHECK
 70
     0
  9
$CHAMFERA
 40
0.0
  9
$CHAMFERB
 40
0.0
  9
$CHAMFERC
 40
0.0
  9
$CHAMFERD
 40
0.0
  9
$SKPOLY
 70
     0
  9
$TDCREATE
 40
2458269.397132928
  9
$TDUCREATE
 40
2458269.022132928
  9
$TDUPDATE
 40
2458269.837950637
  9
$TDUUPDATE
 40
2458269.462950637
  9
$TDINDWG
 40
0.0010227894
  9
$TDUSRTIMER
 40
2458269.461928021
  9
$USRTIMER
 70
     1
  9
$ANGBASE
 50
0.0
  9
$ANGDIR
 70
     0
  9
$PDMODE
 70
     0
  9
$PDSIZE
 40
-1.0
  9
$PLINEWID
 40
0.0
  9
$SPLFRAME
 70
     0
  9
$SPLINETYPE
 70
     6
  9
$SPLINESEGS
 70
     8
  9
$HANDSEED
  5
15A
  9
$SURFTAB1
 70
     6
  9
$SURFTAB2
 70
     6
  9
$SURFTYPE
 70
     6
  9
$SURFU
 70
     6
  9
$SURFV
 70
     6
  9
$UCSBASE
  2

  9
$UCSNAME
  2

  9
$UCSORG
 10
0.0
 20
0.0
 30
0.0
  9
$UCSXDIR
 10
1.0
 20
0.0
 30
0.0
  9
$UCSYDIR
 10
0.0
 20
1.0
 30
0.0
  9
$UCSORTHOREF
  2

  9
$UCSORTHOVIEW
 70
     0
  9
$UCSORGTOP
 10
0.0
 20
0.0
 30
0.0
  9
$UCSORGBOTTOM
 10
0.0
 20
0.0
 30
0.0
  9
$UCSORGLEFT
 10
0.0
 20
0.0
 30
0.0
  9
$UCSORGRIGHT
 10
0.0
 20
0.0
 30
0.0
  9
$UCSORGFRONT
 10
0.0
 20
0.0
 30
0.0
  9
$UCSORGBACK
 10
0.0
 20
0.0
 30
0.0
  9
$PUCSBASE
  2

  9
$PUCSNAME
  2

  9
$PUCSORG
 10
0.0
 20
0.0
 30
0.0
  9
$PUCSXDIR
 10
1.0
 20
0.0
 30
0.0
  9
$PUCSYDIR
 10
0.0
 20
1.0
 30
0.0
  9
$PUCSORTHOREF
  2

  9
$PUCSORTHOVIEW
 70
     0
  9
$PUCSORGTOP
 10
0.0
 20
0.0
 30
0.0
  9
$PUCSORGBOTTOM
 10
0.0
 20
0.0
 30
0.0
  9
$PUCSORGLEFT
 10
0.0
 20
0.0
 30
0.0
  9
$PUCSORGRIGHT
 10
0.0
 20
0.0
 30
0.0
  9
$PUCSORGFRONT
 10
0.0
 20
0.0
 30
0.0
  9
$PUCSORGBACK
 10
0.0
 20
0.0
 30
0.0
  9
$USERI1
 70
     0
  9
$USERI2
 70
     0
  9
$USERI3
 70
     0
  9
$USERI4
 70
     0
  9
$USERI5
 70
     0
  9
$USERR1
 40
0.0
  9
$USERR2
 40
0.0
  9
$USERR3
 40
0.0
  9
$USERR4
 40
0.0
  9
$USERR5
 40
0.0
  9
$WORLDVIEW
 70
     1
  9
$SHADEDGE
 70
     3
  9
$SHADEDIF
 70
    70
  9
$TILEMODE
 70
     1
  9
$MAXACTVP
 70
    64
  9
$PINSBASE
 10
0.0
 20
0.0
 30
0.0
  9
$PLIMCHECK
 70
     0
  9
$PEXTMIN
 10
1.000000000000000E+20
 20
1.000000000000000E+20
 30
1.000000000000000E+20
  9
$PEXTMAX
 10
-1.000000000000000E+20
 20
-1.000000000000000E+20
 30
-1.000000000000000E+20
  9
$PLIMMIN
 10
0.0
 20
0.0
  9
$PLIMMAX
 10
0.0
 20
0.0
  9
$UNITMODE
 70
     0
  9
$VISRETAIN
 70
     1
  9
$PLINEGEN
 70
     0
  9
$PSLTSCALE
 70
     1
  9
$TREEDEPTH
 70
  3020
  9
$CMLSTYLE
  2
Standard
  9
$CMLJUST
 70
     0
  9
$CMLSCALE
 40
20.0
  9
$PROXYGRAPHICS
 70
     1
  9
$MEASUREMENT
 70
     1
  9
$CELWEIGHT
370
    -1
  9
$ENDCAPS
280
     0
  9
$JOINSTYLE
280
     0
  9
$LWDISPLAY
290
     1
  9
$INSUNITS
 70
     4
  9
$HYPERLINKBASE
  1

  9
$STYLESHEET
  1

  9
$XEDIT
290
     1
  9
$CEPSNTYPE
380
     0
  9
$PSTYLEMODE
290
     1
  9
$FINGERPRINTGUID
  2
{48AF07DD-4E73-485D-BCC9-528BBD10ACA2}
  9
$VERSIONGUID
  2
{FAEB1C32-E019-11D5-929B-00C0DF256EC4}
  9
$EXTNAMES
290
     1
  9
$PSVPSCALE
 40
0.0
  9
$OLESTARTUP
290
     0
  0
ENDSEC
  0
SECTION
  2
CLASSES
  0
CLASS
  1
ACDBDICTIONARYWDFLT
  2
AcDbDictionaryWithDefault
  3
ObjectDBX Classes
 90
        0
280
     0
281
     0
  0
CLASS
  1
VISUALSTYLE
  2
AcDbVisualStyle
  3
ObjectDBX Classes
 90
     4095
280
     0
281
     0
  0
CLASS
  1
MATERIAL
  2
AcDbMaterial
  3
ObjectDBX Classes
 90
     1153
280
     0
281
     0
  0
CLASS
  1
SCALE
  2
AcDbScale
  3
ObjectDBX Classes
 90
     1153
280
     0
281
     0
  0
CLASS
  1
SUN
  2
AcDbSun
  3
SCENEOE
 90
     1153
280
     0
281
     0
  0
CLASS
  1
ACDBPLACEHOLDER
  2
AcDbPlaceHolder
  3
ObjectDBX Classes
 90
        0
280
     0
281
     0
  0
CLASS
  1
LAYOUT
  2
AcDbLayout
  3
ObjectDBX Classes
 90
        0
280
     0
281
     0
  0
CLASS
  1
TABLESTYLE
  2
AcDbTableStyle
  3
ObjectDBX Classes
 90
     4095
280
     0
281
     0
  0
CLASS
  1
MLEADERSTYLE
  2
AcDbMLeaderStyle
  3
ACDB_MLEADERSTYLE_CLASS
 90
     4095
280
     0
281
     0
  0
CLASS
  1
RASTERVARIABLES
  2
AcDbRasterVariables
  3
ISM
 90
        0
280
     0
281
     0
  0
CLASS
  1
DIMASSOC
  2
AcDbDimAssoc
  3
"AcDbDimAssoc|Product Desc:     AcDim ARX App For Dimension|Company:          Autodesk, Inc.|WEB Address:      www.autodesk.com"
 90
        0
280
     0
281
     0
  0
ENDSEC
  0
SECTION
  2
TABLES
  0
TABLE
  2
VPORT
  5
8
330
0
100
AcDbSymbolTable
 70
     1
  0
VPORT
  5
29
330
8
100
AcDbSymbolTableRecord
100
AcDbViewportTableRecord
  2
*Active
 70
     0
 10
0.0
 20
0.0
 11
1.0
 21
1.0
 12
47.26216194091443
 22
-2.384318055870999
 13
0.0
 23
0.0
 14
10.0
 24
10.0
 15
10.0
 25
10.0
 16
0.0
 26
0.0
 36
1.0
 17
0.0
 27
0.0
 37
0.0
 40
145.6492726852541
 41
1.970186335403727
 42
50.0
 43
0.0
 44
0.0
 50
0.0
 51
0.0
 71
    16
 72
  2000
 73
     1
 74
     3
 75
     0
 76
     0
 77
     0
 78
     0
281
     0
 65
     1
110
0.0
120
0.0
130
0.0
111
1.0
121
0.0
131
0.0
112
0.0
122
1.0
132
0.0
 79
     0
146
0.0
  0
ENDTAB
  0
TABLE
  2
LTYPE
  5
5
330
0
100
AcDbSymbolTable
 70
     6
  0
LTYPE
  5
14
330
5
100
AcDbSymbolTableRecord
100
AcDbLinetypeTableRecord
  2
ByBlock
 70
     0
  3

 72
    65
 73
     0
 40
0.0
  0
LTYPE
  5
15
330
5
100
AcDbSymbolTableRecord
100
AcDbLinetypeTableRecord
  2
ByLayer
 70
     0
  3

 72
    65
 73
     0
 40
0.0
  0
LTYPE
  5
16
330
5
100
AcDbSymbolTableRecord
100
AcDbLinetypeTableRecord
  2
Continuous
 70
     0
  3
Solid line
 72
    65
 73
     0
 40
0.0
  0
LTYPE
  5
6A
330
5
100
AcDbSymbolTableRecord
100
AcDbLinetypeTableRecord
  2
HIDDEN
 70
     0
  3
Hidden __ __ __ __ __ __ __ __ __ __ __ __ __ __
 72
    65
 73
     2
 40
1.905
 49
1.27
 74
     0
 49
-0.635
 74
     0
  0
LTYPE
  5
6B
330
5
100
AcDbSymbolTableRecord
100
AcDbLinetypeTableRecord
  2
PHANTOM
 70
     0
  3
Phantom ______  __  __  ______  __  __  ______
 72
    65
 73
     6
 40
12.7
 49
6.35
 74
     0
 49
-1.27
 74
     0
 49
1.27
 74
     0
 49
-1.27
 74
     0
 49
1.27
 74
     0
 49
-1.27
 74
     0
  0
LTYPE
  5
6C
330
5
100
AcDbSymbolTableRecord
100
AcDbLinetypeTableRecord
  2
CENTER
 70
     0
  3
Center ____ _ ____ _ ____ _ ____ _ ____ _ ____
 72
    65
 73
     4
 40
10.16
 49
6.35
 74
     0
 49
-1.27
 74
     0
 49
1.27
 74
     0
 49
-1.27
 74
     0
  0
LTYPE
  5
6D
330
5
100
AcDbSymbolTableRecord
100
AcDbLinetypeTableRecord
  2
CENTERX2
 70
     0
  3
Center (2x) ________  __  ________  __  _____
 72
    65
 73
     4
 40
20.32
 49
12.7
 74
     0
 49
-2.54
 74
     0
 49
2.54
 74
     0
 49
-2.54
 74
     0
  0
LTYPE
  5
6E
330
5
100
AcDbSymbolTableRecord
100
AcDbLinetypeTableRecord
  2
DOT2
 70
     0
  3
Dot (.5x) ........................................
 72
    65
 73
     2
 40
0.635
 49
0.0
 74
     0
 49
-0.635
 74
     0
  0
ENDTAB
  0
TABLE
  2
LAYER
  5
2
330
0
100
AcDbSymbolTable
 70
    17
  0
LAYER
  5
10
330
2
100
AcDbSymbolTableRecord
100
AcDbLayerTableRecord
  2
0
 70
     0
 62
     7
  6
Continuous
370
    -3
390
F
  0
LAYER
  5
6F
330
2
100
AcDbSymbolTableRecord
100
AcDbLayerTableRecord
  2
FORMAT
 70
     0
 62
     2
  6
Continuous
370
    -3
390
F
  0
LAYER
  5
70
330
2
100
AcDbSymbolTableRecord
100
AcDbLayerTableRecord
  2
외형선
 70
     0
 62
   100
  6
Continuous
370
    30
390
F
  0
LAYER
  5
71
330
2
100
AcDbSymbolTableRecord
100
AcDbLayerTableRecord
  2
숨은선
 70
     0
 62
     2
  6
HIDDEN
370
    15
390
F
  0
LAYER
  5
72
330
2
100
AcDbSymbolTableRecord
100
AcDbLayerTableRecord
  2
중심선
 70
     0
 62
     1
  6
CENTERX2
370
    -3
390
F
  0
LAYER
  5
73
330
2
100
AcDbSymbolTableRecord
100
AcDbLayerTableRecord
  2
파단선
 70
     0
 62
     4
  6
Continuous
370
    -3
390
F
  0
LAYER
  5
74
330
2
100
AcDbSymbolTableRecord
100
AcDbLayerTableRecord
  2
해칭선
 70
     0
 62
     4
  6
Continuous
370
    -3
390
F
  0
LAYER
  5
75
330
2
100
AcDbSymbolTableRecord
100
AcDbLayerTableRecord
  2
가는실선
 70
     0
 62
     4
  6
Continuous
370
    -3
390
F
  0
LAYER
  5
76
330
2
100
AcDbSymbolTableRecord
100
AcDbLayerTableRecord
  2
치수_보조선
 70
     0
 62
     4
  6
Continuous
370
    -3
390
F
  0
LAYER
  5
77
330
2
100
AcDbSymbolTableRecord
100
AcDbLayerTableRecord
  2
치수문자_일반주서
 70
     0
 62
     7
  6
Continuous
370
    15
390
F
  0
LAYER
  5
78
330
2
100
AcDbSymbolTableRecord
100
AcDbLayerTableRecord
  2
개별주서
 70
     0
 62
   100
  6
Continuous
370
    30
390
F
  0
LAYER
  5
79
330
2
100
AcDbSymbolTableRecord
100
AcDbLayerTableRecord
  2
중간선
 70
     0
 62
     2
  6
Continuous
370
    15
390
F
  0
LAYER
  5
7A
330
2
100
AcDbSymbolTableRecord
100
AcDbLayerTableRecord
  2
윤곽선
 70
     0
 62
     3
  6
Continuous
370
    40
390
F
  0
LAYER
  5
7B
330
2
100
AcDbSymbolTableRecord
100
AcDbLayerTableRecord
  2
중심마크
 70
     0
 62
   100
  6
Continuous
370
    30
390
F
  0
LAYER
  5
7C
330
2
100
AcDbSymbolTableRecord
100
AcDbLayerTableRecord
  2
가상선
 70
     0
 62
     4
  6
PHANTOM
370
    -3
390
F
  0
LAYER
  5
7D
330
2
100
AcDbSymbolTableRecord
100
AcDbLayerTableRecord
  2
특수지정선
 70
     0
 62
     5
  6
CENTERX2
370
    60
390
F
  0
LAYER
  5
145
330
2
100
AcDbSymbolTableRecord
100
AcDbLayerTableRecord
  2
Defpoints
 70
     0
 62
     7
  6
Continuous
290
     0
370
    -3
390
F
  0
ENDTAB
  0
TABLE
  2
STYLE
  5
3
330
0
100
AcDbSymbolTable
 70
     2
  0
STYLE
  5
11
330
3
100
AcDbSymbolTableRecord
100
AcDbTextStyleTableRecord
  2
Standard
 70
     0
 40
0.0
 41
1.0
 50
0.0
 71
     0
 42
3.5
  3
txt
  4

  0
STYLE
  5
93
330
3
100
AcDbSymbolTableRecord
100
AcDbTextStyleTableRecord
  2
SLDTEXTSTYLE0
 70
     0
 40
0.0
 41
0.75
 50
0.0
 71
     0
 42
3.5
  3
TXT
  4

  0
ENDTAB
  0
TABLE
  2
VIEW
  5
6
330
0
100
AcDbSymbolTable
 70
     0
  0
ENDTAB
  0
TABLE
  2
UCS
  5
7
330
0
100
AcDbSymbolTable
 70
     0
  0
ENDTAB
  0
TABLE
  2
APPID
  5
9
330
0
100
AcDbSymbolTable
 70
     2
  0
APPID
  5
12
330
9
100
AcDbSymbolTableRecord
100
AcDbRegAppTableRecord
  2
ACAD
 70
     0
  0
APPID
  5
156
330
9
100
AcDbSymbolTableRecord
100
AcDbRegAppTableRecord
  2
PE_DIMMEASUREMENT
 70
     0
  0
ENDTAB
  0
TABLE
  2
DIMSTYLE
  5
A
330
0
100
AcDbSymbolTable
 70
     5
100
AcDbDimStyleTable
  0
DIMSTYLE
105
27
330
A
100
AcDbSymbolTableRecord
100
AcDbDimStyleTableRecord
  2
ISO-25
 70
     0
 41
2.5
 42
0.625
 43
3.75
 44
1.25
 73
     0
 74
     0
 77
     1
 78
     8
140
2.5
141
2.5
143
0.03937007874016
147
0.625
171
     3
172
     1
178
     0
271
     2
272
     2
274
     3
278
    44
283
     0
284
     8
340
11
  0
DIMSTYLE
105
D1
330
A
100
AcDbSymbolTableRecord
100
AcDbDimStyleTableRecord
  2
SLDDIMSTYLE0
 70
     0
 41
3.302
 44
0.0
 45
0.000000001
 73
     0
 74
     0
 77
     1
 78
    12
 79
     3
140
3.5
147
0.875
173
     1
178
     0
271
     2
272
     2
276
     2
284
    12
340
93
  0
DIMSTYLE
105
DC
102
{ACAD_REACTORS
330
DB
102
}
330
A
100
AcDbSymbolTableRecord
100
AcDbDimStyleTableRecord
  2
SLDDIMSTYLE1
 70
     0
 41
3.302
 44
0.0
 45
0.000000001
 73
     0
 74
     0
 77
     1
 78
    12
 79
     3
140
3.5
143
0.0393700787401575
147
0.875
148
0.000000001
170
     1
173
     1
178
     0
271
     2
272
     2
276
     2
284
    12
340
93
  0
DIMSTYLE
105
F0
102
{ACAD_REACTORS
330
EF
102
}
330
A
100
AcDbSymbolTableRecord
100
AcDbDimStyleTableRecord
  2
SLDDIMSTYLE2
 70
     0
 41
3.302
 44
0.0
 45
0.000000001
 73
     0
 74
     0
 77
     1
 78
     4
 79
     1
140
3.5
143
0.0393700787401575
147
0.875
148
0.000000001
170
     1
173
     1
178
     0
271
     2
272
     2
276
     2
284
    12
340
93
  0
DIMSTYLE
105
104
102
{ACAD_REACTORS
330
103
330
146
102
}
330
A
100
AcDbSymbolTableRecord
100
AcDbDimStyleTableRecord
  2
SLDDIMSTYLE3
 70
     0
 41
3.302
 44
0.0
 45
0.000000001
 73
     0
 74
     0
 77
     1
 78
     4
 79
     1
140
3.5
143
0.0393700787401575
147
0.875
148
0.000000001
170
     1
172
     1
173
     1
178
     0
271
     2
272
     2
276
     2
284
    12
289
     0
340
93
  0
ENDTAB
  0
TABLE
  2
BLOCK_RECORD
  5
1
330
0
100
AcDbSymbolTable
 70
     8
  0
BLOCK_RECORD
  5
1F
330
1
100
AcDbSymbolTableRecord
100
AcDbBlockTableRecord
  2
*Model_Space
340
22
  0
BLOCK_RECORD
  5
1B
330
1
100
AcDbSymbolTableRecord
100
AcDbBlockTableRecord
  2
*Paper_Space
340
1E
  0
BLOCK_RECORD
  5
23
330
1
100
AcDbSymbolTableRecord
100
AcDbBlockTableRecord
  2
*Paper_Space0
340
26
  0
BLOCK_RECORD
  5
7E
330
1
100
AcDbSymbolTableRecord
100
AcDbBlockTableRecord
  2
블럭10
340
0
102
{BLKREFS
331
C8
102
}
  0
BLOCK_RECORD
  5
D2
330
1
100
AcDbSymbolTableRecord
100
AcDbBlockTableRecord
  2
_D
340
0
  0
BLOCK_RECORD
  5
DD
330
1
100
AcDbSymbolTableRecord
100
AcDbBlockTableRecord
  2
_D_1
340
0
  0
BLOCK_RECORD
  5
F1
330
1
100
AcDbSymbolTableRecord
100
AcDbBlockTableRecord
  2
_D_2
340
0
  0
BLOCK_RECORD
  5
105
330
1
100
AcDbSymbolTableRecord
100
AcDbBlockTableRecord
  2
_D_3
340
0
  0
BLOCK_RECORD
  5
118
330
1
100
AcDbSymbolTableRecord
100
AcDbBlockTableRecord
  2
SW_DOWELSYMBOL_0
340
0
102
{BLKREFS
331
11E
102
}
  0
BLOCK_RECORD
  5
149
330
1
100
AcDbSymbolTableRecord
100
AcDbBlockTableRecord
  2
*D7
340
0
  0
ENDTAB
  0
ENDSEC
  0
SECTION
  2
BLOCKS
  0
BLOCK
  5
20
330
1F
100
AcDbEntity
  8
0
100
AcDbBlockBegin
  2
*Model_Space
 70
     0
 10
0.0
 20
0.0
 30
0.0
  3
*Model_Space
  1
*Model_Space
  0
ENDBLK
  5
21
330
1F
100
AcDbEntity
  8
0
100
AcDbBlockEnd
  0
BLOCK
  5
1C
330
1B
100
AcDbEntity
 67
     1
  8
0
100
AcDbBlockBegin
  2
*Paper_Space
 70
     0
 10
0.0
 20
0.0
 30
0.0
  3
*Paper_Space
  1
*Paper_Space
  0
ENDBLK
  5
1D
330
1B
100
AcDbEntity
 67
     1
  8
0
100
AcDbBlockEnd
  0
BLOCK
  5
24
330
23
100
AcDbEntity
  8
0
100
AcDbBlockBegin
  2
*Paper_Space0
 70
     0
 10
0.0
 20
0.0
 30
0.0
  3
*Paper_Space0
  1
*Paper_Space0
  0
ENDBLK
  5
25
330
23
100
AcDbEntity
  8
0
100
AcDbBlockEnd
  0
BLOCK
  5
7F
330
7E
100
AcDbEntity
  8
0
100
AcDbBlockBegin
  2
블럭10
 70
     2
 10
0.0
 20
0.0
 30
0.0
  3
블럭10
  1
블럭10
  0
ELLIPSE
  5
81
330
7E
100
AcDbEntity
  8
중심선
100
AcDbEllipse
 10
20.54032771741204
 20
12.0471743016438
 30
0.0
 11
6.600054785286829
 21
-1.261213355974178E-13
 31
0.0
210
0.0
220
0.0
230
1.0
 40
0.636358354079598
 41
0.9219305317359503
 42
6.513795318482858
  0
ELLIPSE
  5
82
330
7E
100
AcDbEntity
  8
중심선
100
AcDbEllipse
 10
20.54032771746488
 20
12.04717430159265
 30
0.0
 11
3.960054785062283
 21
1.540847449632565E-10
 31
0.0
210
0.0
220
0.0
230
1.0
 40
0.3939339440162632
 41
1.131841032648279
 42
5.62031148352944
  0
LINE
  5
83
330
7E
100
AcDbEntity
  8
중심선
100
AcDbLine
 10
2.268634060543552
 20
16.24717430164393
 30
0.0
 11
5.714909304380834
 21
16.24717430164393
 31
0.0
  0
LINE
  5
84
330
7E
100
AcDbEntity
  8
중심선
100
AcDbLine
 10
5.245725140726316
 20
7.84717430164391
 30
0.0
 11
8.692000384563599
 21
7.84717430164391
 31
0.0
  0
LINE
  5
85
330
7E
100
AcDbEntity
  8
중심선
100
AcDbLine
 10
15.74043728645272
 20
16.24717430164393
 30
0.0
 11
8.692000384563599
 21
7.84717430164391
 31
0.0
  0
LINE
  5
86
330
7E
100
AcDbEntity
  8
중심선
100
AcDbLine
 10
0.1404042013395286
 20
13.71084872107135
 30
0.0
 11
3.58671253028996
 21
13.71088815037384
 31
0.0
  0
LINE
  5
87
330
7E
100
AcDbEntity
  8
중심선
100
AcDbLine
 10
2.750260043222114
 20
10.84717430164391
 30
0.0
 11
6.196535287059397
 21
10.84717430164391
 31
0.0
  0
LINE
  5
88
330
7E
100
AcDbEntity
  8
중심선
100
AcDbLine
 10
12.29416204261559
 20
16.24717430164393
 30
0.0
 11
5.245725140726316
 21
7.84717430164391
 31
0.0
  0
LINE
  5
89
330
7E
100
AcDbEntity
  8
중심선
100
AcDbLine
 10
10.72767329541681
 20
16.24717430164393
 30
0.0
 11
6.196535287059397
 21
10.84717430164391
 31
0.0
  0
LINE
  5
8A
330
7E
100
AcDbEntity
  8
중심선
100
AcDbLine
 10
7.28139805157953
 20
16.24717430164393
 30
0.0
 11
2.750260043222114
 21
10.84717430164391
 31
0.0
  0
LINE
  5
8B
330
7E
100
AcDbEntity
  8
중심선
100
AcDbLine
 10
5.714909304380834
 20
16.24717430164393
 30
0.0
 11
3.58671253028996
 21
13.71088815037384
 31
0.0
  0
LINE
  5
8C
330
7E
100
AcDbEntity
  8
중심선
100
AcDbLine
 10
2.268634060543552
 20
16.24717430164393
 30
0.0
 11
0.1404042013395286
 21
13.71084872107135
 31
0.0
  0
LINE
  5
8D
330
7E
100
AcDbEntity
  8
중심선
100
AcDbLine
 10
7.28139805157953
 20
16.24717430164393
 30
0.0
 11
10.72767329541681
 21
16.24717430164393
 31
0.0
  0
LINE
  5
8E
330
7E
100
AcDbEntity
  8
중심선
100
AcDbLine
 10
12.29416204261559
 20
16.24717430164393
 30
0.0
 11
15.74043728645272
 21
16.24717430164393
 31
0.0
  0
LINE
  5
8F
330
7E
100
AcDbEntity
  8
중심선
100
AcDbLine
 10
19.22036997980202
 20
11.08717430171403
 30
0.0
 11
23.66174974927406
 21
11.08717430171406
 31
0.0
  0
LINE
  5
90
330
7E
100
AcDbEntity
  8
중심선
100
AcDbLine
 10
19.22039502424796
 20
13.00717430171391
 30
0.0
 11
19.22036997980202
 21
11.08717430171403
 31
0.0
  0
LINE
  5
91
330
7E
100
AcDbEntity
  8
중심선
100
AcDbLine
 10
19.22039502424796
 20
13.00717430171391
 30
0.0
 11
26.96566020931264
 21
13.00717430171391
 31
0.0
  0
LINE
  5
92
330
7E
100
AcDbEntity
  8
중심선
100
AcDbLine
 10
22.22332737316547
 20
13.45928029700563
 30
0.0
 11
24.52862924686651
 21
15.39360700705356
 31
0.0
  0
ATTDEF
  5
94
330
7E
100
AcDbEntity
  8
FORMAT
 62
     2
100
AcDbText
 10
-9.18129528874128
 20
2.075366912832191
 30
0.0
 40
4.233333333333333
  1
E5982064 [ 3 FLUTE ]
 41
0.75
  7
SLDTEXTSTYLE0
 11
-9.18129528874128
 21
-0.0412997538344756
 31
0.0
100
AcDbAttributeDefinition
  3

  2
AUTOATTR0
 70
     0
 74
     1
  0
ENDBLK
  5
80
330
7E
100
AcDbEntity
  8
0
100
AcDbBlockEnd
  0
BLOCK
  5
D3
330
D2
100
AcDbEntity
  8
0
100
AcDbBlockBegin
  2
_D
 70
     0
 10
0.0
 20
0.0
 30
0.0
  3
_D
  1
_D
  0
SOLID
  5
D5
330
D2
100
AcDbEntity
  8
치수문자_일반주서
100
AcDbTrace
 10
-62.34999999999999
 20
-0.4854796965059789
 30
0.0
 11
-59.04799999999999
 21
-0.9934796965059789
 31
0.0
 12
-59.04799999999999
 22
0.0225203034940211
 32
0.0
 13
-59.04799999999999
 23
0.0225203034940211
 33
0.0
  0
SOLID
  5
D6
330
D2
100
AcDbEntity
  8
치수문자_일반주서
100
AcDbTrace
 10
9.11254243902307
 20
-0.4854796965059746
 30
0.0
 11
5.81054243902307
 21
0.0225203034940255
 31
0.0
 12
5.81054243902307
 22
-0.9934796965059746
 32
0.0
 13
5.81054243902307
 23
-0.9934796965059746
 33
0.0
  0
LINE
  5
D7
330
D2
100
AcDbEntity
  8
치수문자_일반주서
100
AcDbLine
 10
-62.34999999999999
 20
-0.9816608253754013
 30
0.0
 11
-62.34999999999999
 21
-1.485479696505979
 31
0.0
  0
LINE
  5
D8
330
D2
100
AcDbEntity
  8
치수문자_일반주서
100
AcDbLine
 10
9.11254243902307
 20
-0.9816608253754013
 30
0.0
 11
9.11254243902307
 21
-1.485479696505974
 31
0.0
  0
LINE
  5
D9
330
D2
100
AcDbEntity
  8
치수문자_일반주서
100
AcDbLine
 10
-62.34999999999999
 20
-0.4854796965059789
 30
0.0
 11
9.11254243902307
 21
-0.4854796965059746
 31
0.0
  0
MTEXT
  5
DA
330
D2
100
AcDbEntity
  8
치수문자_일반주서
100
AcDbMText
 10
-2.070496689364015
 20
4.02625721807292
 30
0.0
 40
3.5
 41
0.0
 71
     1
 72
     1
  1
71.46
  7
SLDTEXTSTYLE0
 73
     1
 44
1.0
  0
ENDBLK
  5
D4
330
D2
100
AcDbEntity
  8
0
100
AcDbBlockEnd
  0
BLOCK
  5
DE
330
DD
100
AcDbEntity
  8
0
100
AcDbBlockBegin
  2
_D_1
 70
     0
 10
0.0
 20
0.0
 30
0.0
  3
_D_1
  1
_D_1
  0
LINE
  5
E0
330
DD
100
AcDbEntity
  8
치수문자_일반주서
 62
     0
370
    -2
100
AcDbLine
 10
94.55000000000001
 20
12.76250000000002
 30
0.0
 11
94.55000000000001
 21
33.31341845233052
 31
0.0
  0
LINE
  5
E1
330
DD
100
AcDbEntity
  8
치수문자_일반주서
 62
     0
370
    -2
100
AcDbLine
 10
12.0
 20
12.61181580181258
 30
0.0
 11
11.99999999999999
 21
33.31341845233052
 31
0.0
  0
LINE
  5
E2
330
DD
100
AcDbEntity
  8
치수문자_일반주서
 62
     0
370
    -2
100
AcDbLine
 10
91.24800000000002
 20
33.31341845233052
 30
0.0
 11
15.30199999999999
 21
33.31341845233052
 31
0.0
  0
SOLID
  5
E3
330
DD
100
AcDbEntity
  8
치수문자_일반주서
 62
     0
100
AcDbTrace
 10
91.24800000000002
 20
32.76308511899719
 30
0.0
 11
91.24800000000002
 21
33.86375178566386
 31
0.0
 12
94.55000000000001
 22
33.31341845233052
 32
0.0
 13
94.55000000000001
 23
33.31341845233052
 33
0.0
  0
SOLID
  5
E4
330
DD
100
AcDbEntity
  8
치수문자_일반주서
 62
     0
100
AcDbTrace
 10
15.30199999999999
 20
33.86375178566386
 30
0.0
 11
15.30199999999999
 21
32.76308511899719
 31
0.0
 12
11.99999999999999
 22
33.31341845233052
 32
0.0
 13
11.99999999999999
 23
33.31341845233052
 33
0.0
  0
MTEXT
  5
E5
330
DD
100
AcDbEntity
  8
치수문자_일반주서
 62
     0
100
AcDbMText
 10
53.275
 20
37.68841845233052
 30
0.0
 40
3.5
 41
0.0
 71
     2
 72
     1
  1
\A1;82.55 [3 1/4]
  7
SLDTEXTSTYLE0
 73
     1
 44
1.0
  0
POINT
  5
E6
330
DD
100
AcDbEntity
  8
Defpoints
 62
     0
100
AcDbPoint
 10
94.55000000000001
 20
12.70000000000002
 30
0.0
  0
POINT
  5
E7
330
DD
100
AcDbEntity
  8
Defpoints
 62
     0
100
AcDbPoint
 10
12.0
 20
12.54931580181258
 30
0.0
  0
POINT
  5
E8
330
DD
100
AcDbEntity
  8
Defpoints
 62
     0
100
AcDbPoint
 10
12.0
 20
33.31341845233052
 30
0.0
  0
ENDBLK
  5
DF
330
DD
100
AcDbEntity
  8
0
100
AcDbBlockEnd
  0
BLOCK
  5
F2
330
F1
100
AcDbEntity
  8
0
100
AcDbBlockBegin
  2
_D_2
 70
     0
 10
0.0
 20
0.0
 30
0.0
  3
_D_2
  1
_D_2
  0
LINE
  5
F4
330
F1
100
AcDbEntity
  8
치수문자_일반주서
 62
     0
370
    -2
100
AcDbLine
 10
94.55000000000001
 20
12.76250000000002
 30
0.0
 11
94.55000000000001
 21
51.33610365728745
 31
0.0
  0
LINE
  5
F5
330
F1
100
AcDbEntity
  8
치수문자_일반주서
 62
     0
370
    -2
100
AcDbLine
 10
-57.85
 20
12.2625
 30
0.0
 11
-57.85
 21
51.33610365728745
 31
0.0
  0
LINE
  5
F6
330
F1
100
AcDbEntity
  8
치수문자_일반주서
 62
     0
370
    -2
100
AcDbLine
 10
91.24800000000002
 20
51.33610365728745
 30
0.0
 11
-54.548
 21
51.33610365728745
 31
0.0
  0
SOLID
  5
F7
330
F1
100
AcDbEntity
  8
치수문자_일반주서
 62
     0
100
AcDbTrace
 10
91.24800000000002
 20
50.78577032395412
 30
0.0
 11
91.24800000000002
 21
51.88643699062079
 31
0.0
 12
94.55000000000001
 22
51.33610365728745
 32
0.0
 13
94.55000000000001
 23
51.33610365728745
 33
0.0
  0
SOLID
  5
F8
330
F1
100
AcDbEntity
  8
치수문자_일반주서
 62
     0
100
AcDbTrace
 10
-54.548
 20
51.88643699062079
 30
0.0
 11
-54.548
 21
50.78577032395412
 31
0.0
 12
-57.85
 22
51.33610365728745
 32
0.0
 13
-57.85
 23
51.33610365728745
 33
0.0
  0
MTEXT
  5
F9
330
F1
100
AcDbEntity
  8
치수문자_일반주서
 62
     0
100
AcDbMText
 10
18.35
 20
55.71110365728745
 30
0.0
 40
3.5
 41
0.0
 71
     2
 72
     1
  1
\A1;152.40 [6]
  7
SLDTEXTSTYLE0
 73
     1
 44
1.0
  0
POINT
  5
FA
330
F1
100
AcDbEntity
  8
Defpoints
 62
     0
100
AcDbPoint
 10
94.55000000000001
 20
12.70000000000002
 30
0.0
  0
POINT
  5
FB
330
F1
100
AcDbEntity
  8
Defpoints
 62
     0
100
AcDbPoint
 10
-57.85
 20
12.2
 30
0.0
  0
POINT
  5
FC
330
F1
100
AcDbEntity
  8
Defpoints
 62
     0
100
AcDbPoint
 10
-57.85
 20
51.33610365728745
 30
0.0
  0
ENDBLK
  5
F3
330
F1
100
AcDbEntity
  8
0
100
AcDbBlockEnd
  0
BLOCK
  5
106
330
105
100
AcDbEntity
  8
0
100
AcDbBlockBegin
  2
_D_3
 70
     0
 10
0.0
 20
0.0
 30
0.0
  3
_D_3
  1
_D_3
  0
LINE
  5
108
330
105
100
AcDbEntity
  8
치수문자_일반주서
 62
     0
370
    -2
100
AcDbLine
 10
-57.4125
 20
12.70000000000001
 30
0.0
 11
-70.35000000000008
 21
12.69999999999996
 31
0.0
  0
LINE
  5
109
330
105
100
AcDbEntity
  8
치수문자_일반주서
 62
     0
370
    -2
100
AcDbLine
 10
-57.4125
 20
-12.69999999999999
 30
0.0
 11
-70.35
 21
-12.70000000000004
 31
0.0
  0
LINE
  5
10A
330
105
100
AcDbEntity
  8
치수문자_일반주서
 62
     0
370
    -2
100
AcDbLine
 10
-70.35000000000007
 20
9.397999999999962
 30
0.0
 11
-70.35000000000001
 21
-9.398000000000037
 31
0.0
  0
SOLID
  5
10B
330
105
100
AcDbEntity
  8
치수문자_일반주서
 62
     0
100
AcDbTrace
 10
-69.79966666666674
 20
9.397999999999964
 30
0.0
 11
-70.90033333333339
 21
9.39799999999996
 31
0.0
 12
-70.35000000000008
 22
12.69999999999996
 32
0.0
 13
-70.35000000000008
 23
12.69999999999996
 33
0.0
  0
SOLID
  5
10C
330
105
100
AcDbEntity
  8
치수문자_일반주서
 62
     0
100
AcDbTrace
 10
-70.90033333333334
 20
-9.398000000000039
 30
0.0
 11
-69.79966666666668
 21
-9.398000000000035
 31
0.0
 12
-70.35
 22
-12.70000000000004
 32
0.0
 13
-70.35
 23
-12.70000000000004
 33
0.0
  0
MTEXT
  5
10D
330
105
100
AcDbEntity
  8
치수문자_일반주서
 62
     0
100
AcDbMText
 10
-74.72500000000004
 20
-0.0394611334872606
 30
0.0
 40
3.5
 41
0.0
 71
     2
 72
     1
  1
\A1;%%c25.40 [1]
  7
SLDTEXTSTYLE0
 11
-3.356894814614647E-15
 21
1.0
 31
0.0
 73
     1
 44
1.0
  0
POINT
  5
10E
330
105
100
AcDbEntity
  8
Defpoints
 62
     0
100
AcDbPoint
 10
-57.35
 20
12.70000000000001
 30
0.0
  0
POINT
  5
10F
330
105
100
AcDbEntity
  8
Defpoints
 62
     0
100
AcDbPoint
 10
-57.35
 20
-12.69999999999999
 30
0.0
  0
POINT
  5
110
330
105
100
AcDbEntity
  8
Defpoints
 62
     0
100
AcDbPoint
 10
-70.35
 20
-12.70000000000004
 30
0.0
  0
ENDBLK
  5
107
330
105
100
AcDbEntity
  8
0
100
AcDbBlockEnd
  0
BLOCK
  5
119
330
118
100
AcDbEntity
  8
0
100
AcDbBlockBegin
  2
SW_DOWELSYMBOL_0
 70
     0
 10
0.0
 20
0.0
 30
0.0
  3
SW_DOWELSYMBOL_0
  1
SW_DOWELSYMBOL_0
  0
CIRCLE
  5
11B
330
118
100
AcDbEntity
  8
외형선
 62
     0
100
AcDbCircle
 10
0.0
 20
0.0
 30
0.0
 40
3.000000000000008
  0
HATCH
  5
11C
330
118
100
AcDbEntity
  8
0
  6
Continuous
 62
     0
370
    30
100
AcDbHatch
 10
0.0
 20
0.0
 30
0.0
210
0.0
220
0.0
230
1.0
  2
SOLID
 70
     1
 71
     0
 91
        1
 92
        0
 93
        3
 72
     2
 10
0.0000000000000087
 20
0.0
 40
3.000000000000008
 50
0.0
 51
90.0
 73
     1
 72
     1
 10
0.0000000000000087
 20
3.000000000000008
 11
0.0000000000000087
 21
0.0
 72
     1
 10
0.0000000000000087
 20
0.0
 11
3.000000000000017
 21
0.0
 97
        0
 75
     0
 76
     1
 98
        1
 10
0.0
 20
0.0
  0
HATCH
  5
11D
330
118
100
AcDbEntity
  8
0
  6
Continuous
 62
     0
370
    30
100
AcDbHatch
 10
0.0
 20
0.0
 30
0.0
210
0.0
220
0.0
230
1.0
  2
SOLID
 70
     1
 71
     0
 91
        1
 92
        0
 93
        3
 72
     2
 10
0.0000000000000087
 20
0.0
 40
3.000000000000008
 50
180.0
 51
270.0000000000008
 73
     1
 72
     1
 10
0.0000000000000087
 20
-3.000000000000008
 11
0.0000000000000087
 21
0.0
 72
     1
 10
0.0000000000000087
 20
0.0
 11
-3.0
 21
0.0
 97
        0
 75
     0
 76
     1
 98
        1
 10
0.0
 20
0.0
  0
ENDBLK
  5
11A
330
118
100
AcDbEntity
  8
0
100
AcDbBlockEnd
  0
BLOCK
  5
14A
330
149
100
AcDbEntity
  8
0
100
AcDbBlockBegin
  2
*D7
 70
     1
 10
0.0
 20
0.0
 30
0.0
  3
*D7
  1
*D7
  0
LINE
  5
14C
330
149
100
AcDbEntity
  8
치수문자_일반주서
 62
     0
370
    -2
100
AcDbLine
 10
94.61250000000004
 20
-12.69999999999999
 30
0.0
 11
115.9671993470516
 21
-12.69999999999999
 31
0.0
  0
LINE
  5
14D
330
149
100
AcDbEntity
  8
치수문자_일반주서
 62
     0
370
    -2
100
AcDbLine
 10
94.61250000000001
 20
12.70000000000002
 30
0.0
 11
115.9671993470516
 21
12.70000000000002
 31
0.0
  0
LINE
  5
14E
330
149
100
AcDbEntity
  8
치수문자_일반주서
 62
     0
370
    -2
100
AcDbLine
 10
115.9671993470516
 20
-9.397999999999987
 30
0.0
 11
115.9671993470516
 21
9.39800000000002
 31
0.0
  0
SOLID
  5
14F
330
149
100
AcDbEntity
  8
치수문자_일반주서
 62
     0
100
AcDbTrace
 10
115.4168660137183
 20
-9.397999999999987
 30
0.0
 11
116.517532680385
 21
-9.397999999999987
 31
0.0
 12
115.9671993470516
 22
-12.69999999999999
 32
0.0
 13
115.9671993470516
 23
-12.69999999999999
 33
0.0
  0
SOLID
  5
150
330
149
100
AcDbEntity
  8
치수문자_일반주서
 62
     0
100
AcDbTrace
 10
116.517532680385
 20
9.39800000000002
 30
0.0
 11
115.4168660137183
 21
9.39800000000002
 31
0.0
 12
115.9671993470516
 22
12.70000000000002
 32
0.0
 13
115.9671993470516
 23
12.70000000000002
 33
0.0
  0
MTEXT
  5
151
330
149
100
AcDbEntity
  8
치수문자_일반주서
 62
     0
100
AcDbMText
 10
113.3421993470516
 20
0.000000000000016
 30
0.0
 40
3.5
 41
0.0
 71
     5
 72
     1
  1
\A1;{Ø25.40 [1]}
  7
SLDTEXTSTYLE0
 11
0.0
 21
1.0
 31
0.0
 73
     1
 44
1.0
  0
POINT
  5
152
330
149
100
AcDbEntity
  8
Defpoints
 62
     0
100
AcDbPoint
 10
94.55000000000004
 20
-12.69999999999999
 30
0.0
  0
POINT
  5
153
330
149
100
AcDbEntity
  8
Defpoints
 62
     0
100
AcDbPoint
 10
94.55000000000001
 20
12.70000000000002
 30
0.0
  0
POINT
  5
154
330
149
100
AcDbEntity
  8
Defpoints
 62
     0
100
AcDbPoint
 10
115.9671993470516
 20
12.70000000000002
 30
0.0
  0
ENDBLK
  5
14B
330
149
100
AcDbEntity
  8
0
100
AcDbBlockEnd
  0
ENDSEC
  0
SECTION
  2
ENTITIES
  0
LINE
  5
95
330
1F
100
AcDbEntity
  8
0
  6
Continuous
 62
     4
370
    15
100
AcDbLine
 10
9.224290778383923
 20
12.70000000000001
 30
0.0
 11
-57.35
 21
12.70000000000001
 31
0.0
  0
LINE
  5
96
330
1F
100
AcDbEntity
  8
0
  6
Continuous
 62
     4
370
    15
100
AcDbLine
 10
-57.35
 20
-12.69999999999999
 30
0.0
 11
9.177791132115292
 21
-12.69999999999999
 31
0.0
  0
LINE
  5
97
330
1F
100
AcDbEntity
  8
0
  6
Continuous
 62
     4
370
    15
100
AcDbLine
 10
-57.35
 20
12.7
 30
0.0
 11
-57.85
 21
12.2
 31
0.0
  0
LINE
  5
98
330
1F
100
AcDbEntity
  8
0
  6
Continuous
 62
     4
370
    15
100
AcDbLine
 10
-57.85
 20
-12.19999999999998
 30
0.0
 11
-57.35
 21
-12.69999999999998
 31
0.0
  0
LINE
  5
99
330
1F
100
AcDbEntity
  8
0
  6
Continuous
 62
     1
370
    15
100
AcDbLine
 10
53.85668169641698
 20
-12.69999999999999
 30
0.0
 11
62.09710279461116
 21
-12.69999999999999
 31
0.0
  0
LINE
  5
9A
330
1F
100
AcDbEntity
  8
0
  6
Continuous
 62
     1
370
    15
100
AcDbLine
 10
22.19933030995303
 20
12.70000000000002
 30
0.0
 11
13.9581968816685
 21
12.70000000000002
 31
0.0
  0
LINE
  5
9B
102
{ACAD_REACTORS
102
}
330
1F
100
AcDbEntity
  8
0
  6
Continuous
 62
     1
370
    15
100
AcDbLine
 10
94.55000000000001
 20
12.70000000000002
 30
0.0
 11
93.75421214217232
 21
12.70000000000002
 31
0.0
  0
LINE
  5
9C
330
1F
100
AcDbEntity
  8
0
  6
Continuous
 62
     1
370
    15
100
AcDbLine
 10
80.45487508775857
 20
-12.69999999999999
 30
0.0
 11
88.69526146221072
 21
-12.69999999999999
 31
0.0
  0
LINE
  5
9D
330
1F
100
AcDbEntity
  8
0
  6
Continuous
 62
     1
370
    15
100
AcDbLine
 10
48.7980472122555
 20
12.70000000000002
 30
0.0
 11
40.55730427159254
 21
12.70000000000002
 31
0.0
  0
LINE
  5
9E
330
1F
100
AcDbEntity
  8
0
  6
Continuous
 62
     1
370
    15
100
AcDbLine
 10
27.2571073367648
 20
-12.69999999999999
 30
0.0
 11
35.49869257501322
 21
-12.69999999999999
 31
0.0
  0
LINE
  5
9F
330
1F
100
AcDbEntity
  8
0
  6
Continuous
 62
     1
370
    15
100
AcDbLine
 10
75.39578552671576
 20
12.70000000000002
 30
0.0
 11
67.15558142386351
 21
12.70000000000002
 31
0.0
  0
SPLINE
  5
A0
330
1F
100
AcDbEntity
  8
0
  6
Continuous
 62
     4
370
    15
100
AcDbSpline
210
0.0
220
0.0
230
1.0
 70
     8
 71
     3
 72
    22
 73
    18
 74
     0
 42
0.000000001
 43
0.00000001
 40
0.0
 40
0.0
 40
0.0
 40
0.0
 40
0.125
 40
0.125
 40
0.25
 40
0.25
 40
0.375
 40
0.375
 40
0.5
 40
0.5
 40
0.625
 40
0.625
 40
0.75
 40
0.75
 40
0.875
 40
0.875
 40
1.0
 40
1.0
 40
1.0
 40
1.0
 10
8.950323020876107
 20
12.64618526357496
 30
0.0
 10
8.950323020876109
 20
12.66375654621876
 30
0.0
 10
8.96970422482793
 20
12.67673308692327
 30
0.0
 10
9.047841911432922
 20
12.694347596991
 30
0.0
 10
9.107767305563861
 20
12.69893046243754
 30
0.0
 10
9.264118995729095
 20
12.70072381680219
 30
0.0
 10
9.360408838034704
 20
12.69808759087657
 30
0.0
 10
9.590883735193621
 20
12.68806637957255
 30
0.0
 10
9.722318638265659
 20
12.68081110166603
 30
0.0
 10
10.01168511465559
 20
12.66501651717246
 30
0.0
 10
10.17257972273957
 20
12.65633718708525
 30
0.0
 10
10.50955901909795
 20
12.64091935591809
 30
0.0
 10
10.68613157891076
 20
12.6341294746063
 30
0.0
 10
11.05581101777024
 20
12.62430729201674
 30
0.0
 10
11.2442308801157
 20
12.62143653352729
 30
0.0
 10
11.62140213428475
 20
12.6204832670783
 30
0.0
 10
11.81269678945316
 20
12.62242238599792
 30
0.0
 10
11.99999999999998
 20
12.62655140026862
 30
0.0
  0
LINE
  5
A1
330
1F
100
AcDbEntity
  8
0
  6
Continuous
 62
     4
370
    15
100
AcDbLine
 10
8.950323020876107
 20
12.64618526357497
 30
0.0
 11
8.950323020876107
 21
7.233300484176763
 31
0.0
  0
SPLINE
  5
A2
330
1F
100
AcDbEntity
  8
0
  6
Continuous
 62
     4
370
    15
100
AcDbSpline
210
0.0
220
0.0
230
1.0
 70
     8
 71
     3
 72
    14
 73
    10
 74
     0
 42
0.000000001
 43
0.00000001
 40
0.0
 40
0.0
 40
0.0
 40
0.0
 40
0.25
 40
0.25
 40
0.5
 40
0.5
 40
0.75
 40
0.75
 40
1.0
 40
1.0
 40
1.0
 40
1.0
 10
9.698914966470149
 20
5.645902338181533
 30
0.0
 10
9.577667190997815
 20
5.754804735690448
 30
0.0
 10
9.470812447201123
 20
5.872012953476907
 30
0.0
 10
9.284509959736148
 20
6.121307518196832
 30
0.0
 10
9.204438174716621
 20
6.25502505402879
 30
0.0
 10
9.077401694585909
 20
6.52787226475472
 30
0.0
 10
9.029997456011863
 20
6.666827650799696
 30
0.0
 10
8.966305290868384
 20
6.94897133963214
 30
0.0
 10
8.950323020876109
 20
7.092241957538884
 30
0.0
 10
8.950323020876109
 20
7.233300484176763
 30
0.0
  0
SPLINE
  5
A3
330
1F
100
AcDbEntity
  8
0
  6
Continuous
 62
     4
370
    15
100
AcDbSpline
210
0.0
220
0.0
230
1.0
 70
     8
 71
     3
 72
     8
 73
     4
 74
     0
 42
0.000000001
 43
0.00000001
 40
0.0
 40
0.0
 40
0.0
 40
0.0
 40
1.0
 40
1.0
 40
1.0
 40
1.0
 10
11.99999999999813
 20
3.50392282806278
 30
0.0
 10
11.23478970651655
 20
4.240471838378252
 30
0.0
 10
10.46263718856088
 20
4.959941868453193
 30
0.0
 10
9.698914966470149
 20
5.645902338181533
 30
0.0
  0
LINE
  5
A4
330
1F
100
AcDbEntity
  8
0
  6
Continuous
 62
     4
370
    15
100
AcDbLine
 10
12.0
 20
3.503922828060974
 30
0.0
 11
12.0
 21
-5.132111104372322
 31
0.0
  0
SPLINE
  5
A5
330
1F
100
AcDbEntity
  8
0
  6
Continuous
 62
     4
370
    15
100
AcDbSpline
210
0.0
220
0.0
230
1.0
 70
     8
 71
     3
 72
    22
 73
    18
 74
     0
 42
0.000000001
 43
0.00000001
 40
0.0
 40
0.0
 40
0.0
 40
0.0
 40
0.125
 40
0.125
 40
0.25
 40
0.25
 40
0.375
 40
0.375
 40
0.5
 40
0.5
 40
0.625
 40
0.625
 40
0.75
 40
0.75
 40
0.875
 40
0.875
 40
1.0
 40
1.0
 40
1.0
 40
1.0
 10
8.950323020876109
 20
-7.334526618513688
 30
0.0
 10
8.950323020876109
 20
-7.178539003339134
 30
0.0
 10
8.969704224827932
 20
-7.022757736587351
 30
0.0
 10
9.047841911432922
 20
-6.712162754665337
 30
0.0
 10
9.107767305563863
 20
-6.555683375797469
 30
0.0
 10
9.264118995729095
 20
-6.258912537126124
 30
0.0
 10
9.360408838034708
 20
-6.117301553622061
 30
0.0
 10
9.590883735193625
 20
-5.849559250641945
 30
0.0
 10
9.722318638265662
 20
-5.727013393264742
 30
0.0
 10
10.01168511465559
 20
-5.51001506659003
 30
0.0
 10
10.17257972273958
 20
-5.413910843999516
 30
0.0
 10
10.50955901909795
 20
-5.258203185684819
 30
0.0
 10
10.68613157891076
 20
-5.197597600790906
 30
0.0
 10
11.05581101777024
 20
-5.112455182594612
 30
0.0
 10
11.2442308801157
 20
-5.0892361326966
 30
0.0
 10
11.62140213428476
 20
-5.081394486703767
 30
0.0
 10
11.81269678945316
 20
-5.096942482593543
 30
0.0
 10
11.99999999999999
 20
-5.132111104372494
 30
0.0
  0
LINE
  5
A6
330
1F
100
AcDbEntity
  8
0
  6
Continuous
 62
     4
370
    15
100
AcDbLine
 10
8.950323020876109
 20
-7.334526618513686
 30
0.0
 11
8.950323020876109
 21
-12.65695018618347
 31
0.0
  0
SPLINE
  5
A7
330
1F
100
AcDbEntity
  8
0
  6
Continuous
 62
     4
370
    15
100
AcDbSpline
210
0.0
220
0.0
230
1.0
 70
     8
 71
     3
 72
    14
 73
    10
 74
     0
 42
0.000000001
 43
0.00000001
 40
0.0
 40
0.0
 40
0.0
 40
0.0
 40
0.2499999999999999
 40
0.2499999999999999
 40
0.4999999999999999
 40
0.4999999999999999
 40
0.7499999999999998
 40
0.7499999999999998
 40
1.0
 40
1.0
 40
1.0
 40
1.0
 10
9.698914966470145
 20
-12.67487179863234
 30
0.0
 10
9.5776671909978
 20
-12.6825159591567
 30
0.0
 10
9.470812447201101
 20
-12.68906210208542
 30
0.0
 10
9.284509959736114
 20
-12.6980648132256
 30
0.0
 10
9.20443817471659
 20
-12.70050522467877
 30
0.0
 10
9.077401694585877
 20
-12.69931401462012
 30
0.0
 10
9.029997456011824
 20
-12.69575868367161
 30
0.0
 10
8.966305290868355
 20
-12.68167266857071
 30
0.0
 10
8.950323020876102
 20
-12.67106844966148
 30
0.0
 10
8.950323020876102
 20
-12.65695018618347
 30
0.0
  0
SPLINE
  5
A8
330
1F
100
AcDbEntity
  8
0
  6
Continuous
 62
     4
370
    15
100
AcDbSpline
210
0.0
220
0.0
230
1.0
 70
     8
 71
     3
 72
     8
 73
     4
 74
     0
 42
0.000000001
 43
0.00000001
 40
0.0
 40
0.0
 40
0.0
 40
0.0
 40
1.0
 40
1.0
 40
1.0
 40
1.0
 10
11.99999999999813
 20
-12.32359296319327
 30
0.0
 10
11.23478970651655
 20
-12.50877291388963
 30
0.0
 10
10.46263718856088
 20
-12.62672233577467
 30
0.0
 10
9.698914966470149
 20
-12.67487179863234
 30
0.0
  0
LINE
  5
A9
330
1F
100
AcDbEntity
  8
0
  6
Continuous
 62
     4
370
    15
100
AcDbLine
 10
-57.35
 20
12.7
 30
0.0
 11
-57.35
 21
-12.69999999999997
 31
0.0
  0
LINE
  5
AA
330
1F
100
AcDbEntity
  8
0
  6
Continuous
 62
     4
370
    15
100
AcDbLine
 10
-57.85
 20
12.2
 30
0.0
 11
-57.85
 21
-12.19999999999998
 31
0.0
  0
SPLINE
  5
AB
330
1F
100
AcDbEntity
  8
0
  6
Continuous
 62
     1
370
    15
100
AcDbSpline
210
0.0
220
0.0
230
1.0
 70
    24
 71
     3
 72
    12
 73
     8
 74
     0
 42
0.000000001
 43
0.00000001
 40
0.0
 40
0.0
 40
0.0
 40
0.0
 40
0.0523923450989998
 40
0.3027380959774101
 40
0.5530838468558203
 40
0.8034295977342304
 40
1.0
 40
1.0
 40
1.0
 40
1.0
 10
12.0
 20
6.383414520900067
 30
0.0
 10
12.0
 20
6.28792397584751
 30
0.0
 10
11.99999999999999
 20
5.736152037820485
 30
0.0
 10
12.0
 20
4.864611553433463
 30
0.0
 10
11.99999999999999
 20
3.998173267043099
 30
0.0
 10
12.0
 20
3.480355956168296
 30
0.0
 10
12.0
 20
3.417758717214347
 30
0.0
 10
12.0
 20
3.390226115505197
 30
0.0
  0
SPLINE
  5
AC
330
1F
100
AcDbEntity
  8
0
  6
Continuous
 62
     1
370
    15
100
AcDbSpline
210
0.0
220
0.0
230
1.0
 70
    24
 71
     3
 72
    16
 73
    12
 74
     0
 42
0.000000001
 43
0.00000001
 40
0.0
 40
0.0
 40
0.0
 40
0.0
 40
0.2500000000000003
 40
0.2500000000000003
 40
0.5000000000000007
 40
0.5000000000000007
 40
0.6250000000000004
 40
0.6250000000000004
 40
0.7500000000000003
 40
0.7500000000000003
 40
1.0
 40
1.0
 40
1.0
 40
1.0
 10
12.0
 20
12.62655140026862
 30
0.0
 10
12.0
 20
12.02685910261852
 30
0.0
 10
12.0
 20
11.44241115207779
 30
0.0
 10
12.0
 20
10.30449723655379
 30
0.0
 10
12.0
 20
9.750988173198815
 30
0.0
 10
12.0
 20
8.946688945255229
 30
0.0
 10
12.0
 20
8.682402835878065
 30
0.0
 10
12.0
 20
8.173667938880913
 30
0.0
 10
12.0
 20
7.927925388951511
 30
0.0
 10
12.0
 20
7.217599331518421
 30
0.0
 10
12.0
 20
6.779584196928577
 30
0.0
 10
12.0
 20
6.383414520900067
 30
0.0
  0
SPLINE
  5
AD
330
1F
100
AcDbEntity
  8
0
  6
Continuous
 62
     4
370
    15
100
AcDbSpline
210
0.0
220
0.0
230
1.0
 70
    24
 71
     3
 72
    14
 73
    10
 74
     0
 42
0.000000001
 43
0.00000001
 40
0.0
 40
0.0
 40
0.0
 40
0.0
 40
0.2499999999999998
 40
0.2499999999999998
 40
0.4999999999999999
 40
0.4999999999999999
 40
0.75
 40
0.75
 40
1.0
 40
1.0
 40
1.0
 40
1.0
 10
12.0
 20
-4.944003305422944
 30
0.0
 10
12.0
 20
-5.208922541665085
 30
0.0
 10
12.0
 20
-5.556253004826565
 30
0.0
 10
12.0
 20
-6.436809158545381
 30
0.0
 10
12.0
 20
-6.970406047628764
 30
0.0
 10
12.0
 20
-8.222889038471521
 30
0.0
 10
12.0
 20
-8.941930664112432
 30
0.0
 10
12.0
 20
-10.53347118486217
 30
0.0
 10
12.0
 20
-11.4057179264306
 30
0.0
 10
12.0
 20
-12.32359296319281
 30
0.0
  0
SPLINE
  5
AE
330
1F
100
AcDbEntity
  8
0
  6
Continuous
 62
     1
370
    15
100
AcDbSpline
210
0.0
220
0.0
230
1.0
 70
     8
 71
     3
 72
    31
 73
    27
 74
     0
 42
0.000000001
 43
0.00000001
 40
0.0
 40
0.0
 40
0.0
 40
0.0
 40
0.0054377480574974
 40
0.0490331496251552
 40
0.0926365147708522
 40
0.1362534122702149
 40
0.1798735870025751
 40
0.223479293259168
 40
0.2670758823577435
 40
0.3106689460552819
 40
0.3542640880795503
 40
0.3978669051000129
 40
0.4414829677499597
 40
0.4851037890651723
 40
0.5287101177255022
 40
0.572307041032691
 40
0.61590014960939
 40
0.6594950470309143
 40
0.7030973307972599
 40
0.7467125733492069
 40
0.7903339511894668
 40
0.833940917092881
 40
0.8775381895331807
 40
0.921131357948127
 40
0.9647260257097705
 40
1.0
 40
1.0
 40
1.0
 40
1.0
 10
71.27703185453606
 20
-9.510263434238837
 30
0.0
 10
71.1880855977174
 20
-9.573690287081742
 30
0.0
 10
70.38604124533636
 20
-10.14562159629546
 30
0.0
 10
68.87073655590656
 20
-10.97224691396234
 30
0.0
 10
66.73074663717476
 20
-11.92503133836581
 30
0.0
 10
64.5899322727193
 20
-12.51413801482542
 30
0.0
 10
62.44893293229734
 20
-12.75564860266573
 30
0.0
 10
60.30878975692428
 20
-12.63394612847144
 30
0.0
 10
58.16927005460425
 20
-12.15487848841569
 30
0.0
 10
56.03002288478678
 20
-11.33144218686902
 30
0.0
 10
53.89061480442819
 20
-10.18708501538391
 30
0.0
 10
51.75066043450683
 20
-8.754033166516836
 30
0.0
 10
49.60989399266781
 20
-7.072955438308412
 30
0.0
 10
47.46885816262835
 20
-5.191640682501417
 30
0.0
 10
45.32867535456075
 20
-3.163047943380584
 30
0.0
 10
43.18913061238137
 20
-1.045109632527568
 30
0.0
 10
41.0498800067677
 20
1.102347728812083
 30
0.0
 10
38.91049089850059
 20
3.218617844430833
 30
0.0
 10
36.77057204340718
 20
5.243922957066053
 30
0.0
 10
34.6298527313182
 20
7.120670584925602
 30
0.0
 10
32.48878567234581
 20
8.795750260322027
 30
0.0
 10
30.3485621576104
 20
10.221070993688
 30
0.0
 10
28.20899343637052
 20
11.35952252690108
 30
0.0
 10
26.06973135406526
 20
12.16557904155836
 30
0.0
 10
24.06660467960932
 20
12.6348113301141
 30
0.0
 10
22.77638198634573
 20
12.66062993254172
 30
0.0
 10
22.19933030995301
 20
12.67217729400945
 30
0.0
  0
SPLINE
  5
AF
330
1F
100
AcDbEntity
  8
0
  6
Continuous
 62
     1
370
    15
100
AcDbSpline
210
0.0
220
0.0
230
1.0
 70
     8
 71
     3
 72
    31
 73
    27
 74
     0
 42
0.000000001
 43
0.00000001
 40
0.0
 40
0.0
 40
0.0
 40
0.0
 40
0.0226457528507034
 40
0.0662678730600033
 40
0.1098838578765772
 40
0.153486883687011
 40
0.1970825230269196
 40
0.2406763734915589
 40
0.2842740387516091
 40
0.327881109524865
 40
0.3715026731996465
 40
0.4151194781281773
 40
0.4587230372018032
 40
0.5023189211486181
 40
0.5459127267333331
 40
0.5895100577790825
 40
0.6331165061380092
 40
0.6767374232189348
 40
0.7203550630110886
 40
0.7639591702192775
 40
0.8075553137138989
 40
0.8511490893784384
 40
0.8947461011376681
 40
0.9383519419274942
 40
0.9819721223622169
 40
1.0
 40
1.0
 40
1.0
 40
1.0
 10
31.37721941151692
 20
9.491261885792683
 30
0.0
 10
31.74768129775745
 20
9.742331023423096
 30
0.0
 10
32.83175747808166
 20
10.47703027813389
 30
0.0
 10
34.62986436473241
 20
11.38712985561645
 30
0.0
 10
36.77056892744167
 20
12.19948628895266
 30
0.0
 10
38.91049173315965
 20
12.65250501423535
 30
0.0
 10
41.04987978314846
 20
12.7507769767987
 30
0.0
 10
43.18913067230436
 20
12.48693204522553
 30
0.0
 10
45.32867533849993
 20
11.86966942079575
 30
0.0
 10
47.46885816693477
 20
10.91598482480371
 30
0.0
 10
49.60989399151035
 20
9.653189780918368
 30
0.0
 10
51.75066043483004
 20
8.116835751252427
 30
0.0
 10
53.8906148042925
 20
6.350551447568392
 30
0.0
 10
56.03002288500636
 20
4.404560712879927
 30
0.0
 10
58.1692700538616
 20
2.33386287936455
 30
0.0
 10
60.30878975967576
 20
0.1969899494979132
 30
0.0
 10
62.44893292203046
 20
-1.945728528970542
 30
0.0
 10
64.58993231104694
 20
-4.033132867124533
 30
0.0
 10
66.7307464941669
 20
-6.006418092635204
 30
0.0
 10
68.87073708939458
 20
-7.80943555585957
 30
0.0
 10
71.01016553500484
 20
-9.391485905807352
 30
0.0
 10
73.14940957980399
 20
-10.70594173689725
 30
0.0
 10
75.28890820993848
 20
-11.72307026143783
 30
0.0
 10
77.42900044130847
 20
-12.38635034051142
 30
0.0
 10
79.15126467266529
 20
-12.70325084203945
 30
0.0
 10
80.15991364373996
 20
-12.6669190127677
 30
0.0
 10
80.45487508775857
 20
-12.65629441577395
 30
0.0
  0
SPLINE
  5
B0
330
1F
100
AcDbEntity
  8
0
  6
Continuous
 62
     1
370
    15
100
AcDbSpline
210
0.0
220
0.0
230
1.0
 70
     8
 71
     3
 72
    29
 73
    25
 74
     0
 42
0.000000001
 43
0.00000001
 40
0.0
 40
0.0
 40
0.0
 40
0.0
 40
0.0467896269245214
 40
0.0935641229700643
 40
0.140329457608154
 40
0.1870916313799063
 40
0.2338566555602418
 40
0.2806305317442193
 40
0.3274192315036066
 40
0.3742097452029345
 40
0.4209848770458767
 40
0.4677505381605235
 40
0.5145127279797419
 40
0.5612774577239398
 40
0.6080507299877935
 40
0.6548385183895705
 40
0.7016298222748603
 40
0.7484056058452833
 40
0.7951716094523298
 40
0.8419338313663349
 40
0.8886982826986812
 40
0.9354709669893193
 40
0.9822578598492295
 40
1.0
 40
1.0
 40
1.0
 40
1.0
 10
94.55000000000001
 20
-11.37459087401277
 30
0.0
 10
93.83628596782683
 20
-11.66075717741775
 30
0.0
 10
92.40908870507803
 20
-12.23299724346623
 30
0.0
 10
90.26902313791456
 20
-12.6585365013355
 30
0.0
 10
88.12955114563646
 20
-12.7485868943848
 30
0.0
 10
85.9903073602339
 20
-12.47137208046788
 30
0.0
 10
83.85085784337588
 20
-11.84258316713094
 30
0.0
 10
81.71083011985803
 20
-10.87779882904832
 30
0.0
 10
79.56996766897171
 20
-9.604991053616033
 30
0.0
 10
77.42900978726348
 20
-8.060098986014363
 30
0.0
 10
75.28890570660161
 20
-6.286760577751801
 30
0.0
 10
73.14941025046546
 20
-4.335551011784442
 30
0.0
 10
71.0101653552649
 20
-2.261612712326001
 30
0.0
 10
68.87073713768845
 20
-0.1235703070929289
 30
0.0
 10
66.73074648076431
 20
2.018194048486472
 30
0.0
 10
64.5899323163444
 20
4.102763011142375
 30
0.0
 10
62.44893291424699
 20
6.071040545513602
 30
0.0
 10
60.30878978550156
 20
7.867372267466449
 30
0.0
 10
58.16926995836277
 20
9.441072665172701
 30
0.0
 10
56.0300232411605
 20
10.74566322657864
 30
0.0
 10
53.89061347499513
 20
11.75213739114593
 30
0.0
 10
51.7506653974215
 20
12.40263769980169
 30
0.0
 10
50.05297446218282
 20
12.70843359166873
 30
0.0
 10
49.0686777902775
 20
12.66853929787903
 30
0.0
 10
48.7980472122555
 20
12.65757043442936
 30
0.0
  0
SPLINE
  5
B1
330
1F
100
AcDbEntity
  8
0
  6
Continuous
 62
     1
370
    15
100
AcDbSpline
210
0.0
220
0.0
230
1.0
 70
     8
 71
     3
 72
    11
 73
     7
 74
     0
 42
0.000000001
 43
0.00000001
 40
0.0
 40
0.0
 40
0.0
 40
0.0
 40
0.0563684609263361
 40
0.3709062544696354
 40
0.6853832641042878
 40
1.0
 40
1.0
 40
1.0
 40
1.0
 10
18.07849818752703
 20
-9.50913016576201
 30
0.0
 10
17.96424102702423
 20
-9.589522758473679
 30
0.0
 10
17.21242529971862
 20
-10.11850855939444
 30
0.0
 10
15.82401239696466
 20
-10.88434841963922
 30
0.0
 10
13.91239807939416
 20
-11.7836827118035
 30
0.0
 10
12.63756041001243
 20
-12.14359623293317
 30
0.0
 10
11.99999999999813
 20
-12.32359296319328
 30
0.0
  0
SPLINE
  5
B2
330
1F
100
AcDbEntity
  8
0
  6
Continuous
 62
     4
370
    15
100
AcDbSpline
210
0.0
220
0.0
230
1.0
 70
    24
 71
     3
 72
    12
 73
     8
 74
     0
 42
0.000000001
 43
0.00000001
 40
0.0
 40
0.0
 40
0.0
 40
0.0
 40
0.1773084883301592
 40
0.3912203030632415
 40
0.5991034912557339
 40
0.8130153059888166
 40
1.0
 40
1.0
 40
1.0
 40
1.0
 10
11.99999999999999
 20
-5.239331772912649
 30
0.0
 10
11.99999999999999
 20
-5.488711726350973
 30
0.0
 10
11.99999999999999
 20
-6.03895329617571
 30
0.0
 10
11.99999999999999
 20
-7.261365111644654
 30
0.0
 10
11.99999999999999
 20
-8.801983113434067
 30
0.0
 10
11.99999999999999
 20
-10.49959297960805
 30
0.0
 10
12.0
 20
-11.74344160402634
 30
0.0
 10
12.0
 20
-12.32359296319282
 30
0.0
  0
SPLINE
  5
B3
330
1F
100
AcDbEntity
  8
0
  6
Continuous
 62
     1
370
    15
100
AcDbSpline
210
0.0
220
0.0
230
1.0
 70
     8
 71
     3
 72
    15
 73
    11
 74
     0
 42
0.000000001
 43
0.00000001
 40
0.0
 40
0.0
 40
0.0
 40
0.0
 40
0.1253611858139665
 40
0.2506666967455217
 40
0.3759964274403532
 40
0.5014258434080595
 40
0.6417098738118562
 40
0.7819531458168363
 40
0.9221735886001292
 40
1.0
 40
1.0
 40
1.0
 40
1.0
 10
11.99999999999813
 20
-4.585425921636162
 30
0.0
 10
12.63756329957393
 20
-5.169895077363893
 30
0.0
 10
13.91240674679536
 20
-6.338573816836949
 30
0.0
 10
15.82397774253209
 20
-7.920835097094705
 30
0.0
 10
17.73604780554127
 20
-9.331637960420306
 30
0.0
 10
19.72549986442723
 20
-10.57496191651473
 30
0.0
 10
21.79047860734439
 20
-11.59884029072867
 30
0.0
 10
23.93036733718377
 20
-12.31405449045358
 30
0.0
 10
25.75245177132798
 20
-12.68057645894192
 30
0.0
 10
26.86132320662369
 20
-12.66210321775882
 30
0.0
 10
27.2571073367648
 20
-12.65550965293263
 30
0.0
  0
SPLINE
  5
B4
330
1F
100
AcDbEntity
  8
0
  6
Continuous
 62
     1
370
    15
100
AcDbSpline
210
0.0
220
0.0
230
1.0
 70
     8
 71
     3
 72
    25
 73
    21
 74
     0
 42
0.000000001
 43
0.00000001
 40
0.0
 40
0.0
 40
0.0
 40
0.0
 40
0.0052935501573997
 40
0.0637946898715439
 40
0.1223080636651422
 40
0.1808408523336157
 40
0.2393692433675615
 40
0.2978794756847639
 40
0.3563790218817639
 40
0.4148753908026529
 40
0.4733761020817335
 40
0.5318886606078834
 40
0.5904204608066181
 40
0.6489499918879233
 40
0.7074609796687699
 40
0.7659608941856672
 40
0.8244572430322501
 40
0.8829575459110142
 40
0.9414693090971824
 40
1.0
 40
1.0
 40
1.0
 40
1.0
 10
57.97564674954724
 20
9.513892974534963
 30
0.0
 10
58.0401740949356
 20
9.560067543528998
 30
0.0
 10
58.81781893911086
 20
10.11653573998295
 30
0.0
 10
60.30879261715954
 20
10.93381474435637
 30
0.0
 10
62.44893215515667
 20
11.89891476598542
 30
0.0
 10
64.58993251975579
 20
12.49953883519843
 30
0.0
 10
66.73074642628065
 20
12.75341999152816
 30
0.0
 10
68.87073715228252
 20
12.64402988745665
 30
0.0
 10
71.01016535135497
 20
12.17703353888748
 30
0.0
 10
73.14941025151317
 20
11.3650262015235
 30
0.0
 10
75.28890570632086
 20
10.23113737443897
 30
0.0
 10
77.42900978733873
 20
8.807260529476066
 30
0.0
 10
79.56996766895153
 20
7.13397874274342
 30
0.0
 10
81.71083011986347
 20
5.258578981069565
 30
0.0
 10
83.85085784337444
 20
3.23407942214212
 30
0.0
 10
85.99030736023428
 20
1.118466864631209
 30
0.0
 10
88.12955114563633
 20
-1.029792304399937
 30
0.0
 10
90.26902313791462
 20
-3.145121141081325
 30
0.0
 10
92.40908870507803
 20
-5.185878123661696
 30
0.0
 10
93.83628596782683
 20
-6.412757316808137
 30
0.0
 10
94.55000000000001
 20
-7.026296116793965
 30
0.0
  0
SPLINE
  5
B5
330
1F
100
AcDbEntity
  8
0
  6
Continuous
 62
     1
370
    15
100
AcDbSpline
210
0.0
220
0.0
230
1.0
 70
     8
 71
     3
 72
    12
 73
     8
 74
     0
 42
0.000000001
 43
0.00000001
 40
0.0
 40
0.0
 40
0.0
 40
0.0
 40
0.0759636379992447
 40
0.3053883166059611
 40
0.5416314554901271
 40
0.7683597911477711
 40
0.9999999999999999
 40
0.9999999999999999
 40
0.9999999999999999
 40
0.9999999999999999
 10
92.83928021741923
 20
-5.528901652289941
 30
0.0
 10
92.77910978465191
 20
-5.539318996257063
 30
0.0
 10
92.5372131660032
 20
-5.581198706358047
 30
0.0
 10
92.04551894893984
 20
-5.755996327080692
 30
0.0
 10
91.39588495964102
 20
-6.044044429289304
 30
0.0
 10
90.72098205987524
 20
-6.411947137073708
 30
0.0
 10
90.27694771351196
 20
-6.70201670679991
 30
0.0
 10
90.05255140630213
 20
-6.848605683111321
 30
0.0
  0
SPLINE
  5
B6
330
1F
100
AcDbEntity
  8
0
  6
Continuous
 62
     1
370
    15
100
AcDbSpline
210
0.0
220
0.0
230
1.0
 70
     8
 71
     3
 72
    10
 73
     6
 74
     0
 42
0.000000001
 43
0.00000001
 40
0.0
 40
0.0
 40
0.0
 40
0.0
 40
0.5
 40
0.5
 40
1.0
 40
1.0
 40
1.0
 40
1.0
 10
94.55000000000001
 20
-7.424523816498287
 30
0.0
 10
93.78024955483659
 20
-7.462978576970734
 30
0.0
 10
93.01982173602862
 20
-7.439311797064282
 30
0.0
 10
91.51891668142844
 20
-7.259037057251532
 30
0.0
 10
90.77903015423259
 20
-7.098492896695118
 30
0.0
 10
90.05255140629757
 20
-6.848605683120885
 30
0.0
  0
LINE
  5
B7
330
1F
100
AcDbEntity
  8
0
  6
Continuous
 62
     1
370
    15
100
AcDbLine
 10
94.55000000000001
 20
-11.37459087401278
 30
0.0
 11
94.55000000000001
 21
-7.424523816498287
 31
0.0
  0
SPLINE
  5
B8
330
1F
100
AcDbEntity
  8
0
  6
Continuous
 62
     1
370
    15
100
AcDbSpline
210
0.0
220
0.0
230
1.0
 70
     8
 71
     3
 72
    16
 73
    12
 74
     0
 42
0.000000001
 43
0.00000001
 40
0.0
 40
0.0
 40
0.0
 40
0.0
 40
0.1117640976562342
 40
0.2234920529205124
 40
0.3351981247780492
 40
0.4468966464284732
 40
0.5586019767107285
 40
0.6703284513419457
 40
0.7820903343240866
 40
0.8938565501760104
 40
1.0
 40
1.0
 40
1.0
 40
1.0
 10
94.55000000000001
 20
0.7953109892982652
 30
0.0
 10
93.83628596814648
 20
1.50515745505521
 30
0.0
 10
92.40908870603691
 20
2.924620835669195
 30
0.0
 10
90.26902313408071
 20
4.965147725269038
 30
0.0
 10
88.12955116001007
 20
6.866376742332783
 30
0.0
 10
85.99030730657465
 20
8.572796123595086
 30
0.0
 10
83.85085804367016
 20
10.03600874245463
 30
0.0
 10
81.71082937209191
 20
11.21713733993279
 30
0.0
 10
79.5699704606856
 20
12.07264712353103
 30
0.0
 10
77.46467199014968
 20
12.60627658190073
 30
0.0
 10
76.07344834191281
 20
12.66355386148309
 30
0.0
 10
75.39578552671576
 20
12.69145353281042
 30
0.0
  0
SPLINE
  5
B9
330
1F
100
AcDbEntity
  8
0
  6
Continuous
 62
     1
370
    15
100
AcDbSpline
210
0.0
220
0.0
230
1.0
 70
     8
 71
     3
 72
    23
 73
    19
 74
     0
 42
0.000000001
 43
0.00000001
 40
0.0
 40
0.0
 40
0.0
 40
0.0
 40
0.0454992691060083
 40
0.1109717447682104
 40
0.1764469070958767
 40
0.2419331629724396
 40
0.3074388816449029
 40
0.3729538149048976
 40
0.4384471028816084
 40
0.5039258322492048
 40
0.5693983977824512
 40
0.6348732151840166
 40
0.7003586925085704
 40
0.7658632016423749
 40
0.8244314670411854
 40
0.8829531851968867
 40
0.9414635941272953
 40
1.0
 40
1.0
 40
1.0
 40
1.0
 10
44.67575096846461
 20
-9.496358490646738
 30
0.0
 10
44.18019097926634
 20
-9.823161740246311
 30
0.0
 10
42.97153075858188
 20
-10.62022788035265
 30
0.0
 10
41.04988358324024
 20
-11.55425680152746
 30
0.0
 10
38.91048994180336
 20
-12.30436303438952
 30
0.0
 10
36.77057229312335
 20
-12.69593009168383
 30
0.0
 10
34.62985268952247
 20
-12.73051651193316
 30
0.0
 10
32.4887855897336
 20
-12.40376322702372
 30
0.0
 10
30.34856252965974
 20
-11.72575576526805
 30
0.0
 10
28.20899203113416
 20
-10.71562151736494
 30
0.0
 10
26.06973660263375
 20
-9.402055870070198
 30
0.0
 10
23.93036612807231
 20
-7.822164340975371
 30
0.0
 10
21.79047893265892
 20
-6.020598463368437
 30
0.0
 10
19.72549978746279
 20
-4.117973129188305
 30
0.0
 10
17.73604782515675
 20
-2.185043378765112
 30
0.0
 10
15.82397773730425
 20
-0.2768917508780628
 30
0.0
 10
13.91240674810288
 20
1.642978443593655
 30
0.0
 10
12.63756330000984
 20
2.883516189110988
 30
0.0
 10
11.99999999999813
 20
3.503922828062782
 30
0.0
  0
SPLINE
  5
BA
330
1F
100
AcDbEntity
  8
0
  6
Continuous
 62
     4
370
    15
100
AcDbSpline
210
0.0
220
0.0
230
1.0
 70
    24
 71
     3
 72
    20
 73
    16
 74
     0
 42
0.000000001
 43
0.00000001
 40
0.0
 40
0.0
 40
0.0
 40
0.0
 40
0.2500000000000001
 40
0.2500000000000001
 40
0.3749999999999999
 40
0.3749999999999999
 40
0.5
 40
0.5
 40
0.625
 40
0.625
 40
0.75
 40
0.75
 40
0.875
 40
0.875
 40
1.0
 40
1.0
 40
1.0
 40
1.0
 10
12.0
 20
12.54931580181257
 30
0.0
 10
12.0
 20
11.64916995469369
 30
0.0
 10
12.0
 20
10.68013139927017
 30
0.0
 10
12.0
 20
9.189242360675316
 30
0.0
 10
12.0
 20
8.686814499327008
 30
0.0
 10
12.0
 20
7.693228572053199
 30
0.0
 10
12.0
 20
7.202072394155564
 30
0.0
 10
12.0
 20
6.261928276697597
 30
0.0
 10
12.0
 20
5.813032307742392
 30
0.0
 10
12.0
 20
4.995854413621697
 30
0.0
 10
12.0
 20
4.627783111040261
 30
0.0
 10
12.0
 20
4.013786185201225
 30
0.0
 10
12.0
 20
3.768167194752854
 30
0.0
 10
12.0
 20
3.435772915768016
 30
0.0
 10
12.0
 20
3.349301455723536
 30
0.0
 10
12.0
 20
3.353377564448137
 30
0.0
  0
SPLINE
  5
BB
330
1F
100
AcDbEntity
  8
0
  6
Continuous
 62
     1
370
    15
100
AcDbSpline
210
0.0
220
0.0
230
1.0
 70
     8
 71
     3
 72
    27
 73
    23
 74
     0
 42
0.000000001
 43
0.00000001
 40
0.0
 40
0.0
 40
0.0
 40
0.0
 40
0.0456980808688219
 40
0.0913758664982339
 40
0.1370624809903729
 40
0.182785433888468
 40
0.2339233592708135
 40
0.2850464269394808
 40
0.3361611726414079
 40
0.3872741603594096
 40
0.4383919600469271
 40
0.4895211253194457
 40
0.5406671885871728
 40
0.5918060582296695
 40
0.6429297336967169
 40
0.6940447486748428
 40
0.7451576662325026
 40
0.7962750565614651
 40
0.8474034746665005
 40
0.8985488854086383
 40
0.9496887166159979
 40
1.0
 40
1.0
 40
1.0
 40
1.0
 10
11.99999999999813
 20
12.5493158018123
 30
0.0
 10
12.63756330000987
 20
12.61979578370305
 30
0.0
 10
13.91240674810299
 20
12.76072444621153
 30
0.0
 10
15.82397773730385
 20
12.60725274201294
 30
0.0
 10
17.7360478251583
 20
12.18862772584844
 30
0.0
 10
19.72549978745673
 20
11.46130150530192
 30
0.0
 10
21.79047893268459
 20
10.40988276217373
 30
0.0
 10
23.9303661279769
 20
9.024671256585195
 30
0.0
 10
26.0697366029896
 20
7.384070534511756
 30
0.0
 10
28.2089920298061
 20
5.534331196433151
 30
0.0
 10
30.34856253461702
 20
3.527770546280436
 30
0.0
 10
32.48878557122563
 20
1.421010428347655
 30
0.0
 10
34.629852758616
 20
-0.7257577230275369
 30
0.0
 10
36.77057203533844
 20
-2.852154433090867
 30
0.0
 10
38.91049090348632
 20
-4.897692255379277
 30
0.0
 10
41.04987999489313
 20
-6.804281466461124
 30
0.0
 10
43.18913065489467
 20
-8.518261733233837
 30
0.0
 10
45.32867519635203
 20
-9.990526219343254
 30
0.0
 10
47.46885875316497
 20
-11.18186747427121
 30
0.0
 10
49.60989178809233
 20
-12.04912293017988
 30
0.0
 10
51.73932328563566
 20
-12.59905302304569
 30
0.0
 10
53.15474880360902
 20
-12.66465276489656
 30
0.0
 10
53.85668169641698
 20
-12.69718476038494
 30
0.0
  0
SPLINE
  5
BC
330
1F
100
AcDbEntity
  8
0
  6
Continuous
 62
     1
370
    15
100
AcDbSpline
210
0.0
220
0.0
230
1.0
 70
     8
 71
     3
 72
    12
 73
     8
 74
     0
 42
0.000000001
 43
0.00000001
 40
0.0
 40
0.0
 40
0.0
 40
0.0
 40
0.1417506504013164
 40
0.3562637471626141
 40
0.5707913438321036
 40
0.7853609668174163
 40
0.9999999999999999
 40
0.9999999999999999
 40
0.9999999999999999
 40
0.9999999999999999
 10
84.57672188553427
 20
9.494717790636868
 30
0.0
 10
85.04793095596845
 20
9.80714877950819
 30
0.0
 10
86.2322268209583
 20
10.59238563387103
 30
0.0
 10
88.12954785823386
 20
11.52373715259283
 30
0.0
 10
90.26902401476262
 20
12.28045756095538
 30
0.0
 10
92.40908848576541
 20
12.7045032334447
 30
0.0
 10
93.83628589471472
 20
12.68488426359011
 30
0.0
 10
94.55000000000001
 20
12.67507319230552
 30
0.0
  0
LINE
  5
BD
330
1F
100
AcDbEntity
  8
0
  6
Continuous
 62
     1
370
    15
100
AcDbLine
 10
94.55000000000001
 20
8.223300350376991
 30
0.0
 11
94.55000000000001
 21
12.67507319230553
 31
0.0
  0
SPLINE
  5
BE
330
1F
100
AcDbEntity
  8
0
  6
Continuous
 62
     1
370
    15
100
AcDbSpline
210
0.0
220
0.0
230
1.0
 70
     8
 71
     3
 72
    15
 73
    11
 74
     0
 42
0.000000001
 43
0.00000001
 40
0.0
 40
0.0
 40
0.0
 40
0.0
 40
0.1461748702670223
 40
0.2958763919486762
 40
0.419098131152847
 40
0.5457834674386649
 40
0.6690693961518808
 40
0.7960193605425395
 40
0.9178563555726994
 40
0.9999999999999999
 40
0.9999999999999999
 40
0.9999999999999999
 40
0.9999999999999999
 10
94.55000000000001
 20
8.223300350378004
 30
0.0
 10
94.43607025057666
 20
7.932052592362138
 30
0.0
 10
94.2054620541513
 20
7.342530360206497
 30
0.0
 10
93.75090626423764
 20
6.595797472094175
 30
0.0
 10
93.23115899349406
 20
5.980291352318558
 30
0.0
 10
92.67153751960798
 20
5.514285570617759
 30
0.0
 10
92.04845600902702
 20
5.169234361501617
 30
0.0
 10
91.3951364864533
 20
4.96613320806338
 30
0.0
 10
90.79758055248101
 20
4.885112299532122
 30
0.0
 10
90.42974013268658
 20
4.917162426669542
 30
0.0
 10
90.28160963986163
 20
4.930069113570949
 30
0.0
  0
SPLINE
  5
BF
330
1F
100
AcDbEntity
  8
0
  6
Continuous
 62
     1
370
    15
100
AcDbSpline
210
0.0
220
0.0
230
1.0
 70
     8
 71
     3
 72
    10
 73
     6
 74
     0
 42
0.000000001
 43
0.00000001
 40
0.0
 40
0.0
 40
0.0
 40
0.0
 40
0.3182571367171723
 40
0.6385064301890794
 40
1.0
 40
1.0
 40
1.0
 40
1.0
 10
94.55000000000001
 20
2.449835235057697
 30
0.0
 10
94.11616181227201
 20
2.717675970448759
 30
0.0
 10
93.24576979095485
 20
3.255034012369888
 30
0.0
 10
91.88670849198766
 20
4.035142233223722
 30
0.0
 10
90.98946596102022
 20
4.475950498798901
 30
0.0
 10
90.51370387684705
 20
4.70968870437044
 30
0.0
  0
LINE
  5
C0
330
1F
100
AcDbEntity
  8
0
  6
Continuous
 62
     1
370
    15
100
AcDbLine
 10
94.55000000000001
 20
0.7953109892982647
 30
0.0
 11
94.55000000000001
 21
2.449835235057696
 31
0.0
  0
LINE
  5
C1
330
1F
100
AcDbEntity
  8
0
  6
Continuous
 62
     1
370
    15
100
AcDbLine
 10
94.55000000000001
 20
12.67507319230553
 30
0.0
 11
94.55000000000001
 21
12.70000000000002
 31
0.0
  0
LINE
  5
C2
330
1F
100
AcDbEntity
  8
0
  6
Continuous
 62
     4
370
    15
100
AcDbLine
 10
12.0
 20
-4.585425921637911
 30
0.0
 11
12.0
 21
3.503922828060978
 31
0.0
  0
LINE
  5
C3
330
1F
100
AcDbEntity
  8
0
  6
Continuous
 62
     1
370
    15
100
AcDbLine
 10
94.55000000000001
 20
-7.026296116793969
 30
0.0
 11
94.55000000000001
 21
0.7953109892982647
 31
0.0
  0
LINE
  5
C4
330
1F
100
AcDbEntity
  8
0
  6
Continuous
 62
     1
370
    15
100
AcDbLine
 10
94.55000000000001
 20
2.449835235057697
 30
0.0
 11
94.55000000000001
 21
8.223300350376991
 31
0.0
  0
LINE
  5
C5
330
1F
100
AcDbEntity
  8
0
  6
Continuous
 62
     1
370
    15
100
AcDbLine
 10
94.55000000000001
 20
-7.026296116793969
 30
0.0
 11
94.55000000000001
 21
-7.424523816498287
 31
0.0
  0
LINE
  5
C6
330
1F
100
AcDbEntity
  8
중심선
100
AcDbLine
 10
-60.35000000000001
 20
-0.0000000000000015
 30
0.0
 11
11.11254243902305
 21
-0.0000000000000022
 31
0.0
  0
CIRCLE
  5
C7
330
1F
100
AcDbEntity
  8
외형선
100
AcDbCircle
 10
0.0
 20
0.0
 30
0.0
 40
3.000000000000008
  0
INSERT
  5
C8
330
1F
100
AcDbEntity
  8
0
  6
Continuous
 62
     7
100
AcDbBlockReference
 66
     1
  2
블럭10
 10
0.0144438835282017
 20
-52.04609937292004
 30
0.0
  0
ATTRIB
  5
C9
330
C8
100
AcDbEntity
  8
FORMAT
 62
     2
100
AcDbText
 10
-9.166851405213077
 20
-49.97073246008785
 30
0.0
 40
4.233333333333333
  1
E5982064 [ 3 FLUTE ]
 41
0.75
  7
SLDTEXTSTYLE0
 11
-9.166851405213077
 21
-52.08739912675452
 31
0.0
100
AcDbAttribute
  2
AUTOATTR0
 70
     0
 74
     1
  0
SEQEND
  5
CA
330
C8
100
AcDbEntity
  8
0
  6
Continuous
 62
     7
  0
HATCH
  5
CB
330
1F
100
AcDbEntity
  8
중심선
100
AcDbHatch
 10
0.0
 20
0.0
 30
0.0
210
0.0
220
0.0
230
1.0
  2
SOLID
 70
     1
 71
     0
 91
        1
 92
        0
 93
        4
 72
     1
 10
5.729353187909053
 20
-35.7989250712761
 11
2.283077944071771
 21
-35.7989250712761
 72
     1
 10
2.283077944071771
 20
-35.7989250712761
 11
0.1548480848677478
 21
-38.3352506518487
 72
     1
 10
0.1548480848677478
 20
-38.3352506518487
 11
3.601156413818181
 21
-38.33521122254621
 72
     1
 10
3.601156413818181
 20
-38.33521122254621
 11
5.729353187909053
 21
-35.7989250712761
 97
        0
 75
     0
 76
     1
 98
        1
 10
19.78930335397473
 20
0.0
  0
HATCH
  5
CC
330
1F
100
AcDbEntity
  8
중심선
100
AcDbHatch
 10
0.0
 20
0.0
 30
0.0
210
0.0
220
0.0
230
1.0
  2
SOLID
 70
     1
 71
     0
 91
        1
 92
        0
 93
        4
 72
     1
 10
10.742117178945
 20
-35.7989250712761
 11
7.295841935107722
 21
-35.7989250712761
 72
     1
 10
7.295841935107722
 20
-35.7989250712761
 11
2.764703926750336
 21
-41.19892507127612
 72
     1
 10
2.764703926750336
 20
-41.19892507127612
 11
6.210979170587617
 21
-41.19892507127612
 72
     1
 10
6.210979170587617
 20
-41.19892507127612
 11
10.742117178945
 21
-35.7989250712761
 97
        0
 75
     0
 76
     1
 98
        1
 10
19.78930335397473
 20
0.0
  0
HATCH
  5
CD
330
1F
100
AcDbEntity
  8
중심선
100
AcDbHatch
 10
0.0
 20
0.0
 30
0.0
210
0.0
220
0.0
230
1.0
  2
SOLID
 70
     1
 71
     0
 91
        1
 92
        0
 93
        4
 72
     1
 10
15.7548811699809
 20
-35.79892507127613
 11
12.30860592614379
 21
-35.7989250712761
 72
     1
 10
12.30860592614378
 20
-35.7989250712761
 11
5.260169024254535
 21
-44.19892507127612
 72
     1
 10
5.260169024254536
 20
-44.19892507127612
 11
8.706444268091818
 21
-44.19892507127612
 72
     1
 10
8.706444268091818
 20
-44.19892507127612
 11
15.7548811699809
 21
-35.79892507127613
 97
        0
 75
     0
 76
     1
 98
        1
 10
19.78930335397473
 20
0.0
  0
HATCH
  5
CE
330
1F
100
AcDbEntity
  8
중심선
100
AcDbHatch
 10
0.0
 20
0.0
 30
0.0
210
0.0
220
0.0
230
1.0
  2
SOLID
 70
     1
 71
     0
 91
        1
 92
        0
 93
        6
 72
     3
 10
20.5547716009931
 20
-39.99892507132738
 11
3.960054785062283
 21
1.540882976769353E-10
 40
0.3939339440162628
 50
17.09539180608437
 51
320.0019657685081
 73
     0
 72
     1
 10
22.23777125669369
 20
-38.58681907591441
 11
24.54307313039473
 21
-36.65249236586649
 72
     3
 10
20.55477160094025
 20
-39.99892507127625
 11
6.600054785286829
 21
-1.278976924368180E-13
 40
0.636358354079598
 50
39.99873849337411
 51
368.4976242363725
 73
     1
 72
     1
 10
26.98010409284086
 20
-39.03892507120613
 11
19.23483890777617
 21
-39.0389250712061
 72
     1
 10
19.23483890777618
 20
-39.0389250712061
 11
19.23481386333024
 21
-40.95892507120602
 72
     1
 10
19.23481386333024
 20
-40.95892507120602
 11
23.67619363280228
 21
-40.95892507120599
 97
        0
 75
     0
 76
     1
 98
        1
 10
19.78930335397473
 20
0.0
  0
POINT
  5
CF
330
1F
100
AcDbEntity
  8
치수문자_일반주서
100
AcDbPoint
 10
-57.85000000000001
 20
-0.0000000000000022
 30
0.0
  0
DIMENSION
  5
DB
330
1F
100
AcDbEntity
  8
치수문자_일반주서
100
AcDbDimension
  2
_D_1
 10
11.99999999999999
 20
33.31341845233052
 30
0.0
 11
53.275
 21
33.31341845233052
 31
0.0
 70
   160
  1
<>
 71
     2
 42
82.55000000000001
  3
SLDDIMSTYLE1
100
AcDbAlignedDimension
 13
94.55000000000001
 23
12.70000000000002
 33
0.0
 14
12.0
 24
12.54931580181258
 34
0.0
 50
0.0000000000000099
100
AcDbRotatedDimension
1001
ACAD
1000
DSTYLE
1002
{
1070
   171
1070
     6
1070
   273
1070
     5
1002
}
  0
DIMENSION
  5
EF
330
1F
100
AcDbEntity
  8
치수문자_일반주서
100
AcDbDimension
  2
_D_2
 10
-57.85
 20
51.33610365728745
 30
0.0
 11
18.35
 21
51.33610365728745
 31
0.0
 70
   160
  1
<>
 71
     2
 42
152.4
  3
SLDDIMSTYLE2
100
AcDbAlignedDimension
 13
94.55000000000001
 23
12.70000000000002
 33
0.0
 14
-57.85
 24
12.2
 34
0.0
 50
0.000000000000008
100
AcDbRotatedDimension
1001
ACAD
1000
DSTYLE
1002
{
1070
   171
1070
     6
1070
   273
1070
     5
1002
}
  0
DIMENSION
  5
103
330
1F
100
AcDbEntity
  8
치수문자_일반주서
100
AcDbDimension
  2
_D_3
 10
-70.35
 20
-12.70000000000004
 30
0.0
 11
-70.35000000000004
 21
-0.0394611334872461
 31
0.0
 70
   160
  1
%%c<>
 71
     2
 42
25.4
 52
-270.0
  3
SLDDIMSTYLE3
100
AcDbAlignedDimension
 13
-57.35
 23
12.70000000000001
 33
0.0
 14
-57.35
 24
-12.69999999999999
 34
0.0
 50
90.0000000000002
100
AcDbRotatedDimension
1001
ACAD
1000
DSTYLE
1002
{
1070
   171
1070
     6
1070
   273
1070
     5
1002
}
  0
INSERT
  5
11E
330
1F
100
AcDbEntity
  8
외형선
100
AcDbBlockReference
  2
SW_DOWELSYMBOL_0
 10
0.0
 20
0.0
 30
0.0
  0
DIMENSION
  5
146
102
{ACAD_REACTORS
102
}
102
{ACAD_XDICTIONARY
360
147
102
}
330
1F
100
AcDbEntity
  8
치수문자_일반주서
100
AcDbDimension
  2
*D7
 10
115.9671993470516
 20
12.70000000000002
 30
0.0
 11
113.3421993470516
 21
0.000000000000016
 31
0.0
 70
    32
  1
{Ø<>[]}
 71
     5
 42
25.40000000000001
  3
SLDDIMSTYLE3
100
AcDbAlignedDimension
 13
94.55000000000004
 23
-12.69999999999999
 33
0.0
 14
94.55000000000001
 24
12.70000000000002
 34
0.0
 50
90.0
100
AcDbRotatedDimension
1001
ACAD
1000
DSTYLE
1002
{
1070
   283
1070
     1
1070
   170
1070
     1
1070
   171
1070
     6
1070
   273
1070
     5
1002
}
  0
ENDSEC
  0
SECTION
  2
OBJECTS
  0
DICTIONARY
  5
C
330
0
100
AcDbDictionary
281
     1
  3
ACAD_GROUP
350
D
  3
ACAD_IMAGE_VARS
350
142
  3
ACAD_LAYOUT
350
1A
  3
ACAD_MLINESTYLE
350
17
  3
ACAD_PLOTSETTINGS
350
19
  3
ACAD_PLOTSTYLENAME
350
E
  3
ACAD_SCALELIST
350
47
  3
APPDATA
350
140
  3
DWGPROPS
350
159
  0
DICTIONARY
  5
147
330
146
100
AcDbDictionary
280
     1
281
     1
  0
DICTIONARY
  5
D
102
{ACAD_REACTORS
330
C
102
}
330
C
100
AcDbDictionary
281
     1
  0
RASTERVARIABLES
  5
142
102
{ACAD_REACTORS
330
C
102
}
330
C
100
AcDbRasterVariables
 90
        0
 70
     1
 71
     1
 72
     1
  0
DICTIONARY
  5
1A
102
{ACAD_REACTORS
330
C
102
}
330
C
100
AcDbDictionary
281
     1
  3
Layout1
350
1E
  3
Layout2
350
26
  3
Model
350
22
  0
DICTIONARY
  5
17
102
{ACAD_REACTORS
330
C
102
}
330
C
100
AcDbDictionary
281
     1
  3
Standard
350
18
  0
DICTIONARY
  5
19
102
{ACAD_REACTORS
330
C
102
}
330
C
100
AcDbDictionary
281
     1
  0
ACDBDICTIONARYWDFLT
  5
E
102
{ACAD_REACTORS
330
C
102
}
330
C
100
AcDbDictionary
281
     1
  3
Normal
350
F
100
AcDbDictionaryWithDefault
340
F
  0
DICTIONARY
  5
47
102
{ACAD_REACTORS
330
C
102
}
330
C
100
AcDbDictionary
281
     1
  3
A0
350
48
  3
A1
350
49
  3
A2
350
4A
  3
A3
350
4B
  3
A4
350
4C
  3
A5
350
4D
  3
A6
350
4E
  3
A7
350
4F
  3
A8
350
50
  3
A9
350
51
  3
B0
350
52
  3
B1
350
53
  3
B2
350
54
  3
B3
350
55
  3
B4
350
56
  3
B5
350
57
  3
B6
350
58
  3
B7
350
59
  3
B8
350
5A
  3
B9
350
5B
  3
C0
350
5C
  3
C1
350
5D
  3
C2
350
5E
  3
C3
350
5F
  3
C4
350
60
  3
C5
350
61
  3
C6
350
62
  3
C7
350
63
  3
C8
350
64
  3
C9
350
65
  3
D0
350
66
  3
D1
350
67
  3
D2
350
68
  0
DICTIONARY
  5
140
102
{ACAD_REACTORS
330
C
102
}
330
C
100
AcDbDictionary
281
     1
  0
XRECORD
  5
159
102
{ACAD_REACTORS
330
C
102
}
330
C
100
AcDbXrecord
280
     1
  1
DWGPROPS COOKIE
  2

  3

  4

  6

  7

  8
12014074
  9

300
=
301
=
302
=
303
=
304
=
305
=
306
=
307
=
308
=
309
=
 40
0.0
 41
2458269.022132928
 42
2458269.462950637
  1

 90
        0
  0
LAYOUT
  5
1E
102
{ACAD_REACTORS
330
1A
102
}
330
1A
100
AcDbPlotSettings
  1

  2
none_device
  4

  6

 40
0.0
 41
0.0
 42
0.0
 43
0.0
 44
0.0
 45
0.0
 46
0.0
 47
0.0
 48
0.0
 49
0.0
140
0.0
141
0.0
142
1.0
143
1.0
 70
   688
 72
     1
 73
     0
 74
     5
  7

 75
    16
147
1.0
148
0.0
149
0.0
100
AcDbLayout
  1
Layout1
 70
     1
 71
     1
 10
0.0
 20
0.0
 11
420.0
 21
297.0
 12
0.0
 22
0.0
 32
0.0
 14
1.000000000000000E+20
 24
1.000000000000000E+20
 34
1.000000000000000E+20
 15
-1.000000000000000E+20
 25
-1.000000000000000E+20
 35
-1.000000000000000E+20
146
0.0
 13
0.0
 23
0.0
 33
0.0
 16
1.0
 26
0.0
 36
0.0
 17
0.0
 27
1.0
 37
0.0
 76
     0
330
1B
  0
LAYOUT
  5
26
102
{ACAD_REACTORS
330
1A
102
}
330
1A
100
AcDbPlotSettings
  1

  2
none_device
  4

  6

 40
0.0
 41
0.0
 42
0.0
 43
0.0
 44
0.0
 45
0.0
 46
0.0
 47
0.0
 48
0.0
 49
0.0
140
0.0
141
0.0
142
1.0
143
1.0
 70
   688
 72
     1
 73
     0
 74
     5
  7

 75
    16
147
1.0
148
0.0
149
0.0
100
AcDbLayout
  1
Layout2
 70
     1
 71
     2
 10
0.0
 20
0.0
 11
0.0
 21
0.0
 12
0.0
 22
0.0
 32
0.0
 14
0.0
 24
0.0
 34
0.0
 15
0.0
 25
0.0
 35
0.0
146
0.0
 13
0.0
 23
0.0
 33
0.0
 16
1.0
 26
0.0
 36
0.0
 17
0.0
 27
1.0
 37
0.0
 76
     0
330
23
  0
LAYOUT
  5
22
102
{ACAD_REACTORS
330
1A
102
}
330
1A
100
AcDbPlotSettings
  1

  2
none_device
  4
ANSI_A_(11.00_x_8.50_Inches)
  6

 40
6.35
 41
19.05
 42
6.35000508
 43
19.05000254
 44
279.4
 45
215.9
 46
125.9448444036065
 47
79.90039381351532
 48
0.0
 49
0.0
140
0.0
141
0.0
142
0.0619831600098663
143
1.0
 70
  1696
 72
     0
 73
     0
 74
     0
  7

 75
     0
147
0.0235690232323232
148
0.0
149
0.0
100
AcDbLayout
  1
Model
 70
     1
 71
     0
 10
0.0
 20
0.0
 11
420.0
 21
297.0
 12
0.0
 22
0.0
 32
0.0
 14
-74.72500000000007
 24
-49.97073246008785
 34
0.0
 15
116.517532680385
 25
55.71110365728745
 35
0.0
146
0.0
 13
0.0
 23
0.0
 33
0.0
 16
1.0
 26
0.0
 36
0.0
 17
0.0
 27
1.0
 37
0.0
 76
     0
330
1F
331
29
  0
MLINESTYLE
  5
18
102
{ACAD_REACTORS
330
17
102
}
330
17
100
AcDbMlineStyle
  2
Standard
 70
     0
  3

 62
   256
 51
90.0
 52
90.0
 71
     2
 49
0.5
 62
   256
  6
BYLAYER
 49
-0.5
 62
   256
  6
BYLAYER
  0
ACDBPLACEHOLDER
  5
F
102
{ACAD_REACTORS
330
E
102
}
330
E
  0
SCALE
  5
48
102
{ACAD_REACTORS
330
47
102
}
330
47
100
AcDbScale
 70
     0
300
1:1
140
1.0
141
1.0
290
     1
  0
SCALE
  5
49
102
{ACAD_REACTORS
330
47
102
}
330
47
100
AcDbScale
 70
     0
300
1:2
140
1.0
141
2.0
290
     0
  0
SCALE
  5
4A
102
{ACAD_REACTORS
330
47
102
}
330
47
100
AcDbScale
 70
     0
300
1:4
140
1.0
141
4.0
290
     0
  0
SCALE
  5
4B
102
{ACAD_REACTORS
330
47
102
}
330
47
100
AcDbScale
 70
     0
300
1:5
140
1.0
141
5.0
290
     0
  0
SCALE
  5
4C
102
{ACAD_REACTORS
330
47
102
}
330
47
100
AcDbScale
 70
     0
300
1:8
140
1.0
141
8.0
290
     0
  0
SCALE
  5
4D
102
{ACAD_REACTORS
330
47
102
}
330
47
100
AcDbScale
 70
     0
300
1:10
140
1.0
141
10.0
290
     0
  0
SCALE
  5
4E
102
{ACAD_REACTORS
330
47
102
}
330
47
100
AcDbScale
 70
     0
300
1:16
140
1.0
141
16.0
290
     0
  0
SCALE
  5
4F
102
{ACAD_REACTORS
330
47
102
}
330
47
100
AcDbScale
 70
     0
300
1:20
140
1.0
141
20.0
290
     0
  0
SCALE
  5
50
102
{ACAD_REACTORS
330
47
102
}
330
47
100
AcDbScale
 70
     0
300
1:30
140
1.0
141
30.0
290
     0
  0
SCALE
  5
51
102
{ACAD_REACTORS
330
47
102
}
330
47
100
AcDbScale
 70
     0
300
1:40
140
1.0
141
40.0
290
     0
  0
SCALE
  5
52
102
{ACAD_REACTORS
330
47
102
}
330
47
100
AcDbScale
 70
     0
300
1:50
140
1.0
141
50.0
290
     0
  0
SCALE
  5
53
102
{ACAD_REACTORS
330
47
102
}
330
47
100
AcDbScale
 70
     0
300
1:100
140
1.0
141
100.0
290
     0
  0
SCALE
  5
54
102
{ACAD_REACTORS
330
47
102
}
330
47
100
AcDbScale
 70
     0
300
2:1
140
2.0
141
1.0
290
     0
  0
SCALE
  5
55
102
{ACAD_REACTORS
330
47
102
}
330
47
100
AcDbScale
 70
     0
300
4:1
140
4.0
141
1.0
290
     0
  0
SCALE
  5
56
102
{ACAD_REACTORS
330
47
102
}
330
47
100
AcDbScale
 70
     0
300
8:1
140
8.0
141
1.0
290
     0
  0
SCALE
  5
57
102
{ACAD_REACTORS
330
47
102
}
330
47
100
AcDbScale
 70
     0
300
10:1
140
10.0
141
1.0
290
     0
  0
SCALE
  5
58
102
{ACAD_REACTORS
330
47
102
}
330
47
100
AcDbScale
 70
     0
300
100:1
140
100.0
141
1.0
290
     0
  0
SCALE
  5
59
102
{ACAD_REACTORS
330
47
102
}
330
47
100
AcDbScale
 70
     0
300
1/128" = 1'-0"
140
0.0078125
141
12.0
290
     0
  0
SCALE
  5
5A
102
{ACAD_REACTORS
330
47
102
}
330
47
100
AcDbScale
 70
     0
300
1/64" = 1'-0"
140
0.015625
141
12.0
290
     0
  0
SCALE
  5
5B
102
{ACAD_REACTORS
330
47
102
}
330
47
100
AcDbScale
 70
     0
300
1/32" = 1'-0"
140
0.03125
141
12.0
290
     0
  0
SCALE
  5
5C
102
{ACAD_REACTORS
330
47
102
}
330
47
100
AcDbScale
 70
     0
300
1/16" = 1'-0"
140
0.0625
141
12.0
290
     0
  0
SCALE
  5
5D
102
{ACAD_REACTORS
330
47
102
}
330
47
100
AcDbScale
 70
     0
300
3/32" = 1'-0"
140
0.09375
141
12.0
290
     0
  0
SCALE
  5
5E
102
{ACAD_REACTORS
330
47
102
}
330
47
100
AcDbScale
 70
     0
300
1/8" = 1'-0"
140
0.125
141
12.0
290
     0
  0
SCALE
  5
5F
102
{ACAD_REACTORS
330
47
102
}
330
47
100
AcDbScale
 70
     0
300
3/16" = 1'-0"
140
0.1875
141
12.0
290
     0
  0
SCALE
  5
60
102
{ACAD_REACTORS
330
47
102
}
330
47
100
AcDbScale
 70
     0
300
1/4" = 1'-0"
140
0.25
141
12.0
290
     0
  0
SCALE
  5
61
102
{ACAD_REACTORS
330
47
102
}
330
47
100
AcDbScale
 70
     0
300
3/8" = 1'-0"
140
0.375
141
12.0
290
     0
  0
SCALE
  5
62
102
{ACAD_REACTORS
330
47
102
}
330
47
100
AcDbScale
 70
     0
300
1/2" = 1'-0"
140
0.5
141
12.0
290
     0
  0
SCALE
  5
63
102
{ACAD_REACTORS
330
47
102
}
330
47
100
AcDbScale
 70
     0
300
3/4" = 1'-0"
140
0.75
141
12.0
290
     0
  0
SCALE
  5
64
102
{ACAD_REACTORS
330
47
102
}
330
47
100
AcDbScale
 70
     0
300
1" = 1'-0"
140
1.0
141
12.0
290
     0
  0
SCALE
  5
65
102
{ACAD_REACTORS
330
47
102
}
330
47
100
AcDbScale
 70
     0
300
1-1/2" = 1'-0"
140
1.5
141
12.0
290
     0
  0
SCALE
  5
66
102
{ACAD_REACTORS
330
47
102
}
330
47
100
AcDbScale
 70
     0
300
3" = 1'-0"
140
3.0
141
12.0
290
     0
  0
SCALE
  5
67
102
{ACAD_REACTORS
330
47
102
}
330
47
100
AcDbScale
 70
     0
300
6" = 1'-0"
140
6.0
141
12.0
290
     0
  0
SCALE
  5
68
102
{ACAD_REACTORS
330
47
102
}
330
47
100
AcDbScale
 70
     0
300
1'-0" = 1'-0"
140
12.0
141
12.0
290
     0
  0
ENDSEC
  0
EOF
