  0
SECTION
  2
HEADER
  9
$ACADVER
  1
AC1015
  9
$ACADMAINTVER
 70
     6
  9
$DWGCODEPAGE
  3
ANSI_949
  9
$INSBASE
 10
0.0
 20
0.0
 30
0.0
  9
$EXTMIN
 10
-77.2403205626627
 20
-49.97073246008785
 30
0.0
  9
$EXTMAX
 10
114.0841574837852
 20
66.22259778227559
 30
0.0
  9
$LIMMIN
 10
0.0
 20
0.0
  9
$LIMMAX
 10
420.0
 20
297.0
  9
$ORTHOMODE
 70
     1
  9
$REGENMODE
 70
     1
  9
$FILLMODE
 70
     1
  9
$QTEXTMODE
 70
     0
  9
$MIRRTEXT
 70
     1
  9
$LTSCALE
 40
1.0
  9
$ATTMODE
 70
     1
  9
$TEXTSIZE
 40
3.5
  9
$TRACEWID
 40
1.0
  9
$TEXTSTYLE
  7
Standard
  9
$CLAYER
  8
0
  9
$CELTYPE
  6
ByLayer
  9
$CECOLOR
 62
   256
  9
$CELTSCALE
 40
1.0
  9
$DISPSILH
 70
     0
  9
$DIMSCALE
 40
1.0
  9
$DIMASZ
 40
3.302
  9
$DIMEXO
 40
1.0
  9
$DIMDLI
 40
3.75
  9
$DIMRND
 40
0.0
  9
$DIMDLE
 40
0.0
  9
$DIMEXE
 40
1.0
  9
$DIMTP
 40
0.0
  9
$DIMTM
 40
0.0
  9
$DIMTXT
 40
3.5
  9
$DIMCEN
 40
2.5
  9
$DIMTSZ
 40
0.0
  9
$DIMTOL
 70
     0
  9
$DIMLIM
 70
     0
  9
$DIMTIH
 70
     1
  9
$DIMTOH
 70
     1
  9
$DIMSE1
 70
     0
  9
$DIMSE2
 70
     0
  9
$DIMTAD
 70
     1
  9
$DIMZIN
 70
     0
  9
$DIMBLK
  1

  9
$DIMASO
 70
     1
  9
$DIMSHO
 70
     1
  9
$DIMPOST
  1

  9
$DIMAPOST
  1

  9
$DIMALT
 70
     0
  9
$DIMALTD
 70
     3
  9
$DIMALTF
 40
0.0393700787401575
  9
$DIMLFAC
 40
1.0
  9
$DIMTOFL
 70
     1
  9
$DIMTVP
 40
0.0
  9
$DIMTIX
 70
     0
  9
$DIMSOXD
 70
     0
  9
$DIMSAH
 70
     0
  9
$DIMBLK1
  1

  9
$DIMBLK2
  1

  9
$DIMSTYLE
  2
ISO-25
  9
$DIMCLRD
 70
     0
  9
$DIMCLRE
 70
     0
  9
$DIMCLRT
 70
     0
  9
$DIMTFAC
 40
1.0
  9
$DIMGAP
 40
1.524
  9
$DIMJUST
 70
     0
  9
$DIMSD1
 70
     0
  9
$DIMSD2
 70
     0
  9
$DIMTOLJ
 70
     0
  9
$DIMTZIN
 70
     0
  9
$DIMALTZ
 70
     0
  9
$DIMALTTZ
 70
     0
  9
$DIMUPT
 70
     0
  9
$DIMDEC
 70
     2
  9
$DIMTDEC
 70
     2
  9
$DIMALTU
 70
     2
  9
$DIMALTTD
 70
     3
  9
$DIMTXSTY
  7
Standard
  9
$DIMAUNIT
 70
     0
  9
$DIMADEC
 70
     2
  9
$DIMALTRND
 40
0.0
  9
$DIMAZIN
 70
     0
  9
$DIMDSEP
 70
    44
  9
$DIMATFIT
 70
     3
  9
$DIMFRAC
 70
     0
  9
$DIMLDRBLK
  1

  9
$DIMLUNIT
 70
     2
  9
$DIMLWD
 70
    -2
  9
$DIMLWE
 70
    -2
  9
$DIMTMOVE
 70
     0
  9
$LUNITS
 70
     2
  9
$LUPREC
 70
     2
  9
$SKETCHINC
 40
1.0
  9
$FILLETRAD
 40
10.0
  9
$AUNITS
 70
     0
  9
$AUPREC
 70
     2
  9
$MENU
  1
.
  9
$ELEVATION
 40
0.0
  9
$PELEVATION
 40
0.0
  9
$THICKNESS
 40
0.0
  9
$LIMCHECK
 70
     0
  9
$CHAMFERA
 40
0.0
  9
$CHAMFERB
 40
0.0
  9
$CHAMFERC
 40
0.0
  9
$CHAMFERD
 40
0.0
  9
$SKPOLY
 70
     0
  9
$TDCREATE
 40
2458269.433522604
  9
$TDUCREATE
 40
2458269.058522604
  9
$TDUPDATE
 40
2458270.343006412
  9
$TDUUPDATE
 40
2458269.968006412
  9
$TDINDWG
 40
0.002652581
  9
$TDUSRTIMER
 40
2458269.965353935
  9
$USRTIMER
 70
     1
  9
$ANGBASE
 50
0.0
  9
$ANGDIR
 70
     0
  9
$PDMODE
 70
     0
  9
$PDSIZE
 40
-1.0
  9
$PLINEWID
 40
0.0
  9
$SPLFRAME
 70
     0
  9
$SPLINETYPE
 70
     6
  9
$SPLINESEGS
 70
     8
  9
$HANDSEED
  5
16F
  9
$SURFTAB1
 70
     6
  9
$SURFTAB2
 70
     6
  9
$SURFTYPE
 70
     6
  9
$SURFU
 70
     6
  9
$SURFV
 70
     6
  9
$UCSBASE
  2

  9
$UCSNAME
  2

  9
$UCSORG
 10
0.0
 20
0.0
 30
0.0
  9
$UCSXDIR
 10
1.0
 20
0.0
 30
0.0
  9
$UCSYDIR
 10
0.0
 20
1.0
 30
0.0
  9
$UCSORTHOREF
  2

  9
$UCSORTHOVIEW
 70
     0
  9
$UCSORGTOP
 10
0.0
 20
0.0
 30
0.0
  9
$UCSORGBOTTOM
 10
0.0
 20
0.0
 30
0.0
  9
$UCSORGLEFT
 10
0.0
 20
0.0
 30
0.0
  9
$UCSORGRIGHT
 10
0.0
 20
0.0
 30
0.0
  9
$UCSORGFRONT
 10
0.0
 20
0.0
 30
0.0
  9
$UCSORGBACK
 10
0.0
 20
0.0
 30
0.0
  9
$PUCSBASE
  2

  9
$PUCSNAME
  2

  9
$PUCSORG
 10
0.0
 20
0.0
 30
0.0
  9
$PUCSXDIR
 10
1.0
 20
0.0
 30
0.0
  9
$PUCSYDIR
 10
0.0
 20
1.0
 30
0.0
  9
$PUCSORTHOREF
  2

  9
$PUCSORTHOVIEW
 70
     0
  9
$PUCSORGTOP
 10
0.0
 20
0.0
 30
0.0
  9
$PUCSORGBOTTOM
 10
0.0
 20
0.0
 30
0.0
  9
$PUCSORGLEFT
 10
0.0
 20
0.0
 30
0.0
  9
$PUCSORGRIGHT
 10
0.0
 20
0.0
 30
0.0
  9
$PUCSORGFRONT
 10
0.0
 20
0.0
 30
0.0
  9
$PUCSORGBACK
 10
0.0
 20
0.0
 30
0.0
  9
$USERI1
 70
     0
  9
$USERI2
 70
     0
  9
$USERI3
 70
     0
  9
$USERI4
 70
     0
  9
$USERI5
 70
     0
  9
$USERR1
 40
0.0
  9
$USERR2
 40
0.0
  9
$USERR3
 40
0.0
  9
$USERR4
 40
0.0
  9
$USERR5
 40
0.0
  9
$WORLDVIEW
 70
     1
  9
$SHADEDGE
 70
     3
  9
$SHADEDIF
 70
    70
  9
$TILEMODE
 70
     1
  9
$MAXACTVP
 70
    64
  9
$PINSBASE
 10
0.0
 20
0.0
 30
0.0
  9
$PLIMCHECK
 70
     0
  9
$PEXTMIN
 10
1.000000000000000E+20
 20
1.000000000000000E+20
 30
1.000000000000000E+20
  9
$PEXTMAX
 10
-1.000000000000000E+20
 20
-1.000000000000000E+20
 30
-1.000000000000000E+20
  9
$PLIMMIN
 10
0.0
 20
0.0
  9
$PLIMMAX
 10
0.0
 20
0.0
  9
$UNITMODE
 70
     0
  9
$VISRETAIN
 70
     1
  9
$PLINEGEN
 70
     0
  9
$PSLTSCALE
 70
     1
  9
$TREEDEPTH
 70
  3020
  9
$CMLSTYLE
  2
Standard
  9
$CMLJUST
 70
     0
  9
$CMLSCALE
 40
20.0
  9
$PROXYGRAPHICS
 70
     1
  9
$MEASUREMENT
 70
     1
  9
$CELWEIGHT
370
    -1
  9
$ENDCAPS
280
     0
  9
$JOINSTYLE
280
     0
  9
$LWDISPLAY
290
     1
  9
$INSUNITS
 70
     4
  9
$HYPERLINKBASE
  1

  9
$STYLESHEET
  1

  9
$XEDIT
290
     1
  9
$CEPSNTYPE
380
     0
  9
$PSTYLEMODE
290
     1
  9
$FINGERPRINTGUID
  2
{324D226A-63F9-4595-A2A8-C02F6483CB00}
  9
$VERSIONGUID
  2
{FAEB1C32-E019-11D5-929B-00C0DF256EC4}
  9
$EXTNAMES
290
     1
  9
$PSVPSCALE
 40
0.0
  9
$OLESTARTUP
290
     0
  0
ENDSEC
  0
SECTION
  2
CLASSES
  0
CLASS
  1
ACDBDICTIONARYWDFLT
  2
AcDbDictionaryWithDefault
  3
ObjectDBX Classes
 90
        0
280
     0
281
     0
  0
CLASS
  1
VISUALSTYLE
  2
AcDbVisualStyle
  3
ObjectDBX Classes
 90
     4095
280
     0
281
     0
  0
CLASS
  1
MATERIAL
  2
AcDbMaterial
  3
ObjectDBX Classes
 90
     1153
280
     0
281
     0
  0
CLASS
  1
SCALE
  2
AcDbScale
  3
ObjectDBX Classes
 90
     1153
280
     0
281
     0
  0
CLASS
  1
SUN
  2
AcDbSun
  3
SCENEOE
 90
     1153
280
     0
281
     0
  0
CLASS
  1
ACDBPLACEHOLDER
  2
AcDbPlaceHolder
  3
ObjectDBX Classes
 90
        0
280
     0
281
     0
  0
CLASS
  1
LAYOUT
  2
AcDbLayout
  3
ObjectDBX Classes
 90
        0
280
     0
281
     0
  0
CLASS
  1
TABLESTYLE
  2
AcDbTableStyle
  3
ObjectDBX Classes
 90
     4095
280
     0
281
     0
  0
CLASS
  1
MLEADERSTYLE
  2
AcDbMLeaderStyle
  3
ACDB_MLEADERSTYLE_CLASS
 90
     4095
280
     0
281
     0
  0
CLASS
  1
RASTERVARIABLES
  2
AcDbRasterVariables
  3
ISM
 90
        0
280
     0
281
     0
  0
CLASS
  1
DIMASSOC
  2
AcDbDimAssoc
  3
"AcDbDimAssoc|Product Desc:     AcDim ARX App For Dimension|Company:          Autodesk, Inc.|WEB Address:      www.autodesk.com"
 90
        0
280
     0
281
     0
  0
ENDSEC
  0
SECTION
  2
TABLES
  0
TABLE
  2
VPORT
  5
8
330
0
100
AcDbSymbolTable
 70
     1
  0
VPORT
  5
29
330
8
100
AcDbSymbolTableRecord
100
AcDbViewportTableRecord
  2
*Active
 70
     0
 10
0.0
 20
0.0
 11
1.0
 21
1.0
 12
40.15040718759639
 22
6.914501326479524
 13
0.0
 23
0.0
 14
10.0
 24
10.0
 15
10.0
 25
10.0
 16
0.0
 26
0.0
 36
1.0
 17
0.0
 27
0.0
 37
0.0
 40
159.0531323748561
 41
1.970186335403727
 42
50.0
 43
0.0
 44
0.0
 50
0.0
 51
0.0
 71
    16
 72
  2000
 73
     1
 74
     3
 75
     0
 76
     0
 77
     0
 78
     0
281
     0
 65
     1
110
0.0
120
0.0
130
0.0
111
1.0
121
0.0
131
0.0
112
0.0
122
1.0
132
0.0
 79
     0
146
0.0
  0
ENDTAB
  0
TABLE
  2
LTYPE
  5
5
330
0
100
AcDbSymbolTable
 70
     6
  0
LTYPE
  5
14
330
5
100
AcDbSymbolTableRecord
100
AcDbLinetypeTableRecord
  2
ByBlock
 70
     0
  3

 72
    65
 73
     0
 40
0.0
  0
LTYPE
  5
15
330
5
100
AcDbSymbolTableRecord
100
AcDbLinetypeTableRecord
  2
ByLayer
 70
     0
  3

 72
    65
 73
     0
 40
0.0
  0
LTYPE
  5
16
330
5
100
AcDbSymbolTableRecord
100
AcDbLinetypeTableRecord
  2
Continuous
 70
     0
  3
Solid line
 72
    65
 73
     0
 40
0.0
  0
LTYPE
  5
6A
330
5
100
AcDbSymbolTableRecord
100
AcDbLinetypeTableRecord
  2
HIDDEN
 70
     0
  3
Hidden __ __ __ __ __ __ __ __ __ __ __ __ __ __
 72
    65
 73
     2
 40
1.905
 49
1.27
 74
     0
 49
-0.635
 74
     0
  0
LTYPE
  5
6B
330
5
100
AcDbSymbolTableRecord
100
AcDbLinetypeTableRecord
  2
PHANTOM
 70
     0
  3
Phantom ______  __  __  ______  __  __  ______
 72
    65
 73
     6
 40
12.7
 49
6.35
 74
     0
 49
-1.27
 74
     0
 49
1.27
 74
     0
 49
-1.27
 74
     0
 49
1.27
 74
     0
 49
-1.27
 74
     0
  0
LTYPE
  5
6C
330
5
100
AcDbSymbolTableRecord
100
AcDbLinetypeTableRecord
  2
CENTER
 70
     0
  3
Center ____ _ ____ _ ____ _ ____ _ ____ _ ____
 72
    65
 73
     4
 40
10.16
 49
6.35
 74
     0
 49
-1.27
 74
     0
 49
1.27
 74
     0
 49
-1.27
 74
     0
  0
LTYPE
  5
6D
330
5
100
AcDbSymbolTableRecord
100
AcDbLinetypeTableRecord
  2
CENTERX2
 70
     0
  3
Center (2x) ________  __  ________  __  _____
 72
    65
 73
     4
 40
20.32
 49
12.7
 74
     0
 49
-2.54
 74
     0
 49
2.54
 74
     0
 49
-2.54
 74
     0
  0
LTYPE
  5
6E
330
5
100
AcDbSymbolTableRecord
100
AcDbLinetypeTableRecord
  2
DOT2
 70
     0
  3
Dot (.5x) ........................................
 72
    65
 73
     2
 40
0.635
 49
0.0
 74
     0
 49
-0.635
 74
     0
  0
ENDTAB
  0
TABLE
  2
LAYER
  5
2
330
0
100
AcDbSymbolTable
 70
    17
  0
LAYER
  5
10
330
2
100
AcDbSymbolTableRecord
100
AcDbLayerTableRecord
  2
0
 70
     0
 62
     7
  6
Continuous
370
    -3
390
F
  0
LAYER
  5
6F
330
2
100
AcDbSymbolTableRecord
100
AcDbLayerTableRecord
  2
FORMAT
 70
     0
 62
     2
  6
Continuous
370
    -3
390
F
  0
LAYER
  5
70
330
2
100
AcDbSymbolTableRecord
100
AcDbLayerTableRecord
  2
외형선
 70
     0
 62
   100
  6
Continuous
370
    30
390
F
  0
LAYER
  5
71
330
2
100
AcDbSymbolTableRecord
100
AcDbLayerTableRecord
  2
숨은선
 70
     0
 62
     2
  6
HIDDEN
370
    15
390
F
  0
LAYER
  5
72
330
2
100
AcDbSymbolTableRecord
100
AcDbLayerTableRecord
  2
중심선
 70
     0
 62
     1
  6
CENTERX2
370
    -3
390
F
  0
LAYER
  5
73
330
2
100
AcDbSymbolTableRecord
100
AcDbLayerTableRecord
  2
파단선
 70
     0
 62
     4
  6
Continuous
370
    -3
390
F
  0
LAYER
  5
74
330
2
100
AcDbSymbolTableRecord
100
AcDbLayerTableRecord
  2
해칭선
 70
     0
 62
     4
  6
Continuous
370
    -3
390
F
  0
LAYER
  5
75
330
2
100
AcDbSymbolTableRecord
100
AcDbLayerTableRecord
  2
가는실선
 70
     0
 62
     4
  6
Continuous
370
    -3
390
F
  0
LAYER
  5
76
330
2
100
AcDbSymbolTableRecord
100
AcDbLayerTableRecord
  2
치수_보조선
 70
     0
 62
     4
  6
Continuous
370
    -3
390
F
  0
LAYER
  5
77
330
2
100
AcDbSymbolTableRecord
100
AcDbLayerTableRecord
  2
치수문자_일반주서
 70
     0
 62
     7
  6
Continuous
370
    15
390
F
  0
LAYER
  5
78
330
2
100
AcDbSymbolTableRecord
100
AcDbLayerTableRecord
  2
개별주서
 70
     0
 62
   100
  6
Continuous
370
    30
390
F
  0
LAYER
  5
79
330
2
100
AcDbSymbolTableRecord
100
AcDbLayerTableRecord
  2
중간선
 70
     0
 62
     2
  6
Continuous
370
    15
390
F
  0
LAYER
  5
7A
330
2
100
AcDbSymbolTableRecord
100
AcDbLayerTableRecord
  2
윤곽선
 70
     0
 62
     3
  6
Continuous
370
    40
390
F
  0
LAYER
  5
7B
330
2
100
AcDbSymbolTableRecord
100
AcDbLayerTableRecord
  2
중심마크
 70
     0
 62
   100
  6
Continuous
370
    30
390
F
  0
LAYER
  5
7C
330
2
100
AcDbSymbolTableRecord
100
AcDbLayerTableRecord
  2
가상선
 70
     0
 62
     4
  6
PHANTOM
370
    -3
390
F
  0
LAYER
  5
7D
330
2
100
AcDbSymbolTableRecord
100
AcDbLayerTableRecord
  2
특수지정선
 70
     0
 62
     5
  6
CENTERX2
370
    60
390
F
  0
LAYER
  5
138
330
2
100
AcDbSymbolTableRecord
100
AcDbLayerTableRecord
  2
Defpoints
 70
     0
 62
     7
  6
Continuous
290
     0
370
    -3
390
F
  0
ENDTAB
  0
TABLE
  2
STYLE
  5
3
330
0
100
AcDbSymbolTable
 70
     2
  0
STYLE
  5
11
330
3
100
AcDbSymbolTableRecord
100
AcDbTextStyleTableRecord
  2
Standard
 70
     0
 40
0.0
 41
1.0
 50
0.0
 71
     0
 42
3.5
  3
txt
  4

  0
STYLE
  5
93
330
3
100
AcDbSymbolTableRecord
100
AcDbTextStyleTableRecord
  2
SLDTEXTSTYLE0
 70
     0
 40
0.0
 41
0.75
 50
0.0
 71
     0
 42
3.5
  3
TXT
  4

  0
ENDTAB
  0
TABLE
  2
VIEW
  5
6
330
0
100
AcDbSymbolTable
 70
     0
  0
ENDTAB
  0
TABLE
  2
UCS
  5
7
330
0
100
AcDbSymbolTable
 70
     0
  0
ENDTAB
  0
TABLE
  2
APPID
  5
9
330
0
100
AcDbSymbolTable
 70
     3
  0
APPID
  5
12
330
9
100
AcDbSymbolTableRecord
100
AcDbRegAppTableRecord
  2
ACAD
 70
     0
  0
APPID
  5
15D
330
9
100
AcDbSymbolTableRecord
100
AcDbRegAppTableRecord
  2
ACAD_DSTYLE_DIMRADIAL_EXTENSION
 70
     0
  0
APPID
  5
16B
330
9
100
AcDbSymbolTableRecord
100
AcDbRegAppTableRecord
  2
PE_DIMMEASUREMENT
 70
     0
  0
ENDTAB
  0
TABLE
  2
DIMSTYLE
  5
A
330
0
100
AcDbSymbolTable
 70
     4
100
AcDbDimStyleTable
  0
DIMSTYLE
105
27
330
A
100
AcDbSymbolTableRecord
100
AcDbDimStyleTableRecord
  2
ISO-25
 70
     0
 41
2.5
 42
0.625
 43
3.75
 44
1.25
 73
     0
 74
     0
 77
     1
 78
     8
140
2.5
141
2.5
143
0.03937007874016
147
0.625
171
     3
172
     1
178
     0
271
     2
272
     2
274
     3
278
    44
283
     0
284
     8
340
11
  0
DIMSTYLE
105
D3
102
{ACAD_REACTORS
330
D2
330
15E
330
13D
330
14D
102
}
330
A
100
AcDbSymbolTableRecord
100
AcDbDimStyleTableRecord
  2
SLDDIMSTYLE0
 70
     0
 41
3.302
 44
0.0
 45
0.000000001
 73
     0
 74
     0
 77
     1
 78
    12
 79
     3
140
3.5
143
0.0393700787401575
147
0.875
148
0.000000001
170
     1
173
     1
178
     0
271
     2
272
     2
276
     2
284
    12
340
93
  0
DIMSTYLE
105
E7
102
{ACAD_REACTORS
330
E6
102
}
330
A
100
AcDbSymbolTableRecord
100
AcDbDimStyleTableRecord
  2
SLDDIMSTYLE1
 70
     0
 41
3.302
 44
0.0
 45
0.000000001
 73
     0
 74
     0
 77
     1
 78
     4
 79
     1
140
3.5
143
0.0393700787401575
147
0.875
148
0.000000001
170
     1
173
     1
178
     0
271
     2
272
     2
276
     2
284
    12
340
93
  0
DIMSTYLE
105
FB
330
A
100
AcDbSymbolTableRecord
100
AcDbDimStyleTableRecord
  2
SLDDIMSTYLE2
 70
     0
 41
3.302
 44
0.0
 45
0.000000001
 73
     0
 74
     0
 77
     1
 78
     8
 79
     2
140
3.5
143
0.0393700787401575
147
0.875
148
0.000000001
170
     1
172
     1
173
     1
178
     0
271
     2
272
     2
276
     2
284
    12
289
     0
340
93
341
FC
343
FC
344
FC
  0
ENDTAB
  0
TABLE
  2
BLOCK_RECORD
  5
1
330
0
100
AcDbSymbolTable
 70
    10
  0
BLOCK_RECORD
  5
1F
330
1
100
AcDbSymbolTableRecord
100
AcDbBlockTableRecord
  2
*Model_Space
340
22
  0
BLOCK_RECORD
  5
1B
330
1
100
AcDbSymbolTableRecord
100
AcDbBlockTableRecord
  2
*Paper_Space
340
1E
  0
BLOCK_RECORD
  5
23
330
1
100
AcDbSymbolTableRecord
100
AcDbBlockTableRecord
  2
*Paper_Space0
340
26
  0
BLOCK_RECORD
  5
7E
330
1
100
AcDbSymbolTableRecord
100
AcDbBlockTableRecord
  2
블럭10
340
0
102
{BLKREFS
331
CA
102
}
  0
BLOCK_RECORD
  5
D4
330
1
100
AcDbSymbolTableRecord
100
AcDbBlockTableRecord
  2
_D
340
0
  0
BLOCK_RECORD
  5
E8
330
1
100
AcDbSymbolTableRecord
100
AcDbBlockTableRecord
  2
_D_1
340
0
  0
BLOCK_RECORD
  5
FC
330
1
100
AcDbSymbolTableRecord
100
AcDbBlockTableRecord
  2
_NONE
340
0
  0
BLOCK_RECORD
  5
FF
330
1
100
AcDbSymbolTableRecord
100
AcDbBlockTableRecord
  2
_D_2
340
0
  0
BLOCK_RECORD
  5
10B
330
1
100
AcDbSymbolTableRecord
100
AcDbBlockTableRecord
  2
SW_DOWELSYMBOL_0
340
0
102
{BLKREFS
331
111
102
}
  0
BLOCK_RECORD
  5
140
330
1
100
AcDbSymbolTableRecord
100
AcDbBlockTableRecord
  2
*D7
340
0
  0
BLOCK_RECORD
  5
150
330
1
100
AcDbSymbolTableRecord
100
AcDbBlockTableRecord
  2
*D8
340
0
  0
BLOCK_RECORD
  5
161
330
1
100
AcDbSymbolTableRecord
100
AcDbBlockTableRecord
  2
*D9
340
0
  0
ENDTAB
  0
ENDSEC
  0
SECTION
  2
BLOCKS
  0
BLOCK
  5
20
330
1F
100
AcDbEntity
  8
0
100
AcDbBlockBegin
  2
*Model_Space
 70
     0
 10
0.0
 20
0.0
 30
0.0
  3
*Model_Space
  1
*Model_Space
  0
ENDBLK
  5
21
330
1F
100
AcDbEntity
  8
0
100
AcDbBlockEnd
  0
BLOCK
  5
1C
330
1B
100
AcDbEntity
 67
     1
  8
0
100
AcDbBlockBegin
  2
*Paper_Space
 70
     0
 10
0.0
 20
0.0
 30
0.0
  3
*Paper_Space
  1
*Paper_Space
  0
ENDBLK
  5
1D
330
1B
100
AcDbEntity
 67
     1
  8
0
100
AcDbBlockEnd
  0
BLOCK
  5
24
330
23
100
AcDbEntity
  8
0
100
AcDbBlockBegin
  2
*Paper_Space0
 70
     0
 10
0.0
 20
0.0
 30
0.0
  3
*Paper_Space0
  1
*Paper_Space0
  0
ENDBLK
  5
25
330
23
100
AcDbEntity
  8
0
100
AcDbBlockEnd
  0
BLOCK
  5
7F
330
7E
100
AcDbEntity
  8
0
100
AcDbBlockBegin
  2
블럭10
 70
     2
 10
0.0
 20
0.0
 30
0.0
  3
블럭10
  1
블럭10
  0
ELLIPSE
  5
81
330
7E
100
AcDbEntity
  8
중심선
100
AcDbEllipse
 10
20.54032771741204
 20
12.0471743016438
 30
0.0
 11
6.600054785286829
 21
-1.261213355974178E-13
 31
0.0
210
0.0
220
0.0
230
1.0
 40
0.636358354079598
 41
0.9219305317359503
 42
6.513795318482858
  0
ELLIPSE
  5
82
330
7E
100
AcDbEntity
  8
중심선
100
AcDbEllipse
 10
20.54032771746488
 20
12.04717430159265
 30
0.0
 11
3.960054785062283
 21
1.540847449632565E-10
 31
0.0
210
0.0
220
0.0
230
1.0
 40
0.3939339440162632
 41
1.131841032648279
 42
5.62031148352944
  0
LINE
  5
83
330
7E
100
AcDbEntity
  8
중심선
100
AcDbLine
 10
2.268634060543552
 20
16.24717430164393
 30
0.0
 11
5.714909304380834
 21
16.24717430164393
 31
0.0
  0
LINE
  5
84
330
7E
100
AcDbEntity
  8
중심선
100
AcDbLine
 10
5.245725140726316
 20
7.84717430164391
 30
0.0
 11
8.692000384563599
 21
7.84717430164391
 31
0.0
  0
LINE
  5
85
330
7E
100
AcDbEntity
  8
중심선
100
AcDbLine
 10
15.74043728645272
 20
16.24717430164393
 30
0.0
 11
8.692000384563599
 21
7.84717430164391
 31
0.0
  0
LINE
  5
86
330
7E
100
AcDbEntity
  8
중심선
100
AcDbLine
 10
0.1404042013395286
 20
13.71084872107135
 30
0.0
 11
3.58671253028996
 21
13.71088815037384
 31
0.0
  0
LINE
  5
87
330
7E
100
AcDbEntity
  8
중심선
100
AcDbLine
 10
2.750260043222114
 20
10.84717430164391
 30
0.0
 11
6.196535287059397
 21
10.84717430164391
 31
0.0
  0
LINE
  5
88
330
7E
100
AcDbEntity
  8
중심선
100
AcDbLine
 10
12.29416204261559
 20
16.24717430164393
 30
0.0
 11
5.245725140726316
 21
7.84717430164391
 31
0.0
  0
LINE
  5
89
330
7E
100
AcDbEntity
  8
중심선
100
AcDbLine
 10
10.72767329541681
 20
16.24717430164393
 30
0.0
 11
6.196535287059397
 21
10.84717430164391
 31
0.0
  0
LINE
  5
8A
330
7E
100
AcDbEntity
  8
중심선
100
AcDbLine
 10
7.28139805157953
 20
16.24717430164393
 30
0.0
 11
2.750260043222114
 21
10.84717430164391
 31
0.0
  0
LINE
  5
8B
330
7E
100
AcDbEntity
  8
중심선
100
AcDbLine
 10
5.714909304380834
 20
16.24717430164393
 30
0.0
 11
3.58671253028996
 21
13.71088815037384
 31
0.0
  0
LINE
  5
8C
330
7E
100
AcDbEntity
  8
중심선
100
AcDbLine
 10
2.268634060543552
 20
16.24717430164393
 30
0.0
 11
0.1404042013395286
 21
13.71084872107135
 31
0.0
  0
LINE
  5
8D
330
7E
100
AcDbEntity
  8
중심선
100
AcDbLine
 10
7.28139805157953
 20
16.24717430164393
 30
0.0
 11
10.72767329541681
 21
16.24717430164393
 31
0.0
  0
LINE
  5
8E
330
7E
100
AcDbEntity
  8
중심선
100
AcDbLine
 10
12.29416204261559
 20
16.24717430164393
 30
0.0
 11
15.74043728645272
 21
16.24717430164393
 31
0.0
  0
LINE
  5
8F
330
7E
100
AcDbEntity
  8
중심선
100
AcDbLine
 10
19.22036997980202
 20
11.08717430171403
 30
0.0
 11
23.66174974927406
 21
11.08717430171406
 31
0.0
  0
LINE
  5
90
330
7E
100
AcDbEntity
  8
중심선
100
AcDbLine
 10
19.22039502424796
 20
13.00717430171391
 30
0.0
 11
19.22036997980202
 21
11.08717430171403
 31
0.0
  0
LINE
  5
91
330
7E
100
AcDbEntity
  8
중심선
100
AcDbLine
 10
19.22039502424796
 20
13.00717430171391
 30
0.0
 11
26.96566020931264
 21
13.00717430171391
 31
0.0
  0
LINE
  5
92
330
7E
100
AcDbEntity
  8
중심선
100
AcDbLine
 10
22.22332737316547
 20
13.45928029700563
 30
0.0
 11
24.52862924686651
 21
15.39360700705356
 31
0.0
  0
ATTDEF
  5
94
330
7E
100
AcDbEntity
  8
FORMAT
 62
     2
100
AcDbText
 10
-9.18129528874128
 20
2.075366912832191
 30
0.0
 40
4.233333333333333
  1
E5984064 [ 3 FLUTE ]
 41
0.75
  7
SLDTEXTSTYLE0
 11
-9.18129528874128
 21
-0.0412997538344756
 31
0.0
100
AcDbAttributeDefinition
  3

  2
AUTOATTR0
 70
     0
 74
     1
  0
ENDBLK
  5
80
330
7E
100
AcDbEntity
  8
0
100
AcDbBlockEnd
  0
BLOCK
  5
D5
330
D4
100
AcDbEntity
  8
0
100
AcDbBlockBegin
  2
_D
 70
     0
 10
0.0
 20
0.0
 30
0.0
  3
_D
  1
_D
  0
LINE
  5
D7
330
D4
100
AcDbEntity
  8
치수문자_일반주서
 62
     0
370
    -2
100
AcDbLine
 10
94.55
 20
11.19479053594381
 30
0.0
 11
94.55
 21
34.89866838988439
 31
0.0
  0
LINE
  5
D8
330
D4
100
AcDbEntity
  8
치수문자_일반주서
 62
     0
370
    -2
100
AcDbLine
 10
12.0
 20
10.19848643618506
 30
0.0
 11
12.00000000000001
 21
34.89866838988439
 31
0.0
  0
LINE
  5
D9
330
D4
100
AcDbEntity
  8
치수문자_일반주서
 62
     0
370
    -2
100
AcDbLine
 10
91.24799999999999
 20
34.89866838988439
 30
0.0
 11
15.30200000000001
 21
34.89866838988439
 31
0.0
  0
SOLID
  5
DA
330
D4
100
AcDbEntity
  8
치수문자_일반주서
 62
     0
100
AcDbTrace
 10
91.24799999999999
 20
34.34833505655105
 30
0.0
 11
91.24799999999999
 21
35.44900172321772
 31
0.0
 12
94.55
 22
34.89866838988439
 32
0.0
 13
94.55
 23
34.89866838988439
 33
0.0
  0
SOLID
  5
DB
330
D4
100
AcDbEntity
  8
치수문자_일반주서
 62
     0
100
AcDbTrace
 10
15.30200000000001
 20
35.44900172321772
 30
0.0
 11
15.30200000000001
 21
34.34833505655105
 31
0.0
 12
12.00000000000001
 22
34.89866838988439
 32
0.0
 13
12.00000000000001
 23
34.89866838988439
 33
0.0
  0
MTEXT
  5
DC
330
D4
100
AcDbEntity
  8
치수문자_일반주서
 62
     0
100
AcDbMText
 10
53.275
 20
39.27366838988439
 30
0.0
 40
3.5
 41
0.0
 71
     2
 72
     1
  1
\A1;82.55 [3 1/4]
  7
SLDTEXTSTYLE0
 73
     1
 44
1.0
  0
POINT
  5
DD
330
D4
100
AcDbEntity
  8
Defpoints
 62
     0
100
AcDbPoint
 10
94.55
 20
11.13229053594381
 30
0.0
  0
POINT
  5
DE
330
D4
100
AcDbEntity
  8
Defpoints
 62
     0
100
AcDbPoint
 10
12.0
 20
10.13598643618506
 30
0.0
  0
POINT
  5
DF
330
D4
100
AcDbEntity
  8
Defpoints
 62
     0
100
AcDbPoint
 10
12.0
 20
34.89866838988439
 30
0.0
  0
ENDBLK
  5
D6
330
D4
100
AcDbEntity
  8
0
100
AcDbBlockEnd
  0
BLOCK
  5
E9
330
E8
100
AcDbEntity
  8
0
100
AcDbBlockBegin
  2
_D_1
 70
     0
 10
0.0
 20
0.0
 30
0.0
  3
_D_1
  1
_D_1
  0
LINE
  5
EB
330
E8
100
AcDbEntity
  8
치수문자_일반주서
 62
     0
370
    -2
100
AcDbLine
 10
94.55
 20
11.23849999999999
 30
0.0
 11
94.55
 21
61.84759778227559
 31
0.0
  0
LINE
  5
EC
330
E8
100
AcDbEntity
  8
치수문자_일반주서
 62
     0
370
    -2
100
AcDbLine
 10
-57.85000000000001
 20
12.26249999999999
 30
0.0
 11
-57.85000000000001
 21
61.84759778227559
 31
0.0
  0
LINE
  5
ED
330
E8
100
AcDbEntity
  8
치수문자_일반주서
 62
     0
370
    -2
100
AcDbLine
 10
91.24799999999999
 20
61.84759778227559
 30
0.0
 11
-54.54800000000001
 21
61.84759778227559
 31
0.0
  0
SOLID
  5
EE
330
E8
100
AcDbEntity
  8
치수문자_일반주서
 62
     0
100
AcDbTrace
 10
91.24799999999999
 20
61.29726444894226
 30
0.0
 11
91.24799999999999
 21
62.39793111560893
 31
0.0
 12
94.55
 22
61.84759778227559
 32
0.0
 13
94.55
 23
61.84759778227559
 33
0.0
  0
SOLID
  5
EF
330
E8
100
AcDbEntity
  8
치수문자_일반주서
 62
     0
100
AcDbTrace
 10
-54.54800000000001
 20
62.39793111560893
 30
0.0
 11
-54.54800000000001
 21
61.29726444894226
 31
0.0
 12
-57.85000000000001
 22
61.84759778227559
 32
0.0
 13
-57.85000000000001
 23
61.84759778227559
 33
0.0
  0
MTEXT
  5
F0
330
E8
100
AcDbEntity
  8
치수문자_일반주서
 62
     0
100
AcDbMText
 10
17.74141452505228
 20
66.22259778227559
 30
0.0
 40
3.5
 41
0.0
 71
     2
 72
     1
  1
\A1;152.40 [6]
  7
SLDTEXTSTYLE0
 73
     1
 44
1.0
  0
POINT
  5
F1
330
E8
100
AcDbEntity
  8
Defpoints
 62
     0
100
AcDbPoint
 10
94.55
 20
11.17599999999999
 30
0.0
  0
POINT
  5
F2
330
E8
100
AcDbEntity
  8
Defpoints
 62
     0
100
AcDbPoint
 10
-57.85000000000001
 20
12.19999999999999
 30
0.0
  0
POINT
  5
F3
330
E8
100
AcDbEntity
  8
Defpoints
 62
     0
100
AcDbPoint
 10
-57.85000000000001
 20
61.84759778227559
 30
0.0
  0
ENDBLK
  5
EA
330
E8
100
AcDbEntity
  8
0
100
AcDbBlockEnd
  0
BLOCK
  5
FD
330
FC
100
AcDbEntity
  8
0
100
AcDbBlockBegin
  2
_NONE
 70
     0
 10
0.0
 20
0.0
 30
0.0
  3
_NONE
  1
_NONE
  0
ENDBLK
  5
FE
330
FC
100
AcDbEntity
  8
0
100
AcDbBlockEnd
  0
BLOCK
  5
100
330
FF
100
AcDbEntity
  8
0
100
AcDbBlockBegin
  2
_D_2
 70
     0
 10
0.0
 20
0.0
 30
0.0
  3
_D_2
  1
_D_2
  0
LINE
  5
102
330
FF
100
AcDbEntity
  8
치수문자_일반주서
100
AcDbLine
 10
-80.64288171604274
 20
-18.09469025233259
 30
0.0
 11
-80.64288171604274
 21
-18.80562773789709
 31
0.0
  0
LINE
  5
103
330
FF
100
AcDbEntity
  8
치수문자_일반주서
100
AcDbLine
 10
-80.64288171604274
 20
-18.80562773789709
 30
0.0
 11
-75.08663172498343
 21
-18.80562773789705
 31
0.0
  0
LINE
  5
104
330
FF
100
AcDbEntity
  8
치수문자_일반주서
100
AcDbLine
 10
-75.08663172498343
 20
-18.80562773789705
 30
0.0
 11
-75.08663172498343
 21
-18.09469025233255
 31
0.0
  0
LINE
  5
105
330
FF
100
AcDbEntity
  8
치수문자_일반주서
100
AcDbLine
 10
-80.64288171604282
 20
-7.26595739019533
 30
0.0
 11
-80.64288171604282
 21
-6.55501990463083
 31
0.0
  0
LINE
  5
106
330
FF
100
AcDbEntity
  8
치수문자_일반주서
100
AcDbLine
 10
-80.64288171604282
 20
-6.55501990463083
 30
0.0
 11
-75.08663172498352
 21
-6.555019904630791
 31
0.0
  0
LINE
  5
107
330
FF
100
AcDbEntity
  8
치수문자_일반주서
100
AcDbLine
 10
-75.08663172498352
 20
-6.555019904630791
 30
0.0
 11
-75.08663172498352
 21
-7.265957390195291
 31
0.0
  0
MTEXT
  5
108
330
FF
100
AcDbEntity
  8
치수문자_일반주서
100
AcDbMText
 10
-79.59836863956235
 20
-17.20601835172121
 30
0.0
 40
3.5
 41
0.0
 71
     1
 72
     1
  1
0.00
  7
SLDTEXTSTYLE0
 11
-7.044195017643634E-15
 21
1.0
 31
0.0
 73
     1
 44
1.0
  0
MTEXT
  5
109
330
FF
100
AcDbEntity
  8
치수문자_일반주서
100
AcDbMText
 10
-74.36173708920188
 20
-16.61259823362769
 30
0.0
 40
3.5
 41
0.0
 71
     1
 72
     1
  1
%%c
  7
SLDTEXTSTYLE0
 11
-7.044195017643634E-15
 21
1.0
 31
0.0
 73
     1
 44
1.0
  0
MTEXT
  5
10A
330
FF
100
AcDbEntity
  8
치수문자_일반주서
100
AcDbMText
 10
-74.36173708920192
 20
-11.33416083525361
 30
0.0
 40
3.5
 41
0.0
 71
     1
 72
     1
  1
0
  7
SLDTEXTSTYLE0
 11
-7.044195017643634E-15
 21
1.0
 31
0.0
 73
     1
 44
1.0
  0
ENDBLK
  5
101
330
FF
100
AcDbEntity
  8
0
100
AcDbBlockEnd
  0
BLOCK
  5
10C
330
10B
100
AcDbEntity
  8
0
100
AcDbBlockBegin
  2
SW_DOWELSYMBOL_0
 70
     0
 10
0.0
 20
0.0
 30
0.0
  3
SW_DOWELSYMBOL_0
  1
SW_DOWELSYMBOL_0
  0
CIRCLE
  5
10E
330
10B
100
AcDbEntity
  8
외형선
 62
     0
100
AcDbCircle
 10
0.0
 20
0.0
 30
0.0
 40
3.000000000000008
  0
HATCH
  5
10F
330
10B
100
AcDbEntity
  8
0
  6
Continuous
 62
     0
370
    30
100
AcDbHatch
 10
0.0
 20
0.0
 30
0.0
210
0.0
220
0.0
230
1.0
  2
SOLID
 70
     1
 71
     0
 91
        1
 92
        0
 93
        3
 72
     2
 10
0.0000000000000104
 20
0.0
 40
3.000000000000008
 50
0.0
 51
90.0
 73
     1
 72
     1
 10
0.0000000000000104
 20
3.000000000000008
 11
0.0000000000000104
 21
0.0
 72
     1
 10
0.0000000000000104
 20
0.0
 11
3.000000000000019
 21
0.0
 97
        0
 75
     0
 76
     1
 98
        1
 10
0.0
 20
0.0
  0
HATCH
  5
110
330
10B
100
AcDbEntity
  8
0
  6
Continuous
 62
     0
370
    30
100
AcDbHatch
 10
0.0
 20
0.0
 30
0.0
210
0.0
220
0.0
230
1.0
  2
SOLID
 70
     1
 71
     0
 91
        1
 92
        0
 93
        3
 72
     2
 10
0.0000000000000104
 20
0.0
 40
3.000000000000008
 50
180.0
 51
270.0000000000008
 73
     1
 72
     1
 10
0.0000000000000104
 20
-3.000000000000008
 11
0.0000000000000104
 21
0.0
 72
     1
 10
0.0000000000000104
 20
0.0
 11
-2.999999999999998
 21
0.0
 97
        0
 75
     0
 76
     1
 98
        1
 10
0.0
 20
0.0
  0
ENDBLK
  5
10D
330
10B
100
AcDbEntity
  8
0
100
AcDbBlockEnd
  0
BLOCK
  5
141
330
140
100
AcDbEntity
  8
0
100
AcDbBlockBegin
  2
*D7
 70
     1
 10
0.0
 20
0.0
 30
0.0
  3
*D7
  1
*D7
  0
LINE
  5
143
330
140
100
AcDbEntity
  8
치수문자_일반주서
 62
     0
370
    -2
100
AcDbLine
 10
94.6125
 20
-12.70000000000001
 30
0.0
 11
109.867398739716
 21
-12.70000000000001
 31
0.0
  0
LINE
  5
144
330
140
100
AcDbEntity
  8
치수문자_일반주서
 62
     0
370
    -2
100
AcDbLine
 10
94.6125
 20
12.69999999999999
 30
0.0
 11
109.867398739716
 21
12.69999999999999
 31
0.0
  0
LINE
  5
145
330
140
100
AcDbEntity
  8
치수문자_일반주서
 62
     0
370
    -2
100
AcDbLine
 10
109.867398739716
 20
-9.39800000000001
 30
0.0
 11
109.867398739716
 21
9.397999999999989
 31
0.0
  0
SOLID
  5
146
330
140
100
AcDbEntity
  8
치수문자_일반주서
 62
     0
100
AcDbTrace
 10
109.3170654063827
 20
-9.39800000000001
 30
0.0
 11
110.4177320730494
 21
-9.39800000000001
 31
0.0
 12
109.867398739716
 22
-12.70000000000001
 32
0.0
 13
109.867398739716
 23
-12.70000000000001
 33
0.0
  0
SOLID
  5
147
330
140
100
AcDbEntity
  8
치수문자_일반주서
 62
     0
100
AcDbTrace
 10
110.4177320730494
 20
9.397999999999989
 30
0.0
 11
109.3170654063827
 21
9.397999999999989
 31
0.0
 12
109.867398739716
 22
12.69999999999999
 32
0.0
 13
109.867398739716
 23
12.69999999999999
 33
0.0
  0
MTEXT
  5
148
330
140
100
AcDbEntity
  8
치수문자_일반주서
 62
     0
100
AcDbMText
 10
107.242398739716
 20
-0.0000000000000107
 30
0.0
 40
3.5
 41
0.0
 71
     5
 72
     1
  1
\A1;{Ø25.4 [1]}
  7
SLDTEXTSTYLE0
 11
0.0
 21
1.0
 31
0.0
 73
     1
 44
1.0
  0
POINT
  5
149
330
140
100
AcDbEntity
  8
Defpoints
 62
     0
100
AcDbPoint
 10
94.55
 20
-12.70000000000001
 30
0.0
  0
POINT
  5
14A
330
140
100
AcDbEntity
  8
Defpoints
 62
     0
100
AcDbPoint
 10
94.55
 20
12.69999999999999
 30
0.0
  0
POINT
  5
14B
330
140
100
AcDbEntity
  8
Defpoints
 62
     0
100
AcDbPoint
 10
109.867398739716
 20
12.69999999999999
 30
0.0
  0
ENDBLK
  5
142
330
140
100
AcDbEntity
  8
0
100
AcDbBlockEnd
  0
BLOCK
  5
151
330
150
100
AcDbEntity
  8
0
100
AcDbBlockBegin
  2
*D8
 70
     1
 10
0.0
 20
0.0
 30
0.0
  3
*D8
  1
*D8
  0
LINE
  5
153
330
150
100
AcDbEntity
  8
치수문자_일반주서
 62
     0
370
    -2
100
AcDbLine
 10
-57.41250000000001
 20
-12.70000000000001
 30
0.0
 11
-72.8653205626627
 21
-12.70000000000001
 31
0.0
  0
LINE
  5
154
330
150
100
AcDbEntity
  8
치수문자_일반주서
 62
     0
370
    -2
100
AcDbLine
 10
-57.41250000000001
 20
12.69999999999997
 30
0.0
 11
-72.8653205626627
 21
12.69999999999998
 31
0.0
  0
LINE
  5
155
330
150
100
AcDbEntity
  8
치수문자_일반주서
 62
     0
370
    -2
100
AcDbLine
 10
-72.8653205626627
 20
-9.398000000000009
 30
0.0
 11
-72.8653205626627
 21
9.397999999999977
 31
0.0
  0
SOLID
  5
156
330
150
100
AcDbEntity
  8
치수문자_일반주서
 62
     0
100
AcDbTrace
 10
-73.41565389599603
 20
-9.398000000000009
 30
0.0
 11
-72.31498722932938
 21
-9.398000000000009
 31
0.0
 12
-72.8653205626627
 22
-12.70000000000001
 32
0.0
 13
-72.8653205626627
 23
-12.70000000000001
 33
0.0
  0
SOLID
  5
157
330
150
100
AcDbEntity
  8
치수문자_일반주서
 62
     0
100
AcDbTrace
 10
-72.31498722932938
 20
9.397999999999977
 30
0.0
 11
-73.41565389599603
 21
9.397999999999977
 31
0.0
 12
-72.8653205626627
 22
12.69999999999998
 32
0.0
 13
-72.8653205626627
 23
12.69999999999998
 33
0.0
  0
MTEXT
  5
158
330
150
100
AcDbEntity
  8
치수문자_일반주서
 62
     0
100
AcDbMText
 10
-75.4903205626627
 20
-0.000000000000016
 30
0.0
 40
3.5
 41
0.0
 71
     5
 72
     1
  1
\A1;{Ø25.4 [1]}
  7
SLDTEXTSTYLE0
 11
0.0
 21
1.0
 31
0.0
 73
     1
 44
1.0
  0
POINT
  5
159
330
150
100
AcDbEntity
  8
Defpoints
 62
     0
100
AcDbPoint
 10
-57.35000000000001
 20
-12.70000000000001
 30
0.0
  0
POINT
  5
15A
330
150
100
AcDbEntity
  8
Defpoints
 62
     0
100
AcDbPoint
 10
-57.35000000000001
 20
12.69999999999997
 30
0.0
  0
POINT
  5
15B
330
150
100
AcDbEntity
  8
Defpoints
 62
     0
100
AcDbPoint
 10
-72.8653205626627
 20
12.69999999999998
 30
0.0
  0
ENDBLK
  5
152
330
150
100
AcDbEntity
  8
0
100
AcDbBlockEnd
  0
BLOCK
  5
162
330
161
100
AcDbEntity
  8
0
100
AcDbBlockBegin
  2
*D9
 70
     1
 10
0.0
 20
0.0
 30
0.0
  3
*D9
  1
*D9
  0
LINE
  5
164
330
161
100
AcDbEntity
  8
치수문자_일반주서
 62
     0
370
    -2
100
AcDbLine
 10
95.38638467066004
 20
-15.38537765073569
 30
0.0
 11
110.6961154955669
 21
-42.6878930306214
 31
0.0
  0
MTEXT
  5
165
330
161
100
AcDbEntity
  8
치수문자_일반주서
 62
     0
100
AcDbMText
 10
106.1383514972123
 20
-29.19280457832505
 30
0.0
 40
3.5
 41
0.0
 71
     5
 72
     1
  1
\A1;R1.52 [R0.06]
  7
SLDTEXTSTYLE0
 11
0.4890975281102453
 21
-0.8722291029290687
 31
0.0
 73
     1
 44
1.0
  0
SOLID
  5
166
330
161
100
AcDbEntity
  8
치수문자_일반주서
 62
     0
100
AcDbTrace
 10
95.86640142030534
 20
-15.11621097776569
 30
0.0
 11
94.90636792101473
 21
-15.6545443237057
 31
0.0
 12
93.77138463284001
 22
-12.50527715286391
 32
0.0
 13
93.77138463284001
 23
-12.50527715286391
 33
0.0
  0
LINE
  5
167
330
161
100
AcDbEntity
  8
치수문자_일반주서
 62
     0
100
AcDbLine
 10
92.93599999999999
 20
-11.17600000000001
 30
0.0
 11
93.116
 21
-11.17600000000001
 31
0.0
  0
LINE
  5
168
330
161
100
AcDbEntity
  8
치수문자_일반주서
 62
     0
100
AcDbLine
 10
93.026
 20
-11.26600000000001
 30
0.0
 11
93.026
 21
-11.08600000000001
 31
0.0
  0
POINT
  5
169
330
161
100
AcDbEntity
  8
Defpoints
 62
     0
100
AcDbPoint
 10
93.77138463284001
 20
-12.50527715286391
 30
0.0
  0
POINT
  5
16A
330
161
100
AcDbEntity
  8
Defpoints
 62
     0
100
AcDbPoint
 10
93.026
 20
-11.17600000000001
 30
0.0
  0
ENDBLK
  5
163
330
161
100
AcDbEntity
  8
0
100
AcDbBlockEnd
  0
ENDSEC
  0
SECTION
  2
ENTITIES
  0
LINE
  5
95
330
1F
100
AcDbEntity
  8
0
  6
Continuous
 62
     4
370
    15
100
AcDbLine
 10
8.950027258561082
 20
12.69999999999999
 30
0.0
 11
-57.35000000000001
 21
12.69999999999999
 31
0.0
  0
LINE
  5
96
102
{ACAD_REACTORS
102
}
330
1F
100
AcDbEntity
  8
0
  6
Continuous
 62
     4
370
    15
100
AcDbLine
 10
-57.35000000000001
 20
-12.70000000000001
 30
0.0
 11
12.0
 21
-12.70000000000001
 31
0.0
  0
LINE
  5
97
330
1F
100
AcDbEntity
  8
0
  6
Continuous
 62
     4
370
    15
100
AcDbLine
 10
-57.35000000000001
 20
12.69999999999999
 30
0.0
 11
-57.85000000000001
 21
12.19999999999999
 31
0.0
  0
LINE
  5
98
330
1F
100
AcDbEntity
  8
0
  6
Continuous
 62
     4
370
    15
100
AcDbLine
 10
-57.85000000000001
 20
-12.2
 30
0.0
 11
-57.35000000000001
 21
-12.7
 31
0.0
  0
LINE
  5
99
330
1F
100
AcDbEntity
  8
0
  6
Continuous
 62
     1
370
    15
100
AcDbLine
 10
75.84493656046872
 20
-12.70000000000001
 30
0.0
 11
86.78303523956208
 21
-12.70000000000001
 31
0.0
  0
LINE
  5
9A
330
1F
100
AcDbEntity
  8
0
  6
Continuous
 62
     1
370
    15
100
AcDbLine
 10
33.83366373853004
 20
12.69999999999999
 30
0.0
 11
22.89853091915151
 21
12.69999999999999
 31
0.0
  0
LINE
  5
9B
330
1F
100
AcDbEntity
  8
0
  6
Continuous
 62
     1
370
    15
100
AcDbLine
 10
40.54842869364597
 20
-12.70000000000001
 30
0.0
 11
51.48344443474835
 21
-12.70000000000001
 31
0.0
  0
LINE
  5
9C
330
1F
100
AcDbEntity
  8
0
  6
Continuous
 62
     1
370
    15
100
AcDbLine
 10
12.0
 20
-12.70000000000001
 30
0.0
 11
16.18548836192313
 21
-12.70000000000001
 31
0.0
  0
LINE
  5
9D
330
1F
100
AcDbEntity
  8
0
  6
Continuous
 62
     1
370
    15
100
AcDbLine
 10
69.13213967005957
 20
12.69999999999999
 30
0.0
 11
58.19628043673496
 21
12.69999999999999
 31
0.0
  0
SPLINE
  5
A0
330
1F
100
AcDbEntity
  8
0
  6
Continuous
 62
     4
370
    15
100
AcDbSpline
210
0.0
220
0.0
230
1.0
 70
     8
 71
     3
 72
    14
 73
    10
 74
     0
 42
0.000000001
 43
0.00000001
 40
0.0
 40
0.0
 40
0.0
 40
0.0
 40
0.25
 40
0.25
 40
0.5
 40
0.5
 40
0.75
 40
0.75
 40
1.0
 40
1.0
 40
1.0
 40
1.0
 10
8.950027258561082
 20
-3.865490040216302
 30
0.0
 10
8.950027258561082
 20
-3.436184395183151
 30
0.0
 10
9.012317852748131
 20
-3.009821607732706
 30
0.0
 10
9.288514429187575
 20
-2.168635069131102
 30
0.0
 10
9.493752951198143
 20
-1.779060161659702
 30
0.0
 10
10.04678122202704
 20
-1.070564846948284
 30
0.0
 10
10.38007643521804
 20
-0.771438769397447
 30
0.0
 10
11.14533010975474
 20
-0.2979960333827137
 30
0.0
 10
11.55772908845032
 20
-0.1342947738937647
 30
0.0
 10
11.99999999999887
 20
-0.0440643892990877
 30
0.0
  0
LINE
  5
A1
330
1F
100
AcDbEntity
  8
0
  6
Continuous
 62
     4
370
    15
100
AcDbLine
 10
8.950027258561082
 20
-3.865490040216303
 30
0.0
 11
8.950027258561082
 21
-10.54967601077297
 31
0.0
  0
SPLINE
  5
A2
330
1F
100
AcDbEntity
  8
0
  6
Continuous
 62
     4
370
    15
100
AcDbSpline
210
0.0
220
0.0
230
1.0
 70
     8
 71
     3
 72
    16
 73
    12
 74
     0
 42
0.000000001
 43
0.00000001
 40
0.0
 40
0.0
 40
0.0
 40
0.0
 40
0.2499999999999998
 40
0.2499999999999998
 40
0.4999999999999996
 40
0.4999999999999996
 40
0.6249999999999997
 40
0.6249999999999997
 40
0.7499999999999998
 40
0.7499999999999998
 40
1.0
 40
1.0
 40
1.0
 40
1.0
 10
10.47459103959769
 20
-11.97770505466331
 30
0.0
 10
10.22825280817772
 20
-11.91582489951933
 30
0.0
 10
10.00960599728717
 20
-11.84149536672861
 30
0.0
 10
9.625665013065001
 20
-11.66145948838032
 30
0.0
 10
9.460993408148678
 20
-11.55484842093269
 30
0.0
 10
9.267285996052639
 20
-11.37490527160324
 30
0.0
 10
9.210911892983916
 20
-11.311290916419
 30
0.0
 10
9.114310188598978
 20
-11.17617478207992
 30
0.0
 10
9.074037133498042
 20
-11.1043262566331
 30
0.0
 10
8.9794757403255
 20
-10.88129379181656
 30
0.0
 10
8.950027258557757
 20
-10.72135508013987
 30
0.0
 10
8.950027258557682
 20
-10.54967601077349
 30
0.0
  0
SPLINE
  5
A3
330
1F
100
AcDbEntity
  8
0
  6
Continuous
 62
     4
370
    15
100
AcDbSpline
210
0.0
220
0.0
230
1.0
 70
     8
 71
     3
 72
     8
 73
     4
 74
     0
 42
0.000000001
 43
0.00000001
 40
0.0
 40
0.0
 40
0.0
 40
0.0
 40
1.0
 40
1.0
 40
1.0
 40
1.0
 10
12.0
 20
-12.31027742242319
 30
0.0
 10
11.49045605307981
 20
-12.21602090368251
 30
0.0
 10
10.98094803073479
 20
-12.10490191318253
 30
0.0
 10
10.47459103959769
 20
-11.97770505466331
 30
0.0
  0
LINE
  5
A4
330
1F
100
AcDbEntity
  8
0
  6
Continuous
 62
     4
370
    15
100
AcDbLine
 10
12.0
 20
-12.31027742243401
 30
0.0
 11
12.0
 21
-12.70000000000001
 31
0.0
  0
SPLINE
  5
A5
330
1F
100
AcDbEntity
  8
0
  6
Continuous
 62
     4
370
    15
100
AcDbSpline
210
0.0
220
0.0
230
1.0
 70
     8
 71
     3
 72
    14
 73
    10
 74
     0
 42
0.000000001
 43
0.00000001
 40
0.0
 40
0.0
 40
0.0
 40
0.0
 40
0.25
 40
0.25
 40
0.5
 40
0.5
 40
0.75
 40
0.75
 40
1.0
 40
1.0
 40
1.0
 40
1.0
 10
8.950027258561082
 20
12.40943295388482
 30
0.0
 10
8.950027258561082
 20
12.31357793551975
 30
0.0
 10
9.012317852748131
 20
12.19657383012127
 30
0.0
 10
9.288514429187575
 20
11.9276885188337
 30
0.0
 10
9.493752951198141
 20
11.78397944689971
 30
0.0
 10
10.04678122202704
 20
11.49900608221904
 30
0.0
 10
10.38007643521804
 20
11.36584980556747
 30
0.0
 10
11.14533010975474
 20
11.14640685530196
 30
0.0
 10
11.55772908845032
 20
11.06533268728242
 30
0.0
 10
11.99999999999887
 20
11.02048862031209
 30
0.0
  0
LINE
  5
A6
330
1F
100
AcDbEntity
  8
0
  6
Continuous
 62
     4
370
    15
100
AcDbLine
 10
8.950027258561082
 20
12.69999999999999
 30
0.0
 11
8.950027258561082
 21
11.39821550892081
 31
0.0
  0
SPLINE
  5
A7
330
1F
100
AcDbEntity
  8
0
  6
Continuous
 62
     4
370
    15
100
AcDbSpline
210
0.0
220
0.0
230
1.0
 70
     8
 71
     3
 72
    16
 73
    12
 74
     0
 42
0.000000001
 43
0.00000001
 40
0.0
 40
0.0
 40
0.0
 40
0.0
 40
0.2500000000000004
 40
0.2500000000000004
 40
0.5000000000000009
 40
0.5000000000000009
 40
0.6250000000000009
 40
0.6250000000000009
 40
0.7500000000000009
 40
0.7500000000000009
 40
1.0
 40
1.0
 40
1.0
 40
1.0
 10
10.47459103959769
 20
9.645139744936309
 30
0.0
 10
10.22825280817772
 20
9.766235503775635
 30
0.0
 10
10.00960599728717
 20
9.90120054037862
 30
0.0
 10
9.625665013065003
 20
10.19163977396068
 30
0.0
 10
9.460993408148678
 20
10.34783147270617
 30
0.0
 10
9.267285996052637
 20
10.58034554930225
 30
0.0
 10
9.210911892983916
 20
10.6580805990165
 30
0.0
 10
9.114310188598976
 20
10.81333110929641
 30
0.0
 10
9.074037133498031
 20
10.8911541290868
 30
0.0
 10
8.979475740325489
 20
11.1180643130628
 30
0.0
 10
8.950027258557757
 20
11.26222176304055
 30
0.0
 10
8.950027258557682
 20
11.3982155089204
 30
0.0
  0
SPLINE
  5
A8
330
1F
100
AcDbEntity
  8
0
  6
Continuous
 62
     4
370
    15
100
AcDbSpline
210
0.0
220
0.0
230
1.0
 70
     8
 71
     3
 72
     8
 73
     4
 74
     0
 42
0.000000001
 43
0.00000001
 40
0.0
 40
0.0
 40
0.0
 40
0.0
 40
1.0
 40
1.0
 40
1.0
 40
1.0
 10
12.0
 20
8.858895789285187
 30
0.0
 10
11.49045605307981
 20
9.13363184530933
 30
0.0
 10
10.98094803073479
 20
9.396223108115914
 30
0.0
 10
10.47459103959769
 20
9.64513974493631
 30
0.0
  0
LINE
  5
A9
330
1F
100
AcDbEntity
  8
0
  6
Continuous
 62
     4
370
    15
100
AcDbLine
 10
12.0
 20
8.858895789291758
 30
0.0
 11
12.0
 21
-0.0440643893008402
 31
0.0
  0
LINE
  5
AA
102
{ACAD_REACTORS
102
}
330
1F
100
AcDbEntity
  8
0
  6
Continuous
 62
     4
370
    15
100
AcDbLine
 10
-57.35000000000001
 20
12.69999999999997
 30
0.0
 11
-57.35000000000001
 21
-12.69999999999999
 31
0.0
  0
SPLINE
  5
AB
330
1F
100
AcDbEntity
  8
0
  6
Continuous
 62
     1
370
    15
100
AcDbSpline
210
0.0
220
0.0
230
1.0
 70
    24
 71
     3
 72
    22
 73
    18
 74
     0
 42
0.000000001
 43
0.00000001
 40
0.0
 40
0.0
 40
0.0
 40
0.0
 40
0.2500000000000002
 40
0.2500000000000002
 40
0.3750000000000002
 40
0.3750000000000002
 40
0.5000000000000003
 40
0.5000000000000003
 40
0.6250000000000004
 40
0.6250000000000004
 40
0.6875000000000003
 40
0.6875000000000003
 40
0.7500000000000002
 40
0.7500000000000002
 40
0.8750000000000001
 40
0.8750000000000001
 40
1.0
 40
1.0
 40
1.0
 40
1.0
 10
12.0
 20
-0.0440643893008402
 30
0.0
 10
12.0
 20
-0.1004511036024401
 30
0.0
 10
12.0
 20
-0.2548351264045123
 30
0.0
 10
12.0
 20
-0.6425747780704142
 30
0.0
 10
12.0
 20
-0.7988739624182838
 30
0.0
 10
12.0
 20
-1.166903638924487
 30
0.0
 10
12.0
 20
-1.375948785670018
 30
0.0
 10
12.0
 20
-1.845786022032393
 30
0.0
 10
12.0
 20
-2.106552101286284
 30
0.0
 10
12.0
 20
-2.539990062741069
 30
0.0
 10
12.0
 20
-2.692225059503436
 30
0.0
 10
12.0
 20
-3.00651662413165
 30
0.0
 10
12.0
 20
-3.168879110009441
 30
0.0
 10
12.0
 20
-3.671430819867771
 30
0.0
 10
12.0
 20
-4.027044990734433
 30
0.0
 10
12.0
 20
-4.779450596259968
 30
0.0
 10
12.0
 20
-5.178475129428126
 30
0.0
 10
12.0
 20
-5.592250137770002
 30
0.0
  0
LINE
  5
AC
330
1F
100
AcDbEntity
  8
0
  6
Continuous
 62
     4
370
    15
100
AcDbLine
 10
-57.85000000000001
 20
12.19999999999999
 30
0.0
 11
-57.85000000000001
 21
-12.2
 31
0.0
  0
SPLINE
  5
AD
330
1F
100
AcDbEntity
  8
0
  6
Continuous
 62
     4
370
    15
100
AcDbSpline
210
0.0
220
0.0
230
1.0
 70
    24
 71
     3
 72
     9
 73
     5
 74
     0
 42
0.000000001
 43
0.00000001
 40
0.0
 40
0.0
 40
0.0
 40
0.0
 40
0.6983058986138263
 40
1.0
 40
1.0
 40
1.0
 40
1.0
 10
12.0
 20
11.02048862031296
 30
0.0
 10
12.0
 20
10.49377967570123
 30
0.0
 10
12.0
 20
9.73951289139184
 30
0.0
 10
12.0
 20
9.145343727065027
 30
0.0
 10
12.0
 20
8.966086394962076
 30
0.0
  0
SPLINE
  5
AE
330
1F
100
AcDbEntity
  8
0
  6
Continuous
 62
     4
370
    15
100
AcDbSpline
210
0.0
220
0.0
230
1.0
 70
    24
 71
     3
 72
    10
 73
     6
 74
     0
 42
0.000000001
 43
0.00000001
 40
0.0
 40
0.0
 40
0.0
 40
0.0
 40
0.5
 40
0.5
 40
1.0
 40
1.0
 40
1.0
 40
1.0
 10
12.0
 20
-5.592250137770001
 30
0.0
 10
12.0
 20
-6.580286495107234
 30
0.0
 10
12.0
 20
-7.666139769740013
 30
0.0
 10
12.0
 20
-9.943630598528818
 30
0.0
 10
12.0
 20
-11.13416541638798
 30
0.0
 10
12.0
 20
-12.31027742243401
 30
0.0
  0
SPLINE
  5
AF
330
1F
100
AcDbEntity
  8
0
  6
Continuous
 62
     1
370
    15
100
AcDbSpline
210
0.0
220
0.0
230
1.0
 70
     8
 71
     3
 72
    27
 73
    23
 74
     0
 42
0.000000001
 43
0.00000001
 40
0.0
 40
0.0
 40
0.0
 40
0.0
 40
0.0235009161730808
 40
0.0752746012897128
 40
0.1270638940590622
 40
0.1788593990127847
 40
0.2306377323428581
 40
0.2824047532693031
 40
0.3341670490027307
 40
0.3859312214844093
 40
0.4377038668034322
 40
0.4894915546524758
 40
0.5412880410056035
 40
0.5930676585100517
 40
0.6448353964325236
 40
0.6955597568340195
 40
0.7462867753269168
 40
0.7970257635825033
 40
0.8477855146680146
 40
0.8985394712963587
 40
0.9492745396705219
 40
1.0
 40
1.0
 40
1.0
 40
1.0
 10
63.66516397274841
 20
-9.495280766116185
 30
0.0
 10
63.26046686918252
 20
-9.70357685409009
 30
0.0
 10
61.96420195382064
 20
-10.37075956547742
 30
0.0
 10
59.77597618178837
 20
-11.23254969946026
 30
0.0
 10
57.10019122937827
 20
-12.05415111613278
 30
0.0
 10
54.42413606921764
 20
-12.55911741114266
 30
0.0
 10
51.74889802029715
 20
-12.75201339863587
 30
0.0
 10
49.07438055165597
 20
-12.62332407804521
 30
0.0
 10
46.40019528712153
 20
-12.17759696637748
 30
0.0
 10
43.72587777526429
 20
-11.42568785328335
 30
0.0
 10
41.05099084087671
 20
-10.38650075369487
 30
0.0
 10
38.37527481200268
 20
-9.086128765249299
 30
0.0
 10
35.69917750437807
 20
-7.557514904345743
 30
0.0
 10
33.0238741983904
 20
-5.838641580782223
 30
0.0
 10
30.36715625113546
 20
-3.985646144532963
 30
0.0
 10
27.72879280974069
 20
-2.047623335900324
 30
0.0
 10
25.1080584004045
 20
-0.0731727147520941
 30
0.0
 10
22.48657040392429
 20
1.903005614736211
 30
0.0
 10
19.86409878029974
 20
3.834009690324717
 30
0.0
 10
17.24187068139889
 20
5.668504190611154
 30
0.0
 10
14.62061970200146
 20
7.381540803840034
 30
0.0
 10
12.87348475097574
 20
8.366475217701016
 30
0.0
 10
12.00000000000066
 20
8.858895789284832
 30
0.0
  0
SPLINE
  5
B0
330
1F
100
AcDbEntity
  8
0
  6
Continuous
 62
     1
370
    15
100
AcDbSpline
210
0.0
220
0.0
230
1.0
 70
     8
 71
     3
 72
    31
 73
    27
 74
     0
 42
0.000000001
 43
0.00000001
 40
0.0
 40
0.0
 40
0.0
 40
0.0
 40
0.0410484061292169
 40
0.0821045873464814
 40
0.1231760534467938
 40
0.1642522085776158
 40
0.2053115618683045
 40
0.2463612289052473
 40
0.2874087449431712
 40
0.3293005901197338
 40
0.3712020485733857
 40
0.4131171577528669
 40
0.4550251469463172
 40
0.4969209633200928
 40
0.5388099232461179
 40
0.5806973644570061
 40
0.62258862942111
 40
0.6644890486863357
 40
0.7064033636910358
 40
0.7483126516291417
 40
0.7902093094350954
 40
0.8320986508616021
 40
0.8739860124519069
 40
0.9158767369226817
 40
0.9577761565062055
 40
1.0
 40
1.0
 40
1.0
 40
1.0
 10
12.0
 20
10.13598643618507
 30
0.0
 10
12.87348475097512
 20
10.50903431326448
 30
0.0
 10
14.62061970200091
 20
11.25520072741633
 30
0.0
 10
17.24187068139845
 20
12.03718198902743
 30
0.0
 10
19.86409878029938
 20
12.54605177634399
 30
0.0
 10
22.48657040392407
 20
12.74728368021254
 30
0.0
 10
25.10805840040421
 20
12.64199699811576
 30
0.0
 10
27.72879280974105
 20
12.23114520503847
 30
0.0
 10
30.36715625113379
 20
11.52030728792213
 30
0.0
 10
33.02387419839662
 20
10.51969096160725
 30
0.0
 10
35.69917750435479
 20
9.247723270118263
 30
0.0
 10
38.37527481208943
 20
7.743482869017108
 30
0.0
 10
41.05099084055286
 20
6.044380136069017
 30
0.0
 10
43.72587777647233
 20
4.193353620950283
 30
0.0
 10
46.40019528261374
 20
2.237058671345798
 30
0.0
 10
49.07438056847929
 20
0.224558216217831
 30
0.0
 10
51.74889795749939
 20
-1.793656589820197
 30
0.0
 10
54.42413630367123
 20
-3.767002384580355
 30
0.0
 10
57.1001903541134
 20
-5.645384691974512
 30
0.0
 10
59.77597944743125
 20
-7.381973678024305
 30
0.0
 10
62.45093242874595
 20
-8.933100142964282
 30
0.0
 10
65.1252829538039
 20
-10.25901838395611
 30
0.0
 10
67.79946258564817
 20
-11.32895227120862
 30
0.0
 10
70.47392940100056
 20
-12.10699951002456
 30
0.0
 10
73.15572130395664
 20
-12.60863346383696
 30
0.0
 10
74.94622975828185
 20
-12.6637012872866
 30
0.0
 10
75.84493656046872
 20
-12.69134138437537
 30
0.0
  0
SPLINE
  5
B2
330
1F
100
AcDbEntity
  8
0
  6
Continuous
 62
     1
370
    15
100
AcDbSpline
210
0.0
220
0.0
230
1.0
 70
     8
 71
     3
 72
    29
 73
    25
 74
     0
 42
0.000000001
 43
0.00000001
 40
0.0
 40
0.0
 40
0.0
 40
0.0
 40
0.0479609119519894
 40
0.0959234074923644
 40
0.1438888977411418
 40
0.1918587901288026
 40
0.239834486668997
 40
0.2878157016435781
 40
0.3357919256597994
 40
0.3809858427367517
 40
0.4261703810154181
 40
0.4713512919946469
 40
0.5165343384820529
 40
0.5617252766264147
 40
0.6069298379939824
 40
0.6521398216999275
 40
0.6973348170622686
 40
0.7425199383325594
 40
0.7877009351928359
 40
0.8328835701828675
 40
0.8780736007343214
 40
0.9232767612386108
 40
0.968487601564279
 40
1.0
 40
1.0
 40
1.0
 40
1.0
 10
93.026
 20
-12.70000000000001
 30
0.0
 10
92.07971536135354
 20
-12.70000000000001
 30
0.0
 10
90.18711483933863
 20
-12.70000000000001
 30
0.0
 10
87.3481085326039
 20
-12.70000000000001
 30
0.0
 10
84.50886914366107
 20
-12.64535921108733
 30
0.0
 10
81.66928496929702
 20
-12.17717197346527
 30
0.0
 10
78.82928601160711
 20
-11.36581225745047
 30
0.0
 10
75.98900871009678
 20
-10.23218234919957
 30
0.0
 10
73.20371839920138
 20
-8.836233959433944
 30
0.0
 10
70.4739279508026
 20
-7.23511058216637
 30
0.0
 10
67.79946297415525
 20
-5.484210895840143
 30
0.0
 10
65.1252828497125
 20
-3.595534162194104
 30
0.0
 10
62.4509324566056
 20
-1.61643775187163
 30
0.0
 10
59.77597944010238
 20
0.4034643400894375
 30
0.0
 10
57.10019035555833
 20
2.413220512059663
 30
0.0
 10
54.42413630522258
 20
4.362127305666037
 30
0.0
 10
51.74889794985326
 20
6.201645020486231
 30
0.0
 10
49.07438059750533
 20
7.884978764637926
 30
0.0
 10
46.40019517416215
 20
9.370282007157659
 30
0.0
 10
43.72587818130084
 20
10.61922358133271
 30
0.0
 10
41.05098932924336
 20
11.60444161336202
 30
0.0
 10
38.37528045457443
 20
12.28617551764719
 30
0.0
 10
35.96919032338219
 20
12.66075378118913
 30
0.0
 10
34.45541426686464
 20
12.66465265515299
 30
0.0
 10
33.83366373853004
 20
12.66625403267281
 30
0.0
  0
SPLINE
  5
B3
330
1F
100
AcDbEntity
  8
0
  6
Continuous
 62
     1
370
    15
100
AcDbSpline
210
0.0
220
0.0
230
1.0
 70
     8
 71
     3
 72
    25
 73
    21
 74
     0
 42
0.000000001
 43
0.00000001
 40
0.0
 40
0.0
 40
0.0
 40
0.0
 40
0.0082001177791511
 40
0.0650878341225025
 40
0.1219807435400069
 40
0.1788860854974443
 40
0.2358102993855307
 40
0.2927276859685782
 40
0.3496279194538356
 40
0.4065182164973674
 40
0.4634058247072773
 40
0.5202980000758569
 40
0.5772019843564479
 40
0.6376091912071552
 40
0.6980226822092355
 40
0.7584292249111051
 40
0.8188284595629989
 40
0.8792221514503352
 40
0.9396120726788997
 40
1.0
 40
1.0
 40
1.0
 40
1.0
 10
46.01475845197206
 20
9.510221385733026
 30
0.0
 10
46.14324635442947
 20
9.578848587458156
 30
0.0
 10
47.16310966702244
 20
10.12357197344827
 30
0.0
 10
49.07437630948834
 20
10.91689643001584
 30
0.0
 10
51.74889909913552
 20
11.8355786800525
 30
0.0
 10
54.42413599712971
 20
12.43451572547658
 30
0.0
 10
57.10019043811295
 20
12.72674217613791
 30
0.0
 10
59.77597941799034
 20
12.69744236877481
 30
0.0
 10
62.45093246252858
 20
12.34932353887149
 30
0.0
 10
65.12528284812566
 20
11.69067704034193
 30
0.0
 10
67.7994629745804
 20
10.73822079461924
 30
0.0
 10
70.47392795068887
 20
9.5157653177222
 30
0.0
 10
73.20371839923398
 20
8.024226680171074
 30
0.0
 10
75.98900871008783
 20
6.285204016283836
 30
0.0
 10
78.82928601160947
 20
4.334053324013745
 30
0.0
 10
81.66928496929644
 20
2.260270232528215
 30
0.0
 10
84.50886914366126
 20
0.121693153206928
 30
0.0
 10
87.34810853260385
 20
-2.016954394195407
 30
0.0
 10
90.18711483933869
 20
-4.110714499770657
 30
0.0
 10
92.07971536135356
 20
-5.398387665408374
 30
0.0
 10
93.026
 20
-6.04221361920392
 30
0.0
  0
SPLINE
  5
B4
330
1F
100
AcDbEntity
  8
0
  6
Continuous
 62
     1
370
    15
100
AcDbSpline
210
0.0
220
0.0
230
1.0
 70
     8
 71
     3
 72
    18
 73
    14
 74
     0
 42
0.000000001
 43
0.00000001
 40
0.0
 40
0.0
 40
0.0
 40
0.0
 40
0.25
 40
0.25
 40
0.5
 40
0.5
 40
0.625
 40
0.625
 40
0.75
 40
0.75
 40
0.875
 40
0.875
 40
1.0
 40
1.0
 40
1.0
 40
1.0
 10
93.02599999999998
 20
-6.042213619203928
 30
0.0
 10
93.21448571368798
 20
-6.166965523055087
 30
0.0
 10
93.39595232281405
 20
-6.273506836955654
 30
0.0
 10
93.7471691006879
 20
-6.447694419718909
 30
0.0
 10
93.91097943914845
 20
-6.511975262122774
 30
0.0
 10
94.12789491090165
 20
-6.567677834025444
 30
0.0
 10
94.19580958994561
 20
-6.579396523523736
 30
0.0
 10
94.31506344373473
 20
-6.587618973654926
 30
0.0
 10
94.36731826724535
 20
-6.58441713718947
 30
0.0
 10
94.45499756463037
 20
-6.562816146405279
 30
0.0
 10
94.49023397732175
 20
-6.544085723357497
 30
0.0
 10
94.537355998282
 20
-6.493037797529509
 30
0.0
 10
94.55000000000004
 20
-6.460673168048572
 30
0.0
 10
94.55000000000003
 20
-6.421313419566579
 30
0.0
  0
SPLINE
  5
B5
330
1F
100
AcDbEntity
  8
0
  6
Continuous
 62
     1
370
    15
100
AcDbSpline
210
0.0
220
0.0
230
1.0
 70
     8
 71
     3
 72
    11
 73
     7
 74
     0
 42
0.000000001
 43
0.00000001
 40
0.0
 40
0.0
 40
0.0
 40
0.0
 40
0.212883467489222
 40
0.5729374913670455
 40
0.9418170766316468
 40
1.0
 40
1.0
 40
1.0
 40
1.0
 10
92.46494684196671
 20
-5.6551468692069
 30
0.0
 10
92.32657237547684
 20
-5.688250378370268
 30
0.0
 10
91.95416243385479
 20
-5.777342508065432
 30
0.0
 10
91.26987913750807
 20
-6.057156902818781
 30
0.0
 10
90.68436191584001
 20
-6.341350363396962
 30
0.0
 10
90.36261513088353
 20
-6.516936371721901
 30
0.0
 10
90.31878040375409
 20
-6.540858179561289
 30
0.0
  0
SPLINE
  5
B6
330
1F
100
AcDbEntity
  8
0
  6
Continuous
 62
     1
370
    15
100
AcDbSpline
210
0.0
220
0.0
230
1.0
 70
     8
 71
     3
 72
     8
 73
     4
 74
     0
 42
0.000000001
 43
0.00000001
 40
0.0
 40
0.0
 40
0.0
 40
0.0
 40
1.0
 40
1.0
 40
1.0
 40
1.0
 10
94.55
 20
-7.424523816498311
 30
0.0
 10
93.09522549203183
 20
-7.324563569594361
 30
0.0
 10
91.68372878874838
 20
-7.034789775026578
 30
0.0
 10
90.31878040375209
 20
-6.540858179566357
 30
0.0
  0
LINE
  5
B7
330
1F
100
AcDbEntity
  8
0
  6
Continuous
 62
     1
370
    15
100
AcDbLine
 10
94.55
 20
-11.17600000000001
 30
0.0
 11
94.55
 21
-7.424523816498323
 31
0.0
  0
SPLINE
  5
B8
330
1F
100
AcDbEntity
  8
0
  6
Continuous
 62
     1
370
    15
100
AcDbSpline
210
0.0
220
0.0
230
1.0
 70
     8
 71
     3
 72
    18
 73
    14
 74
     0
 42
0.000000001
 43
0.00000001
 40
0.0
 40
0.0
 40
0.0
 40
0.0
 40
0.1249999999999976
 40
0.1249999999999976
 40
0.2499999999999951
 40
0.2499999999999951
 40
0.3749999999999927
 40
0.3749999999999927
 40
0.4999999999999902
 40
0.4999999999999902
 40
0.7499999999999951
 40
0.7499999999999951
 40
1.0
 40
1.0
 40
1.0
 40
1.0
 10
94.54999999999998
 20
0.9874631250511157
 30
0.0
 10
94.55
 20
0.9670920533994128
 30
0.0
 10
94.53895840416807
 20
0.9555050043637328
 30
0.0
 10
94.49298787008185
 20
0.9523949025015329
 30
0.0
 10
94.4580416637897
 20
0.9612323483614881
 30
0.0
 10
94.36790286500685
 20
0.9989137163704955
 30
0.0
 10
94.31175064659232
 20
1.028207947646828
 30
0.0
 10
94.18603813444497
 20
1.102039265465139
 30
0.0
 10
94.11501715404081
 20
1.147370453838332
 30
0.0
 10
93.89022309760081
 20
1.298115936708002
 30
0.0
 10
93.72207605378446
 20
1.419768930034569
 30
0.0
 10
93.380024202677
 20
1.672113797332033
 30
0.0
 10
93.20215191459546
 20
1.8056966204615
 30
0.0
 10
93.026
 20
1.936697756557586
 30
0.0
  0
SPLINE
  5
B9
330
1F
100
AcDbEntity
  8
0
  6
Continuous
 62
     1
370
    15
100
AcDbSpline
210
0.0
220
0.0
230
1.0
 70
     8
 71
     3
 72
    16
 73
    12
 74
     0
 42
0.000000001
 43
0.00000001
 40
0.0
 40
0.0
 40
0.0
 40
0.0
 40
0.1188171058331489
 40
0.2376381348066458
 40
0.3564665827922234
 40
0.4753059365212553
 40
0.5941596693056025
 40
0.7130270733146159
 40
0.831882112854242
 40
0.9438443381289022
 40
1.0
 40
1.0
 40
1.0
 40
1.0
 10
93.026
 20
1.936697756557595
 30
0.0
 10
92.07971536184915
 20
2.636224788856521
 30
0.0
 10
90.18711484082549
 20
4.035301950656631
 30
0.0
 10
87.34810852665622
 20
6.005003781649771
 30
0.0
 10
84.50886916596735
 20
7.808565256407977
 30
0.0
 10
81.66928488600777
 20
9.390368959060513
 30
0.0
 10
78.82928632251054
 20
10.70527240121026
 30
0.0
 10
75.98900754969478
 20
11.72174047774423
 30
0.0
 10
73.20372262322653
 20
12.37524292953231
 30
0.0
 10
70.91818767879559
 20
12.69050556293157
 30
0.0
 10
69.57934670140051
 20
12.6676643369648
 30
0.0
 10
69.13213967005956
 20
12.66003478496479
 30
0.0
  0
SPLINE
  5
BA
330
1F
100
AcDbEntity
  8
0
  6
Continuous
 62
     1
370
    15
100
AcDbSpline
210
0.0
220
0.0
230
1.0
 70
     8
 71
     3
 72
    14
 73
    10
 74
     0
 42
0.000000001
 43
0.00000001
 40
0.0
 40
0.0
 40
0.0
 40
0.0
 40
0.0390313977136463
 40
0.1991517272480591
 40
0.3593098394553588
 40
0.5195334897381927
 40
0.6797388497603597
 40
0.8398845888236449
 40
1.0
 40
1.0
 40
1.0
 40
1.0
 10
28.36761479641691
 20
-9.503783890835864
 30
0.0
 10
28.15468478011604
 20
-9.616176339537581
 30
0.0
 10
27.0682419926867
 20
-10.18964159058495
 30
0.0
 10
25.10806030047723
 20
-10.99485151719422
 30
0.0
 10
22.48656989452876
 20
-11.87366166522184
 30
0.0
 10
19.86409891675298
 20
-12.44895423777076
 30
0.0
 10
17.241870645028
 20
-12.72289935565015
 30
0.0
 10
14.62061971109076
 20
-12.70966843441946
 30
0.0
 10
12.87348475400531
 20
-12.44339935476198
 30
0.0
 10
12.00000000000066
 20
-12.31027742242331
 30
0.0
  0
SPLINE
  5
BB
330
1F
100
AcDbEntity
  8
0
  6
Continuous
 62
     4
370
    15
100
AcDbSpline
210
0.0
220
0.0
230
1.0
 70
    24
 71
     3
 72
    14
 73
    10
 74
     0
 42
0.000000001
 43
0.00000001
 40
0.0
 40
0.0
 40
0.0
 40
0.0
 40
0.1373759840705442
 40
0.2890097842458243
 40
0.4406435844211046
 40
0.5922773845963849
 40
0.7439111847716648
 40
0.8955449849469449
 40
1.0
 40
1.0
 40
1.0
 40
1.0
 10
12.0
 20
-0.1512649949711584
 30
0.0
 10
12.0
 20
-0.5259322567324888
 30
0.0
 10
12.0
 20
-1.314152302748767
 30
0.0
 10
12.0
 20
-2.853191235342731
 30
0.0
 10
12.0
 20
-4.6435844219757
 30
0.0
 10
12.0
 20
-6.611310058332516
 30
0.0
 10
12.0
 20
-8.696190321199
 30
0.0
 10
12.0
 20
-10.61934086146131
 30
0.0
 10
12.0
 20
-11.82038745873025
 30
0.0
 10
12.0
 20
-12.31027742243401
 30
0.0
  0
SPLINE
  5
BC
330
1F
100
AcDbEntity
  8
0
  6
Continuous
 62
     1
370
    15
100
AcDbSpline
210
0.0
220
0.0
230
1.0
 70
     8
 71
     3
 72
    18
 73
    14
 74
     0
 42
0.000000001
 43
0.00000001
 40
0.0
 40
0.0
 40
0.0
 40
0.0
 40
0.0917999145610131
 40
0.1836172171885989
 40
0.2754687026527473
 40
0.3673306745800924
 40
0.4591550711754296
 40
0.5509578056077219
 40
0.6427557295846332
 40
0.7364418960074123
 40
0.8301495613895582
 40
0.9238877550085592
 40
1.0
 40
1.0
 40
1.0
 40
1.0
 10
12.0
 20
1.558758189958426
 30
0.0
 10
12.8734847509358
 20
0.9017115247788043
 30
0.0
 10
14.62061970188294
 20
-0.4125062585411012
 30
0.0
 10
17.24187068187049
 20
-2.384079682691498
 30
0.0
 10
19.86409877852841
 20
-4.29531223796148
 30
0.0
 10
22.48657041053532
 20
-6.103412880618494
 30
0.0
 10
25.10805837574389
 20
-7.764194569715851
 30
0.0
 10
27.72879290174978
 20
-9.237521330074182
 30
0.0
 10
30.36715590478436
 20
-10.49566833142639
 30
0.0
 10
33.0238755207566
 20
-11.50559147838512
 30
0.0
 10
35.69917257064623
 20
-12.22375529818367
 30
0.0
 10
38.20768336030326
 20
-12.64158810565751
 30
0.0
 10
39.82409368613595
 20
-12.66508378414931
 30
0.0
 10
40.54842869364597
 20
-12.6756125107881
 30
0.0
  0
SPLINE
  5
BD
330
1F
100
AcDbEntity
  8
0
  6
Continuous
 62
     1
370
    15
100
AcDbSpline
210
0.0
220
0.0
230
1.0
 70
     8
 71
     3
 72
    12
 73
     8
 74
     0
 42
0.000000001
 43
0.00000001
 40
0.0
 40
0.0
 40
0.0
 40
0.0
 40
0.0304306429043251
 40
0.2728492346771003
 40
0.5152455799895294
 40
0.7576267913719533
 40
1.0
 40
1.0
 40
1.0
 40
1.0
 10
81.31292031835159
 20
9.510183964868881
 30
0.0
 10
81.43174114500368
 20
9.573998998677101
 30
0.0
 10
82.49712026688603
 20
10.14618155788919
 30
0.0
 10
84.50886157750955
 20
10.97416664071557
 30
0.0
 10
87.34811055002773
 20
11.92092605403192
 30
0.0
 10
90.18711433501525
 20
12.53038080714435
 30
0.0
 10
92.07971519324764
 20
12.64019753820942
 30
0.0
 10
93.02600000000001
 20
12.69510499726613
 30
0.0
  0
LINE
  5
BF
330
1F
100
AcDbEntity
  8
0
  6
Continuous
 62
     1
370
    15
100
AcDbLine
 10
94.55
 20
8.223300350377981
 30
0.0
 11
94.55
 21
11.13229053594381
 31
0.0
  0
SPLINE
  5
C0
330
1F
100
AcDbEntity
  8
0
  6
Continuous
 62
     1
370
    15
100
AcDbSpline
210
0.0
220
0.0
230
1.0
 70
     8
 71
     3
 72
    20
 73
    16
 74
     0
 42
0.000000001
 43
0.00000001
 40
0.0
 40
0.0
 40
0.0
 40
0.0
 40
0.2499999999999999
 40
0.2499999999999999
 40
0.3749999999999999
 40
0.3749999999999999
 40
0.4999999999999999
 40
0.4999999999999999
 40
0.6249999999999999
 40
0.6249999999999999
 40
0.7499999999999998
 40
0.7499999999999998
 40
0.8749999999999999
 40
0.8749999999999999
 40
1.0
 40
1.0
 40
1.0
 40
1.0
 10
94.55
 20
8.223300350377981
 30
0.0
 10
94.35181924402437
 20
7.726153525028836
 30
0.0
 10
94.11246050984641
 20
7.264314974490904
 30
0.0
 10
93.68182395632508
 20
6.632949619577911
 30
0.0
 10
93.52485421835075
 20
6.431305398267857
 30
0.0
 10
93.1927814370666
 20
6.059800927348297
 30
0.0
 10
93.01791989909424
 20
5.88967071704897
 30
0.0
 10
92.65086833340439
 20
5.580084696849561
 30
0.0
 10
92.45868066310707
 20
5.440624713911296
 30
0.0
 10
92.05685024281708
 20
5.192603234368533
 30
0.0
 10
91.84694639328046
 20
5.0842971743629
 30
0.0
 10
91.42264704217554
 20
4.904067784537951
 30
0.0
 10
91.20670476959005
 20
4.831109222494381
 30
0.0
 10
90.76776269263863
 20
4.717117439248751
 30
0.0
 10
90.54370915891315
 20
4.675995651345394
 30
0.0
 10
90.31878040375496
 20
4.650557464983034
 30
0.0
  0
SPLINE
  5
C1
330
1F
100
AcDbEntity
  8
0
  6
Continuous
 62
     1
370
    15
100
AcDbSpline
210
0.0
220
0.0
230
1.0
 70
     8
 71
     3
 72
     8
 73
     4
 74
     0
 42
0.000000001
 43
0.00000001
 40
0.0
 40
0.0
 40
0.0
 40
0.0
 40
1.0
 40
1.0
 40
1.0
 40
1.0
 10
94.55
 20
2.449835235057673
 30
0.0
 10
93.095225492032
 20
3.292970240500965
 30
0.0
 10
91.68372878874867
 20
4.029236352713213
 30
0.0
 10
90.31878040375251
 20
4.650557464980047
 30
0.0
  0
LINE
  5
C2
330
1F
100
AcDbEntity
  8
0
  6
Continuous
 62
     1
370
    15
100
AcDbLine
 10
94.55
 20
0.9874631250511192
 30
0.0
 11
94.55
 21
2.449835235057674
 31
0.0
  0
LINE
  5
C3
330
1F
100
AcDbEntity
  8
0
  6
Continuous
 62
     4
370
    15
100
AcDbLine
 10
12.0
 20
1.558758189958426
 30
0.0
 11
12.0
 21
8.858895789291758
 31
0.0
  0
LINE
  5
C4
330
1F
100
AcDbEntity
  8
0
  6
Continuous
 62
     1
370
    15
100
AcDbLine
 10
94.55
 20
-6.421313419566578
 30
0.0
 11
94.55
 21
0.9874631250511192
 31
0.0
  0
LINE
  5
C5
330
1F
100
AcDbEntity
  8
0
  6
Continuous
 62
     1
370
    15
100
AcDbLine
 10
94.55
 20
2.449835235057674
 30
0.0
 11
94.55
 21
8.223300350377981
 31
0.0
  0
LINE
  5
C6
330
1F
100
AcDbEntity
  8
0
  6
Continuous
 62
     1
370
    15
100
AcDbLine
 10
94.55
 20
-6.421313419566578
 30
0.0
 11
94.55
 21
-7.42452381649831
 31
0.0
  0
LINE
  5
C7
330
1F
100
AcDbEntity
  8
0
  6
Continuous
 62
     1
370
    15
100
AcDbLine
 10
94.55
 20
11.13229053594381
 30
0.0
 11
94.55
 21
11.17599999999999
 31
0.0
  0
LINE
  5
C8
330
1F
100
AcDbEntity
  8
중심선
100
AcDbLine
 10
-60.85000000000002
 20
-0.0000000000000053
 30
0.0
 11
97.55
 21
-0.0000000000000048
 31
0.0
  0
CIRCLE
  5
C9
330
1F
100
AcDbEntity
  8
외형선
100
AcDbCircle
 10
0.0
 20
0.0
 30
0.0
 40
3.000000000000008
  0
INSERT
  5
CA
330
1F
100
AcDbEntity
  8
0
  6
Continuous
 62
     7
100
AcDbBlockReference
 66
     1
  2
블럭10
 10
1.151018676600227
 20
-52.04609937292003
 30
0.0
  0
ATTRIB
  5
CB
330
CA
100
AcDbEntity
  8
FORMAT
 62
     2
100
AcDbText
 10
-8.030276612141051
 20
-49.97073246008785
 30
0.0
 40
4.233333333333333
  1
E5984064 [ 3 FLUTE ]
 41
0.75
  7
SLDTEXTSTYLE0
 11
-8.030276612141051
 21
-52.08739912675451
 31
0.0
100
AcDbAttribute
  2
AUTOATTR0
 70
     0
 74
     1
  0
SEQEND
  5
CC
330
CA
100
AcDbEntity
  8
0
  6
Continuous
 62
     7
  0
HATCH
  5
CD
330
1F
100
AcDbEntity
  8
중심선
100
AcDbHatch
 10
0.0
 20
0.0
 30
0.0
210
0.0
220
0.0
230
1.0
  2
SOLID
 70
     1
 71
     0
 91
        1
 92
        0
 93
        4
 72
     1
 10
6.865927980981064
 20
-35.7989250712761
 11
3.419652737143782
 21
-35.7989250712761
 72
     1
 10
3.419652737143782
 20
-35.7989250712761
 11
1.291422877939759
 21
-38.3352506518487
 72
     1
 10
1.291422877939759
 20
-38.3352506518487
 11
4.737731206890192
 21
-38.33521122254621
 72
     1
 10
4.737731206890192
 20
-38.33521122254621
 11
6.865927980981064
 21
-35.7989250712761
 97
        0
 75
     0
 76
     1
 98
        1
 10
21.49687056196811
 20
0.0
  0
HATCH
  5
CE
330
1F
100
AcDbEntity
  8
중심선
100
AcDbHatch
 10
0.0
 20
0.0
 30
0.0
210
0.0
220
0.0
230
1.0
  2
SOLID
 70
     1
 71
     0
 91
        1
 92
        0
 93
        4
 72
     1
 10
11.87869197201702
 20
-35.79892507127613
 11
8.432416728179762
 21
-35.79892507127608
 72
     1
 10
8.432416728179762
 20
-35.79892507127608
 11
3.901278719822344
 21
-41.19892507127612
 72
     1
 10
3.901278719822344
 20
-41.19892507127612
 11
7.347553963659628
 21
-41.19892507127612
 72
     1
 10
7.347553963659628
 20
-41.19892507127612
 11
11.87869197201702
 21
-35.79892507127613
 97
        0
 75
     0
 76
     1
 98
        1
 10
21.49687056196811
 20
0.0
  0
HATCH
  5
CF
330
1F
100
AcDbEntity
  8
중심선
100
AcDbHatch
 10
0.0
 20
0.0
 30
0.0
210
0.0
220
0.0
230
1.0
  2
SOLID
 70
     1
 71
     0
 91
        1
 92
        0
 93
        4
 72
     1
 10
16.89145596305294
 20
-35.79892507127613
 11
13.44518071921583
 21
-35.7989250712761
 72
     1
 10
13.44518071921582
 20
-35.7989250712761
 11
6.396743817326547
 21
-44.19892507127612
 72
     1
 10
6.396743817326547
 20
-44.19892507127612
 11
9.84301906116383
 21
-44.19892507127612
 72
     1
 10
9.84301906116383
 20
-44.19892507127612
 11
16.89145596305294
 21
-35.79892507127613
 97
        0
 75
     0
 76
     1
 98
        1
 10
21.49687056196811
 20
0.0
  0
HATCH
  5
D0
330
1F
100
AcDbEntity
  8
중심선
100
AcDbHatch
 10
0.0
 20
0.0
 30
0.0
210
0.0
220
0.0
230
1.0
  2
SOLID
 70
     1
 71
     0
 91
        1
 92
        0
 93
        6
 72
     3
 10
21.69134639406511
 20
-39.99892507132738
 11
3.960054785062283
 21
1.540882976769353E-10
 40
0.3939339440162628
 50
17.09539180608437
 51
320.0019657685083
 73
     0
 72
     1
 10
23.37434604976568
 20
-38.58681907591443
 11
25.67964792346677
 21
-36.65249236586649
 72
     3
 10
21.69134639401226
 20
-39.99892507127625
 11
6.600054785286829
 21
-1.278976924368180E-13
 40
0.636358354079598
 50
39.99873849337386
 51
368.4976242363725
 73
     1
 72
     1
 10
28.11667888591288
 20
-39.03892507120613
 11
20.37141370084819
 21
-39.03892507120613
 72
     1
 10
20.37141370084819
 20
-39.03892507120613
 11
20.37138865640225
 21
-40.95892507120602
 72
     1
 10
20.37138865640225
 20
-40.95892507120602
 11
24.81276842587429
 21
-40.95892507120599
 97
        0
 75
     0
 76
     1
 98
        1
 10
21.49687056196811
 20
0.0
  0
POINT
  5
D1
330
1F
100
AcDbEntity
  8
치수문자_일반주서
100
AcDbPoint
 10
-57.85000000000002
 20
-0.115693754868918
 30
0.0
  0
DIMENSION
  5
D2
330
1F
100
AcDbEntity
  8
치수문자_일반주서
100
AcDbDimension
  2
_D
 10
12.00000000000001
 20
34.89866838988439
 30
0.0
 11
53.275
 21
34.89866838988439
 31
0.0
 70
   160
  1
<>
 71
     2
 42
82.55
  3
SLDDIMSTYLE0
100
AcDbAlignedDimension
 13
94.55
 23
11.13229053594381
 33
0.0
 14
12.0
 24
10.13598643618506
 34
0.0
 50
0.0000000000000099
100
AcDbRotatedDimension
1001
ACAD
1000
DSTYLE
1002
{
1070
   171
1070
     6
1070
   273
1070
     5
1002
}
  0
DIMENSION
  5
E6
102
{ACAD_REACTORS
102
}
330
1F
100
AcDbEntity
  8
치수문자_일반주서
100
AcDbDimension
  2
_D_1
 10
-57.85000000000001
 20
61.84759778227559
 30
0.0
 11
17.74141452505228
 21
61.84759778227559
 31
0.0
 70
   160
  1
<>
 71
     2
 42
152.4
  3
SLDDIMSTYLE1
100
AcDbAlignedDimension
 13
94.55
 23
11.17599999999999
 33
0.0
 14
-57.85000000000001
 24
12.19999999999999
 34
0.0
 50
0.0000000000000053
100
AcDbRotatedDimension
1001
ACAD
1000
DSTYLE
1002
{
1070
   171
1070
     6
1070
   273
1070
     5
1002
}
  0
INSERT
  5
111
330
1F
100
AcDbEntity
  8
외형선
100
AcDbBlockReference
  2
SW_DOWELSYMBOL_0
 10
0.0
 20
0.0
 30
0.0
  0
ARC
  5
13B
102
{ACAD_REACTORS
102
}
330
1F
100
AcDbEntity
  8
0
  6
Continuous
 62
     1
370
    15
100
AcDbCircle
 10
93.026
 20
-11.17600000000001
 30
0.0
 40
1.524
100
AcDbArc
 50
270.0
 51
0.0
  0
ARC
  5
13C
330
1F
100
AcDbEntity
  8
0
  6
Continuous
 62
     1
370
    15
100
AcDbCircle
 10
93.026
 20
11.176
 30
0.0
 40
1.524
100
AcDbArc
 50
0.0
 51
90.0
  0
DIMENSION
  5
13D
102
{ACAD_XDICTIONARY
360
13E
102
}
330
1F
100
AcDbEntity
  8
치수문자_일반주서
100
AcDbDimension
  2
*D7
 10
109.867398739716
 20
12.69999999999999
 30
0.0
 11
107.242398739716
 21
-0.0000000000000107
 31
0.0
 70
    32
  1
{Ø<>[]}
 71
     5
 42
25.4
  3
SLDDIMSTYLE0
100
AcDbAlignedDimension
 13
94.55
 23
-12.70000000000001
 33
0.0
 14
94.55
 24
12.69999999999999
 34
0.0
 50
90.0
100
AcDbRotatedDimension
1001
ACAD
1000
DSTYLE
1002
{
1070
   283
1070
     1
1070
   170
1070
     1
1070
   171
1070
     6
1070
   273
1070
     5
1002
}
  0
DIMENSION
  5
14D
102
{ACAD_REACTORS
102
}
102
{ACAD_XDICTIONARY
360
14E
102
}
330
1F
100
AcDbEntity
  8
치수문자_일반주서
100
AcDbDimension
  2
*D8
 10
-72.8653205626627
 20
12.69999999999998
 30
0.0
 11
-75.4903205626627
 21
-0.000000000000016
 31
0.0
 70
    32
  1
{Ø<>[]}
 71
     5
 42
25.39999999999998
  3
SLDDIMSTYLE0
100
AcDbAlignedDimension
 13
-57.35000000000001
 23
-12.70000000000001
 33
0.0
 14
-57.35000000000001
 24
12.69999999999997
 34
0.0
 50
90.0
100
AcDbRotatedDimension
1001
ACAD
1000
DSTYLE
1002
{
1070
   283
1070
     1
1070
   170
1070
     1
1070
   171
1070
     6
1070
   273
1070
     5
1002
}
  0
DIMENSION
  5
15E
102
{ACAD_REACTORS
102
}
102
{ACAD_XDICTIONARY
360
15F
102
}
330
1F
100
AcDbEntity
  8
치수문자_일반주서
100
AcDbDimension
  2
*D9
 10
93.026
 20
-11.17600000000001
 30
0.0
 11
103.8487501020235
 21
-30.47668558961444
 31
0.0
 70
   164
  1
<>
 71
     5
 42
1.524000000000002
  3
SLDDIMSTYLE0
100
AcDbRadialDimension
 15
93.77138463284001
 25
-12.50527715286391
 35
0.0
 40
0.0
1001
ACAD_DSTYLE_DIMRADIAL_EXTENSION
1070
   387
1070
     1
1070
   388
1040
4.71238898038469
1070
   390
1040
0.0
  0
ENDSEC
  0
SECTION
  2
OBJECTS
  0
DICTIONARY
  5
C
330
0
100
AcDbDictionary
281
     1
  3
ACAD_GROUP
350
D
  3
ACAD_IMAGE_VARS
350
135
  3
ACAD_LAYOUT
350
1A
  3
ACAD_MLINESTYLE
350
17
  3
ACAD_PLOTSETTINGS
350
19
  3
ACAD_PLOTSTYLENAME
350
E
  3
ACAD_SCALELIST
350
47
  3
APPDATA
350
133
  3
DWGPROPS
350
16E
  0
DICTIONARY
  5
13E
330
13D
100
AcDbDictionary
280
     1
281
     1
  0
DICTIONARY
  5
14E
330
14D
100
AcDbDictionary
280
     1
281
     1
  0
DICTIONARY
  5
15F
330
15E
100
AcDbDictionary
280
     1
281
     1
  0
DICTIONARY
  5
D
102
{ACAD_REACTORS
330
C
102
}
330
C
100
AcDbDictionary
281
     1
  0
RASTERVARIABLES
  5
135
102
{ACAD_REACTORS
330
C
102
}
330
C
100
AcDbRasterVariables
 90
        0
 70
     1
 71
     1
 72
     1
  0
DICTIONARY
  5
1A
102
{ACAD_REACTORS
330
C
102
}
330
C
100
AcDbDictionary
281
     1
  3
Layout1
350
1E
  3
Layout2
350
26
  3
Model
350
22
  0
DICTIONARY
  5
17
102
{ACAD_REACTORS
330
C
102
}
330
C
100
AcDbDictionary
281
     1
  3
Standard
350
18
  0
DICTIONARY
  5
19
102
{ACAD_REACTORS
330
C
102
}
330
C
100
AcDbDictionary
281
     1
  0
ACDBDICTIONARYWDFLT
  5
E
102
{ACAD_REACTORS
330
C
102
}
330
C
100
AcDbDictionary
281
     1
  3
Normal
350
F
100
AcDbDictionaryWithDefault
340
F
  0
DICTIONARY
  5
47
102
{ACAD_REACTORS
330
C
102
}
330
C
100
AcDbDictionary
281
     1
  3
A0
350
48
  3
A1
350
49
  3
A2
350
4A
  3
A3
350
4B
  3
A4
350
4C
  3
A5
350
4D
  3
A6
350
4E
  3
A7
350
4F
  3
A8
350
50
  3
A9
350
51
  3
B0
350
52
  3
B1
350
53
  3
B2
350
54
  3
B3
350
55
  3
B4
350
56
  3
B5
350
57
  3
B6
350
58
  3
B7
350
59
  3
B8
350
5A
  3
B9
350
5B
  3
C0
350
5C
  3
C1
350
5D
  3
C2
350
5E
  3
C3
350
5F
  3
C4
350
60
  3
C5
350
61
  3
C6
350
62
  3
C7
350
63
  3
C8
350
64
  3
C9
350
65
  3
D0
350
66
  3
D1
350
67
  3
D2
350
68
  0
DICTIONARY
  5
133
102
{ACAD_REACTORS
330
C
102
}
330
C
100
AcDbDictionary
281
     1
  0
XRECORD
  5
16E
102
{ACAD_REACTORS
330
C
102
}
330
C
100
AcDbXrecord
280
     1
  1
DWGPROPS COOKIE
  2

  3

  4

  6

  7

  8
12014074
  9

300
=
301
=
302
=
303
=
304
=
305
=
306
=
307
=
308
=
309
=
 40
0.0
 41
2458269.058522604
 42
2458269.968006412
  1

 90
        0
  0
LAYOUT
  5
1E
102
{ACAD_REACTORS
330
1A
102
}
330
1A
100
AcDbPlotSettings
  1

  2
none_device
  4

  6

 40
0.0
 41
0.0
 42
0.0
 43
0.0
 44
0.0
 45
0.0
 46
0.0
 47
0.0
 48
0.0
 49
0.0
140
0.0
141
0.0
142
1.0
143
1.0
 70
   688
 72
     1
 73
     0
 74
     5
  7

 75
    16
147
1.0
148
0.0
149
0.0
100
AcDbLayout
  1
Layout1
 70
     1
 71
     1
 10
0.0
 20
0.0
 11
420.0
 21
297.0
 12
0.0
 22
0.0
 32
0.0
 14
1.000000000000000E+20
 24
1.000000000000000E+20
 34
1.000000000000000E+20
 15
-1.000000000000000E+20
 25
-1.000000000000000E+20
 35
-1.000000000000000E+20
146
0.0
 13
0.0
 23
0.0
 33
0.0
 16
1.0
 26
0.0
 36
0.0
 17
0.0
 27
1.0
 37
0.0
 76
     0
330
1B
  0
LAYOUT
  5
26
102
{ACAD_REACTORS
330
1A
102
}
330
1A
100
AcDbPlotSettings
  1

  2
none_device
  4

  6

 40
0.0
 41
0.0
 42
0.0
 43
0.0
 44
0.0
 45
0.0
 46
0.0
 47
0.0
 48
0.0
 49
0.0
140
0.0
141
0.0
142
1.0
143
1.0
 70
   688
 72
     1
 73
     0
 74
     5
  7

 75
    16
147
1.0
148
0.0
149
0.0
100
AcDbLayout
  1
Layout2
 70
     1
 71
     2
 10
0.0
 20
0.0
 11
0.0
 21
0.0
 12
0.0
 22
0.0
 32
0.0
 14
0.0
 24
0.0
 34
0.0
 15
0.0
 25
0.0
 35
0.0
146
0.0
 13
0.0
 23
0.0
 33
0.0
 16
1.0
 26
0.0
 36
0.0
 17
0.0
 27
1.0
 37
0.0
 76
     0
330
23
  0
LAYOUT
  5
22
102
{ACAD_REACTORS
330
1A
102
}
330
1A
100
AcDbPlotSettings
  1

  2
none_device
  4
ANSI_A_(11.00_x_8.50_Inches)
  6

 40
6.35
 41
19.05
 42
6.35000508
 43
19.05000254
 44
279.4
 45
215.9
 46
121.6486213320539
 47
71.67386237210548
 48
0.0
 49
0.0
140
0.0
141
0.0
142
0.0618072642545833
143
1.0
 70
  1696
 72
     0
 73
     0
 74
     0
  7

 75
     0
147
0.0235690232323232
148
0.0
149
0.0
100
AcDbLayout
  1
Model
 70
     1
 71
     0
 10
0.0
 20
0.0
 11
420.0
 21
297.0
 12
0.0
 22
0.0
 32
0.0
 14
-77.2403205626627
 24
-49.97073246008785
 34
0.0
 15
114.0841574837852
 25
66.22259778227559
 35
0.0
146
0.0
 13
0.0
 23
0.0
 33
0.0
 16
1.0
 26
0.0
 36
0.0
 17
0.0
 27
1.0
 37
0.0
 76
     0
330
1F
331
29
  0
MLINESTYLE
  5
18
102
{ACAD_REACTORS
330
17
102
}
330
17
100
AcDbMlineStyle
  2
Standard
 70
     0
  3

 62
   256
 51
90.0
 52
90.0
 71
     2
 49
0.5
 62
   256
  6
BYLAYER
 49
-0.5
 62
   256
  6
BYLAYER
  0
ACDBPLACEHOLDER
  5
F
102
{ACAD_REACTORS
330
E
102
}
330
E
  0
SCALE
  5
48
102
{ACAD_REACTORS
330
47
102
}
330
47
100
AcDbScale
 70
     0
300
1:1
140
1.0
141
1.0
290
     1
  0
SCALE
  5
49
102
{ACAD_REACTORS
330
47
102
}
330
47
100
AcDbScale
 70
     0
300
1:2
140
1.0
141
2.0
290
     0
  0
SCALE
  5
4A
102
{ACAD_REACTORS
330
47
102
}
330
47
100
AcDbScale
 70
     0
300
1:4
140
1.0
141
4.0
290
     0
  0
SCALE
  5
4B
102
{ACAD_REACTORS
330
47
102
}
330
47
100
AcDbScale
 70
     0
300
1:5
140
1.0
141
5.0
290
     0
  0
SCALE
  5
4C
102
{ACAD_REACTORS
330
47
102
}
330
47
100
AcDbScale
 70
     0
300
1:8
140
1.0
141
8.0
290
     0
  0
SCALE
  5
4D
102
{ACAD_REACTORS
330
47
102
}
330
47
100
AcDbScale
 70
     0
300
1:10
140
1.0
141
10.0
290
     0
  0
SCALE
  5
4E
102
{ACAD_REACTORS
330
47
102
}
330
47
100
AcDbScale
 70
     0
300
1:16
140
1.0
141
16.0
290
     0
  0
SCALE
  5
4F
102
{ACAD_REACTORS
330
47
102
}
330
47
100
AcDbScale
 70
     0
300
1:20
140
1.0
141
20.0
290
     0
  0
SCALE
  5
50
102
{ACAD_REACTORS
330
47
102
}
330
47
100
AcDbScale
 70
     0
300
1:30
140
1.0
141
30.0
290
     0
  0
SCALE
  5
51
102
{ACAD_REACTORS
330
47
102
}
330
47
100
AcDbScale
 70
     0
300
1:40
140
1.0
141
40.0
290
     0
  0
SCALE
  5
52
102
{ACAD_REACTORS
330
47
102
}
330
47
100
AcDbScale
 70
     0
300
1:50
140
1.0
141
50.0
290
     0
  0
SCALE
  5
53
102
{ACAD_REACTORS
330
47
102
}
330
47
100
AcDbScale
 70
     0
300
1:100
140
1.0
141
100.0
290
     0
  0
SCALE
  5
54
102
{ACAD_REACTORS
330
47
102
}
330
47
100
AcDbScale
 70
     0
300
2:1
140
2.0
141
1.0
290
     0
  0
SCALE
  5
55
102
{ACAD_REACTORS
330
47
102
}
330
47
100
AcDbScale
 70
     0
300
4:1
140
4.0
141
1.0
290
     0
  0
SCALE
  5
56
102
{ACAD_REACTORS
330
47
102
}
330
47
100
AcDbScale
 70
     0
300
8:1
140
8.0
141
1.0
290
     0
  0
SCALE
  5
57
102
{ACAD_REACTORS
330
47
102
}
330
47
100
AcDbScale
 70
     0
300
10:1
140
10.0
141
1.0
290
     0
  0
SCALE
  5
58
102
{ACAD_REACTORS
330
47
102
}
330
47
100
AcDbScale
 70
     0
300
100:1
140
100.0
141
1.0
290
     0
  0
SCALE
  5
59
102
{ACAD_REACTORS
330
47
102
}
330
47
100
AcDbScale
 70
     0
300
1/128" = 1'-0"
140
0.0078125
141
12.0
290
     0
  0
SCALE
  5
5A
102
{ACAD_REACTORS
330
47
102
}
330
47
100
AcDbScale
 70
     0
300
1/64" = 1'-0"
140
0.015625
141
12.0
290
     0
  0
SCALE
  5
5B
102
{ACAD_REACTORS
330
47
102
}
330
47
100
AcDbScale
 70
     0
300
1/32" = 1'-0"
140
0.03125
141
12.0
290
     0
  0
SCALE
  5
5C
102
{ACAD_REACTORS
330
47
102
}
330
47
100
AcDbScale
 70
     0
300
1/16" = 1'-0"
140
0.0625
141
12.0
290
     0
  0
SCALE
  5
5D
102
{ACAD_REACTORS
330
47
102
}
330
47
100
AcDbScale
 70
     0
300
3/32" = 1'-0"
140
0.09375
141
12.0
290
     0
  0
SCALE
  5
5E
102
{ACAD_REACTORS
330
47
102
}
330
47
100
AcDbScale
 70
     0
300
1/8" = 1'-0"
140
0.125
141
12.0
290
     0
  0
SCALE
  5
5F
102
{ACAD_REACTORS
330
47
102
}
330
47
100
AcDbScale
 70
     0
300
3/16" = 1'-0"
140
0.1875
141
12.0
290
     0
  0
SCALE
  5
60
102
{ACAD_REACTORS
330
47
102
}
330
47
100
AcDbScale
 70
     0
300
1/4" = 1'-0"
140
0.25
141
12.0
290
     0
  0
SCALE
  5
61
102
{ACAD_REACTORS
330
47
102
}
330
47
100
AcDbScale
 70
     0
300
3/8" = 1'-0"
140
0.375
141
12.0
290
     0
  0
SCALE
  5
62
102
{ACAD_REACTORS
330
47
102
}
330
47
100
AcDbScale
 70
     0
300
1/2" = 1'-0"
140
0.5
141
12.0
290
     0
  0
SCALE
  5
63
102
{ACAD_REACTORS
330
47
102
}
330
47
100
AcDbScale
 70
     0
300
3/4" = 1'-0"
140
0.75
141
12.0
290
     0
  0
SCALE
  5
64
102
{ACAD_REACTORS
330
47
102
}
330
47
100
AcDbScale
 70
     0
300
1" = 1'-0"
140
1.0
141
12.0
290
     0
  0
SCALE
  5
65
102
{ACAD_REACTORS
330
47
102
}
330
47
100
AcDbScale
 70
     0
300
1-1/2" = 1'-0"
140
1.5
141
12.0
290
     0
  0
SCALE
  5
66
102
{ACAD_REACTORS
330
47
102
}
330
47
100
AcDbScale
 70
     0
300
3" = 1'-0"
140
3.0
141
12.0
290
     0
  0
SCALE
  5
67
102
{ACAD_REACTORS
330
47
102
}
330
47
100
AcDbScale
 70
     0
300
6" = 1'-0"
140
6.0
141
12.0
290
     0
  0
SCALE
  5
68
102
{ACAD_REACTORS
330
47
102
}
330
47
100
AcDbScale
 70
     0
300
1'-0" = 1'-0"
140
12.0
141
12.0
290
     0
  0
ENDSEC
  0
EOF
