  0
SECTION
  2
HEADER
  9
$ACADVER
  1
AC1015
  9
$ACADMAINTVER
 70
     6
  9
$DWGCODEPAGE
  3
ANSI_949
  9
$INSBASE
 10
0.0
 20
0.0
 30
0.0
  9
$EXTMIN
 10
-66.94798559655074
 20
-40.35496904414202
 30
0.0
  9
$EXTMAX
 10
97.71826071788519
 20
59.93609778227561
 30
0.0
  9
$LIMMIN
 10
0.0
 20
0.0
  9
$LIMMAX
 10
420.0
 20
297.0
  9
$ORTHOMODE
 70
     0
  9
$REGENMODE
 70
     1
  9
$FILLMODE
 70
     1
  9
$QTEXTMODE
 70
     0
  9
$MIRRTEXT
 70
     1
  9
$LTSCALE
 40
1.0
  9
$ATTMODE
 70
     1
  9
$TEXTSIZE
 40
3.5
  9
$TRACEWID
 40
1.0
  9
$TEXTSTYLE
  7
Standard
  9
$CLAYER
  8
0
  9
$CELTYPE
  6
ByLayer
  9
$CECOLOR
 62
   256
  9
$CELTSCALE
 40
1.0
  9
$DISPSILH
 70
     0
  9
$DIMSCALE
 40
1.0
  9
$DIMASZ
 40
3.302
  9
$DIMEXO
 40
1.0
  9
$DIMDLI
 40
3.75
  9
$DIMRND
 40
0.0
  9
$DIMDLE
 40
0.0
  9
$DIMEXE
 40
1.0
  9
$DIMTP
 40
0.0
  9
$DIMTM
 40
0.0
  9
$DIMTXT
 40
3.5
  9
$DIMCEN
 40
2.5
  9
$DIMTSZ
 40
0.0
  9
$DIMTOL
 70
     0
  9
$DIMLIM
 70
     0
  9
$DIMTIH
 70
     1
  9
$DIMTOH
 70
     1
  9
$DIMSE1
 70
     0
  9
$DIMSE2
 70
     0
  9
$DIMTAD
 70
     1
  9
$DIMZIN
 70
     0
  9
$DIMBLK
  1

  9
$DIMASO
 70
     1
  9
$DIMSHO
 70
     1
  9
$DIMPOST
  1

  9
$DIMAPOST
  1

  9
$DIMALT
 70
     0
  9
$DIMALTD
 70
     3
  9
$DIMALTF
 40
0.0393700787401575
  9
$DIMLFAC
 40
1.0
  9
$DIMTOFL
 70
     1
  9
$DIMTVP
 40
0.0
  9
$DIMTIX
 70
     0
  9
$DIMSOXD
 70
     0
  9
$DIMSAH
 70
     0
  9
$DIMBLK1
  1

  9
$DIMBLK2
  1

  9
$DIMSTYLE
  2
ISO-25
  9
$DIMCLRD
 70
     0
  9
$DIMCLRE
 70
     0
  9
$DIMCLRT
 70
     0
  9
$DIMTFAC
 40
1.0
  9
$DIMGAP
 40
1.524
  9
$DIMJUST
 70
     0
  9
$DIMSD1
 70
     0
  9
$DIMSD2
 70
     0
  9
$DIMTOLJ
 70
     0
  9
$DIMTZIN
 70
     0
  9
$DIMALTZ
 70
     0
  9
$DIMALTTZ
 70
     0
  9
$DIMUPT
 70
     0
  9
$DIMDEC
 70
     2
  9
$DIMTDEC
 70
     2
  9
$DIMALTU
 70
     2
  9
$DIMALTTD
 70
     3
  9
$DIMTXSTY
  7
Standard
  9
$DIMAUNIT
 70
     0
  9
$DIMADEC
 70
     2
  9
$DIMALTRND
 40
0.0
  9
$DIMAZIN
 70
     0
  9
$DIMDSEP
 70
    44
  9
$DIMATFIT
 70
     3
  9
$DIMFRAC
 70
     0
  9
$DIMLDRBLK
  1

  9
$DIMLUNIT
 70
     2
  9
$DIMLWD
 70
    -2
  9
$DIMLWE
 70
    -2
  9
$DIMTMOVE
 70
     0
  9
$LUNITS
 70
     2
  9
$LUPREC
 70
     2
  9
$SKETCHINC
 40
1.0
  9
$FILLETRAD
 40
10.0
  9
$AUNITS
 70
     0
  9
$AUPREC
 70
     2
  9
$MENU
  1
.
  9
$ELEVATION
 40
0.0
  9
$PELEVATION
 40
0.0
  9
$THICKNESS
 40
0.0
  9
$LIMCHECK
 70
     0
  9
$CHAMFERA
 40
0.0
  9
$CHAMFERB
 40
0.0
  9
$CHAMFERC
 40
0.0
  9
$CHAMFERD
 40
0.0
  9
$SKPOLY
 70
     0
  9
$TDCREATE
 40
2458269.433765116
  9
$TDUCREATE
 40
2458269.058765116
  9
$TDUPDATE
 40
2458270.348909526
  9
$TDUUPDATE
 40
2458269.973909526
  9
$TDINDWG
 40
0.0025076505
  9
$TDUSRTIMER
 40
2458269.971401991
  9
$USRTIMER
 70
     1
  9
$ANGBASE
 50
0.0
  9
$ANGDIR
 70
     0
  9
$PDMODE
 70
     0
  9
$PDSIZE
 40
-1.0
  9
$PLINEWID
 40
0.0
  9
$SPLFRAME
 70
     0
  9
$SPLINETYPE
 70
     6
  9
$SPLINESEGS
 70
     8
  9
$HANDSEED
  5
175
  9
$SURFTAB1
 70
     6
  9
$SURFTAB2
 70
     6
  9
$SURFTYPE
 70
     6
  9
$SURFU
 70
     6
  9
$SURFV
 70
     6
  9
$UCSBASE
  2

  9
$UCSNAME
  2

  9
$UCSORG
 10
0.0
 20
0.0
 30
0.0
  9
$UCSXDIR
 10
1.0
 20
0.0
 30
0.0
  9
$UCSYDIR
 10
0.0
 20
1.0
 30
0.0
  9
$UCSORTHOREF
  2

  9
$UCSORTHOVIEW
 70
     0
  9
$UCSORGTOP
 10
0.0
 20
0.0
 30
0.0
  9
$UCSORGBOTTOM
 10
0.0
 20
0.0
 30
0.0
  9
$UCSORGLEFT
 10
0.0
 20
0.0
 30
0.0
  9
$UCSORGRIGHT
 10
0.0
 20
0.0
 30
0.0
  9
$UCSORGFRONT
 10
0.0
 20
0.0
 30
0.0
  9
$UCSORGBACK
 10
0.0
 20
0.0
 30
0.0
  9
$PUCSBASE
  2

  9
$PUCSNAME
  2

  9
$PUCSORG
 10
0.0
 20
0.0
 30
0.0
  9
$PUCSXDIR
 10
1.0
 20
0.0
 30
0.0
  9
$PUCSYDIR
 10
0.0
 20
1.0
 30
0.0
  9
$PUCSORTHOREF
  2

  9
$PUCSORTHOVIEW
 70
     0
  9
$PUCSORGTOP
 10
0.0
 20
0.0
 30
0.0
  9
$PUCSORGBOTTOM
 10
0.0
 20
0.0
 30
0.0
  9
$PUCSORGLEFT
 10
0.0
 20
0.0
 30
0.0
  9
$PUCSORGRIGHT
 10
0.0
 20
0.0
 30
0.0
  9
$PUCSORGFRONT
 10
0.0
 20
0.0
 30
0.0
  9
$PUCSORGBACK
 10
0.0
 20
0.0
 30
0.0
  9
$USERI1
 70
     0
  9
$USERI2
 70
     0
  9
$USERI3
 70
     0
  9
$USERI4
 70
     0
  9
$USERI5
 70
     0
  9
$USERR1
 40
0.0
  9
$USERR2
 40
0.0
  9
$USERR3
 40
0.0
  9
$USERR4
 40
0.0
  9
$USERR5
 40
0.0
  9
$WORLDVIEW
 70
     1
  9
$SHADEDGE
 70
     3
  9
$SHADEDIF
 70
    70
  9
$TILEMODE
 70
     1
  9
$MAXACTVP
 70
    64
  9
$PINSBASE
 10
0.0
 20
0.0
 30
0.0
  9
$PLIMCHECK
 70
     0
  9
$PEXTMIN
 10
1.000000000000000E+20
 20
1.000000000000000E+20
 30
1.000000000000000E+20
  9
$PEXTMAX
 10
-1.000000000000000E+20
 20
-1.000000000000000E+20
 30
-1.000000000000000E+20
  9
$PLIMMIN
 10
0.0
 20
0.0
  9
$PLIMMAX
 10
0.0
 20
0.0
  9
$UNITMODE
 70
     0
  9
$VISRETAIN
 70
     1
  9
$PLINEGEN
 70
     0
  9
$PSLTSCALE
 70
     1
  9
$TREEDEPTH
 70
  3020
  9
$CMLSTYLE
  2
Standard
  9
$CMLJUST
 70
     0
  9
$CMLSCALE
 40
20.0
  9
$PROXYGRAPHICS
 70
     1
  9
$MEASUREMENT
 70
     1
  9
$CELWEIGHT
370
    -1
  9
$ENDCAPS
280
     0
  9
$JOINSTYLE
280
     0
  9
$LWDISPLAY
290
     1
  9
$INSUNITS
 70
     4
  9
$HYPERLINKBASE
  1

  9
$STYLESHEET
  1

  9
$XEDIT
290
     1
  9
$CEPSNTYPE
380
     0
  9
$PSTYLEMODE
290
     1
  9
$FINGERPRINTGUID
  2
{0E2F4933-9084-4FC9-B6C2-F215BACA373E}
  9
$VERSIONGUID
  2
{FAEB1C32-E019-11D5-929B-00C0DF256EC4}
  9
$EXTNAMES
290
     1
  9
$PSVPSCALE
 40
0.0
  9
$OLESTARTUP
290
     0
  0
ENDSEC
  0
SECTION
  2
CLASSES
  0
CLASS
  1
ACDBDICTIONARYWDFLT
  2
AcDbDictionaryWithDefault
  3
ObjectDBX Classes
 90
        0
280
     0
281
     0
  0
CLASS
  1
VISUALSTYLE
  2
AcDbVisualStyle
  3
ObjectDBX Classes
 90
     4095
280
     0
281
     0
  0
CLASS
  1
MATERIAL
  2
AcDbMaterial
  3
ObjectDBX Classes
 90
     1153
280
     0
281
     0
  0
CLASS
  1
SCALE
  2
AcDbScale
  3
ObjectDBX Classes
 90
     1153
280
     0
281
     0
  0
CLASS
  1
SUN
  2
AcDbSun
  3
SCENEOE
 90
     1153
280
     0
281
     0
  0
CLASS
  1
ACDBPLACEHOLDER
  2
AcDbPlaceHolder
  3
ObjectDBX Classes
 90
        0
280
     0
281
     0
  0
CLASS
  1
LAYOUT
  2
AcDbLayout
  3
ObjectDBX Classes
 90
        0
280
     0
281
     0
  0
CLASS
  1
TABLESTYLE
  2
AcDbTableStyle
  3
ObjectDBX Classes
 90
     4095
280
     0
281
     0
  0
CLASS
  1
MLEADERSTYLE
  2
AcDbMLeaderStyle
  3
ACDB_MLEADERSTYLE_CLASS
 90
     4095
280
     0
281
     0
  0
CLASS
  1
RASTERVARIABLES
  2
AcDbRasterVariables
  3
ISM
 90
        0
280
     0
281
     0
  0
CLASS
  1
DIMASSOC
  2
AcDbDimAssoc
  3
"AcDbDimAssoc|Product Desc:     AcDim ARX App For Dimension|Company:          Autodesk, Inc.|WEB Address:      www.autodesk.com"
 90
        0
280
     0
281
     0
  0
ENDSEC
  0
SECTION
  2
TABLES
  0
TABLE
  2
VPORT
  5
8
330
0
100
AcDbSymbolTable
 70
     1
  0
VPORT
  5
29
330
8
100
AcDbSymbolTableRecord
100
AcDbViewportTableRecord
  2
*Active
 70
     0
 10
0.0
 20
0.0
 11
1.0
 21
1.0
 12
33.55588809470825
 22
4.010880263312506
 13
0.0
 23
0.0
 14
10.0
 24
10.0
 15
10.0
 25
10.0
 16
0.0
 26
0.0
 36
1.0
 17
0.0
 27
0.0
 37
0.0
 40
151.0378448748561
 41
1.970186335403727
 42
50.0
 43
0.0
 44
0.0
 50
0.0
 51
0.0
 71
    16
 72
  2000
 73
     1
 74
     3
 75
     0
 76
     0
 77
     0
 78
     0
281
     0
 65
     1
110
0.0
120
0.0
130
0.0
111
1.0
121
0.0
131
0.0
112
0.0
122
1.0
132
0.0
 79
     0
146
0.0
  0
ENDTAB
  0
TABLE
  2
LTYPE
  5
5
330
0
100
AcDbSymbolTable
 70
     6
  0
LTYPE
  5
14
330
5
100
AcDbSymbolTableRecord
100
AcDbLinetypeTableRecord
  2
ByBlock
 70
     0
  3

 72
    65
 73
     0
 40
0.0
  0
LTYPE
  5
15
330
5
100
AcDbSymbolTableRecord
100
AcDbLinetypeTableRecord
  2
ByLayer
 70
     0
  3

 72
    65
 73
     0
 40
0.0
  0
LTYPE
  5
16
330
5
100
AcDbSymbolTableRecord
100
AcDbLinetypeTableRecord
  2
Continuous
 70
     0
  3
Solid line
 72
    65
 73
     0
 40
0.0
  0
LTYPE
  5
6A
330
5
100
AcDbSymbolTableRecord
100
AcDbLinetypeTableRecord
  2
HIDDEN
 70
     0
  3
Hidden __ __ __ __ __ __ __ __ __ __ __ __ __ __
 72
    65
 73
     2
 40
1.905
 49
1.27
 74
     0
 49
-0.635
 74
     0
  0
LTYPE
  5
6B
330
5
100
AcDbSymbolTableRecord
100
AcDbLinetypeTableRecord
  2
PHANTOM
 70
     0
  3
Phantom ______  __  __  ______  __  __  ______
 72
    65
 73
     6
 40
12.7
 49
6.35
 74
     0
 49
-1.27
 74
     0
 49
1.27
 74
     0
 49
-1.27
 74
     0
 49
1.27
 74
     0
 49
-1.27
 74
     0
  0
LTYPE
  5
6C
330
5
100
AcDbSymbolTableRecord
100
AcDbLinetypeTableRecord
  2
CENTER
 70
     0
  3
Center ____ _ ____ _ ____ _ ____ _ ____ _ ____
 72
    65
 73
     4
 40
10.16
 49
6.35
 74
     0
 49
-1.27
 74
     0
 49
1.27
 74
     0
 49
-1.27
 74
     0
  0
LTYPE
  5
6D
330
5
100
AcDbSymbolTableRecord
100
AcDbLinetypeTableRecord
  2
CENTERX2
 70
     0
  3
Center (2x) ________  __  ________  __  _____
 72
    65
 73
     4
 40
20.32
 49
12.7
 74
     0
 49
-2.54
 74
     0
 49
2.54
 74
     0
 49
-2.54
 74
     0
  0
LTYPE
  5
6E
330
5
100
AcDbSymbolTableRecord
100
AcDbLinetypeTableRecord
  2
DOT2
 70
     0
  3
Dot (.5x) ........................................
 72
    65
 73
     2
 40
0.635
 49
0.0
 74
     0
 49
-0.635
 74
     0
  0
ENDTAB
  0
TABLE
  2
LAYER
  5
2
330
0
100
AcDbSymbolTable
 70
    17
  0
LAYER
  5
10
330
2
100
AcDbSymbolTableRecord
100
AcDbLayerTableRecord
  2
0
 70
     0
 62
     7
  6
Continuous
370
    -3
390
F
  0
LAYER
  5
6F
330
2
100
AcDbSymbolTableRecord
100
AcDbLayerTableRecord
  2
FORMAT
 70
     0
 62
     2
  6
Continuous
370
    -3
390
F
  0
LAYER
  5
70
330
2
100
AcDbSymbolTableRecord
100
AcDbLayerTableRecord
  2
외형선
 70
     0
 62
   100
  6
Continuous
370
    30
390
F
  0
LAYER
  5
71
330
2
100
AcDbSymbolTableRecord
100
AcDbLayerTableRecord
  2
숨은선
 70
     0
 62
     2
  6
HIDDEN
370
    15
390
F
  0
LAYER
  5
72
330
2
100
AcDbSymbolTableRecord
100
AcDbLayerTableRecord
  2
중심선
 70
     0
 62
     1
  6
CENTERX2
370
    -3
390
F
  0
LAYER
  5
73
330
2
100
AcDbSymbolTableRecord
100
AcDbLayerTableRecord
  2
파단선
 70
     0
 62
     4
  6
Continuous
370
    -3
390
F
  0
LAYER
  5
74
330
2
100
AcDbSymbolTableRecord
100
AcDbLayerTableRecord
  2
해칭선
 70
     0
 62
     4
  6
Continuous
370
    -3
390
F
  0
LAYER
  5
75
330
2
100
AcDbSymbolTableRecord
100
AcDbLayerTableRecord
  2
가는실선
 70
     0
 62
     4
  6
Continuous
370
    -3
390
F
  0
LAYER
  5
76
330
2
100
AcDbSymbolTableRecord
100
AcDbLayerTableRecord
  2
치수_보조선
 70
     0
 62
     4
  6
Continuous
370
    -3
390
F
  0
LAYER
  5
77
330
2
100
AcDbSymbolTableRecord
100
AcDbLayerTableRecord
  2
치수문자_일반주서
 70
     0
 62
     7
  6
Continuous
370
    15
390
F
  0
LAYER
  5
78
330
2
100
AcDbSymbolTableRecord
100
AcDbLayerTableRecord
  2
개별주서
 70
     0
 62
   100
  6
Continuous
370
    30
390
F
  0
LAYER
  5
79
330
2
100
AcDbSymbolTableRecord
100
AcDbLayerTableRecord
  2
중간선
 70
     0
 62
     2
  6
Continuous
370
    15
390
F
  0
LAYER
  5
7A
330
2
100
AcDbSymbolTableRecord
100
AcDbLayerTableRecord
  2
윤곽선
 70
     0
 62
     3
  6
Continuous
370
    40
390
F
  0
LAYER
  5
7B
330
2
100
AcDbSymbolTableRecord
100
AcDbLayerTableRecord
  2
중심마크
 70
     0
 62
   100
  6
Continuous
370
    30
390
F
  0
LAYER
  5
7C
330
2
100
AcDbSymbolTableRecord
100
AcDbLayerTableRecord
  2
가상선
 70
     0
 62
     4
  6
PHANTOM
370
    -3
390
F
  0
LAYER
  5
7D
330
2
100
AcDbSymbolTableRecord
100
AcDbLayerTableRecord
  2
특수지정선
 70
     0
 62
     5
  6
CENTERX2
370
    60
390
F
  0
LAYER
  5
13A
330
2
100
AcDbSymbolTableRecord
100
AcDbLayerTableRecord
  2
Defpoints
 70
     0
 62
     7
  6
Continuous
290
     0
370
    -3
390
F
  0
ENDTAB
  0
TABLE
  2
STYLE
  5
3
330
0
100
AcDbSymbolTable
 70
     2
  0
STYLE
  5
11
330
3
100
AcDbSymbolTableRecord
100
AcDbTextStyleTableRecord
  2
Standard
 70
     0
 40
0.0
 41
1.0
 50
0.0
 71
     0
 42
3.5
  3
txt
  4

  0
STYLE
  5
93
330
3
100
AcDbSymbolTableRecord
100
AcDbTextStyleTableRecord
  2
SLDTEXTSTYLE0
 70
     0
 40
0.0
 41
0.75
 50
0.0
 71
     0
 42
3.5
  3
TXT
  4

  0
ENDTAB
  0
TABLE
  2
VIEW
  5
6
330
0
100
AcDbSymbolTable
 70
     0
  0
ENDTAB
  0
TABLE
  2
UCS
  5
7
330
0
100
AcDbSymbolTable
 70
     0
  0
ENDTAB
  0
TABLE
  2
APPID
  5
9
330
0
100
AcDbSymbolTable
 70
     3
  0
APPID
  5
12
330
9
100
AcDbSymbolTableRecord
100
AcDbRegAppTableRecord
  2
ACAD
 70
     0
  0
APPID
  5
163
330
9
100
AcDbSymbolTableRecord
100
AcDbRegAppTableRecord
  2
ACAD_DSTYLE_DIMRADIAL_EXTENSION
 70
     0
  0
APPID
  5
173
330
9
100
AcDbSymbolTableRecord
100
AcDbRegAppTableRecord
  2
PE_DIMMEASUREMENT
 70
     0
  0
ENDTAB
  0
TABLE
  2
DIMSTYLE
  5
A
330
0
100
AcDbSymbolTable
 70
     4
100
AcDbDimStyleTable
  0
DIMSTYLE
105
27
330
A
100
AcDbSymbolTableRecord
100
AcDbDimStyleTableRecord
  2
ISO-25
 70
     0
 41
2.5
 42
0.625
 43
3.75
 44
1.25
 73
     0
 74
     0
 77
     1
 78
     8
140
2.5
141
2.5
143
0.03937007874016
147
0.625
171
     3
172
     1
178
     0
271
     2
272
     2
274
     3
278
    44
283
     0
284
     8
340
11
  0
DIMSTYLE
105
D7
102
{ACAD_REACTORS
330
D6
330
164
330
152
102
}
330
A
100
AcDbSymbolTableRecord
100
AcDbDimStyleTableRecord
  2
SLDDIMSTYLE0
 70
     0
 41
3.302
 44
0.0
 45
0.000000001
 73
     0
 74
     0
 77
     1
 78
     4
 79
     1
140
3.5
143
0.0393700787401575
147
0.875
148
0.000000001
170
     1
173
     1
178
     0
271
     2
272
     2
276
     2
284
    12
340
93
  0
DIMSTYLE
105
EB
102
{ACAD_REACTORS
330
EA
330
13B
102
}
330
A
100
AcDbSymbolTableRecord
100
AcDbDimStyleTableRecord
  2
SLDDIMSTYLE1
 70
     0
 41
3.302
 44
0.0
 45
0.000000001
 73
     0
 74
     0
 77
     1
 78
    12
 79
     3
140
3.5
143
0.0393700787401575
147
0.875
148
0.000000001
170
     1
173
     1
178
     0
271
     2
272
     2
276
     2
284
    12
340
93
  0
DIMSTYLE
105
FF
330
A
100
AcDbSymbolTableRecord
100
AcDbDimStyleTableRecord
  2
SLDDIMSTYLE2
 70
     0
 41
3.302
 44
0.0
 45
0.000000001
 73
     0
 74
     0
 77
     1
 78
     8
 79
     2
140
3.5
143
0.0393700787401575
147
0.875
148
0.000000001
170
     1
172
     1
173
     1
178
     0
271
     2
272
     2
276
     2
284
    12
289
     0
340
93
341
100
343
100
344
100
  0
ENDTAB
  0
TABLE
  2
BLOCK_RECORD
  5
1
330
0
100
AcDbSymbolTable
 70
    10
  0
BLOCK_RECORD
  5
1F
330
1
100
AcDbSymbolTableRecord
100
AcDbBlockTableRecord
  2
*Model_Space
340
22
  0
BLOCK_RECORD
  5
1B
330
1
100
AcDbSymbolTableRecord
100
AcDbBlockTableRecord
  2
*Paper_Space
340
1E
  0
BLOCK_RECORD
  5
23
330
1
100
AcDbSymbolTableRecord
100
AcDbBlockTableRecord
  2
*Paper_Space0
340
26
  0
BLOCK_RECORD
  5
7E
330
1
100
AcDbSymbolTableRecord
100
AcDbBlockTableRecord
  2
블럭10
340
0
102
{BLKREFS
331
CE
102
}
  0
BLOCK_RECORD
  5
D8
330
1
100
AcDbSymbolTableRecord
100
AcDbBlockTableRecord
  2
_D
340
0
  0
BLOCK_RECORD
  5
EC
330
1
100
AcDbSymbolTableRecord
100
AcDbBlockTableRecord
  2
_D_1
340
0
  0
BLOCK_RECORD
  5
100
330
1
100
AcDbSymbolTableRecord
100
AcDbBlockTableRecord
  2
_NONE
340
0
  0
BLOCK_RECORD
  5
103
330
1
100
AcDbSymbolTableRecord
100
AcDbBlockTableRecord
  2
_D_2
340
0
  0
BLOCK_RECORD
  5
10F
330
1
100
AcDbSymbolTableRecord
100
AcDbBlockTableRecord
  2
SW_DOWELSYMBOL_0
340
0
102
{BLKREFS
331
115
102
}
  0
BLOCK_RECORD
  5
13E
330
1
100
AcDbSymbolTableRecord
100
AcDbBlockTableRecord
  2
*D7
340
0
  0
BLOCK_RECORD
  5
155
330
1
100
AcDbSymbolTableRecord
100
AcDbBlockTableRecord
  2
*D8
340
0
  0
BLOCK_RECORD
  5
167
330
1
100
AcDbSymbolTableRecord
100
AcDbBlockTableRecord
  2
*D9
340
0
  0
ENDTAB
  0
ENDSEC
  0
SECTION
  2
BLOCKS
  0
BLOCK
  5
20
330
1F
100
AcDbEntity
  8
0
100
AcDbBlockBegin
  2
*Model_Space
 70
     0
 10
0.0
 20
0.0
 30
0.0
  3
*Model_Space
  1
*Model_Space
  0
ENDBLK
  5
21
330
1F
100
AcDbEntity
  8
0
100
AcDbBlockEnd
  0
BLOCK
  5
1C
330
1B
100
AcDbEntity
 67
     1
  8
0
100
AcDbBlockBegin
  2
*Paper_Space
 70
     0
 10
0.0
 20
0.0
 30
0.0
  3
*Paper_Space
  1
*Paper_Space
  0
ENDBLK
  5
1D
330
1B
100
AcDbEntity
 67
     1
  8
0
100
AcDbBlockEnd
  0
BLOCK
  5
24
330
23
100
AcDbEntity
  8
0
100
AcDbBlockBegin
  2
*Paper_Space0
 70
     0
 10
0.0
 20
0.0
 30
0.0
  3
*Paper_Space0
  1
*Paper_Space0
  0
ENDBLK
  5
25
330
23
100
AcDbEntity
  8
0
100
AcDbBlockEnd
  0
BLOCK
  5
7F
330
7E
100
AcDbEntity
  8
0
100
AcDbBlockBegin
  2
블럭10
 70
     2
 10
0.0
 20
0.0
 30
0.0
  3
블럭10
  1
블럭10
  0
ELLIPSE
  5
81
330
7E
100
AcDbEntity
  8
중심선
100
AcDbEllipse
 10
20.54032771741204
 20
12.0471743016438
 30
0.0
 11
6.600054785286829
 21
-1.261213355974178E-13
 31
0.0
210
0.0
220
0.0
230
1.0
 40
0.636358354079598
 41
0.9219305317359503
 42
6.513795318482858
  0
ELLIPSE
  5
82
330
7E
100
AcDbEntity
  8
중심선
100
AcDbEllipse
 10
20.54032771746488
 20
12.04717430159265
 30
0.0
 11
3.960054785062283
 21
1.540847449632565E-10
 31
0.0
210
0.0
220
0.0
230
1.0
 40
0.3939339440162632
 41
1.131841032648279
 42
5.62031148352944
  0
LINE
  5
83
330
7E
100
AcDbEntity
  8
중심선
100
AcDbLine
 10
2.268634060543552
 20
16.24717430164393
 30
0.0
 11
5.714909304380834
 21
16.24717430164393
 31
0.0
  0
LINE
  5
84
330
7E
100
AcDbEntity
  8
중심선
100
AcDbLine
 10
5.245725140726316
 20
7.84717430164391
 30
0.0
 11
8.692000384563599
 21
7.84717430164391
 31
0.0
  0
LINE
  5
85
330
7E
100
AcDbEntity
  8
중심선
100
AcDbLine
 10
15.74043728645272
 20
16.24717430164393
 30
0.0
 11
8.692000384563599
 21
7.84717430164391
 31
0.0
  0
LINE
  5
86
330
7E
100
AcDbEntity
  8
중심선
100
AcDbLine
 10
0.1404042013395286
 20
13.71084872107135
 30
0.0
 11
3.58671253028996
 21
13.71088815037384
 31
0.0
  0
LINE
  5
87
330
7E
100
AcDbEntity
  8
중심선
100
AcDbLine
 10
2.750260043222114
 20
10.84717430164391
 30
0.0
 11
6.196535287059397
 21
10.84717430164391
 31
0.0
  0
LINE
  5
88
330
7E
100
AcDbEntity
  8
중심선
100
AcDbLine
 10
12.29416204261559
 20
16.24717430164393
 30
0.0
 11
5.245725140726316
 21
7.84717430164391
 31
0.0
  0
LINE
  5
89
330
7E
100
AcDbEntity
  8
중심선
100
AcDbLine
 10
10.72767329541681
 20
16.24717430164393
 30
0.0
 11
6.196535287059397
 21
10.84717430164391
 31
0.0
  0
LINE
  5
8A
330
7E
100
AcDbEntity
  8
중심선
100
AcDbLine
 10
7.28139805157953
 20
16.24717430164393
 30
0.0
 11
2.750260043222114
 21
10.84717430164391
 31
0.0
  0
LINE
  5
8B
330
7E
100
AcDbEntity
  8
중심선
100
AcDbLine
 10
5.714909304380834
 20
16.24717430164393
 30
0.0
 11
3.58671253028996
 21
13.71088815037384
 31
0.0
  0
LINE
  5
8C
330
7E
100
AcDbEntity
  8
중심선
100
AcDbLine
 10
2.268634060543552
 20
16.24717430164393
 30
0.0
 11
0.1404042013395286
 21
13.71084872107135
 31
0.0
  0
LINE
  5
8D
330
7E
100
AcDbEntity
  8
중심선
100
AcDbLine
 10
7.28139805157953
 20
16.24717430164393
 30
0.0
 11
10.72767329541681
 21
16.24717430164393
 31
0.0
  0
LINE
  5
8E
330
7E
100
AcDbEntity
  8
중심선
100
AcDbLine
 10
12.29416204261559
 20
16.24717430164393
 30
0.0
 11
15.74043728645272
 21
16.24717430164393
 31
0.0
  0
LINE
  5
8F
330
7E
100
AcDbEntity
  8
중심선
100
AcDbLine
 10
19.22036997980202
 20
11.08717430171403
 30
0.0
 11
23.66174974927406
 21
11.08717430171406
 31
0.0
  0
LINE
  5
90
330
7E
100
AcDbEntity
  8
중심선
100
AcDbLine
 10
19.22039502424796
 20
13.00717430171391
 30
0.0
 11
19.22036997980202
 21
11.08717430171403
 31
0.0
  0
LINE
  5
91
330
7E
100
AcDbEntity
  8
중심선
100
AcDbLine
 10
19.22039502424796
 20
13.00717430171391
 30
0.0
 11
26.96566020931264
 21
13.00717430171391
 31
0.0
  0
LINE
  5
92
330
7E
100
AcDbEntity
  8
중심선
100
AcDbLine
 10
22.22332737316547
 20
13.45928029700563
 30
0.0
 11
24.52862924686651
 21
15.39360700705356
 31
0.0
  0
ATTDEF
  5
94
330
7E
100
AcDbEntity
  8
FORMAT
 62
     2
100
AcDbText
 10
-9.18129528874128
 20
2.075366912832191
 30
0.0
 40
4.233333333333333
  1
E5984902 [ 3 FLUTE ]
 41
0.75
  7
SLDTEXTSTYLE0
 11
-9.18129528874128
 21
-0.0412997538344756
 31
0.0
100
AcDbAttributeDefinition
  3

  2
AUTOATTR0
 70
     0
 74
     1
  0
ENDBLK
  5
80
330
7E
100
AcDbEntity
  8
0
100
AcDbBlockEnd
  0
BLOCK
  5
D9
330
D8
100
AcDbEntity
  8
0
100
AcDbBlockBegin
  2
_D
 70
     0
 10
0.0
 20
0.0
 30
0.0
  3
_D
  1
_D
  0
LINE
  5
DB
330
D8
100
AcDbEntity
  8
치수문자_일반주서
 62
     0
370
    -2
100
AcDbLine
 10
75.4237221329842
 20
8.000000000000002
 30
0.0
 11
75.4237221329842
 21
25.18392871963101
 31
0.0
  0
LINE
  5
DC
330
D8
100
AcDbEntity
  8
치수문자_일반주서
 62
     0
370
    -2
100
AcDbLine
 10
11.92372213298416
 20
8.000000000000002
 30
0.0
 11
11.92372213298416
 21
25.18392871963101
 31
0.0
  0
LINE
  5
DD
330
D8
100
AcDbEntity
  8
치수문자_일반주서
 62
     0
370
    -2
100
AcDbLine
 10
72.12172213298419
 20
25.18392871963101
 30
0.0
 11
15.22572213298416
 21
25.18392871963101
 31
0.0
  0
SOLID
  5
DE
330
D8
100
AcDbEntity
  8
치수문자_일반주서
 62
     0
100
AcDbTrace
 10
72.12172213298419
 20
24.63359538629768
 30
0.0
 11
72.12172213298419
 21
25.73426205296435
 31
0.0
 12
75.4237221329842
 22
25.18392871963101
 32
0.0
 13
75.4237221329842
 23
25.18392871963101
 33
0.0
  0
SOLID
  5
DF
330
D8
100
AcDbEntity
  8
치수문자_일반주서
 62
     0
100
AcDbTrace
 10
15.22572213298416
 20
25.73426205296435
 30
0.0
 11
15.22572213298416
 21
24.63359538629768
 31
0.0
 12
11.92372213298416
 22
25.18392871963101
 32
0.0
 13
11.92372213298416
 23
25.18392871963101
 33
0.0
  0
MTEXT
  5
E0
330
D8
100
AcDbEntity
  8
치수문자_일반주서
 62
     0
100
AcDbMText
 10
43.67372213298415
 20
29.55892871963101
 30
0.0
 40
3.5
 41
0.0
 71
     2
 72
     1
  1
\A1;63.50 [2 1/2]
  7
SLDTEXTSTYLE0
 73
     1
 44
1.0
  0
POINT
  5
E1
330
D8
100
AcDbEntity
  8
Defpoints
 62
     0
100
AcDbPoint
 10
75.4237221329842
 20
7.937500000000002
 30
0.0
  0
POINT
  5
E2
330
D8
100
AcDbEntity
  8
Defpoints
 62
     0
100
AcDbPoint
 10
11.92372213298416
 20
7.937500000000002
 30
0.0
  0
POINT
  5
E3
330
D8
100
AcDbEntity
  8
Defpoints
 62
     0
100
AcDbPoint
 10
11.92372213298416
 20
25.18392871963101
 30
0.0
  0
ENDBLK
  5
DA
330
D8
100
AcDbEntity
  8
0
100
AcDbBlockEnd
  0
BLOCK
  5
ED
330
EC
100
AcDbEntity
  8
0
100
AcDbBlockBegin
  2
_D_1
 70
     0
 10
0.0
 20
0.0
 30
0.0
  3
_D_1
  1
_D_1
  0
LINE
  5
EF
330
EC
100
AcDbEntity
  8
치수문자_일반주서
 62
     0
370
    -2
100
AcDbLine
 10
75.4237221329842
 20
8.062500000000002
 30
0.0
 11
75.4237221329842
 21
55.56109778227561
 31
0.0
  0
LINE
  5
F0
330
EC
100
AcDbEntity
  8
치수문자_일반주서
 62
     0
370
    -2
100
AcDbLine
 10
-51.57627786701583
 20
7.499999999999997
 30
0.0
 11
-51.57627786701583
 21
55.56109778227561
 31
0.0
  0
LINE
  5
F1
330
EC
100
AcDbEntity
  8
치수문자_일반주서
 62
     0
370
    -2
100
AcDbLine
 10
72.12172213298419
 20
55.56109778227561
 30
0.0
 11
-48.27427786701583
 21
55.56109778227561
 31
0.0
  0
SOLID
  5
F2
330
EC
100
AcDbEntity
  8
치수문자_일반주서
 62
     0
100
AcDbTrace
 10
72.12172213298419
 20
55.01076444894228
 30
0.0
 11
72.12172213298419
 21
56.11143111560894
 31
0.0
 12
75.4237221329842
 22
55.56109778227561
 32
0.0
 13
75.4237221329842
 23
55.56109778227561
 33
0.0
  0
SOLID
  5
F3
330
EC
100
AcDbEntity
  8
치수문자_일반주서
 62
     0
100
AcDbTrace
 10
-48.27427786701583
 20
56.11143111560894
 30
0.0
 11
-48.27427786701583
 21
55.01076444894228
 31
0.0
 12
-51.57627786701583
 22
55.56109778227561
 32
0.0
 13
-51.57627786701583
 23
55.56109778227561
 33
0.0
  0
MTEXT
  5
F4
330
EC
100
AcDbEntity
  8
치수문자_일반주서
 62
     0
100
AcDbMText
 10
11.41656757052774
 20
59.93609778227561
 30
0.0
 40
3.5
 41
0.0
 71
     2
 72
     1
  1
\A1;127 [5]
  7
SLDTEXTSTYLE0
 73
     1
 44
1.0
  0
POINT
  5
F5
330
EC
100
AcDbEntity
  8
Defpoints
 62
     0
100
AcDbPoint
 10
75.4237221329842
 20
8.000000000000002
 30
0.0
  0
POINT
  5
F6
330
EC
100
AcDbEntity
  8
Defpoints
 62
     0
100
AcDbPoint
 10
-51.57627786701583
 20
7.437499999999997
 30
0.0
  0
POINT
  5
F7
330
EC
100
AcDbEntity
  8
Defpoints
 62
     0
100
AcDbPoint
 10
-51.57627786701583
 20
55.56109778227561
 30
0.0
  0
ENDBLK
  5
EE
330
EC
100
AcDbEntity
  8
0
100
AcDbBlockEnd
  0
BLOCK
  5
101
330
100
100
AcDbEntity
  8
0
100
AcDbBlockBegin
  2
_NONE
 70
     0
 10
0.0
 20
0.0
 30
0.0
  3
_NONE
  1
_NONE
  0
ENDBLK
  5
102
330
100
100
AcDbEntity
  8
0
100
AcDbBlockEnd
  0
BLOCK
  5
104
330
103
100
AcDbEntity
  8
0
100
AcDbBlockBegin
  2
_D_2
 70
     0
 10
0.0
 20
0.0
 30
0.0
  3
_D_2
  1
_D_2
  0
LINE
  5
106
330
103
100
AcDbEntity
  8
치수문자_일반주서
100
AcDbLine
 10
-74.2928817160427
 20
2.542809747667413
 30
0.0
 11
-74.2928817160427
 21
1.831872262102912
 31
0.0
  0
LINE
  5
107
330
103
100
AcDbEntity
  8
치수문자_일반주서
100
AcDbLine
 10
-74.2928817160427
 20
1.831872262102912
 30
0.0
 11
-68.7366317249834
 21
1.831872262102951
 31
0.0
  0
LINE
  5
108
330
103
100
AcDbEntity
  8
치수문자_일반주서
100
AcDbLine
 10
-68.7366317249834
 20
1.831872262102951
 30
0.0
 11
-68.7366317249834
 21
2.542809747667452
 31
0.0
  0
LINE
  5
109
330
103
100
AcDbEntity
  8
치수문자_일반주서
100
AcDbLine
 10
-74.29288171604279
 20
13.37154260980467
 30
0.0
 11
-74.29288171604279
 21
14.08248009536917
 31
0.0
  0
LINE
  5
10A
330
103
100
AcDbEntity
  8
치수문자_일반주서
100
AcDbLine
 10
-74.29288171604279
 20
14.08248009536917
 30
0.0
 11
-68.73663172498348
 21
14.08248009536921
 31
0.0
  0
LINE
  5
10B
330
103
100
AcDbEntity
  8
치수문자_일반주서
100
AcDbLine
 10
-68.73663172498348
 20
14.08248009536921
 30
0.0
 11
-68.73663172498348
 21
13.37154260980471
 31
0.0
  0
MTEXT
  5
10C
330
103
100
AcDbEntity
  8
치수문자_일반주서
100
AcDbMText
 10
-73.24836863956232
 20
3.43148164827879
 30
0.0
 40
3.5
 41
0.0
 71
     1
 72
     1
  1
0.00
  7
SLDTEXTSTYLE0
 11
-7.044195017643634E-15
 21
1.0
 31
0.0
 73
     1
 44
1.0
  0
MTEXT
  5
10D
330
103
100
AcDbEntity
  8
치수문자_일반주서
100
AcDbMText
 10
-68.01173708920184
 20
4.024901766372317
 30
0.0
 40
3.5
 41
0.0
 71
     1
 72
     1
  1
%%c
  7
SLDTEXTSTYLE0
 11
-7.044195017643634E-15
 21
1.0
 31
0.0
 73
     1
 44
1.0
  0
MTEXT
  5
10E
330
103
100
AcDbEntity
  8
치수문자_일반주서
100
AcDbMText
 10
-68.01173708920189
 20
9.303339164746397
 30
0.0
 40
3.5
 41
0.0
 71
     1
 72
     1
  1
0
  7
SLDTEXTSTYLE0
 11
-7.044195017643634E-15
 21
1.0
 31
0.0
 73
     1
 44
1.0
  0
ENDBLK
  5
105
330
103
100
AcDbEntity
  8
0
100
AcDbBlockEnd
  0
BLOCK
  5
110
330
10F
100
AcDbEntity
  8
0
100
AcDbBlockBegin
  2
SW_DOWELSYMBOL_0
 70
     0
 10
0.0
 20
0.0
 30
0.0
  3
SW_DOWELSYMBOL_0
  1
SW_DOWELSYMBOL_0
  0
CIRCLE
  5
112
330
10F
100
AcDbEntity
  8
외형선
 62
     0
100
AcDbCircle
 10
0.0
 20
0.0
 30
0.0
 40
3.000000000000008
  0
HATCH
  5
113
330
10F
100
AcDbEntity
  8
0
  6
Continuous
 62
     0
370
    30
100
AcDbHatch
 10
0.0
 20
0.0
 30
0.0
210
0.0
220
0.0
230
1.0
  2
SOLID
 70
     1
 71
     0
 91
        1
 92
        0
 93
        3
 72
     2
 10
0.0000000000000104
 20
0.0
 40
3.000000000000008
 50
0.0
 51
90.0
 73
     1
 72
     1
 10
0.0000000000000104
 20
3.000000000000008
 11
0.0000000000000104
 21
0.0
 72
     1
 10
0.0000000000000104
 20
0.0
 11
3.000000000000019
 21
0.0
 97
        0
 75
     0
 76
     1
 98
        1
 10
0.0
 20
0.0
  0
HATCH
  5
114
330
10F
100
AcDbEntity
  8
0
  6
Continuous
 62
     0
370
    30
100
AcDbHatch
 10
0.0
 20
0.0
 30
0.0
210
0.0
220
0.0
230
1.0
  2
SOLID
 70
     1
 71
     0
 91
        1
 92
        0
 93
        3
 72
     2
 10
0.0000000000000104
 20
0.0
 40
3.000000000000008
 50
180.0
 51
270.0000000000008
 73
     1
 72
     1
 10
0.0000000000000104
 20
-3.000000000000008
 11
0.0000000000000104
 21
0.0
 72
     1
 10
0.0000000000000104
 20
0.0
 11
-2.999999999999998
 21
0.0
 97
        0
 75
     0
 76
     1
 98
        1
 10
0.0
 20
0.0
  0
ENDBLK
  5
111
330
10F
100
AcDbEntity
  8
0
100
AcDbBlockEnd
  0
BLOCK
  5
13F
330
13E
100
AcDbEntity
  8
0
100
AcDbBlockBegin
  2
*D7
 70
     1
 10
0.0
 20
0.0
 30
0.0
  3
*D7
  1
*D7
  0
LINE
  5
141
330
13E
100
AcDbEntity
  8
치수문자_일반주서
 62
     0
370
    -2
100
AcDbLine
 10
-51.13877786701583
 20
7.937499999999998
 30
0.0
 11
-62.57298559655074
 21
7.937499999999996
 31
0.0
  0
LINE
  5
142
330
13E
100
AcDbEntity
  8
치수문자_일반주서
 62
     0
370
    -2
100
AcDbLine
 10
-51.13877786701583
 20
-7.937499999999999
 30
0.0
 11
-62.57298559655074
 21
-7.937499999999996
 31
0.0
  0
LINE
  5
143
330
13E
100
AcDbEntity
  8
치수문자_일반주서
 62
     0
370
    -2
100
AcDbLine
 10
-62.57298559655074
 20
7.937499999999996
 30
0.0
 11
-62.57298559655074
 21
39.45824999999999
 31
0.0
  0
LINE
  5
144
330
13E
100
AcDbEntity
  8
치수문자_일반주서
 62
     0
370
    -2
100
AcDbLine
 10
-62.57298559655074
 20
4.635499999999997
 30
0.0
 11
-62.57298559655074
 21
-4.635499999999997
 31
0.0
  0
SOLID
  5
145
330
13E
100
AcDbEntity
  8
치수문자_일반주서
 62
     0
100
AcDbTrace
 10
-62.0226522632174
 20
4.635499999999997
 30
0.0
 11
-63.12331892988407
 21
4.635499999999997
 31
0.0
 12
-62.57298559655074
 22
7.937499999999996
 32
0.0
 13
-62.57298559655074
 23
7.937499999999996
 33
0.0
  0
SOLID
  5
146
330
13E
100
AcDbEntity
  8
치수문자_일반주서
 62
     0
100
AcDbTrace
 10
-63.12331892988407
 20
-4.635499999999997
 30
0.0
 11
-62.0226522632174
 21
-4.635499999999997
 31
0.0
 12
-62.57298559655074
 22
-7.937499999999996
 32
0.0
 13
-62.57298559655074
 23
-7.937499999999996
 33
0.0
  0
MTEXT
  5
147
330
13E
100
AcDbEntity
  8
치수문자_일반주서
 62
     0
100
AcDbMText
 10
-65.19798559655074
 20
25.45825
 30
0.0
 40
3.5
 41
0.0
 71
     5
 72
     1
  1
\A1;{Ø15.88 [5/8]}
  7
SLDTEXTSTYLE0
 11
0.0
 21
1.0
 31
0.0
 73
     1
 44
1.0
  0
POINT
  5
148
330
13E
100
AcDbEntity
  8
Defpoints
 62
     0
100
AcDbPoint
 10
-51.07627786701583
 20
7.937499999999998
 30
0.0
  0
POINT
  5
149
330
13E
100
AcDbEntity
  8
Defpoints
 62
     0
100
AcDbPoint
 10
-51.07627786701583
 20
-7.937499999999999
 30
0.0
  0
POINT
  5
14A
330
13E
100
AcDbEntity
  8
Defpoints
 62
     0
100
AcDbPoint
 10
-62.57298559655074
 20
-7.937499999999998
 30
0.0
  0
ENDBLK
  5
140
330
13E
100
AcDbEntity
  8
0
100
AcDbBlockEnd
  0
BLOCK
  5
156
330
155
100
AcDbEntity
  8
0
100
AcDbBlockBegin
  2
*D8
 70
     1
 10
0.0
 20
0.0
 30
0.0
  3
*D8
  1
*D8
  0
LINE
  5
158
330
155
100
AcDbEntity
  8
치수문자_일반주서
 62
     0
370
    -2
100
AcDbLine
 10
75.48622213298417
 20
-7.937499999999999
 30
0.0
 11
83.86753930850048
 21
-7.937499999999999
 31
0.0
  0
LINE
  5
159
330
155
100
AcDbEntity
  8
치수문자_일반주서
 62
     0
370
    -2
100
AcDbLine
 10
75.4862221329842
 20
7.937500000000002
 30
0.0
 11
83.86753930850048
 21
7.937500000000001
 31
0.0
  0
LINE
  5
15A
330
155
100
AcDbEntity
  8
치수문자_일반주서
 62
     0
370
    -2
100
AcDbLine
 10
83.86753930850048
 20
7.937500000000001
 30
0.0
 11
83.86753930850048
 21
39.2395
 31
0.0
  0
LINE
  5
15B
330
155
100
AcDbEntity
  8
치수문자_일반주서
 62
     0
370
    -2
100
AcDbLine
 10
83.86753930850048
 20
-4.6355
 30
0.0
 11
83.86753930850048
 21
4.635500000000001
 31
0.0
  0
SOLID
  5
15C
330
155
100
AcDbEntity
  8
치수문자_일반주서
 62
     0
100
AcDbTrace
 10
83.31720597516716
 20
-4.6355
 30
0.0
 11
84.41787264183381
 21
-4.6355
 31
0.0
 12
83.86753930850048
 22
-7.937499999999999
 32
0.0
 13
83.86753930850048
 23
-7.937499999999999
 33
0.0
  0
SOLID
  5
15D
330
155
100
AcDbEntity
  8
치수문자_일반주서
 62
     0
100
AcDbTrace
 10
84.41787264183381
 20
4.635500000000001
 30
0.0
 11
83.31720597516716
 21
4.635500000000001
 31
0.0
 12
83.86753930850048
 22
7.937500000000001
 32
0.0
 13
83.86753930850048
 23
7.937500000000001
 33
0.0
  0
MTEXT
  5
15E
330
155
100
AcDbEntity
  8
치수문자_일반주서
 62
     0
100
AcDbMText
 10
81.24253930850048
 20
25.2395
 30
0.0
 40
3.5
 41
0.0
 71
     5
 72
     1
  1
\A1;{Ø15.88 [5/8]}
  7
SLDTEXTSTYLE0
 11
0.0
 21
1.0
 31
0.0
 73
     1
 44
1.0
  0
POINT
  5
15F
330
155
100
AcDbEntity
  8
Defpoints
 62
     0
100
AcDbPoint
 10
75.42372213298417
 20
-7.937499999999999
 30
0.0
  0
POINT
  5
160
330
155
100
AcDbEntity
  8
Defpoints
 62
     0
100
AcDbPoint
 10
75.4237221329842
 20
7.937500000000002
 30
0.0
  0
POINT
  5
161
330
155
100
AcDbEntity
  8
Defpoints
 62
     0
100
AcDbPoint
 10
83.86753930850048
 20
7.937500000000001
 30
0.0
  0
ENDBLK
  5
157
330
155
100
AcDbEntity
  8
0
100
AcDbBlockEnd
  0
BLOCK
  5
168
330
167
100
AcDbEntity
  8
0
100
AcDbBlockBegin
  2
*D9
 70
     1
 10
0.0
 20
0.0
 30
0.0
  3
*D9
  1
*D9
  0
LINE
  5
16A
330
167
100
AcDbEntity
  8
치수문자_일반주서
 62
     0
370
    -2
100
AcDbLine
 10
76.14335706076758
 20
-10.0009994914356
 30
0.0
 11
94.71572060556704
 21
-35.19787462228872
 31
0.0
  0
MTEXT
  5
16B
330
167
100
AcDbEntity
  8
치수문자_일반주서
 62
     0
100
AcDbMText
 10
88.52214535770099
 20
-22.37094004503991
 30
0.0
 40
3.5
 41
0.0
 71
     5
 72
     1
  1
\A1;R3.05 [R0.12]
  7
SLDTEXTSTYLE0
 11
0.593328335084003
 21
-0.8049605498323785
 31
0.0
 73
     1
 44
1.0
  0
SOLID
  5
16C
330
167
100
AcDbEntity
  8
치수문자_일반주서
 62
     0
100
AcDbTrace
 10
76.58635368335867
 20
-9.674471131027707
 30
0.0
 11
75.7003604381765
 21
-10.3275278518435
 31
0.0
 12
74.1841868983202
 22
-7.343019755889089
 32
0.0
 13
74.1841868983202
 23
-7.343019755889089
 33
0.0
  0
LINE
  5
16D
330
167
100
AcDbEntity
  8
치수문자_일반주서
 62
     0
100
AcDbLine
 10
72.28572213298416
 20
-4.8895
 30
0.0
 11
72.46572213298417
 21
-4.8895
 31
0.0
  0
LINE
  5
16E
330
167
100
AcDbEntity
  8
치수문자_일반주서
 62
     0
100
AcDbLine
 10
72.37572213298417
 20
-4.9795
 30
0.0
 11
72.37572213298417
 21
-4.7995
 31
0.0
  0
POINT
  5
16F
330
167
100
AcDbEntity
  8
Defpoints
 62
     0
100
AcDbPoint
 10
74.1841868983202
 20
-7.343019755889089
 30
0.0
  0
POINT
  5
170
330
167
100
AcDbEntity
  8
Defpoints
 62
     0
100
AcDbPoint
 10
72.37572213298417
 20
-4.8895
 30
0.0
  0
ENDBLK
  5
169
330
167
100
AcDbEntity
  8
0
100
AcDbBlockEnd
  0
ENDSEC
  0
SECTION
  2
ENTITIES
  0
LINE
  5
95
330
1F
100
AcDbEntity
  8
0
  6
Continuous
 62
     4
370
    15
100
AcDbLine
 10
11.92372213298416
 20
7.937500000000002
 30
0.0
 11
-51.07627786701583
 21
7.937500000000002
 31
0.0
  0
LINE
  5
96
330
1F
100
AcDbEntity
  8
0
  6
Continuous
 62
     4
370
    15
100
AcDbLine
 10
-51.07627786701583
 20
-7.937499999999999
 30
0.0
 11
8.874014034508784
 21
-7.937499999999999
 31
0.0
  0
LINE
  5
97
102
{ACAD_REACTORS
102
}
330
1F
100
AcDbEntity
  8
0
  6
Continuous
 62
     4
370
    15
100
AcDbLine
 10
-51.07627786701583
 20
7.937499999999998
 30
0.0
 11
-51.57627786701583
 21
7.437499999999997
 31
0.0
  0
LINE
  5
98
330
1F
100
AcDbEntity
  8
0
  6
Continuous
 62
     4
370
    15
100
AcDbLine
 10
-51.57627786701583
 20
-7.437499999999995
 30
0.0
 11
-51.07627786701583
 21
-7.937499999999996
 31
0.0
  0
LINE
  5
99
330
1F
100
AcDbEntity
  8
0
  6
Continuous
 62
     1
370
    15
100
AcDbLine
 10
19.61174125883687
 20
-7.937499999999999
 30
0.0
 11
26.44562130408679
 21
-7.937499999999999
 31
0.0
  0
LINE
  5
9A
330
1F
100
AcDbEntity
  8
0
  6
Continuous
 62
     1
370
    15
100
AcDbLine
 10
59.53730995722525
 20
7.937500000000002
 30
0.0
 11
52.70279694994856
 21
7.937500000000002
 31
0.0
  0
LINE
  5
9B
330
1F
100
AcDbEntity
  8
0
  6
Continuous
 62
     1
370
    15
100
AcDbLine
 10
63.73255393775959
 20
-7.937499999999999
 30
0.0
 11
70.56892050043426
 21
-7.937499999999999
 31
0.0
  0
LINE
  5
9C
330
1F
100
AcDbEntity
  8
0
  6
Continuous
 62
     1
370
    15
100
AcDbLine
 10
37.47616816332123
 20
7.937500000000002
 30
0.0
 11
30.6421425276569
 21
7.937500000000002
 31
0.0
  0
LINE
  5
9D
330
1F
100
AcDbEntity
  8
0
  6
Continuous
 62
     1
370
    15
100
AcDbLine
 10
41.67261487848047
 20
-7.937499999999999
 30
0.0
 11
48.50674616773237
 21
-7.937499999999999
 31
0.0
  0
LINE
  5
9E
330
1F
100
AcDbEntity
  8
0
  6
Continuous
 62
     1
370
    15
100
AcDbLine
 10
15.41620876784251
 20
7.937500000000002
 30
0.0
 11
11.92372213298416
 21
7.937500000000002
 31
0.0
  0
SPLINE
  5
A1
330
1F
100
AcDbEntity
  8
0
  6
Continuous
 62
     1
370
    15
100
AcDbSpline
210
0.0
220
0.0
230
1.0
 70
    24
 71
     3
 72
    12
 73
     8
 74
     0
 42
0.000000001
 43
0.00000001
 40
0.0
 40
0.0
 40
0.0
 40
0.0
 40
0.5
 40
0.5
 40
0.75
 40
0.75
 40
1.0
 40
1.0
 40
1.0
 40
1.0
 10
11.92372213298416
 20
7.479413340668855
 30
0.0
 10
11.92372213298416
 20
6.896109948187779
 30
0.0
 10
11.92372213298416
 20
6.305548391713598
 30
0.0
 10
11.92372213298416
 20
5.407985676994887
 30
0.0
 10
11.92372213298416
 20
5.104867592135981
 30
0.0
 10
11.92372213298416
 20
4.505108988435523
 30
0.0
 10
11.92372213298416
 20
4.208912595828602
 30
0.0
 10
11.92372213298416
 20
3.916712877714197
 30
0.0
  0
SPLINE
  5
A2
330
1F
100
AcDbEntity
  8
0
  6
Continuous
 62
     4
370
    15
100
AcDbSpline
210
0.0
220
0.0
230
1.0
 70
     8
 71
     3
 72
    14
 73
    10
 74
     0
 42
0.000000001
 43
0.00000001
 40
0.0
 40
0.0
 40
0.0
 40
0.0
 40
0.25
 40
0.25
 40
0.5
 40
0.5
 40
0.75
 40
0.75
 40
1.0
 40
1.0
 40
1.0
 40
1.0
 10
9.829980341317906
 20
0.0524866661180381
 30
0.0
 10
9.675548109783572
 20
0.1687822835154515
 30
0.0
 10
9.538458044055863
 20
0.3014113761900118
 30
0.0
 10
9.297696139031114
 20
0.5979326954344463
 30
0.0
 10
9.194435532764468
 20
0.7627833744738222
 30
0.0
 10
9.032466400333428
 20
1.105532046102816
 30
0.0
 10
8.971525487957182
 20
1.287692548167999
 30
0.0
 10
8.892477342657514
 20
1.656732670589344
 30
0.0
 10
8.874014034506564
 20
1.842547974495786
 30
0.0
 10
8.874014034506512
 20
2.029206612347024
 30
0.0
  0
SPLINE
  5
A3
330
1F
100
AcDbEntity
  8
0
  6
Continuous
 62
     4
370
    15
100
AcDbSpline
210
0.0
220
0.0
230
1.0
 70
     8
 71
     3
 72
    22
 73
    18
 74
     0
 42
0.000000001
 43
0.00000001
 40
0.0
 40
0.0
 40
0.0
 40
0.0
 40
0.1250000000000002
 40
0.1250000000000002
 40
0.2500000000000004
 40
0.2500000000000004
 40
0.3750000000000004
 40
0.3750000000000004
 40
0.5000000000000003
 40
0.5000000000000003
 40
0.6250000000000002
 40
0.6250000000000002
 40
0.7500000000000001
 40
0.7500000000000001
 40
0.875
 40
0.875
 40
1.0
 40
1.0
 40
1.0
 40
1.0
 10
8.874014034508784
 20
6.361138029545249
 30
0.0
 10
8.874014034508784
 20
6.474290135552225
 30
0.0
 10
8.891752123629038
 20
6.580194963891131
 30
0.0
 10
8.96697026599977
 20
6.778185177364795
 30
0.0
 10
9.025604775364908
 20
6.870981508357668
 30
0.0
 10
9.180833665768773
 20
7.034834805608066
 30
0.0
 10
9.27743442727947
 20
7.107156964090181
 30
0.0
 10
9.511280181086345
 20
7.234999427060912
 30
0.0
 10
9.64356957700339
 20
7.287893463565345
 30
0.0
 10
9.938015367612882
 20
7.376595618112026
 30
0.0
 10
10.10134928789008
 20
7.412287423923557
 30
0.0
 10
10.44155699598437
 20
7.466318854479677
 30
0.0
 10
10.62244772152602
 20
7.485451785234688
 30
0.0
 10
10.9919386713223
 20
7.508753363911825
 30
0.0
 10
11.17827437931051
 20
7.512997224929649
 30
0.0
 10
11.55412415642997
 20
7.507313057937877
 30
0.0
 10
11.74190527099658
 20
7.497264121233211
 30
0.0
 10
11.92372213298407
 20
7.479413340668406
 30
0.0
  0
SPLINE
  5
A4
330
1F
100
AcDbEntity
  8
0
  6
Continuous
 62
     4
370
    15
100
AcDbSpline
210
0.0
220
0.0
230
1.0
 70
     8
 71
     3
 72
    10
 73
     6
 74
     0
 42
0.000000001
 43
0.00000001
 40
0.0
 40
0.0
 40
0.0
 40
0.0
 40
0.5
 40
0.5
 40
1.0
 40
1.0
 40
1.0
 40
1.0
 10
11.92372213298643
 20
-1.515921488226801
 30
0.0
 10
11.57471953141371
 20
-1.257787270620168
 30
0.0
 10
11.22835672244455
 20
-0.9978139291379209
 30
0.0
 10
10.52985852143758
 20
-0.47400673946428
 30
0.0
 10
10.17928476874865
 20
-0.2105579952464313
 30
0.0
 10
9.829980341317906
 20
0.0524866661180423
 30
0.0
  0
SPLINE
  5
A5
330
1F
100
AcDbEntity
  8
0
  6
Continuous
 62
     4
370
    15
100
AcDbSpline
210
0.0
220
0.0
230
1.0
 70
    24
 71
     3
 72
    14
 73
    10
 74
     0
 42
0.000000001
 43
0.00000001
 40
0.0
 40
0.0
 40
0.0
 40
0.0
 40
0.2499999999999999
 40
0.2499999999999999
 40
0.4999999999999998
 40
0.4999999999999998
 40
0.7499999999999999
 40
0.7499999999999999
 40
1.0
 40
1.0
 40
1.0
 40
1.0
 10
11.92372213298415
 20
3.916712877714177
 30
0.0
 10
11.92372213298415
 20
3.394444007758679
 30
0.0
 10
11.92372213298415
 20
2.855154094285241
 30
0.0
 10
11.92372213298415
 20
1.785448140580807
 30
0.0
 10
11.92372213298415
 20
1.25526626547629
 30
0.0
 10
11.92372213298415
 20
0.2657738789450525
 30
0.0
 10
11.92372213298415
 20
-0.1928597226674091
 30
0.0
 10
11.92372213298415
 20
-0.971498003279111
 30
0.0
 10
11.92372213298415
 20
-1.290658986319465
 30
0.0
 10
11.92372213298415
 20
-1.515921488225098
 30
0.0
  0
LINE
  5
A6
330
1F
100
AcDbEntity
  8
0
  6
Continuous
 62
     4
370
    15
100
AcDbLine
 10
8.874014034508784
 20
6.361138029545248
 30
0.0
 11
8.874014034508784
 21
2.029206612347629
 31
0.0
  0
LINE
  5
A7
330
1F
100
AcDbEntity
  8
0
  6
Continuous
 62
     4
370
    15
100
AcDbLine
 10
11.92372213298415
 20
-1.515921488225099
 30
0.0
 11
11.92372213298416
 21
-6.041165283273201
 31
0.0
  0
SPLINE
  5
A8
330
1F
100
AcDbEntity
  8
0
  6
Continuous
 62
     4
370
    15
100
AcDbSpline
210
0.0
220
0.0
230
1.0
 70
     8
 71
     3
 72
    22
 73
    18
 74
     0
 42
0.000000001
 43
0.00000001
 40
0.0
 40
0.0
 40
0.0
 40
0.0
 40
0.125
 40
0.125
 40
0.25
 40
0.25
 40
0.375
 40
0.375
 40
0.5
 40
0.5
 40
0.625
 40
0.625
 40
0.75
 40
0.75
 40
0.875
 40
0.875
 40
1.0
 40
1.0
 40
1.0
 40
1.0
 10
8.874014034508784
 20
-7.292122482052969
 30
0.0
 10
8.874014034508782
 20
-7.217402146044604
 30
0.0
 10
8.891752123629036
 20
-7.137678964790823
 30
0.0
 10
8.96697026599977
 20
-6.969631914714372
 30
0.0
 10
9.025604775364908
 20
-6.880308963910029
 30
0.0
 10
9.180833665768773
 20
-6.704561439021156
 30
0.0
 10
9.27743442727947
 20
-6.617210825106972
 30
0.0
 10
9.511280181086347
 20
-6.4478160713671
 30
0.0
 10
9.64356957700339
 20
-6.369372073346367
 30
0.0
 10
9.93801536761288
 20
-6.228448288808006
 30
0.0
 10
10.10134928789008
 20
-6.166007109364262
 30
0.0
 10
10.44155699598437
 20
-6.067253180166864
 30
0.0
 10
10.62244772152602
 20
-6.029619416639881
 30
0.0
 10
10.9919386713223
 20
-5.983241976669397
 30
0.0
 10
11.1782743793105
 20
-5.974412503697931
 30
0.0
 10
11.55412415642997
 20
-5.985959262215885
 30
0.0
 10
11.74190527099658
 20
-6.006581299040238
 30
0.0
 10
11.92372213298407
 20
-6.04116528327377
 30
0.0
  0
LINE
  5
A9
330
1F
100
AcDbEntity
  8
0
  6
Continuous
 62
     4
370
    15
100
AcDbLine
 10
8.874014034508784
 20
-7.292122482052967
 30
0.0
 11
8.874014034508784
 21
-7.937499999999999
 31
0.0
  0
SPLINE
  5
AA
330
1F
100
AcDbEntity
  8
0
  6
Continuous
 62
     4
370
    15
100
AcDbSpline
210
0.0
220
0.0
230
1.0
 70
     8
 71
     3
 72
    14
 73
    10
 74
     0
 42
0.000000001
 43
0.00000001
 40
0.0
 40
0.0
 40
0.0
 40
0.0
 40
0.25
 40
0.25
 40
0.5
 40
0.5
 40
0.75
 40
0.75
 40
1.0
 40
1.0
 40
1.0
 40
1.0
 10
9.829980341317906
 20
-6.900169689218943
 30
0.0
 10
9.675548109783573
 20
-6.957651506358562
 30
0.0
 10
9.538458044055865
 20
-7.021028247621119
 30
0.0
 10
9.297696139031114
 20
-7.154717659864118
 30
0.0
 10
9.194435532764468
 20
-7.225285832820205
 30
0.0
 10
9.03246640033343
 20
-7.361482135837236
 30
0.0
 10
8.971525487957182
 20
-7.428812089038186
 30
0.0
 10
8.892477342657514
 20
-7.553007799915959
 30
0.0
 10
8.874014034506564
 20
-7.609670711192317
 30
0.0
 10
8.874014034506514
 20
-7.660253769507044
 30
0.0
  0
LINE
  5
AB
330
1F
100
AcDbEntity
  8
0
  6
Continuous
 62
     4
370
    15
100
AcDbLine
 10
11.83175922689483
 20
-6.02958340906644
 30
0.0
 11
9.829980341317906
 21
-6.900169689218915
 31
0.0
  0
LINE
  5
AC
330
1F
100
AcDbEntity
  8
0
  6
Continuous
 62
     4
370
    15
100
AcDbLine
 10
11.92372213298416
 20
7.937500000000002
 30
0.0
 11
11.92372213298416
 21
7.4794133406687
 31
0.0
  0
LINE
  5
AD
102
{ACAD_REACTORS
102
}
330
1F
100
AcDbEntity
  8
0
  6
Continuous
 62
     4
370
    15
100
AcDbLine
 10
-51.07627786701583
 20
7.937500000000002
 30
0.0
 11
-51.07627786701583
 21
-7.937499999999999
 31
0.0
  0
LINE
  5
AE
330
1F
100
AcDbEntity
  8
0
  6
Continuous
 62
     4
370
    15
100
AcDbLine
 10
-51.57627786701583
 20
7.437499999999997
 30
0.0
 11
-51.57627786701583
 21
-7.437499999999995
 31
0.0
  0
SPLINE
  5
B0
330
1F
100
AcDbEntity
  8
0
  6
Continuous
 62
     1
370
    15
100
AcDbSpline
210
0.0
220
0.0
230
1.0
 70
     8
 71
     3
 72
    26
 73
    22
 74
     0
 42
0.000000001
 43
0.00000001
 40
0.0
 40
0.0
 40
0.0
 40
0.0
 40
0.055614570131532
 40
0.1112399895389523
 40
0.1668816882928635
 40
0.2225298884537055
 40
0.2781605945197962
 40
0.3337784747053744
 40
0.3893889809709239
 40
0.442764471000493
 40
0.4961486474035304
 40
0.5495533365093683
 40
0.6029802835241361
 40
0.6563842821427
 40
0.7088137321786069
 40
0.7612344893133908
 40
0.8136622257977558
 40
0.8661125733559695
 40
0.9195394841717205
 40
0.9729447811331494
 40
0.9999999999999999
 40
0.9999999999999999
 40
0.9999999999999999
 40
0.9999999999999999
 10
72.37572213298417
 20
-7.937499999999999
 30
0.0
 10
71.72877904052707
 20
-7.937499999999999
 30
0.0
 10
70.43476665013645
 20
-7.937499999999999
 30
0.0
 10
68.4933663569729
 20
-7.824855614975196
 30
0.0
 10
66.55136830042233
 20
-7.409855831926727
 30
0.0
 10
64.60917992226996
 20
-6.738820636857851
 30
0.0
 10
62.66755788763554
 20
-5.84079167645771
 30
0.0
 10
60.72651061278837
 20
-4.744661628692546
 30
0.0
 10
58.81171829857684
 20
-3.504839225451445
 30
0.0
 10
56.9231704563887
 20
-2.169106825518311
 30
0.0
 10
55.06011988579482
 20
-0.7839580987152428
 30
0.0
 10
53.19627489910631
 20
0.6258404974718563
 30
0.0
 10
51.3317741455094
 20
2.01571526911649
 30
0.0
 10
49.47903408982368
 20
3.335159564291537
 30
0.0
 10
47.63828422888216
 20
4.544266749841062
 30
0.0
 10
45.80898483779312
 20
5.609469038785364
 30
0.0
 10
43.97936207338876
 20
6.504933029039762
 30
0.0
 10
42.13779512067465
 20
7.212167910230916
 30
0.0
 10
40.28437737770427
 20
7.689102437699005
 30
0.0
 10
38.72679190362828
 20
7.929584375734943
 30
0.0
 10
37.79087464893502
 20
7.912294147457713
 30
0.0
 10
37.47616816332125
 20
7.906480228599712
 30
0.0
  0
LINE
  5
B1
330
1F
100
AcDbEntity
  8
0
  6
Continuous
 62
     1
370
    15
100
AcDbLine
 10
12.0
 20
-5.948103304710285
 30
0.0
 11
11.92372213298642
 21
-5.989588160388807
 31
0.0
  0
SPLINE
  5
B2
330
1F
100
AcDbEntity
  8
0
  6
Continuous
 62
     1
370
    15
100
AcDbSpline
210
0.0
220
0.0
230
1.0
 70
     8
 71
     3
 72
    11
 73
     7
 74
     0
 42
0.000000001
 43
0.00000001
 40
0.0
 40
0.0
 40
0.0
 40
0.0
 40
0.2524957179339763
 40
0.5050708910925599
 40
0.7576143249837252
 40
1.0
 40
1.0
 40
1.0
 40
1.0
 10
11.92372213298474
 20
-5.916372402724278
 30
0.0
 10
12.57074700367977
 20
-6.222302974790618
 30
0.0
 10
13.86500035052835
 20
-6.834260389000734
 30
0.0
 10
15.80672644344345
 20
-7.461600130344681
 30
0.0
 10
17.72240540925148
 20
-7.866425245398228
 30
0.0
 10
18.99063890849856
 20
-7.910675286628698
 30
0.0
 10
19.61174125883687
 20
-7.932346220748579
 30
0.0
  0
SPLINE
  5
B3
330
1F
100
AcDbEntity
  8
0
  6
Continuous
 62
     1
370
    15
100
AcDbSpline
210
0.0
220
0.0
230
1.0
 70
     8
 71
     3
 72
    22
 73
    18
 74
     0
 42
0.000000001
 43
0.00000001
 40
0.0
 40
0.0
 40
0.0
 40
0.0
 40
0.028762984088653
 40
0.0970342595731313
 40
0.1653103523635652
 40
0.2336064204506665
 40
0.3007229877841974
 40
0.3678241082535371
 40
0.4348901302193385
 40
0.5019410081823897
 40
0.5730711994272077
 40
0.6442108224930437
 40
0.7153668508641906
 40
0.7865452555521313
 40
0.8577153444316156
 40
0.9288646107524313
 40
1.0
 40
1.0
 40
1.0
 40
1.0
 10
45.09104476308629
 20
5.931032505032727
 30
0.0
 10
45.35262132517292
 20
6.066779369079882
 30
0.0
 10
46.23507107188659
 20
6.524732424353679
 30
0.0
 10
47.73831047274199
 20
7.102352742289463
 30
0.0
 10
49.60113204032226
 20
7.637667045093228
 30
0.0
 10
51.45356349586916
 20
7.921861486503329
 30
0.0
 10
53.2958048083498
 20
7.965030433956989
 30
0.0
 10
55.12662107296593
 20
7.767348881062734
 30
0.0
 10
56.95649034101764
 20
7.335936463633193
 30
0.0
 10
58.82280144853013
 20
6.67042491900456
 30
0.0
 10
60.72651536681479
 20
5.776013463096537
 30
0.0
 10
62.66755661341473
 20
4.668464446193221
 30
0.0
 10
64.60918026384238
 20
3.402751092487997
 30
0.0
 10
66.55136820892848
 20
2.02152828898798
 30
0.0
 10
68.49336638136224
 20
0.573228523985876
 30
0.0
 10
70.43476664404123
 20
-0.9001160505829865
 30
0.0
 10
71.72877903849545
 20
-1.84795809427306
 30
0.0
 10
72.3757221329772
 20
-2.321832894431667
 30
0.0
  0
SPLINE
  5
B4
330
1F
100
AcDbEntity
  8
0
  6
Continuous
 62
     1
370
    15
100
AcDbSpline
210
0.0
220
0.0
230
1.0
 70
     8
 71
     3
 72
    20
 73
    16
 74
     0
 42
0.000000001
 43
0.00000001
 40
0.0
 40
0.0
 40
0.0
 40
0.0
 40
0.2500000000000001
 40
0.2500000000000001
 40
0.375
 40
0.375
 40
0.5
 40
0.5
 40
0.6249999999999999
 40
0.6249999999999999
 40
0.7499999999999999
 40
0.7499999999999999
 40
0.875
 40
0.875
 40
1.0
 40
1.0
 40
1.0
 40
1.0
 10
72.37572213298417
 20
-2.321832894436675
 30
0.0
 10
72.74193401292084
 20
-2.585321800024315
 30
0.0
 10
73.09503168394384
 20
-2.824431851727577
 30
0.0
 10
73.61094764482955
 20
-3.12653155955425
 30
0.0
 10
73.77595521409174
 20
-3.2149396949836
 30
0.0
 10
74.09236473565241
 20
-3.367266043441745
 30
0.0
 10
74.24471969718904
 20
-3.431493664130133
 30
0.0
 10
74.52945483300768
 20
-3.533366140764462
 30
0.0
 10
74.65939248614754
 20
-3.570265138930497
 30
0.0
 10
74.89308352096218
 20
-3.62023676742149
 30
0.0
 10
74.99757032381721
 20
-3.633240120757265
 30
0.0
 10
75.17228817214487
 20
-3.640490427593777
 30
0.0
 10
75.242431612608
 20
-3.63497343983606
 30
0.0
 10
75.34871414934393
 20
-3.615380345071701
 30
0.0
 10
75.38472907649137
 20
-3.601216862466086
 30
0.0
 10
75.40439432937362
 20
-3.588710960334593
 30
0.0
  0
SPLINE
  5
B5
330
1F
100
AcDbEntity
  8
0
  6
Continuous
 62
     1
370
    15
100
AcDbSpline
210
0.0
220
0.0
230
1.0
 70
     8
 71
     3
 72
    12
 73
     8
 74
     0
 42
0.000000001
 43
0.00000001
 40
0.0
 40
0.0
 40
0.0
 40
0.0
 40
0.0039598469644461
 40
0.3413475381088922
 40
0.6423590480430371
 40
0.9507679606585596
 40
1.0
 40
1.0
 40
1.0
 40
1.0
 10
74.36249061750696
 20
-3.471891208159992
 30
0.0
 10
74.36077418867615
 20
-3.472052221567117
 30
0.0
 10
74.21281423946687
 20
-3.485931932227212
 30
0.0
 10
73.87908080857319
 20
-3.590370203506431
 30
0.0
 10
73.37737011123103
 20
-3.781037747435879
 30
0.0
 10
73.0082618435598
 20
-3.963132021880926
 30
0.0
 10
72.80687273521754
 20
-4.072983691729434
 30
0.0
 10
72.77914996898902
 20
-4.088105622543318
 30
0.0
  0
SPLINE
  5
B6
330
1F
100
AcDbEntity
  8
0
  6
Continuous
 62
     1
370
    15
100
AcDbSpline
210
0.0
220
0.0
230
1.0
 70
     8
 71
     3
 72
     8
 73
     4
 74
     0
 42
0.000000001
 43
0.00000001
 40
0.0
 40
0.0
 40
0.0
 40
0.0
 40
1.0
 40
1.0
 40
1.0
 40
1.0
 10
75.42372213298417
 20
-4.640327385311438
 30
0.0
 10
74.51442023874827
 20
-4.578115589207308
 30
0.0
 10
73.63230478172903
 20
-4.396636166221994
 30
0.0
 10
72.77914996898699
 20
-4.088105622548407
 30
0.0
  0
LINE
  5
B7
330
1F
100
AcDbEntity
  8
0
  6
Continuous
 62
     1
370
    15
100
AcDbLine
 10
75.42372213298417
 20
-4.761344968940215
 30
0.0
 11
75.42372213298417
 21
-4.640327385311447
 31
0.0
  0
SPLINE
  5
B8
330
1F
100
AcDbEntity
  8
0
  6
Continuous
 62
     1
370
    15
100
AcDbSpline
210
0.0
220
0.0
230
1.0
 70
     8
 71
     3
 72
    30
 73
    26
 74
     0
 42
0.000000001
 43
0.00000001
 40
0.0
 40
0.0
 40
0.0
 40
0.0
 40
0.026036023765888
 40
0.0718246962592349
 40
0.1176324524719975
 40
0.1634205329481231
 40
0.2083730447386657
 40
0.2533181033184658
 40
0.2982691459262144
 40
0.3432395750536211
 40
0.389047300229691
 40
0.4348364938926402
 40
0.4806078686632481
 40
0.5263715629232453
 40
0.572137752213311
 40
0.6171007349473916
 40
0.6620907054194818
 40
0.7070691785041406
 40
0.7520244275896618
 40
0.7996916931071064
 40
0.8473587759546034
 40
0.8950303976708622
 40
0.942711266543258
 40
0.9904060639052028
 40
1.0
 40
1.0
 40
1.0
 40
1.0
 10
56.12001250624816
 20
-5.930528132400923
 30
0.0
 10
55.76678919739403
 20
-6.109756729284098
 30
0.0
 10
54.79236402793444
 20
-6.604188584465031
 30
0.0
 10
53.19626979518769
 20
-7.196231347454368
 30
0.0
 10
51.33177551173638
 20
-7.695206732968438
 30
0.0
 10
49.47903373787071
 20
-7.943915458942611
 30
0.0
 10
47.6382842982287
 20
-7.950517345232394
 30
0.0
 10
45.80898490968416
 20
-7.717104879927935
 30
0.0
 10
43.97936171635007
 20
-7.251475572012024
 30
0.0
 10
42.1377964882042
 20
-6.563223174155457
 30
0.0
 10
40.28437216244821
 20
-5.669047348842498
 30
0.0
 10
38.42050828828157
 20
-4.592306459193388
 30
0.0
 10
36.55745236544519
 20
-3.372326144449068
 30
0.0
 10
34.69482106144868
 20
-2.047182318961201
 30
0.0
 10
32.84309389261681
 20
-0.6663761851547271
 30
0.0
 10
31.00180941445014
 20
0.7265443781294083
 30
0.0
 10
29.17063696411667
 20
2.088762137819567
 30
0.0
 10
27.33982625668694
 20
3.388386199133621
 30
0.0
 10
25.4731352019721
 20
4.610050556799867
 30
0.0
 10
23.56974478362758
 20
5.708085842295519
 30
0.0
 10
21.62958330775801
 20
6.632492248774446
 30
0.0
 10
19.68915416232804
 20
7.338691682397855
 30
0.0
 10
17.74824467001812
 20
7.773131608603731
 30
0.0
 10
16.32382439858763
 20
7.962788621632911
 30
0.0
 10
15.5464010346643
 20
7.922604165040417
 30
0.0
 10
15.41620876784251
 20
7.91587462006202
 30
0.0
  0
SPLINE
  5
B9
330
1F
100
AcDbEntity
  8
0
  6
Continuous
 62
     1
370
    15
100
AcDbSpline
210
0.0
220
0.0
230
1.0
 70
     8
 71
     3
 72
    30
 73
    26
 74
     0
 42
0.000000001
 43
0.00000001
 40
0.0
 40
0.0
 40
0.0
 40
0.0
 40
0.0133185446303924
 40
0.0609838328297808
 40
0.1067539492500639
 40
0.1525423810041688
 40
0.1983480416089
 40
0.2441326355007002
 40
0.289900637894458
 40
0.3348438522933556
 40
0.3797927447600382
 40
0.4247607188872819
 40
0.4697517281152269
 40
0.5155373994213763
 40
0.5613059815451047
 40
0.6070676167701271
 40
0.6528324809929432
 40
0.698610734481349
 40
0.7435983789932927
 40
0.7885756696080892
 40
0.8335294340048025
 40
0.8784730475097273
 40
0.92615098881275
 40
0.9738352521824086
 40
1.0
 40
1.0
 40
1.0
 40
1.0
 10
23.0276480419637
 20
5.93280638304789
 30
0.0
 10
23.20835051951421
 20
6.02867919345299
 30
0.0
 10
24.03576297250251
 20
6.467667957234577
 30
0.0
 10
25.48419991389465
 20
7.03439536019028
 30
0.0
 10
27.37306002427113
 20
7.600578857152645
 30
0.0
 10
29.23698310193888
 20
7.907624597186385
 30
0.0
 10
31.10147972912754
 20
7.97159867989421
 30
0.0
 10
32.96523524619292
 20
7.785716949957107
 30
0.0
 10
34.81713279340562
 20
7.359640311759184
 30
0.0
 10
36.6574969308202
 20
6.711213818587636
 30
0.0
 10
38.4871119512359
 20
5.864613058876847
 30
0.0
 10
40.31759344587715
 20
4.841241276732939
 30
0.0
 10
42.15993966174837
 20
3.665420186755494
 30
0.0
 10
44.01268042395263
 20
2.369083878396991
 30
0.0
 10
45.87569082469449
 20
0.9912638163817205
 30
0.0
 10
47.73831578152384
 20
-0.4174229340128117
 30
0.0
 10
49.60113061863086
 20
-1.813094903309914
 30
0.0
 10
51.45356386166011
 20
-3.144510196116263
 30
0.0
 10
53.29580473987869
 20
-4.371117989623023
 30
0.0
 10
55.12662098371382
 20
-5.45918013609833
 30
0.0
 10
56.95649076615877
 20
-6.382000285100306
 30
0.0
 10
58.82279979623979
 20
-7.130596628509978
 30
0.0
 10
60.7265219603439
 20
-7.651611889219891
 30
0.0
 10
62.37540509650047
 20
-7.923781305211599
 30
0.0
 10
63.37750821669273
 20
-7.909277282459826
 30
0.0
 10
63.73255393775959
 20
-7.904138498723391
 30
0.0
  0
SPLINE
  5
BA
330
1F
100
AcDbEntity
  8
0
  6
Continuous
 62
     1
370
    15
100
AcDbSpline
210
0.0
220
0.0
230
1.0
 70
     8
 71
     3
 72
    22
 73
    18
 74
     0
 42
0.000000001
 43
0.00000001
 40
0.0
 40
0.0
 40
0.0
 40
0.0
 40
0.1249999999999998
 40
0.1249999999999998
 40
0.2499999999999997
 40
0.2499999999999997
 40
0.3124999999999996
 40
0.3124999999999996
 40
0.3749999999999995
 40
0.3749999999999995
 40
0.4374999999999994
 40
0.4374999999999994
 40
0.4999999999999993
 40
0.4999999999999993
 40
0.7499999999999997
 40
0.7499999999999997
 40
1.0
 40
1.0
 40
1.0
 40
1.0
 10
75.42372213298417
 20
1.417550865690452
 30
0.0
 10
75.42372213298417
 20
1.311092857888909
 30
0.0
 10
75.41130937036031
 20
1.217721377843192
 30
0.0
 10
75.34512364294953
 20
1.070814532986772
 30
0.0
 10
75.29042652986797
 20
1.018350051560091
 30
0.0
 10
75.1704069472497
 20
0.9867626895199395
 30
0.0
 10
75.12336307610362
 20
0.9839269229823095
 30
0.0
 10
75.01884282827905
 20
0.9944893961977759
 30
0.0
 10
74.96125883576873
 20
1.007659228922372
 30
0.0
 10
74.83541957053791
 20
1.049075805589126
 30
0.0
 10
74.76656307709257
 20
1.077677808639993
 30
0.0
 10
74.62306723370915
 20
1.146864867008127
 30
0.0
 10
74.54801669456529
 20
1.187505735425695
 30
0.0
 10
74.15663380249477
 20
1.416853098098194
 30
0.0
 10
73.80515891917807
 20
1.674976728876218
 30
0.0
 10
73.0987986066047
 20
2.205110469489329
 30
0.0
 10
72.73681192481219
 20
2.482168994881626
 30
0.0
 10
72.37572213298415
 20
2.737190682394152
 30
0.0
  0
SPLINE
  5
BB
330
1F
100
AcDbEntity
  8
0
  6
Continuous
 62
     1
370
    15
100
AcDbSpline
210
0.0
220
0.0
230
1.0
 70
     8
 71
     3
 72
    14
 73
    10
 74
     0
 42
0.000000001
 43
0.00000001
 40
0.0
 40
0.0
 40
0.0
 40
0.0
 40
0.1511868839316704
 40
0.3024032613613676
 40
0.45366389380666
 40
0.6049422001718021
 40
0.7561729492571452
 40
0.9073688314918804
 40
1.0
 40
1.0
 40
1.0
 40
1.0
 10
72.37572213297719
 20
2.737190682399066
 30
0.0
 10
71.72877904748833
 20
3.185891327662036
 30
0.0
 10
70.4347666710216
 20
4.083380150593245
 30
0.0
 10
68.49336627340297
 20
5.26668251679575
 30
0.0
 10
66.55136861392549
 20
6.277425989883318
 30
0.0
 10
64.60917875187327
 20
7.076774549858682
 30
0.0
 10
62.66756225374878
 20
7.625433742071789
 30
0.0
 10
60.97702024716405
 20
7.915643750207085
 30
0.0
 10
59.93368026069736
 20
7.908325865092725
 30
0.0
 10
59.53730995722525
 20
7.905545762363819
 30
0.0
  0
SPLINE
  5
BC
330
1F
100
AcDbEntity
  8
0
  6
Continuous
 62
     1
370
    15
100
AcDbSpline
210
0.0
220
0.0
230
1.0
 70
     8
 71
     3
 72
    19
 73
    15
 74
     0
 42
0.000000001
 43
0.00000001
 40
0.0
 40
0.0
 40
0.0
 40
0.0
 40
0.0555003248510971
 40
0.1381774753811512
 40
0.2209042504944113
 40
0.3036098844116575
 40
0.3862728144432657
 40
0.4739225531149546
 40
0.5615719558963214
 40
0.6492297046706147
 40
0.7369044569547603
 40
0.8246048207032057
 40
0.9123162064974624
 40
1.0
 40
1.0
 40
1.0
 40
1.0
 10
34.06062572202377
 20
-5.93128090739623
 30
0.0
 10
33.65114862435486
 20
-6.136066108657396
 30
0.0
 10
32.63168591428798
 20
-6.645913612822583
 30
0.0
 10
31.00180798049353
 20
-7.238801260454292
 30
0.0
 10
29.17063734766747
 20
-7.71332260823494
 30
0.0
 10
27.33982615648944
 20
-7.94846771003812
 30
0.0
 10
25.47313522183941
 20
-7.946119732682034
 30
0.0
 10
23.56974481338246
 20
-7.686713053484399
 30
0.0
 10
21.62958316905766
 20
-7.162267578240388
 30
0.0
 10
19.68915468747273
 20
-6.395251242481864
 30
0.0
 10
17.74824270750597
 20
-5.411927071404406
 30
0.0
 10
15.80672795299069
 20
-4.244350845897675
 30
0.0
 10
13.86499997326203
 20
-2.936892779431228
 30
0.0
 10
12.57074687793864
 20
-1.989528907114057
 30
0.0
 10
11.92372213298642
 20
-1.515921488226796
 30
0.0
  0
SPLINE
  5
BD
330
1F
100
AcDbEntity
  8
0
  6
Continuous
 62
     4
370
    15
100
AcDbSpline
210
0.0
220
0.0
230
1.0
 70
    24
 71
     3
 72
    20
 73
    16
 74
     0
 42
0.000000001
 43
0.00000001
 40
0.0
 40
0.0
 40
0.0
 40
0.0
 40
0.2499999999999998
 40
0.2499999999999998
 40
0.3749999999999998
 40
0.3749999999999998
 40
0.4999999999999998
 40
0.4999999999999998
 40
0.6249999999999998
 40
0.6249999999999998
 40
0.7499999999999999
 40
0.7499999999999999
 40
0.875
 40
0.875
 40
1.0
 40
1.0
 40
1.0
 40
1.0
 10
11.92372213298415
 20
7.540798216574103
 30
0.0
 10
11.92372213298415
 20
6.914413742964411
 30
0.0
 10
11.92372213298415
 20
6.199436277593885
 30
0.0
 10
11.92372213298415
 20
5.007856543132714
 30
0.0
 10
11.92372213298415
 20
4.591357309825887
 30
0.0
 10
11.92372213298415
 20
3.731974653643395
 30
0.0
 10
11.92372213298415
 20
3.289039653790605
 30
0.0
 10
11.92372213298415
 20
2.3984098498346
 30
0.0
 10
11.92372213298415
 20
1.950754885366752
 30
0.0
 10
11.92372213298415
 20
1.082293061034391
 30
0.0
 10
11.92372213298415
 20
0.6616702615388873
 30
0.0
 10
11.92372213298415
 20
-0.1143258263417136
 30
0.0
 10
11.92372213298415
 20
-0.4693834512717287
 30
0.0
 10
11.92372213298415
 20
-1.076700212934139
 30
0.0
 10
11.92372213298415
 20
-1.328631885975698
 30
0.0
 10
11.92372213298415
 20
-1.515921488225098
 30
0.0
  0
SPLINE
  5
BE
330
1F
100
AcDbEntity
  8
0
  6
Continuous
 62
     1
370
    15
100
AcDbSpline
210
0.0
220
0.0
230
1.0
 70
     8
 71
     3
 72
    23
 73
    19
 74
     0
 42
0.000000001
 43
0.00000001
 40
0.0
 40
0.0
 40
0.0
 40
0.0
 40
0.0652470594494887
 40
0.1305146508105914
 40
0.1957740404727303
 40
0.2610143721919244
 40
0.326242051299115
 40
0.3914635200055588
 40
0.456685238653924
 40
0.5193137418778894
 40
0.5819673064744929
 40
0.6446444457790365
 40
0.7072927589235897
 40
0.7699183694671903
 40
0.8314154000194082
 40
0.8929202000272095
 40
0.9544511099935041
 40
1.0
 40
1.0
 40
1.0
 40
1.0
 10
11.92372213298474
 20
7.5407982165465
 30
0.0
 10
12.57074687596215
 20
7.363879608133589
 30
0.0
 10
13.86499996733531
 20
7.009986718649695
 30
0.0
 10
15.80672797669807
 20
6.173553157246132
 30
0.0
 10
17.74824261862224
 20
5.146369717561369
 30
0.0
 10
19.68915501916705
 20
3.940041084900415
 30
0.0
 10
21.62958193142864
 20
2.601760972032038
 30
0.0
 10
23.56974943183407
 20
1.175118917605705
 30
0.0
 10
25.48419981398861
 20
-0.2717280511272483
 30
0.0
 10
27.37306004962721
 20
-1.689850379242527
 30
0.0
 10
29.23698309875625
 20
-3.035956515407064
 30
0.0
 10
31.1014797164829
 20
-4.286927484173771
 30
0.0
 10
32.96523529991435
 20
-5.404581452367982
 30
0.0
 10
34.81713259277153
 20
-6.34710296553363
 30
0.0
 10
36.65749766509191
 20
-7.091983634386671
 30
0.0
 10
38.48710920823164
 20
-7.610797504362768
 30
0.0
 10
40.15881175561479
 20
-7.902904208199834
 30
0.0
 10
41.22085150460721
 20
-7.911006774315569
 30
0.0
 10
41.67261487848047
 20
-7.914453389763762
 30
0.0
  0
SPLINE
  5
BF
330
1F
100
AcDbEntity
  8
0
  6
Continuous
 62
     1
370
    15
100
AcDbSpline
210
0.0
220
0.0
230
1.0
 70
     8
 71
     3
 72
    10
 73
     6
 74
     0
 42
0.000000001
 43
0.00000001
 40
0.0
 40
0.0
 40
0.0
 40
0.0
 40
0.2567861794881561
 40
0.6284293326986832
 40
1.0
 40
1.0
 40
1.0
 40
1.0
 10
67.15202416316448
 20
5.931544105792987
 30
0.0
 10
67.5991975340828
 20
6.153192283890505
 30
0.0
 10
68.69355885698175
 20
6.695628862577662
 30
0.0
 10
70.43476323839049
 20
7.498636494458724
 30
0.0
 10
71.72877790335237
 20
7.808904906232507
 30
0.0
 10
72.37572213298417
 20
7.937500000000004
 30
0.0
  0
SPLINE
  5
C1
330
1F
100
AcDbEntity
  8
0
  6
Continuous
 62
     1
370
    15
100
AcDbSpline
210
0.0
220
0.0
230
1.0
 70
     8
 71
     3
 72
    18
 73
    14
 74
     0
 42
0.000000001
 43
0.00000001
 40
0.0
 40
0.0
 40
0.0
 40
0.0
 40
0.249999999999996
 40
0.249999999999996
 40
0.3749999999999967
 40
0.3749999999999967
 40
0.4999999999999973
 40
0.4999999999999973
 40
0.624999999999998
 40
0.624999999999998
 40
0.7499999999999987
 40
0.7499999999999987
 40
1.0
 40
1.0
 40
1.0
 40
1.0
 10
75.40439432938146
 20
5.091758263723684
 30
0.0
 10
75.27950901239014
 20
4.787280827826857
 30
0.0
 10
75.12938013510806
 20
4.504442636653804
 30
0.0
 10
74.86023584099773
 20
4.117860937722739
 30
0.0
 10
74.7622994619424
 20
3.994483312371921
 30
0.0
 10
74.55601057352476
 20
3.767778211284605
 30
0.0
 10
74.4474982844382
 20
3.663923216126125
 30
0.0
 10
74.21991979882408
 20
3.474886701427617
 30
0.0
 10
74.10085502753203
 20
3.389702660158111
 30
0.0
 10
73.85208678866616
 20
3.238158073726535
 30
0.0
 10
73.72244454499284
 20
3.17206909348215
 30
0.0
 10
73.3294401100651
 20
3.006870405602929
 30
0.0
 10
73.05670233251757
 20
2.937971422905369
 30
0.0
 10
72.77914996898987
 20
2.906664270008227
 30
0.0
  0
SPLINE
  5
C2
330
1F
100
AcDbEntity
  8
0
  6
Continuous
 62
     1
370
    15
100
AcDbSpline
210
0.0
220
0.0
230
1.0
 70
     8
 71
     3
 72
     8
 73
     4
 74
     0
 42
0.000000001
 43
0.00000001
 40
0.0
 40
0.0
 40
0.0
 40
0.0
 40
1.0
 40
1.0
 40
1.0
 40
1.0
 10
75.42372213298417
 20
1.531147021911055
 30
0.0
 10
74.51442023874843
 20
2.058259412536293
 30
0.0
 10
73.63230478172933
 20
2.518225827299665
 30
0.0
 10
72.77914996898743
 20
2.906664270005225
 30
0.0
  0
LINE
  5
C3
330
1F
100
AcDbEntity
  8
0
  6
Continuous
 62
     1
370
    15
100
AcDbLine
 10
75.42372213298418
 20
1.417550865690455
 30
0.0
 11
75.42372213298417
 21
1.531147021911055
 31
0.0
  0
LINE
  5
C4
330
1F
100
AcDbEntity
  8
0
  6
Continuous
 62
     4
370
    15
100
AcDbLine
 10
11.92372213298415
 20
-5.916372402742341
 30
0.0
 11
11.92372213298415
 21
-1.515921488225099
 31
0.0
  0
LINE
  5
C5
330
1F
100
AcDbEntity
  8
0
  6
Continuous
 62
     4
370
    15
100
AcDbLine
 10
11.92372213298415
 20
7.5407982165741
 30
0.0
 11
11.92372213298416
 21
7.937500000000002
 31
0.0
  0
LINE
  5
C6
330
1F
100
AcDbEntity
  8
0
  6
Continuous
 62
     1
370
    15
100
AcDbLine
 10
75.42372213298417
 20
-3.402272728740174
 30
0.0
 11
75.42372213298418
 21
1.417550865690455
 31
0.0
  0
SPLINE
  5
C7
330
1F
100
AcDbEntity
  8
0
  6
Continuous
 62
     1
370
    15
100
AcDbSpline
210
0.0
220
0.0
230
1.0
 70
     8
 71
     3
 72
     8
 73
     4
 74
     0
 42
0.000000001
 43
0.00000001
 40
0.0
 40
0.0
 40
0.0
 40
0.0
 40
1.0
 40
1.0
 40
1.0
 40
1.0
 10
75.42372213298417
 20
-3.402272728740171
 30
0.0
 10
75.42372213298417
 20
-3.460814964055912
 30
0.0
 10
75.41738972064556
 20
-3.522899404158259
 30
0.0
 10
75.40439432937295
 20
-3.588710960343875
 30
0.0
  0
SPLINE
  5
C8
330
1F
100
AcDbEntity
  8
0
  6
Continuous
 62
     1
370
    15
100
AcDbSpline
210
0.0
220
0.0
230
1.0
 70
     8
 71
     3
 72
     8
 73
     4
 74
     0
 42
0.000000001
 43
0.00000001
 40
0.0
 40
0.0
 40
0.0
 40
0.0
 40
1.0
 40
1.0
 40
1.0
 40
1.0
 10
75.42372213298417
 20
4.742322464718636
 30
0.0
 10
75.42372213298417
 20
4.859406935349963
 30
0.0
 10
75.41738972064559
 20
4.975895897329528
 30
0.0
 10
75.404394329373
 20
5.091758263725995
 30
0.0
  0
LINE
  5
C9
330
1F
100
AcDbEntity
  8
0
  6
Continuous
 62
     1
370
    15
100
AcDbLine
 10
75.42372213298417
 20
1.531147021911055
 30
0.0
 11
75.42372213298417
 21
4.742322464718635
 31
0.0
  0
LINE
  5
CA
330
1F
100
AcDbEntity
  8
0
  6
Continuous
 62
     1
370
    15
100
AcDbLine
 10
75.42372213298417
 20
4.742322464718635
 30
0.0
 11
75.42372213298418
 21
4.889500000000003
 31
0.0
  0
LINE
  5
CB
330
1F
100
AcDbEntity
  8
0
  6
Continuous
 62
     1
370
    15
100
AcDbLine
 10
75.42372213298417
 20
-3.402272728740174
 30
0.0
 11
75.42372213298417
 21
-4.8895
 31
0.0
  0
LINE
  5
CC
330
1F
100
AcDbEntity
  8
중심선
100
AcDbLine
 10
-54.57627786701585
 20
0.0000000000000016
 30
0.0
 11
78.42372213298415
 21
0.000000000000002
 31
0.0
  0
CIRCLE
  5
CD
330
1F
100
AcDbEntity
  8
외형선
100
AcDbCircle
 10
0.0
 20
0.0
 30
0.0
 40
3.000000000000008
  0
INSERT
  5
CE
330
1F
100
AcDbEntity
  8
0
  6
Continuous
 62
     7
100
AcDbBlockReference
 66
     1
  2
블럭10
 10
-3.459633203706932
 20
-42.43033595697421
 30
0.0
  0
ATTRIB
  5
CF
330
CE
100
AcDbEntity
  8
FORMAT
 62
     2
100
AcDbText
 10
-12.64092849244821
 20
-40.35496904414202
 30
0.0
 40
4.233333333333333
  1
E5984902 [ 3 FLUTE ]
 41
0.75
  7
SLDTEXTSTYLE0
 11
-12.64092849244821
 21
-42.47163571080869
 31
0.0
100
AcDbAttribute
  2
AUTOATTR0
 70
     0
 74
     1
  0
SEQEND
  5
D0
330
CE
100
AcDbEntity
  8
0
  6
Continuous
 62
     7
  0
HATCH
  5
D1
330
1F
100
AcDbEntity
  8
중심선
100
AcDbHatch
 10
0.0
 20
0.0
 30
0.0
210
0.0
220
0.0
230
1.0
  2
SOLID
 70
     1
 71
     0
 91
        1
 92
        0
 93
        4
 72
     1
 10
2.255276100673905
 20
-26.18316165533028
 11
-1.190999143163378
 21
-26.18316165533028
 72
     1
 10
-1.190999143163378
 20
-26.18316165533028
 11
-3.3192290023674
 21
-28.71948723590288
 72
     1
 10
-3.3192290023674
 20
-28.71948723590288
 11
0.1270793265830328
 21
-28.71944780660039
 72
     1
 10
0.1270793265830328
 20
-28.71944780660039
 11
2.255276100673905
 21
-26.18316165533028
 97
        0
 75
     0
 76
     1
 98
        1
 10
16.88621868166095
 20
9.615763415945821
  0
HATCH
  5
D2
330
1F
100
AcDbEntity
  8
중심선
100
AcDbHatch
 10
0.0
 20
0.0
 30
0.0
210
0.0
220
0.0
230
1.0
  2
SOLID
 70
     1
 71
     0
 91
        1
 92
        0
 93
        4
 72
     1
 10
7.268040091709857
 20
-26.18316165533031
 11
3.821764847872602
 21
-26.18316165533026
 72
     1
 10
3.821764847872602
 20
-26.18316165533026
 11
-0.7093731604848159
 21
-31.5831616553303
 72
     1
 10
-0.7093731604848159
 20
-31.5831616553303
 11
2.736902083352469
 21
-31.5831616553303
 72
     1
 10
2.736902083352469
 20
-31.5831616553303
 11
7.268040091709857
 21
-26.18316165533031
 97
        0
 75
     0
 76
     1
 98
        1
 10
16.88621868166095
 20
9.615763415945821
  0
HATCH
  5
D3
330
1F
100
AcDbEntity
  8
중심선
100
AcDbHatch
 10
0.0
 20
0.0
 30
0.0
210
0.0
220
0.0
230
1.0
  2
SOLID
 70
     1
 71
     0
 91
        1
 92
        0
 93
        4
 72
     1
 10
12.28080408274578
 20
-26.18316165533031
 11
8.834528838908664
 21
-26.18316165533028
 72
     1
 10
8.834528838908664
 20
-26.18316165533028
 11
1.786091937019387
 21
-34.5831616553303
 72
     1
 10
1.786091937019387
 20
-34.5831616553303
 11
5.23236718085667
 21
-34.5831616553303
 72
     1
 10
5.23236718085667
 20
-34.5831616553303
 11
12.28080408274578
 21
-26.18316165533031
 97
        0
 75
     0
 76
     1
 98
        1
 10
16.88621868166095
 20
9.615763415945821
  0
HATCH
  5
D4
330
1F
100
AcDbEntity
  8
중심선
100
AcDbHatch
 10
0.0
 20
0.0
 30
0.0
210
0.0
220
0.0
230
1.0
  2
SOLID
 70
     1
 71
     0
 91
        1
 92
        0
 93
        6
 72
     3
 10
17.08069451375795
 20
-30.38316165538156
 11
3.960054785062283
 21
1.540882976769353E-10
 40
0.3939339440162628
 50
17.09539180608437
 51
320.0019657685083
 73
     0
 72
     1
 10
18.76369416945852
 20
-28.97105565996861
 11
21.06899604315961
 21
-27.03672894992066
 72
     3
 10
17.0806945137051
 20
-30.38316165533043
 11
6.600054785286829
 21
-1.278976924368180E-13
 40
0.636358354079598
 50
39.99873849337386
 51
368.4976242363725
 73
     1
 72
     1
 10
23.50602700560572
 20
-29.42316165526031
 11
15.76076182054103
 21
-29.42316165526031
 72
     1
 10
15.76076182054103
 20
-29.42316165526031
 11
15.76073677609509
 21
-31.3431616552602
 72
     1
 10
15.76073677609509
 20
-31.3431616552602
 11
20.20211654556713
 21
-31.34316165526017
 97
        0
 75
     0
 76
     1
 98
        1
 10
16.88621868166095
 20
9.615763415945821
  0
POINT
  5
D5
330
1F
100
AcDbEntity
  8
치수문자_일반주서
100
AcDbPoint
 10
-51.57627786701585
 20
-0.1156937548689074
 30
0.0
  0
DIMENSION
  5
D6
102
{ACAD_REACTORS
102
}
330
1F
100
AcDbEntity
  8
치수문자_일반주서
100
AcDbDimension
  2
_D
 10
11.92372213298416
 20
25.18392871963101
 30
0.0
 11
43.67372213298415
 21
25.18392871963101
 31
0.0
 70
   160
  1
<>
 71
     2
 42
63.50000000000004
  3
SLDDIMSTYLE0
100
AcDbAlignedDimension
 13
75.4237221329842
 23
7.937500000000002
 33
0.0
 14
11.92372213298416
 24
7.937500000000002
 34
0.0
 50
0.0000000000000192
100
AcDbRotatedDimension
1001
ACAD
1000
DSTYLE
1002
{
1070
   171
1070
     6
1070
   273
1070
     5
1002
}
  0
DIMENSION
  5
EA
330
1F
100
AcDbEntity
  8
치수문자_일반주서
100
AcDbDimension
  2
_D_1
 10
-51.57627786701583
 20
55.56109778227561
 30
0.0
 11
11.41656757052774
 21
55.56109778227561
 31
0.0
 70
   160
  1
<>
 71
     2
 42
127.0
  3
SLDDIMSTYLE1
100
AcDbAlignedDimension
 13
75.4237221329842
 23
8.000000000000002
 33
0.0
 14
-51.57627786701583
 24
7.437499999999997
 34
0.0
 50
0.0000000000000064
100
AcDbRotatedDimension
1001
ACAD
1000
DSTYLE
1002
{
1070
   171
1070
     6
1070
   273
1070
     5
1002
}
  0
INSERT
  5
115
330
1F
100
AcDbEntity
  8
외형선
100
AcDbBlockReference
  2
SW_DOWELSYMBOL_0
 10
0.0
 20
0.0
 30
0.0
  0
DIMENSION
  5
13B
102
{ACAD_REACTORS
102
}
102
{ACAD_XDICTIONARY
360
13C
102
}
330
1F
100
AcDbEntity
  8
치수문자_일반주서
100
AcDbDimension
  2
*D7
 10
-62.57298559655074
 20
-7.937499999999996
 30
0.0
 11
-62.57298559655074
 21
25.45825
 31
0.0
 70
   160
  1
{Ø<>[]}
 71
     5
 42
15.875
  3
SLDDIMSTYLE1
100
AcDbAlignedDimension
 13
-51.07627786701583
 23
7.937499999999998
 33
0.0
 14
-51.07627786701583
 24
-7.937499999999999
 34
0.0
 50
90.0
100
AcDbRotatedDimension
1001
ACAD
1000
DSTYLE
1002
{
1070
   171
1070
     6
1070
   273
1070
     5
1070
   283
1070
     1
1070
   170
1070
     1
1002
}
  0
ARC
  5
150
102
{ACAD_REACTORS
102
}
330
1F
100
AcDbEntity
  8
0
  6
Continuous
 62
     1
370
    15
100
AcDbCircle
 10
72.37572213298417
 20
-4.8895
 30
0.0
 40
3.047999999999999
100
AcDbArc
 50
270.0
 51
0.0
  0
ARC
  5
151
330
1F
100
AcDbEntity
  8
0
  6
Continuous
 62
     1
370
    15
100
AcDbCircle
 10
72.37572213298417
 20
4.889500000000004
 30
0.0
 40
3.047999999999999
100
AcDbArc
 50
0.0
 51
90.0
  0
DIMENSION
  5
152
102
{ACAD_XDICTIONARY
360
153
102
}
330
1F
100
AcDbEntity
  8
치수문자_일반주서
100
AcDbDimension
  2
*D8
 10
83.86753930850048
 20
7.937500000000001
 30
0.0
 11
81.24253930850048
 21
25.2395
 31
0.0
 70
    32
  1
{Ø<>[]}
 71
     5
 42
15.875
  3
SLDDIMSTYLE0
100
AcDbAlignedDimension
 13
75.42372213298417
 23
-7.937499999999999
 33
0.0
 14
75.4237221329842
 24
7.937500000000002
 34
0.0
 50
90.0
100
AcDbRotatedDimension
1001
ACAD
1000
DSTYLE
1002
{
1070
   171
1070
     6
1070
   273
1070
     5
1070
   283
1070
     1
1070
   170
1070
     1
1002
}
  0
DIMENSION
  5
164
102
{ACAD_REACTORS
102
}
102
{ACAD_XDICTIONARY
360
165
102
}
330
1F
100
AcDbEntity
  8
치수문자_일반주서
100
AcDbDimension
  2
*D9
 10
72.37572213298417
 20
-4.8895
 30
0.0
 11
86.409123914391
 21
-23.92842692463541
 31
0.0
 70
   164
  1
<>
 71
     5
 42
3.047999999999999
  3
SLDDIMSTYLE0
100
AcDbRadialDimension
 15
74.1841868983202
 25
-7.343019755889089
 35
0.0
 40
0.0
1001
ACAD_DSTYLE_DIMRADIAL_EXTENSION
1070
   387
1070
     1
1070
   388
1040
4.71238898038469
1070
   390
1040
0.0
  0
ENDSEC
  0
SECTION
  2
OBJECTS
  0
DICTIONARY
  5
C
330
0
100
AcDbDictionary
281
     1
  3
ACAD_GROUP
350
D
  3
ACAD_IMAGE_VARS
350
139
  3
ACAD_LAYOUT
350
1A
  3
ACAD_MLINESTYLE
350
17
  3
ACAD_PLOTSETTINGS
350
19
  3
ACAD_PLOTSTYLENAME
350
E
  3
ACAD_SCALELIST
350
47
  3
APPDATA
350
137
  3
DWGPROPS
350
174
  0
DICTIONARY
  5
13C
330
13B
100
AcDbDictionary
280
     1
281
     1
  0
DICTIONARY
  5
153
330
152
100
AcDbDictionary
280
     1
281
     1
  0
DICTIONARY
  5
165
330
164
100
AcDbDictionary
280
     1
281
     1
  0
DICTIONARY
  5
D
102
{ACAD_REACTORS
330
C
102
}
330
C
100
AcDbDictionary
281
     1
  0
RASTERVARIABLES
  5
139
102
{ACAD_REACTORS
330
C
102
}
330
C
100
AcDbRasterVariables
 90
        0
 70
     1
 71
     1
 72
     1
  0
DICTIONARY
  5
1A
102
{ACAD_REACTORS
330
C
102
}
330
C
100
AcDbDictionary
281
     1
  3
Layout1
350
1E
  3
Layout2
350
26
  3
Model
350
22
  0
DICTIONARY
  5
17
102
{ACAD_REACTORS
330
C
102
}
330
C
100
AcDbDictionary
281
     1
  3
Standard
350
18
  0
DICTIONARY
  5
19
102
{ACAD_REACTORS
330
C
102
}
330
C
100
AcDbDictionary
281
     1
  0
ACDBDICTIONARYWDFLT
  5
E
102
{ACAD_REACTORS
330
C
102
}
330
C
100
AcDbDictionary
281
     1
  3
Normal
350
F
100
AcDbDictionaryWithDefault
340
F
  0
DICTIONARY
  5
47
102
{ACAD_REACTORS
330
C
102
}
330
C
100
AcDbDictionary
281
     1
  3
A0
350
48
  3
A1
350
49
  3
A2
350
4A
  3
A3
350
4B
  3
A4
350
4C
  3
A5
350
4D
  3
A6
350
4E
  3
A7
350
4F
  3
A8
350
50
  3
A9
350
51
  3
B0
350
52
  3
B1
350
53
  3
B2
350
54
  3
B3
350
55
  3
B4
350
56
  3
B5
350
57
  3
B6
350
58
  3
B7
350
59
  3
B8
350
5A
  3
B9
350
5B
  3
C0
350
5C
  3
C1
350
5D
  3
C2
350
5E
  3
C3
350
5F
  3
C4
350
60
  3
C5
350
61
  3
C6
350
62
  3
C7
350
63
  3
C8
350
64
  3
C9
350
65
  3
D0
350
66
  3
D1
350
67
  3
D2
350
68
  0
DICTIONARY
  5
137
102
{ACAD_REACTORS
330
C
102
}
330
C
100
AcDbDictionary
281
     1
  0
XRECORD
  5
174
102
{ACAD_REACTORS
330
C
102
}
330
C
100
AcDbXrecord
280
     1
  1
DWGPROPS COOKIE
  2

  3

  4

  6

  7

  8
12014074
  9

300
=
301
=
302
=
303
=
304
=
305
=
306
=
307
=
308
=
309
=
 40
0.0
 41
2458269.058765116
 42
2458269.973909526
  1

 90
        0
  0
LAYOUT
  5
1E
102
{ACAD_REACTORS
330
1A
102
}
330
1A
100
AcDbPlotSettings
  1

  2
none_device
  4

  6

 40
0.0
 41
0.0
 42
0.0
 43
0.0
 44
0.0
 45
0.0
 46
0.0
 47
0.0
 48
0.0
 49
0.0
140
0.0
141
0.0
142
1.0
143
1.0
 70
   688
 72
     1
 73
     0
 74
     5
  7

 75
    16
147
1.0
148
0.0
149
0.0
100
AcDbLayout
  1
Layout1
 70
     1
 71
     1
 10
0.0
 20
0.0
 11
420.0
 21
297.0
 12
0.0
 22
0.0
 32
0.0
 14
1.000000000000000E+20
 24
1.000000000000000E+20
 34
1.000000000000000E+20
 15
-1.000000000000000E+20
 25
-1.000000000000000E+20
 35
-1.000000000000000E+20
146
0.0
 13
0.0
 23
0.0
 33
0.0
 16
1.0
 26
0.0
 36
0.0
 17
0.0
 27
1.0
 37
0.0
 76
     0
330
1B
  0
LAYOUT
  5
26
102
{ACAD_REACTORS
330
1A
102
}
330
1A
100
AcDbPlotSettings
  1

  2
none_device
  4

  6

 40
0.0
 41
0.0
 42
0.0
 43
0.0
 44
0.0
 45
0.0
 46
0.0
 47
0.0
 48
0.0
 49
0.0
140
0.0
141
0.0
142
1.0
143
1.0
 70
   688
 72
     1
 73
     0
 74
     5
  7

 75
    16
147
1.0
148
0.0
149
0.0
100
AcDbLayout
  1
Layout2
 70
     1
 71
     2
 10
0.0
 20
0.0
 11
0.0
 21
0.0
 12
0.0
 22
0.0
 32
0.0
 14
0.0
 24
0.0
 34
0.0
 15
0.0
 25
0.0
 35
0.0
146
0.0
 13
0.0
 23
0.0
 33
0.0
 16
1.0
 26
0.0
 36
0.0
 17
0.0
 27
1.0
 37
0.0
 76
     0
330
23
  0
LAYOUT
  5
22
102
{ACAD_REACTORS
330
1A
102
}
330
1A
100
AcDbPlotSettings
  1

  2
none_device
  4
ANSI_A_(11.00_x_8.50_Inches)
  6

 40
6.35
 41
19.05
 42
6.35000508
 43
19.05000254
 44
279.4
 45
215.9
 46
131.3354859671026
 47
74.60753872107644
 48
0.0
 49
0.0
140
0.0
141
0.0
142
0.0718688043815392
143
1.0
 70
  1696
 72
     0
 73
     0
 74
     0
  7

 75
     0
147
0.0235690232323232
148
0.0
149
0.0
100
AcDbLayout
  1
Model
 70
     1
 71
     0
 10
0.0
 20
0.0
 11
420.0
 21
297.0
 12
0.0
 22
0.0
 32
0.0
 14
-66.94798559655074
 24
-40.35496904414202
 34
0.0
 15
97.71826071788519
 25
59.93609778227561
 35
0.0
146
0.0
 13
0.0
 23
0.0
 33
0.0
 16
1.0
 26
0.0
 36
0.0
 17
0.0
 27
1.0
 37
0.0
 76
     0
330
1F
331
29
  0
MLINESTYLE
  5
18
102
{ACAD_REACTORS
330
17
102
}
330
17
100
AcDbMlineStyle
  2
Standard
 70
     0
  3

 62
   256
 51
90.0
 52
90.0
 71
     2
 49
0.5
 62
   256
  6
BYLAYER
 49
-0.5
 62
   256
  6
BYLAYER
  0
ACDBPLACEHOLDER
  5
F
102
{ACAD_REACTORS
330
E
102
}
330
E
  0
SCALE
  5
48
102
{ACAD_REACTORS
330
47
102
}
330
47
100
AcDbScale
 70
     0
300
1:1
140
1.0
141
1.0
290
     1
  0
SCALE
  5
49
102
{ACAD_REACTORS
330
47
102
}
330
47
100
AcDbScale
 70
     0
300
1:2
140
1.0
141
2.0
290
     0
  0
SCALE
  5
4A
102
{ACAD_REACTORS
330
47
102
}
330
47
100
AcDbScale
 70
     0
300
1:4
140
1.0
141
4.0
290
     0
  0
SCALE
  5
4B
102
{ACAD_REACTORS
330
47
102
}
330
47
100
AcDbScale
 70
     0
300
1:5
140
1.0
141
5.0
290
     0
  0
SCALE
  5
4C
102
{ACAD_REACTORS
330
47
102
}
330
47
100
AcDbScale
 70
     0
300
1:8
140
1.0
141
8.0
290
     0
  0
SCALE
  5
4D
102
{ACAD_REACTORS
330
47
102
}
330
47
100
AcDbScale
 70
     0
300
1:10
140
1.0
141
10.0
290
     0
  0
SCALE
  5
4E
102
{ACAD_REACTORS
330
47
102
}
330
47
100
AcDbScale
 70
     0
300
1:16
140
1.0
141
16.0
290
     0
  0
SCALE
  5
4F
102
{ACAD_REACTORS
330
47
102
}
330
47
100
AcDbScale
 70
     0
300
1:20
140
1.0
141
20.0
290
     0
  0
SCALE
  5
50
102
{ACAD_REACTORS
330
47
102
}
330
47
100
AcDbScale
 70
     0
300
1:30
140
1.0
141
30.0
290
     0
  0
SCALE
  5
51
102
{ACAD_REACTORS
330
47
102
}
330
47
100
AcDbScale
 70
     0
300
1:40
140
1.0
141
40.0
290
     0
  0
SCALE
  5
52
102
{ACAD_REACTORS
330
47
102
}
330
47
100
AcDbScale
 70
     0
300
1:50
140
1.0
141
50.0
290
     0
  0
SCALE
  5
53
102
{ACAD_REACTORS
330
47
102
}
330
47
100
AcDbScale
 70
     0
300
1:100
140
1.0
141
100.0
290
     0
  0
SCALE
  5
54
102
{ACAD_REACTORS
330
47
102
}
330
47
100
AcDbScale
 70
     0
300
2:1
140
2.0
141
1.0
290
     0
  0
SCALE
  5
55
102
{ACAD_REACTORS
330
47
102
}
330
47
100
AcDbScale
 70
     0
300
4:1
140
4.0
141
1.0
290
     0
  0
SCALE
  5
56
102
{ACAD_REACTORS
330
47
102
}
330
47
100
AcDbScale
 70
     0
300
8:1
140
8.0
141
1.0
290
     0
  0
SCALE
  5
57
102
{ACAD_REACTORS
330
47
102
}
330
47
100
AcDbScale
 70
     0
300
10:1
140
10.0
141
1.0
290
     0
  0
SCALE
  5
58
102
{ACAD_REACTORS
330
47
102
}
330
47
100
AcDbScale
 70
     0
300
100:1
140
100.0
141
1.0
290
     0
  0
SCALE
  5
59
102
{ACAD_REACTORS
330
47
102
}
330
47
100
AcDbScale
 70
     0
300
1/128" = 1'-0"
140
0.0078125
141
12.0
290
     0
  0
SCALE
  5
5A
102
{ACAD_REACTORS
330
47
102
}
330
47
100
AcDbScale
 70
     0
300
1/64" = 1'-0"
140
0.015625
141
12.0
290
     0
  0
SCALE
  5
5B
102
{ACAD_REACTORS
330
47
102
}
330
47
100
AcDbScale
 70
     0
300
1/32" = 1'-0"
140
0.03125
141
12.0
290
     0
  0
SCALE
  5
5C
102
{ACAD_REACTORS
330
47
102
}
330
47
100
AcDbScale
 70
     0
300
1/16" = 1'-0"
140
0.0625
141
12.0
290
     0
  0
SCALE
  5
5D
102
{ACAD_REACTORS
330
47
102
}
330
47
100
AcDbScale
 70
     0
300
3/32" = 1'-0"
140
0.09375
141
12.0
290
     0
  0
SCALE
  5
5E
102
{ACAD_REACTORS
330
47
102
}
330
47
100
AcDbScale
 70
     0
300
1/8" = 1'-0"
140
0.125
141
12.0
290
     0
  0
SCALE
  5
5F
102
{ACAD_REACTORS
330
47
102
}
330
47
100
AcDbScale
 70
     0
300
3/16" = 1'-0"
140
0.1875
141
12.0
290
     0
  0
SCALE
  5
60
102
{ACAD_REACTORS
330
47
102
}
330
47
100
AcDbScale
 70
     0
300
1/4" = 1'-0"
140
0.25
141
12.0
290
     0
  0
SCALE
  5
61
102
{ACAD_REACTORS
330
47
102
}
330
47
100
AcDbScale
 70
     0
300
3/8" = 1'-0"
140
0.375
141
12.0
290
     0
  0
SCALE
  5
62
102
{ACAD_REACTORS
330
47
102
}
330
47
100
AcDbScale
 70
     0
300
1/2" = 1'-0"
140
0.5
141
12.0
290
     0
  0
SCALE
  5
63
102
{ACAD_REACTORS
330
47
102
}
330
47
100
AcDbScale
 70
     0
300
3/4" = 1'-0"
140
0.75
141
12.0
290
     0
  0
SCALE
  5
64
102
{ACAD_REACTORS
330
47
102
}
330
47
100
AcDbScale
 70
     0
300
1" = 1'-0"
140
1.0
141
12.0
290
     0
  0
SCALE
  5
65
102
{ACAD_REACTORS
330
47
102
}
330
47
100
AcDbScale
 70
     0
300
1-1/2" = 1'-0"
140
1.5
141
12.0
290
     0
  0
SCALE
  5
66
102
{ACAD_REACTORS
330
47
102
}
330
47
100
AcDbScale
 70
     0
300
3" = 1'-0"
140
3.0
141
12.0
290
     0
  0
SCALE
  5
67
102
{ACAD_REACTORS
330
47
102
}
330
47
100
AcDbScale
 70
     0
300
6" = 1'-0"
140
6.0
141
12.0
290
     0
  0
SCALE
  5
68
102
{ACAD_REACTORS
330
47
102
}
330
47
100
AcDbScale
 70
     0
300
1'-0" = 1'-0"
140
12.0
141
12.0
290
     0
  0
ENDSEC
  0
EOF
