  0
SECTION
  2
HEADER
  9
$ACADVER
  1
AC1015
  9
$ACADMAINTVER
 70
     6
  9
$DWGCODEPAGE
  3
ANSI_949
  9
$INSBASE
 10
0.0
 20
0.0
 30
0.0
  9
$EXTMIN
 10
-88.98227806929276
 20
-38.06504019086516
 30
0.0
  9
$EXTMAX
 10
77.55770322927124
 20
74.14725965011003
 30
0.0
  9
$LIMMIN
 10
0.0
 20
0.0
  9
$LIMMAX
 10
420.0
 20
297.0
  9
$ORTHOMODE
 70
     0
  9
$REGENMODE
 70
     1
  9
$FILLMODE
 70
     1
  9
$QTEXTMODE
 70
     0
  9
$MIRRTEXT
 70
     1
  9
$LTSCALE
 40
1.0
  9
$ATTMODE
 70
     1
  9
$TEXTSIZE
 40
3.5
  9
$TRACEWID
 40
1.0
  9
$TEXTSTYLE
  7
Standard
  9
$CLAYER
  8
0
  9
$CELTYPE
  6
ByLayer
  9
$CECOLOR
 62
   256
  9
$CELTSCALE
 40
1.0
  9
$DISPSILH
 70
     0
  9
$DIMSCALE
 40
1.0
  9
$DIMASZ
 40
3.302
  9
$DIMEXO
 40
1.0
  9
$DIMDLI
 40
3.75
  9
$DIMRND
 40
0.0
  9
$DIMDLE
 40
0.0
  9
$DIMEXE
 40
1.0
  9
$DIMTP
 40
0.0
  9
$DIMTM
 40
0.0
  9
$DIMTXT
 40
3.5
  9
$DIMCEN
 40
2.5
  9
$DIMTSZ
 40
0.0
  9
$DIMTOL
 70
     0
  9
$DIMLIM
 70
     0
  9
$DIMTIH
 70
     1
  9
$DIMTOH
 70
     1
  9
$DIMSE1
 70
     0
  9
$DIMSE2
 70
     0
  9
$DIMTAD
 70
     1
  9
$DIMZIN
 70
     0
  9
$DIMBLK
  1

  9
$DIMASO
 70
     1
  9
$DIMSHO
 70
     1
  9
$DIMPOST
  1

  9
$DIMAPOST
  1

  9
$DIMALT
 70
     0
  9
$DIMALTD
 70
     3
  9
$DIMALTF
 40
0.0393700787401575
  9
$DIMLFAC
 40
1.0
  9
$DIMTOFL
 70
     1
  9
$DIMTVP
 40
0.0
  9
$DIMTIX
 70
     0
  9
$DIMSOXD
 70
     0
  9
$DIMSAH
 70
     0
  9
$DIMBLK1
  1

  9
$DIMBLK2
  1

  9
$DIMSTYLE
  2
ISO-25
  9
$DIMCLRD
 70
     0
  9
$DIMCLRE
 70
     0
  9
$DIMCLRT
 70
     0
  9
$DIMTFAC
 40
1.0
  9
$DIMGAP
 40
1.524
  9
$DIMJUST
 70
     0
  9
$DIMSD1
 70
     0
  9
$DIMSD2
 70
     0
  9
$DIMTOLJ
 70
     0
  9
$DIMTZIN
 70
     0
  9
$DIMALTZ
 70
     0
  9
$DIMALTTZ
 70
     0
  9
$DIMUPT
 70
     0
  9
$DIMDEC
 70
     2
  9
$DIMTDEC
 70
     2
  9
$DIMALTU
 70
     2
  9
$DIMALTTD
 70
     3
  9
$DIMTXSTY
  7
Standard
  9
$DIMAUNIT
 70
     0
  9
$DIMADEC
 70
     2
  9
$DIMALTRND
 40
0.0
  9
$DIMAZIN
 70
     0
  9
$DIMDSEP
 70
    44
  9
$DIMATFIT
 70
     3
  9
$DIMFRAC
 70
     0
  9
$DIMLDRBLK
  1

  9
$DIMLUNIT
 70
     2
  9
$DIMLWD
 70
    -2
  9
$DIMLWE
 70
    -2
  9
$DIMTMOVE
 70
     0
  9
$LUNITS
 70
     2
  9
$LUPREC
 70
     2
  9
$SKETCHINC
 40
1.0
  9
$FILLETRAD
 40
10.0
  9
$AUNITS
 70
     0
  9
$AUPREC
 70
     2
  9
$MENU
  1
.
  9
$ELEVATION
 40
0.0
  9
$PELEVATION
 40
0.0
  9
$THICKNESS
 40
0.0
  9
$LIMCHECK
 70
     0
  9
$CHAMFERA
 40
0.0
  9
$CHAMFERB
 40
0.0
  9
$CHAMFERC
 40
0.0
  9
$CHAMFERD
 40
0.0
  9
$SKPOLY
 70
     0
  9
$TDCREATE
 40
2458269.416536585
  9
$TDUCREATE
 40
2458269.041536585
  9
$TDUPDATE
 40
2458270.489264282
  9
$TDUUPDATE
 40
2458270.114264282
  9
$TDINDWG
 40
0.0015895023
  9
$TDUSRTIMER
 40
2458270.110009687
  9
$USRTIMER
 70
     1
  9
$ANGBASE
 50
0.0
  9
$ANGDIR
 70
     0
  9
$PDMODE
 70
     0
  9
$PDSIZE
 40
-1.0
  9
$PLINEWID
 40
0.0
  9
$SPLFRAME
 70
     0
  9
$SPLINETYPE
 70
     6
  9
$SPLINESEGS
 70
     8
  9
$HANDSEED
  5
182
  9
$SURFTAB1
 70
     6
  9
$SURFTAB2
 70
     6
  9
$SURFTYPE
 70
     6
  9
$SURFU
 70
     6
  9
$SURFV
 70
     6
  9
$UCSBASE
  2

  9
$UCSNAME
  2

  9
$UCSORG
 10
0.0
 20
0.0
 30
0.0
  9
$UCSXDIR
 10
1.0
 20
0.0
 30
0.0
  9
$UCSYDIR
 10
0.0
 20
1.0
 30
0.0
  9
$UCSORTHOREF
  2

  9
$UCSORTHOVIEW
 70
     0
  9
$UCSORGTOP
 10
0.0
 20
0.0
 30
0.0
  9
$UCSORGBOTTOM
 10
0.0
 20
0.0
 30
0.0
  9
$UCSORGLEFT
 10
0.0
 20
0.0
 30
0.0
  9
$UCSORGRIGHT
 10
0.0
 20
0.0
 30
0.0
  9
$UCSORGFRONT
 10
0.0
 20
0.0
 30
0.0
  9
$UCSORGBACK
 10
0.0
 20
0.0
 30
0.0
  9
$PUCSBASE
  2

  9
$PUCSNAME
  2

  9
$PUCSORG
 10
0.0
 20
0.0
 30
0.0
  9
$PUCSXDIR
 10
1.0
 20
0.0
 30
0.0
  9
$PUCSYDIR
 10
0.0
 20
1.0
 30
0.0
  9
$PUCSORTHOREF
  2

  9
$PUCSORTHOVIEW
 70
     0
  9
$PUCSORGTOP
 10
0.0
 20
0.0
 30
0.0
  9
$PUCSORGBOTTOM
 10
0.0
 20
0.0
 30
0.0
  9
$PUCSORGLEFT
 10
0.0
 20
0.0
 30
0.0
  9
$PUCSORGRIGHT
 10
0.0
 20
0.0
 30
0.0
  9
$PUCSORGFRONT
 10
0.0
 20
0.0
 30
0.0
  9
$PUCSORGBACK
 10
0.0
 20
0.0
 30
0.0
  9
$USERI1
 70
     0
  9
$USERI2
 70
     0
  9
$USERI3
 70
     0
  9
$USERI4
 70
     0
  9
$USERI5
 70
     0
  9
$USERR1
 40
0.0
  9
$USERR2
 40
0.0
  9
$USERR3
 40
0.0
  9
$USERR4
 40
0.0
  9
$USERR5
 40
0.0
  9
$WORLDVIEW
 70
     1
  9
$SHADEDGE
 70
     3
  9
$SHADEDIF
 70
    70
  9
$TILEMODE
 70
     1
  9
$MAXACTVP
 70
    64
  9
$PINSBASE
 10
0.0
 20
0.0
 30
0.0
  9
$PLIMCHECK
 70
     0
  9
$PEXTMIN
 10
1.000000000000000E+20
 20
1.000000000000000E+20
 30
1.000000000000000E+20
  9
$PEXTMAX
 10
-1.000000000000000E+20
 20
-1.000000000000000E+20
 30
-1.000000000000000E+20
  9
$PLIMMIN
 10
0.0
 20
0.0
  9
$PLIMMAX
 10
0.0
 20
0.0
  9
$UNITMODE
 70
     0
  9
$VISRETAIN
 70
     1
  9
$PLINEGEN
 70
     0
  9
$PSLTSCALE
 70
     1
  9
$TREEDEPTH
 70
  3020
  9
$CMLSTYLE
  2
Standard
  9
$CMLJUST
 70
     0
  9
$CMLSCALE
 40
20.0
  9
$PROXYGRAPHICS
 70
     1
  9
$MEASUREMENT
 70
     1
  9
$CELWEIGHT
370
    -1
  9
$ENDCAPS
280
     0
  9
$JOINSTYLE
280
     0
  9
$LWDISPLAY
290
     1
  9
$INSUNITS
 70
     4
  9
$HYPERLINKBASE
  1

  9
$STYLESHEET
  1

  9
$XEDIT
290
     1
  9
$CEPSNTYPE
380
     0
  9
$PSTYLEMODE
290
     1
  9
$FINGERPRINTGUID
  2
{68943F5D-D2DE-4472-B23A-6EEABBC31E42}
  9
$VERSIONGUID
  2
{FAEB1C32-E019-11D5-929B-00C0DF256EC4}
  9
$EXTNAMES
290
     1
  9
$PSVPSCALE
 40
0.0
  9
$OLESTARTUP
290
     0
  0
ENDSEC
  0
SECTION
  2
CLASSES
  0
CLASS
  1
ACDBDICTIONARYWDFLT
  2
AcDbDictionaryWithDefault
  3
ObjectDBX Classes
 90
        0
280
     0
281
     0
  0
CLASS
  1
VISUALSTYLE
  2
AcDbVisualStyle
  3
ObjectDBX Classes
 90
     4095
280
     0
281
     0
  0
CLASS
  1
MATERIAL
  2
AcDbMaterial
  3
ObjectDBX Classes
 90
     1153
280
     0
281
     0
  0
CLASS
  1
SCALE
  2
AcDbScale
  3
ObjectDBX Classes
 90
     1153
280
     0
281
     0
  0
CLASS
  1
SUN
  2
AcDbSun
  3
SCENEOE
 90
     1153
280
     0
281
     0
  0
CLASS
  1
ACDBPLACEHOLDER
  2
AcDbPlaceHolder
  3
ObjectDBX Classes
 90
        0
280
     0
281
     0
  0
CLASS
  1
LAYOUT
  2
AcDbLayout
  3
ObjectDBX Classes
 90
        0
280
     0
281
     0
  0
CLASS
  1
TABLESTYLE
  2
AcDbTableStyle
  3
ObjectDBX Classes
 90
     4095
280
     0
281
     0
  0
CLASS
  1
MLEADERSTYLE
  2
AcDbMLeaderStyle
  3
ACDB_MLEADERSTYLE_CLASS
 90
     4095
280
     0
281
     0
  0
CLASS
  1
RASTERVARIABLES
  2
AcDbRasterVariables
  3
ISM
 90
        0
280
     0
281
     0
  0
CLASS
  1
DIMASSOC
  2
AcDbDimAssoc
  3
"AcDbDimAssoc|Product Desc:     AcDim ARX App For Dimension|Company:          Autodesk, Inc.|WEB Address:      www.autodesk.com"
 90
        0
280
     0
281
     0
  0
ENDSEC
  0
SECTION
  2
TABLES
  0
TABLE
  2
VPORT
  5
8
330
0
100
AcDbSymbolTable
 70
     1
  0
VPORT
  5
29
330
8
100
AcDbSymbolTableRecord
100
AcDbViewportTableRecord
  2
*Active
 70
     0
 10
0.0
 20
0.0
 11
1.0
 21
1.0
 12
29.89361008862362
 22
19.68747200048423
 13
0.0
 23
0.0
 14
10.0
 24
10.0
 15
10.0
 25
10.0
 16
0.0
 26
0.0
 36
1.0
 17
0.0
 27
0.0
 37
0.0
 40
169.0095667188869
 41
1.970186335403727
 42
50.0
 43
0.0
 44
0.0
 50
0.0
 51
0.0
 71
    16
 72
  2000
 73
     1
 74
     3
 75
     0
 76
     0
 77
     0
 78
     0
281
     0
 65
     1
110
0.0
120
0.0
130
0.0
111
1.0
121
0.0
131
0.0
112
0.0
122
1.0
132
0.0
 79
     0
146
0.0
  0
ENDTAB
  0
TABLE
  2
LTYPE
  5
5
330
0
100
AcDbSymbolTable
 70
     6
  0
LTYPE
  5
14
330
5
100
AcDbSymbolTableRecord
100
AcDbLinetypeTableRecord
  2
ByBlock
 70
     0
  3

 72
    65
 73
     0
 40
0.0
  0
LTYPE
  5
15
330
5
100
AcDbSymbolTableRecord
100
AcDbLinetypeTableRecord
  2
ByLayer
 70
     0
  3

 72
    65
 73
     0
 40
0.0
  0
LTYPE
  5
16
330
5
100
AcDbSymbolTableRecord
100
AcDbLinetypeTableRecord
  2
Continuous
 70
     0
  3
Solid line
 72
    65
 73
     0
 40
0.0
  0
LTYPE
  5
6A
330
5
100
AcDbSymbolTableRecord
100
AcDbLinetypeTableRecord
  2
HIDDEN
 70
     0
  3
Hidden __ __ __ __ __ __ __ __ __ __ __ __ __ __
 72
    65
 73
     2
 40
1.905
 49
1.27
 74
     0
 49
-0.635
 74
     0
  0
LTYPE
  5
6B
330
5
100
AcDbSymbolTableRecord
100
AcDbLinetypeTableRecord
  2
PHANTOM
 70
     0
  3
Phantom ______  __  __  ______  __  __  ______
 72
    65
 73
     6
 40
12.7
 49
6.35
 74
     0
 49
-1.27
 74
     0
 49
1.27
 74
     0
 49
-1.27
 74
     0
 49
1.27
 74
     0
 49
-1.27
 74
     0
  0
LTYPE
  5
6C
330
5
100
AcDbSymbolTableRecord
100
AcDbLinetypeTableRecord
  2
CENTER
 70
     0
  3
Center ____ _ ____ _ ____ _ ____ _ ____ _ ____
 72
    65
 73
     4
 40
10.16
 49
6.35
 74
     0
 49
-1.27
 74
     0
 49
1.27
 74
     0
 49
-1.27
 74
     0
  0
LTYPE
  5
6D
330
5
100
AcDbSymbolTableRecord
100
AcDbLinetypeTableRecord
  2
CENTERX2
 70
     0
  3
Center (2x) ________  __  ________  __  _____
 72
    65
 73
     4
 40
20.32
 49
12.7
 74
     0
 49
-2.54
 74
     0
 49
2.54
 74
     0
 49
-2.54
 74
     0
  0
LTYPE
  5
6E
330
5
100
AcDbSymbolTableRecord
100
AcDbLinetypeTableRecord
  2
DOT2
 70
     0
  3
Dot (.5x) ........................................
 72
    65
 73
     2
 40
0.635
 49
0.0
 74
     0
 49
-0.635
 74
     0
  0
ENDTAB
  0
TABLE
  2
LAYER
  5
2
330
0
100
AcDbSymbolTable
 70
    17
  0
LAYER
  5
10
330
2
100
AcDbSymbolTableRecord
100
AcDbLayerTableRecord
  2
0
 70
     0
 62
     7
  6
Continuous
370
    -3
390
F
  0
LAYER
  5
6F
330
2
100
AcDbSymbolTableRecord
100
AcDbLayerTableRecord
  2
FORMAT
 70
     0
 62
     2
  6
Continuous
370
    -3
390
F
  0
LAYER
  5
70
330
2
100
AcDbSymbolTableRecord
100
AcDbLayerTableRecord
  2
외형선
 70
     0
 62
   100
  6
Continuous
370
    30
390
F
  0
LAYER
  5
71
330
2
100
AcDbSymbolTableRecord
100
AcDbLayerTableRecord
  2
숨은선
 70
     0
 62
     2
  6
HIDDEN
370
    15
390
F
  0
LAYER
  5
72
330
2
100
AcDbSymbolTableRecord
100
AcDbLayerTableRecord
  2
중심선
 70
     0
 62
     1
  6
CENTERX2
370
    -3
390
F
  0
LAYER
  5
73
330
2
100
AcDbSymbolTableRecord
100
AcDbLayerTableRecord
  2
파단선
 70
     0
 62
     4
  6
Continuous
370
    -3
390
F
  0
LAYER
  5
74
330
2
100
AcDbSymbolTableRecord
100
AcDbLayerTableRecord
  2
해칭선
 70
     0
 62
     4
  6
Continuous
370
    -3
390
F
  0
LAYER
  5
75
330
2
100
AcDbSymbolTableRecord
100
AcDbLayerTableRecord
  2
가는실선
 70
     0
 62
     4
  6
Continuous
370
    -3
390
F
  0
LAYER
  5
76
330
2
100
AcDbSymbolTableRecord
100
AcDbLayerTableRecord
  2
치수_보조선
 70
     0
 62
     4
  6
Continuous
370
    -3
390
F
  0
LAYER
  5
77
330
2
100
AcDbSymbolTableRecord
100
AcDbLayerTableRecord
  2
치수문자_일반주서
 70
     0
 62
     7
  6
Continuous
370
    15
390
F
  0
LAYER
  5
78
330
2
100
AcDbSymbolTableRecord
100
AcDbLayerTableRecord
  2
개별주서
 70
     0
 62
   100
  6
Continuous
370
    30
390
F
  0
LAYER
  5
79
330
2
100
AcDbSymbolTableRecord
100
AcDbLayerTableRecord
  2
중간선
 70
     0
 62
     2
  6
Continuous
370
    15
390
F
  0
LAYER
  5
7A
330
2
100
AcDbSymbolTableRecord
100
AcDbLayerTableRecord
  2
윤곽선
 70
     0
 62
     3
  6
Continuous
370
    40
390
F
  0
LAYER
  5
7B
330
2
100
AcDbSymbolTableRecord
100
AcDbLayerTableRecord
  2
중심마크
 70
     0
 62
   100
  6
Continuous
370
    30
390
F
  0
LAYER
  5
7C
330
2
100
AcDbSymbolTableRecord
100
AcDbLayerTableRecord
  2
가상선
 70
     0
 62
     4
  6
PHANTOM
370
    -3
390
F
  0
LAYER
  5
7D
330
2
100
AcDbSymbolTableRecord
100
AcDbLayerTableRecord
  2
특수지정선
 70
     0
 62
     5
  6
CENTERX2
370
    60
390
F
  0
LAYER
  5
159
330
2
100
AcDbSymbolTableRecord
100
AcDbLayerTableRecord
  2
Defpoints
 70
     0
 62
     7
  6
Continuous
290
     0
370
    -3
390
F
  0
ENDTAB
  0
TABLE
  2
STYLE
  5
3
330
0
100
AcDbSymbolTable
 70
     2
  0
STYLE
  5
11
330
3
100
AcDbSymbolTableRecord
100
AcDbTextStyleTableRecord
  2
Standard
 70
     0
 40
0.0
 41
1.0
 50
0.0
 71
     0
 42
3.5
  3
txt
  4

  0
STYLE
  5
93
330
3
100
AcDbSymbolTableRecord
100
AcDbTextStyleTableRecord
  2
SLDTEXTSTYLE0
 70
     0
 40
0.0
 41
0.75
 50
0.0
 71
     0
 42
3.5
  3
TXT
  4

  0
ENDTAB
  0
TABLE
  2
VIEW
  5
6
330
0
100
AcDbSymbolTable
 70
     0
  0
ENDTAB
  0
TABLE
  2
UCS
  5
7
330
0
100
AcDbSymbolTable
 70
     0
  0
ENDTAB
  0
TABLE
  2
APPID
  5
9
330
0
100
AcDbSymbolTable
 70
     3
  0
APPID
  5
12
330
9
100
AcDbSymbolTableRecord
100
AcDbRegAppTableRecord
  2
ACAD
 70
     0
  0
APPID
  5
16B
330
9
100
AcDbSymbolTableRecord
100
AcDbRegAppTableRecord
  2
ACAD_DSTYLE_DIMRADIAL_EXTENSION
 70
     0
  0
APPID
  5
17D
330
9
100
AcDbSymbolTableRecord
100
AcDbRegAppTableRecord
  2
PE_DIMMEASUREMENT
 70
     0
  0
ENDTAB
  0
TABLE
  2
DIMSTYLE
  5
A
330
0
100
AcDbSymbolTable
 70
     3
100
AcDbDimStyleTable
  0
DIMSTYLE
105
27
330
A
100
AcDbSymbolTableRecord
100
AcDbDimStyleTableRecord
  2
ISO-25
 70
     0
 41
2.5
 42
0.625
 43
3.75
 44
1.25
 73
     0
 74
     0
 77
     1
 78
     8
140
2.5
141
2.5
143
0.03937007874016
147
0.625
171
     3
172
     1
178
     0
271
     2
272
     2
274
     3
278
    44
283
     0
284
     8
340
11
  0
DIMSTYLE
105
D7
102
{ACAD_REACTORS
330
D6
330
100
102
}
330
A
100
AcDbSymbolTableRecord
100
AcDbDimStyleTableRecord
  2
SLDDIMSTYLE0
 70
     0
 41
3.302
 44
0.0
 45
0.000000001
 73
     0
 74
     0
 77
     1
 78
    12
 79
     3
140
3.5
143
0.0393700787401575
147
0.875
148
0.000000001
170
     1
172
     1
173
     1
178
     0
271
     2
272
     2
276
     2
284
    12
289
     0
340
93
  0
DIMSTYLE
105
ED
102
{ACAD_REACTORS
330
EC
330
114
330
15A
330
16C
102
}
330
A
100
AcDbSymbolTableRecord
100
AcDbDimStyleTableRecord
  2
SLDDIMSTYLE1
 70
     0
 41
3.302
 44
0.0
 45
0.000000001
 73
     0
 74
     0
 77
     1
 78
    12
 79
     3
140
3.5
143
0.0393700787401575
147
0.875
148
0.000000001
170
     1
173
     1
178
     0
271
     2
272
     2
276
     2
284
    12
340
93
  0
ENDTAB
  0
TABLE
  2
BLOCK_RECORD
  5
1
330
0
100
AcDbSymbolTable
 70
     9
  0
BLOCK_RECORD
  5
1F
330
1
100
AcDbSymbolTableRecord
100
AcDbBlockTableRecord
  2
*Model_Space
340
22
  0
BLOCK_RECORD
  5
1B
330
1
100
AcDbSymbolTableRecord
100
AcDbBlockTableRecord
  2
*Paper_Space
340
1E
  0
BLOCK_RECORD
  5
23
330
1
100
AcDbSymbolTableRecord
100
AcDbBlockTableRecord
  2
*Paper_Space0
340
26
  0
BLOCK_RECORD
  5
7E
330
1
100
AcDbSymbolTableRecord
100
AcDbBlockTableRecord
  2
블럭10
340
0
102
{BLKREFS
331
CD
102
}
  0
BLOCK_RECORD
  5
D8
330
1
100
AcDbSymbolTableRecord
100
AcDbBlockTableRecord
  2
_D
340
0
  0
BLOCK_RECORD
  5
EE
330
1
100
AcDbSymbolTableRecord
100
AcDbBlockTableRecord
  2
_D_1
340
0
  0
BLOCK_RECORD
  5
101
330
1
100
AcDbSymbolTableRecord
100
AcDbBlockTableRecord
  2
_D_2
340
0
  0
BLOCK_RECORD
  5
115
330
1
100
AcDbSymbolTableRecord
100
AcDbBlockTableRecord
  2
_D_3
340
0
  0
BLOCK_RECORD
  5
127
330
1
100
AcDbSymbolTableRecord
100
AcDbBlockTableRecord
  2
SW_DOWELSYMBOL_0
340
0
102
{BLKREFS
331
12D
102
}
  0
BLOCK_RECORD
  5
15D
330
1
100
AcDbSymbolTableRecord
100
AcDbBlockTableRecord
  2
*D7
340
0
  0
BLOCK_RECORD
  5
16F
330
1
100
AcDbSymbolTableRecord
100
AcDbBlockTableRecord
  2
*D8
340
0
  0
ENDTAB
  0
ENDSEC
  0
SECTION
  2
BLOCKS
  0
BLOCK
  5
20
330
1F
100
AcDbEntity
  8
0
100
AcDbBlockBegin
  2
*Model_Space
 70
     0
 10
0.0
 20
0.0
 30
0.0
  3
*Model_Space
  1
*Model_Space
  0
ENDBLK
  5
21
330
1F
100
AcDbEntity
  8
0
100
AcDbBlockEnd
  0
BLOCK
  5
1C
330
1B
100
AcDbEntity
 67
     1
  8
0
100
AcDbBlockBegin
  2
*Paper_Space
 70
     0
 10
0.0
 20
0.0
 30
0.0
  3
*Paper_Space
  1
*Paper_Space
  0
ENDBLK
  5
1D
330
1B
100
AcDbEntity
 67
     1
  8
0
100
AcDbBlockEnd
  0
BLOCK
  5
24
330
23
100
AcDbEntity
  8
0
100
AcDbBlockBegin
  2
*Paper_Space0
 70
     0
 10
0.0
 20
0.0
 30
0.0
  3
*Paper_Space0
  1
*Paper_Space0
  0
ENDBLK
  5
25
330
23
100
AcDbEntity
  8
0
100
AcDbBlockEnd
  0
BLOCK
  5
7F
330
7E
100
AcDbEntity
  8
0
100
AcDbBlockBegin
  2
블럭10
 70
     2
 10
0.0
 20
0.0
 30
0.0
  3
블럭10
  1
블럭10
  0
ELLIPSE
  5
81
330
7E
100
AcDbEntity
  8
중심선
100
AcDbEllipse
 10
20.54032771741204
 20
12.0471743016438
 30
0.0
 11
6.600054785286829
 21
-1.261213355974178E-13
 31
0.0
210
0.0
220
0.0
230
1.0
 40
0.636358354079598
 41
0.9219305317359503
 42
6.513795318482858
  0
ELLIPSE
  5
82
330
7E
100
AcDbEntity
  8
중심선
100
AcDbEllipse
 10
20.54032771746488
 20
12.04717430159265
 30
0.0
 11
3.960054785062283
 21
1.540847449632565E-10
 31
0.0
210
0.0
220
0.0
230
1.0
 40
0.3939339440162632
 41
1.131841032648279
 42
5.62031148352944
  0
LINE
  5
83
330
7E
100
AcDbEntity
  8
중심선
100
AcDbLine
 10
2.268634060543552
 20
16.24717430164393
 30
0.0
 11
5.714909304380834
 21
16.24717430164393
 31
0.0
  0
LINE
  5
84
330
7E
100
AcDbEntity
  8
중심선
100
AcDbLine
 10
5.245725140726316
 20
7.84717430164391
 30
0.0
 11
8.692000384563599
 21
7.84717430164391
 31
0.0
  0
LINE
  5
85
330
7E
100
AcDbEntity
  8
중심선
100
AcDbLine
 10
15.74043728645272
 20
16.24717430164393
 30
0.0
 11
8.692000384563599
 21
7.84717430164391
 31
0.0
  0
LINE
  5
86
330
7E
100
AcDbEntity
  8
중심선
100
AcDbLine
 10
0.1404042013395286
 20
13.71084872107135
 30
0.0
 11
3.58671253028996
 21
13.71088815037384
 31
0.0
  0
LINE
  5
87
330
7E
100
AcDbEntity
  8
중심선
100
AcDbLine
 10
2.750260043222114
 20
10.84717430164391
 30
0.0
 11
6.196535287059397
 21
10.84717430164391
 31
0.0
  0
LINE
  5
88
330
7E
100
AcDbEntity
  8
중심선
100
AcDbLine
 10
12.29416204261559
 20
16.24717430164393
 30
0.0
 11
5.245725140726316
 21
7.84717430164391
 31
0.0
  0
LINE
  5
89
330
7E
100
AcDbEntity
  8
중심선
100
AcDbLine
 10
10.72767329541681
 20
16.24717430164393
 30
0.0
 11
6.196535287059397
 21
10.84717430164391
 31
0.0
  0
LINE
  5
8A
330
7E
100
AcDbEntity
  8
중심선
100
AcDbLine
 10
7.28139805157953
 20
16.24717430164393
 30
0.0
 11
2.750260043222114
 21
10.84717430164391
 31
0.0
  0
LINE
  5
8B
330
7E
100
AcDbEntity
  8
중심선
100
AcDbLine
 10
5.714909304380834
 20
16.24717430164393
 30
0.0
 11
3.58671253028996
 21
13.71088815037384
 31
0.0
  0
LINE
  5
8C
330
7E
100
AcDbEntity
  8
중심선
100
AcDbLine
 10
2.268634060543552
 20
16.24717430164393
 30
0.0
 11
0.1404042013395286
 21
13.71084872107135
 31
0.0
  0
LINE
  5
8D
330
7E
100
AcDbEntity
  8
중심선
100
AcDbLine
 10
7.28139805157953
 20
16.24717430164393
 30
0.0
 11
10.72767329541681
 21
16.24717430164393
 31
0.0
  0
LINE
  5
8E
330
7E
100
AcDbEntity
  8
중심선
100
AcDbLine
 10
12.29416204261559
 20
16.24717430164393
 30
0.0
 11
15.74043728645272
 21
16.24717430164393
 31
0.0
  0
LINE
  5
8F
330
7E
100
AcDbEntity
  8
중심선
100
AcDbLine
 10
19.22036997980202
 20
11.08717430171403
 30
0.0
 11
23.66174974927406
 21
11.08717430171406
 31
0.0
  0
LINE
  5
90
330
7E
100
AcDbEntity
  8
중심선
100
AcDbLine
 10
19.22039502424796
 20
13.00717430171391
 30
0.0
 11
19.22036997980202
 21
11.08717430171403
 31
0.0
  0
LINE
  5
91
330
7E
100
AcDbEntity
  8
중심선
100
AcDbLine
 10
19.22039502424796
 20
13.00717430171391
 30
0.0
 11
26.96566020931264
 21
13.00717430171391
 31
0.0
  0
LINE
  5
92
330
7E
100
AcDbEntity
  8
중심선
100
AcDbLine
 10
22.22332737316547
 20
13.45928029700563
 30
0.0
 11
24.52862924686651
 21
15.39360700705356
 31
0.0
  0
ATTDEF
  5
94
330
7E
100
AcDbEntity
  8
FORMAT
 62
     2
100
AcDbText
 10
-9.18129528874128
 20
2.075366912832191
 30
0.0
 40
4.233333333333333
  1
E5985040 [ 3 FLUTE ]
 41
0.75
  7
SLDTEXTSTYLE0
 11
-9.18129528874128
 21
-0.0412997538344756
 31
0.0
100
AcDbAttributeDefinition
  3

  2
AUTOATTR0
 70
     0
 74
     1
  0
ENDBLK
  5
80
330
7E
100
AcDbEntity
  8
0
100
AcDbBlockEnd
  0
BLOCK
  5
D9
330
D8
100
AcDbEntity
  8
0
100
AcDbBlockBegin
  2
_D
 70
     0
 10
0.0
 20
0.0
 30
0.0
  3
_D
  1
_D
  0
LINE
  5
DB
330
D8
100
AcDbEntity
  8
치수문자_일반주서
 62
     0
370
    -2
100
AcDbLine
 10
57.65800008181678
 20
8.0
 30
0.0
 11
57.65800008181678
 21
25.44684348840691
 31
0.0
  0
LINE
  5
DC
330
D8
100
AcDbEntity
  8
치수문자_일반주서
 62
     0
370
    -2
100
AcDbLine
 10
38.60800008181678
 20
7.780180084663577
 30
0.0
 11
38.60800008181678
 21
25.44684348840691
 31
0.0
  0
LINE
  5
DD
330
D8
100
AcDbEntity
  8
치수문자_일반주서
 62
     0
370
    -2
100
AcDbLine
 10
38.60800008181678
 20
25.44684348840691
 30
0.0
 11
7.066500081816784
 21
25.44684348840691
 31
0.0
  0
LINE
  5
DE
330
D8
100
AcDbEntity
  8
치수문자_일반주서
 62
     0
370
    -2
100
AcDbLine
 10
57.65800008181678
 20
25.44684348840691
 30
0.0
 11
38.60800008181678
 21
25.44684348840691
 31
0.0
  0
LINE
  5
DF
330
D8
100
AcDbEntity
  8
치수문자_일반주서
 62
     0
370
    -2
100
AcDbLine
 10
60.96000008181678
 20
25.44684348840691
 30
0.0
 11
64.26200008181678
 21
25.44684348840691
 31
0.0
  0
LINE
  5
E0
330
D8
100
AcDbEntity
  8
치수문자_일반주서
 62
     0
370
    -2
100
AcDbLine
 10
35.30600008181678
 20
25.44684348840691
 30
0.0
 11
32.00400008181678
 21
25.44684348840691
 31
0.0
  0
SOLID
  5
E1
330
D8
100
AcDbEntity
  8
치수문자_일반주서
 62
     0
100
AcDbTrace
 10
60.96000008181678
 20
25.99717682174025
 30
0.0
 11
60.96000008181678
 21
24.89651015507358
 31
0.0
 12
57.65800008181678
 22
25.44684348840691
 32
0.0
 13
57.65800008181678
 23
25.44684348840691
 33
0.0
  0
SOLID
  5
E2
330
D8
100
AcDbEntity
  8
치수문자_일반주서
 62
     0
100
AcDbTrace
 10
35.30600008181678
 20
24.89651015507358
 30
0.0
 11
35.30600008181678
 21
25.99717682174025
 31
0.0
 12
38.60800008181678
 22
25.44684348840691
 32
0.0
 13
38.60800008181678
 23
25.44684348840691
 33
0.0
  0
MTEXT
  5
E3
330
D8
100
AcDbEntity
  8
치수문자_일반주서
 62
     0
100
AcDbMText
 10
19.53525008181678
 20
29.82184348840691
 30
0.0
 40
3.5
 41
0.0
 71
     2
 72
     1
  1
\A1;19.05 [3/4]
  7
SLDTEXTSTYLE0
 73
     1
 44
1.0
  0
POINT
  5
17E
330
D8
100
AcDbEntity
  8
Defpoints
 62
     0
100
AcDbPoint
 10
57.65800008181678
 20
7.9375
 30
0.0
  0
POINT
  5
17F
330
D8
100
AcDbEntity
  8
Defpoints
 62
     0
100
AcDbPoint
 10
38.60800008181678
 20
7.717680084663577
 30
0.0
  0
POINT
  5
180
330
D8
100
AcDbEntity
  8
Defpoints
 62
     0
100
AcDbPoint
 10
38.60800008181678
 20
25.44684348840691
 30
0.0
  0
ENDBLK
  5
DA
330
D8
100
AcDbEntity
  8
0
100
AcDbBlockEnd
  0
BLOCK
  5
EF
330
EE
100
AcDbEntity
  8
0
100
AcDbBlockBegin
  2
_D_1
 70
     0
 10
0.0
 20
0.0
 30
0.0
  3
_D_1
  1
_D_1
  0
LINE
  5
F1
330
EE
100
AcDbEntity
  8
치수문자_일반주서
 62
     0
370
    -2
100
AcDbLine
 10
57.65800008181678
 20
8.0
 30
0.0
 11
57.65800008181679
 21
69.77225965011003
 31
0.0
  0
LINE
  5
F2
330
EE
100
AcDbEntity
  8
치수문자_일반주서
 62
     0
370
    -2
100
AcDbLine
 10
-69.34199991818323
 20
7.499999999999996
 30
0.0
 11
-69.34199991818323
 21
69.77225965011003
 31
0.0
  0
LINE
  5
F3
330
EE
100
AcDbEntity
  8
치수문자_일반주서
 62
     0
370
    -2
100
AcDbLine
 10
54.35600008181679
 20
69.77225965011003
 30
0.0
 11
-66.03999991818324
 21
69.77225965011003
 31
0.0
  0
SOLID
  5
F4
330
EE
100
AcDbEntity
  8
치수문자_일반주서
 62
     0
100
AcDbTrace
 10
54.35600008181679
 20
69.2219263167767
 30
0.0
 11
54.35600008181679
 21
70.32259298344336
 31
0.0
 12
57.65800008181679
 22
69.77225965011003
 32
0.0
 13
57.65800008181679
 23
69.77225965011003
 33
0.0
  0
SOLID
  5
F5
330
EE
100
AcDbEntity
  8
치수문자_일반주서
 62
     0
100
AcDbTrace
 10
-66.03999991818324
 20
70.32259298344336
 30
0.0
 11
-66.03999991818324
 21
69.2219263167767
 31
0.0
 12
-69.34199991818323
 22
69.77225965011003
 32
0.0
 13
-69.34199991818323
 23
69.77225965011003
 33
0.0
  0
MTEXT
  5
F6
330
EE
100
AcDbEntity
  8
치수문자_일반주서
 62
     0
100
AcDbMText
 10
-6.349154480639635
 20
74.14725965011003
 30
0.0
 40
3.5
 41
0.0
 71
     2
 72
     1
  1
\A1;127 [5]
  7
SLDTEXTSTYLE0
 73
     1
 44
1.0
  0
POINT
  5
F7
330
EE
100
AcDbEntity
  8
Defpoints
 62
     0
100
AcDbPoint
 10
57.65800008181678
 20
7.9375
 30
0.0
  0
POINT
  5
F8
330
EE
100
AcDbEntity
  8
Defpoints
 62
     0
100
AcDbPoint
 10
-69.34199991818323
 20
7.437499999999996
 30
0.0
  0
POINT
  5
F9
330
EE
100
AcDbEntity
  8
Defpoints
 62
     0
100
AcDbPoint
 10
-69.34199991818323
 20
69.77225965011003
 30
0.0
  0
ENDBLK
  5
F0
330
EE
100
AcDbEntity
  8
0
100
AcDbBlockEnd
  0
BLOCK
  5
102
330
101
100
AcDbEntity
  8
0
100
AcDbBlockBegin
  2
_D_2
 70
     0
 10
0.0
 20
0.0
 30
0.0
  3
_D_2
  1
_D_2
  0
LINE
  5
104
330
101
100
AcDbEntity
  8
치수문자_일반주서
 62
     0
370
    -2
100
AcDbLine
 10
-68.90449991818323
 20
7.937500000000002
 30
0.0
 11
-84.60727806929263
 21
7.93749999999994
 31
0.0
  0
LINE
  5
105
330
101
100
AcDbEntity
  8
치수문자_일반주서
 62
     0
370
    -2
100
AcDbLine
 10
-68.90449991818323
 20
-7.937499999999998
 30
0.0
 11
-84.60727806929258
 21
-7.937500000000057
 31
0.0
  0
LINE
  5
106
330
101
100
AcDbEntity
  8
치수문자_일반주서
 62
     0
370
    -2
100
AcDbLine
 10
-84.60727806929263
 20
7.93749999999994
 30
0.0
 11
-84.60727806929276
 21
42.76024999999994
 31
0.0
  0
LINE
  5
107
330
101
100
AcDbEntity
  8
치수문자_일반주서
 62
     0
370
    -2
100
AcDbLine
 10
-84.60727806929263
 20
7.93749999999994
 30
0.0
 11
-84.60727806929258
 21
-7.937500000000057
 31
0.0
  0
LINE
  5
108
330
101
100
AcDbEntity
  8
치수문자_일반주서
 62
     0
370
    -2
100
AcDbLine
 10
-84.60727806929265
 20
11.23949999999994
 30
0.0
 11
-84.60727806929266
 21
14.54149999999994
 31
0.0
  0
LINE
  5
109
330
101
100
AcDbEntity
  8
치수문자_일반주서
 62
     0
370
    -2
100
AcDbLine
 10
-84.60727806929256
 20
-11.23950000000006
 30
0.0
 11
-84.60727806929255
 21
-14.54150000000006
 31
0.0
  0
SOLID
  5
10A
330
101
100
AcDbEntity
  8
치수문자_일반주서
 62
     0
100
AcDbTrace
 10
-85.15761140262597
 20
11.23949999999994
 30
0.0
 11
-84.05694473595932
 21
11.23949999999994
 31
0.0
 12
-84.60727806929263
 22
7.93749999999994
 32
0.0
 13
-84.60727806929263
 23
7.93749999999994
 33
0.0
  0
SOLID
  5
10B
330
101
100
AcDbEntity
  8
치수문자_일반주서
 62
     0
100
AcDbTrace
 10
-84.05694473595923
 20
-11.23950000000005
 30
0.0
 11
-85.15761140262589
 21
-11.23950000000006
 31
0.0
 12
-84.60727806929258
 22
-7.937500000000057
 32
0.0
 13
-84.60727806929258
 23
-7.937500000000057
 33
0.0
  0
MTEXT
  5
10C
330
101
100
AcDbEntity
  8
치수문자_일반주서
 62
     0
100
AcDbMText
 10
-88.9822780692927
 20
28.76024999999992
 30
0.0
 40
3.5
 41
0.0
 71
     2
 72
     1
  1
\A1;%%c15.88 [5/8]
  7
SLDTEXTSTYLE0
 11
-3.580687802255623E-15
 21
1.0
 31
0.0
 73
     1
 44
1.0
  0
POINT
  5
179
330
101
100
AcDbEntity
  8
Defpoints
 62
     0
100
AcDbPoint
 10
-68.84199991818323
 20
7.937500000000002
 30
0.0
  0
POINT
  5
17A
330
101
100
AcDbEntity
  8
Defpoints
 62
     0
100
AcDbPoint
 10
-68.84199991818323
 20
-7.937499999999998
 30
0.0
  0
POINT
  5
17B
330
101
100
AcDbEntity
  8
Defpoints
 62
     0
100
AcDbPoint
 10
-84.60727806929258
 20
-7.937500000000057
 30
0.0
  0
ENDBLK
  5
103
330
101
100
AcDbEntity
  8
0
100
AcDbBlockEnd
  0
BLOCK
  5
116
330
115
100
AcDbEntity
  8
0
100
AcDbBlockBegin
  2
_D_3
 70
     0
 10
0.0
 20
0.0
 30
0.0
  3
_D_3
  1
_D_3
  0
LINE
  5
118
330
115
100
AcDbEntity
  8
치수문자_일반주서
 62
     0
370
    -2
100
AcDbLine
 10
0.5080000000000009
 20
7.492000000000002
 30
0.0
 11
0.5080000000000027
 21
53.91009778227561
 31
0.0
  0
LINE
  5
119
330
115
100
AcDbEntity
  8
치수문자_일반주서
 62
     0
370
    -2
100
AcDbLine
 10
57.65800008181678
 20
8.0
 30
0.0
 11
57.65800008181678
 21
53.91009778227561
 31
0.0
  0
LINE
  5
11A
330
115
100
AcDbEntity
  8
치수문자_일반주서
 62
     0
370
    -2
100
AcDbLine
 10
3.810000000000002
 20
53.91009778227561
 30
0.0
 11
54.35600008181678
 21
53.91009778227561
 31
0.0
  0
SOLID
  5
11B
330
115
100
AcDbEntity
  8
치수문자_일반주서
 62
     0
100
AcDbTrace
 10
3.810000000000002
 20
54.46043111560895
 30
0.0
 11
3.810000000000002
 21
53.35976444894228
 31
0.0
 12
0.5080000000000027
 22
53.91009778227561
 32
0.0
 13
0.5080000000000027
 23
53.91009778227561
 33
0.0
  0
SOLID
  5
11C
330
115
100
AcDbEntity
  8
치수문자_일반주서
 62
     0
100
AcDbTrace
 10
54.35600008181678
 20
53.35976444894228
 30
0.0
 11
54.35600008181678
 21
54.46043111560895
 31
0.0
 12
57.65800008181678
 22
53.91009778227561
 32
0.0
 13
57.65800008181678
 23
53.91009778227561
 33
0.0
  0
MTEXT
  5
11D
330
115
100
AcDbEntity
  8
치수문자_일반주서
 62
     0
100
AcDbMText
 10
36.82411661178905
 20
58.28509778227561
 30
0.0
 40
3.5
 41
0.0
 71
     2
 72
     1
  1
\A1;57.15 [2 1/4]
  7
SLDTEXTSTYLE0
 73
     1
 44
1.0
  0
POINT
  5
11E
330
115
100
AcDbEntity
  8
Defpoints
 62
     0
100
AcDbPoint
 10
0.5080000000000009
 20
7.429500000000002
 30
0.0
  0
POINT
  5
11F
330
115
100
AcDbEntity
  8
Defpoints
 62
     0
100
AcDbPoint
 10
57.65800008181678
 20
7.9375
 30
0.0
  0
POINT
  5
120
330
115
100
AcDbEntity
  8
Defpoints
 62
     0
100
AcDbPoint
 10
57.65800008181678
 20
53.91009778227561
 30
0.0
  0
ENDBLK
  5
117
330
115
100
AcDbEntity
  8
0
100
AcDbBlockEnd
  0
BLOCK
  5
128
330
127
100
AcDbEntity
  8
0
100
AcDbBlockBegin
  2
SW_DOWELSYMBOL_0
 70
     0
 10
0.0
 20
0.0
 30
0.0
  3
SW_DOWELSYMBOL_0
  1
SW_DOWELSYMBOL_0
  0
CIRCLE
  5
12A
330
127
100
AcDbEntity
  8
외형선
 62
     0
100
AcDbCircle
 10
0.0
 20
0.0
 30
0.0
 40
3.000000000000008
  0
HATCH
  5
12B
330
127
100
AcDbEntity
  8
0
  6
Continuous
 62
     0
370
    30
100
AcDbHatch
 10
0.0
 20
0.0
 30
0.0
210
0.0
220
0.0
230
1.0
  2
SOLID
 70
     1
 71
     0
 91
        1
 92
        0
 93
        3
 72
     2
 10
0.0
 20
0.0
 40
3.000000000000008
 50
0.0
 51
90.0
 73
     1
 72
     1
 10
0.0
 20
3.000000000000008
 11
0.0
 21
0.0
 72
     1
 10
0.0
 20
0.0
 11
3.00000000000001
 21
0.0
 97
        0
 75
     0
 76
     1
 98
        1
 10
0.0
 20
0.0
  0
HATCH
  5
12C
330
127
100
AcDbEntity
  8
0
  6
Continuous
 62
     0
370
    30
100
AcDbHatch
 10
0.0
 20
0.0
 30
0.0
210
0.0
220
0.0
230
1.0
  2
SOLID
 70
     1
 71
     0
 91
        1
 92
        0
 93
        3
 72
     2
 10
0.0
 20
0.0
 40
3.000000000000008
 50
180.0
 51
270.0000000000008
 73
     1
 72
     1
 10
0.0
 20
-3.000000000000008
 11
0.0
 21
0.0
 72
     1
 10
0.0
 20
0.0
 11
-3.00000000000001
 21
0.0
 97
        0
 75
     0
 76
     1
 98
        1
 10
0.0
 20
0.0
  0
ENDBLK
  5
129
330
127
100
AcDbEntity
  8
0
100
AcDbBlockEnd
  0
BLOCK
  5
15E
330
15D
100
AcDbEntity
  8
0
100
AcDbBlockBegin
  2
*D7
 70
     1
 10
0.0
 20
0.0
 30
0.0
  3
*D7
  1
*D7
  0
LINE
  5
160
330
15D
100
AcDbEntity
  8
치수문자_일반주서
 62
     0
370
    -2
100
AcDbLine
 10
57.72050008181678
 20
-7.9375
 30
0.0
 11
70.43059146846048
 21
-7.937500000000001
 31
0.0
  0
LINE
  5
161
330
15D
100
AcDbEntity
  8
치수문자_일반주서
 62
     0
370
    -2
100
AcDbLine
 10
57.72050008181678
 20
7.9375
 30
0.0
 11
70.43059146846048
 21
7.937499999999999
 31
0.0
  0
LINE
  5
162
330
15D
100
AcDbEntity
  8
치수문자_일반주서
 62
     0
370
    -2
100
AcDbLine
 10
70.43059146846048
 20
7.937499999999999
 30
0.0
 11
70.43059146846048
 21
39.2395
 31
0.0
  0
LINE
  5
163
330
15D
100
AcDbEntity
  8
치수문자_일반주서
 62
     0
370
    -2
100
AcDbLine
 10
70.43059146846048
 20
-4.635500000000001
 30
0.0
 11
70.43059146846048
 21
4.6355
 31
0.0
  0
SOLID
  5
164
330
15D
100
AcDbEntity
  8
치수문자_일반주서
 62
     0
100
AcDbTrace
 10
69.88025813512715
 20
-4.635500000000001
 30
0.0
 11
70.9809248017938
 21
-4.635500000000001
 31
0.0
 12
70.43059146846048
 22
-7.937500000000001
 32
0.0
 13
70.43059146846048
 23
-7.937500000000001
 33
0.0
  0
SOLID
  5
165
330
15D
100
AcDbEntity
  8
치수문자_일반주서
 62
     0
100
AcDbTrace
 10
70.9809248017938
 20
4.6355
 30
0.0
 11
69.88025813512715
 21
4.6355
 31
0.0
 12
70.43059146846048
 22
7.937499999999999
 32
0.0
 13
70.43059146846048
 23
7.937499999999999
 33
0.0
  0
MTEXT
  5
166
330
15D
100
AcDbEntity
  8
치수문자_일반주서
 62
     0
100
AcDbMText
 10
67.80559146846048
 20
25.2395
 30
0.0
 40
3.5
 41
0.0
 71
     5
 72
     1
  1
\A1;{Ø15.88 [5/8]}
  7
SLDTEXTSTYLE0
 11
0.0
 21
1.0
 31
0.0
 73
     1
 44
1.0
  0
POINT
  5
167
330
15D
100
AcDbEntity
  8
Defpoints
 62
     0
100
AcDbPoint
 10
57.65800008181678
 20
-7.9375
 30
0.0
  0
POINT
  5
168
330
15D
100
AcDbEntity
  8
Defpoints
 62
     0
100
AcDbPoint
 10
57.65800008181678
 20
7.9375
 30
0.0
  0
POINT
  5
169
330
15D
100
AcDbEntity
  8
Defpoints
 62
     0
100
AcDbPoint
 10
70.43059146846048
 20
7.937499999999999
 30
0.0
  0
ENDBLK
  5
15F
330
15D
100
AcDbEntity
  8
0
100
AcDbBlockEnd
  0
BLOCK
  5
170
330
16F
100
AcDbEntity
  8
0
100
AcDbBlockBegin
  2
*D8
 70
     1
 10
0.0
 20
0.0
 30
0.0
  3
*D8
  1
*D8
  0
LINE
  5
172
330
16F
100
AcDbEntity
  8
치수문자_일반주서
 62
     0
370
    -2
100
AcDbLine
 10
58.5482302423213
 20
-10.59222812373697
 30
0.0
 11
74.20720920711877
 21
-37.69594708959164
 31
0.0
  0
MTEXT
  5
173
330
16F
100
AcDbEntity
  8
치수문자_일반주서
 62
     0
100
AcDbMText
 10
69.47657080632023
 20
-24.26048337147271
 30
0.0
 40
3.5
 41
0.0
 71
     5
 72
     1
  1
\A1;R1.52 [R0.06]
  7
SLDTEXTSTYLE0
 11
0.5002549027154007
 21
-0.8658781856065003
 31
0.0
 73
     1
 44
1.0
  0
SOLID
  5
174
330
16F
100
AcDbEntity
  8
치수문자_일반주서
 62
     0
100
AcDbTrace
 10
59.02475187046674
 20
-10.31692117560926
 30
0.0
 11
58.07170861417586
 21
-10.86753507186468
 31
0.0
 12
56.89638855355505
 22
-7.733098354864304
 32
0.0
 13
56.89638855355505
 23
-7.733098354864304
 33
0.0
  0
LINE
  5
175
330
16F
100
AcDbEntity
  8
치수문자_일반주서
 62
     0
100
AcDbLine
 10
56.04400008181678
 20
-6.4135
 30
0.0
 11
56.22400008181678
 21
-6.4135
 31
0.0
  0
LINE
  5
176
330
16F
100
AcDbEntity
  8
치수문자_일반주서
 62
     0
100
AcDbLine
 10
56.13400008181678
 20
-6.5035
 30
0.0
 11
56.13400008181678
 21
-6.3235
 31
0.0
  0
POINT
  5
177
330
16F
100
AcDbEntity
  8
Defpoints
 62
     0
100
AcDbPoint
 10
56.89638855355505
 20
-7.733098354864304
 30
0.0
  0
POINT
  5
178
330
16F
100
AcDbEntity
  8
Defpoints
 62
     0
100
AcDbPoint
 10
56.13400008181678
 20
-6.4135
 30
0.0
  0
ENDBLK
  5
171
330
16F
100
AcDbEntity
  8
0
100
AcDbBlockEnd
  0
ENDSEC
  0
SECTION
  2
ENTITIES
  0
LINE
  5
95
330
1F
100
AcDbEntity
  8
0
  6
Continuous
 62
     4
370
    15
100
AcDbLine
 10
0.0
 20
-7.937500000000005
 30
0.0
 11
0.5080000000000009
 21
-7.429499999999999
 31
0.0
  0
LINE
  5
96
330
1F
100
AcDbEntity
  8
0
  6
Continuous
 62
     4
370
    15
100
AcDbLine
 10
0.5080000000000009
 20
7.429500000000002
 30
0.0
 11
0.0
 21
7.937500000000005
 31
0.0
  0
LINE
  5
97
330
1F
100
AcDbEntity
  8
0
  6
Continuous
 62
     4
370
    15
100
AcDbLine
 10
0.0
 20
7.9375
 30
0.0
 11
-68.84199991818323
 21
7.937500000000002
 31
0.0
  0
LINE
  5
98
330
1F
100
AcDbEntity
  8
0
  6
Continuous
 62
     4
370
    15
100
AcDbLine
 10
-68.84199991818323
 20
-7.937499999999998
 30
0.0
 11
0.0
 21
-7.9375
 31
0.0
  0
LINE
  5
99
330
1F
100
AcDbEntity
  8
0
  6
Continuous
 62
     4
370
    15
100
AcDbLine
 10
-68.84199991818323
 20
7.937499999999995
 30
0.0
 11
-69.34199991818323
 21
7.437499999999996
 31
0.0
  0
LINE
  5
9A
330
1F
100
AcDbEntity
  8
0
  6
Continuous
 62
     4
370
    15
100
AcDbLine
 10
-69.34199991818323
 20
-7.437499999999991
 30
0.0
 11
-68.84199991818323
 21
-7.937499999999992
 31
0.0
  0
LINE
  5
9B
330
1F
100
AcDbEntity
  8
0
  6
Continuous
 62
     4
370
    15
100
AcDbLine
 10
38.60800008181678
 20
7.429500000000002
 30
0.0
 11
0.5080000000000009
 21
7.429500000000004
 31
0.0
  0
LINE
  5
9C
330
1F
100
AcDbEntity
  8
0
  6
Continuous
 62
     4
370
    15
100
AcDbLine
 10
0.5080000000000009
 20
-7.429500000000001
 30
0.0
 11
35.55805291814325
 21
-7.429500000000002
 31
0.0
  0
LINE
  5
9D
330
1F
100
AcDbEntity
  8
0
  6
Continuous
 62
     1
370
    15
100
AcDbLine
 10
45.96819302233627
 20
-7.937499999999998
 30
0.0
 11
47.15430163428795
 21
-7.937499999999998
 31
0.0
  0
LINE
  5
A0
330
1F
100
AcDbEntity
  8
0
  6
Continuous
 62
     4
370
    15
100
AcDbLine
 10
0.5080000000000009
 20
7.429500000000002
 30
0.0
 11
0.5080000000000009
 21
-7.429499999999999
 31
0.0
  0
LINE
  5
A1
330
1F
100
AcDbEntity
  8
0
  6
Continuous
 62
     4
370
    15
100
AcDbLine
 10
0.0
 20
7.937500000000005
 30
0.0
 11
0.0
 21
-7.937500000000005
 31
0.0
  0
LINE
  5
A2
330
1F
100
AcDbEntity
  8
0
  6
Continuous
 62
     4
370
    15
100
AcDbLine
 10
-68.84199991818323
 20
7.937499999999995
 30
0.0
 11
-68.84199991818323
 21
-7.937499999999998
 31
0.0
  0
LINE
  5
A3
330
1F
100
AcDbEntity
  8
0
  6
Continuous
 62
     4
370
    15
100
AcDbLine
 10
-69.34199991818323
 20
7.437499999999996
 30
0.0
 11
-69.34199991818323
 21
-7.437499999999991
 31
0.0
  0
SPLINE
  5
A4
330
1F
100
AcDbEntity
  8
0
  6
Continuous
 62
     4
370
    15
100
AcDbSpline
210
0.0
220
0.0
230
1.0
 70
    24
 71
     3
 72
    10
 73
     6
 74
     0
 42
0.000000001
 43
0.00000001
 40
0.0
 40
0.0
 40
0.0
 40
0.0
 40
0.5
 40
0.5
 40
1.0
 40
1.0
 40
1.0
 40
1.0
 10
38.60800008181678
 20
6.900136109772069
 30
0.0
 10
38.60800008181678
 20
6.394999871401718
 30
0.0
 10
38.60800008181678
 20
5.88655986136956
 30
0.0
 10
38.60800008181678
 20
4.862673384397303
 30
0.0
 10
38.60800008181678
 20
4.342424594295824
 30
0.0
 10
38.60800008181678
 20
3.837102848594129
 30
0.0
  0
SPLINE
  5
A5
330
1F
100
AcDbEntity
  8
0
  6
Continuous
 62
     4
370
    15
100
AcDbSpline
210
0.0
220
0.0
230
1.0
 70
     8
 71
     3
 72
    14
 73
    10
 74
     0
 42
0.000000001
 43
0.00000001
 40
0.0
 40
0.0
 40
0.0
 40
0.0
 40
0.2500000000000001
 40
0.2500000000000001
 40
0.5000000000000001
 40
0.5000000000000001
 40
0.75
 40
0.75
 40
1.0
 40
1.0
 40
1.0
 40
1.0
 10
36.58707531540465
 20
-0.1521092004775842
 30
0.0
 10
36.41660423745139
 20
-0.0321093507643406
 30
0.0
 10
36.26586446576008
 20
0.1077451555413257
 30
0.0
 10
36.00235160001634
 20
0.4255467508716849
 30
0.0
 10
35.89128547775442
 20
0.6030014650838358
 30
0.0
 10
35.7188840112748
 20
0.9743869331314593
 30
0.0
 10
35.65556636511873
 20
1.172895430563903
 30
0.0
 10
35.57570775174699
 20
1.570397961619282
 30
0.0
 10
35.55805291814325
 20
1.771896314869347
 30
0.0
 10
35.55805291814325
 20
1.97244374946527
 30
0.0
  0
SPLINE
  5
A6
330
1F
100
AcDbEntity
  8
0
  6
Continuous
 62
     4
370
    15
100
AcDbSpline
210
0.0
220
0.0
230
1.0
 70
     8
 71
     3
 72
    22
 73
    18
 74
     0
 42
0.000000001
 43
0.00000001
 40
0.0
 40
0.0
 40
0.0
 40
0.0
 40
0.125
 40
0.125
 40
0.25
 40
0.25
 40
0.375
 40
0.375
 40
0.5
 40
0.5
 40
0.625
 40
0.625
 40
0.75
 40
0.75
 40
0.875
 40
0.875
 40
1.0
 40
1.0
 40
1.0
 40
1.0
 10
35.55805291814325
 20
5.617615068983735
 30
0.0
 10
35.55805291814325
 20
5.743829199324401
 30
0.0
 10
35.57308570986215
 20
5.862653594131947
 30
0.0
 10
35.64080630252921
 20
6.085791304223485
 30
0.0
 10
35.69465614769405
 20
6.19130074583178
 30
0.0
 10
35.841511456737
 20
6.378939217034039
 30
0.0
 10
35.93407076844878
 20
6.461995601094408
 30
0.0
 10
36.1608501019688
 20
6.609300537442077
 30
0.0
 10
36.29370383474802
 20
6.672107502221897
 30
0.0
 10
36.58721953480386
 20
6.775722909053218
 30
0.0
 10
36.75176537559219
 20
6.817779775531546
 30
0.0
 10
37.09677436773936
 20
6.881654629697181
 30
0.0
 10
37.27887794428618
 20
6.904171851780723
 30
0.0
 10
37.65704775156283
 20
6.932289514547345
 30
0.0
 10
37.84731692707757
 20
6.937572627752205
 30
0.0
 10
38.23016922644651
 20
6.931778574329041
 30
0.0
 10
38.42246147695692
 20
6.920484891395512
 30
0.0
 10
38.60800008181668
 20
6.900136109771544
 30
0.0
  0
LINE
  5
A7
330
1F
100
AcDbEntity
  8
0
  6
Continuous
 62
     1
370
    15
100
AcDbLine
 10
38.60800008181678
 20
7.429500000000002
 30
0.0
 11
38.60800008181678
 21
6.900136109771884
 31
0.0
  0
LINE
  5
A8
330
1F
100
AcDbEntity
  8
0
  6
Continuous
 62
     4
370
    15
100
AcDbLine
 10
35.55805291814325
 20
5.617615068983733
 30
0.0
 11
35.55805291814325
 21
1.97244374946527
 31
0.0
  0
SPLINE
  5
A9
330
1F
100
AcDbEntity
  8
0
  6
Continuous
 62
     4
370
    15
100
AcDbSpline
210
0.0
220
0.0
230
1.0
 70
     8
 71
     3
 72
    10
 73
     6
 74
     0
 42
0.000000001
 43
0.00000001
 40
0.0
 40
0.0
 40
0.0
 40
0.0
 40
0.5
 40
0.5
 40
1.0
 40
1.0
 40
1.0
 40
1.0
 10
38.60800008181678
 20
-1.565911970970808
 30
0.0
 10
38.27038088585536
 20
-1.333462119404292
 30
0.0
 10
37.9348804308712
 20
-1.099095864149293
 30
0.0
 10
37.26291756737795
 20
-0.6274986773833212
 30
0.0
 10
36.92486764372102
 20
-0.3898916391113376
 30
0.0
 10
36.58707531540465
 20
-0.1521092004775841
 30
0.0
  0
LINE
  5
AA
330
1F
100
AcDbEntity
  8
0
  6
Continuous
 62
     4
370
    15
100
AcDbLine
 10
38.60800008181678
 20
-1.565911970970811
 30
0.0
 11
38.60800008181678
 21
-5.465386110949334
 31
0.0
  0
SPLINE
  5
AB
330
1F
100
AcDbEntity
  8
0
  6
Continuous
 62
     4
370
    15
100
AcDbSpline
210
0.0
220
0.0
230
1.0
 70
     8
 71
     3
 72
    22
 73
    18
 74
     0
 42
0.000000001
 43
0.00000001
 40
0.0
 40
0.0
 40
0.0
 40
0.0
 40
0.125
 40
0.125
 40
0.25
 40
0.25
 40
0.375
 40
0.375
 40
0.5
 40
0.5
 40
0.625
 40
0.625
 40
0.75
 40
0.75
 40
0.875
 40
0.875
 40
1.0
 40
1.0
 40
1.0
 40
1.0
 10
35.55805291814325
 20
-7.019496716804576
 30
0.0
 10
35.55805291814325
 20
-6.956314051869909
 30
0.0
 10
35.57308570985737
 20
-6.88689123489197
 30
0.0
 10
35.64080630252417
 20
-6.737063832698952
 30
0.0
 10
35.69465614769404
 20
-6.655448992386408
 30
0.0
 10
35.84151145673699
 20
-6.491464574325709
 30
0.0
 10
35.93407076844878
 20
-6.408741159367294
 30
0.0
 10
36.16085010196881
 20
-6.246410459537706
 30
0.0
 10
36.29370383474802
 20
-6.168272898495933
 30
0.0
 10
36.58721953480385
 20
-6.029151571972433
 30
0.0
 10
36.75176537559219
 20
-5.966547480382946
 30
0.0
 10
37.09677436773936
 20
-5.866796261472402
 30
0.0
 10
37.27887794428617
 20
-5.828748797985173
 30
0.0
 10
37.65704775156283
 20
-5.780607911367425
 30
0.0
 10
37.84731692707757
 20
-5.771114721384896
 30
0.0
 10
38.23016922644651
 20
-5.781269583655597
 30
0.0
 10
38.42246147695692
 20
-5.801295441023695
 30
0.0
 10
38.60800008181668
 20
-5.83527117778123
 30
0.0
  0
LINE
  5
AC
330
1F
100
AcDbEntity
  8
0
  6
Continuous
 62
     4
370
    15
100
AcDbLine
 10
35.55805291814325
 20
-7.019496716804578
 30
0.0
 11
35.55805291814325
 21
-7.429500000000002
 31
0.0
  0
SPLINE
  5
AD
330
1F
100
AcDbEntity
  8
0
  6
Continuous
 62
     4
370
    15
100
AcDbSpline
210
0.0
220
0.0
230
1.0
 70
     8
 71
     3
 72
    14
 73
    10
 74
     0
 42
0.000000001
 43
0.00000001
 40
0.0
 40
0.0
 40
0.0
 40
0.0
 40
0.25
 40
0.25
 40
0.5
 40
0.5
 40
0.75
 40
0.75
 40
1.0
 40
1.0
 40
1.0
 40
1.0
 10
36.58707531540464
 20
-6.356732492526477
 30
0.0
 10
36.41660423745138
 20
-6.418860547958628
 30
0.0
 10
36.26586446576007
 20
-6.488805168375643
 30
0.0
 10
36.00235160001634
 20
-6.637821755148951
 30
0.0
 10
35.89128547775442
 20
-6.7164481772004
 30
0.0
 10
35.7188840112748
 20
-6.867803654573406
 30
0.0
 10
35.65556636511873
 20
-6.942312088344519
 30
0.0
 10
35.57570775174699
 20
-7.076396194269953
 30
0.0
 10
35.55805291814325
 20
-7.137015431011225
 30
0.0
 10
35.55805291814325
 20
-7.189463118541911
 30
0.0
  0
SPLINE
  5
AE
330
1F
100
AcDbEntity
  8
0
  6
Continuous
 62
     4
370
    15
100
AcDbSpline
210
0.0
220
0.0
230
1.0
 70
     8
 71
     3
 72
     9
 73
     5
 74
     0
 42
0.000000001
 43
0.00000001
 40
0.0
 40
0.0
 40
0.0
 40
0.0
 40
0.3535248893100476
 40
1.0
 40
1.0
 40
1.0
 40
1.0
 10
37.96467429467963
 20
-5.792927002891377
 30
0.0
 10
37.8024214088435
 20
-5.86671726625157
 30
0.0
 10
37.34346394717005
 20
-6.075444474975699
 30
0.0
 10
36.8840651825884
 20
-6.246287031734965
 30
0.0
 10
36.58707531540465
 20
-6.356732492526468
 30
0.0
  0
SPLINE
  5
AF
330
1F
100
AcDbEntity
  8
0
  6
Continuous
 62
     4
370
    15
100
AcDbSpline
210
0.0
220
0.0
230
1.0
 70
    24
 71
     3
 72
    14
 73
    10
 74
     0
 42
0.000000001
 43
0.00000001
 40
0.0
 40
0.0
 40
0.0
 40
0.0
 40
0.25
 40
0.25
 40
0.5
 40
0.5
 40
0.75
 40
0.75
 40
1.0
 40
1.0
 40
1.0
 40
1.0
 10
38.60800008181678
 20
3.837102848594129
 30
0.0
 10
38.60800008181678
 20
3.341742582113323
 30
0.0
 10
38.60800008181678
 20
2.829657454513949
 30
0.0
 10
38.60800008181678
 20
1.806514331415172
 30
0.0
 10
38.60800008181678
 20
1.295597108548272
 30
0.0
 10
38.60800008181678
 20
0.3250109588058863
 30
0.0
 10
38.60800008181678
 20
-0.1342018607433259
 30
0.0
 10
38.60800008181678
 20
-0.9439978473634435
 30
0.0
 10
38.60800008181678
 20
-1.293944502197211
 30
0.0
 10
38.60800008181678
 20
-1.565911970970811
 30
0.0
  0
SPLINE
  5
B0
330
1F
100
AcDbEntity
  8
0
  6
Continuous
 62
     1
370
    15
100
AcDbSpline
210
0.0
220
0.0
230
1.0
 70
     8
 71
     3
 72
    22
 73
    18
 74
     0
 42
0.000000001
 43
0.00000001
 40
0.0
 40
0.0
 40
0.0
 40
0.0
 40
0.2499999999999992
 40
0.2499999999999992
 40
0.4999999999999984
 40
0.4999999999999984
 40
0.6249999999999982
 40
0.6249999999999982
 40
0.7499999999999981
 40
0.7499999999999981
 40
0.8124999999999986
 40
0.8124999999999986
 40
0.874999999999999
 40
0.874999999999999
 40
0.9374999999999996
 40
0.9374999999999996
 40
1.0
 40
1.0
 40
1.0
 40
1.0
 10
57.25305378965047
 20
0.8292067157401027
 30
0.0
 10
57.30022782253155
 20
0.476760640986542
 30
0.0
 10
57.3257515877911
 20
0.1228960389878975
 30
0.0
 10
57.33937095755038
 20
-0.587688048785005
 30
0.0
 10
57.32840050318685
 20
-0.946332380532789
 30
0.0
 10
57.26631405611803
 20
-1.480166837033821
 30
0.0
 10
57.23772462980597
 20
-1.658138008142546
 30
0.0
 10
57.15318985444075
 20
-2.005839212025799
 30
0.0
 10
57.09918359600989
 20
-2.175514917831774
 30
0.0
 10
56.96947860170209
 20
-2.412684525403913
 30
0.0
 10
56.9181847941785
 20
-2.487511309332229
 30
0.0
 10
56.79060515561639
 20
-2.613771249583875
 30
0.0
 10
56.71314546300502
 20
-2.663739369805418
 30
0.0
 10
56.54489460191523
 20
-2.710266818939555
 30
0.0
 10
56.45443042112313
 20
-2.706675932842517
 30
0.0
 10
56.28442601863619
 20
-2.65813373982671
 30
0.0
 10
56.2067680456101
 20
-2.616106005853662
 30
0.0
 10
56.13400008181678
 20
-2.564265205530491
 30
0.0
  0
SPLINE
  5
B1
330
1F
100
AcDbEntity
  8
0
  6
Continuous
 62
     1
370
    15
100
AcDbSpline
210
0.0
220
0.0
230
1.0
 70
     8
 71
     3
 72
    31
 73
    27
 74
     0
 42
0.000000001
 43
0.00000001
 40
0.0
 40
0.0
 40
0.0
 40
0.0
 40
0.0208252108685389
 40
0.0416297558536489
 40
0.0624136466388259
 40
0.0936991575521506
 40
0.1250098666050498
 40
0.1613569070934557
 40
0.1976708181041252
 40
0.2500133654023152
 40
0.2812576308661626
 40
0.3124286198337184
 40
0.3437098706379976
 40
0.3750217189766374
 40
0.4374310435643936
 40
0.5000146981122191
 40
0.5624259101912412
 40
0.625007626792299
 40
0.687420879373663
 40
0.75000050707925
 40
0.812415953156489
 40
0.8749933410413051
 40
0.906230996888595
 40
0.9374187856868292
 40
0.9551360730887973
 40
0.9999999999999999
 40
0.9999999999999999
 40
0.9999999999999999
 40
0.9999999999999999
 10
56.13400008181746
 20
-2.564265205530975
 30
0.0
 10
56.01232727833132
 20
-2.477242485146755
 30
0.0
 10
55.7691024132804
 20
-2.303283401313978
 30
0.0
 10
55.40464579659747
 20
-2.038637195200899
 30
0.0
 10
54.97961627126001
 20
-1.726384354657226
 30
0.0
 10
54.49213236357928
 20
-1.366962634517688
 30
0.0
 10
53.91371276332131
 20
-0.9365517549271846
 30
0.0
 10
53.30654942142574
 20
-0.4802426582293033
 30
0.0
 10
52.57698318634188
 20
0.0708755069328058
 30
0.0
 10
51.87577349216319
 20
0.5978189303712029
 30
0.0
 10
51.2050176478761
 20
1.099395776340452
 30
0.0
 10
50.65877839813022
 20
1.507830993250294
 30
0.0
 10
50.11064311815789
 20
1.910519636415539
 30
0.0
 10
49.37979676043095
 20
2.440342272625699
 30
0.0
 10
48.46785332527164
 20
3.089987480564168
 30
0.0
 10
47.37151606789884
 20
3.831808509590423
 30
0.0
 10
46.27706562128403
 20
4.53625991108916
 30
0.0
 10
45.18075717321374
 20
5.187995611226053
 30
0.0
 10
44.08627684003515
 20
5.787043830508366
 30
0.0
 10
42.99001302468788
 20
6.320564756881674
 30
0.0
 10
41.89542797554932
 20
6.788388583099983
 30
0.0
 10
40.98182417699046
 20
7.115487822301021
 30
0.0
 10
40.2514034473944
 20
7.338895923384646
 30
0.0
 10
39.78398447841423
 20
7.465255589584878
 30
0.0
 10
39.23600513964264
 20
7.597901900916002
 30
0.0
 10
38.87022481057698
 20
7.667666471949477
 30
0.0
 10
38.60800008181673
 20
7.717680084663577
 30
0.0
  0
SPLINE
  5
B2
330
1F
100
AcDbEntity
  8
0
  6
Continuous
 62
     1
370
    15
100
AcDbSpline
210
0.0
220
0.0
230
1.0
 70
     8
 71
     3
 72
    19
 73
    15
 74
     0
 42
0.000000001
 43
0.00000001
 40
0.0
 40
0.0
 40
0.0
 40
0.0
 40
0.0682931441325677
 40
0.1507729327173945
 40
0.2332523934308833
 40
0.3138518905235405
 40
0.3944514248273285
 40
0.4769367904648522
 40
0.5594224524539784
 40
0.648779522339857
 40
0.738136367983413
 40
0.8300757858562526
 40
0.922015212231606
 40
1.0
 40
1.0
 40
1.0
 40
1.0
 10
40.1930382581777
 20
7.344262354972887
 30
0.0
 10
40.58140347660373
 20
7.382762098532445
 30
0.0
 10
41.43880964366875
 20
7.46775919917954
 30
0.0
 10
42.7658842061393
 20
7.441526732955629
 30
0.0
 10
44.16166219428862
 20
7.296227993009446
 30
0.0
 10
45.54710056541468
 20
7.021091952754235
 30
0.0
 10
46.93270144209215
 20
6.627271109306799
 30
0.0
 10
48.32863062747331
 20
6.113028921061339
 30
0.0
 10
49.77544779638504
 20
5.47033993229226
 30
0.0
 10
51.26130299634548
 20
4.701833948743425
 30
0.0
 10
52.80033695380557
 20
3.806664610850115
 30
0.0
 10
54.35395162236622
 20
2.819143182802588
 30
0.0
 10
55.84266146053832
 20
1.814695311036431
 30
0.0
 10
56.80938637294668
 20
1.139212073994859
 30
0.0
 10
57.25305378965052
 20
0.8292067157400768
 30
0.0
  0
ARC
  5
B3
330
1F
100
AcDbEntity
  8
0
  6
Continuous
 62
     1
370
    15
100
AcDbCircle
 10
47.04779008195146
 20
7.847930332030167
 30
0.0
 40
15.76307235145746
100
AcDbArc
 50
237.627920061953
 51
283.3867416900795
  0
LINE
  5
B4
330
1F
100
AcDbEntity
  8
0
  6
Continuous
 62
     4
370
    15
100
AcDbLine
 10
38.60800008181678
 20
-1.573495397051995
 30
0.0
 11
38.60800008181679
 21
-5.465386110949365
 31
0.0
  0
SPLINE
  5
B5
330
1F
100
AcDbEntity
  8
0
  6
Continuous
 62
     1
370
    15
100
AcDbSpline
210
0.0
220
0.0
230
1.0
 70
     8
 71
     3
 72
    34
 73
    30
 74
     0
 42
0.000000001
 43
0.00000001
 40
0.0
 40
0.0
 40
0.0
 40
0.0
 40
0.0625
 40
0.0625
 40
0.125
 40
0.125
 40
0.1875
 40
0.1875
 40
0.25
 40
0.25
 40
0.375
 40
0.375
 40
0.4375
 40
0.4375
 40
0.5
 40
0.5
 40
0.5625
 40
0.5625
 40
0.625
 40
0.625
 40
0.6875
 40
0.6875
 40
0.75
 40
0.75
 40
0.8125
 40
0.8125
 40
0.875
 40
0.875
 40
0.9265976793127745
 40
0.9265976793127745
 40
0.9265976793127745
 40
0.9265976793127745
 10
38.60800008181674
 20
-1.573495397051799
 30
0.0
 10
38.99723276311957
 20
-1.842120849744169
 30
0.0
 10
39.38737576803315
 20
-2.10772975968692
 30
0.0
 10
40.16234482241565
 20
-2.628087765570159
 30
0.0
 10
40.54930041947087
 20
-2.883331479431884
 30
0.0
 10
41.32807393673828
 20
-3.382069788194527
 30
0.0
 10
41.71798763467212
 20
-3.625129526692312
 30
0.0
 10
42.49174519638269
 20
-4.094274659517122
 30
0.0
 10
42.87995113027426
 20
-4.321256406529059
 30
0.0
 10
44.04832939757592
 20
-4.975057722143761
 30
0.0
 10
44.82124290128879
 20
-5.372674918546972
 30
0.0
 10
45.9895947674306
 20
-5.90024554479742
 30
0.0
 10
46.37749854262248
 20
-6.064164935505505
 30
0.0
 10
47.1515313567112
 20
-6.366464170485441
 30
0.0
 10
47.54150152515281
 20
-6.505313038364876
 30
0.0
 10
48.32022225237179
 20
-6.755710535088973
 30
0.0
 10
48.70695746274856
 20
-6.867095588101341
 30
0.0
 10
49.48216723118479
 20
-7.161185408631785
 30
0.0
 10
49.87234901648758
 20
-7.250087963015319
 30
0.0
 10
50.67106171793363
 20
-7.493072001884316
 30
0.0
 10
51.03356656588232
 20
-7.640495105334488
 30
0.0
 10
51.80281853983553
 20
-7.794417601621935
 30
0.0
 10
52.20320985061877
 20
-7.9375
 30
0.0
 10
52.981081412508
 20
-7.9375
 30
0.0
 10
53.36661691835759
 20
-7.9375
 30
0.0
 10
54.14369884057737
 20
-7.9375
 30
0.0
 10
54.53405787162917
 20
-7.9375
 30
0.0
 10
55.24347480173444
 20
-7.9375
 30
0.0
 10
55.56217951067305
 20
-7.9375
 30
0.0
 10
56.13400008181678
 20
-7.937499999999999
 30
0.0
  0
SPLINE
  5
B6
330
1F
100
AcDbEntity
  8
0
  6
Continuous
 62
     1
370
    15
100
AcDbSpline
210
0.0
220
0.0
230
1.0
 70
     8
 71
     3
 72
    38
 73
    34
 74
     0
 42
0.000000001
 43
0.00000001
 40
0.0
 40
0.0
 40
0.0
 40
0.0
 40
0.0625
 40
0.0625
 40
0.125
 40
0.125
 40
0.1875000000000001
 40
0.1875000000000001
 40
0.2500000000000001
 40
0.2500000000000001
 40
0.3125000000000001
 40
0.3125000000000001
 40
0.3750000000000001
 40
0.3750000000000001
 40
0.4375000000000001
 40
0.4375000000000001
 40
0.5000000000000001
 40
0.5000000000000001
 40
0.5625000000000001
 40
0.5625000000000001
 40
0.6250000000000001
 40
0.6250000000000001
 40
0.6875000000000001
 40
0.6875000000000001
 40
0.7500000000000002
 40
0.7500000000000002
 40
0.8125000000000002
 40
0.8125000000000002
 40
0.8750000000000002
 40
0.8750000000000002
 40
0.9375000000000001
 40
0.9375000000000001
 40
1.0
 40
1.0
 40
1.0
 40
1.0
 10
56.13400008181746
 20
-3.392687126968008
 30
0.0
 10
55.76830445387024
 20
-3.143813586330265
 30
0.0
 10
55.40570026488113
 20
-2.889535284340995
 30
0.0
 10
54.67579696340079
 20
-2.370413611502251
 30
0.0
 10
54.30897284700849
 20
-2.105658598330711
 30
0.0
 10
53.57751896492881
 20
-1.570030615804025
 30
0.0
 10
53.21486015424836
 20
-1.299657740368283
 30
0.0
 10
52.48506269082961
 20
-0.7541069974815351
 30
0.0
 10
52.11825011310068
 20
-0.4790009728945824
 30
0.0
 10
51.38673592862634
 20
0.0714226390574289
 30
0.0
 10
51.02401664368579
 20
0.3462386902425528
 30
0.0
 10
50.29432732458068
 20
0.8947023933441318
 30
0.0
 10
49.92752745891548
 20
1.168302042955964
 30
0.0
 10
49.19595529647646
 20
1.709796984984655
 30
0.0
 10
48.83316968534609
 20
1.977212069216506
 30
0.0
 10
48.10359081566328
 20
2.504949363662764
 30
0.0
 10
47.73680483532624
 20
2.765250451732137
 30
0.0
 10
47.00517701996732
 20
3.274476058073732
 30
0.0
 10
46.64231923141819
 20
3.522963500812876
 30
0.0
 10
45.91285311509888
 20
4.007230739214727
 30
0.0
 10
45.54608219320595
 20
4.243014573618875
 30
0.0
 10
44.81440105056218
 20
4.698019987664738
 30
0.0
 10
44.45146523412794
 20
4.916867185044264
 30
0.0
 10
43.72211417392162
 20
5.33679671006904
 30
0.0
 10
43.35535948342778
 20
5.537901653852194
 30
0.0
 10
42.62362733969977
 20
5.919072139593709
 30
0.0
 10
42.26060764573847
 20
6.098842165743381
 30
0.0
 10
41.53137394317889
 20
6.436341612332759
 30
0.0
 10
41.16463665686558
 20
6.594101065536916
 30
0.0
 10
40.43285583879496
 20
6.885003655133295
 30
0.0
 10
40.06974641855075
 20
7.017941993392264
 30
0.0
 10
39.34063237393183
 20
7.258473864925113
 30
0.0
 10
38.97391366439442
 20
7.366089788020775
 30
0.0
 10
38.60800008181679
 20
7.460135795909692
 30
0.0
  0
LINE
  5
B7
330
1F
100
AcDbEntity
  8
0
  6
Continuous
 62
     4
370
    15
100
AcDbLine
 10
38.60800008181678
 20
7.460135795909692
 30
0.0
 11
38.60800008181678
 21
7.717680084663577
 31
0.0
  0
SPLINE
  5
B8
330
1F
100
AcDbEntity
  8
0
  6
Continuous
 62
     1
370
    15
100
AcDbSpline
210
0.0
220
0.0
230
1.0
 70
     8
 71
     3
 72
    18
 73
    14
 74
     0
 42
0.000000001
 43
0.00000001
 40
0.0
 40
0.0
 40
0.0
 40
0.0
 40
0.2500000000000003
 40
0.2500000000000003
 40
0.5000000000000007
 40
0.5000000000000007
 40
0.6250000000000004
 40
0.6250000000000004
 40
0.7500000000000003
 40
0.7500000000000003
 40
0.8750000000000001
 40
0.8750000000000001
 40
1.0
 40
1.0
 40
1.0
 40
1.0
 10
56.13400008181678
 20
-3.392687126967544
 30
0.0
 10
56.32414027379448
 20
-3.522086712794311
 30
0.0
 10
56.50686548537776
 20
-3.63368737413562
 30
0.0
 10
56.86116515669716
 20
-3.816934269478351
 30
0.0
 10
57.02609807598039
 20
-3.884651211299382
 30
0.0
 10
57.24381634975162
 20
-3.944456432217362
 30
0.0
 10
57.31124909530259
 20
-3.957274692845398
 30
0.0
 10
57.42945414329447
 20
-3.968168657818988
 30
0.0
 10
57.48107802921793
 20
-3.966495655825126
 30
0.0
 10
57.56719381801032
 20
-3.949346823303373
 30
0.0
 10
57.6008721315784
 20
-3.933842635745201
 30
0.0
 10
57.64602594818655
 20
-3.892092867901317
 30
0.0
 10
57.65800008181679
 20
-3.865767384965422
 30
0.0
 10
57.65800008181679
 20
-3.834806627881918
 30
0.0
  0
SPLINE
  5
B9
330
1F
100
AcDbEntity
  8
0
  6
Continuous
 62
     1
370
    15
100
AcDbSpline
210
0.0
220
0.0
230
1.0
 70
     8
 71
     3
 72
    11
 73
     7
 74
     0
 42
0.000000001
 43
0.00000001
 40
0.0
 40
0.0
 40
0.0
 40
0.0
 40
0.2195633629354479
 40
0.5762315971304002
 40
0.9416650062934996
 40
1.0
 40
1.0
 40
1.0
 40
1.0
 10
56.36667722858282
 20
-3.531351191801142
 30
0.0
 10
56.2766670566316
 20
-3.552816700007246
 30
0.0
 10
56.04044046377932
 20
-3.609151709233971
 30
0.0
 10
55.60900924487532
 20
-3.785112174643575
 30
0.0
 10
55.24262058810885
 20
-3.963007270338626
 30
0.0
 10
55.04116046041316
 20
-4.072968596667689
 30
0.0
 10
55.01342791782231
 20
-4.088105622542974
 30
0.0
  0
SPLINE
  5
BA
330
1F
100
AcDbEntity
  8
0
  6
Continuous
 62
     1
370
    15
100
AcDbSpline
210
0.0
220
0.0
230
1.0
 70
     8
 71
     3
 72
     8
 73
     4
 74
     0
 42
0.000000001
 43
0.00000001
 40
0.0
 40
0.0
 40
0.0
 40
0.0
 40
1.0
 40
1.0
 40
1.0
 40
1.0
 10
57.65800008181678
 20
-4.640327385311442
 30
0.0
 10
56.74869818758103
 20
-4.578115589207335
 30
0.0
 10
55.86658273056192
 20
-4.396636166222066
 30
0.0
 10
55.01342791782
 20
-4.088105622548568
 30
0.0
  0
LINE
  5
BB
330
1F
100
AcDbEntity
  8
0
  6
Continuous
 62
     1
370
    15
100
AcDbLine
 10
57.65800008181678
 20
-6.4135
 30
0.0
 11
57.65800008181678
 21
-4.640327385311448
 31
0.0
  0
SPLINE
  5
BD
330
1F
100
AcDbEntity
  8
0
  6
Continuous
 62
     4
370
    15
100
AcDbSpline
210
0.0
220
0.0
230
1.0
 70
    24
 71
     3
 72
    20
 73
    16
 74
     0
 42
0.000000001
 43
0.00000001
 40
0.0
 40
0.0
 40
0.0
 40
0.0
 40
0.25
 40
0.25
 40
0.375
 40
0.375
 40
0.5
 40
0.5
 40
0.625
 40
0.625
 40
0.75
 40
0.75
 40
0.875
 40
0.875
 40
1.0
 40
1.0
 40
1.0
 40
1.0
 10
38.60800008181678
 20
7.460135795909574
 30
0.0
 10
38.60800008181678
 20
6.859306757668021
 30
0.0
 10
38.60800008181678
 20
6.174422701423805
 30
0.0
 10
38.60800008181678
 20
5.029714834511964
 30
0.0
 10
38.60800008181678
 20
4.62903660077303
 30
0.0
 10
38.60800008181678
 20
3.79926641647406
 30
0.0
 10
38.60800008181678
 20
3.3701224858126
 30
0.0
 10
38.60800008181678
 20
2.501275926993432
 30
0.0
 10
38.60800008181678
 20
2.061587558734501
 30
0.0
 10
38.60800008181678
 20
1.198459501469857
 30
0.0
 10
38.60800008181678
 20
0.7751465432637875
 30
0.0
 10
38.60800008181678
 20
-0.021425189499596
 30
0.0
 10
38.60800008181678
 20
-0.394439104867936
 30
0.0
 10
38.60800008181678
 20
-1.055229698725529
 30
0.0
 10
38.60800008181678
 20
-1.342717578032171
 30
0.0
 10
38.60800008181678
 20
-1.57349539705174
 30
0.0
  0
LINE
  5
BE
330
1F
100
AcDbEntity
  8
0
  6
Continuous
 62
     1
370
    15
100
AcDbLine
 10
57.65800008181678
 20
-3.83480662788192
 30
0.0
 11
57.65800008181678
 21
0.7506683715545546
 31
0.0
  0
SPLINE
  5
BF
330
1F
100
AcDbEntity
  8
0
  6
Continuous
 62
     1
370
    15
100
AcDbSpline
210
0.0
220
0.0
230
1.0
 70
     8
 71
     3
 72
    14
 73
    10
 74
     0
 42
0.000000001
 43
0.00000001
 40
0.0
 40
0.0
 40
0.0
 40
0.0
 40
0.25
 40
0.25
 40
0.5
 40
0.5
 40
0.75
 40
0.75
 40
1.0
 40
1.0
 40
1.0
 40
1.0
 10
57.65800008181678
 20
0.7506683715545567
 30
0.0
 10
57.65800008181678
 20
0.7254512974863718
 30
0.0
 10
57.64996773545274
 20
0.70677953515871
 30
0.0
 10
57.61572731387642
 20
0.6852660902342842
 30
0.0
 10
57.58915009119929
 20
0.6827671938668678
 30
0.0
 10
57.51934130881588
 20
0.6958600383458612
 30
0.0
 10
57.47508701658907
 20
0.7116455800438187
 30
0.0
 10
57.37334021360498
 20
0.7593282639421884
 30
0.0
 10
57.31586702416178
 20
0.7910486248505508
 30
0.0
 10
57.25305378965045
 20
0.82920671574022
 30
0.0
  0
SPLINE
  5
C0
330
1F
100
AcDbEntity
  8
0
  6
Continuous
 62
     1
370
    15
100
AcDbSpline
210
0.0
220
0.0
230
1.0
 70
     8
 71
     3
 72
    11
 73
     7
 74
     0
 42
0.000000001
 43
0.00000001
 40
0.0
 40
0.0
 40
0.0
 40
0.0
 40
0.1820647354265675
 40
0.4547147569575923
 40
0.7273493892244082
 40
1.0
 40
1.0
 40
1.0
 40
1.0
 10
49.06527995027954
 20
5.768724196327436
 30
0.0
 10
49.49429386627382
 20
5.990311546248519
 30
0.0
 10
50.56577516157085
 20
6.543735786962511
 30
0.0
 10
52.27955201169888
 20
7.186416072971503
 30
0.0
 10
54.20674571915283
 20
7.71644075695616
 30
0.0
 10
55.49156941118768
 20
7.846050747626412
 30
0.0
 10
56.13400008181678
 20
7.937500000000006
 30
0.0
  0
LINE
  5
C2
330
1F
100
AcDbEntity
  8
0
  6
Continuous
 62
     1
370
    15
100
AcDbLine
 10
57.65800008181678
 20
5.139562718986251
 30
0.0
 11
57.65800008181678
 21
6.369417496596349
 31
0.0
  0
SPLINE
  5
C3
330
1F
100
AcDbEntity
  8
0
  6
Continuous
 62
     1
370
    15
100
AcDbSpline
210
0.0
220
0.0
230
1.0
 70
     8
 71
     3
 72
    18
 73
    14
 74
     0
 42
0.000000001
 43
0.00000001
 40
0.0
 40
0.0
 40
0.0
 40
0.0
 40
0.25
 40
0.25
 40
0.375
 40
0.375
 40
0.5
 40
0.5
 40
0.625
 40
0.625
 40
0.75
 40
0.75
 40
1.0
 40
1.0
 40
1.0
 40
1.0
 10
57.65800008181678
 20
5.139562718986254
 30
0.0
 10
57.53416557528763
 20
4.828820125309846
 30
0.0
 10
57.38458123782031
 20
4.540150760878731
 30
0.0
 10
57.11542462108678
 20
4.145533049574968
 30
0.0
 10
57.01731005965382
 20
4.01950353741639
 30
0.0
 10
56.80975388469708
 20
3.787327777702503
 30
0.0
 10
56.7004568605641
 20
3.681004786313484
 30
0.0
 10
56.47102916410467
 20
3.487527236320334
 30
0.0
 10
56.35089994610296
 20
3.400370104517928
 30
0.0
 10
56.09973349484251
 20
3.245355854494728
 30
0.0
 10
55.96854907533098
 20
3.177666689881637
 30
0.0
 10
55.5707880478017
 20
3.008659445698062
 30
0.0
 10
55.2945982246457
 20
2.938379517084443
 30
0.0
 10
55.01342791782324
 20
2.906664270008308
 30
0.0
  0
SPLINE
  5
C4
330
1F
100
AcDbEntity
  8
0
  6
Continuous
 62
     1
370
    15
100
AcDbSpline
210
0.0
220
0.0
230
1.0
 70
     8
 71
     3
 72
     8
 73
     4
 74
     0
 42
0.000000001
 43
0.00000001
 40
0.0
 40
0.0
 40
0.0
 40
0.0
 40
1.0
 40
1.0
 40
1.0
 40
1.0
 10
57.65800008181678
 20
1.531147021911055
 30
0.0
 10
56.74869818758123
 20
2.0582594125362
 30
0.0
 10
55.86658273056228
 20
2.518225827299489
 30
0.0
 10
55.01342791782053
 20
2.906664270005004
 30
0.0
  0
LINE
  5
C5
330
1F
100
AcDbEntity
  8
0
  6
Continuous
 62
     1
370
    15
100
AcDbLine
 10
57.65800008181678
 20
0.7506683715545546
 30
0.0
 11
57.65800008181678
 21
1.531147021911055
 31
0.0
  0
SPLINE
  5
C6
330
1F
100
AcDbEntity
  8
0
  6
Continuous
 62
     1
370
    15
100
AcDbSpline
210
0.0
220
0.0
230
1.0
 70
     8
 71
     3
 72
    11
 73
     7
 74
     0
 42
0.000000001
 43
0.00000001
 40
0.0
 40
0.0
 40
0.0
 40
0.0
 40
0.2666688244829814
 40
0.5333822749043454
 40
0.800160286604389
 40
1.0
 40
1.0
 40
1.0
 40
1.0
 10
38.60800008181678
 20
-6.077984020272734
 30
0.0
 10
39.26218282345411
 20
-6.375190960704826
 30
0.0
 10
40.5706577815381
 20
-6.969654577936343
 30
0.0
 10
42.53369815584112
 20
-7.555103942950269
 30
0.0
 10
44.33294020741702
 20
-7.896843482288113
 30
0.0
 10
45.47785645320348
 20
-7.907182158738325
 30
0.0
 10
45.96819302233627
 20
-7.9116099333975
 30
0.0
  0
LINE
  5
C7
330
1F
100
AcDbEntity
  8
0
  6
Continuous
 62
     4
370
    15
100
AcDbLine
 10
38.60800008181678
 20
-6.077984020272733
 30
0.0
 11
38.60800008181678
 21
-5.465386110949334
 31
0.0
  0
LINE
  5
C8
330
1F
100
AcDbEntity
  8
0
  6
Continuous
 62
     1
370
    15
100
AcDbLine
 10
57.65800008181678
 20
1.531147021911055
 30
0.0
 11
57.65800008181678
 21
5.139562718986251
 31
0.0
  0
LINE
  5
C9
330
1F
100
AcDbEntity
  8
0
  6
Continuous
 62
     1
370
    15
100
AcDbLine
 10
57.65800008181678
 20
-3.83480662788192
 30
0.0
 11
57.65800008181678
 21
-4.640327385311442
 31
0.0
  0
LINE
  5
CA
330
1F
100
AcDbEntity
  8
0
  6
Continuous
 62
     1
370
    15
100
AcDbLine
 10
57.65800008181678
 20
6.369417496596349
 30
0.0
 11
57.65800008181678
 21
6.413500000000003
 31
0.0
  0
LINE
  5
CB
330
1F
100
AcDbEntity
  8
중심선
100
AcDbLine
 10
-72.34199991818323
 20
0.0000000000000043
 30
0.0
 11
60.65800008181678
 21
0.0000000000000041
 31
0.0
  0
CIRCLE
  5
CC
330
1F
100
AcDbEntity
  8
외형선
100
AcDbCircle
 10
0.0
 20
-0.0000000000000009
 30
0.0
 40
3.000000000000012
  0
INSERT
  5
CD
330
1F
100
AcDbEntity
  8
0
  6
Continuous
 62
     7
100
AcDbBlockReference
 66
     1
  2
블럭10
 10
-23.46527295739137
 20
-40.14040710369735
 30
0.0
  0
ATTRIB
  5
CE
330
CD
100
AcDbEntity
  8
FORMAT
 62
     2
100
AcDbText
 10
-32.64656824613266
 20
-38.06504019086515
 30
0.0
 40
4.233333333333333
  1
E5985040 [ 3 FLUTE ]
 41
0.75
  7
SLDTEXTSTYLE0
 11
-32.64656824613266
 21
-40.18170685753182
 31
0.0
100
AcDbAttribute
  2
AUTOATTR0
 70
     0
 74
     1
  0
SEQEND
  5
CF
330
CD
100
AcDbEntity
  8
0
  6
Continuous
 62
     7
  0
HATCH
  5
D0
330
1F
100
AcDbEntity
  8
중심선
100
AcDbHatch
 10
0.0
 20
0.0
 30
0.0
210
0.0
220
0.0
230
1.0
  2
SOLID
 70
     1
 71
     0
 91
        1
 92
        0
 93
        4
 72
     1
 10
-17.75036365301052
 20
-23.89323280205342
 11
-21.19663889684781
 21
-23.89323280205342
 72
     1
 10
-21.19663889684781
 20
-23.89323280205342
 11
-23.32486875605183
 21
-26.42955838262601
 72
     1
 10
-23.32486875605183
 20
-26.42955838262601
 11
-19.87856042710137
 21
-26.42951895332352
 72
     1
 10
-19.87856042710137
 20
-26.42951895332352
 11
-17.75036365301052
 21
-23.89323280205342
 97
        0
 75
     0
 76
     1
 98
        1
 10
0.0
 20
11.80967469308993
  0
HATCH
  5
D1
330
1F
100
AcDbEntity
  8
중심선
100
AcDbHatch
 10
0.0
 20
0.0
 30
0.0
210
0.0
220
0.0
230
1.0
  2
SOLID
 70
     1
 71
     0
 91
        1
 92
        0
 93
        4
 72
     1
 10
-12.73759966197455
 20
-23.89323280205342
 11
-16.18387490581183
 21
-23.89323280205342
 72
     1
 10
-16.18387490581183
 20
-23.89323280205342
 11
-20.71501291416925
 21
-29.29323280205343
 72
     1
 10
-20.71501291416925
 20
-29.29323280205343
 11
-17.26873767033196
 21
-29.29323280205343
 72
     1
 10
-17.26873767033196
 20
-29.29323280205343
 11
-12.73759966197455
 21
-23.89323280205342
 97
        0
 75
     0
 76
     1
 98
        1
 10
0.0
 20
11.80967469308993
  0
HATCH
  5
D2
330
1F
100
AcDbEntity
  8
중심선
100
AcDbHatch
 10
0.0
 20
0.0
 30
0.0
210
0.0
220
0.0
230
1.0
  2
SOLID
 70
     1
 71
     0
 91
        1
 92
        0
 93
        4
 72
     1
 10
-7.724835670938679
 20
-23.89323280205342
 11
-11.17111091477577
 21
-23.89323280205342
 72
     1
 10
-11.17111091477577
 20
-23.89323280205342
 11
-18.21954781666505
 21
-32.29323280205344
 72
     1
 10
-18.21954781666505
 20
-32.29323280205344
 11
-14.77327257282776
 21
-32.29323280205344
 72
     1
 10
-14.77327257282776
 20
-32.29323280205344
 11
-7.724835670938679
 21
-23.89323280205342
 97
        0
 75
     0
 76
     1
 98
        1
 10
0.0
 20
11.80967469308993
  0
HATCH
  5
D3
330
1F
100
AcDbEntity
  8
중심선
100
AcDbHatch
 10
0.0
 20
0.0
 30
0.0
210
0.0
220
0.0
230
1.0
  2
SOLID
 70
     1
 71
     0
 91
        1
 92
        0
 93
        6
 72
     3
 10
-2.92494523992648
 20
-28.09323280210469
 11
3.960054785062284
 21
1.540882976769353E-10
 40
0.3939339440162627
 50
17.09539180608437
 51
320.0019657685081
 73
     0
 72
     1
 10
-1.241945584225884
 20
-26.68112680669172
 11
1.063356289475181
 21
-24.74680009664377
 72
     3
 10
-2.924945239979326
 20
-28.09323280205356
 11
6.600054785286829
 21
-1.278976924368180E-13
 40
0.636358354079598
 50
39.99873849337413
 51
368.4976242363725
 73
     1
 72
     1
 10
3.500387251921283
 20
-27.13323280198344
 11
-4.244877933143404
 21
-27.13323280198344
 72
     1
 10
-4.244877933143404
 20
-27.13323280198344
 11
-4.244902977589337
 21
-29.05323280198333
 72
     1
 10
-4.244902977589337
 20
-29.05323280198333
 11
0.1964767918826995
 21
-29.05323280198331
 97
        0
 75
     0
 76
     1
 98
        1
 10
0.0
 20
11.80967469308993
  0
POINT
  5
D4
330
1F
100
AcDbEntity
  8
치수문자_일반주서
100
AcDbPoint
 10
0.0000000000000107
 20
0.0000000000000259
 30
0.0
  0
POINT
  5
D5
330
1F
100
AcDbEntity
  8
치수문자_일반주서
100
AcDbPoint
 10
-69.34199991818323
 20
0.000000000000005
 30
0.0
  0
DIMENSION
  5
D6
102
{ACAD_REACTORS
102
}
330
1F
100
AcDbEntity
  8
치수문자_일반주서
100
AcDbDimension
  2
_D
 10
38.60800008181678
 20
25.44684348840691
 30
0.0
 11
19.53525008181678
 21
25.44684348840691
 31
0.0
 70
   160
  1
<>
 71
     2
 42
19.05
  3
SLDDIMSTYLE0
100
AcDbAlignedDimension
 13
57.65800008181678
 23
7.9375
 33
0.0
 14
38.60800008181678
 24
7.717680084663577
 34
0.0
100
AcDbRotatedDimension
1001
ACAD
1000
DSTYLE
1002
{
1070
   171
1070
     6
1070
   273
1070
     5
1002
}
  0
DIMENSION
  5
EC
330
1F
100
AcDbEntity
  8
치수문자_일반주서
100
AcDbDimension
  2
_D_1
 10
-69.34199991818323
 20
69.77225965011003
 30
0.0
 11
-6.349154480639635
 21
69.77225965011003
 31
0.0
 70
   160
  1
<>
 71
     2
 42
127.0
  3
SLDDIMSTYLE1
100
AcDbAlignedDimension
 13
57.65800008181678
 23
7.9375
 33
0.0
 14
-69.34199991818323
 24
7.437499999999996
 34
0.0
 50
0.0000000000000064
100
AcDbRotatedDimension
1001
ACAD
1000
DSTYLE
1002
{
1070
   171
1070
     6
1070
   273
1070
     5
1002
}
  0
DIMENSION
  5
100
330
1F
100
AcDbEntity
  8
치수문자_일반주서
100
AcDbDimension
  2
_D_2
 10
-84.60727806929258
 20
-7.937500000000057
 30
0.0
 11
-84.6072780692927
 21
28.76024999999994
 31
0.0
 70
   160
  1
%%c<>
 71
     2
 42
15.875
 52
-270.0
  3
SLDDIMSTYLE0
100
AcDbAlignedDimension
 13
-68.84199991818323
 23
7.937500000000002
 33
0.0
 14
-68.84199991818323
 24
-7.937499999999998
 34
0.0
 50
90.0000000000002
100
AcDbRotatedDimension
1001
ACAD
1000
DSTYLE
1002
{
1070
   171
1070
     6
1070
   273
1070
     5
1002
}
  0
DIMENSION
  5
114
330
1F
100
AcDbEntity
  8
치수문자_일반주서
100
AcDbDimension
  2
_D_3
 10
57.65800008181678
 20
53.91009778227561
 30
0.0
 11
36.82411661178905
 21
53.91009778227561
 31
0.0
 70
   160
  1
<>
 71
     2
 42
57.15000008181678
  3
SLDDIMSTYLE1
100
AcDbAlignedDimension
 13
0.5080000000000009
 23
7.429500000000002
 33
0.0
 14
57.65800008181678
 24
7.9375
 34
0.0
100
AcDbRotatedDimension
1001
ACAD
1000
DSTYLE
1002
{
1070
   171
1070
     6
1070
   273
1070
     5
1002
}
  0
INSERT
  5
12D
330
1F
100
AcDbEntity
  8
외형선
100
AcDbBlockReference
  2
SW_DOWELSYMBOL_0
 10
0.0
 20
-0.0000000000000009
 30
0.0
  0
ARC
  5
155
102
{ACAD_REACTORS
102
}
330
1F
100
AcDbEntity
  8
0
  6
Continuous
 62
     1
370
    15
100
AcDbCircle
 10
56.13400008181678
 20
-6.4135
 30
0.0
 40
1.524
100
AcDbArc
 50
270.0
 51
0.0
  0
ARC
  5
158
330
1F
100
AcDbEntity
  8
0
  6
Continuous
 62
     1
370
    15
100
AcDbCircle
 10
56.13400008181678
 20
6.413500000000007
 30
0.0
 40
1.524
100
AcDbArc
 50
0.0
 51
90.0
  0
DIMENSION
  5
15A
102
{ACAD_XDICTIONARY
360
15B
102
}
330
1F
100
AcDbEntity
  8
치수문자_일반주서
100
AcDbDimension
  2
*D7
 10
70.43059146846048
 20
7.937499999999999
 30
0.0
 11
67.80559146846048
 21
25.2395
 31
0.0
 70
    32
  1
{Ø<>[]}
 71
     5
 42
15.875
  3
SLDDIMSTYLE1
100
AcDbAlignedDimension
 13
57.65800008181678
 23
-7.9375
 33
0.0
 14
57.65800008181678
 24
7.9375
 34
0.0
 50
90.0
100
AcDbRotatedDimension
1001
ACAD
1000
DSTYLE
1002
{
1070
   171
1070
     6
1070
   273
1070
     5
1070
   283
1070
     1
1070
   170
1070
     1
1002
}
  0
DIMENSION
  5
16C
102
{ACAD_REACTORS
102
}
102
{ACAD_XDICTIONARY
360
16D
102
}
330
1F
100
AcDbEntity
  8
치수문자_일반주서
100
AcDbDimension
  2
*D8
 10
56.13400008181678
 20
-6.4135
 30
0.0
 11
67.20364056910316
 21
-25.57365249110063
 31
0.0
 70
   164
  1
<>
 71
     5
 42
1.523999999999997
  3
SLDDIMSTYLE1
100
AcDbRadialDimension
 15
56.89638855355505
 25
-7.733098354864304
 35
0.0
 40
0.0
1001
ACAD_DSTYLE_DIMRADIAL_EXTENSION
1070
   387
1070
     1
1070
   388
1040
4.71238898038469
1070
   390
1040
0.0
  0
ENDSEC
  0
SECTION
  2
OBJECTS
  0
DICTIONARY
  5
C
330
0
100
AcDbDictionary
281
     1
  3
ACAD_GROUP
350
D
  3
ACAD_IMAGE_VARS
350
151
  3
ACAD_LAYOUT
350
1A
  3
ACAD_MLINESTYLE
350
17
  3
ACAD_PLOTSETTINGS
350
19
  3
ACAD_PLOTSTYLENAME
350
E
  3
ACAD_SCALELIST
350
47
  3
APPDATA
350
14F
  3
DWGPROPS
350
181
  0
DICTIONARY
  5
15B
330
15A
100
AcDbDictionary
280
     1
281
     1
  0
DICTIONARY
  5
16D
330
16C
100
AcDbDictionary
280
     1
281
     1
  0
DICTIONARY
  5
D
102
{ACAD_REACTORS
330
C
102
}
330
C
100
AcDbDictionary
281
     1
  0
RASTERVARIABLES
  5
151
102
{ACAD_REACTORS
330
C
102
}
330
C
100
AcDbRasterVariables
 90
        0
 70
     1
 71
     1
 72
     1
  0
DICTIONARY
  5
1A
102
{ACAD_REACTORS
330
C
102
}
330
C
100
AcDbDictionary
281
     1
  3
Layout1
350
1E
  3
Layout2
350
26
  3
Model
350
22
  0
DICTIONARY
  5
17
102
{ACAD_REACTORS
330
C
102
}
330
C
100
AcDbDictionary
281
     1
  3
Standard
350
18
  0
DICTIONARY
  5
19
102
{ACAD_REACTORS
330
C
102
}
330
C
100
AcDbDictionary
281
     1
  0
ACDBDICTIONARYWDFLT
  5
E
102
{ACAD_REACTORS
330
C
102
}
330
C
100
AcDbDictionary
281
     1
  3
Normal
350
F
100
AcDbDictionaryWithDefault
340
F
  0
DICTIONARY
  5
47
102
{ACAD_REACTORS
330
C
102
}
330
C
100
AcDbDictionary
281
     1
  3
A0
350
48
  3
A1
350
49
  3
A2
350
4A
  3
A3
350
4B
  3
A4
350
4C
  3
A5
350
4D
  3
A6
350
4E
  3
A7
350
4F
  3
A8
350
50
  3
A9
350
51
  3
B0
350
52
  3
B1
350
53
  3
B2
350
54
  3
B3
350
55
  3
B4
350
56
  3
B5
350
57
  3
B6
350
58
  3
B7
350
59
  3
B8
350
5A
  3
B9
350
5B
  3
C0
350
5C
  3
C1
350
5D
  3
C2
350
5E
  3
C3
350
5F
  3
C4
350
60
  3
C5
350
61
  3
C6
350
62
  3
C7
350
63
  3
C8
350
64
  3
C9
350
65
  3
D0
350
66
  3
D1
350
67
  3
D2
350
68
  0
DICTIONARY
  5
14F
102
{ACAD_REACTORS
330
C
102
}
330
C
100
AcDbDictionary
281
     1
  0
XRECORD
  5
181
102
{ACAD_REACTORS
330
C
102
}
330
C
100
AcDbXrecord
280
     1
  1
DWGPROPS COOKIE
  2

  3

  4

  6

  7

  8
12014074
  9

300
=
301
=
302
=
303
=
304
=
305
=
306
=
307
=
308
=
309
=
 40
0.0
 41
2458269.041536585
 42
2458270.114264282
  1

 90
        0
  0
LAYOUT
  5
1E
102
{ACAD_REACTORS
330
1A
102
}
330
1A
100
AcDbPlotSettings
  1

  2
none_device
  4

  6

 40
0.0
 41
0.0
 42
0.0
 43
0.0
 44
0.0
 45
0.0
 46
0.0
 47
0.0
 48
0.0
 49
0.0
140
0.0
141
0.0
142
1.0
143
1.0
 70
   688
 72
     1
 73
     0
 74
     5
  7

 75
    16
147
1.0
148
0.0
149
0.0
100
AcDbLayout
  1
Layout1
 70
     1
 71
     1
 10
0.0
 20
0.0
 11
420.0
 21
297.0
 12
0.0
 22
0.0
 32
0.0
 14
1.000000000000000E+20
 24
1.000000000000000E+20
 34
1.000000000000000E+20
 15
-1.000000000000000E+20
 25
-1.000000000000000E+20
 35
-1.000000000000000E+20
146
0.0
 13
0.0
 23
0.0
 33
0.0
 16
1.0
 26
0.0
 36
0.0
 17
0.0
 27
1.0
 37
0.0
 76
     0
330
1B
  0
LAYOUT
  5
26
102
{ACAD_REACTORS
330
1A
102
}
330
1A
100
AcDbPlotSettings
  1

  2
none_device
  4

  6

 40
0.0
 41
0.0
 42
0.0
 43
0.0
 44
0.0
 45
0.0
 46
0.0
 47
0.0
 48
0.0
 49
0.0
140
0.0
141
0.0
142
1.0
143
1.0
 70
   688
 72
     1
 73
     0
 74
     5
  7

 75
    16
147
1.0
148
0.0
149
0.0
100
AcDbLayout
  1
Layout2
 70
     1
 71
     2
 10
0.0
 20
0.0
 11
0.0
 21
0.0
 12
0.0
 22
0.0
 32
0.0
 14
0.0
 24
0.0
 34
0.0
 15
0.0
 25
0.0
 35
0.0
146
0.0
 13
0.0
 23
0.0
 33
0.0
 16
1.0
 26
0.0
 36
0.0
 17
0.0
 27
1.0
 37
0.0
 76
     0
330
23
  0
LAYOUT
  5
22
102
{ACAD_REACTORS
330
1A
102
}
330
1A
100
AcDbPlotSettings
  1

  2
none_device
  4
ANSI_A_(11.00_x_8.50_Inches)
  6

 40
6.35
 41
19.05
 42
6.35000508
 43
19.05000254
 44
279.4
 45
215.9
 46
178.0952254539299
 47
64.50374937183273
 48
0.0
 49
0.0
140
0.0
141
0.0
142
0.0641466293059438
143
1.0
 70
  1696
 72
     0
 73
     0
 74
     0
  7

 75
     0
147
0.0235690232323232
148
0.0
149
0.0
100
AcDbLayout
  1
Model
 70
     1
 71
     0
 10
0.0
 20
0.0
 11
420.0
 21
297.0
 12
0.0
 22
0.0
 32
0.0
 14
-88.98227806929276
 24
-38.06504019086516
 34
0.0
 15
77.55770322927124
 25
74.14725965011003
 35
0.0
146
0.0
 13
0.0
 23
0.0
 33
0.0
 16
1.0
 26
0.0
 36
0.0
 17
0.0
 27
1.0
 37
0.0
 76
     0
330
1F
331
29
  0
MLINESTYLE
  5
18
102
{ACAD_REACTORS
330
17
102
}
330
17
100
AcDbMlineStyle
  2
Standard
 70
     0
  3

 62
   256
 51
90.0
 52
90.0
 71
     2
 49
0.5
 62
   256
  6
BYLAYER
 49
-0.5
 62
   256
  6
BYLAYER
  0
ACDBPLACEHOLDER
  5
F
102
{ACAD_REACTORS
330
E
102
}
330
E
  0
SCALE
  5
48
102
{ACAD_REACTORS
330
47
102
}
330
47
100
AcDbScale
 70
     0
300
1:1
140
1.0
141
1.0
290
     1
  0
SCALE
  5
49
102
{ACAD_REACTORS
330
47
102
}
330
47
100
AcDbScale
 70
     0
300
1:2
140
1.0
141
2.0
290
     0
  0
SCALE
  5
4A
102
{ACAD_REACTORS
330
47
102
}
330
47
100
AcDbScale
 70
     0
300
1:4
140
1.0
141
4.0
290
     0
  0
SCALE
  5
4B
102
{ACAD_REACTORS
330
47
102
}
330
47
100
AcDbScale
 70
     0
300
1:5
140
1.0
141
5.0
290
     0
  0
SCALE
  5
4C
102
{ACAD_REACTORS
330
47
102
}
330
47
100
AcDbScale
 70
     0
300
1:8
140
1.0
141
8.0
290
     0
  0
SCALE
  5
4D
102
{ACAD_REACTORS
330
47
102
}
330
47
100
AcDbScale
 70
     0
300
1:10
140
1.0
141
10.0
290
     0
  0
SCALE
  5
4E
102
{ACAD_REACTORS
330
47
102
}
330
47
100
AcDbScale
 70
     0
300
1:16
140
1.0
141
16.0
290
     0
  0
SCALE
  5
4F
102
{ACAD_REACTORS
330
47
102
}
330
47
100
AcDbScale
 70
     0
300
1:20
140
1.0
141
20.0
290
     0
  0
SCALE
  5
50
102
{ACAD_REACTORS
330
47
102
}
330
47
100
AcDbScale
 70
     0
300
1:30
140
1.0
141
30.0
290
     0
  0
SCALE
  5
51
102
{ACAD_REACTORS
330
47
102
}
330
47
100
AcDbScale
 70
     0
300
1:40
140
1.0
141
40.0
290
     0
  0
SCALE
  5
52
102
{ACAD_REACTORS
330
47
102
}
330
47
100
AcDbScale
 70
     0
300
1:50
140
1.0
141
50.0
290
     0
  0
SCALE
  5
53
102
{ACAD_REACTORS
330
47
102
}
330
47
100
AcDbScale
 70
     0
300
1:100
140
1.0
141
100.0
290
     0
  0
SCALE
  5
54
102
{ACAD_REACTORS
330
47
102
}
330
47
100
AcDbScale
 70
     0
300
2:1
140
2.0
141
1.0
290
     0
  0
SCALE
  5
55
102
{ACAD_REACTORS
330
47
102
}
330
47
100
AcDbScale
 70
     0
300
4:1
140
4.0
141
1.0
290
     0
  0
SCALE
  5
56
102
{ACAD_REACTORS
330
47
102
}
330
47
100
AcDbScale
 70
     0
300
8:1
140
8.0
141
1.0
290
     0
  0
SCALE
  5
57
102
{ACAD_REACTORS
330
47
102
}
330
47
100
AcDbScale
 70
     0
300
10:1
140
10.0
141
1.0
290
     0
  0
SCALE
  5
58
102
{ACAD_REACTORS
330
47
102
}
330
47
100
AcDbScale
 70
     0
300
100:1
140
100.0
141
1.0
290
     0
  0
SCALE
  5
59
102
{ACAD_REACTORS
330
47
102
}
330
47
100
AcDbScale
 70
     0
300
1/128" = 1'-0"
140
0.0078125
141
12.0
290
     0
  0
SCALE
  5
5A
102
{ACAD_REACTORS
330
47
102
}
330
47
100
AcDbScale
 70
     0
300
1/64" = 1'-0"
140
0.015625
141
12.0
290
     0
  0
SCALE
  5
5B
102
{ACAD_REACTORS
330
47
102
}
330
47
100
AcDbScale
 70
     0
300
1/32" = 1'-0"
140
0.03125
141
12.0
290
     0
  0
SCALE
  5
5C
102
{ACAD_REACTORS
330
47
102
}
330
47
100
AcDbScale
 70
     0
300
1/16" = 1'-0"
140
0.0625
141
12.0
290
     0
  0
SCALE
  5
5D
102
{ACAD_REACTORS
330
47
102
}
330
47
100
AcDbScale
 70
     0
300
3/32" = 1'-0"
140
0.09375
141
12.0
290
     0
  0
SCALE
  5
5E
102
{ACAD_REACTORS
330
47
102
}
330
47
100
AcDbScale
 70
     0
300
1/8" = 1'-0"
140
0.125
141
12.0
290
     0
  0
SCALE
  5
5F
102
{ACAD_REACTORS
330
47
102
}
330
47
100
AcDbScale
 70
     0
300
3/16" = 1'-0"
140
0.1875
141
12.0
290
     0
  0
SCALE
  5
60
102
{ACAD_REACTORS
330
47
102
}
330
47
100
AcDbScale
 70
     0
300
1/4" = 1'-0"
140
0.25
141
12.0
290
     0
  0
SCALE
  5
61
102
{ACAD_REACTORS
330
47
102
}
330
47
100
AcDbScale
 70
     0
300
3/8" = 1'-0"
140
0.375
141
12.0
290
     0
  0
SCALE
  5
62
102
{ACAD_REACTORS
330
47
102
}
330
47
100
AcDbScale
 70
     0
300
1/2" = 1'-0"
140
0.5
141
12.0
290
     0
  0
SCALE
  5
63
102
{ACAD_REACTORS
330
47
102
}
330
47
100
AcDbScale
 70
     0
300
3/4" = 1'-0"
140
0.75
141
12.0
290
     0
  0
SCALE
  5
64
102
{ACAD_REACTORS
330
47
102
}
330
47
100
AcDbScale
 70
     0
300
1" = 1'-0"
140
1.0
141
12.0
290
     0
  0
SCALE
  5
65
102
{ACAD_REACTORS
330
47
102
}
330
47
100
AcDbScale
 70
     0
300
1-1/2" = 1'-0"
140
1.5
141
12.0
290
     0
  0
SCALE
  5
66
102
{ACAD_REACTORS
330
47
102
}
330
47
100
AcDbScale
 70
     0
300
3" = 1'-0"
140
3.0
141
12.0
290
     0
  0
SCALE
  5
67
102
{ACAD_REACTORS
330
47
102
}
330
47
100
AcDbScale
 70
     0
300
6" = 1'-0"
140
6.0
141
12.0
290
     0
  0
SCALE
  5
68
102
{ACAD_REACTORS
330
47
102
}
330
47
100
AcDbScale
 70
     0
300
1'-0" = 1'-0"
140
12.0
141
12.0
290
     0
  0
ENDSEC
  0
EOF
