  0
SECTION
  2
HEADER
  9
$ACADVER
  1
AC1015
  9
$ACADMAINTVER
 70
     6
  9
$DWGCODEPAGE
  3
ANSI_949
  9
$INSBASE
 10
0.0
 20
0.0
 30
0.0
  9
$EXTMIN
 10
-93.46500429095602
 20
-49.87471488395509
 30
0.0
  9
$EXTMAX
 10
82.52613401209544
 20
78.90975965011
 30
0.0
  9
$LIMMIN
 10
0.0
 20
0.0
  9
$LIMMAX
 10
420.0
 20
297.0
  9
$ORTHOMODE
 70
     1
  9
$REGENMODE
 70
     1
  9
$FILLMODE
 70
     1
  9
$QTEXTMODE
 70
     0
  9
$MIRRTEXT
 70
     1
  9
$LTSCALE
 40
1.0
  9
$ATTMODE
 70
     1
  9
$TEXTSIZE
 40
3.5
  9
$TRACEWID
 40
1.0
  9
$TEXTSTYLE
  7
Standard
  9
$CLAYER
  8
0
  9
$CELTYPE
  6
ByLayer
  9
$CECOLOR
 62
   256
  9
$CELTSCALE
 40
1.0
  9
$DISPSILH
 70
     0
  9
$DIMSCALE
 40
1.0
  9
$DIMASZ
 40
3.302
  9
$DIMEXO
 40
1.0
  9
$DIMDLI
 40
3.75
  9
$DIMRND
 40
0.0
  9
$DIMDLE
 40
0.0
  9
$DIMEXE
 40
1.0
  9
$DIMTP
 40
0.0
  9
$DIMTM
 40
0.0
  9
$DIMTXT
 40
3.5
  9
$DIMCEN
 40
2.5
  9
$DIMTSZ
 40
0.0
  9
$DIMTOL
 70
     0
  9
$DIMLIM
 70
     0
  9
$DIMTIH
 70
     1
  9
$DIMTOH
 70
     1
  9
$DIMSE1
 70
     0
  9
$DIMSE2
 70
     0
  9
$DIMTAD
 70
     1
  9
$DIMZIN
 70
     0
  9
$DIMBLK
  1

  9
$DIMASO
 70
     1
  9
$DIMSHO
 70
     1
  9
$DIMPOST
  1

  9
$DIMAPOST
  1

  9
$DIMALT
 70
     0
  9
$DIMALTD
 70
     3
  9
$DIMALTF
 40
0.0393700787401575
  9
$DIMLFAC
 40
1.0
  9
$DIMTOFL
 70
     1
  9
$DIMTVP
 40
0.0
  9
$DIMTIX
 70
     0
  9
$DIMSOXD
 70
     0
  9
$DIMSAH
 70
     0
  9
$DIMBLK1
  1

  9
$DIMBLK2
  1

  9
$DIMSTYLE
  2
ISO-25
  9
$DIMCLRD
 70
     0
  9
$DIMCLRE
 70
     0
  9
$DIMCLRT
 70
     0
  9
$DIMTFAC
 40
1.0
  9
$DIMGAP
 40
1.524
  9
$DIMJUST
 70
     0
  9
$DIMSD1
 70
     0
  9
$DIMSD2
 70
     0
  9
$DIMTOLJ
 70
     0
  9
$DIMTZIN
 70
     0
  9
$DIMALTZ
 70
     0
  9
$DIMALTTZ
 70
     0
  9
$DIMUPT
 70
     0
  9
$DIMDEC
 70
     2
  9
$DIMTDEC
 70
     2
  9
$DIMALTU
 70
     2
  9
$DIMALTTD
 70
     3
  9
$DIMTXSTY
  7
Standard
  9
$DIMAUNIT
 70
     0
  9
$DIMADEC
 70
     2
  9
$DIMALTRND
 40
0.0
  9
$DIMAZIN
 70
     0
  9
$DIMDSEP
 70
    44
  9
$DIMATFIT
 70
     3
  9
$DIMFRAC
 70
     0
  9
$DIMLDRBLK
  1

  9
$DIMLUNIT
 70
     2
  9
$DIMLWD
 70
    -2
  9
$DIMLWE
 70
    -2
  9
$DIMTMOVE
 70
     0
  9
$LUNITS
 70
     2
  9
$LUPREC
 70
     2
  9
$SKETCHINC
 40
1.0
  9
$FILLETRAD
 40
10.0
  9
$AUNITS
 70
     0
  9
$AUPREC
 70
     2
  9
$MENU
  1
.
  9
$ELEVATION
 40
0.0
  9
$PELEVATION
 40
0.0
  9
$THICKNESS
 40
0.0
  9
$LIMCHECK
 70
     0
  9
$CHAMFERA
 40
0.0
  9
$CHAMFERB
 40
0.0
  9
$CHAMFERC
 40
0.0
  9
$CHAMFERD
 40
0.0
  9
$SKPOLY
 70
     0
  9
$TDCREATE
 40
2458269.414239965
  9
$TDUCREATE
 40
2458269.039239965
  9
$TDUPDATE
 40
2458270.496486227
  9
$TDUUPDATE
 40
2458270.121486227
  9
$TDINDWG
 40
0.0018942361
  9
$TDUSRTIMER
 40
2458270.119006227
  9
$USRTIMER
 70
     1
  9
$ANGBASE
 50
0.0
  9
$ANGDIR
 70
     0
  9
$PDMODE
 70
     0
  9
$PDSIZE
 40
-1.0
  9
$PLINEWID
 40
0.0
  9
$SPLFRAME
 70
     0
  9
$SPLINETYPE
 70
     6
  9
$SPLINESEGS
 70
     8
  9
$HANDSEED
  5
17C
  9
$SURFTAB1
 70
     6
  9
$SURFTAB2
 70
     6
  9
$SURFTYPE
 70
     6
  9
$SURFU
 70
     6
  9
$SURFV
 70
     6
  9
$UCSBASE
  2

  9
$UCSNAME
  2

  9
$UCSORG
 10
0.0
 20
0.0
 30
0.0
  9
$UCSXDIR
 10
1.0
 20
0.0
 30
0.0
  9
$UCSYDIR
 10
0.0
 20
1.0
 30
0.0
  9
$UCSORTHOREF
  2

  9
$UCSORTHOVIEW
 70
     0
  9
$UCSORGTOP
 10
0.0
 20
0.0
 30
0.0
  9
$UCSORGBOTTOM
 10
0.0
 20
0.0
 30
0.0
  9
$UCSORGLEFT
 10
0.0
 20
0.0
 30
0.0
  9
$UCSORGRIGHT
 10
0.0
 20
0.0
 30
0.0
  9
$UCSORGFRONT
 10
0.0
 20
0.0
 30
0.0
  9
$UCSORGBACK
 10
0.0
 20
0.0
 30
0.0
  9
$PUCSBASE
  2

  9
$PUCSNAME
  2

  9
$PUCSORG
 10
0.0
 20
0.0
 30
0.0
  9
$PUCSXDIR
 10
1.0
 20
0.0
 30
0.0
  9
$PUCSYDIR
 10
0.0
 20
1.0
 30
0.0
  9
$PUCSORTHOREF
  2

  9
$PUCSORTHOVIEW
 70
     0
  9
$PUCSORGTOP
 10
0.0
 20
0.0
 30
0.0
  9
$PUCSORGBOTTOM
 10
0.0
 20
0.0
 30
0.0
  9
$PUCSORGLEFT
 10
0.0
 20
0.0
 30
0.0
  9
$PUCSORGRIGHT
 10
0.0
 20
0.0
 30
0.0
  9
$PUCSORGFRONT
 10
0.0
 20
0.0
 30
0.0
  9
$PUCSORGBACK
 10
0.0
 20
0.0
 30
0.0
  9
$USERI1
 70
     0
  9
$USERI2
 70
     0
  9
$USERI3
 70
     0
  9
$USERI4
 70
     0
  9
$USERI5
 70
     0
  9
$USERR1
 40
0.0
  9
$USERR2
 40
0.0
  9
$USERR3
 40
0.0
  9
$USERR4
 40
0.0
  9
$USERR5
 40
0.0
  9
$WORLDVIEW
 70
     1
  9
$SHADEDGE
 70
     3
  9
$SHADEDIF
 70
    70
  9
$TILEMODE
 70
     1
  9
$MAXACTVP
 70
    64
  9
$PINSBASE
 10
0.0
 20
0.0
 30
0.0
  9
$PLIMCHECK
 70
     0
  9
$PEXTMIN
 10
1.000000000000000E+20
 20
1.000000000000000E+20
 30
1.000000000000000E+20
  9
$PEXTMAX
 10
-1.000000000000000E+20
 20
-1.000000000000000E+20
 30
-1.000000000000000E+20
  9
$PLIMMIN
 10
0.0
 20
0.0
  9
$PLIMMAX
 10
0.0
 20
0.0
  9
$UNITMODE
 70
     0
  9
$VISRETAIN
 70
     1
  9
$PLINEGEN
 70
     0
  9
$PSLTSCALE
 70
     1
  9
$TREEDEPTH
 70
  3020
  9
$CMLSTYLE
  2
Standard
  9
$CMLJUST
 70
     0
  9
$CMLSCALE
 40
20.0
  9
$PROXYGRAPHICS
 70
     1
  9
$MEASUREMENT
 70
     1
  9
$CELWEIGHT
370
    -1
  9
$ENDCAPS
280
     0
  9
$JOINSTYLE
280
     0
  9
$LWDISPLAY
290
     1
  9
$INSUNITS
 70
     4
  9
$HYPERLINKBASE
  1

  9
$STYLESHEET
  1

  9
$XEDIT
290
     1
  9
$CEPSNTYPE
380
     0
  9
$PSTYLEMODE
290
     1
  9
$FINGERPRINTGUID
  2
{D8E2D14D-AD7C-4960-8B96-307E2D04FFF2}
  9
$VERSIONGUID
  2
{FAEB1C32-E019-11D5-929B-00C0DF256EC4}
  9
$EXTNAMES
290
     1
  9
$PSVPSCALE
 40
0.0
  9
$OLESTARTUP
290
     0
  0
ENDSEC
  0
SECTION
  2
CLASSES
  0
CLASS
  1
ACDBDICTIONARYWDFLT
  2
AcDbDictionaryWithDefault
  3
ObjectDBX Classes
 90
        0
280
     0
281
     0
  0
CLASS
  1
VISUALSTYLE
  2
AcDbVisualStyle
  3
ObjectDBX Classes
 90
     4095
280
     0
281
     0
  0
CLASS
  1
MATERIAL
  2
AcDbMaterial
  3
ObjectDBX Classes
 90
     1153
280
     0
281
     0
  0
CLASS
  1
SCALE
  2
AcDbScale
  3
ObjectDBX Classes
 90
     1153
280
     0
281
     0
  0
CLASS
  1
SUN
  2
AcDbSun
  3
SCENEOE
 90
     1153
280
     0
281
     0
  0
CLASS
  1
ACDBPLACEHOLDER
  2
AcDbPlaceHolder
  3
ObjectDBX Classes
 90
        0
280
     0
281
     0
  0
CLASS
  1
LAYOUT
  2
AcDbLayout
  3
ObjectDBX Classes
 90
        0
280
     0
281
     0
  0
CLASS
  1
TABLESTYLE
  2
AcDbTableStyle
  3
ObjectDBX Classes
 90
     4095
280
     0
281
     0
  0
CLASS
  1
MLEADERSTYLE
  2
AcDbMLeaderStyle
  3
ACDB_MLEADERSTYLE_CLASS
 90
     4095
280
     0
281
     0
  0
CLASS
  1
RASTERVARIABLES
  2
AcDbRasterVariables
  3
ISM
 90
        0
280
     0
281
     0
  0
CLASS
  1
DIMASSOC
  2
AcDbDimAssoc
  3
"AcDbDimAssoc|Product Desc:     AcDim ARX App For Dimension|Company:          Autodesk, Inc.|WEB Address:      www.autodesk.com"
 90
        0
280
     0
281
     0
  0
ENDSEC
  0
SECTION
  2
TABLES
  0
TABLE
  2
VPORT
  5
8
330
0
100
AcDbSymbolTable
 70
     1
  0
VPORT
  5
29
330
8
100
AcDbSymbolTableRecord
100
AcDbViewportTableRecord
  2
*Active
 70
     0
 10
0.0
 20
0.0
 11
1.0
 21
1.0
 12
16.85891042256583
 22
14.91661729836665
 13
0.0
 23
0.0
 14
10.0
 24
10.0
 15
10.0
 25
10.0
 16
0.0
 26
0.0
 36
1.0
 17
0.0
 27
0.0
 37
0.0
 40
140.0654033751093
 41
1.970186335403727
 42
50.0
 43
0.0
 44
0.0
 50
0.0
 51
0.0
 71
    16
 72
  2000
 73
     1
 74
     3
 75
     0
 76
     0
 77
     0
 78
     0
281
     0
 65
     1
110
0.0
120
0.0
130
0.0
111
1.0
121
0.0
131
0.0
112
0.0
122
1.0
132
0.0
 79
     0
146
0.0
  0
ENDTAB
  0
TABLE
  2
LTYPE
  5
5
330
0
100
AcDbSymbolTable
 70
     6
  0
LTYPE
  5
14
330
5
100
AcDbSymbolTableRecord
100
AcDbLinetypeTableRecord
  2
ByBlock
 70
     0
  3

 72
    65
 73
     0
 40
0.0
  0
LTYPE
  5
15
330
5
100
AcDbSymbolTableRecord
100
AcDbLinetypeTableRecord
  2
ByLayer
 70
     0
  3

 72
    65
 73
     0
 40
0.0
  0
LTYPE
  5
16
330
5
100
AcDbSymbolTableRecord
100
AcDbLinetypeTableRecord
  2
Continuous
 70
     0
  3
Solid line
 72
    65
 73
     0
 40
0.0
  0
LTYPE
  5
6A
330
5
100
AcDbSymbolTableRecord
100
AcDbLinetypeTableRecord
  2
HIDDEN
 70
     0
  3
Hidden __ __ __ __ __ __ __ __ __ __ __ __ __ __
 72
    65
 73
     2
 40
1.905
 49
1.27
 74
     0
 49
-0.635
 74
     0
  0
LTYPE
  5
6B
330
5
100
AcDbSymbolTableRecord
100
AcDbLinetypeTableRecord
  2
PHANTOM
 70
     0
  3
Phantom ______  __  __  ______  __  __  ______
 72
    65
 73
     6
 40
12.7
 49
6.35
 74
     0
 49
-1.27
 74
     0
 49
1.27
 74
     0
 49
-1.27
 74
     0
 49
1.27
 74
     0
 49
-1.27
 74
     0
  0
LTYPE
  5
6C
330
5
100
AcDbSymbolTableRecord
100
AcDbLinetypeTableRecord
  2
CENTER
 70
     0
  3
Center ____ _ ____ _ ____ _ ____ _ ____ _ ____
 72
    65
 73
     4
 40
10.16
 49
6.35
 74
     0
 49
-1.27
 74
     0
 49
1.27
 74
     0
 49
-1.27
 74
     0
  0
LTYPE
  5
6D
330
5
100
AcDbSymbolTableRecord
100
AcDbLinetypeTableRecord
  2
CENTERX2
 70
     0
  3
Center (2x) ________  __  ________  __  _____
 72
    65
 73
     4
 40
20.32
 49
12.7
 74
     0
 49
-2.54
 74
     0
 49
2.54
 74
     0
 49
-2.54
 74
     0
  0
LTYPE
  5
6E
330
5
100
AcDbSymbolTableRecord
100
AcDbLinetypeTableRecord
  2
DOT2
 70
     0
  3
Dot (.5x) ........................................
 72
    65
 73
     2
 40
0.635
 49
0.0
 74
     0
 49
-0.635
 74
     0
  0
ENDTAB
  0
TABLE
  2
LAYER
  5
2
330
0
100
AcDbSymbolTable
 70
    17
  0
LAYER
  5
10
330
2
100
AcDbSymbolTableRecord
100
AcDbLayerTableRecord
  2
0
 70
     0
 62
     7
  6
Continuous
370
    -3
390
F
  0
LAYER
  5
6F
330
2
100
AcDbSymbolTableRecord
100
AcDbLayerTableRecord
  2
FORMAT
 70
     0
 62
     2
  6
Continuous
370
    -3
390
F
  0
LAYER
  5
70
330
2
100
AcDbSymbolTableRecord
100
AcDbLayerTableRecord
  2
외형선
 70
     0
 62
   100
  6
Continuous
370
    30
390
F
  0
LAYER
  5
71
330
2
100
AcDbSymbolTableRecord
100
AcDbLayerTableRecord
  2
숨은선
 70
     0
 62
     2
  6
HIDDEN
370
    15
390
F
  0
LAYER
  5
72
330
2
100
AcDbSymbolTableRecord
100
AcDbLayerTableRecord
  2
중심선
 70
     0
 62
     1
  6
CENTERX2
370
    -3
390
F
  0
LAYER
  5
73
330
2
100
AcDbSymbolTableRecord
100
AcDbLayerTableRecord
  2
파단선
 70
     0
 62
     4
  6
Continuous
370
    -3
390
F
  0
LAYER
  5
74
330
2
100
AcDbSymbolTableRecord
100
AcDbLayerTableRecord
  2
해칭선
 70
     0
 62
     4
  6
Continuous
370
    -3
390
F
  0
LAYER
  5
75
330
2
100
AcDbSymbolTableRecord
100
AcDbLayerTableRecord
  2
가는실선
 70
     0
 62
     4
  6
Continuous
370
    -3
390
F
  0
LAYER
  5
76
330
2
100
AcDbSymbolTableRecord
100
AcDbLayerTableRecord
  2
치수_보조선
 70
     0
 62
     4
  6
Continuous
370
    -3
390
F
  0
LAYER
  5
77
330
2
100
AcDbSymbolTableRecord
100
AcDbLayerTableRecord
  2
치수문자_일반주서
 70
     0
 62
     7
  6
Continuous
370
    15
390
F
  0
LAYER
  5
78
330
2
100
AcDbSymbolTableRecord
100
AcDbLayerTableRecord
  2
개별주서
 70
     0
 62
   100
  6
Continuous
370
    30
390
F
  0
LAYER
  5
79
330
2
100
AcDbSymbolTableRecord
100
AcDbLayerTableRecord
  2
중간선
 70
     0
 62
     2
  6
Continuous
370
    15
390
F
  0
LAYER
  5
7A
330
2
100
AcDbSymbolTableRecord
100
AcDbLayerTableRecord
  2
윤곽선
 70
     0
 62
     3
  6
Continuous
370
    40
390
F
  0
LAYER
  5
7B
330
2
100
AcDbSymbolTableRecord
100
AcDbLayerTableRecord
  2
중심마크
 70
     0
 62
   100
  6
Continuous
370
    30
390
F
  0
LAYER
  5
7C
330
2
100
AcDbSymbolTableRecord
100
AcDbLayerTableRecord
  2
가상선
 70
     0
 62
     4
  6
PHANTOM
370
    -3
390
F
  0
LAYER
  5
7D
330
2
100
AcDbSymbolTableRecord
100
AcDbLayerTableRecord
  2
특수지정선
 70
     0
 62
     5
  6
CENTERX2
370
    60
390
F
  0
LAYER
  5
15A
330
2
100
AcDbSymbolTableRecord
100
AcDbLayerTableRecord
  2
Defpoints
 70
     0
 62
     7
  6
Continuous
290
     0
370
    -3
390
F
  0
ENDTAB
  0
TABLE
  2
STYLE
  5
3
330
0
100
AcDbSymbolTable
 70
     2
  0
STYLE
  5
11
330
3
100
AcDbSymbolTableRecord
100
AcDbTextStyleTableRecord
  2
Standard
 70
     0
 40
0.0
 41
1.0
 50
0.0
 71
     0
 42
3.5
  3
txt
  4

  0
STYLE
  5
93
330
3
100
AcDbSymbolTableRecord
100
AcDbTextStyleTableRecord
  2
SLDTEXTSTYLE0
 70
     0
 40
0.0
 41
0.75
 50
0.0
 71
     0
 42
3.5
  3
TXT
  4

  0
ENDTAB
  0
TABLE
  2
VIEW
  5
6
330
0
100
AcDbSymbolTable
 70
     0
  0
ENDTAB
  0
TABLE
  2
UCS
  5
7
330
0
100
AcDbSymbolTable
 70
     0
  0
ENDTAB
  0
TABLE
  2
APPID
  5
9
330
0
100
AcDbSymbolTable
 70
     3
  0
APPID
  5
12
330
9
100
AcDbSymbolTableRecord
100
AcDbRegAppTableRecord
  2
ACAD
 70
     0
  0
APPID
  5
16B
330
9
100
AcDbSymbolTableRecord
100
AcDbRegAppTableRecord
  2
ACAD_DSTYLE_DIMRADIAL_EXTENSION
 70
     0
  0
APPID
  5
17A
330
9
100
AcDbSymbolTableRecord
100
AcDbRegAppTableRecord
  2
PE_DIMMEASUREMENT
 70
     0
  0
ENDTAB
  0
TABLE
  2
DIMSTYLE
  5
A
330
0
100
AcDbSymbolTable
 70
     4
100
AcDbDimStyleTable
  0
DIMSTYLE
105
27
330
A
100
AcDbSymbolTableRecord
100
AcDbDimStyleTableRecord
  2
ISO-25
 70
     0
 41
2.5
 42
0.625
 43
3.75
 44
1.25
 73
     0
 74
     0
 77
     1
 78
     8
140
2.5
141
2.5
143
0.03937007874016
147
0.625
171
     3
172
     1
178
     0
271
     2
272
     2
274
     3
278
    44
283
     0
284
     8
340
11
  0
DIMSTYLE
105
D8
102
{ACAD_REACTORS
330
D7
102
}
330
A
100
AcDbSymbolTableRecord
100
AcDbDimStyleTableRecord
  2
SLDDIMSTYLE0
 70
     0
 41
3.302
 44
0.0
 45
0.000000001
 73
     0
 74
     0
 77
     1
 78
    12
 79
     3
140
3.5
143
0.0393700787401575
147
0.875
148
0.000000001
170
     1
172
     1
173
     1
178
     0
271
     2
272
     2
276
     2
284
    12
289
     0
340
93
  0
DIMSTYLE
105
EE
102
{ACAD_REACTORS
330
ED
330
116
330
16C
330
15B
102
}
330
A
100
AcDbSymbolTableRecord
100
AcDbDimStyleTableRecord
  2
SLDDIMSTYLE1
 70
     0
 41
3.302
 44
0.0
 45
0.000000001
 73
     0
 74
     0
 77
     1
 78
    12
 79
     3
140
3.5
143
0.0393700787401575
147
0.875
148
0.000000001
170
     1
173
     1
178
     0
271
     2
272
     2
276
     2
284
    12
340
93
  0
DIMSTYLE
105
102
102
{ACAD_REACTORS
330
101
102
}
330
A
100
AcDbSymbolTableRecord
100
AcDbDimStyleTableRecord
  2
SLDDIMSTYLE2
 70
     0
 41
3.302
 44
0.0
 45
0.000000001
 73
     0
 74
     0
 77
     1
 78
     4
 79
     1
140
3.5
143
0.0393700787401575
147
0.875
148
0.000000001
170
     1
172
     1
173
     1
178
     0
271
     2
272
     2
276
     2
284
    12
289
     0
340
93
  0
ENDTAB
  0
TABLE
  2
BLOCK_RECORD
  5
1
330
0
100
AcDbSymbolTable
 70
     9
  0
BLOCK_RECORD
  5
1F
330
1
100
AcDbSymbolTableRecord
100
AcDbBlockTableRecord
  2
*Model_Space
340
22
  0
BLOCK_RECORD
  5
1B
330
1
100
AcDbSymbolTableRecord
100
AcDbBlockTableRecord
  2
*Paper_Space
340
1E
  0
BLOCK_RECORD
  5
23
330
1
100
AcDbSymbolTableRecord
100
AcDbBlockTableRecord
  2
*Paper_Space0
340
26
  0
BLOCK_RECORD
  5
7E
330
1
100
AcDbSymbolTableRecord
100
AcDbBlockTableRecord
  2
블럭10
340
0
102
{BLKREFS
331
CE
102
}
  0
BLOCK_RECORD
  5
D9
330
1
100
AcDbSymbolTableRecord
100
AcDbBlockTableRecord
  2
_D
340
0
  0
BLOCK_RECORD
  5
EF
330
1
100
AcDbSymbolTableRecord
100
AcDbBlockTableRecord
  2
_D_1
340
0
  0
BLOCK_RECORD
  5
103
330
1
100
AcDbSymbolTableRecord
100
AcDbBlockTableRecord
  2
_D_2
340
0
  0
BLOCK_RECORD
  5
117
330
1
100
AcDbSymbolTableRecord
100
AcDbBlockTableRecord
  2
_D_3
340
0
  0
BLOCK_RECORD
  5
129
330
1
100
AcDbSymbolTableRecord
100
AcDbBlockTableRecord
  2
SW_DOWELSYMBOL_0
340
0
102
{BLKREFS
331
12F
102
}
  0
BLOCK_RECORD
  5
15E
330
1
100
AcDbSymbolTableRecord
100
AcDbBlockTableRecord
  2
*D7
340
0
  0
BLOCK_RECORD
  5
16F
330
1
100
AcDbSymbolTableRecord
100
AcDbBlockTableRecord
  2
*D8
340
0
  0
ENDTAB
  0
ENDSEC
  0
SECTION
  2
BLOCKS
  0
BLOCK
  5
20
330
1F
100
AcDbEntity
  8
0
100
AcDbBlockBegin
  2
*Model_Space
 70
     0
 10
0.0
 20
0.0
 30
0.0
  3
*Model_Space
  1
*Model_Space
  0
ENDBLK
  5
21
330
1F
100
AcDbEntity
  8
0
100
AcDbBlockEnd
  0
BLOCK
  5
1C
330
1B
100
AcDbEntity
 67
     1
  8
0
100
AcDbBlockBegin
  2
*Paper_Space
 70
     0
 10
0.0
 20
0.0
 30
0.0
  3
*Paper_Space
  1
*Paper_Space
  0
ENDBLK
  5
1D
330
1B
100
AcDbEntity
 67
     1
  8
0
100
AcDbBlockEnd
  0
BLOCK
  5
24
330
23
100
AcDbEntity
  8
0
100
AcDbBlockBegin
  2
*Paper_Space0
 70
     0
 10
0.0
 20
0.0
 30
0.0
  3
*Paper_Space0
  1
*Paper_Space0
  0
ENDBLK
  5
25
330
23
100
AcDbEntity
  8
0
100
AcDbBlockEnd
  0
BLOCK
  5
7F
330
7E
100
AcDbEntity
  8
0
100
AcDbBlockBegin
  2
블럭10
 70
     2
 10
0.0
 20
0.0
 30
0.0
  3
블럭10
  1
블럭10
  0
ELLIPSE
  5
81
330
7E
100
AcDbEntity
  8
중심선
100
AcDbEllipse
 10
20.54032771741204
 20
12.0471743016438
 30
0.0
 11
6.600054785286829
 21
-1.261213355974178E-13
 31
0.0
210
0.0
220
0.0
230
1.0
 40
0.636358354079598
 41
0.9219305317359503
 42
6.513795318482858
  0
ELLIPSE
  5
82
330
7E
100
AcDbEntity
  8
중심선
100
AcDbEllipse
 10
20.54032771746488
 20
12.04717430159265
 30
0.0
 11
3.960054785062283
 21
1.540847449632565E-10
 31
0.0
210
0.0
220
0.0
230
1.0
 40
0.3939339440162632
 41
1.131841032648279
 42
5.62031148352944
  0
LINE
  5
83
330
7E
100
AcDbEntity
  8
중심선
100
AcDbLine
 10
2.268634060543552
 20
16.24717430164393
 30
0.0
 11
5.714909304380834
 21
16.24717430164393
 31
0.0
  0
LINE
  5
84
330
7E
100
AcDbEntity
  8
중심선
100
AcDbLine
 10
5.245725140726316
 20
7.84717430164391
 30
0.0
 11
8.692000384563599
 21
7.84717430164391
 31
0.0
  0
LINE
  5
85
330
7E
100
AcDbEntity
  8
중심선
100
AcDbLine
 10
15.74043728645272
 20
16.24717430164393
 30
0.0
 11
8.692000384563599
 21
7.84717430164391
 31
0.0
  0
LINE
  5
86
330
7E
100
AcDbEntity
  8
중심선
100
AcDbLine
 10
0.1404042013395286
 20
13.71084872107135
 30
0.0
 11
3.58671253028996
 21
13.71088815037384
 31
0.0
  0
LINE
  5
87
330
7E
100
AcDbEntity
  8
중심선
100
AcDbLine
 10
2.750260043222114
 20
10.84717430164391
 30
0.0
 11
6.196535287059397
 21
10.84717430164391
 31
0.0
  0
LINE
  5
88
330
7E
100
AcDbEntity
  8
중심선
100
AcDbLine
 10
12.29416204261559
 20
16.24717430164393
 30
0.0
 11
5.245725140726316
 21
7.84717430164391
 31
0.0
  0
LINE
  5
89
330
7E
100
AcDbEntity
  8
중심선
100
AcDbLine
 10
10.72767329541681
 20
16.24717430164393
 30
0.0
 11
6.196535287059397
 21
10.84717430164391
 31
0.0
  0
LINE
  5
8A
330
7E
100
AcDbEntity
  8
중심선
100
AcDbLine
 10
7.28139805157953
 20
16.24717430164393
 30
0.0
 11
2.750260043222114
 21
10.84717430164391
 31
0.0
  0
LINE
  5
8B
330
7E
100
AcDbEntity
  8
중심선
100
AcDbLine
 10
5.714909304380834
 20
16.24717430164393
 30
0.0
 11
3.58671253028996
 21
13.71088815037384
 31
0.0
  0
LINE
  5
8C
330
7E
100
AcDbEntity
  8
중심선
100
AcDbLine
 10
2.268634060543552
 20
16.24717430164393
 30
0.0
 11
0.1404042013395286
 21
13.71084872107135
 31
0.0
  0
LINE
  5
8D
330
7E
100
AcDbEntity
  8
중심선
100
AcDbLine
 10
7.28139805157953
 20
16.24717430164393
 30
0.0
 11
10.72767329541681
 21
16.24717430164393
 31
0.0
  0
LINE
  5
8E
330
7E
100
AcDbEntity
  8
중심선
100
AcDbLine
 10
12.29416204261559
 20
16.24717430164393
 30
0.0
 11
15.74043728645272
 21
16.24717430164393
 31
0.0
  0
LINE
  5
8F
330
7E
100
AcDbEntity
  8
중심선
100
AcDbLine
 10
19.22036997980202
 20
11.08717430171403
 30
0.0
 11
23.66174974927406
 21
11.08717430171406
 31
0.0
  0
LINE
  5
90
330
7E
100
AcDbEntity
  8
중심선
100
AcDbLine
 10
19.22039502424796
 20
13.00717430171391
 30
0.0
 11
19.22036997980202
 21
11.08717430171403
 31
0.0
  0
LINE
  5
91
330
7E
100
AcDbEntity
  8
중심선
100
AcDbLine
 10
19.22039502424796
 20
13.00717430171391
 30
0.0
 11
26.96566020931264
 21
13.00717430171391
 31
0.0
  0
LINE
  5
92
330
7E
100
AcDbEntity
  8
중심선
100
AcDbLine
 10
22.22332737316547
 20
13.45928029700563
 30
0.0
 11
24.52862924686651
 21
15.39360700705356
 31
0.0
  0
ATTDEF
  5
94
330
7E
100
AcDbEntity
  8
FORMAT
 62
     2
100
AcDbText
 10
-9.18129528874128
 20
2.075366912832191
 30
0.0
 40
4.233333333333333
  1
E5985064 [ 3 FLUTE ]
 41
0.75
  7
SLDTEXTSTYLE0
 11
-9.18129528874128
 21
-0.0412997538344756
 31
0.0
100
AcDbAttributeDefinition
  3

  2
AUTOATTR0
 70
     0
 74
     1
  0
ENDBLK
  5
80
330
7E
100
AcDbEntity
  8
0
100
AcDbBlockEnd
  0
BLOCK
  5
DA
330
D9
100
AcDbEntity
  8
0
100
AcDbBlockBegin
  2
_D
 70
     0
 10
0.0
 20
0.0
 30
0.0
  3
_D
  1
_D
  0
LINE
  5
DC
330
D9
100
AcDbEntity
  8
치수문자_일반주서
 62
     0
370
    -2
100
AcDbLine
 10
57.65800005655063
 20
12.7625
 30
0.0
 11
57.65800005655063
 21
34.8986683898844
 31
0.0
  0
LINE
  5
DD
330
D9
100
AcDbEntity
  8
치수문자_일반주서
 62
     0
370
    -2
100
AcDbLine
 10
29.08300005655064
 20
12.25450000000001
 30
0.0
 11
29.08300005655064
 21
34.8986683898844
 31
0.0
  0
LINE
  5
DE
330
D9
100
AcDbEntity
  8
치수문자_일반주서
 62
     0
370
    -2
100
AcDbLine
 10
54.35600005655063
 20
34.8986683898844
 30
0.0
 11
32.38500005655064
 21
34.8986683898844
 31
0.0
  0
SOLID
  5
DF
330
D9
100
AcDbEntity
  8
치수문자_일반주서
 62
     0
100
AcDbTrace
 10
54.35600005655063
 20
34.34833505655106
 30
0.0
 11
54.35600005655063
 21
35.44900172321773
 31
0.0
 12
57.65800005655063
 22
34.8986683898844
 32
0.0
 13
57.65800005655063
 23
34.8986683898844
 33
0.0
  0
SOLID
  5
E0
330
D9
100
AcDbEntity
  8
치수문자_일반주서
 62
     0
100
AcDbTrace
 10
32.38500005655064
 20
35.44900172321773
 30
0.0
 11
32.38500005655064
 21
34.34833505655106
 31
0.0
 12
29.08300005655064
 22
34.8986683898844
 32
0.0
 13
29.08300005655064
 23
34.8986683898844
 33
0.0
  0
MTEXT
  5
E1
330
D9
100
AcDbEntity
  8
치수문자_일반주서
 62
     0
100
AcDbMText
 10
43.37050005655063
 20
39.2736683898844
 30
0.0
 40
3.5
 41
0.0
 71
     2
 72
     1
  1
\A1;28.58 [1 1/8]
  7
SLDTEXTSTYLE0
 73
     1
 44
1.0
  0
POINT
  5
E2
330
D9
100
AcDbEntity
  8
Defpoints
 62
     0
100
AcDbPoint
 10
57.65800005655063
 20
12.7
 30
0.0
  0
POINT
  5
E3
330
D9
100
AcDbEntity
  8
Defpoints
 62
     0
100
AcDbPoint
 10
29.08300005655064
 20
12.19200000000001
 30
0.0
  0
POINT
  5
E4
330
D9
100
AcDbEntity
  8
Defpoints
 62
     0
100
AcDbPoint
 10
29.08300005655064
 20
34.8986683898844
 30
0.0
  0
ENDBLK
  5
DB
330
D9
100
AcDbEntity
  8
0
100
AcDbBlockEnd
  0
BLOCK
  5
F0
330
EF
100
AcDbEntity
  8
0
100
AcDbBlockBegin
  2
_D_1
 70
     0
 10
0.0
 20
0.0
 30
0.0
  3
_D_1
  1
_D_1
  0
LINE
  5
F2
330
EF
100
AcDbEntity
  8
치수문자_일반주서
 62
     0
370
    -2
100
AcDbLine
 10
57.65800005655063
 20
12.7625
 30
0.0
 11
57.65800005655061
 21
74.53475965011003
 31
0.0
  0
LINE
  5
F3
330
EF
100
AcDbEntity
  8
치수문자_일반주서
 62
     0
370
    -2
100
AcDbLine
 10
-69.34199994344938
 20
12.2625
 30
0.0
 11
-69.34199994344938
 21
74.53475965011003
 31
0.0
  0
LINE
  5
F4
330
EF
100
AcDbEntity
  8
치수문자_일반주서
 62
     0
370
    -2
100
AcDbLine
 10
54.35600005655061
 20
74.53475965011003
 30
0.0
 11
-66.03999994344937
 21
74.53475965011003
 31
0.0
  0
SOLID
  5
F5
330
EF
100
AcDbEntity
  8
치수문자_일반주서
 62
     0
100
AcDbTrace
 10
54.35600005655061
 20
73.9844263167767
 30
0.0
 11
54.35600005655061
 21
75.08509298344336
 31
0.0
 12
57.65800005655061
 22
74.53475965011003
 32
0.0
 13
57.65800005655061
 23
74.53475965011003
 33
0.0
  0
SOLID
  5
F6
330
EF
100
AcDbEntity
  8
치수문자_일반주서
 62
     0
100
AcDbTrace
 10
-66.03999994344937
 20
75.08509298344336
 30
0.0
 11
-66.03999994344937
 21
73.9844263167767
 31
0.0
 12
-69.34199994344938
 22
74.53475965011003
 32
0.0
 13
-69.34199994344938
 23
74.53475965011003
 33
0.0
  0
MTEXT
  5
F7
330
EF
100
AcDbEntity
  8
치수문자_일반주서
 62
     0
100
AcDbMText
 10
-6.349154505905792
 20
78.90975965011003
 30
0.0
 40
3.5
 41
0.0
 71
     2
 72
     1
  1
\A1;127 [5]
  7
SLDTEXTSTYLE0
 73
     1
 44
1.0
  0
POINT
  5
F8
330
EF
100
AcDbEntity
  8
Defpoints
 62
     0
100
AcDbPoint
 10
57.65800005655063
 20
12.7
 30
0.0
  0
POINT
  5
F9
330
EF
100
AcDbEntity
  8
Defpoints
 62
     0
100
AcDbPoint
 10
-69.34199994344938
 20
12.2
 30
0.0
  0
POINT
  5
FA
330
EF
100
AcDbEntity
  8
Defpoints
 62
     0
100
AcDbPoint
 10
-69.34199994344938
 20
74.53475965011003
 30
0.0
  0
ENDBLK
  5
F1
330
EF
100
AcDbEntity
  8
0
100
AcDbBlockEnd
  0
BLOCK
  5
104
330
103
100
AcDbEntity
  8
0
100
AcDbBlockBegin
  2
_D_2
 70
     0
 10
0.0
 20
0.0
 30
0.0
  3
_D_2
  1
_D_2
  0
LINE
  5
106
330
103
100
AcDbEntity
  8
치수문자_일반주서
 62
     0
370
    -2
100
AcDbLine
 10
-68.90449994344938
 20
12.7
 30
0.0
 11
-89.090004290956
 21
12.69999999999993
 31
0.0
  0
LINE
  5
107
330
103
100
AcDbEntity
  8
치수문자_일반주서
 62
     0
370
    -2
100
AcDbLine
 10
-68.90449994344938
 20
-12.69999999999999
 30
0.0
 11
-89.09000429095592
 21
-12.70000000000007
 31
0.0
  0
LINE
  5
108
330
103
100
AcDbEntity
  8
치수문자_일반주서
 62
     0
370
    -2
100
AcDbLine
 10
-89.09000429095599
 20
9.397999999999929
 30
0.0
 11
-89.09000429095593
 21
-9.398000000000065
 31
0.0
  0
SOLID
  5
109
330
103
100
AcDbEntity
  8
치수문자_일반주서
 62
     0
100
AcDbTrace
 10
-88.53967095762266
 20
9.39799999999993
 30
0.0
 11
-89.64033762428932
 21
9.397999999999927
 31
0.0
 12
-89.090004290956
 22
12.69999999999993
 32
0.0
 13
-89.090004290956
 23
12.69999999999993
 33
0.0
  0
SOLID
  5
10A
330
103
100
AcDbEntity
  8
치수문자_일반주서
 62
     0
100
AcDbTrace
 10
-89.64033762428926
 20
-9.398000000000067
 30
0.0
 11
-88.5396709576226
 21
-9.398000000000064
 31
0.0
 12
-89.09000429095592
 22
-12.70000000000007
 32
0.0
 13
-89.09000429095592
 23
-12.70000000000007
 33
0.0
  0
MTEXT
  5
10B
330
103
100
AcDbEntity
  8
치수문자_일반주서
 62
     0
100
AcDbMText
 10
-93.46500429095596
 20
-0.000000000000082
 30
0.0
 40
3.5
 41
0.0
 71
     2
 72
     1
  1
\A1;%%c25.40 [1]
  7
SLDTEXTSTYLE0
 11
-3.356894814614647E-15
 21
1.0
 31
0.0
 73
     1
 44
1.0
  0
POINT
  5
10C
330
103
100
AcDbEntity
  8
Defpoints
 62
     0
100
AcDbPoint
 10
-68.84199994344938
 20
12.7
 30
0.0
  0
POINT
  5
10D
330
103
100
AcDbEntity
  8
Defpoints
 62
     0
100
AcDbPoint
 10
-68.84199994344938
 20
-12.69999999999999
 30
0.0
  0
POINT
  5
10E
330
103
100
AcDbEntity
  8
Defpoints
 62
     0
100
AcDbPoint
 10
-89.09000429095592
 20
-12.70000000000007
 30
0.0
  0
ENDBLK
  5
105
330
103
100
AcDbEntity
  8
0
100
AcDbBlockEnd
  0
BLOCK
  5
118
330
117
100
AcDbEntity
  8
0
100
AcDbBlockBegin
  2
_D_3
 70
     0
 10
0.0
 20
0.0
 30
0.0
  3
_D_3
  1
_D_3
  0
LINE
  5
11A
330
117
100
AcDbEntity
  8
치수문자_일반주서
 62
     0
370
    -2
100
AcDbLine
 10
0.5080000000000016
 20
12.25450000000001
 30
0.0
 11
0.5080000000000027
 21
58.67259778227562
 31
0.0
  0
LINE
  5
11B
330
117
100
AcDbEntity
  8
치수문자_일반주서
 62
     0
370
    -2
100
AcDbLine
 10
57.65800005655063
 20
12.7625
 30
0.0
 11
57.65800005655063
 21
58.67259778227562
 31
0.0
  0
LINE
  5
11C
330
117
100
AcDbEntity
  8
치수문자_일반주서
 62
     0
370
    -2
100
AcDbLine
 10
3.810000000000002
 20
58.67259778227562
 30
0.0
 11
54.35600005655063
 21
58.67259778227562
 31
0.0
  0
SOLID
  5
11D
330
117
100
AcDbEntity
  8
치수문자_일반주서
 62
     0
100
AcDbTrace
 10
3.810000000000002
 20
59.22293111560896
 30
0.0
 11
3.810000000000002
 21
58.12226444894229
 31
0.0
 12
0.5080000000000027
 22
58.67259778227562
 32
0.0
 13
0.5080000000000027
 23
58.67259778227562
 33
0.0
  0
SOLID
  5
11E
330
117
100
AcDbEntity
  8
치수문자_일반주서
 62
     0
100
AcDbTrace
 10
54.35600005655063
 20
58.12226444894229
 30
0.0
 11
54.35600005655063
 21
59.22293111560896
 31
0.0
 12
57.65800005655063
 22
58.67259778227562
 32
0.0
 13
57.65800005655063
 23
58.67259778227562
 33
0.0
  0
MTEXT
  5
11F
330
117
100
AcDbEntity
  8
치수문자_일반주서
 62
     0
100
AcDbMText
 10
36.82411659573361
 20
63.04759778227562
 30
0.0
 40
3.5
 41
0.0
 71
     2
 72
     1
  1
\A1;57.15 [2 1/4]
  7
SLDTEXTSTYLE0
 73
     1
 44
1.0
  0
POINT
  5
120
330
117
100
AcDbEntity
  8
Defpoints
 62
     0
100
AcDbPoint
 10
0.5080000000000016
 20
12.19200000000001
 30
0.0
  0
POINT
  5
121
330
117
100
AcDbEntity
  8
Defpoints
 62
     0
100
AcDbPoint
 10
57.65800005655063
 20
12.7
 30
0.0
  0
POINT
  5
122
330
117
100
AcDbEntity
  8
Defpoints
 62
     0
100
AcDbPoint
 10
57.65800005655063
 20
58.67259778227562
 30
0.0
  0
ENDBLK
  5
119
330
117
100
AcDbEntity
  8
0
100
AcDbBlockEnd
  0
BLOCK
  5
12A
330
129
100
AcDbEntity
  8
0
100
AcDbBlockBegin
  2
SW_DOWELSYMBOL_0
 70
     0
 10
0.0
 20
0.0
 30
0.0
  3
SW_DOWELSYMBOL_0
  1
SW_DOWELSYMBOL_0
  0
CIRCLE
  5
12C
330
129
100
AcDbEntity
  8
외형선
 62
     0
100
AcDbCircle
 10
0.0
 20
0.0
 30
0.0
 40
3.000000000000008
  0
HATCH
  5
12D
330
129
100
AcDbEntity
  8
0
  6
Continuous
 62
     0
370
    30
100
AcDbHatch
 10
0.0
 20
0.0
 30
0.0
210
0.0
220
0.0
230
1.0
  2
SOLID
 70
     1
 71
     0
 91
        1
 92
        0
 93
        3
 72
     2
 10
0.0
 20
0.0
 40
3.000000000000008
 50
0.0
 51
90.0
 73
     1
 72
     1
 10
0.0
 20
3.000000000000008
 11
0.0
 21
0.0
 72
     1
 10
0.0
 20
0.0
 11
3.00000000000001
 21
0.0
 97
        0
 75
     0
 76
     1
 98
        1
 10
0.0
 20
0.0
  0
HATCH
  5
12E
330
129
100
AcDbEntity
  8
0
  6
Continuous
 62
     0
370
    30
100
AcDbHatch
 10
0.0
 20
0.0
 30
0.0
210
0.0
220
0.0
230
1.0
  2
SOLID
 70
     1
 71
     0
 91
        1
 92
        0
 93
        3
 72
     2
 10
0.0
 20
0.0
 40
3.000000000000008
 50
180.0
 51
270.0000000000008
 73
     1
 72
     1
 10
0.0
 20
-3.000000000000008
 11
0.0
 21
0.0
 72
     1
 10
0.0
 20
0.0
 11
-3.00000000000001
 21
0.0
 97
        0
 75
     0
 76
     1
 98
        1
 10
0.0
 20
0.0
  0
ENDBLK
  5
12B
330
129
100
AcDbEntity
  8
0
100
AcDbBlockEnd
  0
BLOCK
  5
15F
330
15E
100
AcDbEntity
  8
0
100
AcDbBlockBegin
  2
*D7
 70
     1
 10
0.0
 20
0.0
 30
0.0
  3
*D7
  1
*D7
  0
LINE
  5
161
330
15E
100
AcDbEntity
  8
치수문자_일반주서
 62
     0
370
    -2
100
AcDbLine
 10
57.72050005655063
 20
-12.70000000000001
 30
0.0
 11
75.32099183130711
 21
-12.70000000000001
 31
0.0
  0
LINE
  5
162
330
15E
100
AcDbEntity
  8
치수문자_일반주서
 62
     0
370
    -2
100
AcDbLine
 10
57.72050005655063
 20
12.7
 30
0.0
 11
75.32099183130711
 21
12.7
 31
0.0
  0
LINE
  5
163
330
15E
100
AcDbEntity
  8
치수문자_일반주서
 62
     0
370
    -2
100
AcDbLine
 10
75.32099183130711
 20
-9.39800000000001
 30
0.0
 11
75.32099183130711
 21
9.398000000000003
 31
0.0
  0
SOLID
  5
164
330
15E
100
AcDbEntity
  8
치수문자_일반주서
 62
     0
100
AcDbTrace
 10
74.77065849797378
 20
-9.39800000000001
 30
0.0
 11
75.87132516464044
 21
-9.39800000000001
 31
0.0
 12
75.32099183130711
 22
-12.70000000000001
 32
0.0
 13
75.32099183130711
 23
-12.70000000000001
 33
0.0
  0
SOLID
  5
165
330
15E
100
AcDbEntity
  8
치수문자_일반주서
 62
     0
100
AcDbTrace
 10
75.87132516464044
 20
9.398000000000003
 30
0.0
 11
74.77065849797378
 21
9.398000000000003
 31
0.0
 12
75.32099183130711
 22
12.7
 32
0.0
 13
75.32099183130711
 23
12.7
 33
0.0
  0
MTEXT
  5
166
330
15E
100
AcDbEntity
  8
치수문자_일반주서
 62
     0
100
AcDbMText
 10
72.69599183130711
 20
-0.0000000000000018
 30
0.0
 40
3.5
 41
0.0
 71
     5
 72
     1
  1
\A1;{Ø25.4 [1]}
  7
SLDTEXTSTYLE0
 11
0.0
 21
1.0
 31
0.0
 73
     1
 44
1.0
  0
POINT
  5
167
330
15E
100
AcDbEntity
  8
Defpoints
 62
     0
100
AcDbPoint
 10
57.65800005655063
 20
-12.70000000000001
 30
0.0
  0
POINT
  5
168
330
15E
100
AcDbEntity
  8
Defpoints
 62
     0
100
AcDbPoint
 10
57.65800005655063
 20
12.7
 30
0.0
  0
POINT
  5
169
330
15E
100
AcDbEntity
  8
Defpoints
 62
     0
100
AcDbPoint
 10
75.32099183130711
 20
12.7
 30
0.0
  0
ENDBLK
  5
160
330
15E
100
AcDbEntity
  8
0
100
AcDbBlockEnd
  0
BLOCK
  5
170
330
16F
100
AcDbEntity
  8
0
100
AcDbBlockBegin
  2
*D8
 70
     1
 10
0.0
 20
0.0
 30
0.0
  3
*D8
  1
*D8
  0
LINE
  5
172
330
16F
100
AcDbEntity
  8
치수문자_일반주서
 62
     0
370
    -2
100
AcDbLine
 10
59.29434631832668
 20
-14.82325753212989
 30
0.0
 11
79.79272151229974
 21
-38.47979612946298
 31
0.0
  0
MTEXT
  5
173
330
16F
100
AcDbEntity
  8
치수문자_일반주서
 62
     0
100
AcDbMText
 10
72.6085531237743
 20
-26.18026973348692
 30
0.0
 40
3.5
 41
0.0
 71
     5
 72
     1
  1
\A1;R1.52 [R0.06]
  7
SLDTEXTSTYLE0
 11
0.6548583219593972
 21
-0.7557516643451886
 31
0.0
 73
     1
 44
1.0
  0
SOLID
  5
174
330
16F
100
AcDbEntity
  8
치수문자_일반주서
 62
     0
100
AcDbTrace
 10
59.71026165093798
 20
-14.4628671689449
 30
0.0
 11
58.87843098571538
 21
-15.18364789531488
 31
0.0
 12
57.13200413921675
 22
-12.32776553646208
 32
0.0
 13
57.13200413921675
 23
-12.32776553646208
 33
0.0
  0
LINE
  5
175
330
16F
100
AcDbEntity
  8
치수문자_일반주서
 62
     0
100
AcDbLine
 10
56.04400005655063
 20
-11.17600000000001
 30
0.0
 11
56.22400005655064
 21
-11.17600000000001
 31
0.0
  0
LINE
  5
176
330
16F
100
AcDbEntity
  8
치수문자_일반주서
 62
     0
100
AcDbLine
 10
56.13400005655063
 20
-11.26600000000001
 30
0.0
 11
56.13400005655063
 21
-11.08600000000001
 31
0.0
  0
POINT
  5
177
330
16F
100
AcDbEntity
  8
Defpoints
 62
     0
100
AcDbPoint
 10
57.13200413921675
 20
-12.32776553646208
 30
0.0
  0
POINT
  5
178
330
16F
100
AcDbEntity
  8
Defpoints
 62
     0
100
AcDbPoint
 10
56.13400005655063
 20
-11.17600000000001
 30
0.0
  0
ENDBLK
  5
171
330
16F
100
AcDbEntity
  8
0
100
AcDbBlockEnd
  0
ENDSEC
  0
SECTION
  2
ENTITIES
  0
LINE
  5
95
330
1F
100
AcDbEntity
  8
0
  6
Continuous
 62
     4
370
    15
100
AcDbLine
 10
0.0
 20
-12.69999999999999
 30
0.0
 11
0.5080000000000016
 21
-12.19199999999999
 31
0.0
  0
LINE
  5
96
330
1F
100
AcDbEntity
  8
0
  6
Continuous
 62
     4
370
    15
100
AcDbLine
 10
0.5080000000000016
 20
12.19200000000001
 30
0.0
 11
0.0
 21
12.70000000000001
 31
0.0
  0
LINE
  5
97
330
1F
100
AcDbEntity
  8
0
  6
Continuous
 62
     4
370
    15
100
AcDbLine
 10
0.0
 20
12.7
 30
0.0
 11
-68.84199994344938
 21
12.7
 31
0.0
  0
LINE
  5
98
330
1F
100
AcDbEntity
  8
0
  6
Continuous
 62
     4
370
    15
100
AcDbLine
 10
-68.84199994344938
 20
-12.69999999999999
 30
0.0
 11
0.0
 21
-12.69999999999999
 31
0.0
  0
LINE
  5
99
330
1F
100
AcDbEntity
  8
0
  6
Continuous
 62
     4
370
    15
100
AcDbLine
 10
-68.84199994344938
 20
12.7
 30
0.0
 11
-69.34199994344938
 21
12.2
 31
0.0
  0
LINE
  5
9A
330
1F
100
AcDbEntity
  8
0
  6
Continuous
 62
     4
370
    15
100
AcDbLine
 10
-69.34199994344938
 20
-12.19999999999999
 30
0.0
 11
-68.84199994344938
 21
-12.69999999999999
 31
0.0
  0
LINE
  5
9B
330
1F
100
AcDbEntity
  8
0
  6
Continuous
 62
     4
370
    15
100
AcDbLine
 10
29.08300005655064
 20
12.19200000000001
 30
0.0
 11
0.5080000000000016
 21
12.19200000000001
 31
0.0
  0
LINE
  5
9C
330
1F
100
AcDbEntity
  8
0
  6
Continuous
 62
     4
370
    15
100
AcDbLine
 10
0.5080000000000016
 20
-12.19199999999999
 30
0.0
 11
26.03331271516677
 21
-12.19199999999999
 31
0.0
  0
LINE
  5
9D
330
1F
100
AcDbEntity
  8
0
  6
Continuous
 62
     1
370
    15
100
AcDbLine
 10
38.95278865055462
 20
-12.69999999999999
 30
0.0
 11
40.85254612271148
 21
-12.69999999999999
 31
0.0
  0
LINE
  5
A0
330
1F
100
AcDbEntity
  8
0
  6
Continuous
 62
     4
370
    15
100
AcDbLine
 10
0.5080000000000016
 20
12.19200000000001
 30
0.0
 11
0.5080000000000016
 21
-12.192
 31
0.0
  0
LINE
  5
A1
330
1F
100
AcDbEntity
  8
0
  6
Continuous
 62
     4
370
    15
100
AcDbLine
 10
0.0
 20
12.70000000000001
 30
0.0
 11
0.0
 21
-12.70000000000001
 31
0.0
  0
LINE
  5
A2
330
1F
100
AcDbEntity
  8
0
  6
Continuous
 62
     4
370
    15
100
AcDbLine
 10
-68.84199994344938
 20
12.7
 30
0.0
 11
-68.84199994344938
 21
-12.7
 31
0.0
  0
LINE
  5
A3
330
1F
100
AcDbEntity
  8
0
  6
Continuous
 62
     4
370
    15
100
AcDbLine
 10
-69.34199994344938
 20
12.2
 30
0.0
 11
-69.34199994344938
 21
-12.2
 31
0.0
  0
SPLINE
  5
A4
330
1F
100
AcDbEntity
  8
0
  6
Continuous
 62
     4
370
    15
100
AcDbSpline
210
0.0
220
0.0
230
1.0
 70
    24
 71
     3
 72
    18
 73
    14
 74
     0
 42
0.000000001
 43
0.00000001
 40
0.0
 40
0.0
 40
0.0
 40
0.0
 40
0.2500000000000002
 40
0.2500000000000002
 40
0.3750000000000001
 40
0.3750000000000001
 40
0.5
 40
0.5
 40
0.6250000000000001
 40
0.6250000000000001
 40
0.7500000000000001
 40
0.7500000000000001
 40
1.0
 40
1.0
 40
1.0
 40
1.0
 10
29.08300005655063
 20
10.11943261803705
 30
0.0
 10
29.08300005655063
 20
9.356225737549986
 30
0.0
 10
29.08300005655063
 20
8.564741682418623
 30
0.0
 10
29.08300005655063
 20
7.332555501131083
 30
0.0
 10
29.08300005655064
 20
6.914259202070387
 30
0.0
 10
29.08300005655064
 20
6.06090330140198
 30
0.0
 10
29.08300005655063
 20
5.633713117781556
 30
0.0
 10
29.08300005655063
 20
4.782711593554729
 30
0.0
 10
29.08300005655063
 20
4.358188431059475
 30
0.0
 10
29.08300005655063
 20
3.511232523042381
 30
0.0
 10
29.08300005655064
 20
3.086160769280429
 30
0.0
 10
29.08300005655063
 20
1.854920456952155
 30
0.0
 10
29.08300005655063
 20
1.081035766587598
 30
0.0
 10
29.08300005655063
 20
0.3536671967199455
 30
0.0
  0
SPLINE
  5
A5
330
1F
100
AcDbEntity
  8
0
  6
Continuous
 62
     4
370
    15
100
AcDbSpline
210
0.0
220
0.0
230
1.0
 70
     8
 71
     3
 72
    16
 73
    12
 74
     0
 42
0.000000001
 43
0.00000001
 40
0.0
 40
0.0
 40
0.0
 40
0.0
 40
0.2500000000000003
 40
0.2500000000000003
 40
0.3750000000000005
 40
0.3750000000000005
 40
0.5000000000000004
 40
0.5000000000000004
 40
0.7500000000000003
 40
0.7500000000000003
 40
1.0
 40
1.0
 40
1.0
 40
1.0
 10
27.63354462453675
 20
-2.947245285866182
 30
0.0
 10
27.37129949868268
 20
-2.763360791476503
 30
0.0
 10
27.1390026036295
 20
-2.549956372307141
 30
0.0
 10
26.83380387948255
 20
-2.185739821878768
 30
0.0
 10
26.73879345901767
 20
-2.055883293068232
 30
0.0
 10
26.56800382053553
 20
-1.78721568832981
 30
0.0
 10
26.49184767408363
 20
-1.648214373490828
 30
0.0
 10
26.28975358681374
 20
-1.217679594532145
 30
0.0
 10
26.18961775708545
 20
-0.9085238511141255
 30
0.0
 10
26.0621494148956
 20
-0.2821683848247384
 30
0.0
 10
26.03331271516677
 20
0.0361647439755963
 30
0.0
 10
26.03331271516678
 20
0.3588358017954802
 30
0.0
  0
SPLINE
  5
A6
330
1F
100
AcDbEntity
  8
0
  6
Continuous
 62
     4
370
    15
100
AcDbSpline
210
0.0
220
0.0
230
1.0
 70
     8
 71
     3
 72
    16
 73
    12
 74
     0
 42
0.000000001
 43
0.00000001
 40
0.0
 40
0.0
 40
0.0
 40
0.0
 40
0.2500000000000005
 40
0.2500000000000005
 40
0.500000000000001
 40
0.500000000000001
 40
0.6250000000000007
 40
0.6250000000000007
 40
0.7500000000000003
 40
0.7500000000000003
 40
1.0
 40
1.0
 40
1.0
 40
1.0
 10
26.03331271516677
 20
7.411047489601194
 30
0.0
 10
26.03331271516678
 20
7.774034163846309
 30
0.0
 10
26.09075207006689
 20
8.1135031960461
 30
0.0
 10
26.35672446669369
 20
8.745594290479147
 30
0.0
 10
26.55818352683556
 20
9.021145881551211
 30
0.0
 10
26.96899818058494
 20
9.377176004824499
 30
0.0
 10
27.12252599807724
 20
9.484428242007663
 30
0.0
 10
27.45458501278451
 20
9.673855719995936
 30
0.0
 10
27.63415740824728
 20
9.756963623224333
 30
0.0
 10
28.21522601026549
 20
9.97399965756681
 30
0.0
 10
28.63406480200956
 20
10.06811799760223
 30
0.0
 10
29.08300005654844
 20
10.11943261803901
 30
0.0
  0
LINE
  5
A7
330
1F
100
AcDbEntity
  8
0
  6
Continuous
 62
     4
370
    15
100
AcDbLine
 10
29.08300005655064
 20
12.19200000000001
 30
0.0
 11
29.08300005655064
 21
11.93512806994033
 31
0.0
  0
LINE
  5
A8
330
1F
100
AcDbEntity
  8
0
  6
Continuous
 62
     4
370
    15
100
AcDbLine
 10
29.08300005655064
 20
11.3713231518529
 30
0.0
 11
29.08300005655064
 21
10.11943261803705
 31
0.0
  0
SPLINE
  5
A9
330
1F
100
AcDbEntity
  8
0
  6
Continuous
 62
     4
370
    15
100
AcDbSpline
210
0.0
220
0.0
230
1.0
 70
     8
 71
     3
 72
     8
 73
     4
 74
     0
 42
0.000000001
 43
0.00000001
 40
0.0
 40
0.0
 40
0.0
 40
0.0
 40
1.0
 40
1.0
 40
1.0
 40
1.0
 10
29.08300005655052
 20
-3.951592348528065
 30
0.0
 10
28.60082573279974
 20
-3.621485486850839
 30
0.0
 10
28.11678269771828
 20
-3.286088528299899
 30
0.0
 10
27.63354462453675
 20
-2.947245285866182
 30
0.0
  0
LINE
  5
AA
330
1F
100
AcDbEntity
  8
0
  6
Continuous
 62
     4
370
    15
100
AcDbLine
 10
29.08300005655063
 20
-3.951592348528103
 30
0.0
 11
29.08300005655064
 21
-9.726824396476424
 31
0.0
  0
LINE
  5
AB
330
1F
100
AcDbEntity
  8
0
  6
Continuous
 62
     4
370
    15
100
AcDbLine
 10
29.08300005655064
 20
-10.59420176949019
 30
0.0
 11
29.08300005655064
 21
-10.94881306631128
 31
0.0
  0
SPLINE
  5
AC
330
1F
100
AcDbEntity
  8
0
  6
Continuous
 62
     4
370
    15
100
AcDbSpline
210
0.0
220
0.0
230
1.0
 70
     8
 71
     3
 72
    16
 73
    12
 74
     0
 42
0.000000001
 43
0.00000001
 40
0.0
 40
0.0
 40
0.0
 40
0.0
 40
0.2499999999999998
 40
0.2499999999999998
 40
0.4999999999999997
 40
0.4999999999999997
 40
0.6249999999999997
 40
0.6249999999999997
 40
0.7499999999999997
 40
0.7499999999999997
 40
1.0
 40
1.0
 40
1.0
 40
1.0
 10
26.03331271516677
 20
-12.08949233551925
 30
0.0
 10
26.03331271516677
 20
-12.03033787096401
 30
0.0
 10
26.09075207006689
 20
-11.94696511715764
 30
0.0
 10
26.35672446669369
 20
-11.73914667139402
 30
0.0
 10
26.55818352683556
 20
-11.62026029455791
 30
0.0
 10
26.96899818058494
 20
-11.43840491760217
 30
0.0
 10
27.12252599807724
 20
-11.37813489747192
 30
0.0
 10
27.45458501278451
 20
-11.26449470067973
 30
0.0
 10
27.63415740824727
 20
-11.21063059402571
 30
0.0
 10
28.21522601026549
 20
-11.06301862141365
 30
0.0
 10
28.63406480200956
 20
-10.98928748204586
 30
0.0
 10
29.08300005654844
 20
-10.94881306630974
 30
0.0
  0
LINE
  5
AD
330
1F
100
AcDbEntity
  8
0
  6
Continuous
 62
     1
370
    15
100
AcDbLine
 10
26.03331271516677
 20
-12.08949233551925
 30
0.0
 11
26.03331271516677
 21
-12.19199999999999
 31
0.0
  0
LINE
  5
AE
330
1F
100
AcDbEntity
  8
0
  6
Continuous
 62
     4
370
    15
100
AcDbLine
 10
26.03331271516677
 20
7.411047489601191
 30
0.0
 11
26.03331271516677
 21
0.3588358017954797
 31
0.0
  0
SPLINE
  5
AF
330
1F
100
AcDbEntity
  8
0
  6
Continuous
 62
     4
370
    15
100
AcDbSpline
210
0.0
220
0.0
230
1.0
 70
    24
 71
     3
 72
    10
 73
     6
 74
     0
 42
0.000000001
 43
0.00000001
 40
0.0
 40
0.0
 40
0.0
 40
0.0
 40
0.5
 40
0.5
 40
1.0
 40
1.0
 40
1.0
 40
1.0
 10
29.08300005655063
 20
0.3536671967199464
 30
0.0
 10
29.08300005655063
 20
-0.4925144778154351
 30
0.0
 10
29.08300005655063
 20
-1.306195145124656
 30
0.0
 10
29.08300005655063
 20
-2.772100781168931
 30
0.0
 10
29.08300005655063
 20
-3.423223295792116
 30
0.0
 10
29.08300005655063
 20
-3.951592348528103
 30
0.0
  0
SPLINE
  5
B0
330
1F
100
AcDbEntity
  8
0
  6
Continuous
 62
     1
370
    15
100
AcDbSpline
210
0.0
220
0.0
230
1.0
 70
     8
 71
     3
 72
    26
 73
    22
 74
     0
 42
0.000000001
 43
0.00000001
 40
0.0
 40
0.0
 40
0.0
 40
0.0
 40
0.2500000000000004
 40
0.2500000000000004
 40
0.5000000000000009
 40
0.5000000000000009
 40
0.6250000000000012
 40
0.6250000000000012
 40
0.7500000000000016
 40
0.7500000000000016
 40
0.8125000000000018
 40
0.8125000000000018
 40
0.875000000000002
 40
0.875000000000002
 40
0.9062500000000014
 40
0.9062500000000014
 40
0.937500000000001
 40
0.937500000000001
 40
0.9687500000000004
 40
0.9687500000000004
 40
1.0
 40
1.0
 40
1.0
 40
1.0
 10
57.46579267149741
 20
1.005517699774704
 30
0.0
 10
57.51209419861573
 20
0.452926739253068
 30
0.0
 10
57.53279880054884
 20
-0.1006265140239114
 30
0.0
 10
57.54417906536059
 20
-1.209372594923654
 30
0.0
 10
57.53560396847
 20
-1.764671089461539
 30
0.0
 10
57.48526799284262
 20
-2.59239568289675
 30
0.0
 10
57.46198625389815
 20
-2.867636585569535
 30
0.0
 10
57.39066373363234
 20
-3.415686202091362
 30
0.0
 10
57.34394994533969
 20
-3.688621888345533
 30
0.0
 10
57.22918164163957
 20
-4.09373315888323
 30
0.0
 10
57.18266391543883
 20
-4.229656594056201
 30
0.0
 10
57.06248096093435
 20
-4.48719999074383
 30
0.0
 10
56.98839705977039
 20
-4.611576291324218
 30
0.0
 10
56.83849058161636
 20
-4.761040362149109
 30
0.0
 10
56.78180985192636
 20
-4.804076719974645
 30
0.0
 10
56.65592043041145
 20
-4.864697967731463
 30
0.0
 10
56.58824562693506
 20
-4.881279271575322
 30
0.0
 10
56.44943852380296
 20
-4.883752836980347
 30
0.0
 10
56.38096190482408
 20
-4.869791181537695
 30
0.0
 10
56.25158276188306
 20
-4.821466503783506
 30
0.0
 10
56.19133578591635
 20
-4.78781749723852
 30
0.0
 10
56.13400005655063
 20
-4.747801589231634
 30
0.0
  0
SPLINE
  5
B1
330
1F
100
AcDbEntity
  8
0
  6
Continuous
 62
     1
370
    15
100
AcDbSpline
210
0.0
220
0.0
230
1.0
 70
     8
 71
     3
 72
    36
 73
    32
 74
     0
 42
0.000000001
 43
0.00000001
 40
0.0
 40
0.0
 40
0.0
 40
0.0
 40
0.0176562514044521
 40
0.0339578944854673
 40
0.0489049250227322
 40
0.0624973401476306
 40
0.0865451369669509
 40
0.1250259839292264
 40
0.1562980971767995
 40
0.1874871070067907
 40
0.2387237687836919
 40
0.2500452093786441
 40
0.312479785555124
 40
0.343763238026508
 40
0.3750549179638937
 40
0.4062659941164935
 40
0.4374922341731725
 40
0.5000564958370706
 40
0.5312466607510882
 40
0.5625045019612815
 40
0.625047147484847
 40
0.687513760800327
 40
0.7245850330326515
 40
0.7500238602786178
 40
0.8125311864275997
 40
0.8389855425559036
 40
0.8750019164850144
 40
0.8960976452670893
 40
0.937553519965046
 40
0.968796078742618
 40
1.0
 40
1.0
 40
1.0
 40
1.0
 10
56.13400005655063
 20
-4.747801589231636
 30
0.0
 10
55.97473008211931
 20
-4.636260411495708
 30
0.0
 10
55.66840951256296
 20
-4.421735626048537
 30
0.0
 10
55.22741567654595
 20
-4.108505539534498
 30
0.0
 10
54.82316350562427
 20
-3.818938774273808
 30
0.0
 10
54.34938846859754
 20
-3.476437070973059
 30
0.0
 10
53.66314518228917
 20
-2.97686242128277
 30
0.0
 10
52.81694552906722
 20
-2.354151957753387
 30
0.0
 10
51.90634541186554
 20
-1.677130233457373
 30
0.0
 10
50.88236661702316
 20
-0.9072704417567292
 30
0.0
 10
50.03635221911895
 20
-0.2709496148785231
 30
0.0
 10
48.90882707348785
 20
0.5775136079036308
 30
0.0
 10
47.96252106588458
 20
1.292082640445643
 30
0.0
 10
46.83486992938175
 20
2.132273595346457
 30
0.0
 10
45.98865613767514
 20
2.757075508030454
 30
0.0
 10
45.14410758966583
 20
3.376045056453193
 30
0.0
 10
44.01748591258038
 20
4.189711026940434
 30
0.0
 10
42.88892619448735
 20
4.981161829652445
 30
0.0
 10
41.76302820816446
 20
5.749772850323075
 30
0.0
 10
40.63573246757394
 20
6.497085812725457
 30
0.0
 10
39.22585957079439
 20
7.391659753407242
 30
0.0
 10
37.7651310802088
 20
8.256822899663673
 30
0.0
 10
36.63738279007386
 20
8.877534970962559
 30
0.0
 10
35.5109259249983
 20
9.46996783877133
 30
0.0
 10
34.47883980297252
 20
9.971140285243655
 30
0.0
 10
33.35174238824124
 20
10.47032157800259
 30
0.0
 10
32.59875827207548
 20
10.7812472318995
 30
0.0
 10
31.70994408585924
 20
11.12133386692689
 30
0.0
 10
30.86375043025997
 20
11.41631618787663
 30
0.0
 10
29.92673892283645
 20
11.70863376140165
 30
0.0
 10
29.36413031100719
 20
11.85966111544524
 30
0.0
 10
29.08300005654899
 20
11.93512806987804
 30
0.0
  0
SPLINE
  5
B2
330
1F
100
AcDbEntity
  8
0
  6
Continuous
 62
     1
370
    15
100
AcDbSpline
210
0.0
220
0.0
230
1.0
 70
     8
 71
     3
 72
    19
 73
    15
 74
     0
 42
0.000000001
 43
0.00000001
 40
0.0
 40
0.0
 40
0.0
 40
0.0
 40
0.0562203959879145
 40
0.1356886021354638
 40
0.2165423915962431
 40
0.2978767523040304
 40
0.3768956727691393
 40
0.4563633372913095
 40
0.5372151805431087
 40
0.6185482896967683
 40
0.7119878929480271
 40
0.806171233501802
 40
0.9026756506583186
 40
1.0
 40
1.0
 40
1.0
 40
1.0
 10
29.71556983184559
 20
11.74369657843615
 30
0.0
 10
30.23554951990333
 20
11.80079941739076
 30
0.0
 10
31.49052675319347
 20
11.93861780624351
 30
0.0
 10
33.49290025592033
 20
11.92248852932797
 30
0.0
 10
35.7288748390495
 20
11.72341510784213
 30
0.0
 10
37.96016351782957
 20
11.31054915277218
 30
0.0
 10
40.17782092957319
 20
10.70539574388301
 30
0.0
 10
42.39148666967627
 20
9.917797288506563
 30
0.0
 10
44.62762746988662
 20
8.950277287784342
 30
0.0
 10
46.99149726398665
 20
7.758036171025284
 30
0.0
 10
49.47941155811055
 20
6.338075954163817
 30
0.0
 10
52.10757289871736
 20
4.685097398588201
 30
0.0
 10
54.77204017932303
 20
2.895247296868892
 30
0.0
 10
56.56534649961931
 20
1.637201489035798
 30
0.0
 10
57.46579267149743
 20
1.005517699774701
 30
0.0
  0
SPLINE
  5
B3
330
1F
100
AcDbEntity
  8
0
  6
Continuous
 62
     1
370
    15
100
AcDbSpline
210
0.0
220
0.0
230
1.0
 70
     8
 71
     3
 72
    38
 73
    34
 74
     0
 42
0.000000001
 43
0.00000001
 40
0.0
 40
0.0
 40
0.0
 40
0.0
 40
0.0625
 40
0.0625
 40
0.125
 40
0.125
 40
0.1875
 40
0.1875
 40
0.25
 40
0.25
 40
0.3125
 40
0.3125
 40
0.375
 40
0.375
 40
0.4375
 40
0.4375
 40
0.5
 40
0.5
 40
0.5625
 40
0.5625
 40
0.625
 40
0.625
 40
0.6875
 40
0.6875
 40
0.75
 40
0.75
 40
0.8125
 40
0.8125
 40
0.875
 40
0.875
 40
0.9375
 40
0.9375
 40
1.0
 40
1.0
 40
1.0
 40
1.0
 10
56.13400005655063
 20
-6.042213619203909
 30
0.0
 10
55.56921001343344
 20
-5.668399435749794
 30
0.0
 10
55.00518707842257
 20
-5.28459258509131
 30
0.0
 10
53.88192416715403
 20
-4.501687867426724
 30
0.0
 10
53.31662847906236
 20
-4.101176335693069
 30
0.0
 10
52.18720839216808
 20
-3.287986364181978
 30
0.0
 10
51.62538434198233
 20
-2.875884350421336
 30
0.0
 10
50.50002142429702
 20
-2.043023423435947
 30
0.0
 10
49.93434236158534
 20
-1.621723687419737
 30
0.0
 10
48.80550791583437
 20
-0.775714047279949
 30
0.0
 10
48.24492363629648
 20
-0.3516583638981922
 30
0.0
 10
47.11788126823411
 20
0.4976813507378892
 30
0.0
 10
46.5520328657214
 20
0.9228111139010017
 30
0.0
 10
45.4242089674194
 20
1.767581958353417
 30
0.0
 10
44.86390379205864
 20
2.186815035498853
 30
0.0
 10
43.73560463217833
 20
3.018451109329174
 30
0.0
 10
43.16980113887016
 20
3.430293711531423
 30
0.0
 10
42.04341142628829
 20
4.239840190866922
 30
0.0
 10
41.48242433904624
 20
4.637665366190658
 30
0.0
 10
40.35329262180426
 20
5.418104337110163
 30
0.0
 10
39.78774822989589
 20
5.80008201820232
 30
0.0
 10
38.6632145440724
 20
6.541876806499029
 30
0.0
 10
38.10058538292693
 20
6.902518379995682
 30
0.0
 10
36.97104638790935
 20
7.600322758256967
 30
0.0
 10
36.406081072311
 20
7.937053134539066
 30
0.0
 10
35.28360850368818
 20
8.581392057402983
 30
0.0
 10
34.71848748055179
 20
8.890453295145177
 30
0.0
 10
33.5889669989536
 20
9.47752495029549
 30
0.0
 10
33.02651867397627
 20
9.755232725263507
 30
0.0
 10
31.90180692870623
 20
10.27706622682428
 30
0.0
 10
31.33623151406016
 20
10.52166103254425
 30
0.0
 10
30.20715531381554
 20
10.97438775986106
 30
0.0
 10
29.64626564657709
 20
11.18224170428548
 30
0.0
 10
29.08300005654966
 20
11.37132315185242
 30
0.0
  0
SPLINE
  5
B4
330
1F
100
AcDbEntity
  8
0
  6
Continuous
 62
     1
370
    15
100
AcDbSpline
210
0.0
220
0.0
230
1.0
 70
     8
 71
     3
 72
    18
 73
    14
 74
     0
 42
0.000000001
 43
0.00000001
 40
0.0
 40
0.0
 40
0.0
 40
0.0
 40
0.2500000000000007
 40
0.2500000000000007
 40
0.5000000000000013
 40
0.5000000000000013
 40
0.625000000000001
 40
0.625000000000001
 40
0.7500000000000007
 40
0.7500000000000007
 40
0.8750000000000003
 40
0.8750000000000003
 40
1.0
 40
1.0
 40
1.0
 40
1.0
 10
56.13400005655063
 20
-6.042213619203907
 30
0.0
 10
56.32248577023864
 20
-6.166965523055064
 30
0.0
 10
56.50395237936466
 20
-6.273506836955625
 30
0.0
 10
56.85516915723854
 20
-6.44769441971888
 30
0.0
 10
57.01897949569912
 20
-6.51197526212276
 30
0.0
 10
57.23589496745232
 20
-6.567677834025427
 30
0.0
 10
57.30380964649627
 20
-6.57939652352373
 30
0.0
 10
57.42306350028543
 20
-6.587618973654918
 30
0.0
 10
57.475318323796
 20
-6.584417137189464
 30
0.0
 10
57.56299762118103
 20
-6.56281614640527
 30
0.0
 10
57.59823403387238
 20
-6.544085723357484
 30
0.0
 10
57.64535605483261
 20
-6.493037797529495
 30
0.0
 10
57.65800005655065
 20
-6.460673168048561
 30
0.0
 10
57.65800005655064
 20
-6.421313419566568
 30
0.0
  0
SPLINE
  5
B5
330
1F
100
AcDbEntity
  8
0
  6
Continuous
 62
     1
370
    15
100
AcDbSpline
210
0.0
220
0.0
230
1.0
 70
     8
 71
     3
 72
    11
 73
     7
 74
     0
 42
0.000000001
 43
0.00000001
 40
0.0
 40
0.0
 40
0.0
 40
0.0
 40
0.2119906124572935
 40
0.5724530587639342
 40
0.9417510776139624
 40
0.9999999999999999
 40
0.9999999999999999
 40
0.9999999999999999
 40
0.9999999999999999
 10
55.57070521514466
 20
-5.655735053576981
 30
0.0
 10
55.43306088274311
 20
-5.688674118455308
 30
0.0
 10
55.06137027724213
 20
-5.777621776202285
 30
0.0
 10
54.37786837399342
 20
-6.057176916029022
 30
0.0
 10
53.79236229931301
 20
-6.341349758705741
 30
0.0
 10
53.4706152266295
 20
-6.516936299219153
 30
0.0
 10
53.42678046029835
 20
-6.540858179564803
 30
0.0
  0
SPLINE
  5
B6
330
1F
100
AcDbEntity
  8
0
  6
Continuous
 62
     1
370
    15
100
AcDbSpline
210
0.0
220
0.0
230
1.0
 70
     8
 71
     3
 72
     8
 73
     4
 74
     0
 42
0.000000001
 43
0.00000001
 40
0.0
 40
0.0
 40
0.0
 40
0.0
 40
1.0
 40
1.0
 40
1.0
 40
1.0
 10
57.65800005655063
 20
-7.424523816498301
 30
0.0
 10
56.20322554858093
 20
-7.324563569594247
 30
0.0
 10
54.79172884529601
 20
-7.034789775025955
 30
0.0
 10
53.42678046029837
 20
-6.540858179564774
 30
0.0
  0
LINE
  5
B7
330
1F
100
AcDbEntity
  8
0
  6
Continuous
 62
     1
370
    15
100
AcDbLine
 10
57.65800005655063
 20
-11.17600000000001
 30
0.0
 11
57.65800005655063
 21
-7.424523816498303
 31
0.0
  0
SPLINE
  5
B9
330
1F
100
AcDbEntity
  8
0
  6
Continuous
 62
     1
370
    15
100
AcDbSpline
210
0.0
220
0.0
230
1.0
 70
     8
 71
     3
 72
    36
 73
    32
 74
     0
 42
0.000000001
 43
0.00000001
 40
0.0
 40
0.0
 40
0.0
 40
0.0
 40
0.0625
 40
0.0625
 40
0.125
 40
0.125
 40
0.1874999999999999
 40
0.1874999999999999
 40
0.2499999999999998
 40
0.2499999999999998
 40
0.3124999999999999
 40
0.3124999999999999
 40
0.3749999999999999
 40
0.3749999999999999
 40
0.4374999999999999
 40
0.4374999999999999
 40
0.4999999999999999
 40
0.4999999999999999
 40
0.5624999999999999
 40
0.5624999999999999
 40
0.6249999999999999
 40
0.6249999999999999
 40
0.6875
 40
0.6875
 40
0.75
 40
0.75
 40
0.8125
 40
0.8125
 40
0.875
 40
0.875
 40
0.9318536649231131
 40
0.9318536649231131
 40
0.9318536649231131
 40
0.9318536649231131
 10
29.08300005654952
 20
-3.814225474304639
 30
0.0
 10
29.67398288986288
 20
-4.210270182679126
 30
0.0
 10
30.26262551539578
 20
-4.598762867761583
 30
0.0
 10
31.44745457452806
 20
-5.358979331991604
 30
0.0
 10
32.0407782331865
 20
-5.730048404040706
 30
0.0
 10
33.21942235567229
 20
-6.448065783721682
 30
0.0
 10
33.81128766932694
 20
-6.79635409324906
 30
0.0
 10
34.99642151156964
 20
-7.466783774032669
 30
0.0
 10
35.5864210697105
 20
-7.78832691940205
 30
0.0
 10
36.76681172829169
 20
-8.401625042682603
 30
0.0
 10
37.36043428895749
 20
-8.693896027348268
 30
0.0
 10
38.54469601148031
 20
-9.244733131494755
 30
0.0
 10
39.13267853540411
 20
-9.502963942378752
 30
0.0
 10
40.31582945948795
 20
-9.984475935910982
 30
0.0
 10
40.90963303758554
 20
-10.20748554333385
 30
0.0
 10
42.09184862235341
 20
-10.61434281319895
 30
0.0
 10
42.68031850870891
 20
-10.79827948345414
 30
0.0
 10
43.86505935080056
 20
-11.12640336563623
 30
0.0
 10
44.45845140983713
 20
-11.27023598388226
 30
0.0
 10
45.63745359684209
 20
-11.51525874144242
 30
0.0
 10
46.22891363421181
 20
-11.73845803369741
 30
0.0
 10
47.41406879176686
 20
-12.0015075579615
 30
0.0
 10
48.00438326268637
 20
-12.22868669255321
 30
0.0
 10
49.18445781586072
 20
-12.52760660648969
 30
0.0
 10
49.77803339957932
 20
-12.70000000000001
 30
0.0
 10
50.96242589922829
 20
-12.70000000000001
 30
0.0
 10
51.55049048581617
 20
-12.70000000000001
 30
0.0
 10
52.73343381396253
 20
-12.70000000000001
 30
0.0
 10
53.32724555683554
 20
-12.70000000000001
 30
0.0
 10
54.45628863330293
 20
-12.70000000000001
 30
0.0
 10
54.99169698779582
 20
-12.70000000000001
 30
0.0
 10
56.13400005655063
 20
-12.70000000000001
 30
0.0
  0
LINE
  5
BA
330
1F
100
AcDbEntity
  8
0
  6
Continuous
 62
     4
370
    15
100
AcDbLine
 10
29.08300005655063
 20
11.3713231518659
 30
0.0
 11
29.08300005655063
 21
10.21012836432235
 31
0.0
  0
SPLINE
  5
BB
330
1F
100
AcDbEntity
  8
0
  6
Continuous
 62
     4
370
    15
100
AcDbSpline
210
0.0
220
0.0
230
1.0
 70
    24
 71
     3
 72
    19
 73
    15
 74
     0
 42
0.000000001
 43
0.00000001
 40
0.0
 40
0.0
 40
0.0
 40
0.0
 40
0.0409965309653671
 40
0.1678241865771293
 40
0.2560341059336554
 40
0.3445253117647674
 40
0.4327352311212936
 40
0.5209451504778202
 40
0.6094363563089322
 40
0.6976462756654588
 40
0.7858561950219851
 40
0.8743474008530968
 40
0.962557320209623
 40
1.0
 40
1.0
 40
1.0
 40
1.0
 10
29.08300005655063
 20
10.02873687175175
 30
0.0
 10
29.08300005655063
 20
9.815780046393785
 30
0.0
 10
29.08300005655063
 20
8.944015895862586
 30
0.0
 10
29.08300005655063
 20
7.552563563243701
 30
0.0
 10
29.08300005655063
 20
5.918409568920203
 30
0.0
 10
29.08300005655063
 20
4.504722109801744
 30
0.0
 10
29.08300005655063
 20
3.12508875621893
 30
0.0
 10
29.08300005655063
 20
1.797686886484219
 30
0.0
 10
29.08300005655063
 20
0.5378050808899386
 30
0.0
 10
29.08300005655063
 20
-0.639316373286984
 30
0.0
 10
29.08300005655063
 20
-1.715690263028981
 30
0.0
 10
29.08300005655063
 20
-2.679184454390161
 30
0.0
 10
29.08300005655063
 20
-3.363531555897396
 30
0.0
 10
29.08300005655063
 20
-3.710757193798451
 30
0.0
 10
29.08300005655063
 20
-3.814225474305238
 30
0.0
  0
LINE
  5
BC
330
1F
100
AcDbEntity
  8
0
  6
Continuous
 62
     4
370
    15
100
AcDbLine
 10
29.08300005655063
 20
11.3713231518529
 30
0.0
 11
29.08300005655063
 21
11.93512806994033
 31
0.0
  0
LINE
  5
BD
330
1F
100
AcDbEntity
  8
0
  6
Continuous
 62
     1
370
    15
100
AcDbLine
 10
57.65800005655063
 20
-6.421313419566561
 30
0.0
 11
57.65800005655063
 21
0.9874631250511351
 31
0.0
  0
SPLINE
  5
BE
330
1F
100
AcDbEntity
  8
0
  6
Continuous
 62
     1
370
    15
100
AcDbSpline
210
0.0
220
0.0
230
1.0
 70
     8
 71
     3
 72
    10
 73
     6
 74
     0
 42
0.000000001
 43
0.00000001
 40
0.0
 40
0.0
 40
0.0
 40
0.0
 40
0.5
 40
0.5
 40
1.0
 40
1.0
 40
1.0
 40
1.0
 10
57.65800005655062
 20
0.9874631250511349
 30
0.0
 10
57.65800005655062
 20
0.9632709142760821
 30
0.0
 10
57.64251233291049
 20
0.9514072735345069
 30
0.0
 10
57.57698868656656
 20
0.9569071667660825
 30
0.0
 10
57.52873376144679
 20
0.9741842309492641
 30
0.0
 10
57.46579267149744
 20
1.005517699774864
 30
0.0
  0
SPLINE
  5
BF
330
1F
100
AcDbEntity
  8
0
  6
Continuous
 62
     1
370
    15
100
AcDbSpline
210
0.0
220
0.0
230
1.0
 70
     8
 71
     3
 72
    13
 73
     9
 74
     0
 42
0.000000001
 43
0.00000001
 40
0.0
 40
0.0
 40
0.0
 40
0.0
 40
0.0280495880421843
 40
0.2223662752314292
 40
0.4167086896189959
 40
0.6112045653703752
 40
0.8056699363441184
 40
0.9999999999999999
 40
0.9999999999999999
 40
0.9999999999999999
 40
0.9999999999999999
 10
43.88854931657814
 20
9.242592987126447
 30
0.0
 10
44.00305048140226
 20
9.30547618466914
 30
0.0
 10
44.91077138957773
 20
9.803989830972313
 30
0.0
 10
46.61132051726703
 20
10.55676455995572
 30
0.0
 10
48.99135233127399
 20
11.46933933345129
 30
0.0
 10
51.37288460189257
 20
12.12997774893426
 30
0.0
 10
53.75414916496518
 20
12.57222960451769
 30
0.0
 10
55.34090049802837
 20
12.65415603693984
 30
0.0
 10
56.13400005655063
 20
12.70000000000002
 30
0.0
  0
LINE
  5
C1
330
1F
100
AcDbEntity
  8
0
  6
Continuous
 62
     1
370
    15
100
AcDbLine
 10
57.65800005655063
 20
8.223300350377997
 30
0.0
 11
57.65800005655063
 21
11.13229053594383
 31
0.0
  0
SPLINE
  5
C2
330
1F
100
AcDbEntity
  8
0
  6
Continuous
 62
     1
370
    15
100
AcDbSpline
210
0.0
220
0.0
230
1.0
 70
     8
 71
     3
 72
    20
 73
    16
 74
     0
 42
0.000000001
 43
0.00000001
 40
0.0
 40
0.0
 40
0.0
 40
0.0
 40
0.2499999999999997
 40
0.2499999999999997
 40
0.3749999999999997
 40
0.3749999999999997
 40
0.4999999999999997
 40
0.4999999999999997
 40
0.6249999999999997
 40
0.6249999999999997
 40
0.7499999999999996
 40
0.7499999999999996
 40
0.8749999999999998
 40
0.8749999999999998
 40
1.0
 40
1.0
 40
1.0
 40
1.0
 10
57.65800005655063
 20
8.223300350377999
 30
0.0
 10
57.45981930057474
 20
7.726153525028186
 30
0.0
 10
57.2204605663964
 20
7.264314974489673
 30
0.0
 10
56.78982401287428
 20
6.632949619575997
 30
0.0
 10
56.63285427489969
 20
6.431305398265742
 30
0.0
 10
56.30078149361492
 20
6.05980092734594
 30
0.0
 10
56.12591995564224
 20
5.889670717046527
 30
0.0
 10
55.75886838995172
 20
5.580084696847031
 30
0.0
 10
55.56668071965402
 20
5.440624713908768
 30
0.0
 10
55.16485029936328
 20
5.192603234366087
 30
0.0
 10
54.95494644982627
 20
5.084297174360572
 30
0.0
 10
54.53064709872068
 20
4.904067784535941
 30
0.0
 10
54.31470482613485
 20
4.831109222492567
 30
0.0
 10
53.87576274918272
 20
4.717117439247386
 30
0.0
 10
53.65170921545684
 20
4.675995651344291
 30
0.0
 10
53.42678046029834
 20
4.650557464982234
 30
0.0
  0
SPLINE
  5
C3
330
1F
100
AcDbEntity
  8
0
  6
Continuous
 62
     1
370
    15
100
AcDbSpline
210
0.0
220
0.0
230
1.0
 70
     8
 71
     3
 72
     8
 73
     4
 74
     0
 42
0.000000001
 43
0.00000001
 40
0.0
 40
0.0
 40
0.0
 40
0.0
 40
1.0
 40
1.0
 40
1.0
 40
1.0
 10
57.65800005655063
 20
2.449835235057691
 30
0.0
 10
56.20322554858093
 20
3.292970240501972
 30
0.0
 10
54.791728845296
 20
4.029236352714959
 30
0.0
 10
53.42678046029835
 20
4.650557464982251
 30
0.0
  0
LINE
  5
C4
330
1F
100
AcDbEntity
  8
0
  6
Continuous
 62
     1
370
    15
100
AcDbLine
 10
57.65800005655063
 20
0.9874631250511351
 30
0.0
 11
57.65800005655063
 21
2.449835235057691
 31
0.0
  0
SPLINE
  5
C5
330
1F
100
AcDbEntity
  8
0
  6
Continuous
 62
     1
370
    15
100
AcDbSpline
210
0.0
220
0.0
230
1.0
 70
     8
 71
     3
 72
    42
 73
    38
 74
     0
 42
0.000000001
 43
0.00000001
 40
0.0194096701829771
 40
0.0194096701829771
 40
0.0194096701829771
 40
0.0194096701829771
 40
0.1353660039351021
 40
0.2600936380702148
 40
0.2794158028487855
 40
0.2987074491272785
 40
0.3122274333523337
 40
0.3306369340147081
 40
0.3591855474391103
 40
0.3869142164141426
 40
0.4203835057003666
 40
0.4415036398554968
 40
0.4712407643194111
 40
0.5050720330025384
 40
0.533512005985065
 40
0.5720976147869795
 40
0.6053401204873806
 40
0.6300500850741318
 40
0.6442861706516368
 40
0.6622678667032176
 40
0.6839951512523357
 40
0.709467994717879
 40
0.7306733805590129
 40
0.7400391735757434
 40
0.7502996273451867
 40
0.7614547413990393
 40
0.773504515099779
 40
0.7864489476661113
 40
0.8002880381901909
 40
0.8150217856496151
 40
0.8268649871933514
 40
0.8462417161489303
 40
0.8587552210087084
 40
0.8731521149079282
 40
0.8894323924778462
 40
0.9075960476263762
 40
1.0
 40
1.0
 40
1.0
 40
1.0
 10
47.00762369352346
 20
-11.87064443904425
 30
0.0
 10
46.30108703241588
 20
-12.07923521566196
 30
0.0
 10
44.83417452117166
 20
-12.36841087430722
 30
0.0
 10
43.24889203411998
 20
-12.58735923724924
 30
0.0
 10
42.25356058441341
 20
-12.65693772917289
 30
0.0
 10
41.93623878079434
 20
-12.67441384537047
 30
0.0
 10
41.62466451149182
 20
-12.68733986452478
 30
0.0
 10
41.25604594724912
 20
-12.69775856419833
 30
0.0
 10
40.80085476358563
 20
-12.70190928155888
 30
0.0
 10
40.25383625502941
 20
-12.69433825706228
 30
0.0
 10
39.75214483485409
 20
-12.67487105618891
 30
0.0
 10
39.23832525685054
 20
-12.64349729593236
 30
0.0
 10
38.72270931703676
 20
-12.60124615845308
 30
0.0
 10
38.16225029414321
 20
-12.54090708444775
 30
0.0
 10
37.54767082175937
 20
-12.45938305885052
 30
0.0
 10
36.93642292992402
 20
-12.36199207311062
 30
0.0
 10
36.34816165215187
 20
-12.25138556938833
 30
0.0
 10
35.90860048732316
 20
-12.1585161989065
 30
0.0
 10
35.56203783414833
 20
-12.07995917104989
 30
0.0
 10
35.23340109614416
 20
-12.00148735565119
 30
0.0
 10
34.83621990859641
 20
-11.90061816726492
 30
0.0
 10
34.41930568169654
 20
-11.78726969863981
 30
0.0
 10
34.07765921182066
 20
-11.68841159227124
 30
0.0
 10
33.82884343404814
 20
-11.61348818409008
 30
0.0
 10
33.64130004996386
 20
-11.55561533049042
 30
0.0
 10
33.43743230342315
 20
-11.49105671457221
 30
0.0
 10
33.21723891526849
 20
-11.41941530517519
 30
0.0
 10
32.98072335065109
 20
-11.34026392797283
 30
0.0
 10
32.72787203346623
 20
-11.25316022704498
 30
0.0
 10
32.48178791745746
 20
-11.1657765414579
 30
0.0
 10
32.20184439511571
 20
-11.06383485888251
 30
0.0
 10
31.93533197090804
 20
-10.96391402399016
 30
0.0
 10
31.65324702593225
 20
-10.85499759639459
 30
0.0
 10
31.39001529710666
 20
-10.75092883935044
 30
0.0
 10
31.09234347046478
 20
-10.62999287168013
 30
0.0
 10
30.31915214816878
 20
-10.30790405680851
 30
0.0
 10
29.64576529843432
 20
-9.991364203428358
 30
0.0
 10
29.08300005654899
 20
-9.72682439659359
 30
0.0
  0
LINE
  5
C6
330
1F
100
AcDbEntity
  8
0
  6
Continuous
 62
     4
370
    15
100
AcDbLine
 10
29.08300005655063
 20
-3.814225474305402
 30
0.0
 11
29.08300005655063
 21
-9.726824396594383
 31
0.0
  0
SPLINE
  5
C7
330
1F
100
AcDbEntity
  8
0
  6
Continuous
 62
     1
370
    15
100
AcDbSpline
210
0.0
220
0.0
230
1.0
 70
     8
 71
     3
 72
    11
 73
     7
 74
     0
 42
0.000000001
 43
0.00000001
 40
0.0
 40
0.0
 40
0.0
 40
0.0
 40
0.2557736547760696
 40
0.5114876211511502
 40
0.7672253110608968
 40
1.0
 40
1.0
 40
1.0
 40
1.0
 10
29.08300005654966
 20
-10.58334034572208
 30
0.0
 10
29.92450212471202
 20
-10.91133762791531
 30
0.0
 10
31.60730988462371
 20
-11.56725564949551
 30
0.0
 10
34.13120546570817
 20
-12.22243466414007
 30
0.0
 10
36.5794986645119
 20
-12.63321675348852
 30
0.0
 10
38.18687745800043
 20
-12.6705386963089
 30
0.0
 10
38.95278865055462
 20
-12.68832249055191
 30
0.0
  0
LINE
  5
C8
330
1F
100
AcDbEntity
  8
0
  6
Continuous
 62
     4
370
    15
100
AcDbLine
 10
29.08300005655063
 20
-10.58334034572148
 30
0.0
 11
29.08300005655063
 21
-9.726824396476424
 31
0.0
  0
LINE
  5
C9
330
1F
100
AcDbEntity
  8
0
  6
Continuous
 62
     1
370
    15
100
AcDbLine
 10
57.65800005655063
 20
2.449835235057691
 30
0.0
 11
57.65800005655063
 21
8.223300350377997
 31
0.0
  0
LINE
  5
CA
330
1F
100
AcDbEntity
  8
0
  6
Continuous
 62
     1
370
    15
100
AcDbLine
 10
57.65800005655063
 20
-6.421313419566561
 30
0.0
 11
57.65800005655063
 21
-7.424523816498303
 31
0.0
  0
LINE
  5
CB
330
1F
100
AcDbEntity
  8
0
  6
Continuous
 62
     1
370
    15
100
AcDbLine
 10
57.65800005655063
 20
11.13229053594383
 30
0.0
 11
57.65800005655062
 21
11.17600000000001
 31
0.0
  0
LINE
  5
CC
330
1F
100
AcDbEntity
  8
중심선
100
AcDbLine
 10
-72.34199994344937
 20
0.0000000000000077
 30
0.0
 11
60.65800005655063
 21
0.0000000000000078
 31
0.0
  0
CIRCLE
  5
CD
330
1F
100
AcDbEntity
  8
외형선
100
AcDbCircle
 10
0.000000000000003
 20
0.0
 30
0.0
 40
3.000000000000012
  0
INSERT
  5
CE
330
1F
100
AcDbEntity
  8
0
  6
Continuous
 62
     7
100
AcDbBlockReference
 66
     1
  2
블럭10
 10
-13.94027293212522
 20
-51.95008179678728
 30
0.0
  0
ATTRIB
  5
CF
330
CE
100
AcDbEntity
  8
FORMAT
 62
     2
100
AcDbText
 10
-23.1215682208665
 20
-49.87471488395509
 30
0.0
 40
4.233333333333333
  1
E5985064 [ 3 FLUTE ]
 41
0.75
  7
SLDTEXTSTYLE0
 11
-23.1215682208665
 21
-51.99138155062175
 31
0.0
100
AcDbAttribute
  2
AUTOATTR0
 70
     0
 74
     1
  0
SEQEND
  5
D0
330
CE
100
AcDbEntity
  8
0
  6
Continuous
 62
     7
  0
HATCH
  5
D1
330
1F
100
AcDbEntity
  8
중심선
100
AcDbHatch
 10
0.0
 20
0.0
 30
0.0
210
0.0
220
0.0
230
1.0
  2
SOLID
 70
     1
 71
     0
 91
        1
 92
        0
 93
        4
 72
     1
 10
-8.22536362774437
 20
-35.70290749514335
 11
-11.67163887158165
 21
-35.70290749514335
 72
     1
 10
-11.67163887158165
 20
-35.70290749514335
 11
-13.79986873078568
 21
-38.23923307571592
 72
     1
 10
-13.79986873078568
 20
-38.23923307571592
 11
-10.35356040183524
 21
-38.23919364641343
 72
     1
 10
-10.35356040183524
 20
-38.23919364641343
 11
-8.22536362774437
 21
-35.70290749514335
 97
        0
 75
     0
 76
     1
 98
        1
 10
0.0
 20
0.0
  0
HATCH
  5
D2
330
1F
100
AcDbEntity
  8
중심선
100
AcDbHatch
 10
0.0
 20
0.0
 30
0.0
210
0.0
220
0.0
230
1.0
  2
SOLID
 70
     1
 71
     0
 91
        1
 92
        0
 93
        4
 72
     1
 10
-3.212599636708418
 20
-35.70290749514338
 11
-6.658874880545673
 21
-35.70290749514332
 72
     1
 10
-6.658874880545673
 20
-35.70290749514332
 11
-11.19001288890309
 21
-41.10290749514336
 72
     1
 10
-11.19001288890309
 20
-41.10290749514336
 11
-7.743737645065806
 21
-41.10290749514336
 72
     1
 10
-7.743737645065806
 20
-41.10290749514336
 11
-3.212599636708418
 21
-35.70290749514338
 97
        0
 75
     0
 76
     1
 98
        1
 10
0.0
 20
0.0
  0
HATCH
  5
D3
330
1F
100
AcDbEntity
  8
중심선
100
AcDbHatch
 10
0.0
 20
0.0
 30
0.0
210
0.0
220
0.0
230
1.0
  2
SOLID
 70
     1
 71
     0
 91
        1
 92
        0
 93
        4
 72
     1
 10
1.800164354327477
 20
-35.70290749514332
 11
-1.646110889509639
 21
-35.70290749514335
 72
     1
 10
-1.646110889509639
 20
-35.70290749514335
 11
-8.694547791398888
 21
-44.10290749514337
 72
     1
 10
-8.694547791398888
 20
-44.10290749514337
 11
-5.248272547561605
 21
-44.10290749514337
 72
     1
 10
-5.248272547561605
 20
-44.10290749514337
 11
1.800164354327477
 21
-35.70290749514332
 97
        0
 75
     0
 76
     1
 98
        1
 10
0.0
 20
0.0
  0
HATCH
  5
D4
330
1F
100
AcDbEntity
  8
중심선
100
AcDbHatch
 10
0.0
 20
0.0
 30
0.0
210
0.0
220
0.0
230
1.0
  2
SOLID
 70
     1
 71
     0
 91
        1
 92
        0
 93
        6
 72
     3
 10
6.600054785339676
 20
-39.90290749519463
 11
3.960054785062284
 21
1.540850780301639E-10
 40
0.3939339440162633
 50
17.09539180608434
 51
320.0019657685086
 73
     0
 72
     1
 10
8.28305444104027
 20
-38.49080149978168
 11
10.58835631474131
 21
-36.55647478973373
 72
     3
 10
6.600054785286829
 20
-39.90290749514349
 11
6.600054785286829
 21
-1.249000902703301E-13
 40
0.6363583540795982
 50
39.99873849337408
 51
368.4976242363725
 73
     1
 72
     1
 10
13.02538727718744
 20
-38.94290749507337
 11
5.280122092122753
 21
-38.94290749507337
 72
     1
 10
5.280122092122753
 20
-38.94290749507337
 11
5.280097047676819
 21
-40.86290749507327
 72
     1
 10
5.280097047676819
 20
-40.86290749507327
 11
9.721476817148854
 21
-40.86290749507324
 97
        0
 75
     0
 76
     1
 98
        1
 10
0.0
 20
0.0
  0
POINT
  5
D5
330
1F
100
AcDbEntity
  8
치수문자_일반주서
100
AcDbPoint
 10
0.0000000000000104
 20
0.0000000000000303
 30
0.0
  0
POINT
  5
D6
330
1F
100
AcDbEntity
  8
치수문자_일반주서
100
AcDbPoint
 10
-69.34199994344937
 20
0.0000000000000086
 30
0.0
  0
DIMENSION
  5
D7
102
{ACAD_REACTORS
102
}
330
1F
100
AcDbEntity
  8
치수문자_일반주서
100
AcDbDimension
  2
_D
 10
29.08300005655064
 20
34.8986683898844
 30
0.0
 11
43.37050005655063
 21
34.8986683898844
 31
0.0
 70
   160
  1
<>
 71
     2
 42
28.57499999999999
  3
SLDDIMSTYLE0
100
AcDbAlignedDimension
 13
57.65800005655063
 23
12.7
 33
0.0
 14
29.08300005655064
 24
12.19200000000001
 34
0.0
100
AcDbRotatedDimension
1001
ACAD
1000
DSTYLE
1002
{
1070
   171
1070
     6
1070
   273
1070
     5
1002
}
  0
DIMENSION
  5
ED
330
1F
100
AcDbEntity
  8
치수문자_일반주서
100
AcDbDimension
  2
_D_1
 10
-69.34199994344938
 20
74.53475965011003
 30
0.0
 11
-6.349154505905792
 21
74.53475965011003
 31
0.0
 70
   160
  1
<>
 71
     2
 42
127.0
  3
SLDDIMSTYLE1
100
AcDbAlignedDimension
 13
57.65800005655063
 23
12.7
 33
0.0
 14
-69.34199994344938
 24
12.2
 34
0.0
100
AcDbRotatedDimension
1001
ACAD
1000
DSTYLE
1002
{
1070
   171
1070
     6
1070
   273
1070
     5
1002
}
  0
DIMENSION
  5
101
330
1F
100
AcDbEntity
  8
치수문자_일반주서
100
AcDbDimension
  2
_D_2
 10
-89.09000429095592
 20
-12.70000000000007
 30
0.0
 11
-89.09000429095596
 21
-0.0000000000000675
 31
0.0
 70
   160
  1
%%c<>
 71
     2
 42
25.39999999999999
 52
-270.0
  3
SLDDIMSTYLE2
100
AcDbAlignedDimension
 13
-68.84199994344938
 23
12.7
 33
0.0
 14
-68.84199994344938
 24
-12.69999999999999
 34
0.0
 50
90.0000000000002
100
AcDbRotatedDimension
1001
ACAD
1000
DSTYLE
1002
{
1070
   171
1070
     6
1070
   273
1070
     5
1002
}
  0
DIMENSION
  5
116
330
1F
100
AcDbEntity
  8
치수문자_일반주서
100
AcDbDimension
  2
_D_3
 10
57.65800005655063
 20
58.67259778227562
 30
0.0
 11
36.82411659573361
 21
58.67259778227562
 31
0.0
 70
   160
  1
<>
 71
     2
 42
57.15000005655062
  3
SLDDIMSTYLE1
100
AcDbAlignedDimension
 13
0.5080000000000016
 23
12.19200000000001
 33
0.0
 14
57.65800005655063
 24
12.7
 34
0.0
100
AcDbRotatedDimension
1001
ACAD
1000
DSTYLE
1002
{
1070
   171
1070
     6
1070
   273
1070
     5
1002
}
  0
INSERT
  5
12F
330
1F
100
AcDbEntity
  8
외형선
100
AcDbBlockReference
  2
SW_DOWELSYMBOL_0
 10
0.000000000000003
 20
0.0
 30
0.0
  0
ARC
  5
157
102
{ACAD_REACTORS
102
}
330
1F
100
AcDbEntity
  8
0
  6
Continuous
 62
     1
370
    15
100
AcDbCircle
 10
56.13400005655063
 20
-11.17600000000001
 30
0.0
 40
1.524
100
AcDbArc
 50
270.0
 51
0.0
  0
DIMENSION
  5
15B
102
{ACAD_XDICTIONARY
360
15C
102
}
330
1F
100
AcDbEntity
  8
치수문자_일반주서
100
AcDbDimension
  2
*D7
 10
75.32099183130711
 20
12.7
 30
0.0
 11
75.32099183130711
 21
-0.0000000000000018
 31
0.0
 70
   160
  1
{Ø<>[]}
 71
     5
 42
25.40000000000001
  3
SLDDIMSTYLE1
100
AcDbAlignedDimension
 13
57.65800005655063
 23
-12.70000000000001
 33
0.0
 14
57.65800005655063
 24
12.7
 34
0.0
 50
90.0
100
AcDbRotatedDimension
1001
ACAD
1000
DSTYLE
1002
{
1070
   171
1070
     6
1070
   273
1070
     5
1070
   283
1070
     1
1070
   170
1070
     1
1002
}
  0
DIMENSION
  5
16C
102
{ACAD_REACTORS
102
}
102
{ACAD_XDICTIONARY
360
16D
102
}
330
1F
100
AcDbEntity
  8
치수문자_일반주서
100
AcDbDimension
  2
*D8
 10
56.13400005655063
 20
-11.17600000000001
 30
0.0
 11
70.62470500486818
 21
-27.89927282863034
 31
0.0
 70
   164
  1
<>
 71
     5
 42
1.524
  3
SLDDIMSTYLE1
100
AcDbRadialDimension
 15
57.13200413921675
 25
-12.32776553646208
 35
0.0
 40
0.0
1001
ACAD_DSTYLE_DIMRADIAL_EXTENSION
1070
   387
1070
     1
1070
   388
1040
4.71238898038469
1070
   390
1040
0.0
  0
ARC
  5
179
102
{ACAD_REACTORS
102
}
330
1F
100
AcDbEntity
  8
0
  6
Continuous
 62
     1
370
    15
100
AcDbCircle
 10
56.13400005655063
 20
11.17600000000003
 30
0.0
 40
1.524
100
AcDbArc
 50
0.0
 51
90.0
  0
ENDSEC
  0
SECTION
  2
OBJECTS
  0
DICTIONARY
  5
C
330
0
100
AcDbDictionary
281
     1
  3
ACAD_GROUP
350
D
  3
ACAD_IMAGE_VARS
350
153
  3
ACAD_LAYOUT
350
1A
  3
ACAD_MLINESTYLE
350
17
  3
ACAD_PLOTSETTINGS
350
19
  3
ACAD_PLOTSTYLENAME
350
E
  3
ACAD_SCALELIST
350
47
  3
APPDATA
350
151
  3
DWGPROPS
350
17B
  0
DICTIONARY
  5
15C
330
15B
100
AcDbDictionary
280
     1
281
     1
  0
DICTIONARY
  5
16D
330
16C
100
AcDbDictionary
280
     1
281
     1
  0
DICTIONARY
  5
D
102
{ACAD_REACTORS
330
C
102
}
330
C
100
AcDbDictionary
281
     1
  0
RASTERVARIABLES
  5
153
102
{ACAD_REACTORS
330
C
102
}
330
C
100
AcDbRasterVariables
 90
        0
 70
     1
 71
     1
 72
     1
  0
DICTIONARY
  5
1A
102
{ACAD_REACTORS
330
C
102
}
330
C
100
AcDbDictionary
281
     1
  3
Layout1
350
1E
  3
Layout2
350
26
  3
Model
350
22
  0
DICTIONARY
  5
17
102
{ACAD_REACTORS
330
C
102
}
330
C
100
AcDbDictionary
281
     1
  3
Standard
350
18
  0
DICTIONARY
  5
19
102
{ACAD_REACTORS
330
C
102
}
330
C
100
AcDbDictionary
281
     1
  0
ACDBDICTIONARYWDFLT
  5
E
102
{ACAD_REACTORS
330
C
102
}
330
C
100
AcDbDictionary
281
     1
  3
Normal
350
F
100
AcDbDictionaryWithDefault
340
F
  0
DICTIONARY
  5
47
102
{ACAD_REACTORS
330
C
102
}
330
C
100
AcDbDictionary
281
     1
  3
A0
350
48
  3
A1
350
49
  3
A2
350
4A
  3
A3
350
4B
  3
A4
350
4C
  3
A5
350
4D
  3
A6
350
4E
  3
A7
350
4F
  3
A8
350
50
  3
A9
350
51
  3
B0
350
52
  3
B1
350
53
  3
B2
350
54
  3
B3
350
55
  3
B4
350
56
  3
B5
350
57
  3
B6
350
58
  3
B7
350
59
  3
B8
350
5A
  3
B9
350
5B
  3
C0
350
5C
  3
C1
350
5D
  3
C2
350
5E
  3
C3
350
5F
  3
C4
350
60
  3
C5
350
61
  3
C6
350
62
  3
C7
350
63
  3
C8
350
64
  3
C9
350
65
  3
D0
350
66
  3
D1
350
67
  3
D2
350
68
  0
DICTIONARY
  5
151
102
{ACAD_REACTORS
330
C
102
}
330
C
100
AcDbDictionary
281
     1
  0
XRECORD
  5
17B
102
{ACAD_REACTORS
330
C
102
}
330
C
100
AcDbXrecord
280
     1
  1
DWGPROPS COOKIE
  2

  3

  4

  6

  7

  8
12014074
  9

300
=
301
=
302
=
303
=
304
=
305
=
306
=
307
=
308
=
309
=
 40
0.0
 41
2458269.039239965
 42
2458270.121486227
  1

 90
        0
  0
LAYOUT
  5
1E
102
{ACAD_REACTORS
330
1A
102
}
330
1A
100
AcDbPlotSettings
  1

  2
none_device
  4

  6

 40
0.0
 41
0.0
 42
0.0
 43
0.0
 44
0.0
 45
0.0
 46
0.0
 47
0.0
 48
0.0
 49
0.0
140
0.0
141
0.0
142
1.0
143
1.0
 70
   688
 72
     1
 73
     0
 74
     5
  7

 75
    16
147
1.0
148
0.0
149
0.0
100
AcDbLayout
  1
Layout1
 70
     1
 71
     1
 10
0.0
 20
0.0
 11
420.0
 21
297.0
 12
0.0
 22
0.0
 32
0.0
 14
1.000000000000000E+20
 24
1.000000000000000E+20
 34
1.000000000000000E+20
 15
-1.000000000000000E+20
 25
-1.000000000000000E+20
 35
-1.000000000000000E+20
146
0.0
 13
0.0
 23
0.0
 33
0.0
 16
1.0
 26
0.0
 36
0.0
 17
0.0
 27
1.0
 37
0.0
 76
     0
330
1B
  0
LAYOUT
  5
26
102
{ACAD_REACTORS
330
1A
102
}
330
1A
100
AcDbPlotSettings
  1

  2
none_device
  4

  6

 40
0.0
 41
0.0
 42
0.0
 43
0.0
 44
0.0
 45
0.0
 46
0.0
 47
0.0
 48
0.0
 49
0.0
140
0.0
141
0.0
142
1.0
143
1.0
 70
   688
 72
     1
 73
     0
 74
     5
  7

 75
    16
147
1.0
148
0.0
149
0.0
100
AcDbLayout
  1
Layout2
 70
     1
 71
     2
 10
0.0
 20
0.0
 11
0.0
 21
0.0
 12
0.0
 22
0.0
 32
0.0
 14
0.0
 24
0.0
 34
0.0
 15
0.0
 25
0.0
 35
0.0
146
0.0
 13
0.0
 23
0.0
 33
0.0
 16
1.0
 26
0.0
 36
0.0
 17
0.0
 27
1.0
 37
0.0
 76
     0
330
23
  0
LAYOUT
  5
22
102
{ACAD_REACTORS
330
1A
102
}
330
1A
100
AcDbPlotSettings
  1

  2
none_device
  4
ANSI_A_(11.00_x_8.50_Inches)
  6

 40
6.35
 41
19.05
 42
6.35000508
 43
19.05000254
 44
279.4
 45
215.9
 46
161.5520623846128
 47
61.61449416479263
 48
0.0
 49
0.0
140
0.0
141
0.0
142
0.0618994311647792
143
1.0
 70
  1696
 72
     0
 73
     0
 74
     0
  7

 75
     0
147
0.0235690232323232
148
0.0
149
0.0
100
AcDbLayout
  1
Model
 70
     1
 71
     0
 10
0.0
 20
0.0
 11
420.0
 21
297.0
 12
0.0
 22
0.0
 32
0.0
 14
-93.46500429095602
 24
-49.87471488395509
 34
0.0
 15
82.52613401209544
 25
78.90975965011
 35
0.0
146
0.0
 13
0.0
 23
0.0
 33
0.0
 16
1.0
 26
0.0
 36
0.0
 17
0.0
 27
1.0
 37
0.0
 76
     0
330
1F
331
29
  0
MLINESTYLE
  5
18
102
{ACAD_REACTORS
330
17
102
}
330
17
100
AcDbMlineStyle
  2
Standard
 70
     0
  3

 62
   256
 51
90.0
 52
90.0
 71
     2
 49
0.5
 62
   256
  6
BYLAYER
 49
-0.5
 62
   256
  6
BYLAYER
  0
ACDBPLACEHOLDER
  5
F
102
{ACAD_REACTORS
330
E
102
}
330
E
  0
SCALE
  5
48
102
{ACAD_REACTORS
330
47
102
}
330
47
100
AcDbScale
 70
     0
300
1:1
140
1.0
141
1.0
290
     1
  0
SCALE
  5
49
102
{ACAD_REACTORS
330
47
102
}
330
47
100
AcDbScale
 70
     0
300
1:2
140
1.0
141
2.0
290
     0
  0
SCALE
  5
4A
102
{ACAD_REACTORS
330
47
102
}
330
47
100
AcDbScale
 70
     0
300
1:4
140
1.0
141
4.0
290
     0
  0
SCALE
  5
4B
102
{ACAD_REACTORS
330
47
102
}
330
47
100
AcDbScale
 70
     0
300
1:5
140
1.0
141
5.0
290
     0
  0
SCALE
  5
4C
102
{ACAD_REACTORS
330
47
102
}
330
47
100
AcDbScale
 70
     0
300
1:8
140
1.0
141
8.0
290
     0
  0
SCALE
  5
4D
102
{ACAD_REACTORS
330
47
102
}
330
47
100
AcDbScale
 70
     0
300
1:10
140
1.0
141
10.0
290
     0
  0
SCALE
  5
4E
102
{ACAD_REACTORS
330
47
102
}
330
47
100
AcDbScale
 70
     0
300
1:16
140
1.0
141
16.0
290
     0
  0
SCALE
  5
4F
102
{ACAD_REACTORS
330
47
102
}
330
47
100
AcDbScale
 70
     0
300
1:20
140
1.0
141
20.0
290
     0
  0
SCALE
  5
50
102
{ACAD_REACTORS
330
47
102
}
330
47
100
AcDbScale
 70
     0
300
1:30
140
1.0
141
30.0
290
     0
  0
SCALE
  5
51
102
{ACAD_REACTORS
330
47
102
}
330
47
100
AcDbScale
 70
     0
300
1:40
140
1.0
141
40.0
290
     0
  0
SCALE
  5
52
102
{ACAD_REACTORS
330
47
102
}
330
47
100
AcDbScale
 70
     0
300
1:50
140
1.0
141
50.0
290
     0
  0
SCALE
  5
53
102
{ACAD_REACTORS
330
47
102
}
330
47
100
AcDbScale
 70
     0
300
1:100
140
1.0
141
100.0
290
     0
  0
SCALE
  5
54
102
{ACAD_REACTORS
330
47
102
}
330
47
100
AcDbScale
 70
     0
300
2:1
140
2.0
141
1.0
290
     0
  0
SCALE
  5
55
102
{ACAD_REACTORS
330
47
102
}
330
47
100
AcDbScale
 70
     0
300
4:1
140
4.0
141
1.0
290
     0
  0
SCALE
  5
56
102
{ACAD_REACTORS
330
47
102
}
330
47
100
AcDbScale
 70
     0
300
8:1
140
8.0
141
1.0
290
     0
  0
SCALE
  5
57
102
{ACAD_REACTORS
330
47
102
}
330
47
100
AcDbScale
 70
     0
300
10:1
140
10.0
141
1.0
290
     0
  0
SCALE
  5
58
102
{ACAD_REACTORS
330
47
102
}
330
47
100
AcDbScale
 70
     0
300
100:1
140
100.0
141
1.0
290
     0
  0
SCALE
  5
59
102
{ACAD_REACTORS
330
47
102
}
330
47
100
AcDbScale
 70
     0
300
1/128" = 1'-0"
140
0.0078125
141
12.0
290
     0
  0
SCALE
  5
5A
102
{ACAD_REACTORS
330
47
102
}
330
47
100
AcDbScale
 70
     0
300
1/64" = 1'-0"
140
0.015625
141
12.0
290
     0
  0
SCALE
  5
5B
102
{ACAD_REACTORS
330
47
102
}
330
47
100
AcDbScale
 70
     0
300
1/32" = 1'-0"
140
0.03125
141
12.0
290
     0
  0
SCALE
  5
5C
102
{ACAD_REACTORS
330
47
102
}
330
47
100
AcDbScale
 70
     0
300
1/16" = 1'-0"
140
0.0625
141
12.0
290
     0
  0
SCALE
  5
5D
102
{ACAD_REACTORS
330
47
102
}
330
47
100
AcDbScale
 70
     0
300
3/32" = 1'-0"
140
0.09375
141
12.0
290
     0
  0
SCALE
  5
5E
102
{ACAD_REACTORS
330
47
102
}
330
47
100
AcDbScale
 70
     0
300
1/8" = 1'-0"
140
0.125
141
12.0
290
     0
  0
SCALE
  5
5F
102
{ACAD_REACTORS
330
47
102
}
330
47
100
AcDbScale
 70
     0
300
3/16" = 1'-0"
140
0.1875
141
12.0
290
     0
  0
SCALE
  5
60
102
{ACAD_REACTORS
330
47
102
}
330
47
100
AcDbScale
 70
     0
300
1/4" = 1'-0"
140
0.25
141
12.0
290
     0
  0
SCALE
  5
61
102
{ACAD_REACTORS
330
47
102
}
330
47
100
AcDbScale
 70
     0
300
3/8" = 1'-0"
140
0.375
141
12.0
290
     0
  0
SCALE
  5
62
102
{ACAD_REACTORS
330
47
102
}
330
47
100
AcDbScale
 70
     0
300
1/2" = 1'-0"
140
0.5
141
12.0
290
     0
  0
SCALE
  5
63
102
{ACAD_REACTORS
330
47
102
}
330
47
100
AcDbScale
 70
     0
300
3/4" = 1'-0"
140
0.75
141
12.0
290
     0
  0
SCALE
  5
64
102
{ACAD_REACTORS
330
47
102
}
330
47
100
AcDbScale
 70
     0
300
1" = 1'-0"
140
1.0
141
12.0
290
     0
  0
SCALE
  5
65
102
{ACAD_REACTORS
330
47
102
}
330
47
100
AcDbScale
 70
     0
300
1-1/2" = 1'-0"
140
1.5
141
12.0
290
     0
  0
SCALE
  5
66
102
{ACAD_REACTORS
330
47
102
}
330
47
100
AcDbScale
 70
     0
300
3" = 1'-0"
140
3.0
141
12.0
290
     0
  0
SCALE
  5
67
102
{ACAD_REACTORS
330
47
102
}
330
47
100
AcDbScale
 70
     0
300
6" = 1'-0"
140
6.0
141
12.0
290
     0
  0
SCALE
  5
68
102
{ACAD_REACTORS
330
47
102
}
330
47
100
AcDbScale
 70
     0
300
1'-0" = 1'-0"
140
12.0
141
12.0
290
     0
  0
ENDSEC
  0
EOF
