  0
SECTION
  2
HEADER
  9
$ACADVER
  1
AC1015
  9
$ACADMAINTVER
 70
     6
  9
$DWGCODEPAGE
  3
ANSI_949
  9
$INSBASE
 10
0.0
 20
0.0
 30
0.0
  9
$EXTMIN
 10
-88.94892765997717
 20
-43.14582468104787
 30
0.0
  9
$EXTMAX
 10
128.3577032292711
 20
74.14725965011003
 30
0.0
  9
$LIMMIN
 10
0.0
 20
0.0
  9
$LIMMAX
 10
420.0
 20
297.0
  9
$ORTHOMODE
 70
     1
  9
$REGENMODE
 70
     1
  9
$FILLMODE
 70
     1
  9
$QTEXTMODE
 70
     0
  9
$MIRRTEXT
 70
     1
  9
$LTSCALE
 40
1.0
  9
$ATTMODE
 70
     1
  9
$TEXTSIZE
 40
3.5
  9
$TRACEWID
 40
1.0
  9
$TEXTSTYLE
  7
Standard
  9
$CLAYER
  8
0
  9
$CELTYPE
  6
ByLayer
  9
$CECOLOR
 62
   256
  9
$CELTSCALE
 40
1.0
  9
$DISPSILH
 70
     0
  9
$DIMSCALE
 40
1.0
  9
$DIMASZ
 40
3.302
  9
$DIMEXO
 40
1.0
  9
$DIMDLI
 40
3.75
  9
$DIMRND
 40
0.0
  9
$DIMDLE
 40
0.0
  9
$DIMEXE
 40
1.0
  9
$DIMTP
 40
0.0
  9
$DIMTM
 40
0.0
  9
$DIMTXT
 40
3.5
  9
$DIMCEN
 40
2.5
  9
$DIMTSZ
 40
0.0
  9
$DIMTOL
 70
     0
  9
$DIMLIM
 70
     0
  9
$DIMTIH
 70
     1
  9
$DIMTOH
 70
     1
  9
$DIMSE1
 70
     0
  9
$DIMSE2
 70
     0
  9
$DIMTAD
 70
     1
  9
$DIMZIN
 70
     0
  9
$DIMBLK
  1

  9
$DIMASO
 70
     1
  9
$DIMSHO
 70
     1
  9
$DIMPOST
  1

  9
$DIMAPOST
  1

  9
$DIMALT
 70
     0
  9
$DIMALTD
 70
     3
  9
$DIMALTF
 40
0.0393700787401575
  9
$DIMLFAC
 40
1.0
  9
$DIMTOFL
 70
     1
  9
$DIMTVP
 40
0.0
  9
$DIMTIX
 70
     0
  9
$DIMSOXD
 70
     0
  9
$DIMSAH
 70
     0
  9
$DIMBLK1
  1

  9
$DIMBLK2
  1

  9
$DIMSTYLE
  2
ISO-25
  9
$DIMCLRD
 70
     0
  9
$DIMCLRE
 70
     0
  9
$DIMCLRT
 70
     0
  9
$DIMTFAC
 40
1.0
  9
$DIMGAP
 40
1.524
  9
$DIMJUST
 70
     0
  9
$DIMSD1
 70
     0
  9
$DIMSD2
 70
     0
  9
$DIMTOLJ
 70
     0
  9
$DIMTZIN
 70
     0
  9
$DIMALTZ
 70
     0
  9
$DIMALTTZ
 70
     0
  9
$DIMUPT
 70
     0
  9
$DIMDEC
 70
     2
  9
$DIMTDEC
 70
     2
  9
$DIMALTU
 70
     2
  9
$DIMALTTD
 70
     3
  9
$DIMTXSTY
  7
Standard
  9
$DIMAUNIT
 70
     0
  9
$DIMADEC
 70
     2
  9
$DIMALTRND
 40
0.0
  9
$DIMAZIN
 70
     0
  9
$DIMDSEP
 70
    44
  9
$DIMATFIT
 70
     3
  9
$DIMFRAC
 70
     0
  9
$DIMLDRBLK
  1

  9
$DIMLUNIT
 70
     2
  9
$DIMLWD
 70
    -2
  9
$DIMLWE
 70
    -2
  9
$DIMTMOVE
 70
     0
  9
$LUNITS
 70
     2
  9
$LUPREC
 70
     2
  9
$SKETCHINC
 40
1.0
  9
$FILLETRAD
 40
10.0
  9
$AUNITS
 70
     0
  9
$AUPREC
 70
     2
  9
$MENU
  1
.
  9
$ELEVATION
 40
0.0
  9
$PELEVATION
 40
0.0
  9
$THICKNESS
 40
0.0
  9
$LIMCHECK
 70
     0
  9
$CHAMFERA
 40
0.0
  9
$CHAMFERB
 40
0.0
  9
$CHAMFERC
 40
0.0
  9
$CHAMFERD
 40
0.0
  9
$SKPOLY
 70
     0
  9
$TDCREATE
 40
2458269.416536563
  9
$TDUCREATE
 40
2458269.041536563
  9
$TDUPDATE
 40
2458270.506977222
  9
$TDUUPDATE
 40
2458270.131977222
  9
$TDINDWG
 40
0.0040540856
  9
$TDUSRTIMER
 40
2458270.130453194
  9
$USRTIMER
 70
     1
  9
$ANGBASE
 50
0.0
  9
$ANGDIR
 70
     0
  9
$PDMODE
 70
     0
  9
$PDSIZE
 40
-1.0
  9
$PLINEWID
 40
0.0
  9
$SPLFRAME
 70
     0
  9
$SPLINETYPE
 70
     6
  9
$SPLINESEGS
 70
     8
  9
$HANDSEED
  5
1D0
  9
$SURFTAB1
 70
     6
  9
$SURFTAB2
 70
     6
  9
$SURFTYPE
 70
     6
  9
$SURFU
 70
     6
  9
$SURFV
 70
     6
  9
$UCSBASE
  2

  9
$UCSNAME
  2

  9
$UCSORG
 10
0.0
 20
0.0
 30
0.0
  9
$UCSXDIR
 10
1.0
 20
0.0
 30
0.0
  9
$UCSYDIR
 10
0.0
 20
1.0
 30
0.0
  9
$UCSORTHOREF
  2

  9
$UCSORTHOVIEW
 70
     0
  9
$UCSORGTOP
 10
0.0
 20
0.0
 30
0.0
  9
$UCSORGBOTTOM
 10
0.0
 20
0.0
 30
0.0
  9
$UCSORGLEFT
 10
0.0
 20
0.0
 30
0.0
  9
$UCSORGRIGHT
 10
0.0
 20
0.0
 30
0.0
  9
$UCSORGFRONT
 10
0.0
 20
0.0
 30
0.0
  9
$UCSORGBACK
 10
0.0
 20
0.0
 30
0.0
  9
$PUCSBASE
  2

  9
$PUCSNAME
  2

  9
$PUCSORG
 10
0.0
 20
0.0
 30
0.0
  9
$PUCSXDIR
 10
1.0
 20
0.0
 30
0.0
  9
$PUCSYDIR
 10
0.0
 20
1.0
 30
0.0
  9
$PUCSORTHOREF
  2

  9
$PUCSORTHOVIEW
 70
     0
  9
$PUCSORGTOP
 10
0.0
 20
0.0
 30
0.0
  9
$PUCSORGBOTTOM
 10
0.0
 20
0.0
 30
0.0
  9
$PUCSORGLEFT
 10
0.0
 20
0.0
 30
0.0
  9
$PUCSORGRIGHT
 10
0.0
 20
0.0
 30
0.0
  9
$PUCSORGFRONT
 10
0.0
 20
0.0
 30
0.0
  9
$PUCSORGBACK
 10
0.0
 20
0.0
 30
0.0
  9
$USERI1
 70
     0
  9
$USERI2
 70
     0
  9
$USERI3
 70
     0
  9
$USERI4
 70
     0
  9
$USERI5
 70
     0
  9
$USERR1
 40
0.0
  9
$USERR2
 40
0.0
  9
$USERR3
 40
0.0
  9
$USERR4
 40
0.0
  9
$USERR5
 40
0.0
  9
$WORLDVIEW
 70
     1
  9
$SHADEDGE
 70
     3
  9
$SHADEDIF
 70
    70
  9
$TILEMODE
 70
     1
  9
$MAXACTVP
 70
    64
  9
$PINSBASE
 10
0.0
 20
0.0
 30
0.0
  9
$PLIMCHECK
 70
     0
  9
$PEXTMIN
 10
1.000000000000000E+20
 20
1.000000000000000E+20
 30
1.000000000000000E+20
  9
$PEXTMAX
 10
-1.000000000000000E+20
 20
-1.000000000000000E+20
 30
-1.000000000000000E+20
  9
$PLIMMIN
 10
0.0
 20
0.0
  9
$PLIMMAX
 10
0.0
 20
0.0
  9
$UNITMODE
 70
     0
  9
$VISRETAIN
 70
     1
  9
$PLINEGEN
 70
     0
  9
$PSLTSCALE
 70
     1
  9
$TREEDEPTH
 70
  3020
  9
$CMLSTYLE
  2
Standard
  9
$CMLJUST
 70
     0
  9
$CMLSCALE
 40
20.0
  9
$PROXYGRAPHICS
 70
     1
  9
$MEASUREMENT
 70
     1
  9
$CELWEIGHT
370
    -1
  9
$ENDCAPS
280
     0
  9
$JOINSTYLE
280
     0
  9
$LWDISPLAY
290
     1
  9
$INSUNITS
 70
     4
  9
$HYPERLINKBASE
  1

  9
$STYLESHEET
  1

  9
$XEDIT
290
     1
  9
$CEPSNTYPE
380
     0
  9
$PSTYLEMODE
290
     1
  9
$FINGERPRINTGUID
  2
{68943F5D-D2DE-4472-B23A-6EEABBC31E42}
  9
$VERSIONGUID
  2
{FAEB1C32-E019-11D5-929B-00C0DF256EC4}
  9
$EXTNAMES
290
     1
  9
$PSVPSCALE
 40
0.0
  9
$OLESTARTUP
290
     0
  0
ENDSEC
  0
SECTION
  2
CLASSES
  0
CLASS
  1
ACDBDICTIONARYWDFLT
  2
AcDbDictionaryWithDefault
  3
ObjectDBX Classes
 90
        0
280
     0
281
     0
  0
CLASS
  1
VISUALSTYLE
  2
AcDbVisualStyle
  3
ObjectDBX Classes
 90
     4095
280
     0
281
     0
  0
CLASS
  1
MATERIAL
  2
AcDbMaterial
  3
ObjectDBX Classes
 90
     1153
280
     0
281
     0
  0
CLASS
  1
SCALE
  2
AcDbScale
  3
ObjectDBX Classes
 90
     1153
280
     0
281
     0
  0
CLASS
  1
SUN
  2
AcDbSun
  3
SCENEOE
 90
     1153
280
     0
281
     0
  0
CLASS
  1
ACDBPLACEHOLDER
  2
AcDbPlaceHolder
  3
ObjectDBX Classes
 90
        0
280
     0
281
     0
  0
CLASS
  1
LAYOUT
  2
AcDbLayout
  3
ObjectDBX Classes
 90
        0
280
     0
281
     0
  0
CLASS
  1
TABLESTYLE
  2
AcDbTableStyle
  3
ObjectDBX Classes
 90
     4095
280
     0
281
     0
  0
CLASS
  1
MLEADERSTYLE
  2
AcDbMLeaderStyle
  3
ACDB_MLEADERSTYLE_CLASS
 90
     4095
280
     0
281
     0
  0
CLASS
  1
RASTERVARIABLES
  2
AcDbRasterVariables
  3
ISM
 90
        0
280
     0
281
     0
  0
CLASS
  1
DIMASSOC
  2
AcDbDimAssoc
  3
"AcDbDimAssoc|Product Desc:     AcDim ARX App For Dimension|Company:          Autodesk, Inc.|WEB Address:      www.autodesk.com"
 90
        0
280
     0
281
     0
  0
ENDSEC
  0
SECTION
  2
TABLES
  0
TABLE
  2
VPORT
  5
8
330
0
100
AcDbSymbolTable
 70
     1
  0
VPORT
  5
29
330
8
100
AcDbSymbolTableRecord
100
AcDbViewportTableRecord
  2
*Active
 70
     0
 10
0.0
 20
0.0
 11
1.0
 21
1.0
 12
72.13578486682434
 22
37.99555818998525
 13
0.0
 23
0.0
 14
10.0
 24
10.0
 15
10.0
 25
10.0
 16
0.0
 26
0.0
 36
1.0
 17
0.0
 27
0.0
 37
0.0
 40
264.0774479982606
 41
1.970186335403727
 42
50.0
 43
0.0
 44
0.0
 50
0.0
 51
0.0
 71
    16
 72
  2000
 73
     1
 74
     3
 75
     0
 76
     0
 77
     0
 78
     0
281
     0
 65
     1
110
0.0
120
0.0
130
0.0
111
1.0
121
0.0
131
0.0
112
0.0
122
1.0
132
0.0
 79
     0
146
0.0
  0
ENDTAB
  0
TABLE
  2
LTYPE
  5
5
330
0
100
AcDbSymbolTable
 70
     6
  0
LTYPE
  5
14
330
5
100
AcDbSymbolTableRecord
100
AcDbLinetypeTableRecord
  2
ByBlock
 70
     0
  3

 72
    65
 73
     0
 40
0.0
  0
LTYPE
  5
15
330
5
100
AcDbSymbolTableRecord
100
AcDbLinetypeTableRecord
  2
ByLayer
 70
     0
  3

 72
    65
 73
     0
 40
0.0
  0
LTYPE
  5
16
330
5
100
AcDbSymbolTableRecord
100
AcDbLinetypeTableRecord
  2
Continuous
 70
     0
  3
Solid line
 72
    65
 73
     0
 40
0.0
  0
LTYPE
  5
6A
330
5
100
AcDbSymbolTableRecord
100
AcDbLinetypeTableRecord
  2
HIDDEN
 70
     0
  3
Hidden __ __ __ __ __ __ __ __ __ __ __ __ __ __
 72
    65
 73
     2
 40
1.905
 49
1.27
 74
     0
 49
-0.635
 74
     0
  0
LTYPE
  5
6B
330
5
100
AcDbSymbolTableRecord
100
AcDbLinetypeTableRecord
  2
PHANTOM
 70
     0
  3
Phantom ______  __  __  ______  __  __  ______
 72
    65
 73
     6
 40
12.7
 49
6.35
 74
     0
 49
-1.27
 74
     0
 49
1.27
 74
     0
 49
-1.27
 74
     0
 49
1.27
 74
     0
 49
-1.27
 74
     0
  0
LTYPE
  5
6C
330
5
100
AcDbSymbolTableRecord
100
AcDbLinetypeTableRecord
  2
CENTER
 70
     0
  3
Center ____ _ ____ _ ____ _ ____ _ ____ _ ____
 72
    65
 73
     4
 40
10.16
 49
6.35
 74
     0
 49
-1.27
 74
     0
 49
1.27
 74
     0
 49
-1.27
 74
     0
  0
LTYPE
  5
6D
330
5
100
AcDbSymbolTableRecord
100
AcDbLinetypeTableRecord
  2
CENTERX2
 70
     0
  3
Center (2x) ________  __  ________  __  _____
 72
    65
 73
     4
 40
20.32
 49
12.7
 74
     0
 49
-2.54
 74
     0
 49
2.54
 74
     0
 49
-2.54
 74
     0
  0
LTYPE
  5
6E
330
5
100
AcDbSymbolTableRecord
100
AcDbLinetypeTableRecord
  2
DOT2
 70
     0
  3
Dot (.5x) ........................................
 72
    65
 73
     2
 40
0.635
 49
0.0
 74
     0
 49
-0.635
 74
     0
  0
ENDTAB
  0
TABLE
  2
LAYER
  5
2
330
0
100
AcDbSymbolTable
 70
    17
  0
LAYER
  5
10
330
2
100
AcDbSymbolTableRecord
100
AcDbLayerTableRecord
  2
0
 70
     0
 62
     7
  6
Continuous
370
    -3
390
F
  0
LAYER
  5
6F
330
2
100
AcDbSymbolTableRecord
100
AcDbLayerTableRecord
  2
FORMAT
 70
     0
 62
     2
  6
Continuous
370
    -3
390
F
  0
LAYER
  5
70
330
2
100
AcDbSymbolTableRecord
100
AcDbLayerTableRecord
  2
외형선
 70
     0
 62
   100
  6
Continuous
370
    30
390
F
  0
LAYER
  5
71
330
2
100
AcDbSymbolTableRecord
100
AcDbLayerTableRecord
  2
숨은선
 70
     0
 62
     2
  6
HIDDEN
370
    15
390
F
  0
LAYER
  5
72
330
2
100
AcDbSymbolTableRecord
100
AcDbLayerTableRecord
  2
중심선
 70
     0
 62
     1
  6
CENTERX2
370
    -3
390
F
  0
LAYER
  5
73
330
2
100
AcDbSymbolTableRecord
100
AcDbLayerTableRecord
  2
파단선
 70
     0
 62
     4
  6
Continuous
370
    -3
390
F
  0
LAYER
  5
74
330
2
100
AcDbSymbolTableRecord
100
AcDbLayerTableRecord
  2
해칭선
 70
     0
 62
     4
  6
Continuous
370
    -3
390
F
  0
LAYER
  5
75
330
2
100
AcDbSymbolTableRecord
100
AcDbLayerTableRecord
  2
가는실선
 70
     0
 62
     4
  6
Continuous
370
    -3
390
F
  0
LAYER
  5
76
330
2
100
AcDbSymbolTableRecord
100
AcDbLayerTableRecord
  2
치수_보조선
 70
     0
 62
     4
  6
Continuous
370
    -3
390
F
  0
LAYER
  5
77
330
2
100
AcDbSymbolTableRecord
100
AcDbLayerTableRecord
  2
치수문자_일반주서
 70
     0
 62
     7
  6
Continuous
370
    15
390
F
  0
LAYER
  5
78
330
2
100
AcDbSymbolTableRecord
100
AcDbLayerTableRecord
  2
개별주서
 70
     0
 62
   100
  6
Continuous
370
    30
390
F
  0
LAYER
  5
79
330
2
100
AcDbSymbolTableRecord
100
AcDbLayerTableRecord
  2
중간선
 70
     0
 62
     2
  6
Continuous
370
    15
390
F
  0
LAYER
  5
7A
330
2
100
AcDbSymbolTableRecord
100
AcDbLayerTableRecord
  2
윤곽선
 70
     0
 62
     3
  6
Continuous
370
    40
390
F
  0
LAYER
  5
7B
330
2
100
AcDbSymbolTableRecord
100
AcDbLayerTableRecord
  2
중심마크
 70
     0
 62
   100
  6
Continuous
370
    30
390
F
  0
LAYER
  5
7C
330
2
100
AcDbSymbolTableRecord
100
AcDbLayerTableRecord
  2
가상선
 70
     0
 62
     4
  6
PHANTOM
370
    -3
390
F
  0
LAYER
  5
7D
330
2
100
AcDbSymbolTableRecord
100
AcDbLayerTableRecord
  2
특수지정선
 70
     0
 62
     5
  6
CENTERX2
370
    60
390
F
  0
LAYER
  5
159
330
2
100
AcDbSymbolTableRecord
100
AcDbLayerTableRecord
  2
Defpoints
 70
     0
 62
     7
  6
Continuous
290
     0
370
    -3
390
F
  0
ENDTAB
  0
TABLE
  2
STYLE
  5
3
330
0
100
AcDbSymbolTable
 70
     2
  0
STYLE
  5
11
330
3
100
AcDbSymbolTableRecord
100
AcDbTextStyleTableRecord
  2
Standard
 70
     0
 40
0.0
 41
1.0
 50
0.0
 71
     0
 42
3.5
  3
txt
  4

  0
STYLE
  5
93
330
3
100
AcDbSymbolTableRecord
100
AcDbTextStyleTableRecord
  2
SLDTEXTSTYLE0
 70
     0
 40
0.0
 41
0.75
 50
0.0
 71
     0
 42
3.5
  3
TXT
  4

  0
ENDTAB
  0
TABLE
  2
VIEW
  5
6
330
0
100
AcDbSymbolTable
 70
     0
  0
ENDTAB
  0
TABLE
  2
UCS
  5
7
330
0
100
AcDbSymbolTable
 70
     0
  0
ENDTAB
  0
TABLE
  2
APPID
  5
9
330
0
100
AcDbSymbolTable
 70
     3
  0
APPID
  5
12
330
9
100
AcDbSymbolTableRecord
100
AcDbRegAppTableRecord
  2
ACAD
 70
     0
  0
APPID
  5
16B
330
9
100
AcDbSymbolTableRecord
100
AcDbRegAppTableRecord
  2
ACAD_DSTYLE_DIMRADIAL_EXTENSION
 70
     0
  0
APPID
  5
17D
330
9
100
AcDbSymbolTableRecord
100
AcDbRegAppTableRecord
  2
PE_DIMMEASUREMENT
 70
     0
  0
ENDTAB
  0
TABLE
  2
DIMSTYLE
  5
A
330
0
100
AcDbSymbolTable
 70
     3
100
AcDbDimStyleTable
  0
DIMSTYLE
105
27
330
A
100
AcDbSymbolTableRecord
100
AcDbDimStyleTableRecord
  2
ISO-25
 70
     0
 41
2.5
 42
0.625
 43
3.75
 44
1.25
 73
     0
 74
     0
 77
     1
 78
     8
140
2.5
141
2.5
143
0.03937007874016
147
0.625
171
     3
172
     1
178
     0
271
     2
272
     2
274
     3
278
    44
283
     0
284
     8
340
11
  0
DIMSTYLE
105
D7
102
{ACAD_REACTORS
330
D6
330
100
102
}
330
A
100
AcDbSymbolTableRecord
100
AcDbDimStyleTableRecord
  2
SLDDIMSTYLE0
 70
     0
 41
3.302
 44
0.0
 45
0.000000001
 73
     0
 74
     0
 77
     1
 78
    12
 79
     3
140
3.5
143
0.0393700787401575
147
0.875
148
0.000000001
170
     1
172
     1
173
     1
178
     0
271
     2
272
     2
276
     2
284
    12
289
     0
340
93
  0
DIMSTYLE
105
ED
102
{ACAD_REACTORS
330
EC
330
114
330
15A
330
16C
102
}
330
A
100
AcDbSymbolTableRecord
100
AcDbDimStyleTableRecord
  2
SLDDIMSTYLE1
 70
     0
 41
3.302
 44
0.0
 45
0.000000001
 73
     0
 74
     0
 77
     1
 78
    12
 79
     3
140
3.5
143
0.0393700787401575
147
0.875
148
0.000000001
170
     1
173
     1
178
     0
271
     2
272
     2
276
     2
284
    12
340
93
  0
ENDTAB
  0
TABLE
  2
BLOCK_RECORD
  5
1
330
0
100
AcDbSymbolTable
 70
     9
  0
BLOCK_RECORD
  5
1F
330
1
100
AcDbSymbolTableRecord
100
AcDbBlockTableRecord
  2
*Model_Space
340
22
  0
BLOCK_RECORD
  5
1B
330
1
100
AcDbSymbolTableRecord
100
AcDbBlockTableRecord
  2
*Paper_Space
340
1E
  0
BLOCK_RECORD
  5
23
330
1
100
AcDbSymbolTableRecord
100
AcDbBlockTableRecord
  2
*Paper_Space0
340
26
  0
BLOCK_RECORD
  5
7E
330
1
100
AcDbSymbolTableRecord
100
AcDbBlockTableRecord
  2
블럭10
340
0
102
{BLKREFS
331
CD
102
}
  0
BLOCK_RECORD
  5
D8
330
1
100
AcDbSymbolTableRecord
100
AcDbBlockTableRecord
  2
_D
340
0
  0
BLOCK_RECORD
  5
EE
330
1
100
AcDbSymbolTableRecord
100
AcDbBlockTableRecord
  2
_D_1
340
0
  0
BLOCK_RECORD
  5
101
330
1
100
AcDbSymbolTableRecord
100
AcDbBlockTableRecord
  2
_D_2
340
0
  0
BLOCK_RECORD
  5
115
330
1
100
AcDbSymbolTableRecord
100
AcDbBlockTableRecord
  2
_D_3
340
0
  0
BLOCK_RECORD
  5
127
330
1
100
AcDbSymbolTableRecord
100
AcDbBlockTableRecord
  2
SW_DOWELSYMBOL_0
340
0
102
{BLKREFS
331
12D
102
}
  0
BLOCK_RECORD
  5
15D
330
1
100
AcDbSymbolTableRecord
100
AcDbBlockTableRecord
  2
*D7
340
0
  0
BLOCK_RECORD
  5
16F
330
1
100
AcDbSymbolTableRecord
100
AcDbBlockTableRecord
  2
*D8
340
0
  0
ENDTAB
  0
ENDSEC
  0
SECTION
  2
BLOCKS
  0
BLOCK
  5
20
330
1F
100
AcDbEntity
  8
0
100
AcDbBlockBegin
  2
*Model_Space
 70
     0
 10
0.0
 20
0.0
 30
0.0
  3
*Model_Space
  1
*Model_Space
  0
ENDBLK
  5
21
330
1F
100
AcDbEntity
  8
0
100
AcDbBlockEnd
  0
BLOCK
  5
1C
330
1B
100
AcDbEntity
 67
     1
  8
0
100
AcDbBlockBegin
  2
*Paper_Space
 70
     0
 10
0.0
 20
0.0
 30
0.0
  3
*Paper_Space
  1
*Paper_Space
  0
ENDBLK
  5
1D
330
1B
100
AcDbEntity
 67
     1
  8
0
100
AcDbBlockEnd
  0
BLOCK
  5
24
330
23
100
AcDbEntity
  8
0
100
AcDbBlockBegin
  2
*Paper_Space0
 70
     0
 10
0.0
 20
0.0
 30
0.0
  3
*Paper_Space0
  1
*Paper_Space0
  0
ENDBLK
  5
25
330
23
100
AcDbEntity
  8
0
100
AcDbBlockEnd
  0
BLOCK
  5
7F
330
7E
100
AcDbEntity
  8
0
100
AcDbBlockBegin
  2
블럭10
 70
     2
 10
0.0
 20
0.0
 30
0.0
  3
블럭10
  1
블럭10
  0
ELLIPSE
  5
81
330
7E
100
AcDbEntity
  8
중심선
100
AcDbEllipse
 10
20.54032771741204
 20
12.0471743016438
 30
0.0
 11
6.600054785286829
 21
-1.261213355974178E-13
 31
0.0
210
0.0
220
0.0
230
1.0
 40
0.636358354079598
 41
0.9219305317359503
 42
6.513795318482858
  0
ELLIPSE
  5
82
330
7E
100
AcDbEntity
  8
중심선
100
AcDbEllipse
 10
20.54032771746488
 20
12.04717430159265
 30
0.0
 11
3.960054785062283
 21
1.540847449632565E-10
 31
0.0
210
0.0
220
0.0
230
1.0
 40
0.3939339440162632
 41
1.131841032648279
 42
5.62031148352944
  0
LINE
  5
83
330
7E
100
AcDbEntity
  8
중심선
100
AcDbLine
 10
2.268634060543552
 20
16.24717430164393
 30
0.0
 11
5.714909304380834
 21
16.24717430164393
 31
0.0
  0
LINE
  5
84
330
7E
100
AcDbEntity
  8
중심선
100
AcDbLine
 10
5.245725140726316
 20
7.84717430164391
 30
0.0
 11
8.692000384563599
 21
7.84717430164391
 31
0.0
  0
LINE
  5
85
330
7E
100
AcDbEntity
  8
중심선
100
AcDbLine
 10
15.74043728645272
 20
16.24717430164393
 30
0.0
 11
8.692000384563599
 21
7.84717430164391
 31
0.0
  0
LINE
  5
86
330
7E
100
AcDbEntity
  8
중심선
100
AcDbLine
 10
0.1404042013395286
 20
13.71084872107135
 30
0.0
 11
3.58671253028996
 21
13.71088815037384
 31
0.0
  0
LINE
  5
87
330
7E
100
AcDbEntity
  8
중심선
100
AcDbLine
 10
2.750260043222114
 20
10.84717430164391
 30
0.0
 11
6.196535287059397
 21
10.84717430164391
 31
0.0
  0
LINE
  5
88
330
7E
100
AcDbEntity
  8
중심선
100
AcDbLine
 10
12.29416204261559
 20
16.24717430164393
 30
0.0
 11
5.245725140726316
 21
7.84717430164391
 31
0.0
  0
LINE
  5
89
330
7E
100
AcDbEntity
  8
중심선
100
AcDbLine
 10
10.72767329541681
 20
16.24717430164393
 30
0.0
 11
6.196535287059397
 21
10.84717430164391
 31
0.0
  0
LINE
  5
8A
330
7E
100
AcDbEntity
  8
중심선
100
AcDbLine
 10
7.28139805157953
 20
16.24717430164393
 30
0.0
 11
2.750260043222114
 21
10.84717430164391
 31
0.0
  0
LINE
  5
8B
330
7E
100
AcDbEntity
  8
중심선
100
AcDbLine
 10
5.714909304380834
 20
16.24717430164393
 30
0.0
 11
3.58671253028996
 21
13.71088815037384
 31
0.0
  0
LINE
  5
8C
330
7E
100
AcDbEntity
  8
중심선
100
AcDbLine
 10
2.268634060543552
 20
16.24717430164393
 30
0.0
 11
0.1404042013395286
 21
13.71084872107135
 31
0.0
  0
LINE
  5
8D
330
7E
100
AcDbEntity
  8
중심선
100
AcDbLine
 10
7.28139805157953
 20
16.24717430164393
 30
0.0
 11
10.72767329541681
 21
16.24717430164393
 31
0.0
  0
LINE
  5
8E
330
7E
100
AcDbEntity
  8
중심선
100
AcDbLine
 10
12.29416204261559
 20
16.24717430164393
 30
0.0
 11
15.74043728645272
 21
16.24717430164393
 31
0.0
  0
LINE
  5
8F
330
7E
100
AcDbEntity
  8
중심선
100
AcDbLine
 10
19.22036997980202
 20
11.08717430171403
 30
0.0
 11
23.66174974927406
 21
11.08717430171406
 31
0.0
  0
LINE
  5
90
330
7E
100
AcDbEntity
  8
중심선
100
AcDbLine
 10
19.22039502424796
 20
13.00717430171391
 30
0.0
 11
19.22036997980202
 21
11.08717430171403
 31
0.0
  0
LINE
  5
91
330
7E
100
AcDbEntity
  8
중심선
100
AcDbLine
 10
19.22039502424796
 20
13.00717430171391
 30
0.0
 11
26.96566020931264
 21
13.00717430171391
 31
0.0
  0
LINE
  5
92
330
7E
100
AcDbEntity
  8
중심선
100
AcDbLine
 10
22.22332737316547
 20
13.45928029700563
 30
0.0
 11
24.52862924686651
 21
15.39360700705356
 31
0.0
  0
ATTDEF
  5
94
330
7E
100
AcDbEntity
  8
FORMAT
 62
     2
100
AcDbText
 10
-9.18129528874128
 20
2.075366912832191
 30
0.0
 40
4.233333333333333
  1
E5985040 [ 3 FLUTE ]
 41
0.75
  7
SLDTEXTSTYLE0
 11
-9.18129528874128
 21
-0.0412997538344756
 31
0.0
100
AcDbAttributeDefinition
  3

  2
AUTOATTR0
 70
     0
 74
     1
  0
ENDBLK
  5
80
330
7E
100
AcDbEntity
  8
0
100
AcDbBlockEnd
  0
BLOCK
  5
D9
330
D8
100
AcDbEntity
  8
0
100
AcDbBlockBegin
  2
_D
 70
     0
 10
0.0
 20
0.0
 30
0.0
  3
_D
  1
_D
  0
LINE
  5
DB
330
D8
100
AcDbEntity
  8
치수문자_일반주서
 62
     0
370
    -2
100
AcDbLine
 10
108.4580000818168
 20
7.999999999999999
 30
0.0
 11
108.4580000818168
 21
25.44684348840691
 31
0.0
  0
LINE
  5
DC
330
D8
100
AcDbEntity
  8
치수문자_일반주서
 62
     0
370
    -2
100
AcDbLine
 10
89.4080000818168
 20
7.780180084663576
 30
0.0
 11
89.4080000818168
 21
25.44684348840691
 31
0.0
  0
LINE
  5
DD
330
D8
100
AcDbEntity
  8
치수문자_일반주서
 62
     0
370
    -2
100
AcDbLine
 10
89.4080000818168
 20
25.44684348840691
 30
0.0
 11
57.86650008181678
 21
25.44684348840691
 31
0.0
  0
LINE
  5
DE
330
D8
100
AcDbEntity
  8
치수문자_일반주서
 62
     0
370
    -2
100
AcDbLine
 10
108.4580000818168
 20
25.44684348840691
 30
0.0
 11
89.4080000818168
 21
25.44684348840691
 31
0.0
  0
LINE
  5
DF
330
D8
100
AcDbEntity
  8
치수문자_일반주서
 62
     0
370
    -2
100
AcDbLine
 10
111.7600000818168
 20
25.44684348840691
 30
0.0
 11
115.0620000818168
 21
25.44684348840691
 31
0.0
  0
LINE
  5
E0
330
D8
100
AcDbEntity
  8
치수문자_일반주서
 62
     0
370
    -2
100
AcDbLine
 10
86.10600008181679
 20
25.44684348840691
 30
0.0
 11
82.80400008181678
 21
25.44684348840691
 31
0.0
  0
SOLID
  5
E1
330
D8
100
AcDbEntity
  8
치수문자_일반주서
 62
     0
100
AcDbTrace
 10
111.7600000818168
 20
25.99717682174024
 30
0.0
 11
111.7600000818168
 21
24.89651015507357
 31
0.0
 12
108.4580000818168
 22
25.44684348840691
 32
0.0
 13
108.4580000818168
 23
25.44684348840691
 33
0.0
  0
SOLID
  5
E2
330
D8
100
AcDbEntity
  8
치수문자_일반주서
 62
     0
100
AcDbTrace
 10
86.10600008181679
 20
24.89651015507357
 30
0.0
 11
86.10600008181679
 21
25.99717682174024
 31
0.0
 12
89.4080000818168
 22
25.44684348840691
 32
0.0
 13
89.4080000818168
 23
25.44684348840691
 33
0.0
  0
MTEXT
  5
E3
330
D8
100
AcDbEntity
  8
치수문자_일반주서
 62
     0
100
AcDbMText
 10
70.33525008181678
 20
29.82184348840691
 30
0.0
 40
3.5
 41
0.0
 71
     2
 72
     1
  1
\A1;19.05 [3/4]
  7
SLDTEXTSTYLE0
 73
     1
 44
1.0
  0
POINT
  5
17E
330
D8
100
AcDbEntity
  8
Defpoints
 62
     0
100
AcDbPoint
 10
108.4580000818168
 20
7.937499999999999
 30
0.0
  0
POINT
  5
17F
330
D8
100
AcDbEntity
  8
Defpoints
 62
     0
100
AcDbPoint
 10
89.4080000818168
 20
7.717680084663576
 30
0.0
  0
POINT
  5
180
330
D8
100
AcDbEntity
  8
Defpoints
 62
     0
100
AcDbPoint
 10
89.4080000818168
 20
25.44684348840691
 30
0.0
  0
ENDBLK
  5
DA
330
D8
100
AcDbEntity
  8
0
100
AcDbBlockEnd
  0
BLOCK
  5
EF
330
EE
100
AcDbEntity
  8
0
100
AcDbBlockBegin
  2
_D_1
 70
     0
 10
0.0
 20
0.0
 30
0.0
  3
_D_1
  1
_D_1
  0
LINE
  5
F1
330
EE
100
AcDbEntity
  8
치수문자_일반주서
 62
     0
370
    -2
100
AcDbLine
 10
108.4580000818168
 20
7.999999999999999
 30
0.0
 11
108.4580000818168
 21
69.77225965011003
 31
0.0
  0
LINE
  5
F2
330
EE
100
AcDbEntity
  8
치수문자_일반주서
 62
     0
370
    -2
100
AcDbLine
 10
-69.34199991818323
 20
7.499999999999994
 30
0.0
 11
-69.34199991818323
 21
69.77225965011003
 31
0.0
  0
LINE
  5
F3
330
EE
100
AcDbEntity
  8
치수문자_일반주서
 62
     0
370
    -2
100
AcDbLine
 10
105.1560000818168
 20
69.77225965011003
 30
0.0
 11
-66.03999991818323
 21
69.77225965011003
 31
0.0
  0
SOLID
  5
F4
330
EE
100
AcDbEntity
  8
치수문자_일반주서
 62
     0
100
AcDbTrace
 10
105.1560000818168
 20
69.2219263167767
 30
0.0
 11
105.1560000818168
 21
70.32259298344336
 31
0.0
 12
108.4580000818168
 22
69.77225965011003
 32
0.0
 13
108.4580000818168
 23
69.77225965011003
 33
0.0
  0
SOLID
  5
F5
330
EE
100
AcDbEntity
  8
치수문자_일반주서
 62
     0
100
AcDbTrace
 10
-66.03999991818323
 20
70.32259298344336
 30
0.0
 11
-66.03999991818323
 21
69.2219263167767
 31
0.0
 12
-69.34199991818323
 22
69.77225965011003
 32
0.0
 13
-69.34199991818323
 23
69.77225965011003
 33
0.0
  0
MTEXT
  5
F6
330
EE
100
AcDbEntity
  8
치수문자_일반주서
 62
     0
100
AcDbMText
 10
44.45084551936037
 20
74.14725965011003
 30
0.0
 40
3.5
 41
0.0
 71
     2
 72
     1
  1
\A1;177.8 [7]
  7
SLDTEXTSTYLE0
 73
     1
 44
1.0
  0
POINT
  5
F7
330
EE
100
AcDbEntity
  8
Defpoints
 62
     0
100
AcDbPoint
 10
108.4580000818168
 20
7.937499999999999
 30
0.0
  0
POINT
  5
F8
330
EE
100
AcDbEntity
  8
Defpoints
 62
     0
100
AcDbPoint
 10
-69.34199991818323
 20
7.437499999999994
 30
0.0
  0
POINT
  5
F9
330
EE
100
AcDbEntity
  8
Defpoints
 62
     0
100
AcDbPoint
 10
-69.34199991818323
 20
69.77225965011003
 30
0.0
  0
ENDBLK
  5
F0
330
EE
100
AcDbEntity
  8
0
100
AcDbBlockEnd
  0
BLOCK
  5
102
330
101
100
AcDbEntity
  8
0
100
AcDbBlockBegin
  2
_D_2
 70
     0
 10
0.0
 20
0.0
 30
0.0
  3
_D_2
  1
_D_2
  0
LINE
  5
104
330
101
100
AcDbEntity
  8
치수문자_일반주서
 62
     0
370
    -2
100
AcDbLine
 10
-68.90449991818323
 20
7.937499999999993
 30
0.0
 11
-84.57392765997706
 21
7.937499999999936
 31
0.0
  0
LINE
  5
105
330
101
100
AcDbEntity
  8
치수문자_일반주서
 62
     0
370
    -2
100
AcDbLine
 10
-68.90449991818323
 20
-7.937499999999994
 30
0.0
 11
-84.573927659977
 21
-7.93750000000005
 31
0.0
  0
LINE
  5
106
330
101
100
AcDbEntity
  8
치수문자_일반주서
 62
     0
370
    -2
100
AcDbLine
 10
-84.57392765997706
 20
7.937499999999936
 30
0.0
 11
-84.57392765997719
 21
42.61737717968854
 31
0.0
  0
LINE
  5
107
330
101
100
AcDbEntity
  8
치수문자_일반주서
 62
     0
370
    -2
100
AcDbLine
 10
-84.57392765997706
 20
7.937499999999936
 30
0.0
 11
-84.573927659977
 21
-7.93750000000005
 31
0.0
  0
LINE
  5
108
330
101
100
AcDbEntity
  8
치수문자_일반주서
 62
     0
370
    -2
100
AcDbLine
 10
-84.57392765997707
 20
11.23949999999994
 30
0.0
 11
-84.57392765997709
 21
14.54149999999994
 31
0.0
  0
LINE
  5
109
330
101
100
AcDbEntity
  8
치수문자_일반주서
 62
     0
370
    -2
100
AcDbLine
 10
-84.57392765997699
 20
-11.23950000000005
 30
0.0
 11
-84.57392765997697
 21
-14.54150000000005
 31
0.0
  0
SOLID
  5
10A
330
101
100
AcDbEntity
  8
치수문자_일반주서
 62
     0
100
AcDbTrace
 10
-85.1242609933104
 20
11.23949999999993
 30
0.0
 11
-84.02359432664375
 21
11.23949999999994
 31
0.0
 12
-84.57392765997706
 22
7.937499999999936
 32
0.0
 13
-84.57392765997706
 23
7.937499999999936
 33
0.0
  0
SOLID
  5
10B
330
101
100
AcDbEntity
  8
치수문자_일반주서
 62
     0
100
AcDbTrace
 10
-84.02359432664366
 20
-11.23950000000005
 30
0.0
 11
-85.12426099331032
 21
-11.23950000000005
 31
0.0
 12
-84.573927659977
 22
-7.93750000000005
 32
0.0
 13
-84.573927659977
 23
-7.93750000000005
 33
0.0
  0
MTEXT
  5
10C
330
101
100
AcDbEntity
  8
치수문자_일반주서
 62
     0
100
AcDbMText
 10
-88.94892765997713
 20
28.61737717968852
 30
0.0
 40
3.5
 41
0.0
 71
     2
 72
     1
  1
\A1;%%c15.88 [5/8]
  7
SLDTEXTSTYLE0
 11
-3.580687802255626E-15
 21
1.0
 31
0.0
 73
     1
 44
1.0
  0
POINT
  5
179
330
101
100
AcDbEntity
  8
Defpoints
 62
     0
100
AcDbPoint
 10
-68.84199991818323
 20
7.937499999999993
 30
0.0
  0
POINT
  5
17A
330
101
100
AcDbEntity
  8
Defpoints
 62
     0
100
AcDbPoint
 10
-68.84199991818323
 20
-7.937499999999994
 30
0.0
  0
POINT
  5
17B
330
101
100
AcDbEntity
  8
Defpoints
 62
     0
100
AcDbPoint
 10
-84.57392765997699
 20
-7.937500000000052
 30
0.0
  0
ENDBLK
  5
103
330
101
100
AcDbEntity
  8
0
100
AcDbBlockEnd
  0
BLOCK
  5
116
330
115
100
AcDbEntity
  8
0
100
AcDbBlockBegin
  2
_D_3
 70
     0
 10
0.0
 20
0.0
 30
0.0
  3
_D_3
  1
_D_3
  0
LINE
  5
118
330
115
100
AcDbEntity
  8
치수문자_일반주서
 62
     0
370
    -2
100
AcDbLine
 10
0.5080000000000027
 20
7.492000000000002
 30
0.0
 11
0.5080000000000098
 21
53.91009778227561
 31
0.0
  0
LINE
  5
119
330
115
100
AcDbEntity
  8
치수문자_일반주서
 62
     0
370
    -2
100
AcDbLine
 10
108.4580000818168
 20
7.999999999999999
 30
0.0
 11
108.4580000818168
 21
53.91009778227561
 31
0.0
  0
LINE
  5
11A
330
115
100
AcDbEntity
  8
치수문자_일반주서
 62
     0
370
    -2
100
AcDbLine
 10
3.81000000000001
 20
53.91009778227561
 30
0.0
 11
105.1560000818168
 21
53.91009778227561
 31
0.0
  0
SOLID
  5
11B
330
115
100
AcDbEntity
  8
치수문자_일반주서
 62
     0
100
AcDbTrace
 10
3.81000000000001
 20
54.46043111560894
 30
0.0
 11
3.81000000000001
 21
53.35976444894227
 31
0.0
 12
0.5080000000000098
 22
53.91009778227561
 32
0.0
 13
0.5080000000000098
 23
53.91009778227561
 33
0.0
  0
SOLID
  5
11C
330
115
100
AcDbEntity
  8
치수문자_일반주서
 62
     0
100
AcDbTrace
 10
105.1560000818168
 20
53.35976444894227
 30
0.0
 11
105.1560000818168
 21
54.46043111560894
 31
0.0
 12
108.4580000818168
 22
53.91009778227561
 32
0.0
 13
108.4580000818168
 23
53.91009778227561
 33
0.0
  0
MTEXT
  5
11D
330
115
100
AcDbEntity
  8
치수문자_일반주서
 62
     0
100
AcDbMText
 10
67.18300004090838
 20
58.28509778227561
 30
0.0
 40
3.5
 41
0.0
 71
     2
 72
     1
  1
\A1;107.95 [4 1/4]
  7
SLDTEXTSTYLE0
 73
     1
 44
1.0
  0
POINT
  5
11E
330
115
100
AcDbEntity
  8
Defpoints
 62
     0
100
AcDbPoint
 10
0.5080000000000027
 20
7.429500000000002
 30
0.0
  0
POINT
  5
11F
330
115
100
AcDbEntity
  8
Defpoints
 62
     0
100
AcDbPoint
 10
108.4580000818168
 20
7.937499999999999
 30
0.0
  0
POINT
  5
120
330
115
100
AcDbEntity
  8
Defpoints
 62
     0
100
AcDbPoint
 10
108.4580000818168
 20
53.91009778227561
 30
0.0
  0
ENDBLK
  5
117
330
115
100
AcDbEntity
  8
0
100
AcDbBlockEnd
  0
BLOCK
  5
128
330
127
100
AcDbEntity
  8
0
100
AcDbBlockBegin
  2
SW_DOWELSYMBOL_0
 70
     0
 10
0.0
 20
0.0
 30
0.0
  3
SW_DOWELSYMBOL_0
  1
SW_DOWELSYMBOL_0
  0
CIRCLE
  5
12A
330
127
100
AcDbEntity
  8
외형선
 62
     0
100
AcDbCircle
 10
0.0
 20
0.0
 30
0.0
 40
3.000000000000008
  0
HATCH
  5
12B
330
127
100
AcDbEntity
  8
0
  6
Continuous
 62
     0
370
    30
100
AcDbHatch
 10
0.0
 20
0.0
 30
0.0
210
0.0
220
0.0
230
1.0
  2
SOLID
 70
     1
 71
     0
 91
        1
 92
        0
 93
        3
 72
     2
 10
0.0
 20
0.0
 40
3.000000000000008
 50
0.0
 51
90.0
 73
     1
 72
     1
 10
0.0
 20
3.000000000000008
 11
0.0
 21
0.0
 72
     1
 10
0.0
 20
0.0
 11
3.00000000000001
 21
0.0
 97
        0
 75
     0
 76
     1
 98
        1
 10
0.0
 20
0.0
  0
HATCH
  5
12C
330
127
100
AcDbEntity
  8
0
  6
Continuous
 62
     0
370
    30
100
AcDbHatch
 10
0.0
 20
0.0
 30
0.0
210
0.0
220
0.0
230
1.0
  2
SOLID
 70
     1
 71
     0
 91
        1
 92
        0
 93
        3
 72
     2
 10
0.0
 20
0.0
 40
3.000000000000008
 50
180.0
 51
270.0000000000007
 73
     1
 72
     1
 10
0.0
 20
-3.000000000000008
 11
0.0
 21
0.0
 72
     1
 10
0.0
 20
0.0
 11
-3.00000000000001
 21
0.0
 97
        0
 75
     0
 76
     1
 98
        1
 10
0.0
 20
0.0
  0
ENDBLK
  5
129
330
127
100
AcDbEntity
  8
0
100
AcDbBlockEnd
  0
BLOCK
  5
15E
330
15D
100
AcDbEntity
  8
0
100
AcDbBlockBegin
  2
*D7
 70
     1
 10
0.0
 20
0.0
 30
0.0
  3
*D7
  1
*D7
  0
LINE
  5
160
330
15D
100
AcDbEntity
  8
치수문자_일반주서
 62
     0
370
    -2
100
AcDbLine
 10
108.5205000818168
 20
-7.937500000000001
 30
0.0
 11
121.2305914684605
 21
-7.937500000000002
 31
0.0
  0
LINE
  5
161
330
15D
100
AcDbEntity
  8
치수문자_일반주서
 62
     0
370
    -2
100
AcDbLine
 10
108.5205000818168
 20
7.937499999999999
 30
0.0
 11
121.2305914684605
 21
7.937499999999998
 31
0.0
  0
LINE
  5
162
330
15D
100
AcDbEntity
  8
치수문자_일반주서
 62
     0
370
    -2
100
AcDbLine
 10
121.2305914684605
 20
7.937499999999998
 30
0.0
 11
121.2305914684605
 21
39.2395
 31
0.0
  0
LINE
  5
163
330
15D
100
AcDbEntity
  8
치수문자_일반주서
 62
     0
370
    -2
100
AcDbLine
 10
121.2305914684605
 20
-4.635500000000002
 30
0.0
 11
121.2305914684605
 21
4.635499999999999
 31
0.0
  0
SOLID
  5
164
330
15D
100
AcDbEntity
  8
치수문자_일반주서
 62
     0
100
AcDbTrace
 10
120.6802581351272
 20
-4.635500000000002
 30
0.0
 11
121.7809248017938
 21
-4.635500000000002
 31
0.0
 12
121.2305914684605
 22
-7.937500000000002
 32
0.0
 13
121.2305914684605
 23
-7.937500000000002
 33
0.0
  0
SOLID
  5
165
330
15D
100
AcDbEntity
  8
치수문자_일반주서
 62
     0
100
AcDbTrace
 10
121.7809248017938
 20
4.635499999999999
 30
0.0
 11
120.6802581351272
 21
4.635499999999999
 31
0.0
 12
121.2305914684605
 22
7.937499999999998
 32
0.0
 13
121.2305914684605
 23
7.937499999999998
 33
0.0
  0
MTEXT
  5
166
330
15D
100
AcDbEntity
  8
치수문자_일반주서
 62
     0
100
AcDbMText
 10
118.6055914684605
 20
25.2395
 30
0.0
 40
3.5
 41
0.0
 71
     5
 72
     1
  1
\A1;{Ø15.88 [5/8]}
  7
SLDTEXTSTYLE0
 11
0.0
 21
1.0
 31
0.0
 73
     1
 44
1.0
  0
POINT
  5
167
330
15D
100
AcDbEntity
  8
Defpoints
 62
     0
100
AcDbPoint
 10
108.4580000818168
 20
-7.937500000000001
 30
0.0
  0
POINT
  5
168
330
15D
100
AcDbEntity
  8
Defpoints
 62
     0
100
AcDbPoint
 10
108.4580000818168
 20
7.937499999999999
 30
0.0
  0
POINT
  5
169
330
15D
100
AcDbEntity
  8
Defpoints
 62
     0
100
AcDbPoint
 10
121.2305914684605
 20
7.937499999999998
 30
0.0
  0
ENDBLK
  5
15F
330
15D
100
AcDbEntity
  8
0
100
AcDbBlockEnd
  0
BLOCK
  5
170
330
16F
100
AcDbEntity
  8
0
100
AcDbBlockBegin
  2
*D8
 70
     1
 10
0.0
 20
0.0
 30
0.0
  3
*D8
  1
*D8
  0
LINE
  5
172
330
16F
100
AcDbEntity
  8
치수문자_일반주서
 62
     0
370
    -2
100
AcDbLine
 10
109.3482302423213
 20
-10.59222812373697
 30
0.0
 11
125.0072092071186
 21
-37.69594708959171
 31
0.0
  0
MTEXT
  5
173
330
16F
100
AcDbEntity
  8
치수문자_일반주서
 62
     0
100
AcDbMText
 10
120.2765708063202
 20
-24.26048337147276
 30
0.0
 40
3.5
 41
0.0
 71
     5
 72
     1
  1
\A1;R1.52 [R0.06]
  7
SLDTEXTSTYLE0
 11
0.5002549027153973
 21
-0.8658781856065023
 31
0.0
 73
     1
 44
1.0
  0
SOLID
  5
174
330
16F
100
AcDbEntity
  8
치수문자_일반주서
 62
     0
100
AcDbTrace
 10
109.8247518704667
 20
-10.31692117560927
 30
0.0
 11
108.8717086141758
 21
-10.86753507186468
 31
0.0
 12
107.696388553555
 22
-7.733098354864305
 32
0.0
 13
107.696388553555
 23
-7.733098354864305
 33
0.0
  0
LINE
  5
175
330
16F
100
AcDbEntity
  8
치수문자_일반주서
 62
     0
100
AcDbLine
 10
106.8440000818168
 20
-6.413500000000001
 30
0.0
 11
107.0240000818168
 21
-6.413500000000001
 31
0.0
  0
LINE
  5
176
330
16F
100
AcDbEntity
  8
치수문자_일반주서
 62
     0
100
AcDbLine
 10
106.9340000818168
 20
-6.503500000000001
 30
0.0
 11
106.9340000818168
 21
-6.323500000000001
 31
0.0
  0
POINT
  5
177
330
16F
100
AcDbEntity
  8
Defpoints
 62
     0
100
AcDbPoint
 10
107.696388553555
 20
-7.733098354864305
 30
0.0
  0
POINT
  5
178
330
16F
100
AcDbEntity
  8
Defpoints
 62
     0
100
AcDbPoint
 10
106.9340000818168
 20
-6.413500000000001
 30
0.0
  0
ENDBLK
  5
171
330
16F
100
AcDbEntity
  8
0
100
AcDbBlockEnd
  0
ENDSEC
  0
SECTION
  2
ENTITIES
  0
LINE
  5
95
330
1F
100
AcDbEntity
  8
0
  6
Continuous
 62
     4
370
    15
100
AcDbLine
 10
0.0
 20
-7.937500000000005
 30
0.0
 11
0.5080000000000027
 21
-7.429499999999999
 31
0.0
  0
LINE
  5
96
330
1F
100
AcDbEntity
  8
0
  6
Continuous
 62
     4
370
    15
100
AcDbLine
 10
0.5080000000000027
 20
7.429500000000002
 30
0.0
 11
0.0
 21
7.937500000000005
 31
0.0
  0
LINE
  5
97
330
1F
100
AcDbEntity
  8
0
  6
Continuous
 62
     4
370
    15
100
AcDbLine
 10
-0.0000000000000036
 20
7.937500000000001
 30
0.0
 11
-68.84199991818323
 21
7.937500000000003
 31
0.0
  0
LINE
  5
98
330
1F
100
AcDbEntity
  8
0
  6
Continuous
 62
     4
370
    15
100
AcDbLine
 10
-68.84199991818323
 20
-7.937499999999997
 30
0.0
 11
0.0000000000000071
 21
-7.937499999999999
 31
0.0
  0
LINE
  5
99
330
1F
100
AcDbEntity
  8
0
  6
Continuous
 62
     4
370
    15
100
AcDbLine
 10
-68.84199991818323
 20
7.937499999999993
 30
0.0
 11
-69.34199991818323
 21
7.437499999999994
 31
0.0
  0
LINE
  5
9A
330
1F
100
AcDbEntity
  8
0
  6
Continuous
 62
     4
370
    15
100
AcDbLine
 10
-69.34199991818323
 20
-7.437499999999993
 30
0.0
 11
-68.84199991818323
 21
-7.937499999999994
 31
0.0
  0
LINE
  5
9B
330
1F
100
AcDbEntity
  8
0
  6
Continuous
 62
     4
370
    15
100
AcDbLine
 10
89.4080000818168
 20
7.429500000000001
 30
0.0
 11
0.5080000000000027
 21
7.429500000000007
 31
0.0
  0
LINE
  5
9C
330
1F
100
AcDbEntity
  8
0
  6
Continuous
 62
     4
370
    15
100
AcDbLine
 10
0.5080000000000027
 20
-7.4295
 30
0.0
 11
86.35805291814324
 21
-7.429500000000003
 31
0.0
  0
LINE
  5
9D
330
1F
100
AcDbEntity
  8
0
  6
Continuous
 62
     1
370
    15
100
AcDbLine
 10
96.76819302233628
 20
-7.937499999999999
 30
0.0
 11
97.95430163428796
 21
-7.937499999999999
 31
0.0
  0
LINE
  5
A1
330
1F
100
AcDbEntity
  8
0
  6
Continuous
 62
     4
370
    15
100
AcDbLine
 10
0.0
 20
7.937500000000005
 30
0.0
 11
0.0
 21
-7.937500000000005
 31
0.0
  0
LINE
  5
A2
330
1F
100
AcDbEntity
  8
0
  6
Continuous
 62
     4
370
    15
100
AcDbLine
 10
-68.84199991818323
 20
7.937499999999993
 30
0.0
 11
-68.84199991818323
 21
-7.9375
 31
0.0
  0
SPLINE
  5
A4
330
1F
100
AcDbEntity
  8
0
  6
Continuous
 62
     4
370
    15
100
AcDbSpline
210
0.0
220
0.0
230
1.0
 70
    24
 71
     3
 72
    10
 73
     6
 74
     0
 42
0.000000001
 43
0.00000001
 40
0.0
 40
0.0
 40
0.0
 40
0.0
 40
0.5
 40
0.5
 40
1.0
 40
1.0
 40
1.0
 40
1.0
 10
89.4080000818168
 20
6.900136109772068
 30
0.0
 10
89.4080000818168
 20
6.394999871401717
 30
0.0
 10
89.4080000818168
 20
5.886559861369559
 30
0.0
 10
89.4080000818168
 20
4.862673384397302
 30
0.0
 10
89.4080000818168
 20
4.342424594295824
 30
0.0
 10
89.4080000818168
 20
3.837102848594128
 30
0.0
  0
SPLINE
  5
A5
330
1F
100
AcDbEntity
  8
0
  6
Continuous
 62
     4
370
    15
100
AcDbSpline
210
0.0
220
0.0
230
1.0
 70
     8
 71
     3
 72
    14
 73
    10
 74
     0
 42
0.000000001
 43
0.00000001
 40
0.0
 40
0.0
 40
0.0
 40
0.0
 40
0.2500000000000001
 40
0.2500000000000001
 40
0.5000000000000001
 40
0.5000000000000001
 40
0.75
 40
0.75
 40
1.0
 40
1.0
 40
1.0
 40
1.0
 10
87.38707531540464
 20
-0.1521092004775851
 30
0.0
 10
87.21660423745139
 20
-0.0321093507643415
 30
0.0
 10
87.06586446576009
 20
0.1077451555413248
 30
0.0
 10
86.80235160001634
 20
0.425546750871684
 30
0.0
 10
86.69128547775442
 20
0.6030014650838349
 30
0.0
 10
86.51888401127479
 20
0.9743869331314584
 30
0.0
 10
86.45556636511873
 20
1.172895430563902
 30
0.0
 10
86.37570775174699
 20
1.570397961619281
 30
0.0
 10
86.35805291814324
 20
1.771896314869346
 30
0.0
 10
86.35805291814324
 20
1.972443749465269
 30
0.0
  0
SPLINE
  5
A6
330
1F
100
AcDbEntity
  8
0
  6
Continuous
 62
     4
370
    15
100
AcDbSpline
210
0.0
220
0.0
230
1.0
 70
     8
 71
     3
 72
    22
 73
    18
 74
     0
 42
0.000000001
 43
0.00000001
 40
0.0
 40
0.0
 40
0.0
 40
0.0
 40
0.125
 40
0.125
 40
0.25
 40
0.25
 40
0.375
 40
0.375
 40
0.5
 40
0.5
 40
0.625
 40
0.625
 40
0.75
 40
0.75
 40
0.875
 40
0.875
 40
1.0
 40
1.0
 40
1.0
 40
1.0
 10
86.35805291814324
 20
5.617615068983734
 30
0.0
 10
86.35805291814324
 20
5.7438291993244
 30
0.0
 10
86.37308570986215
 20
5.862653594131946
 30
0.0
 10
86.44080630252921
 20
6.085791304223484
 30
0.0
 10
86.49465614769406
 20
6.191300745831779
 30
0.0
 10
86.64151145673699
 20
6.378939217034038
 30
0.0
 10
86.73407076844879
 20
6.461995601094407
 30
0.0
 10
86.9608501019688
 20
6.609300537442076
 30
0.0
 10
87.09370383474803
 20
6.672107502221897
 30
0.0
 10
87.38721953480386
 20
6.775722909053217
 30
0.0
 10
87.5517653755922
 20
6.817779775531545
 30
0.0
 10
87.89677436773937
 20
6.88165462969718
 30
0.0
 10
88.07887794428618
 20
6.904171851780722
 30
0.0
 10
88.45704775156283
 20
6.932289514547344
 30
0.0
 10
88.64731692707757
 20
6.937572627752204
 30
0.0
 10
89.0301692264465
 20
6.93177857432904
 30
0.0
 10
89.22246147695691
 20
6.920484891395511
 30
0.0
 10
89.40800008181668
 20
6.900136109771543
 30
0.0
  0
LINE
  5
A7
330
1F
100
AcDbEntity
  8
0
  6
Continuous
 62
     1
370
    15
100
AcDbLine
 10
89.4080000818168
 20
7.429500000000001
 30
0.0
 11
89.4080000818168
 21
6.900136109771883
 31
0.0
  0
LINE
  5
A8
330
1F
100
AcDbEntity
  8
0
  6
Continuous
 62
     4
370
    15
100
AcDbLine
 10
86.35805291814324
 20
5.617615068983732
 30
0.0
 11
86.35805291814324
 21
1.972443749465269
 31
0.0
  0
SPLINE
  5
A9
330
1F
100
AcDbEntity
  8
0
  6
Continuous
 62
     4
370
    15
100
AcDbSpline
210
0.0
220
0.0
230
1.0
 70
     8
 71
     3
 72
    10
 73
     6
 74
     0
 42
0.000000001
 43
0.00000001
 40
0.0
 40
0.0
 40
0.0
 40
0.0
 40
0.5
 40
0.5
 40
1.0
 40
1.0
 40
1.0
 40
1.0
 10
89.4080000818168
 20
-1.565911970970809
 30
0.0
 10
89.07038088585536
 20
-1.333462119404293
 30
0.0
 10
88.7348804308712
 20
-1.099095864149294
 30
0.0
 10
88.06291756737795
 20
-0.6274986773833221
 30
0.0
 10
87.72486764372101
 20
-0.3898916391113385
 30
0.0
 10
87.38707531540464
 20
-0.152109200477585
 30
0.0
  0
LINE
  5
AA
330
1F
100
AcDbEntity
  8
0
  6
Continuous
 62
     4
370
    15
100
AcDbLine
 10
89.4080000818168
 20
-1.565911970970812
 30
0.0
 11
89.4080000818168
 21
-5.465386110949335
 31
0.0
  0
SPLINE
  5
AB
330
1F
100
AcDbEntity
  8
0
  6
Continuous
 62
     4
370
    15
100
AcDbSpline
210
0.0
220
0.0
230
1.0
 70
     8
 71
     3
 72
    22
 73
    18
 74
     0
 42
0.000000001
 43
0.00000001
 40
0.0
 40
0.0
 40
0.0
 40
0.0
 40
0.125
 40
0.125
 40
0.25
 40
0.25
 40
0.375
 40
0.375
 40
0.5
 40
0.5
 40
0.625
 40
0.625
 40
0.75
 40
0.75
 40
0.875
 40
0.875
 40
1.0
 40
1.0
 40
1.0
 40
1.0
 10
86.35805291814324
 20
-7.019496716804577
 30
0.0
 10
86.35805291814324
 20
-6.95631405186991
 30
0.0
 10
86.37308570985738
 20
-6.886891234891971
 30
0.0
 10
86.44080630252417
 20
-6.737063832698952
 30
0.0
 10
86.49465614769403
 20
-6.655448992386409
 30
0.0
 10
86.64151145673699
 20
-6.49146457432571
 30
0.0
 10
86.73407076844879
 20
-6.408741159367294
 30
0.0
 10
86.96085010196882
 20
-6.246410459537707
 30
0.0
 10
87.09370383474803
 20
-6.168272898495934
 30
0.0
 10
87.38721953480385
 20
-6.029151571972434
 30
0.0
 10
87.5517653755922
 20
-5.966547480382947
 30
0.0
 10
87.89677436773937
 20
-5.866796261472403
 30
0.0
 10
88.07887794428618
 20
-5.828748797985174
 30
0.0
 10
88.45704775156283
 20
-5.780607911367426
 30
0.0
 10
88.64731692707757
 20
-5.771114721384897
 30
0.0
 10
89.0301692264465
 20
-5.781269583655598
 30
0.0
 10
89.22246147695691
 20
-5.801295441023696
 30
0.0
 10
89.40800008181668
 20
-5.835271177781231
 30
0.0
  0
LINE
  5
AC
330
1F
100
AcDbEntity
  8
0
  6
Continuous
 62
     4
370
    15
100
AcDbLine
 10
86.35805291814324
 20
-7.019496716804579
 30
0.0
 11
86.35805291814324
 21
-7.429500000000003
 31
0.0
  0
SPLINE
  5
AD
330
1F
100
AcDbEntity
  8
0
  6
Continuous
 62
     4
370
    15
100
AcDbSpline
210
0.0
220
0.0
230
1.0
 70
     8
 71
     3
 72
    14
 73
    10
 74
     0
 42
0.000000001
 43
0.00000001
 40
0.0
 40
0.0
 40
0.0
 40
0.0
 40
0.25
 40
0.25
 40
0.5
 40
0.5
 40
0.75
 40
0.75
 40
1.0
 40
1.0
 40
1.0
 40
1.0
 10
87.38707531540464
 20
-6.356732492526478
 30
0.0
 10
87.21660423745138
 20
-6.418860547958629
 30
0.0
 10
87.06586446576007
 20
-6.488805168375644
 30
0.0
 10
86.80235160001634
 20
-6.637821755148952
 30
0.0
 10
86.69128547775442
 20
-6.716448177200401
 30
0.0
 10
86.51888401127479
 20
-6.867803654573406
 30
0.0
 10
86.45556636511873
 20
-6.94231208834452
 30
0.0
 10
86.37570775174699
 20
-7.076396194269954
 30
0.0
 10
86.35805291814324
 20
-7.137015431011226
 30
0.0
 10
86.35805291814324
 20
-7.189463118541912
 30
0.0
  0
SPLINE
  5
AE
330
1F
100
AcDbEntity
  8
0
  6
Continuous
 62
     4
370
    15
100
AcDbSpline
210
0.0
220
0.0
230
1.0
 70
     8
 71
     3
 72
     9
 73
     5
 74
     0
 42
0.000000001
 43
0.00000001
 40
0.0
 40
0.0
 40
0.0
 40
0.0
 40
0.3535248893100476
 40
1.0
 40
1.0
 40
1.0
 40
1.0
 10
88.76467429467962
 20
-5.792927002891378
 30
0.0
 10
88.6024214088435
 20
-5.866717266251571
 30
0.0
 10
88.14346394717005
 20
-6.0754444749757
 30
0.0
 10
87.6840651825884
 20
-6.246287031734965
 30
0.0
 10
87.38707531540464
 20
-6.356732492526469
 30
0.0
  0
SPLINE
  5
AF
330
1F
100
AcDbEntity
  8
0
  6
Continuous
 62
     4
370
    15
100
AcDbSpline
210
0.0
220
0.0
230
1.0
 70
    24
 71
     3
 72
    14
 73
    10
 74
     0
 42
0.000000001
 43
0.00000001
 40
0.0
 40
0.0
 40
0.0
 40
0.0
 40
0.25
 40
0.25
 40
0.5
 40
0.5
 40
0.75
 40
0.75
 40
1.0
 40
1.0
 40
1.0
 40
1.0
 10
89.4080000818168
 20
3.837102848594128
 30
0.0
 10
89.4080000818168
 20
3.341742582113322
 30
0.0
 10
89.4080000818168
 20
2.829657454513948
 30
0.0
 10
89.4080000818168
 20
1.806514331415171
 30
0.0
 10
89.4080000818168
 20
1.295597108548271
 30
0.0
 10
89.4080000818168
 20
0.3250109588058854
 30
0.0
 10
89.4080000818168
 20
-0.1342018607433268
 30
0.0
 10
89.4080000818168
 20
-0.9439978473634444
 30
0.0
 10
89.4080000818168
 20
-1.293944502197212
 30
0.0
 10
89.4080000818168
 20
-1.565911970970812
 30
0.0
  0
SPLINE
  5
B0
330
1F
100
AcDbEntity
  8
0
  6
Continuous
 62
     1
370
    15
100
AcDbSpline
210
0.0
220
0.0
230
1.0
 70
     8
 71
     3
 72
    22
 73
    18
 74
     0
 42
0.000000001
 43
0.00000001
 40
0.0
 40
0.0
 40
0.0
 40
0.0
 40
0.2499999999999992
 40
0.2499999999999992
 40
0.4999999999999984
 40
0.4999999999999984
 40
0.6249999999999982
 40
0.6249999999999982
 40
0.7499999999999981
 40
0.7499999999999981
 40
0.8124999999999986
 40
0.8124999999999986
 40
0.874999999999999
 40
0.874999999999999
 40
0.9374999999999996
 40
0.9374999999999996
 40
1.0
 40
1.0
 40
1.0
 40
1.0
 10
108.0530537896505
 20
0.8292067157401019
 30
0.0
 10
108.1002278225315
 20
0.4767606409865411
 30
0.0
 10
108.1257515877911
 20
0.1228960389878966
 30
0.0
 10
108.1393709575504
 20
-0.5876880487850059
 30
0.0
 10
108.1284005031868
 20
-0.9463323805327899
 30
0.0
 10
108.066314056118
 20
-1.480166837033822
 30
0.0
 10
108.037724629806
 20
-1.658138008142547
 30
0.0
 10
107.9531898544408
 20
-2.0058392120258
 30
0.0
 10
107.8991835960099
 20
-2.175514917831775
 30
0.0
 10
107.7694786017021
 20
-2.412684525403914
 30
0.0
 10
107.7181847941785
 20
-2.48751130933223
 30
0.0
 10
107.5906051556164
 20
-2.613771249583876
 30
0.0
 10
107.513145463005
 20
-2.663739369805419
 30
0.0
 10
107.3448946019152
 20
-2.710266818939556
 30
0.0
 10
107.2544304211231
 20
-2.706675932842518
 30
0.0
 10
107.0844260186362
 20
-2.658133739826711
 30
0.0
 10
107.0067680456101
 20
-2.616106005853663
 30
0.0
 10
106.9340000818168
 20
-2.564265205530492
 30
0.0
  0
SPLINE
  5
B1
330
1F
100
AcDbEntity
  8
0
  6
Continuous
 62
     1
370
    15
100
AcDbSpline
210
0.0
220
0.0
230
1.0
 70
     8
 71
     3
 72
    31
 73
    27
 74
     0
 42
0.000000001
 43
0.00000001
 40
0.0
 40
0.0
 40
0.0
 40
0.0
 40
0.0208252108685389
 40
0.0416297558536489
 40
0.0624136466388259
 40
0.0936991575521506
 40
0.1250098666050498
 40
0.1613569070934557
 40
0.1976708181041252
 40
0.2500133654023152
 40
0.2812576308661626
 40
0.3124286198337184
 40
0.3437098706379976
 40
0.3750217189766374
 40
0.4374310435643936
 40
0.5000146981122191
 40
0.5624259101912412
 40
0.625007626792299
 40
0.687420879373663
 40
0.75000050707925
 40
0.812415953156489
 40
0.8749933410413051
 40
0.906230996888595
 40
0.9374187856868292
 40
0.9551360730887973
 40
0.9999999999999999
 40
0.9999999999999999
 40
0.9999999999999999
 40
0.9999999999999999
 10
106.9340000818175
 20
-2.564265205530976
 30
0.0
 10
106.8123272783313
 20
-2.477242485146756
 30
0.0
 10
106.5691024132804
 20
-2.303283401313979
 30
0.0
 10
106.2046457965975
 20
-2.0386371952009
 30
0.0
 10
105.77961627126
 20
-1.726384354657227
 30
0.0
 10
105.2921323635793
 20
-1.366962634517689
 30
0.0
 10
104.7137127633213
 20
-0.9365517549271855
 30
0.0
 10
104.1065494214257
 20
-0.4802426582293042
 30
0.0
 10
103.3769831863419
 20
0.0708755069328049
 30
0.0
 10
102.6757734921632
 20
0.597818930371202
 30
0.0
 10
102.0050176478761
 20
1.099395776340451
 30
0.0
 10
101.4587783981302
 20
1.507830993250293
 30
0.0
 10
100.9106431181579
 20
1.910519636415538
 30
0.0
 10
100.1797967604309
 20
2.440342272625698
 30
0.0
 10
99.26785332527163
 20
3.089987480564167
 30
0.0
 10
98.17151606789884
 20
3.831808509590422
 30
0.0
 10
97.07706562128402
 20
4.536259911089159
 30
0.0
 10
95.98075717321373
 20
5.187995611226052
 30
0.0
 10
94.88627684003515
 20
5.787043830508365
 30
0.0
 10
93.79001302468788
 20
6.320564756881673
 30
0.0
 10
92.69542797554931
 20
6.788388583099982
 30
0.0
 10
91.78182417699045
 20
7.11548782230102
 30
0.0
 10
91.05140344739439
 20
7.338895923384645
 30
0.0
 10
90.58398447841424
 20
7.465255589584877
 30
0.0
 10
90.03600513964264
 20
7.597901900916001
 30
0.0
 10
89.67022481057697
 20
7.667666471949476
 30
0.0
 10
89.40800008181674
 20
7.717680084663576
 30
0.0
  0
SPLINE
  5
B2
330
1F
100
AcDbEntity
  8
0
  6
Continuous
 62
     1
370
    15
100
AcDbSpline
210
0.0
220
0.0
230
1.0
 70
     8
 71
     3
 72
    19
 73
    15
 74
     0
 42
0.000000001
 43
0.00000001
 40
0.0
 40
0.0
 40
0.0
 40
0.0
 40
0.0682931441325677
 40
0.1507729327173945
 40
0.2332523934308833
 40
0.3138518905235405
 40
0.3944514248273285
 40
0.4769367904648522
 40
0.5594224524539784
 40
0.648779522339857
 40
0.738136367983413
 40
0.8300757858562526
 40
0.922015212231606
 40
1.0
 40
1.0
 40
1.0
 40
1.0
 10
90.9930382581777
 20
7.344262354972886
 30
0.0
 10
91.38140347660374
 20
7.382762098532444
 30
0.0
 10
92.23880964366876
 20
7.467759199179539
 30
0.0
 10
93.56588420613929
 20
7.441526732955628
 30
0.0
 10
94.9616621942886
 20
7.296227993009445
 30
0.0
 10
96.34710056541468
 20
7.021091952754234
 30
0.0
 10
97.73270144209215
 20
6.627271109306798
 30
0.0
 10
99.12863062747331
 20
6.113028921061338
 30
0.0
 10
100.575447796385
 20
5.470339932292259
 30
0.0
 10
102.0613029963455
 20
4.701833948743424
 30
0.0
 10
103.6003369538056
 20
3.806664610850114
 30
0.0
 10
105.1539516223662
 20
2.819143182802587
 30
0.0
 10
106.6426614605383
 20
1.81469531103643
 30
0.0
 10
107.6093863729467
 20
1.139212073994858
 30
0.0
 10
108.0530537896505
 20
0.8292067157400759
 30
0.0
  0
ARC
  5
B3
330
1F
100
AcDbEntity
  8
0
  6
Continuous
 62
     1
370
    15
100
AcDbCircle
 10
97.84779008195147
 20
7.847930332030166
 30
0.0
 40
15.76307235145746
100
AcDbArc
 50
237.627920061953
 51
283.3867416900794
  0
LINE
  5
B4
330
1F
100
AcDbEntity
  8
0
  6
Continuous
 62
     4
370
    15
100
AcDbLine
 10
89.4080000818168
 20
-1.573495397051996
 30
0.0
 11
89.4080000818168
 21
-5.465386110949366
 31
0.0
  0
SPLINE
  5
B5
330
1F
100
AcDbEntity
  8
0
  6
Continuous
 62
     1
370
    15
100
AcDbSpline
210
0.0
220
0.0
230
1.0
 70
     8
 71
     3
 72
    34
 73
    30
 74
     0
 42
0.000000001
 43
0.00000001
 40
0.0
 40
0.0
 40
0.0
 40
0.0
 40
0.0625
 40
0.0625
 40
0.125
 40
0.125
 40
0.1875
 40
0.1875
 40
0.25
 40
0.25
 40
0.375
 40
0.375
 40
0.4375
 40
0.4375
 40
0.5
 40
0.5
 40
0.5625
 40
0.5625
 40
0.625
 40
0.625
 40
0.6875
 40
0.6875
 40
0.75
 40
0.75
 40
0.8125
 40
0.8125
 40
0.875
 40
0.875
 40
0.9265976793127745
 40
0.9265976793127745
 40
0.9265976793127745
 40
0.9265976793127745
 10
89.40800008181674
 20
-1.5734953970518
 30
0.0
 10
89.79723276311958
 20
-1.84212084974417
 30
0.0
 10
90.18737576803315
 20
-2.107729759686921
 30
0.0
 10
90.96234482241564
 20
-2.62808776557016
 30
0.0
 10
91.34930041947086
 20
-2.883331479431885
 30
0.0
 10
92.12807393673828
 20
-3.382069788194528
 30
0.0
 10
92.51798763467212
 20
-3.625129526692313
 30
0.0
 10
93.29174519638269
 20
-4.094274659517123
 30
0.0
 10
93.67995113027425
 20
-4.32125640652906
 30
0.0
 10
94.84832939757592
 20
-4.975057722143762
 30
0.0
 10
95.62124290128878
 20
-5.372674918546973
 30
0.0
 10
96.7895947674306
 20
-5.90024554479742
 30
0.0
 10
97.17749854262249
 20
-6.064164935505506
 30
0.0
 10
97.9515313567112
 20
-6.366464170485442
 30
0.0
 10
98.34150152515281
 20
-6.505313038364877
 30
0.0
 10
99.1202222523718
 20
-6.755710535088974
 30
0.0
 10
99.50695746274857
 20
-6.867095588101342
 30
0.0
 10
100.2821672311848
 20
-7.161185408631786
 30
0.0
 10
100.6723490164876
 20
-7.25008796301532
 30
0.0
 10
101.4710617179336
 20
-7.493072001884317
 30
0.0
 10
101.8335665658823
 20
-7.640495105334489
 30
0.0
 10
102.6028185398355
 20
-7.794417601621936
 30
0.0
 10
103.0032098506188
 20
-7.937500000000001
 30
0.0
 10
103.781081412508
 20
-7.937500000000001
 30
0.0
 10
104.1666169183576
 20
-7.937500000000001
 30
0.0
 10
104.9436988405774
 20
-7.937500000000001
 30
0.0
 10
105.3340578716292
 20
-7.937500000000001
 30
0.0
 10
106.0434748017344
 20
-7.937500000000001
 30
0.0
 10
106.3621795106731
 20
-7.937500000000001
 30
0.0
 10
106.9340000818168
 20
-7.9375
 30
0.0
  0
SPLINE
  5
B6
330
1F
100
AcDbEntity
  8
0
  6
Continuous
 62
     1
370
    15
100
AcDbSpline
210
0.0
220
0.0
230
1.0
 70
     8
 71
     3
 72
    38
 73
    34
 74
     0
 42
0.000000001
 43
0.00000001
 40
0.0
 40
0.0
 40
0.0
 40
0.0
 40
0.0625
 40
0.0625
 40
0.125
 40
0.125
 40
0.1875000000000001
 40
0.1875000000000001
 40
0.2500000000000001
 40
0.2500000000000001
 40
0.3125000000000001
 40
0.3125000000000001
 40
0.3750000000000001
 40
0.3750000000000001
 40
0.4375000000000001
 40
0.4375000000000001
 40
0.5000000000000001
 40
0.5000000000000001
 40
0.5625000000000001
 40
0.5625000000000001
 40
0.6250000000000001
 40
0.6250000000000001
 40
0.6875000000000001
 40
0.6875000000000001
 40
0.7500000000000002
 40
0.7500000000000002
 40
0.8125000000000002
 40
0.8125000000000002
 40
0.8750000000000002
 40
0.8750000000000002
 40
0.9375000000000001
 40
0.9375000000000001
 40
1.0
 40
1.0
 40
1.0
 40
1.0
 10
106.9340000818175
 20
-3.392687126968009
 30
0.0
 10
106.5683044538702
 20
-3.143813586330266
 30
0.0
 10
106.2057002648811
 20
-2.889535284340996
 30
0.0
 10
105.4757969634008
 20
-2.370413611502252
 30
0.0
 10
105.1089728470085
 20
-2.105658598330712
 30
0.0
 10
104.3775189649288
 20
-1.570030615804026
 30
0.0
 10
104.0148601542484
 20
-1.299657740368284
 30
0.0
 10
103.2850626908296
 20
-0.754106997481536
 30
0.0
 10
102.9182501131007
 20
-0.4790009728945833
 30
0.0
 10
102.1867359286263
 20
0.071422639057428
 30
0.0
 10
101.8240166436858
 20
0.3462386902425519
 30
0.0
 10
101.0943273245807
 20
0.8947023933441309
 30
0.0
 10
100.7275274589155
 20
1.168302042955963
 30
0.0
 10
99.99595529647647
 20
1.709796984984654
 30
0.0
 10
99.6331696853461
 20
1.977212069216505
 30
0.0
 10
98.90359081566328
 20
2.504949363662763
 30
0.0
 10
98.53680483532625
 20
2.765250451732136
 30
0.0
 10
97.80517701996732
 20
3.274476058073731
 30
0.0
 10
97.4423192314182
 20
3.522963500812875
 30
0.0
 10
96.71285311509888
 20
4.007230739214726
 30
0.0
 10
96.34608219320594
 20
4.243014573618874
 30
0.0
 10
95.61440105056218
 20
4.698019987664737
 30
0.0
 10
95.25146523412795
 20
4.916867185044263
 30
0.0
 10
94.52211417392161
 20
5.336796710069039
 30
0.0
 10
94.15535948342779
 20
5.537901653852193
 30
0.0
 10
93.42362733969978
 20
5.919072139593708
 30
0.0
 10
93.06060764573846
 20
6.09884216574338
 30
0.0
 10
92.3313739431789
 20
6.436341612332758
 30
0.0
 10
91.9646366568656
 20
6.594101065536915
 30
0.0
 10
91.23285583879496
 20
6.885003655133294
 30
0.0
 10
90.86974641855076
 20
7.017941993392263
 30
0.0
 10
90.14063237393182
 20
7.258473864925112
 30
0.0
 10
89.77391366439443
 20
7.366089788020775
 30
0.0
 10
89.4080000818168
 20
7.460135795909691
 30
0.0
  0
LINE
  5
B7
330
1F
100
AcDbEntity
  8
0
  6
Continuous
 62
     4
370
    15
100
AcDbLine
 10
89.4080000818168
 20
7.460135795909691
 30
0.0
 11
89.4080000818168
 21
7.717680084663576
 31
0.0
  0
SPLINE
  5
B8
330
1F
100
AcDbEntity
  8
0
  6
Continuous
 62
     1
370
    15
100
AcDbSpline
210
0.0
220
0.0
230
1.0
 70
     8
 71
     3
 72
    18
 73
    14
 74
     0
 42
0.000000001
 43
0.00000001
 40
0.0
 40
0.0
 40
0.0
 40
0.0
 40
0.2500000000000003
 40
0.2500000000000003
 40
0.5000000000000007
 40
0.5000000000000007
 40
0.6250000000000004
 40
0.6250000000000004
 40
0.7500000000000003
 40
0.7500000000000003
 40
0.8750000000000001
 40
0.8750000000000001
 40
1.0
 40
1.0
 40
1.0
 40
1.0
 10
106.9340000818168
 20
-3.392687126967545
 30
0.0
 10
107.1241402737945
 20
-3.522086712794312
 30
0.0
 10
107.3068654853778
 20
-3.633687374135621
 30
0.0
 10
107.6611651566972
 20
-3.816934269478352
 30
0.0
 10
107.8260980759804
 20
-3.884651211299383
 30
0.0
 10
108.0438163497516
 20
-3.944456432217363
 30
0.0
 10
108.1112490953026
 20
-3.957274692845399
 30
0.0
 10
108.2294541432945
 20
-3.968168657818989
 30
0.0
 10
108.2810780292179
 20
-3.966495655825127
 30
0.0
 10
108.3671938180103
 20
-3.949346823303374
 30
0.0
 10
108.4008721315784
 20
-3.933842635745202
 30
0.0
 10
108.4460259481866
 20
-3.892092867901318
 30
0.0
 10
108.4580000818168
 20
-3.865767384965423
 30
0.0
 10
108.4580000818168
 20
-3.834806627881919
 30
0.0
  0
SPLINE
  5
B9
330
1F
100
AcDbEntity
  8
0
  6
Continuous
 62
     1
370
    15
100
AcDbSpline
210
0.0
220
0.0
230
1.0
 70
     8
 71
     3
 72
    11
 73
     7
 74
     0
 42
0.000000001
 43
0.00000001
 40
0.0
 40
0.0
 40
0.0
 40
0.0
 40
0.2195633629354479
 40
0.5762315971304002
 40
0.9416650062934996
 40
1.0
 40
1.0
 40
1.0
 40
1.0
 10
107.1666772285828
 20
-3.531351191801143
 30
0.0
 10
107.0766670566316
 20
-3.552816700007247
 30
0.0
 10
106.8404404637793
 20
-3.609151709233972
 30
0.0
 10
106.4090092448753
 20
-3.785112174643576
 30
0.0
 10
106.0426205881089
 20
-3.963007270338627
 30
0.0
 10
105.8411604604132
 20
-4.07296859666769
 30
0.0
 10
105.8134279178223
 20
-4.088105622542975
 30
0.0
  0
SPLINE
  5
BA
330
1F
100
AcDbEntity
  8
0
  6
Continuous
 62
     1
370
    15
100
AcDbSpline
210
0.0
220
0.0
230
1.0
 70
     8
 71
     3
 72
     8
 73
     4
 74
     0
 42
0.000000001
 43
0.00000001
 40
0.0
 40
0.0
 40
0.0
 40
0.0
 40
1.0
 40
1.0
 40
1.0
 40
1.0
 10
108.4580000818168
 20
-4.640327385311443
 30
0.0
 10
107.548698187581
 20
-4.578115589207336
 30
0.0
 10
106.6665827305619
 20
-4.396636166222067
 30
0.0
 10
105.81342791782
 20
-4.088105622548569
 30
0.0
  0
LINE
  5
BB
330
1F
100
AcDbEntity
  8
0
  6
Continuous
 62
     1
370
    15
100
AcDbLine
 10
108.4580000818168
 20
-6.413500000000001
 30
0.0
 11
108.4580000818168
 21
-4.640327385311449
 31
0.0
  0
SPLINE
  5
BD
330
1F
100
AcDbEntity
  8
0
  6
Continuous
 62
     4
370
    15
100
AcDbSpline
210
0.0
220
0.0
230
1.0
 70
    24
 71
     3
 72
    20
 73
    16
 74
     0
 42
0.000000001
 43
0.00000001
 40
0.0
 40
0.0
 40
0.0
 40
0.0
 40
0.25
 40
0.25
 40
0.375
 40
0.375
 40
0.5
 40
0.5
 40
0.625
 40
0.625
 40
0.75
 40
0.75
 40
0.875
 40
0.875
 40
1.0
 40
1.0
 40
1.0
 40
1.0
 10
89.4080000818168
 20
7.460135795909573
 30
0.0
 10
89.4080000818168
 20
6.85930675766802
 30
0.0
 10
89.4080000818168
 20
6.174422701423804
 30
0.0
 10
89.4080000818168
 20
5.029714834511963
 30
0.0
 10
89.4080000818168
 20
4.629036600773029
 30
0.0
 10
89.4080000818168
 20
3.799266416474059
 30
0.0
 10
89.4080000818168
 20
3.370122485812599
 30
0.0
 10
89.4080000818168
 20
2.501275926993431
 30
0.0
 10
89.4080000818168
 20
2.0615875587345
 30
0.0
 10
89.4080000818168
 20
1.198459501469856
 30
0.0
 10
89.4080000818168
 20
0.7751465432637866
 30
0.0
 10
89.4080000818168
 20
-0.0214251894995969
 30
0.0
 10
89.4080000818168
 20
-0.3944391048679369
 30
0.0
 10
89.4080000818168
 20
-1.05522969872553
 30
0.0
 10
89.4080000818168
 20
-1.342717578032172
 30
0.0
 10
89.4080000818168
 20
-1.573495397051741
 30
0.0
  0
LINE
  5
BE
330
1F
100
AcDbEntity
  8
0
  6
Continuous
 62
     1
370
    15
100
AcDbLine
 10
108.4580000818168
 20
-3.834806627881921
 30
0.0
 11
108.4580000818168
 21
0.7506683715545537
 31
0.0
  0
SPLINE
  5
BF
330
1F
100
AcDbEntity
  8
0
  6
Continuous
 62
     1
370
    15
100
AcDbSpline
210
0.0
220
0.0
230
1.0
 70
     8
 71
     3
 72
    14
 73
    10
 74
     0
 42
0.000000001
 43
0.00000001
 40
0.0
 40
0.0
 40
0.0
 40
0.0
 40
0.25
 40
0.25
 40
0.5
 40
0.5
 40
0.75
 40
0.75
 40
1.0
 40
1.0
 40
1.0
 40
1.0
 10
108.4580000818168
 20
0.7506683715545558
 30
0.0
 10
108.4580000818168
 20
0.7254512974863709
 30
0.0
 10
108.4499677354527
 20
0.7067795351587091
 30
0.0
 10
108.4157273138764
 20
0.6852660902342833
 30
0.0
 10
108.3891500911993
 20
0.6827671938668669
 30
0.0
 10
108.3193413088159
 20
0.6958600383458603
 30
0.0
 10
108.2750870165891
 20
0.7116455800438178
 30
0.0
 10
108.173340213605
 20
0.7593282639421876
 30
0.0
 10
108.1158670241618
 20
0.7910486248505499
 30
0.0
 10
108.0530537896504
 20
0.8292067157402191
 30
0.0
  0
SPLINE
  5
C0
330
1F
100
AcDbEntity
  8
0
  6
Continuous
 62
     1
370
    15
100
AcDbSpline
210
0.0
220
0.0
230
1.0
 70
     8
 71
     3
 72
    11
 73
     7
 74
     0
 42
0.000000001
 43
0.00000001
 40
0.0
 40
0.0
 40
0.0
 40
0.0
 40
0.1820647354265675
 40
0.4547147569575923
 40
0.7273493892244082
 40
1.0
 40
1.0
 40
1.0
 40
1.0
 10
99.86527995027953
 20
5.768724196327435
 30
0.0
 10
100.2942938662738
 20
5.990311546248518
 30
0.0
 10
101.3657751615708
 20
6.54373578696251
 30
0.0
 10
103.0795520116989
 20
7.186416072971502
 30
0.0
 10
105.0067457191528
 20
7.716440756956159
 30
0.0
 10
106.2915694111877
 20
7.846050747626411
 30
0.0
 10
106.9340000818168
 20
7.937500000000005
 30
0.0
  0
LINE
  5
C2
330
1F
100
AcDbEntity
  8
0
  6
Continuous
 62
     1
370
    15
100
AcDbLine
 10
108.4580000818168
 20
5.13956271898625
 30
0.0
 11
108.4580000818168
 21
6.369417496596348
 31
0.0
  0
SPLINE
  5
C3
330
1F
100
AcDbEntity
  8
0
  6
Continuous
 62
     1
370
    15
100
AcDbSpline
210
0.0
220
0.0
230
1.0
 70
     8
 71
     3
 72
    18
 73
    14
 74
     0
 42
0.000000001
 43
0.00000001
 40
0.0
 40
0.0
 40
0.0
 40
0.0
 40
0.25
 40
0.25
 40
0.375
 40
0.375
 40
0.5
 40
0.5
 40
0.625
 40
0.625
 40
0.75
 40
0.75
 40
1.0
 40
1.0
 40
1.0
 40
1.0
 10
108.4580000818168
 20
5.139562718986253
 30
0.0
 10
108.3341655752876
 20
4.828820125309846
 30
0.0
 10
108.1845812378203
 20
4.54015076087873
 30
0.0
 10
107.9154246210868
 20
4.145533049574967
 30
0.0
 10
107.8173100596538
 20
4.019503537416389
 30
0.0
 10
107.6097538846971
 20
3.787327777702502
 30
0.0
 10
107.5004568605641
 20
3.681004786313483
 30
0.0
 10
107.2710291641047
 20
3.487527236320333
 30
0.0
 10
107.150899946103
 20
3.400370104517927
 30
0.0
 10
106.8997334948425
 20
3.245355854494727
 30
0.0
 10
106.768549075331
 20
3.177666689881636
 30
0.0
 10
106.3707880478017
 20
3.008659445698061
 30
0.0
 10
106.0945982246457
 20
2.938379517084442
 30
0.0
 10
105.8134279178232
 20
2.906664270008307
 30
0.0
  0
SPLINE
  5
C4
330
1F
100
AcDbEntity
  8
0
  6
Continuous
 62
     1
370
    15
100
AcDbSpline
210
0.0
220
0.0
230
1.0
 70
     8
 71
     3
 72
     8
 73
     4
 74
     0
 42
0.000000001
 43
0.00000001
 40
0.0
 40
0.0
 40
0.0
 40
0.0
 40
1.0
 40
1.0
 40
1.0
 40
1.0
 10
108.4580000818168
 20
1.531147021911054
 30
0.0
 10
107.5486981875812
 20
2.058259412536199
 30
0.0
 10
106.6665827305623
 20
2.518225827299488
 30
0.0
 10
105.8134279178205
 20
2.906664270005003
 30
0.0
  0
LINE
  5
C5
330
1F
100
AcDbEntity
  8
0
  6
Continuous
 62
     1
370
    15
100
AcDbLine
 10
108.4580000818168
 20
0.7506683715545537
 30
0.0
 11
108.4580000818168
 21
1.531147021911054
 31
0.0
  0
SPLINE
  5
C6
330
1F
100
AcDbEntity
  8
0
  6
Continuous
 62
     1
370
    15
100
AcDbSpline
210
0.0
220
0.0
230
1.0
 70
     8
 71
     3
 72
    11
 73
     7
 74
     0
 42
0.000000001
 43
0.00000001
 40
0.0
 40
0.0
 40
0.0
 40
0.0
 40
0.2666688244829814
 40
0.5333822749043454
 40
0.800160286604389
 40
1.0
 40
1.0
 40
1.0
 40
1.0
 10
89.4080000818168
 20
-6.077984020272735
 30
0.0
 10
90.06218282345412
 20
-6.375190960704827
 30
0.0
 10
91.37065778153811
 20
-6.969654577936343
 30
0.0
 10
93.33369815584112
 20
-7.55510394295027
 30
0.0
 10
95.13294020741702
 20
-7.896843482288114
 30
0.0
 10
96.27785645320347
 20
-7.907182158738326
 30
0.0
 10
96.76819302233628
 20
-7.911609933397501
 30
0.0
  0
LINE
  5
C7
330
1F
100
AcDbEntity
  8
0
  6
Continuous
 62
     4
370
    15
100
AcDbLine
 10
89.4080000818168
 20
-6.077984020272734
 30
0.0
 11
89.4080000818168
 21
-5.465386110949335
 31
0.0
  0
LINE
  5
C8
330
1F
100
AcDbEntity
  8
0
  6
Continuous
 62
     1
370
    15
100
AcDbLine
 10
108.4580000818168
 20
1.531147021911054
 30
0.0
 11
108.4580000818168
 21
5.13956271898625
 31
0.0
  0
LINE
  5
C9
330
1F
100
AcDbEntity
  8
0
  6
Continuous
 62
     1
370
    15
100
AcDbLine
 10
108.4580000818168
 20
-3.834806627881921
 30
0.0
 11
108.4580000818168
 21
-4.640327385311443
 31
0.0
  0
LINE
  5
CA
330
1F
100
AcDbEntity
  8
0
  6
Continuous
 62
     1
370
    15
100
AcDbLine
 10
108.4580000818168
 20
6.369417496596348
 30
0.0
 11
108.4580000818168
 21
6.413500000000002
 31
0.0
  0
LINE
  5
CB
330
1F
100
AcDbEntity
  8
중심선
100
AcDbLine
 10
-72.34199991818323
 20
0.0000000000000035
 30
0.0
 11
111.4580000818168
 21
0.0000000000000032
 31
0.0
  0
CIRCLE
  5
CC
330
1F
100
AcDbEntity
  8
외형선
100
AcDbCircle
 10
0.0
 20
0.0
 30
0.0
 40
3.000000000000012
  0
INSERT
  5
CD
330
1F
100
AcDbEntity
  8
0
  6
Continuous
 62
     7
100
AcDbBlockReference
 66
     1
  2
블럭10
 10
17.26235850084472
 20
-45.22119159388006
 30
0.0
  0
ATTRIB
  5
CE
330
CD
100
AcDbEntity
  8
FORMAT
 62
     2
100
AcDbText
 10
8.08106321210343
 20
-43.14582468104786
 30
0.0
 40
4.233333333333333
  1
E5985905 [ 3 FLUTE ]
 41
0.75
  7
SLDTEXTSTYLE0
 11
8.08106321210343
 21
-45.26249134771453
 31
0.0
100
AcDbAttribute
  2
AUTOATTR0
 70
     0
 74
     1
  0
SEQEND
  5
CF
330
CD
100
AcDbEntity
  8
0
  6
Continuous
 62
     7
  0
HATCH
  5
D0
330
1F
100
AcDbEntity
  8
중심선
100
AcDbHatch
 10
0.0
 20
0.0
 30
0.0
210
0.0
220
0.0
230
1.0
  2
SOLID
 70
     1
 71
     0
 91
        1
 92
        0
 93
        4
 72
     1
 10
22.97726780522557
 20
-28.97401729223613
 11
19.53099256138828
 21
-28.97401729223613
 72
     1
 10
19.53099256138828
 20
-28.97401729223613
 11
17.40276270218426
 21
-31.51034287280872
 72
     1
 10
17.40276270218426
 20
-31.51034287280872
 11
20.84907103113472
 21
-31.51030344350623
 72
     1
 10
20.84907103113472
 20
-31.51030344350623
 11
22.97726780522557
 21
-28.97401729223613
 97
        0
 75
     0
 76
     1
 98
        1
 10
40.72763145823609
 20
6.728890202907222
  0
HATCH
  5
D1
330
1F
100
AcDbEntity
  8
중심선
100
AcDbHatch
 10
0.0
 20
0.0
 30
0.0
210
0.0
220
0.0
230
1.0
  2
SOLID
 70
     1
 71
     0
 91
        1
 92
        0
 93
        4
 72
     1
 10
27.99003179626154
 20
-28.97401729223613
 11
24.54375655242426
 21
-28.97401729223613
 72
     1
 10
24.54375655242426
 20
-28.97401729223613
 11
20.01261854406684
 21
-34.37401729223614
 72
     1
 10
20.01261854406684
 20
-34.37401729223614
 11
23.45889378790413
 21
-34.37401729223614
 72
     1
 10
23.45889378790413
 20
-34.37401729223614
 11
27.99003179626154
 21
-28.97401729223613
 97
        0
 75
     0
 76
     1
 98
        1
 10
40.72763145823609
 20
6.728890202907222
  0
HATCH
  5
D2
330
1F
100
AcDbEntity
  8
중심선
100
AcDbHatch
 10
0.0
 20
0.0
 30
0.0
210
0.0
220
0.0
230
1.0
  2
SOLID
 70
     1
 71
     0
 91
        1
 92
        0
 93
        4
 72
     1
 10
33.00279578729741
 20
-28.97401729223613
 11
29.55652054346032
 21
-28.97401729223613
 72
     1
 10
29.55652054346032
 20
-28.97401729223613
 11
22.50808364157104
 21
-37.37401729223615
 72
     1
 10
22.50808364157104
 20
-37.37401729223615
 11
25.95435888540833
 21
-37.37401729223615
 72
     1
 10
25.95435888540833
 20
-37.37401729223615
 11
33.00279578729741
 21
-28.97401729223613
 97
        0
 75
     0
 76
     1
 98
        1
 10
40.72763145823609
 20
6.728890202907222
  0
HATCH
  5
D3
330
1F
100
AcDbEntity
  8
중심선
100
AcDbHatch
 10
0.0
 20
0.0
 30
0.0
210
0.0
220
0.0
230
1.0
  2
SOLID
 70
     1
 71
     0
 91
        1
 92
        0
 93
        6
 72
     3
 10
37.80268621830961
 20
-33.1740172922874
 11
3.960054785062283
 21
1.540882976769353E-10
 40
0.3939339440162628
 50
17.09539180608439
 51
320.0019657685081
 73
     0
 72
     1
 10
39.4856858740102
 20
-31.76191129687443
 11
41.79098774771127
 21
-29.82758458682648
 72
     3
 10
37.80268621825677
 20
-33.17401729223627
 11
6.600054785286829
 21
-1.278976924368180E-13
 40
0.636358354079598
 50
39.99873849337418
 51
368.4976242363724
 73
     1
 72
     1
 10
44.22801871015737
 20
-32.21401729216615
 11
36.48275352509268
 21
-32.21401729216615
 72
     1
 10
36.48275352509268
 20
-32.21401729216615
 11
36.48272848064675
 21
-34.13401729216604
 72
     1
 10
36.48272848064676
 20
-34.13401729216604
 11
40.92410825011879
 21
-34.13401729216601
 97
        0
 75
     0
 76
     1
 98
        1
 10
40.72763145823609
 20
6.728890202907222
  0
POINT
  5
D4
330
1F
100
AcDbEntity
  8
치수문자_일반주서
100
AcDbPoint
 10
50.80000000000001
 20
0.000000000000025
 30
0.0
  0
POINT
  5
D5
330
1F
100
AcDbEntity
  8
치수문자_일반주서
100
AcDbPoint
 10
-18.54199991818324
 20
0.0000000000000041
 30
0.0
  0
DIMENSION
  5
D6
330
1F
100
AcDbEntity
  8
치수문자_일반주서
100
AcDbDimension
  2
_D
 10
89.4080000818168
 20
25.44684348840691
 30
0.0
 11
70.33525008181678
 21
25.44684348840691
 31
0.0
 70
   160
  1
<>
 71
     2
 42
19.04999999999998
  3
SLDDIMSTYLE0
100
AcDbAlignedDimension
 13
108.4580000818168
 23
7.937499999999999
 33
0.0
 14
89.4080000818168
 24
7.717680084663576
 34
0.0
100
AcDbRotatedDimension
1001
ACAD
1000
DSTYLE
1002
{
1070
   171
1070
     6
1070
   273
1070
     5
1002
}
  0
DIMENSION
  5
EC
330
1F
100
AcDbEntity
  8
치수문자_일반주서
100
AcDbDimension
  2
_D_1
 10
-69.34199991818323
 20
69.77225965011003
 30
0.0
 11
44.45084551936037
 21
69.77225965011003
 31
0.0
 70
   160
  1
<>
 71
     2
 42
177.8
  3
SLDDIMSTYLE1
100
AcDbAlignedDimension
 13
108.4580000818168
 23
7.937499999999999
 33
0.0
 14
-69.34199991818323
 24
7.437499999999994
 34
0.0
 50
0.0000000000000064
100
AcDbRotatedDimension
1001
ACAD
1000
DSTYLE
1002
{
1070
   171
1070
     6
1070
   273
1070
     5
1002
}
  0
DIMENSION
  5
100
330
1F
100
AcDbEntity
  8
치수문자_일반주서
100
AcDbDimension
  2
_D_2
 10
-84.573927659977
 20
-7.93750000000005
 30
0.0
 11
-84.57392765997713
 21
28.61737717968854
 31
0.0
 70
   160
  1
%%c<>
 71
     2
 42
15.87499999999999
 52
-270.0
  3
SLDDIMSTYLE0
100
AcDbAlignedDimension
 13
-68.84199991818323
 23
7.937499999999993
 33
0.0
 14
-68.84199991818323
 24
-7.937499999999994
 34
0.0
 50
90.0000000000002
100
AcDbRotatedDimension
1001
ACAD
1000
DSTYLE
1002
{
1070
   171
1070
     6
1070
   273
1070
     5
1002
}
  0
DIMENSION
  5
114
330
1F
100
AcDbEntity
  8
치수문자_일반주서
100
AcDbDimension
  2
_D_3
 10
108.4580000818168
 20
53.91009778227561
 30
0.0
 11
67.18300004090838
 21
53.91009778227561
 31
0.0
 70
   160
  1
<>
 71
     2
 42
107.9500000818168
  3
SLDDIMSTYLE1
100
AcDbAlignedDimension
 13
0.5080000000000027
 23
7.429500000000002
 33
0.0
 14
108.4580000818168
 24
7.937499999999999
 34
0.0
100
AcDbRotatedDimension
1001
ACAD
1000
DSTYLE
1002
{
1070
   171
1070
     6
1070
   273
1070
     5
1002
}
  0
INSERT
  5
12D
330
1F
100
AcDbEntity
  8
외형선
100
AcDbBlockReference
  2
SW_DOWELSYMBOL_0
 10
0.0
 20
0.0
 30
0.0
  0
ARC
  5
155
330
1F
100
AcDbEntity
  8
0
  6
Continuous
 62
     1
370
    15
100
AcDbCircle
 10
106.9340000818168
 20
-6.413500000000001
 30
0.0
 40
1.524
100
AcDbArc
 50
270.0
 51
0.0
  0
ARC
  5
158
330
1F
100
AcDbEntity
  8
0
  6
Continuous
 62
     1
370
    15
100
AcDbCircle
 10
106.9340000818168
 20
6.413500000000006
 30
0.0
 40
1.524
100
AcDbArc
 50
0.0
 51
90.0
  0
DIMENSION
  5
15A
330
1F
100
AcDbEntity
  8
치수문자_일반주서
100
AcDbDimension
  2
*D7
 10
121.2305914684605
 20
7.937499999999998
 30
0.0
 11
118.6055914684605
 21
25.2395
 31
0.0
 70
    32
  1
{Ø<>[]}
 71
     5
 42
15.875
  3
SLDDIMSTYLE1
100
AcDbAlignedDimension
 13
108.4580000818168
 23
-7.937500000000001
 33
0.0
 14
108.4580000818168
 24
7.937499999999999
 34
0.0
 50
90.0
100
AcDbRotatedDimension
1001
ACAD
1000
DSTYLE
1002
{
1070
   171
1070
     6
1070
   273
1070
     5
1070
   283
1070
     1
1070
   170
1070
     1
1002
}
  0
DIMENSION
  5
16C
330
1F
100
AcDbEntity
  8
치수문자_일반주서
100
AcDbDimension
  2
*D8
 10
106.9340000818168
 20
-6.413500000000001
 30
0.0
 11
118.0036405691031
 21
-25.57365249110068
 31
0.0
 70
   164
  1
<>
 71
     5
 42
1.523999999999994
  3
SLDDIMSTYLE1
100
AcDbRadialDimension
 15
107.696388553555
 25
-7.733098354864305
 35
0.0
 40
0.0
1001
ACAD_DSTYLE_DIMRADIAL_EXTENSION
1070
   387
1070
     1
1070
   388
1040
4.71238898038469
1070
   390
1040
0.0
  0
LINE
  5
1CC
330
1F
100
AcDbEntity
  8
0
  6
Continuous
 62
     4
370
    15
100
AcDbLine
 10
0.5080000000000027
 20
7.429500000000002
 30
0.0
 11
0.5080000000000027
 21
-7.4295
 31
0.0
  0
LINE
  5
1CD
330
1F
100
AcDbEntity
  8
0
  6
Continuous
 62
     4
370
    15
100
AcDbLine
 10
-69.34199991818323
 20
7.437499999999994
 30
0.0
 11
-69.34199991818323
 21
-7.437499999999992
 31
0.0
  0
ENDSEC
  0
SECTION
  2
OBJECTS
  0
DICTIONARY
  5
C
330
0
100
AcDbDictionary
281
     1
  3
ACAD_GROUP
350
D
  3
ACAD_IMAGE_VARS
350
151
  3
ACAD_LAYOUT
350
1A
  3
ACAD_MLINESTYLE
350
17
  3
ACAD_PLOTSETTINGS
350
19
  3
ACAD_PLOTSTYLENAME
350
E
  3
ACAD_SCALELIST
350
47
  3
APPDATA
350
14F
  3
DWGPROPS
350
1CF
  0
DICTIONARY
  5
D
102
{ACAD_REACTORS
330
C
102
}
330
C
100
AcDbDictionary
281
     1
  0
RASTERVARIABLES
  5
151
102
{ACAD_REACTORS
330
C
102
}
330
C
100
AcDbRasterVariables
 90
        0
 70
     1
 71
     1
 72
     1
  0
DICTIONARY
  5
1A
102
{ACAD_REACTORS
330
C
102
}
330
C
100
AcDbDictionary
281
     1
  3
Layout1
350
1E
  3
Layout2
350
26
  3
Model
350
22
  0
DICTIONARY
  5
17
102
{ACAD_REACTORS
330
C
102
}
330
C
100
AcDbDictionary
281
     1
  3
Standard
350
18
  0
DICTIONARY
  5
19
102
{ACAD_REACTORS
330
C
102
}
330
C
100
AcDbDictionary
281
     1
  0
ACDBDICTIONARYWDFLT
  5
E
102
{ACAD_REACTORS
330
C
102
}
330
C
100
AcDbDictionary
281
     1
  3
Normal
350
F
100
AcDbDictionaryWithDefault
340
F
  0
DICTIONARY
  5
47
102
{ACAD_REACTORS
330
C
102
}
330
C
100
AcDbDictionary
281
     1
  3
A0
350
48
  3
A1
350
49
  3
A2
350
4A
  3
A3
350
4B
  3
A4
350
4C
  3
A5
350
4D
  3
A6
350
4E
  3
A7
350
4F
  3
A8
350
50
  3
A9
350
51
  3
B0
350
52
  3
B1
350
53
  3
B2
350
54
  3
B3
350
55
  3
B4
350
56
  3
B5
350
57
  3
B6
350
58
  3
B7
350
59
  3
B8
350
5A
  3
B9
350
5B
  3
C0
350
5C
  3
C1
350
5D
  3
C2
350
5E
  3
C3
350
5F
  3
C4
350
60
  3
C5
350
61
  3
C6
350
62
  3
C7
350
63
  3
C8
350
64
  3
C9
350
65
  3
D0
350
66
  3
D1
350
67
  3
D2
350
68
  0
DICTIONARY
  5
14F
102
{ACAD_REACTORS
330
C
102
}
330
C
100
AcDbDictionary
281
     1
  0
XRECORD
  5
1CF
102
{ACAD_REACTORS
330
C
102
}
330
C
100
AcDbXrecord
280
     1
  1
DWGPROPS COOKIE
  2

  3

  4

  6

  7

  8
12014074
  9

300
=
301
=
302
=
303
=
304
=
305
=
306
=
307
=
308
=
309
=
 40
0.0
 41
2458269.041536563
 42
2458270.131977222
  1

 90
        0
  0
LAYOUT
  5
1E
102
{ACAD_REACTORS
330
1A
102
}
330
1A
100
AcDbPlotSettings
  1

  2
none_device
  4

  6

 40
0.0
 41
0.0
 42
0.0
 43
0.0
 44
0.0
 45
0.0
 46
0.0
 47
0.0
 48
0.0
 49
0.0
140
0.0
141
0.0
142
1.0
143
1.0
 70
   688
 72
     1
 73
     0
 74
     5
  7

 75
    16
147
1.0
148
0.0
149
0.0
100
AcDbLayout
  1
Layout1
 70
     1
 71
     1
 10
0.0
 20
0.0
 11
420.0
 21
297.0
 12
0.0
 22
0.0
 32
0.0
 14
1.000000000000000E+20
 24
1.000000000000000E+20
 34
1.000000000000000E+20
 15
-1.000000000000000E+20
 25
-1.000000000000000E+20
 35
-1.000000000000000E+20
146
0.0
 13
0.0
 23
0.0
 33
0.0
 16
1.0
 26
0.0
 36
0.0
 17
0.0
 27
1.0
 37
0.0
 76
     0
330
1B
  0
LAYOUT
  5
26
102
{ACAD_REACTORS
330
1A
102
}
330
1A
100
AcDbPlotSettings
  1

  2
none_device
  4

  6

 40
0.0
 41
0.0
 42
0.0
 43
0.0
 44
0.0
 45
0.0
 46
0.0
 47
0.0
 48
0.0
 49
0.0
140
0.0
141
0.0
142
1.0
143
1.0
 70
   688
 72
     1
 73
     0
 74
     5
  7

 75
    16
147
1.0
148
0.0
149
0.0
100
AcDbLayout
  1
Layout2
 70
     1
 71
     2
 10
0.0
 20
0.0
 11
0.0
 21
0.0
 12
0.0
 22
0.0
 32
0.0
 14
0.0
 24
0.0
 34
0.0
 15
0.0
 25
0.0
 35
0.0
146
0.0
 13
0.0
 23
0.0
 33
0.0
 16
1.0
 26
0.0
 36
0.0
 17
0.0
 27
1.0
 37
0.0
 76
     0
330
23
  0
LAYOUT
  5
22
102
{ACAD_REACTORS
330
1A
102
}
330
1A
100
AcDbPlotSettings
  1

  2
none_device
  4
ANSI_A_(11.00_x_8.50_Inches)
  6

 40
6.35
 41
19.05
 42
6.35000508
 43
19.05000254
 44
279.4
 45
215.9
 46
178.0952254539299
 47
64.50374937183273
 48
0.0
 49
0.0
140
0.0
141
0.0
142
0.0641466293059438
143
1.0
 70
  1696
 72
     0
 73
     0
 74
     0
  7

 75
     0
147
0.0235690232323232
148
0.0
149
0.0
100
AcDbLayout
  1
Model
 70
     1
 71
     0
 10
0.0
 20
0.0
 11
420.0
 21
297.0
 12
0.0
 22
0.0
 32
0.0
 14
-88.94892765997717
 24
-43.14582468104787
 34
0.0
 15
128.3577032292711
 25
74.14725965011003
 35
0.0
146
0.0
 13
0.0
 23
0.0
 33
0.0
 16
1.0
 26
0.0
 36
0.0
 17
0.0
 27
1.0
 37
0.0
 76
     0
330
1F
331
29
  0
MLINESTYLE
  5
18
102
{ACAD_REACTORS
330
17
102
}
330
17
100
AcDbMlineStyle
  2
Standard
 70
     0
  3

 62
   256
 51
90.0
 52
90.0
 71
     2
 49
0.5
 62
   256
  6
BYLAYER
 49
-0.5
 62
   256
  6
BYLAYER
  0
ACDBPLACEHOLDER
  5
F
102
{ACAD_REACTORS
330
E
102
}
330
E
  0
SCALE
  5
48
102
{ACAD_REACTORS
330
47
102
}
330
47
100
AcDbScale
 70
     0
300
1:1
140
1.0
141
1.0
290
     1
  0
SCALE
  5
49
102
{ACAD_REACTORS
330
47
102
}
330
47
100
AcDbScale
 70
     0
300
1:2
140
1.0
141
2.0
290
     0
  0
SCALE
  5
4A
102
{ACAD_REACTORS
330
47
102
}
330
47
100
AcDbScale
 70
     0
300
1:4
140
1.0
141
4.0
290
     0
  0
SCALE
  5
4B
102
{ACAD_REACTORS
330
47
102
}
330
47
100
AcDbScale
 70
     0
300
1:5
140
1.0
141
5.0
290
     0
  0
SCALE
  5
4C
102
{ACAD_REACTORS
330
47
102
}
330
47
100
AcDbScale
 70
     0
300
1:8
140
1.0
141
8.0
290
     0
  0
SCALE
  5
4D
102
{ACAD_REACTORS
330
47
102
}
330
47
100
AcDbScale
 70
     0
300
1:10
140
1.0
141
10.0
290
     0
  0
SCALE
  5
4E
102
{ACAD_REACTORS
330
47
102
}
330
47
100
AcDbScale
 70
     0
300
1:16
140
1.0
141
16.0
290
     0
  0
SCALE
  5
4F
102
{ACAD_REACTORS
330
47
102
}
330
47
100
AcDbScale
 70
     0
300
1:20
140
1.0
141
20.0
290
     0
  0
SCALE
  5
50
102
{ACAD_REACTORS
330
47
102
}
330
47
100
AcDbScale
 70
     0
300
1:30
140
1.0
141
30.0
290
     0
  0
SCALE
  5
51
102
{ACAD_REACTORS
330
47
102
}
330
47
100
AcDbScale
 70
     0
300
1:40
140
1.0
141
40.0
290
     0
  0
SCALE
  5
52
102
{ACAD_REACTORS
330
47
102
}
330
47
100
AcDbScale
 70
     0
300
1:50
140
1.0
141
50.0
290
     0
  0
SCALE
  5
53
102
{ACAD_REACTORS
330
47
102
}
330
47
100
AcDbScale
 70
     0
300
1:100
140
1.0
141
100.0
290
     0
  0
SCALE
  5
54
102
{ACAD_REACTORS
330
47
102
}
330
47
100
AcDbScale
 70
     0
300
2:1
140
2.0
141
1.0
290
     0
  0
SCALE
  5
55
102
{ACAD_REACTORS
330
47
102
}
330
47
100
AcDbScale
 70
     0
300
4:1
140
4.0
141
1.0
290
     0
  0
SCALE
  5
56
102
{ACAD_REACTORS
330
47
102
}
330
47
100
AcDbScale
 70
     0
300
8:1
140
8.0
141
1.0
290
     0
  0
SCALE
  5
57
102
{ACAD_REACTORS
330
47
102
}
330
47
100
AcDbScale
 70
     0
300
10:1
140
10.0
141
1.0
290
     0
  0
SCALE
  5
58
102
{ACAD_REACTORS
330
47
102
}
330
47
100
AcDbScale
 70
     0
300
100:1
140
100.0
141
1.0
290
     0
  0
SCALE
  5
59
102
{ACAD_REACTORS
330
47
102
}
330
47
100
AcDbScale
 70
     0
300
1/128" = 1'-0"
140
0.0078125
141
12.0
290
     0
  0
SCALE
  5
5A
102
{ACAD_REACTORS
330
47
102
}
330
47
100
AcDbScale
 70
     0
300
1/64" = 1'-0"
140
0.015625
141
12.0
290
     0
  0
SCALE
  5
5B
102
{ACAD_REACTORS
330
47
102
}
330
47
100
AcDbScale
 70
     0
300
1/32" = 1'-0"
140
0.03125
141
12.0
290
     0
  0
SCALE
  5
5C
102
{ACAD_REACTORS
330
47
102
}
330
47
100
AcDbScale
 70
     0
300
1/16" = 1'-0"
140
0.0625
141
12.0
290
     0
  0
SCALE
  5
5D
102
{ACAD_REACTORS
330
47
102
}
330
47
100
AcDbScale
 70
     0
300
3/32" = 1'-0"
140
0.09375
141
12.0
290
     0
  0
SCALE
  5
5E
102
{ACAD_REACTORS
330
47
102
}
330
47
100
AcDbScale
 70
     0
300
1/8" = 1'-0"
140
0.125
141
12.0
290
     0
  0
SCALE
  5
5F
102
{ACAD_REACTORS
330
47
102
}
330
47
100
AcDbScale
 70
     0
300
3/16" = 1'-0"
140
0.1875
141
12.0
290
     0
  0
SCALE
  5
60
102
{ACAD_REACTORS
330
47
102
}
330
47
100
AcDbScale
 70
     0
300
1/4" = 1'-0"
140
0.25
141
12.0
290
     0
  0
SCALE
  5
61
102
{ACAD_REACTORS
330
47
102
}
330
47
100
AcDbScale
 70
     0
300
3/8" = 1'-0"
140
0.375
141
12.0
290
     0
  0
SCALE
  5
62
102
{ACAD_REACTORS
330
47
102
}
330
47
100
AcDbScale
 70
     0
300
1/2" = 1'-0"
140
0.5
141
12.0
290
     0
  0
SCALE
  5
63
102
{ACAD_REACTORS
330
47
102
}
330
47
100
AcDbScale
 70
     0
300
3/4" = 1'-0"
140
0.75
141
12.0
290
     0
  0
SCALE
  5
64
102
{ACAD_REACTORS
330
47
102
}
330
47
100
AcDbScale
 70
     0
300
1" = 1'-0"
140
1.0
141
12.0
290
     0
  0
SCALE
  5
65
102
{ACAD_REACTORS
330
47
102
}
330
47
100
AcDbScale
 70
     0
300
1-1/2" = 1'-0"
140
1.5
141
12.0
290
     0
  0
SCALE
  5
66
102
{ACAD_REACTORS
330
47
102
}
330
47
100
AcDbScale
 70
     0
300
3" = 1'-0"
140
3.0
141
12.0
290
     0
  0
SCALE
  5
67
102
{ACAD_REACTORS
330
47
102
}
330
47
100
AcDbScale
 70
     0
300
6" = 1'-0"
140
6.0
141
12.0
290
     0
  0
SCALE
  5
68
102
{ACAD_REACTORS
330
47
102
}
330
47
100
AcDbScale
 70
     0
300
1'-0" = 1'-0"
140
12.0
141
12.0
290
     0
  0
ENDSEC
  0
EOF
