  0
SECTION
  2
HEADER
  9
$ACADVER
  1
AC1015
  9
$ACADMAINTVER
 70
     6
  9
$DWGCODEPAGE
  3
ANSI_949
  9
$INSBASE
 10
0.0
 20
0.0
 30
0.0
  9
$EXTMIN
 10
-52.68484065240881
 20
-49.97180738881174
 30
0.0
  9
$EXTMAX
 10
43.35209048266666
 20
35.1360281925114
 30
0.0
  9
$LIMMIN
 10
0.0
 20
0.0
  9
$LIMMAX
 10
420.0
 20
297.0
  9
$ORTHOMODE
 70
     1
  9
$REGENMODE
 70
     1
  9
$FILLMODE
 70
     1
  9
$QTEXTMODE
 70
     0
  9
$MIRRTEXT
 70
     1
  9
$LTSCALE
 40
1.0
  9
$ATTMODE
 70
     1
  9
$TEXTSIZE
 40
3.5
  9
$TRACEWID
 40
1.0
  9
$TEXTSTYLE
  7
Standard
  9
$CLAYER
  8
0
  9
$CELTYPE
  6
ByLayer
  9
$CECOLOR
 62
   256
  9
$CELTSCALE
 40
1.0
  9
$DISPSILH
 70
     0
  9
$DIMSCALE
 40
1.0
  9
$DIMASZ
 40
3.302
  9
$DIMEXO
 40
1.0
  9
$DIMDLI
 40
3.75
  9
$DIMRND
 40
0.0
  9
$DIMDLE
 40
0.0
  9
$DIMEXE
 40
1.0
  9
$DIMTP
 40
0.0
  9
$DIMTM
 40
0.0
  9
$DIMTXT
 40
3.5
  9
$DIMCEN
 40
2.5
  9
$DIMTSZ
 40
0.0
  9
$DIMTOL
 70
     0
  9
$DIMLIM
 70
     0
  9
$DIMTIH
 70
     1
  9
$DIMTOH
 70
     1
  9
$DIMSE1
 70
     0
  9
$DIMSE2
 70
     0
  9
$DIMTAD
 70
     1
  9
$DIMZIN
 70
     0
  9
$DIMBLK
  1

  9
$DIMASO
 70
     1
  9
$DIMSHO
 70
     1
  9
$DIMPOST
  1

  9
$DIMAPOST
  1

  9
$DIMALT
 70
     0
  9
$DIMALTD
 70
     3
  9
$DIMALTF
 40
0.0393700787401575
  9
$DIMLFAC
 40
1.0
  9
$DIMTOFL
 70
     1
  9
$DIMTVP
 40
0.0
  9
$DIMTIX
 70
     0
  9
$DIMSOXD
 70
     0
  9
$DIMSAH
 70
     0
  9
$DIMBLK1
  1

  9
$DIMBLK2
  1

  9
$DIMSTYLE
  2
ISO-25
  9
$DIMCLRD
 70
     0
  9
$DIMCLRE
 70
     0
  9
$DIMCLRT
 70
     0
  9
$DIMTFAC
 40
1.0
  9
$DIMGAP
 40
1.524
  9
$DIMJUST
 70
     0
  9
$DIMSD1
 70
     0
  9
$DIMSD2
 70
     0
  9
$DIMTOLJ
 70
     0
  9
$DIMTZIN
 70
     0
  9
$DIMALTZ
 70
     0
  9
$DIMALTTZ
 70
     0
  9
$DIMUPT
 70
     0
  9
$DIMDEC
 70
     2
  9
$DIMTDEC
 70
     2
  9
$DIMALTU
 70
     2
  9
$DIMALTTD
 70
     3
  9
$DIMTXSTY
  7
Standard
  9
$DIMAUNIT
 70
     0
  9
$DIMADEC
 70
     2
  9
$DIMALTRND
 40
0.0
  9
$DIMAZIN
 70
     0
  9
$DIMDSEP
 70
    44
  9
$DIMATFIT
 70
     3
  9
$DIMFRAC
 70
     0
  9
$DIMLDRBLK
  1

  9
$DIMLUNIT
 70
     2
  9
$DIMLWD
 70
    -2
  9
$DIMLWE
 70
    -2
  9
$DIMTMOVE
 70
     0
  9
$LUNITS
 70
     2
  9
$LUPREC
 70
     2
  9
$SKETCHINC
 40
1.0
  9
$FILLETRAD
 40
10.0
  9
$AUNITS
 70
     0
  9
$AUPREC
 70
     2
  9
$MENU
  1
.
  9
$ELEVATION
 40
0.0
  9
$PELEVATION
 40
0.0
  9
$THICKNESS
 40
0.0
  9
$LIMCHECK
 70
     0
  9
$CHAMFERA
 40
0.0
  9
$CHAMFERB
 40
0.0
  9
$CHAMFERC
 40
0.0
  9
$CHAMFERD
 40
0.0
  9
$SKPOLY
 70
     0
  9
$TDCREATE
 40
2458270.781324514
  9
$TDUCREATE
 40
2458270.406324514
  9
$TDUPDATE
 40
2459720.752092732
  9
$TDUUPDATE
 40
2459720.377092732
  9
$TDINDWG
 40
0.0022997222
  9
$TDUSRTIMER
 40
0.0009719907
  9
$USRTIMER
 70
     1
  9
$ANGBASE
 50
0.0
  9
$ANGDIR
 70
     0
  9
$PDMODE
 70
     0
  9
$PDSIZE
 40
-1.0
  9
$PLINEWID
 40
0.0
  9
$SPLFRAME
 70
     0
  9
$SPLINETYPE
 70
     6
  9
$SPLINESEGS
 70
     8
  9
$HANDSEED
  5
29E
  9
$SURFTAB1
 70
     6
  9
$SURFTAB2
 70
     6
  9
$SURFTYPE
 70
     6
  9
$SURFU
 70
     6
  9
$SURFV
 70
     6
  9
$UCSBASE
  2

  9
$UCSNAME
  2

  9
$UCSORG
 10
0.0
 20
0.0
 30
0.0
  9
$UCSXDIR
 10
1.0
 20
0.0
 30
0.0
  9
$UCSYDIR
 10
0.0
 20
1.0
 30
0.0
  9
$UCSORTHOREF
  2

  9
$UCSORTHOVIEW
 70
     0
  9
$UCSORGTOP
 10
0.0
 20
0.0
 30
0.0
  9
$UCSORGBOTTOM
 10
0.0
 20
0.0
 30
0.0
  9
$UCSORGLEFT
 10
0.0
 20
0.0
 30
0.0
  9
$UCSORGRIGHT
 10
0.0
 20
0.0
 30
0.0
  9
$UCSORGFRONT
 10
0.0
 20
0.0
 30
0.0
  9
$UCSORGBACK
 10
0.0
 20
0.0
 30
0.0
  9
$PUCSBASE
  2

  9
$PUCSNAME
  2

  9
$PUCSORG
 10
0.0
 20
0.0
 30
0.0
  9
$PUCSXDIR
 10
1.0
 20
0.0
 30
0.0
  9
$PUCSYDIR
 10
0.0
 20
1.0
 30
0.0
  9
$PUCSORTHOREF
  2

  9
$PUCSORTHOVIEW
 70
     0
  9
$PUCSORGTOP
 10
0.0
 20
0.0
 30
0.0
  9
$PUCSORGBOTTOM
 10
0.0
 20
0.0
 30
0.0
  9
$PUCSORGLEFT
 10
0.0
 20
0.0
 30
0.0
  9
$PUCSORGRIGHT
 10
0.0
 20
0.0
 30
0.0
  9
$PUCSORGFRONT
 10
0.0
 20
0.0
 30
0.0
  9
$PUCSORGBACK
 10
0.0
 20
0.0
 30
0.0
  9
$USERI1
 70
     0
  9
$USERI2
 70
     0
  9
$USERI3
 70
     0
  9
$USERI4
 70
     0
  9
$USERI5
 70
     0
  9
$USERR1
 40
0.0
  9
$USERR2
 40
0.0
  9
$USERR3
 40
0.0
  9
$USERR4
 40
0.0
  9
$USERR5
 40
0.0
  9
$WORLDVIEW
 70
     1
  9
$SHADEDGE
 70
     3
  9
$SHADEDIF
 70
    70
  9
$TILEMODE
 70
     1
  9
$MAXACTVP
 70
    64
  9
$PINSBASE
 10
0.0
 20
0.0
 30
0.0
  9
$PLIMCHECK
 70
     0
  9
$PEXTMIN
 10
1.000000000000000E+20
 20
1.000000000000000E+20
 30
1.000000000000000E+20
  9
$PEXTMAX
 10
-1.000000000000000E+20
 20
-1.000000000000000E+20
 30
-1.000000000000000E+20
  9
$PLIMMIN
 10
0.0
 20
0.0
  9
$PLIMMAX
 10
0.0
 20
0.0
  9
$UNITMODE
 70
     0
  9
$VISRETAIN
 70
     1
  9
$PLINEGEN
 70
     0
  9
$PSLTSCALE
 70
     1
  9
$TREEDEPTH
 70
  3020
  9
$CMLSTYLE
  2
Standard
  9
$CMLJUST
 70
     0
  9
$CMLSCALE
 40
20.0
  9
$PROXYGRAPHICS
 70
     1
  9
$MEASUREMENT
 70
     1
  9
$CELWEIGHT
370
    -1
  9
$ENDCAPS
280
     0
  9
$JOINSTYLE
280
     0
  9
$LWDISPLAY
290
     1
  9
$INSUNITS
 70
     4
  9
$HYPERLINKBASE
  1

  9
$STYLESHEET
  1

  9
$XEDIT
290
     1
  9
$CEPSNTYPE
380
     0
  9
$PSTYLEMODE
290
     1
  9
$FINGERPRINTGUID
  2
{21D84E8A-334C-4740-8889-4AC90F2C0ACE}
  9
$VERSIONGUID
  2
{FAEB1C32-E019-11D5-929B-00C0DF256EC4}
  9
$EXTNAMES
290
     1
  9
$PSVPSCALE
 40
0.0
  9
$OLESTARTUP
290
     0
  0
ENDSEC
  0
SECTION
  2
CLASSES
  0
CLASS
  1
ACDBDICTIONARYWDFLT
  2
AcDbDictionaryWithDefault
  3
ObjectDBX Classes
 90
        0
280
     0
281
     0
  0
CLASS
  1
VISUALSTYLE
  2
AcDbVisualStyle
  3
ObjectDBX Classes
 90
     4095
280
     0
281
     0
  0
CLASS
  1
MATERIAL
  2
AcDbMaterial
  3
ObjectDBX Classes
 90
     1153
280
     0
281
     0
  0
CLASS
  1
SCALE
  2
AcDbScale
  3
ObjectDBX Classes
 90
     1153
280
     0
281
     0
  0
CLASS
  1
SUN
  2
AcDbSun
  3
SCENEOE
 90
     1153
280
     0
281
     0
  0
CLASS
  1
ACDBPLACEHOLDER
  2
AcDbPlaceHolder
  3
ObjectDBX Classes
 90
        0
280
     0
281
     0
  0
CLASS
  1
LAYOUT
  2
AcDbLayout
  3
ObjectDBX Classes
 90
        0
280
     0
281
     0
  0
CLASS
  1
TABLESTYLE
  2
AcDbTableStyle
  3
ObjectDBX Classes
 90
     4095
280
     0
281
     0
  0
CLASS
  1
MLEADERSTYLE
  2
AcDbMLeaderStyle
  3
ACDB_MLEADERSTYLE_CLASS
 90
     4095
280
     0
281
     0
  0
CLASS
  1
RASTERVARIABLES
  2
AcDbRasterVariables
  3
ISM
 90
        0
280
     0
281
     0
  0
CLASS
  1
DIMASSOC
  2
AcDbDimAssoc
  3
"AcDbDimAssoc|Product Desc:     AcDim ARX App For Dimension|Company:          Autodesk, Inc.|WEB Address:      www.autodesk.com"
 90
        0
280
     0
281
     0
  0
CLASS
  1
BREAKDATA
  2
AcDbBreakData
  3
ObjectDBX Classes
 90
     1024
280
     0
281
     0
  0
ENDSEC
  0
SECTION
  2
TABLES
  0
TABLE
  2
VPORT
  5
8
330
0
100
AcDbSymbolTable
 70
     1
  0
VPORT
  5
29
330
8
100
AcDbSymbolTableRecord
100
AcDbViewportTableRecord
  2
*Active
 70
     0
 10
0.0
 20
0.0
 11
1.0
 21
1.0
 12
-4.666375084871113
 22
-7.41788959815014
 13
0.0
 23
0.0
 14
10.0
 24
10.0
 15
10.0
 25
10.0
 16
0.0
 26
0.0
 36
1.0
 17
0.0
 27
0.0
 37
0.0
 40
86.80999229294967
 41
1.913499344692005
 42
50.0
 43
0.0
 44
0.0
 50
0.0
 51
0.0
 71
    16
 72
  2000
 73
     1
 74
     3
 75
     0
 76
     0
 77
     0
 78
     0
281
     0
 65
     1
110
0.0
120
0.0
130
0.0
111
1.0
121
0.0
131
0.0
112
0.0
122
1.0
132
0.0
 79
     0
146
0.0
  0
ENDTAB
  0
TABLE
  2
LTYPE
  5
5
330
0
100
AcDbSymbolTable
 70
     6
  0
LTYPE
  5
14
330
5
100
AcDbSymbolTableRecord
100
AcDbLinetypeTableRecord
  2
ByBlock
 70
     0
  3

 72
    65
 73
     0
 40
0.0
  0
LTYPE
  5
15
330
5
100
AcDbSymbolTableRecord
100
AcDbLinetypeTableRecord
  2
ByLayer
 70
     0
  3

 72
    65
 73
     0
 40
0.0
  0
LTYPE
  5
16
330
5
100
AcDbSymbolTableRecord
100
AcDbLinetypeTableRecord
  2
Continuous
 70
     0
  3
Solid line
 72
    65
 73
     0
 40
0.0
  0
LTYPE
  5
6A
330
5
100
AcDbSymbolTableRecord
100
AcDbLinetypeTableRecord
  2
HIDDEN
 70
     0
  3
Hidden __ __ __ __ __ __ __ __ __ __ __ __ __ __
 72
    65
 73
     2
 40
1.905
 49
1.27
 74
     0
 49
-0.635
 74
     0
  0
LTYPE
  5
6B
330
5
100
AcDbSymbolTableRecord
100
AcDbLinetypeTableRecord
  2
PHANTOM
 70
     0
  3
Phantom ______  __  __  ______  __  __  ______
 72
    65
 73
     6
 40
12.7
 49
6.35
 74
     0
 49
-1.27
 74
     0
 49
1.27
 74
     0
 49
-1.27
 74
     0
 49
1.27
 74
     0
 49
-1.27
 74
     0
  0
LTYPE
  5
6C
330
5
100
AcDbSymbolTableRecord
100
AcDbLinetypeTableRecord
  2
CENTER
 70
     0
  3
Center ____ _ ____ _ ____ _ ____ _ ____ _ ____
 72
    65
 73
     4
 40
10.16
 49
6.35
 74
     0
 49
-1.27
 74
     0
 49
1.27
 74
     0
 49
-1.27
 74
     0
  0
LTYPE
  5
6D
330
5
100
AcDbSymbolTableRecord
100
AcDbLinetypeTableRecord
  2
CENTERX2
 70
     0
  3
Center (2x) ________  __  ________  __  _____
 72
    65
 73
     4
 40
20.32
 49
12.7
 74
     0
 49
-2.54
 74
     0
 49
2.54
 74
     0
 49
-2.54
 74
     0
  0
LTYPE
  5
6E
330
5
100
AcDbSymbolTableRecord
100
AcDbLinetypeTableRecord
  2
DOT2
 70
     0
  3
Dot (.5x) ........................................
 72
    65
 73
     2
 40
0.635
 49
0.0
 74
     0
 49
-0.635
 74
     0
  0
ENDTAB
  0
TABLE
  2
LAYER
  5
2
330
0
100
AcDbSymbolTable
 70
    17
  0
LAYER
  5
10
330
2
100
AcDbSymbolTableRecord
100
AcDbLayerTableRecord
  2
0
 70
     0
 62
     7
  6
Continuous
370
    -3
390
F
  0
LAYER
  5
6F
330
2
100
AcDbSymbolTableRecord
100
AcDbLayerTableRecord
  2
FORMAT
 70
     0
 62
     2
  6
Continuous
370
    -3
390
F
  0
LAYER
  5
70
330
2
100
AcDbSymbolTableRecord
100
AcDbLayerTableRecord
  2
외형선
 70
     0
 62
   100
  6
Continuous
370
    30
390
F
  0
LAYER
  5
71
330
2
100
AcDbSymbolTableRecord
100
AcDbLayerTableRecord
  2
숨은선
 70
     0
 62
     2
  6
HIDDEN
370
    15
390
F
  0
LAYER
  5
72
330
2
100
AcDbSymbolTableRecord
100
AcDbLayerTableRecord
  2
중심선
 70
     0
 62
     1
  6
CENTERX2
370
    -3
390
F
  0
LAYER
  5
73
330
2
100
AcDbSymbolTableRecord
100
AcDbLayerTableRecord
  2
파단선
 70
     0
 62
     4
  6
Continuous
370
    -3
390
F
  0
LAYER
  5
74
330
2
100
AcDbSymbolTableRecord
100
AcDbLayerTableRecord
  2
해칭선
 70
     0
 62
     4
  6
Continuous
370
    -3
390
F
  0
LAYER
  5
75
330
2
100
AcDbSymbolTableRecord
100
AcDbLayerTableRecord
  2
가는실선
 70
     0
 62
     4
  6
Continuous
370
    -3
390
F
  0
LAYER
  5
76
330
2
100
AcDbSymbolTableRecord
100
AcDbLayerTableRecord
  2
치수_보조선
 70
     0
 62
     4
  6
Continuous
370
    -3
390
F
  0
LAYER
  5
77
330
2
100
AcDbSymbolTableRecord
100
AcDbLayerTableRecord
  2
치수문자_일반주서
 70
     0
 62
     7
  6
Continuous
370
    15
390
F
  0
LAYER
  5
78
330
2
100
AcDbSymbolTableRecord
100
AcDbLayerTableRecord
  2
개별주서
 70
     0
 62
   100
  6
Continuous
370
    30
390
F
  0
LAYER
  5
79
330
2
100
AcDbSymbolTableRecord
100
AcDbLayerTableRecord
  2
중간선
 70
     0
 62
     2
  6
Continuous
370
    15
390
F
  0
LAYER
  5
7A
330
2
100
AcDbSymbolTableRecord
100
AcDbLayerTableRecord
  2
윤곽선
 70
     0
 62
     3
  6
Continuous
370
    40
390
F
  0
LAYER
  5
7B
330
2
100
AcDbSymbolTableRecord
100
AcDbLayerTableRecord
  2
중심마크
 70
     0
 62
   100
  6
Continuous
370
    30
390
F
  0
LAYER
  5
7C
330
2
100
AcDbSymbolTableRecord
100
AcDbLayerTableRecord
  2
가상선
 70
     0
 62
     4
  6
PHANTOM
370
    -3
390
F
  0
LAYER
  5
7D
330
2
100
AcDbSymbolTableRecord
100
AcDbLayerTableRecord
  2
특수지정선
 70
     0
 62
     5
  6
CENTERX2
370
    60
390
F
  0
LAYER
  5
25D
330
2
100
AcDbSymbolTableRecord
100
AcDbLayerTableRecord
  2
Defpoints
 70
     0
 62
     7
  6
Continuous
290
     0
370
    -3
390
F
  0
ENDTAB
  0
TABLE
  2
STYLE
  5
3
330
0
100
AcDbSymbolTable
 70
     2
  0
STYLE
  5
11
330
3
100
AcDbSymbolTableRecord
100
AcDbTextStyleTableRecord
  2
Standard
 70
     0
 40
0.0
 41
1.0
 50
0.0
 71
     0
 42
3.5
  3
txt
  4

  0
STYLE
  5
93
330
3
100
AcDbSymbolTableRecord
100
AcDbTextStyleTableRecord
  2
SLDTEXTSTYLE0
 70
     0
 40
0.0
 41
0.75
 50
0.0
 71
     0
 42
3.5
  3
TXT
  4

  0
ENDTAB
  0
TABLE
  2
VIEW
  5
6
330
0
100
AcDbSymbolTable
 70
     0
  0
ENDTAB
  0
TABLE
  2
UCS
  5
7
330
0
100
AcDbSymbolTable
 70
     0
  0
ENDTAB
  0
TABLE
  2
APPID
  5
9
330
0
100
AcDbSymbolTable
 70
     3
  0
APPID
  5
12
330
9
100
AcDbSymbolTableRecord
100
AcDbRegAppTableRecord
  2
ACAD
 70
     0
  0
APPID
  5
275
330
9
100
AcDbSymbolTableRecord
100
AcDbRegAppTableRecord
  2
PE_DIMMEASUREMENT
 70
     0
  0
APPID
  5
29A
330
9
100
AcDbSymbolTableRecord
100
AcDbRegAppTableRecord
  2
ENABLE_CUSTOM_SPLIT
 70
     0
  0
ENDTAB
  0
TABLE
  2
DIMSTYLE
  5
A
330
0
100
AcDbSymbolTable
 70
     3
100
AcDbDimStyleTable
  0
DIMSTYLE
105
27
330
A
100
AcDbSymbolTableRecord
100
AcDbDimStyleTableRecord
  2
ISO-25
 70
     0
 41
2.5
 42
0.625
 43
3.75
 44
1.25
 73
     0
 74
     0
 77
     1
 78
     8
140
2.5
141
2.5
143
0.03937007874016
147
0.625
171
     3
172
     1
178
     0
271
     2
272
     2
274
     3
278
    44
283
     0
284
     8
340
11
  0
DIMSTYLE
105
1F1
102
{ACAD_REACTORS
330
1F0
330
21A
330
25E
102
}
330
A
100
AcDbSymbolTableRecord
100
AcDbDimStyleTableRecord
  2
SLDDIMSTYLE0
 70
     0
 41
3.302
 44
0.0
 45
0.000000001
 73
     0
 74
     0
 77
     1
 78
    12
 79
     3
140
3.5
143
0.0393700787401575
147
0.875
148
0.000000001
170
     1
172
     1
173
     1
178
     0
271
     2
272
     2
276
     2
284
    12
289
     0
340
93
  0
DIMSTYLE
105
207
102
{ACAD_REACTORS
330
206
102
}
330
A
100
AcDbSymbolTableRecord
100
AcDbDimStyleTableRecord
  2
SLDDIMSTYLE1
 70
     0
 41
3.302
 44
0.0
 45
0.000000001
 73
     0
 74
     0
 77
     1
 78
     4
 79
     1
140
3.5
143
0.0393700787401575
147
0.875
148
0.000000001
170
     1
173
     1
178
     0
271
     2
272
     2
276
     2
284
    12
340
93
  0
ENDTAB
  0
TABLE
  2
BLOCK_RECORD
  5
1
330
0
100
AcDbSymbolTable
 70
     7
  0
BLOCK_RECORD
  5
1F
102
{ACAD_XDICTIONARY
360
29B
102
}
330
1
100
AcDbSymbolTableRecord
100
AcDbBlockTableRecord
  2
*Model_Space
340
22
  0
BLOCK_RECORD
  5
1B
330
1
100
AcDbSymbolTableRecord
100
AcDbBlockTableRecord
  2
*Paper_Space
340
1E
  0
BLOCK_RECORD
  5
23
330
1
100
AcDbSymbolTableRecord
100
AcDbBlockTableRecord
  2
*Paper_Space0
340
26
  0
BLOCK_RECORD
  5
7E
330
1
100
AcDbSymbolTableRecord
100
AcDbBlockTableRecord
  2
블럭10
340
0
102
{BLKREFS
331
1E8
102
}
  0
BLOCK_RECORD
  5
1F2
330
1
100
AcDbSymbolTableRecord
100
AcDbBlockTableRecord
  2
_D
340
0
  0
BLOCK_RECORD
  5
208
330
1
100
AcDbSymbolTableRecord
100
AcDbBlockTableRecord
  2
_D_1
340
0
  0
BLOCK_RECORD
  5
21B
330
1
100
AcDbSymbolTableRecord
100
AcDbBlockTableRecord
  2
_D_2
340
0
  0
BLOCK_RECORD
  5
22E
330
1
100
AcDbSymbolTableRecord
100
AcDbBlockTableRecord
  2
SW_DOWELSYMBOL_0
340
0
102
{BLKREFS
331
234
102
}
  0
BLOCK_RECORD
  5
261
330
1
100
AcDbSymbolTableRecord
100
AcDbBlockTableRecord
  2
*D6
340
0
  0
ENDTAB
  0
ENDSEC
  0
SECTION
  2
BLOCKS
  0
BLOCK
  5
20
330
1F
100
AcDbEntity
  8
0
100
AcDbBlockBegin
  2
*Model_Space
 70
     0
 10
0.0
 20
0.0
 30
0.0
  3
*Model_Space
  1
*Model_Space
  0
ENDBLK
  5
21
330
1F
100
AcDbEntity
  8
0
100
AcDbBlockEnd
  0
BLOCK
  5
1C
330
1B
100
AcDbEntity
 67
     1
  8
0
100
AcDbBlockBegin
  2
*Paper_Space
 70
     0
 10
0.0
 20
0.0
 30
0.0
  3
*Paper_Space
  1
*Paper_Space
  0
ENDBLK
  5
1D
330
1B
100
AcDbEntity
 67
     1
  8
0
100
AcDbBlockEnd
  0
BLOCK
  5
24
330
23
100
AcDbEntity
  8
0
100
AcDbBlockBegin
  2
*Paper_Space0
 70
     0
 10
0.0
 20
0.0
 30
0.0
  3
*Paper_Space0
  1
*Paper_Space0
  0
ENDBLK
  5
25
330
23
100
AcDbEntity
  8
0
100
AcDbBlockEnd
  0
BLOCK
  5
7F
330
7E
100
AcDbEntity
  8
0
100
AcDbBlockBegin
  2
블럭10
 70
     2
 10
0.0
 20
0.0
 30
0.0
  3
블럭10
  1
블럭10
  0
ELLIPSE
  5
81
330
7E
100
AcDbEntity
  8
중심선
100
AcDbEllipse
 10
20.54032771741204
 20
12.0471743016438
 30
0.0
 11
6.600054785286829
 21
-1.261213355974178E-13
 31
0.0
210
0.0
220
0.0
230
1.0
 40
0.636358354079598
 41
0.9219305317359503
 42
6.513795318482858
  0
ELLIPSE
  5
82
330
7E
100
AcDbEntity
  8
중심선
100
AcDbEllipse
 10
20.54032771746488
 20
12.04717430159265
 30
0.0
 11
3.960054785062283
 21
1.540847449632565E-10
 31
0.0
210
0.0
220
0.0
230
1.0
 40
0.3939339440162632
 41
1.131841032648279
 42
5.62031148352944
  0
LINE
  5
83
330
7E
100
AcDbEntity
  8
중심선
100
AcDbLine
 10
2.268634060543552
 20
16.24717430164393
 30
0.0
 11
5.714909304380834
 21
16.24717430164393
 31
0.0
  0
LINE
  5
84
330
7E
100
AcDbEntity
  8
중심선
100
AcDbLine
 10
5.245725140726316
 20
7.84717430164391
 30
0.0
 11
8.692000384563599
 21
7.84717430164391
 31
0.0
  0
LINE
  5
85
330
7E
100
AcDbEntity
  8
중심선
100
AcDbLine
 10
15.74043728645272
 20
16.24717430164393
 30
0.0
 11
8.692000384563599
 21
7.84717430164391
 31
0.0
  0
LINE
  5
86
330
7E
100
AcDbEntity
  8
중심선
100
AcDbLine
 10
0.1404042013395286
 20
13.71084872107135
 30
0.0
 11
3.58671253028996
 21
13.71088815037384
 31
0.0
  0
LINE
  5
87
330
7E
100
AcDbEntity
  8
중심선
100
AcDbLine
 10
2.750260043222114
 20
10.84717430164391
 30
0.0
 11
6.196535287059397
 21
10.84717430164391
 31
0.0
  0
LINE
  5
88
330
7E
100
AcDbEntity
  8
중심선
100
AcDbLine
 10
12.29416204261559
 20
16.24717430164393
 30
0.0
 11
5.245725140726316
 21
7.84717430164391
 31
0.0
  0
LINE
  5
89
330
7E
100
AcDbEntity
  8
중심선
100
AcDbLine
 10
10.72767329541681
 20
16.24717430164393
 30
0.0
 11
6.196535287059397
 21
10.84717430164391
 31
0.0
  0
LINE
  5
8A
330
7E
100
AcDbEntity
  8
중심선
100
AcDbLine
 10
7.28139805157953
 20
16.24717430164393
 30
0.0
 11
2.750260043222114
 21
10.84717430164391
 31
0.0
  0
LINE
  5
8B
330
7E
100
AcDbEntity
  8
중심선
100
AcDbLine
 10
5.714909304380834
 20
16.24717430164393
 30
0.0
 11
3.58671253028996
 21
13.71088815037384
 31
0.0
  0
LINE
  5
8C
330
7E
100
AcDbEntity
  8
중심선
100
AcDbLine
 10
2.268634060543552
 20
16.24717430164393
 30
0.0
 11
0.1404042013395286
 21
13.71084872107135
 31
0.0
  0
LINE
  5
8D
330
7E
100
AcDbEntity
  8
중심선
100
AcDbLine
 10
7.28139805157953
 20
16.24717430164393
 30
0.0
 11
10.72767329541681
 21
16.24717430164393
 31
0.0
  0
LINE
  5
8E
330
7E
100
AcDbEntity
  8
중심선
100
AcDbLine
 10
12.29416204261559
 20
16.24717430164393
 30
0.0
 11
15.74043728645272
 21
16.24717430164393
 31
0.0
  0
LINE
  5
8F
330
7E
100
AcDbEntity
  8
중심선
100
AcDbLine
 10
19.22036997980202
 20
11.08717430171403
 30
0.0
 11
23.66174974927406
 21
11.08717430171406
 31
0.0
  0
LINE
  5
90
330
7E
100
AcDbEntity
  8
중심선
100
AcDbLine
 10
19.22039502424796
 20
13.00717430171391
 30
0.0
 11
19.22036997980202
 21
11.08717430171403
 31
0.0
  0
LINE
  5
91
330
7E
100
AcDbEntity
  8
중심선
100
AcDbLine
 10
19.22039502424796
 20
13.00717430171391
 30
0.0
 11
26.96566020931264
 21
13.00717430171391
 31
0.0
  0
LINE
  5
92
330
7E
100
AcDbEntity
  8
중심선
100
AcDbLine
 10
22.22332737316547
 20
13.45928029700563
 30
0.0
 11
24.52862924686651
 21
15.39360700705356
 31
0.0
  0
ATTDEF
  5
94
330
7E
100
AcDbEntity
  8
FORMAT
 62
     2
100
AcDbText
 10
-9.067621780574013
 20
2.075366912832191
 30
0.0
 40
4.233333333333333
  1
E5E44016 [ 3 FLUTE ]
 41
0.75
  7
SLDTEXTSTYLE0
 11
-9.067621780574013
 21
-0.0412997538344756
 31
0.0
100
AcDbAttributeDefinition
  3

  2
AUTOATTR0
 70
     0
 74
     1
  0
ENDBLK
  5
80
330
7E
100
AcDbEntity
  8
0
100
AcDbBlockEnd
  0
BLOCK
  5
1F3
330
1F2
100
AcDbEntity
  8
0
100
AcDbBlockBegin
  2
_D
 70
     0
 10
0.0
 20
0.0
 30
0.0
  3
_D
  1
_D
  0
LINE
  5
1F5
330
1F2
100
AcDbEntity
  8
치수문자_일반주서
 62
     0
370
    -2
100
AcDbLine
 10
28.96215701540224
 20
3.001409041225266
 30
0.0
 11
28.96215701540223
 21
12.60433160867749
 31
0.0
  0
LINE
  5
1F6
330
1F2
100
AcDbEntity
  8
치수문자_일반주서
 62
     0
370
    -2
100
AcDbLine
 10
9.912157015402233
 20
3.286732278437842
 30
0.0
 11
9.912157015402233
 21
12.60433160867749
 31
0.0
  0
LINE
  5
1F7
330
1F2
100
AcDbEntity
  8
치수문자_일반주서
 62
     0
370
    -2
100
AcDbLine
 10
25.66015701540223
 20
12.60433160867749
 30
0.0
 11
13.21415701540223
 21
12.60433160867749
 31
0.0
  0
SOLID
  5
1F8
330
1F2
100
AcDbEntity
  8
치수문자_일반주서
 62
     0
100
AcDbTrace
 10
25.66015701540223
 20
12.05399827534416
 30
0.0
 11
25.66015701540223
 21
13.15466494201082
 31
0.0
 12
28.96215701540223
 22
12.60433160867749
 32
0.0
 13
28.96215701540223
 23
12.60433160867749
 33
0.0
  0
SOLID
  5
1F9
330
1F2
100
AcDbEntity
  8
치수문자_일반주서
 62
     0
100
AcDbTrace
 10
13.21415701540223
 20
13.15466494201082
 30
0.0
 11
13.21415701540223
 21
12.05399827534416
 31
0.0
 12
9.912157015402233
 22
12.60433160867749
 32
0.0
 13
9.912157015402233
 23
12.60433160867749
 33
0.0
  0
MTEXT
  5
1FA
330
1F2
100
AcDbEntity
  8
치수문자_일반주서
 62
     0
100
AcDbMText
 10
19.43715701540222
 20
16.97933160867749
 30
0.0
 40
3.5
 41
0.0
 71
     2
 72
     1
  1
\A1;19.05 [3/4]
  7
SLDTEXTSTYLE0
 73
     1
 44
1.0
  0
POINT
  5
1FB
330
1F2
100
AcDbEntity
  8
Defpoints
 62
     0
100
AcDbPoint
 10
28.96215701540223
 20
2.037853280105956
 30
0.0
  0
POINT
  5
1FC
330
1F2
100
AcDbEntity
  8
Defpoints
 62
     0
100
AcDbPoint
 10
9.912157015402233
 20
3.224232278437842
 30
0.0
  0
POINT
  5
1FD
330
1F2
100
AcDbEntity
  8
Defpoints
 62
     0
100
AcDbPoint
 10
9.912157015402233
 20
12.60433160867749
 30
0.0
  0
ENDBLK
  5
1F4
330
1F2
100
AcDbEntity
  8
0
100
AcDbBlockEnd
  0
BLOCK
  5
209
330
208
100
AcDbEntity
  8
0
100
AcDbBlockBegin
  2
_D_1
 70
     0
 10
0.0
 20
0.0
 30
0.0
  3
_D_1
  1
_D_1
  0
LINE
  5
20B
330
208
100
AcDbEntity
  8
치수문자_일반주서
 62
     0
370
    -2
100
AcDbLine
 10
28.96215701540224
 20
3.001409041225266
 30
0.0
 11
28.96215701540224
 21
24.3394406096044
 31
0.0
  0
LINE
  5
20C
330
208
100
AcDbEntity
  8
치수문자_일반주서
 62
     0
370
    -2
100
AcDbLine
 10
-34.53784298459777
 20
2.719528192511451
 30
0.0
 11
-34.53784298459777
 21
24.3394406096044
 31
0.0
  0
LINE
  5
20D
330
208
100
AcDbEntity
  8
치수문자_일반주서
 62
     0
370
    -2
100
AcDbLine
 10
25.66015701540224
 20
24.3394406096044
 30
0.0
 11
-31.23584298459777
 21
24.3394406096044
 31
0.0
  0
SOLID
  5
20E
330
208
100
AcDbEntity
  8
치수문자_일반주서
 62
     0
100
AcDbTrace
 10
25.66015701540224
 20
23.78910727627106
 30
0.0
 11
25.66015701540224
 21
24.88977394293773
 31
0.0
 12
28.96215701540224
 22
24.3394406096044
 32
0.0
 13
28.96215701540224
 23
24.3394406096044
 33
0.0
  0
SOLID
  5
20F
330
208
100
AcDbEntity
  8
치수문자_일반주서
 62
     0
100
AcDbTrace
 10
-31.23584298459777
 20
24.88977394293773
 30
0.0
 11
-31.23584298459777
 21
23.78910727627106
 31
0.0
 12
-34.53784298459777
 22
24.3394406096044
 32
0.0
 13
-34.53784298459777
 23
24.3394406096044
 33
0.0
  0
MTEXT
  5
210
330
208
100
AcDbEntity
  8
치수문자_일반주서
 62
     0
100
AcDbMText
 10
-1.111549056260578
 20
28.7144406096044
 30
0.0
 40
3.5
 41
0.0
 71
     2
 72
     1
  1
\A1;63.50 [2 1/2]
  7
SLDTEXTSTYLE0
 73
     1
 44
1.0
  0
POINT
  5
211
330
208
100
AcDbEntity
  8
Defpoints
 62
     0
100
AcDbPoint
 10
28.96215701540224
 20
2.938909041225266
 30
0.0
  0
POINT
  5
212
330
208
100
AcDbEntity
  8
Defpoints
 62
     0
100
AcDbPoint
 10
-34.53784298459777
 20
2.657028192511451
 30
0.0
  0
POINT
  5
213
330
208
100
AcDbEntity
  8
Defpoints
 62
     0
100
AcDbPoint
 10
-34.53784298459777
 20
24.3394406096044
 30
0.0
  0
ENDBLK
  5
20A
330
208
100
AcDbEntity
  8
0
100
AcDbBlockEnd
  0
BLOCK
  5
21C
330
21B
100
AcDbEntity
  8
0
100
AcDbBlockBegin
  2
_D_2
 70
     0
 10
0.0
 20
0.0
 30
0.0
  3
_D_2
  1
_D_2
  0
LINE
  5
21E
330
21B
100
AcDbEntity
  8
치수문자_일반주서
 62
     0
370
    -2
100
AcDbLine
 10
-34.10034298459777
 20
3.157028192511451
 30
0.0
 11
-48.30984065240879
 21
3.157028192511401
 31
0.0
  0
LINE
  5
21F
330
21B
100
AcDbEntity
  8
치수문자_일반주서
 62
     0
370
    -2
100
AcDbLine
 10
-34.10034298459777
 20
-3.192971807488548
 30
0.0
 11
-48.30984065240877
 21
-3.192971807488597
 31
0.0
  0
LINE
  5
220
330
21B
100
AcDbEntity
  8
치수문자_일반주서
 62
     0
370
    -2
100
AcDbLine
 10
-48.30984065240879
 20
3.157028192511401
 30
0.0
 11
-48.30984065240889
 21
35.1360281925114
 31
0.0
  0
LINE
  5
221
330
21B
100
AcDbEntity
  8
치수문자_일반주서
 62
     0
370
    -2
100
AcDbLine
 10
-48.30984065240879
 20
3.157028192511401
 30
0.0
 11
-48.30984065240877
 21
-3.192971807488597
 31
0.0
  0
LINE
  5
222
330
21B
100
AcDbEntity
  8
치수문자_일반주서
 62
     0
370
    -2
100
AcDbLine
 10
-48.3098406524088
 20
6.459028192511401
 30
0.0
 11
-48.30984065240882
 21
9.7610281925114
 31
0.0
  0
LINE
  5
223
330
21B
100
AcDbEntity
  8
치수문자_일반주서
 62
     0
370
    -2
100
AcDbLine
 10
-48.30984065240875
 20
-6.494971807488596
 30
0.0
 11
-48.30984065240874
 21
-9.796971807488596
 31
0.0
  0
SOLID
  5
224
330
21B
100
AcDbEntity
  8
치수문자_일반주서
 62
     0
100
AcDbTrace
 10
-48.86017398574214
 20
6.459028192511399
 30
0.0
 11
-47.75950731907547
 21
6.459028192511402
 31
0.0
 12
-48.30984065240879
 22
3.157028192511401
 32
0.0
 13
-48.30984065240879
 23
3.157028192511401
 33
0.0
  0
SOLID
  5
225
330
21B
100
AcDbEntity
  8
치수문자_일반주서
 62
     0
100
AcDbTrace
 10
-47.75950731907542
 20
-6.494971807488595
 30
0.0
 11
-48.86017398574209
 21
-6.494971807488598
 31
0.0
 12
-48.30984065240877
 22
-3.192971807488597
 32
0.0
 13
-48.30984065240877
 23
-3.192971807488597
 33
0.0
  0
MTEXT
  5
226
330
21B
100
AcDbEntity
  8
치수문자_일반주서
 62
     0
100
AcDbMText
 10
-52.68484065240885
 20
22.44852819251139
 30
0.0
 40
3.5
 41
0.0
 71
     2
 72
     1
  1
\A1;%%c6.35 [1/4]
  7
SLDTEXTSTYLE0
 11
-3.356894814614647E-15
 21
1.0
 31
0.0
 73
     1
 44
1.0
  0
POINT
  5
271
330
21B
100
AcDbEntity
  8
Defpoints
 62
     0
100
AcDbPoint
 10
-34.03784298459777
 20
3.157028192511451
 30
0.0
  0
POINT
  5
273
330
21B
100
AcDbEntity
  8
Defpoints
 62
     0
100
AcDbPoint
 10
-34.03784298459777
 20
-3.192971807488548
 30
0.0
  0
POINT
  5
274
330
21B
100
AcDbEntity
  8
Defpoints
 62
     0
100
AcDbPoint
 10
-48.30984065240877
 20
-3.192971807488598
 30
0.0
  0
ENDBLK
  5
21D
330
21B
100
AcDbEntity
  8
0
100
AcDbBlockEnd
  0
BLOCK
  5
22F
330
22E
100
AcDbEntity
  8
0
100
AcDbBlockBegin
  2
SW_DOWELSYMBOL_0
 70
     0
 10
0.0
 20
0.0
 30
0.0
  3
SW_DOWELSYMBOL_0
  1
SW_DOWELSYMBOL_0
  0
CIRCLE
  5
231
330
22E
100
AcDbEntity
  8
외형선
 62
     0
100
AcDbCircle
 10
0.0
 20
0.0
 30
0.0
 40
3.000000000000004
  0
HATCH
  5
232
330
22E
100
AcDbEntity
  8
0
  6
Continuous
 62
     0
370
    30
100
AcDbHatch
 10
0.0
 20
0.0
 30
0.0
210
0.0
220
0.0
230
1.0
  2
SOLID
 70
     1
 71
     0
 91
        1
 92
        0
 93
        3
 72
     2
 10
-0.0000000000000013
 20
-0.0000000000000039
 40
3.000000000000004
 50
0.0
 51
90.0
 73
     1
 72
     1
 10
-0.0000000000000013
 20
3.0
 11
-0.0000000000000013
 21
-0.000000000000004
 72
     1
 10
-0.0000000000000013
 20
-0.0000000000000039
 11
3.000000000000003
 21
-0.0000000000000039
 97
        0
 75
     0
 76
     1
 98
        1
 10
0.0
 20
0.0
  0
HATCH
  5
233
330
22E
100
AcDbEntity
  8
0
  6
Continuous
 62
     0
370
    30
100
AcDbHatch
 10
0.0
 20
0.0
 30
0.0
210
0.0
220
0.0
230
1.0
  2
SOLID
 70
     1
 71
     0
 91
        1
 92
        0
 93
        3
 72
     2
 10
-0.0000000000000013
 20
-0.0000000000000039
 40
3.000000000000004
 50
180.0
 51
270.0000000000007
 73
     1
 72
     1
 10
-0.0000000000000013
 20
-3.000000000000008
 11
-0.0000000000000013
 21
-0.000000000000004
 72
     1
 10
-0.0000000000000013
 20
-0.0000000000000039
 11
-3.000000000000006
 21
-0.0000000000000039
 97
        0
 75
     0
 76
     1
 98
        1
 10
0.0
 20
0.0
  0
ENDBLK
  5
230
330
22E
100
AcDbEntity
  8
0
100
AcDbBlockEnd
  0
BLOCK
  5
262
330
261
100
AcDbEntity
  8
0
100
AcDbBlockBegin
  2
*D6
 70
     1
 10
0.0
 20
0.0
 30
0.0
  3
*D6
  1
*D6
  0
LINE
  5
264
330
261
100
AcDbEntity
  8
치수문자_일반주서
 62
     0
370
    -2
100
AcDbLine
 10
29.02465701540224
 20
3.157028192511456
 30
0.0
 11
42.80175714933332
 21
3.157028192511454
 31
0.0
  0
LINE
  5
265
330
261
100
AcDbEntity
  8
치수문자_일반주서
 62
     0
370
    -2
100
AcDbLine
 10
29.02465701540224
 20
-3.192971807488544
 30
0.0
 11
42.80175714933332
 21
-3.192971807488544
 31
0.0
  0
LINE
  5
266
330
261
100
AcDbEntity
  8
치수문자_일반주서
 62
     0
370
    -2
100
AcDbLine
 10
42.80175714933332
 20
3.157028192511454
 30
0.0
 11
42.80175714933332
 21
35.13602819251145
 31
0.0
  0
LINE
  5
267
330
261
100
AcDbEntity
  8
치수문자_일반주서
 62
     0
370
    -2
100
AcDbLine
 10
42.80175714933332
 20
3.157028192511454
 30
0.0
 11
42.80175714933332
 21
-3.192971807488544
 31
0.0
  0
LINE
  5
268
330
261
100
AcDbEntity
  8
치수문자_일반주서
 62
     0
370
    -2
100
AcDbLine
 10
42.80175714933332
 20
6.459028192511454
 30
0.0
 11
42.80175714933332
 21
9.761028192511453
 31
0.0
  0
LINE
  5
269
330
261
100
AcDbEntity
  8
치수문자_일반주서
 62
     0
370
    -2
100
AcDbLine
 10
42.80175714933332
 20
-6.494971807488543
 30
0.0
 11
42.80175714933332
 21
-9.796971807488543
 31
0.0
  0
SOLID
  5
26A
330
261
100
AcDbEntity
  8
치수문자_일반주서
 62
     0
100
AcDbTrace
 10
42.25142381599998
 20
6.459028192511454
 30
0.0
 11
43.35209048266665
 21
6.459028192511454
 31
0.0
 12
42.80175714933332
 22
3.157028192511454
 32
0.0
 13
42.80175714933332
 23
3.157028192511454
 33
0.0
  0
SOLID
  5
26B
330
261
100
AcDbEntity
  8
치수문자_일반주서
 62
     0
100
AcDbTrace
 10
43.35209048266665
 20
-6.494971807488543
 30
0.0
 11
42.25142381599998
 21
-6.494971807488543
 31
0.0
 12
42.80175714933332
 22
-3.192971807488544
 32
0.0
 13
42.80175714933332
 23
-3.192971807488544
 33
0.0
  0
MTEXT
  5
26C
330
261
100
AcDbEntity
  8
치수문자_일반주서
 62
     0
100
AcDbMText
 10
40.17675714933332
 20
22.44852819251145
 30
0.0
 40
3.5
 41
0.0
 71
     5
 72
     1
  1
\A1;{%%c6.35 [1/4]}
  7
SLDTEXTSTYLE0
 11
0.0
 21
1.0
 31
0.0
 73
     1
 44
1.0
  0
POINT
  5
26D
330
261
100
AcDbEntity
  8
Defpoints
 62
     0
100
AcDbPoint
 10
28.96215701540224
 20
3.157028192511456
 30
0.0
  0
POINT
  5
26E
330
261
100
AcDbEntity
  8
Defpoints
 62
     0
100
AcDbPoint
 10
28.96215701540224
 20
-3.192971807488544
 30
0.0
  0
POINT
  5
270
330
261
100
AcDbEntity
  8
Defpoints
 62
     0
100
AcDbPoint
 10
42.80175714933332
 20
-3.192971807488545
 30
0.0
  0
ENDBLK
  5
263
330
261
100
AcDbEntity
  8
0
100
AcDbBlockEnd
  0
ENDSEC
  0
SECTION
  2
ENTITIES
  0
LINE
  5
95
330
1F
100
AcDbEntity
  8
0
  6
Continuous
 62
     1
370
    15
100
AcDbLine
 10
15.0047035353115
 20
-0.4630677518855025
 30
0.0
 11
14.96247862383406
 21
-0.4396271786689365
 31
0.0
  0
LINE
  5
96
330
1F
100
AcDbEntity
  8
0
  6
Continuous
 62
     4
370
    15
100
AcDbLine
 10
9.150199682415485
 20
3.157028192511456
 30
0.0
 11
-34.03784298459777
 21
3.157028192511451
 31
0.0
  0
LINE
  5
97
330
1F
100
AcDbEntity
  8
0
  6
Continuous
 62
     4
370
    15
100
AcDbLine
 10
-34.03784298459777
 20
-3.192971807488548
 30
0.0
 11
9.91215701540223
 21
-3.192971807488543
 31
0.0
  0
LINE
  5
98
330
1F
100
AcDbEntity
  8
0
  6
Continuous
 62
     4
370
    15
100
AcDbLine
 10
-34.03784298459777
 20
3.15702819251145
 30
0.0
 11
-34.53784298459777
 21
2.65702819251145
 31
0.0
  0
LINE
  5
99
330
1F
100
AcDbEntity
  8
0
  6
Continuous
 62
     4
370
    15
100
AcDbLine
 10
-34.53784298459777
 20
-2.692971807488548
 30
0.0
 11
-34.03784298459777
 21
-3.192971807488548
 31
0.0
  0
LINE
  5
9A
330
1F
100
AcDbEntity
  8
0
  6
Continuous
 62
     1
370
    15
100
AcDbLine
 10
22.16528508381503
 20
-3.047632540984457
 30
0.0
 11
22.21987928677504
 21
-3.086398313856275
 31
0.0
  0
SPLINE
  5
9B
330
1F
100
AcDbEntity
  8
0
  6
Continuous
 62
     1
370
    15
100
AcDbSpline
210
0.0
220
0.0
230
1.0
 70
     8
 71
     3
 72
     9
 73
     5
 74
     0
 42
0.000000001
 43
0.00000001
 40
0.0
 40
0.0
 40
0.0
 40
0.0
 40
0.3558960306936539
 40
0.9999999999999999
 40
0.9999999999999999
 40
0.9999999999999999
 40
0.9999999999999999
 10
11.04993847201553
 20
-3.005645846623521
 30
0.0
 10
11.06681162571943
 20
-3.009227744372771
 30
0.0
 10
11.11422197101328
 20
-3.019292194212991
 30
0.0
 10
11.14725977071086
 20
-3.038270043181426
 30
0.0
 10
11.16853954863323
 20
-3.050493751030892
 30
0.0
  0
SPLINE
  5
9C
330
1F
100
AcDbEntity
  8
0
  6
Continuous
 62
     1
370
    15
100
AcDbSpline
210
0.0
220
0.0
230
1.0
 70
     8
 71
     3
 72
     9
 73
     5
 74
     0
 42
0.000000001
 43
0.00000001
 40
0.0
 40
0.0
 40
0.0
 40
0.0
 40
0.3267783595307596
 40
1.0
 40
1.0
 40
1.0
 40
1.0
 10
20.90802635755962
 20
2.965585952551309
 30
0.0
 10
20.88801995919686
 20
2.967461282016042
 30
0.0
 10
20.82679681580545
 20
2.973200124292581
 30
0.0
 10
20.78259269785721
 20
3.00053204145096
 30
0.0
 10
20.75283352905659
 20
3.018932479557492
 30
0.0
  0
SPLINE
  5
9D
330
1F
100
AcDbEntity
  8
0
  6
Continuous
 62
     1
370
    15
100
AcDbSpline
210
0.0
220
0.0
230
1.0
 70
     8
 71
     3
 72
     9
 73
     5
 74
     0
 42
0.000000001
 43
0.00000001
 40
0.0
 40
0.0
 40
0.0
 40
0.0
 40
0.49841392393102
 40
1.0
 40
1.0
 40
1.0
 40
1.0
 10
11.17788068891809
 20
-3.062078884642455
 30
0.0
 10
11.21744803873904
 20
-3.089617963251064
 30
0.0
 10
11.29683456451844
 20
-3.144871392752805
 30
0.0
 10
11.39060641794555
 20
-3.157196042983243
 30
0.0
 10
11.43764107395178
 20
-3.163377915931251
 30
0.0
  0
SPLINE
  5
9E
330
1F
100
AcDbEntity
  8
0
  6
Continuous
 62
     1
370
    15
100
AcDbSpline
210
0.0
220
0.0
230
1.0
 70
     8
 71
     3
 72
     9
 73
     5
 74
     0
 42
0.000000001
 43
0.00000001
 40
0.0
 40
0.0
 40
0.0
 40
0.0
 40
0.4982577937935939
 40
1.0
 40
1.0
 40
1.0
 40
1.0
 10
20.74408076085538
 20
3.029337413206112
 30
0.0
 10
20.70456499816551
 20
3.056717474990561
 30
0.0
 10
20.62525713147064
 20
3.111669072588233
 30
0.0
 10
20.53159485910295
 20
3.123618475175042
 30
0.0
 10
20.48460054392687
 20
3.129613994791797
 30
0.0
  0
SPLINE
  5
9F
330
1F
100
AcDbEntity
  8
0
  6
Continuous
 62
     1
370
    15
100
AcDbSpline
210
0.0
220
0.0
230
1.0
 70
     8
 71
     3
 72
     9
 73
     5
 74
     0
 42
0.000000001
 43
0.00000001
 40
0.0
 40
0.0
 40
0.0
 40
0.0
 40
0.2616360923346904
 40
1.0
 40
1.0
 40
1.0
 40
1.0
 10
22.92607848258733
 20
-3.008463326502179
 30
0.0
 10
22.95046493872151
 20
-3.00215087504649
 30
0.0
 10
23.04367247716381
 20
-2.978024037654292
 30
0.0
 10
23.12406343027002
 20
-3.0296419276477
 30
0.0
 10
23.18342120854646
 20
-3.067754714608671
 30
0.0
  0
SPLINE
  5
A0
330
1F
100
AcDbEntity
  8
0
  6
Continuous
 62
     1
370
    15
100
AcDbSpline
210
0.0
220
0.0
230
1.0
 70
     8
 71
     3
 72
     9
 73
     5
 74
     0
 42
0.000000001
 43
0.00000001
 40
0.0
 40
0.0
 40
0.0
 40
0.0
 40
0.5762323612076476
 40
0.9999999999999999
 40
0.9999999999999999
 40
0.9999999999999999
 40
0.9999999999999999
 10
11.44754569591966
 20
-3.169442248345463
 30
0.0
 10
11.49319596811168
 20
-3.168778596842289
 30
0.0
 10
11.57241795435408
 20
-3.167626888698402
 30
0.0
 10
11.64474812453222
 20
-3.126725245413799
 30
0.0
 10
11.67539930996205
 20
-3.109392452616355
 30
0.0
  0
SPLINE
  5
A1
330
1F
100
AcDbEntity
  8
0
  6
Continuous
 62
     1
370
    15
100
AcDbSpline
210
0.0
220
0.0
230
1.0
 70
     8
 71
     3
 72
     9
 73
     5
 74
     0
 42
0.000000001
 43
0.00000001
 40
0.0
 40
0.0
 40
0.0
 40
0.0
 40
0.5014441235347584
 40
1.0
 40
1.0
 40
1.0
 40
1.0
 10
20.47521903074589
 20
3.134625769169216
 30
0.0
 10
20.42829317492118
 20
3.130797567301098
 30
0.0
 10
20.33471174954935
 20
3.123163213464958
 30
0.0
 10
20.25557218722611
 20
3.072367678817669
 30
0.0
 10
20.21611669336898
 20
3.047043266521069
 30
0.0
  0
SPLINE
  5
A2
330
1F
100
AcDbEntity
  8
0
  6
Continuous
 62
     1
370
    15
100
AcDbSpline
210
0.0
220
0.0
230
1.0
 70
     8
 71
     3
 72
     9
 73
     5
 74
     0
 42
0.000000001
 43
0.00000001
 40
0.0
 40
0.0
 40
0.0
 40
0.0
 40
0.4979984385503859
 40
1.0
 40
1.0
 40
1.0
 40
1.0
 10
23.18978301757602
 20
-3.073171744081635
 30
0.0
 10
23.23008574565827
 20
-3.100537957888972
 30
0.0
 10
23.31101517226362
 20
-3.155490366749925
 30
0.0
 10
23.40607660479094
 20
-3.16631251149026
 30
0.0
 10
23.45379759235328
 20
-3.171745245048143
 30
0.0
  0
SPLINE
  5
A3
330
1F
100
AcDbEntity
  8
0
  6
Continuous
 62
     1
370
    15
100
AcDbSpline
210
0.0
220
0.0
230
1.0
 70
     8
 71
     3
 72
    11
 73
     7
 74
     0
 42
0.000000001
 43
0.00000001
 40
0.0
 40
0.0
 40
0.0
 40
0.0
 40
0.2456951458995387
 40
0.4999252818214647
 40
0.7541788143047405
 40
1.0
 40
1.0
 40
1.0
 40
1.0
 10
11.72180530894645
 20
-3.080879269522207
 30
0.0
 10
11.75537145109534
 20
-3.057216902545723
 30
0.0
 10
11.82366976041686
 20
-3.009070182202626
 30
0.0
 10
11.95532445750761
 20
-2.985132658637355
 30
0.0
 10
12.0871690834135
 20
-3.0050456254354
 30
0.0
 10
12.155787379579
 20
-3.050433066612308
 30
0.0
 10
12.18951800084542
 20
-3.072744121741071
 30
0.0
  0
SPLINE
  5
A4
330
1F
100
AcDbEntity
  8
0
  6
Continuous
 62
     1
370
    15
100
AcDbSpline
210
0.0
220
0.0
230
1.0
 70
     8
 71
     3
 72
    11
 73
     7
 74
     0
 42
0.000000001
 43
0.00000001
 40
0.0
 40
0.0
 40
0.0
 40
0.0
 40
0.2462819922020024
 40
0.5002948918874873
 40
0.7541766870438688
 40
1.0
 40
1.0
 40
1.0
 40
1.0
 10
20.20101299761811
 20
3.043908901931217
 30
0.0
 10
20.16773588290482
 20
3.020545788171521
 30
0.0
 10
20.10013706920771
 20
2.973086181530955
 30
0.0
 10
19.96891231104022
 20
2.949389442053446
 30
0.0
 10
19.83745151907831
 20
2.969498230649904
 30
0.0
 10
19.76918664147362
 20
3.014675453132924
 30
0.0
 10
19.73560463861054
 20
3.036899789687897
 30
0.0
  0
SPLINE
  5
A5
330
1F
100
AcDbEntity
  8
0
  6
Continuous
 62
     1
370
    15
100
AcDbSpline
210
0.0
220
0.0
230
1.0
 70
     8
 71
     3
 72
     9
 73
     5
 74
     0
 42
0.000000001
 43
0.00000001
 40
0.0
 40
0.0
 40
0.0
 40
0.0
 40
0.5019801929164096
 40
1.0
 40
1.0
 40
1.0
 40
1.0
 10
23.46157755104505
 20
-3.172950703423429
 30
0.0
 10
23.50890835208877
 20
-3.168413028301747
 30
0.0
 10
23.60319653658614
 20
-3.159373478164685
 30
0.0
 10
23.68326480975216
 20
-3.10663845207238
 30
0.0
 10
23.72314039570781
 20
-3.080375364551341
 30
0.0
  0
SPLINE
  5
A6
330
1F
100
AcDbEntity
  8
0
  6
Continuous
 62
     1
370
    15
100
AcDbSpline
210
0.0
220
0.0
230
1.0
 70
     8
 71
     3
 72
    11
 73
     7
 74
     0
 42
0.000000001
 43
0.00000001
 40
0.0
 40
0.0
 40
0.0
 40
0.0
 40
0.2153442656596401
 40
0.458879063805326
 40
0.7249812781403439
 40
1.0
 40
1.0
 40
1.0
 40
1.0
 10
12.18339127539541
 20
-3.068005411142779
 30
0.0
 10
12.21645406992992
 20
-3.091020821096022
 30
0.0
 10
12.28690788097667
 20
-3.140064568511765
 30
0.0
 10
12.42765950730381
 20
-3.175386616625706
 30
0.0
 10
12.59131642965974
 20
-3.163257812406286
 30
0.0
 10
12.68868320409264
 20
-3.10206352410821
 30
0.0
 10
12.73816878867276
 20
-3.070962204925848
 30
0.0
  0
SPLINE
  5
A7
330
1F
100
AcDbEntity
  8
0
  6
Continuous
 62
     1
370
    15
100
AcDbSpline
210
0.0
220
0.0
230
1.0
 70
     8
 71
     3
 72
    11
 73
     7
 74
     0
 42
0.000000001
 43
0.00000001
 40
0.0
 40
0.0
 40
0.0
 40
0.0
 40
0.2168040421781734
 40
0.4615085539237674
 40
0.7268091571158488
 40
1.0
 40
1.0
 40
1.0
 40
1.0
 10
19.74069777781846
 20
3.03296256880175
 30
0.0
 10
19.70510634135895
 20
3.057233230329597
 30
0.0
 10
19.62934321347871
 20
3.108897940046055
 30
0.0
 10
19.48509230124352
 20
3.140257949634989
 30
0.0
 10
19.32467809251807
 20
3.123321564842598
 30
0.0
 10
19.2321020957504
 20
3.063746422807077
 30
0.0
 10
19.18513586300504
 20
3.033522389749134
 30
0.0
  0
SPLINE
  5
A8
330
1F
100
AcDbEntity
  8
0
  6
Continuous
 62
     1
370
    15
100
AcDbSpline
210
0.0
220
0.0
230
1.0
 70
     8
 71
     3
 72
    11
 73
     7
 74
     0
 42
0.000000001
 43
0.00000001
 40
0.0
 40
0.0
 40
0.0
 40
0.0
 40
0.277059228445233
 40
0.5392617767425357
 40
0.7803666343893356
 40
0.9999999999999999
 40
0.9999999999999999
 40
0.9999999999999999
 40
0.9999999999999999
 10
23.73527273409536
 20
-3.073292113838246
 30
0.0
 10
23.77504934956832
 20
-3.047775258439698
 30
0.0
 10
23.85246964866149
 20
-2.998109831821995
 30
0.0
 10
23.99228452371276
 20
-2.986899009281072
 30
0.0
 10
24.10879135848131
 20
-3.017158444397233
 30
0.0
 10
24.15926169657568
 20
-3.051550118871242
 30
0.0
 10
24.18332084699911
 20
-3.067944589380564
 30
0.0
  0
SPLINE
  5
A9
330
1F
100
AcDbEntity
  8
0
  6
Continuous
 62
     1
370
    15
100
AcDbSpline
210
0.0
220
0.0
230
1.0
 70
     8
 71
     3
 72
    11
 73
     7
 74
     0
 42
0.000000001
 43
0.00000001
 40
0.0
 40
0.0
 40
0.0
 40
0.0
 40
0.2852077631738218
 40
0.5547507097013785
 40
0.7949239024648952
 40
1.0
 40
1.0
 40
1.0
 40
1.0
 10
24.18558057204437
 20
-3.069824164202553
 30
0.0
 10
24.23540490588567
 20
-3.10138190012594
 30
0.0
 10
24.33231701042055
 20
-3.162764087641636
 30
0.0
 10
24.49661011656917
 20
-3.175501208238224
 30
0.0
 10
24.63703971775759
 20
-3.140724458065234
 30
0.0
 10
24.70855429386801
 20
-3.091082701403368
 30
0.0
 10
24.74149298799993
 20
-3.068218346641174
 30
0.0
  0
SPLINE
  5
AA
330
1F
100
AcDbEntity
  8
0
  6
Continuous
 62
     1
370
    15
100
AcDbSpline
210
0.0
220
0.0
230
1.0
 70
     8
 71
     3
 72
    11
 73
     7
 74
     0
 42
0.000000001
 43
0.00000001
 40
0.0
 40
0.0
 40
0.0
 40
0.0
 40
0.2094873042402773
 40
0.4479248084662657
 40
0.7135620669653232
 40
1.0
 40
1.0
 40
1.0
 40
1.0
 10
12.74107673437497
 20
-3.068580868221348
 30
0.0
 10
12.76600739890397
 20
-3.051716892657983
 30
0.0
 10
12.81931403328253
 20
-3.015658416219066
 30
0.0
 10
12.93618998584732
 20
-2.986682981914733
 30
0.0
 10
13.07583675989754
 20
-2.999196312684457
 30
0.0
 10
13.15134275630737
 20
-3.04826372298832
 30
0.0
 10
13.19051818363145
 20
-3.073721790661597
 30
0.0
  0
SPLINE
  5
AB
330
1F
100
AcDbEntity
  8
0
  6
Continuous
 62
     1
370
    15
100
AcDbSpline
210
0.0
220
0.0
230
1.0
 70
     8
 71
     3
 72
    11
 73
     7
 74
     0
 42
0.000000001
 43
0.00000001
 40
0.0
 40
0.0
 40
0.0
 40
0.0
 40
0.247892599262667
 40
0.5003966952115496
 40
0.752730266139089
 40
1.0
 40
1.0
 40
1.0
 40
1.0
 10
19.18597454969307
 20
3.034193043887608
 30
0.0
 10
19.1538080945559
 20
3.013056592512485
 30
0.0
 10
19.08887679811871
 20
2.970390492564081
 30
0.0
 10
18.96010296561423
 20
2.949803795729368
 30
0.0
 10
18.83148381208114
 20
2.972244591496742
 30
0.0
 10
18.76665300344927
 20
3.016153719397937
 30
0.0
 10
18.7345661524562
 20
3.037885758129729
 30
0.0
  0
SPLINE
  5
AC
330
1F
100
AcDbEntity
  8
0
  6
Continuous
 62
     1
370
    15
100
AcDbSpline
210
0.0
220
0.0
230
1.0
 70
     8
 71
     3
 72
     9
 73
     5
 74
     0
 42
0.000000001
 43
0.00000001
 40
0.0
 40
0.0
 40
0.0
 40
0.0
 40
0.4712895571786168
 40
1.0
 40
1.0
 40
1.0
 40
1.0
 10
13.1842921627221
 20
-3.068565864123184
 30
0.0
 10
13.22095921435376
 20
-3.095442990848931
 30
0.0
 10
13.29876075074079
 20
-3.152471894452581
 30
0.0
 10
13.40718231021763
 20
-3.165850825031701
 30
0.0
 10
13.46450592094002
 20
-3.172924405342666
 30
0.0
  0
SPLINE
  5
AD
330
1F
100
AcDbEntity
  8
0
  6
Continuous
 62
     1
370
    15
100
AcDbSpline
210
0.0
220
0.0
230
1.0
 70
     8
 71
     3
 72
    11
 73
     7
 74
     0
 42
0.000000001
 43
0.00000001
 40
0.0
 40
0.0
 40
0.0
 40
0.0
 40
0.2830526516921996
 40
0.5470397940974273
 40
0.7863810176379075
 40
1.0
 40
1.0
 40
1.0
 40
1.0
 10
24.73905483593499
 20
-3.070264593763043
 30
0.0
 10
24.77837187309808
 20
-3.045581063807168
 30
0.0
 10
24.85435767922155
 20
-2.997876606477643
 30
0.0
 10
24.99341893051397
 20
-2.987079283433716
 30
0.0
 10
25.1089227528107
 20
-3.017077052163405
 30
0.0
 10
25.16002067206357
 20
-3.051956685257196
 30
0.0
 10
25.18411878348567
 20
-3.068406147328179
 30
0.0
  0
SPLINE
  5
AE
330
1F
100
AcDbEntity
  8
0
  6
Continuous
 62
     1
370
    15
100
AcDbSpline
210
0.0
220
0.0
230
1.0
 70
     8
 71
     3
 72
     9
 73
     5
 74
     0
 42
0.000000001
 43
0.00000001
 40
0.0
 40
0.0
 40
0.0
 40
0.0
 40
0.49976452688233
 40
1.0
 40
1.0
 40
1.0
 40
1.0
 10
18.73989548873278
 20
3.033448508294695
 30
0.0
 10
18.69933816129704
 20
3.062266864769506
 30
0.0
 10
18.6181852877853
 20
3.1199307343014
 30
0.0
 10
18.51337542121999
 20
3.131293948245494
 30
0.0
 10
18.46094580803129
 20
3.136978230948954
 30
0.0
  0
SPLINE
  5
AF
330
1F
100
AcDbEntity
  8
0
  6
Continuous
 62
     1
370
    15
100
AcDbSpline
210
0.0
220
0.0
230
1.0
 70
     8
 71
     3
 72
     9
 73
     5
 74
     0
 42
0.000000001
 43
0.00000001
 40
0.0
 40
0.0
 40
0.0
 40
0.0
 40
0.5034691960220044
 40
1.0
 40
1.0
 40
1.0
 40
1.0
 10
13.4636878797107
 20
-3.172958288581631
 30
0.0
 10
13.5129733891447
 20
-3.167927244227401
 30
0.0
 10
13.61086519627693
 20
-3.157934489171119
 30
0.0
 10
13.69528557550653
 20
-3.100341701295946
 30
0.0
 10
13.73720289427752
 20
-3.071745108028952
 30
0.0
  0
SPLINE
  5
B0
330
1F
100
AcDbEntity
  8
0
  6
Continuous
 62
     1
370
    15
100
AcDbSpline
210
0.0
220
0.0
230
1.0
 70
     8
 71
     3
 72
     9
 73
     5
 74
     0
 42
0.000000001
 43
0.00000001
 40
0.0
 40
0.0
 40
0.0
 40
0.0
 40
0.4396871603084513
 40
1.0
 40
1.0
 40
1.0
 40
1.0
 10
18.46461715974892
 20
3.136974591685071
 30
0.0
 10
18.4209106431256
 20
3.13329044017808
 30
0.0
 10
18.32150697486142
 20
3.124911411087476
 30
0.0
 10
18.23501690588011
 20
3.067048387359707
 30
0.0
 10
18.18655540972408
 20
3.034626992221662
 30
0.0
  0
SPLINE
  5
B1
330
1F
100
AcDbEntity
  8
0
  6
Continuous
 62
     1
370
    15
100
AcDbSpline
210
0.0
220
0.0
230
1.0
 70
     8
 71
     3
 72
     9
 73
     5
 74
     0
 42
0.000000001
 43
0.00000001
 40
0.0
 40
0.0
 40
0.0
 40
0.0
 40
0.4977628846528689
 40
0.9999999999999999
 40
0.9999999999999999
 40
0.9999999999999999
 40
0.9999999999999999
 10
25.19168189276789
 20
-3.074560260440423
 30
0.0
 10
25.23249869645104
 20
-3.102070213254021
 30
0.0
 10
25.31449919295575
 20
-3.157337397011172
 30
0.0
 10
25.41047820076052
 20
-3.167575927660746
 30
0.0
 10
25.45868242077426
 20
-3.172718097759581
 30
0.0
  0
SPLINE
  5
B2
330
1F
100
AcDbEntity
  8
0
  6
Continuous
 62
     1
370
    15
100
AcDbSpline
210
0.0
220
0.0
230
1.0
 70
     8
 71
     3
 72
    11
 73
     7
 74
     0
 42
0.000000001
 43
0.00000001
 40
0.0
 40
0.0
 40
0.0
 40
0.0
 40
0.2269724982459976
 40
0.4701516008116721
 40
0.7301846017597193
 40
1.0
 40
1.0
 40
1.0
 40
1.0
 10
13.73847158351136
 20
-3.070664787024226
 30
0.0
 10
13.76225144490573
 20
-3.053983893908848
 30
0.0
 10
13.81150913025546
 20
-3.019431035471068
 30
0.0
 10
13.92885039950525
 20
-2.987162917343551
 30
0.0
 10
14.06995094325335
 20
-2.996762159386249
 30
0.0
 10
14.15032987283834
 20
-3.047867958609718
 30
0.0
 10
14.19126134102683
 20
-3.073892632065356
 30
0.0
  0
SPLINE
  5
B3
330
1F
100
AcDbEntity
  8
0
  6
Continuous
 62
     1
370
    15
100
AcDbSpline
210
0.0
220
0.0
230
1.0
 70
     8
 71
     3
 72
    11
 73
     7
 74
     0
 42
0.000000001
 43
0.00000001
 40
0.0
 40
0.0
 40
0.0
 40
0.0
 40
0.2272961370487208
 40
0.4705449241089554
 40
0.7306549075534612
 40
0.9999999999999999
 40
0.9999999999999999
 40
0.9999999999999999
 40
0.9999999999999999
 10
18.187115985169
 20
3.03510052087572
 30
0.0
 10
18.16330601140575
 20
3.018275422058005
 30
0.0
 10
18.1140149744223
 20
2.983444364438182
 30
0.0
 10
17.99605385148243
 20
2.951110445114152
 30
0.0
 10
17.85438583938906
 20
2.960980279211937
 30
0.0
 10
17.77315915107607
 20
3.012887890871067
 30
0.0
 10
17.73183740184935
 20
3.039294400313776
 30
0.0
  0
SPLINE
  5
B4
330
1F
100
AcDbEntity
  8
0
  6
Continuous
 62
     1
370
    15
100
AcDbSpline
210
0.0
220
0.0
230
1.0
 70
     8
 71
     3
 72
     9
 73
     5
 74
     0
 42
0.000000001
 43
0.00000001
 40
0.0
 40
0.0
 40
0.0
 40
0.0
 40
0.5033318398366532
 40
1.0
 40
1.0
 40
1.0
 40
1.0
 10
25.46278225940208
 20
-3.172971791461985
 30
0.0
 10
25.51187180251631
 20
-3.168101363034344
 30
0.0
 10
25.6094009855105
 20
-3.158424986452999
 30
0.0
 10
25.69339284830525
 20
-3.101627533846037
 30
0.0
 10
25.73510893226822
 20
-3.073418047557772
 30
0.0
  0
SPLINE
  5
B5
330
1F
100
AcDbEntity
  8
0
  6
Continuous
 62
     1
370
    15
100
AcDbSpline
210
0.0
220
0.0
230
1.0
 70
     8
 71
     3
 72
    11
 73
     7
 74
     0
 42
0.000000001
 43
0.00000001
 40
0.0
 40
0.0
 40
0.0
 40
0.0
 40
0.2438423048128153
 40
0.5003193128933537
 40
0.7566332052117583
 40
1.0
 40
1.0
 40
1.0
 40
1.0
 10
14.20697808165704
 20
-3.08022632706645
 30
0.0
 10
14.24616915559016
 20
-3.104547185647131
 30
0.0
 10
14.32658199124157
 20
-3.154449089516537
 30
0.0
 10
14.47190473279699
 20
-3.174738397728965
 30
0.0
 10
14.61719336126439
 20
-3.150372390198879
 30
0.0
 10
14.69758336076041
 20
-3.097694430840756
 30
0.0
 10
14.73673687822705
 20
-3.072037913677355
 30
0.0
  0
SPLINE
  5
B6
330
1F
100
AcDbEntity
  8
0
  6
Continuous
 62
     1
370
    15
100
AcDbSpline
210
0.0
220
0.0
230
1.0
 70
     8
 71
     3
 72
    10
 73
     6
 74
     0
 42
0.000000001
 43
0.00000001
 40
0.0
 40
0.0
 40
0.0
 40
0.0
 40
0.3675410014504548
 40
0.7494860536442196
 40
1.0
 40
1.0
 40
1.0
 40
1.0
 10
25.73403416241319
 20
-3.074223624771033
 30
0.0
 10
25.76791046899089
 20
-3.05181304686693
 30
0.0
 10
25.83699070555977
 20
-3.006113613261027
 30
0.0
 10
25.9557699930062
 20
-2.982968245666231
 30
0.0
 10
26.02674035508484
 20
-3.000936626955061
 30
0.0
 10
26.054851371798
 20
-3.008053815763526
 30
0.0
  0
SPLINE
  5
B7
330
1F
100
AcDbEntity
  8
0
  6
Continuous
 62
     1
370
    15
100
AcDbSpline
210
0.0
220
0.0
230
1.0
 70
     8
 71
     3
 72
    11
 73
     7
 74
     0
 42
0.000000001
 43
0.00000001
 40
0.0
 40
0.0
 40
0.0
 40
0.0
 40
0.243406726000885
 40
0.4998193472074622
 40
0.7563243181424134
 40
1.0
 40
1.0
 40
1.0
 40
1.0
 10
17.71560920840195
 20
3.044656225093933
 30
0.0
 10
17.67651681273196
 20
3.068765157576346
 30
0.0
 10
17.59624320646985
 20
3.118271229545717
 30
0.0
 10
17.45120266539334
 20
3.138044201106534
 30
0.0
 10
17.30614268331336
 20
3.113314049133271
 30
0.0
 10
17.22585539033384
 20
3.060512132325442
 30
0.0
 10
17.18674140071418
 20
3.034788340312095
 30
0.0
  0
SPLINE
  5
B8
330
1F
100
AcDbEntity
  8
0
  6
Continuous
 62
     1
370
    15
100
AcDbSpline
210
0.0
220
0.0
230
1.0
 70
     8
 71
     3
 72
     9
 73
     5
 74
     0
 42
0.000000001
 43
0.00000001
 40
0.0
 40
0.0
 40
0.0
 40
0.0
 40
0.1458439331482206
 40
1.0
 40
1.0
 40
1.0
 40
1.0
 10
28.95044014266583
 20
2.960443310353832
 30
0.0
 10
28.94472450389807
 20
2.959497827207267
 30
0.0
 10
28.90553440085855
 20
2.953014985403999
 30
0.0
 10
28.86928009043288
 20
2.971529939879658
 30
0.0
 10
28.83831325123329
 20
2.987344600572527
 30
0.0
  0
LINE
  5
B9
330
1F
100
AcDbEntity
  8
0
  6
Continuous
 62
     1
370
    15
100
AcDbLine
 10
26.44383211021747
 20
-3.16394098036272
 30
0.0
 11
26.49562291540009
 21
-3.163514955848185
 31
0.0
  0
LINE
  5
BA
330
1F
100
AcDbEntity
  8
0
  6
Continuous
 62
     1
370
    15
100
AcDbLine
 10
14.74808121015881
 20
-3.061753177058004
 30
0.0
 11
14.89408644631484
 21
-3.003659839602222
 31
0.0
  0
LINE
  5
BB
330
1F
100
AcDbEntity
  8
0
  6
Continuous
 62
     1
370
    15
100
AcDbLine
 10
14.93548885985918
 20
-2.998779743419882
 30
0.0
 11
14.98128614434412
 21
-3.004842799568494
 31
0.0
  0
LINE
  5
BC
330
1F
100
AcDbEntity
  8
0
  6
Continuous
 62
     1
370
    15
100
AcDbLine
 10
17.17381989217006
 20
3.022476080619106
 30
0.0
 11
17.04816474387206
 21
2.970715561786615
 31
0.0
  0
LINE
  5
BD
330
1F
100
AcDbEntity
  8
0
  6
Continuous
 62
     1
370
    15
100
AcDbLine
 10
16.99518661798427
 20
2.963999482449021
 30
0.0
 11
16.9601894404517
 21
2.966487989797312
 31
0.0
  0
SPLINE
  5
BE
330
1F
100
AcDbEntity
  8
0
  6
Continuous
 62
     1
370
    15
100
AcDbSpline
210
0.0
220
0.0
230
1.0
 70
     8
 71
     3
 72
    10
 73
     6
 74
     0
 42
0.000000001
 43
0.00000001
 40
0.0
 40
0.0
 40
0.0
 40
0.0
 40
0.5
 40
0.5
 40
1.0
 40
1.0
 40
1.0
 40
1.0
 10
28.36598264749646
 20
-1.44063796329648
 30
0.0
 10
28.28974966192549
 20
-1.421092213670946
 30
0.0
 10
28.19905866801362
 20
-1.383936720142229
 30
0.0
 10
28.01361906751669
 20
-1.288511152522368
 30
0.0
 10
27.91758921724736
 20
-1.229573029092834
 30
0.0
 10
27.83591897920885
 20
-1.173592494207746
 30
0.0
  0
SPLINE
  5
BF
330
1F
100
AcDbEntity
  8
0
  6
Continuous
 62
     1
370
    15
100
AcDbSpline
210
0.0
220
0.0
230
1.0
 70
     8
 71
     3
 72
    10
 73
     6
 74
     0
 42
0.000000001
 43
0.00000001
 40
0.0
 40
0.0
 40
0.0
 40
0.0
 40
0.5
 40
0.5
 40
1.0
 40
1.0
 40
1.0
 40
1.0
 10
27.83591897920885
 20
-1.173592494207745
 30
0.0
 10
27.79912110514146
 20
-0.8436516694616464
 30
0.0
 10
27.76021791188194
 20
-0.4834477109206172
 30
0.0
 10
27.68518185875351
 20
0.2332563515937458
 30
0.0
 10
27.65056810036613
 20
0.5845620364162721
 30
0.0
 10
27.61305850867732
 20
0.9256647827017441
 30
0.0
  0
SPLINE
  5
C0
330
1F
100
AcDbEntity
  8
0
  6
Continuous
 62
     1
370
    15
100
AcDbSpline
210
0.0
220
0.0
230
1.0
 70
     8
 71
     3
 72
    10
 73
     6
 74
     0
 42
0.000000001
 43
0.00000001
 40
0.0
 40
0.0
 40
0.0
 40
0.0
 40
0.5
 40
0.5
 40
1.0
 40
1.0
 40
1.0
 40
1.0
 10
27.61305850867732
 20
0.9256647827016942
 30
0.0
 10
27.68938574788637
 20
0.8934916900445555
 30
0.0
 10
27.78009828791823
 20
0.8479818012499775
 30
0.0
 10
27.96568752891907
 20
0.7457122178184762
 30
0.0
 10
28.06189358874033
 20
0.6882084241467326
 30
0.0
 10
28.14370926751409
 20
0.6406297734089651
 30
0.0
  0
SPLINE
  5
C1
330
1F
100
AcDbEntity
  8
0
  6
Continuous
 62
     1
370
    15
100
AcDbSpline
210
0.0
220
0.0
230
1.0
 70
     8
 71
     3
 72
    12
 73
     8
 74
     0
 42
0.000000001
 43
0.00000001
 40
0.0
 40
0.0
 40
0.0
 40
0.0
 40
0.4999999999999999
 40
0.4999999999999999
 40
0.7499999999999999
 40
0.7499999999999999
 40
1.0
 40
1.0
 40
1.0
 40
1.0
 10
28.36598264749647
 20
-1.440637963296482
 30
0.0
 10
28.33054084400207
 20
-1.128861608268545
 30
0.0
 10
28.29211824030824
 20
-0.7794538513250495
 30
0.0
 10
28.23504704927488
 20
-0.2435570157725401
 30
0.0
 10
28.21613312783611
 20
-0.0631710287665083
 30
0.0
 10
28.17937547587875
 20
0.2928085513191878
 30
0.0
 10
28.16196663291045
 20
0.4670210172279631
 30
0.0
 10
28.14370926751409
 20
0.6406297734089748
 30
0.0
  0
SPLINE
  5
C2
330
1F
100
AcDbEntity
  8
0
  6
Continuous
 62
     1
370
    15
100
AcDbSpline
210
0.0
220
0.0
230
1.0
 70
     8
 71
     3
 72
     9
 73
     5
 74
     0
 42
0.000000001
 43
0.00000001
 40
0.0
 40
0.0
 40
0.0
 40
0.0
 40
0.331378075423466
 40
1.0
 40
1.0
 40
1.0
 40
1.0
 10
28.39313347237874
 20
-1.448900281993889
 30
0.0
 10
28.34571805184798
 20
-1.460975791128038
 30
0.0
 10
28.202632482683
 20
-1.497416068954859
 30
0.0
 10
28.04192251846466
 20
-1.569905500871408
 30
0.0
 10
27.93446831289036
 20
-1.618373524350911
 30
0.0
  0
SPLINE
  5
C3
330
1F
100
AcDbEntity
  8
0
  6
Continuous
 62
     1
370
    15
100
AcDbSpline
210
0.0
220
0.0
230
1.0
 70
     8
 71
     3
 72
     8
 73
     4
 74
     0
 42
0.000000001
 43
0.00000001
 40
0.0
 40
0.0
 40
0.0
 40
0.0
 40
1.0
 40
1.0
 40
1.0
 40
1.0
 10
28.96215701540224
 20
-1.874102761613119
 30
0.0
 10
28.6105528532527
 20
-1.82043747424308
 30
0.0
 10
28.2683470121802
 20
-1.733947317066366
 30
0.0
 10
27.93446831288994
 20
-1.618373524352691
 30
0.0
  0
LINE
  5
C4
330
1F
100
AcDbEntity
  8
0
  6
Continuous
 62
     1
370
    15
100
AcDbLine
 10
28.96215701540224
 20
-2.688342236135072
 30
0.0
 11
28.96215701540224
 21
-1.874102761613119
 31
0.0
  0
SPLINE
  5
C5
330
1F
100
AcDbEntity
  8
0
  6
Continuous
 62
     1
370
    15
100
AcDbSpline
210
0.0
220
0.0
230
1.0
 70
     8
 71
     3
 72
     8
 73
     4
 74
     0
 42
0.000000001
 43
0.00000001
 40
0.0
 40
0.0
 40
0.0
 40
0.0
 40
1.0
 40
1.0
 40
1.0
 40
1.0
 10
28.89290661837261
 20
-2.761438681065401
 30
0.0
 10
28.91589507137271
 20
-2.736969782180414
 30
0.0
 10
28.93897567423539
 20
-2.712601525037476
 30
0.0
 10
28.96215701540224
 20
-2.68834223613508
 30
0.0
  0
SPLINE
  5
C6
330
1F
100
AcDbEntity
  8
0
  6
Continuous
 62
     1
370
    15
100
AcDbSpline
210
0.0
220
0.0
230
1.0
 70
     8
 71
     3
 72
     8
 73
     4
 74
     0
 42
0.000000001
 43
0.00000001
 40
0.0
 40
0.0
 40
0.0
 40
0.0
 40
1.0
 40
1.0
 40
1.0
 40
1.0
 10
28.85042328834252
 20
-2.795178625019478
 30
0.0
 10
28.86416995992568
 20
-2.78315704746962
 30
0.0
 10
28.8783481924548
 20
-2.771938483821272
 30
0.0
 10
28.89290661837261
 20
-2.761438681065244
 30
0.0
  0
SPLINE
  5
C7
330
1F
100
AcDbEntity
  8
0
  6
Continuous
 62
     1
370
    15
100
AcDbSpline
210
0.0
220
0.0
230
1.0
 70
     8
 71
     3
 72
    10
 73
     6
 74
     0
 42
0.000000001
 43
0.00000001
 40
0.0
 40
0.0
 40
0.0
 40
0.0
 40
0.5
 40
0.5
 40
1.0
 40
1.0
 40
1.0
 40
1.0
 10
28.31936281725041
 20
-2.906697101860871
 30
0.0
 10
28.39581665120329
 20
-2.943045977282128
 30
0.0
 10
28.48669513267401
 20
-2.950605280922217
 30
0.0
 10
28.6724389188835
 20
-2.912584856523034
 30
0.0
 10
28.76859493453641
 20
-2.866738194555359
 30
0.0
 10
28.85042328834211
 20
-2.795178625018829
 30
0.0
  0
SPLINE
  5
C8
330
1F
100
AcDbEntity
  8
0
  6
Continuous
 62
     1
370
    15
100
AcDbSpline
210
0.0
220
0.0
230
1.0
 70
     8
 71
     3
 72
    10
 73
     6
 74
     0
 42
0.000000001
 43
0.00000001
 40
0.0
 40
0.0
 40
0.0
 40
0.0
 40
0.5
 40
0.5
 40
1.0
 40
1.0
 40
1.0
 40
1.0
 10
27.78588558910353
 20
-2.993665279278762
 30
0.0
 10
27.86672180224392
 20
-2.924180044480652
 30
0.0
 10
27.96366990456531
 20
-2.885424646133583
 30
0.0
 10
28.15292752969522
 20
-2.858911621692029
 30
0.0
 10
28.24338198631776
 20
-2.870573108920184
 30
0.0
 10
28.31936281725019
 20
-2.90669710186043
 30
0.0
  0
SPLINE
  5
C9
330
1F
100
AcDbEntity
  8
0
  6
Continuous
 62
     1
370
    15
100
AcDbSpline
210
0.0
220
0.0
230
1.0
 70
     8
 71
     3
 72
     8
 73
     4
 74
     0
 42
0.000000001
 43
0.00000001
 40
0.0
 40
0.0
 40
0.0
 40
0.0
 40
1.0
 40
1.0
 40
1.0
 40
1.0
 10
27.52521650355282
 20
-3.110818357858291
 30
0.0
 10
27.61573807226373
 20
-3.099358187073798
 30
0.0
 10
27.70767582923971
 20
-3.06089286598178
 30
0.0
 10
27.78588558910361
 20
-2.993665279278662
 30
0.0
  0
SPLINE
  5
CA
330
1F
100
AcDbEntity
  8
0
  6
Continuous
 62
     1
370
    15
100
AcDbSpline
210
0.0
220
0.0
230
1.0
 70
     8
 71
     3
 72
     8
 73
     4
 74
     0
 42
0.000000001
 43
0.00000001
 40
0.0
 40
0.0
 40
0.0
 40
0.0
 40
1.0
 40
1.0
 40
1.0
 40
1.0
 10
27.26183677126873
 20
-3.05018596529522
 30
0.0
 10
27.33834173586395
 20
-3.099992199074886
 30
0.0
 10
27.43055466637536
 20
-3.120409919907941
 30
0.0
 10
27.52521650355115
 20
-3.110818357858487
 30
0.0
  0
SPLINE
  5
CB
330
1F
100
AcDbEntity
  8
0
  6
Continuous
 62
     1
370
    15
100
AcDbSpline
210
0.0
220
0.0
230
1.0
 70
     8
 71
     3
 72
    10
 73
     6
 74
     0
 42
0.000000001
 43
0.00000001
 40
0.0
 40
0.0
 40
0.0
 40
0.0
 40
0.5
 40
0.5
 40
1.0
 40
1.0
 40
1.0
 40
1.0
 10
26.72855828288978
 20
-3.076966915025268
 30
0.0
 10
26.80993551042485
 20
-3.013056071736895
 30
0.0
 10
26.90705727620046
 20
-2.982830962267734
 30
0.0
 10
27.09615419650433
 20
-2.977236359511792
 30
0.0
 10
27.18637352579906
 20
-3.00105791111569
 30
0.0
 10
27.26183677126872
 20
-3.050185965295193
 30
0.0
  0
SPLINE
  5
CC
330
1F
100
AcDbEntity
  8
0
  6
Continuous
 62
     1
370
    15
100
AcDbSpline
210
0.0
220
0.0
230
1.0
 70
     8
 71
     3
 72
    10
 73
     6
 74
     0
 42
0.000000001
 43
0.00000001
 40
0.0
 40
0.0
 40
0.0
 40
0.0
 40
0.5000000000000001
 40
0.5000000000000001
 40
1.0
 40
1.0
 40
1.0
 40
1.0
 10
26.19765628677954
 20
-3.077345078172895
 30
0.0
 10
26.27402779738929
 20
-3.136482361003816
 30
0.0
 10
26.36478725051702
 20
-3.16718588796452
 30
0.0
 10
26.55045932053466
 20
-3.169581391000054
 30
0.0
 10
26.64670091227656
 20
-3.141254845982288
 30
0.0
 10
26.72855828288976
 20
-3.07696691502515
 30
0.0
  0
SPLINE
  5
CD
330
1F
100
AcDbEntity
  8
0
  6
Continuous
 62
     1
370
    15
100
AcDbSpline
210
0.0
220
0.0
230
1.0
 70
     8
 71
     3
 72
    10
 73
     6
 74
     0
 42
0.000000001
 43
0.00000001
 40
0.0
 40
0.0
 40
0.0
 40
0.0
 40
0.5
 40
0.5
 40
1.0
 40
1.0
 40
1.0
 40
1.0
 10
25.66342164061052
 20
-3.051177180486304
 30
0.0
 10
25.74449088481001
 20
-2.993661489458835
 30
0.0
 10
25.84165521495001
 20
-2.971674576056953
 30
0.0
 10
26.03112724282376
 20
-2.984598092218656
 30
0.0
 10
26.1215739214707
 20
-3.018431691233252
 30
0.0
 10
26.19765628677961
 20
-3.077345078172921
 30
0.0
  0
SPLINE
  5
CE
330
1F
100
AcDbEntity
  8
0
  6
Continuous
 62
     1
370
    15
100
AcDbSpline
210
0.0
220
0.0
230
1.0
 70
     8
 71
     3
 72
     8
 73
     4
 74
     0
 42
0.000000001
 43
0.00000001
 40
0.0
 40
0.0
 40
0.0
 40
0.0
 40
1.0
 40
1.0
 40
1.0
 40
1.0
 10
25.40231155913671
 20
-3.117830109040496
 30
0.0
 10
25.49305932978652
 20
-3.126285110178439
 30
0.0
 10
25.5851301745538
 20
-3.106722138580679
 30
0.0
 10
25.66342164061053
 20
-3.05117718048627
 30
0.0
  0
SPLINE
  5
CF
330
1F
100
AcDbEntity
  8
0
  6
Continuous
 62
     1
370
    15
100
AcDbSpline
210
0.0
220
0.0
230
1.0
 70
     8
 71
     3
 72
     8
 73
     4
 74
     0
 42
0.000000001
 43
0.00000001
 40
0.0
 40
0.0
 40
0.0
 40
0.0
 40
1.0
 40
1.0
 40
1.0
 40
1.0
 10
25.13826532777469
 20
-2.995528626877607
 30
0.0
 10
25.21494117358651
 20
-3.064336790942495
 30
0.0
 10
25.30736194299798
 20
-3.106454445571211
 30
0.0
 10
25.40231155913512
 20
-3.117830109040315
 30
0.0
  0
SPLINE
  5
D0
330
1F
100
AcDbEntity
  8
0
  6
Continuous
 62
     1
370
    15
100
AcDbSpline
210
0.0
220
0.0
230
1.0
 70
     8
 71
     3
 72
    10
 73
     6
 74
     0
 42
0.000000001
 43
0.00000001
 40
0.0
 40
0.0
 40
0.0
 40
0.0
 40
0.5
 40
0.5
 40
1.0
 40
1.0
 40
1.0
 40
1.0
 10
24.60430854145912
 20
-2.908615769275305
 30
0.0
 10
24.6857567788135
 20
-2.861426743780741
 30
0.0
 10
24.78289524178204
 20
-2.85002237696335
 30
0.0
 10
24.97216048652257
 20
-2.88365652625386
 30
0.0
 10
25.06257033492144
 20
-2.927600670791731
 30
0.0
 10
25.13826532777481
 20
-2.995528626877516
 30
0.0
  0
SPLINE
  5
D1
330
1F
100
AcDbEntity
  8
0
  6
Continuous
 62
     1
370
    15
100
AcDbSpline
210
0.0
220
0.0
230
1.0
 70
     8
 71
     3
 72
    10
 73
     6
 74
     0
 42
0.000000001
 43
0.00000001
 40
0.0
 40
0.0
 40
0.0
 40
0.0
 40
0.5
 40
0.5
 40
1.0
 40
1.0
 40
1.0
 40
1.0
 10
24.07403958280589
 20
-2.797685546148034
 30
0.0
 10
24.15034580983455
 20
-2.871125553688748
 30
0.0
 10
24.24110195708858
 20
-2.920390336188732
 30
0.0
 10
24.42659878576017
 20
-2.962656559460171
 30
0.0
 10
24.52261284601014
 20
-2.955948165660378
 30
0.0
 10
24.60430854145909
 20
-2.908615769275138
 30
0.0
  0
SPLINE
  5
D2
330
1F
100
AcDbEntity
  8
0
  6
Continuous
 62
     1
370
    15
100
AcDbSpline
210
0.0
220
0.0
230
1.0
 70
     8
 71
     3
 72
    10
 73
     6
 74
     0
 42
0.000000001
 43
0.00000001
 40
0.0
 40
0.0
 40
0.0
 40
0.0
 40
0.5
 40
0.5
 40
1.0
 40
1.0
 40
1.0
 40
1.0
 10
23.54123013637101
 20
-2.662740093034884
 30
0.0
 10
23.62198159132534
 20
-2.625820853069526
 30
0.0
 10
23.71881591642422
 20
-2.623559445060719
 30
0.0
 10
23.90785909006608
 20
-2.673630616410388
 30
0.0
 10
23.99820852431935
 20
-2.724702858837594
 30
0.0
 10
24.07403958280607
 20
-2.797685546148191
 30
0.0
  0
SPLINE
  5
D3
330
1F
100
AcDbEntity
  8
0
  6
Continuous
 62
     1
370
    15
100
AcDbSpline
210
0.0
220
0.0
230
1.0
 70
     8
 71
     3
 72
     8
 73
     4
 74
     0
 42
0.000000001
 43
0.00000001
 40
0.0
 40
0.0
 40
0.0
 40
0.0
 40
1.0
 40
1.0
 40
1.0
 40
1.0
 10
23.28039857335194
 20
-2.669046303828903
 30
0.0
 10
23.37098469859795
 20
-2.696240974714571
 30
0.0
 10
23.46298519098623
 20
-2.698513366920318
 30
0.0
 10
23.54123013637104
 20
-2.662740093034771
 30
0.0
  0
SPLINE
  5
D4
330
1F
100
AcDbEntity
  8
0
  6
Continuous
 62
     1
370
    15
100
AcDbSpline
210
0.0
220
0.0
230
1.0
 70
     8
 71
     3
 72
     8
 73
     4
 74
     0
 42
0.000000001
 43
0.00000001
 40
0.0
 40
0.0
 40
0.0
 40
0.0
 40
1.0
 40
1.0
 40
1.0
 40
1.0
 10
23.01645023886459
 20
-2.502628715343406
 30
0.0
 10
23.09315872659439
 20
-2.580473660140057
 30
0.0
 10
23.18549564873915
 20
-2.638264072883134
 30
0.0
 10
23.28039857335028
 20
-2.669046303828373
 30
0.0
  0
SPLINE
  5
D5
330
1F
100
AcDbEntity
  8
0
  6
Continuous
 62
     1
370
    15
100
AcDbSpline
210
0.0
220
0.0
230
1.0
 70
     8
 71
     3
 72
    10
 73
     6
 74
     0
 42
0.000000001
 43
0.00000001
 40
0.0
 40
0.0
 40
0.0
 40
0.0
 40
0.5
 40
0.5
 40
1.0
 40
1.0
 40
1.0
 40
1.0
 10
22.48236429341384
 20
-2.315198425685491
 30
0.0
 10
22.56388264521601
 20
-2.291471296644086
 30
0.0
 10
22.6611546078207
 20
-2.300336494623612
 30
0.0
 10
22.85050504168648
 20
-2.368225161671814
 30
0.0
 10
22.94083553021365
 20
-2.425893754259522
 30
0.0
 10
23.01645023886459
 20
-2.502628715343382
 30
0.0
  0
SPLINE
  5
D6
330
1F
100
AcDbEntity
  8
0
  6
Continuous
 62
     1
370
    15
100
AcDbSpline
210
0.0
220
0.0
230
1.0
 70
     8
 71
     3
 72
    10
 73
     6
 74
     0
 42
0.000000001
 43
0.00000001
 40
0.0
 40
0.0
 40
0.0
 40
0.0
 40
0.5
 40
0.5
 40
1.0
 40
1.0
 40
1.0
 40
1.0
 10
21.95115790873838
 20
-2.109405452078285
 30
0.0
 10
22.0275797523773
 20
-2.186292364173101
 30
0.0
 10
22.11840414541966
 20
-2.247019922359412
 30
0.0
 10
22.30418257950408
 20
-2.323128598595741
 30
0.0
 10
22.40045945309342
 20
-2.339038047959925
 30
0.0
 10
22.48236429341384
 20
-2.315198425685489
 30
0.0
  0
SPLINE
  5
D7
330
1F
100
AcDbEntity
  8
0
  6
Continuous
 62
     1
370
    15
100
AcDbSpline
210
0.0
220
0.0
230
1.0
 70
     8
 71
     3
 72
    10
 73
     6
 74
     0
 42
0.000000001
 43
0.00000001
 40
0.0
 40
0.0
 40
0.0
 40
0.0
 40
0.5
 40
0.5
 40
1.0
 40
1.0
 40
1.0
 40
1.0
 10
21.41704140442575
 20
-1.883606766109799
 30
0.0
 10
21.49808073264865
 20
-1.872618117473303
 30
0.0
 10
21.59521426908274
 20
-1.890917035932363
 30
0.0
 10
21.78460533740702
 20
-1.971782089543308
 30
0.0
 10
21.87506080809371
 20
-2.032845259215282
 30
0.0
 10
21.95115790873849
 20
-2.109405452078329
 30
0.0
  0
SPLINE
  5
D8
330
1F
100
AcDbEntity
  8
0
  6
Continuous
 62
     1
370
    15
100
AcDbSpline
210
0.0
220
0.0
230
1.0
 70
     8
 71
     3
 72
     8
 73
     4
 74
     0
 42
0.000000001
 43
0.00000001
 40
0.0
 40
0.0
 40
0.0
 40
0.0
 40
1.0
 40
1.0
 40
1.0
 40
1.0
 10
21.15613125579128
 20
-1.828953904798428
 30
0.0
 10
21.24682065606261
 20
-1.870625688268088
 30
0.0
 10
21.33881727527741
 20
-1.894213683626813
 30
0.0
 10
21.41704140442575
 20
-1.883606766109644
 30
0.0
  0
SPLINE
  5
D9
330
1F
100
AcDbEntity
  8
0
  6
Continuous
 62
     1
370
    15
100
AcDbSpline
210
0.0
220
0.0
230
1.0
 70
     8
 71
     3
 72
     8
 73
     4
 74
     0
 42
0.000000001
 43
0.00000001
 40
0.0
 40
0.0
 40
0.0
 40
0.0
 40
1.0
 40
1.0
 40
1.0
 40
1.0
 10
20.89246100426845
 20
-1.644066477476982
 30
0.0
 10
20.96899969282286
 20
-1.719157681130995
 30
0.0
 10
21.06130576154625
 20
-1.783666811249895
 30
0.0
 10
21.15613125578961
 20
-1.828953904797636
 30
0.0
  0
SPLINE
  5
DA
330
1F
100
AcDbEntity
  8
0
  6
Continuous
 62
     1
370
    15
100
AcDbSpline
210
0.0
220
0.0
230
1.0
 70
     8
 71
     3
 72
    10
 73
     6
 74
     0
 42
0.000000001
 43
0.00000001
 40
0.0
 40
0.0
 40
0.0
 40
0.0
 40
0.5
 40
0.5
 40
1.0
 40
1.0
 40
1.0
 40
1.0
 10
20.35950984345363
 20
-1.383575457774368
 30
0.0
 10
20.44077301914576
 20
-1.387191556906392
 30
0.0
 10
20.53776299803542
 20
-1.415174085051607
 30
0.0
 10
20.72671068172031
 20
-1.507222330454276
 30
0.0
 10
20.81694990128748
 20
-1.569983425896175
 30
0.0
 10
20.89246100426842
 20
-1.644066477476697
 30
0.0
  0
SPLINE
  5
DB
330
1F
100
AcDbEntity
  8
0
  6
Continuous
 62
     1
370
    15
100
AcDbSpline
210
0.0
220
0.0
230
1.0
 70
     8
 71
     3
 72
    10
 73
     6
 74
     0
 42
0.000000001
 43
0.00000001
 40
0.0
 40
0.0
 40
0.0
 40
0.0
 40
0.5
 40
0.5
 40
1.0
 40
1.0
 40
1.0
 40
1.0
 10
19.82915849168807
 20
-1.112852245719911
 30
0.0
 10
19.90553028718864
 20
-1.181721811405247
 30
0.0
 10
19.9962968364284
 20
-1.244801552324214
 30
0.0
 10
20.18179529092871
 20
-1.34353650599859
 30
0.0
 10
20.27780573664431
 20
-1.379939737816352
 30
0.0
 10
20.35950984345367
 20
-1.383575457774372
 30
0.0
  0
SPLINE
  5
DC
330
1F
100
AcDbEntity
  8
0
  6
Continuous
 62
     1
370
    15
100
AcDbSpline
210
0.0
220
0.0
230
1.0
 70
     8
 71
     3
 72
    10
 73
     6
 74
     0
 42
0.000000001
 43
0.00000001
 40
0.0
 40
0.0
 40
0.0
 40
0.0
 40
0.5
 40
0.5
 40
1.0
 40
1.0
 40
1.0
 40
1.0
 10
19.29538650474851
 20
-0.8321677034880941
 30
0.0
 10
19.37630318519802
 20
-0.8486957061369634
 30
0.0
 10
19.47331447674609
 20
-0.8843044858602706
 30
0.0
 10
19.66266515209619
 20
-0.9827580648311846
 30
0.0
 10
19.75316866009399
 20
-1.04432712248444
 30
0.0
 10
19.82915849168826
 20
-1.112852245720018
 30
0.0
  0
SPLINE
  5
DD
330
1F
100
AcDbEntity
  8
0
  6
Continuous
 62
     1
370
    15
100
AcDbSpline
210
0.0
220
0.0
230
1.0
 70
     8
 71
     3
 72
     8
 73
     4
 74
     0
 42
0.000000001
 43
0.00000001
 40
0.0
 40
0.0
 40
0.0
 40
0.0
 40
1.0
 40
1.0
 40
1.0
 40
1.0
 10
19.03426648793148
 20
-0.7240542186136046
 30
0.0
 10
19.12495312718776
 20
-0.7744660474020896
 30
0.0
 10
19.21704855338155
 20
-0.8161664308146057
 30
0.0
 10
19.29538650474851
 20
-0.8321677034880165
 30
0.0
  0
SPLINE
  5
DE
330
1F
100
AcDbEntity
  8
0
  6
Continuous
 62
     1
370
    15
100
AcDbSpline
210
0.0
220
0.0
230
1.0
 70
     8
 71
     3
 72
     8
 73
     4
 74
     0
 42
0.000000001
 43
0.00000001
 40
0.0
 40
0.0
 40
0.0
 40
0.0
 40
1.0
 40
1.0
 40
1.0
 40
1.0
 10
18.7700640500905
 20
-0.5459412056515913
 30
0.0
 10
18.8468421216347
 20
-0.6077919062152847
 30
0.0
 10
18.93924455053574
 20
-0.6703439983978257
 30
0.0
 10
19.03426648792982
 20
-0.7240542186126763
 30
0.0
  0
SPLINE
  5
DF
330
1F
100
AcDbEntity
  8
0
  6
Continuous
 62
     1
370
    15
100
AcDbSpline
210
0.0
220
0.0
230
1.0
 70
     8
 71
     3
 72
    10
 73
     6
 74
     0
 42
0.000000001
 43
0.00000001
 40
0.0
 40
0.0
 40
0.0
 40
0.0
 40
0.5
 40
0.5
 40
1.0
 40
1.0
 40
1.0
 40
1.0
 10
18.23584873496331
 20
-0.2502367758904592
 30
0.0
 10
18.31739225266143
 20
-0.2802270478108753
 30
0.0
 10
18.41469906922266
 20
-0.3231651264537547
 30
0.0
 10
18.60409273930686
 20
-0.4261221098417267
 30
0.0
 10
18.69442087846725
 20
-0.4850047551303858
 30
0.0
 10
18.7700640500905
 20
-0.5459412056514839
 30
0.0
  0
SPLINE
  5
E0
330
1F
100
AcDbEntity
  8
0
  6
Continuous
 62
     1
370
    15
100
AcDbSpline
210
0.0
220
0.0
230
1.0
 70
     8
 71
     3
 72
    10
 73
     6
 74
     0
 42
0.000000001
 43
0.00000001
 40
0.0
 40
0.0
 40
0.0
 40
0.0
 40
0.5
 40
0.5
 40
1.0
 40
1.0
 40
1.0
 40
1.0
 10
17.70501662681546
 20
0.0446299307685328
 30
0.0
 10
17.78136454073974
 20
-0.0062832894098028
 30
0.0
 10
17.87213940439073
 20
-0.0625257606987829
 30
0.0
 10
18.05780945449899
 20
-0.1690773582292941
 30
0.0
 10
18.15401391064158
 20
-0.2201393665162755
 30
0.0
 10
18.23584873496331
 20
-0.250236775890421
 30
0.0
  0
SPLINE
  5
E1
330
1F
100
AcDbEntity
  8
0
  6
Continuous
 62
     1
370
    15
100
AcDbSpline
210
0.0
220
0.0
230
1.0
 70
     8
 71
     3
 72
    10
 73
     6
 74
     0
 42
0.000000001
 43
0.00000001
 40
0.0
 40
0.0
 40
0.0
 40
0.0
 40
0.5
 40
0.5
 40
1.0
 40
1.0
 40
1.0
 40
1.0
 10
17.17171299662337
 20
0.3415805279478254
 30
0.0
 10
17.25259584305595
 20
0.2998573180878533
 30
0.0
 10
17.34956781790006
 20
0.2516879273033991
 30
0.0
 10
17.5386408947068
 20
0.1487584494451839
 30
0.0
 10
17.6290378727242
 20
0.0952969737445188
 30
0.0
 10
17.70501662681583
 20
0.0446299307683554
 30
0.0
  0
SPLINE
  5
E2
330
1F
100
AcDbEntity
  8
0
  6
Continuous
 62
     1
370
    15
100
AcDbSpline
210
0.0
220
0.0
230
1.0
 70
     8
 71
     3
 72
     8
 73
     4
 74
     0
 42
0.000000001
 43
0.00000001
 40
0.0
 40
0.0
 40
0.0
 40
0.0
 40
1.0
 40
1.0
 40
1.0
 40
1.0
 10
16.91125259094154
 20
0.4863782165391106
 30
0.0
 10
17.00180598067019
 20
0.4351776909936663
 30
0.0
 10
17.0936448970715
 20
0.3818517578148314
 30
0.0
 10
17.17171299662341
 20
0.3415805279479677
 30
0.0
  0
SPLINE
  5
E3
330
1F
100
AcDbEntity
  8
0
  6
Continuous
 62
     1
370
    15
100
AcDbSpline
210
0.0
220
0.0
230
1.0
 70
     8
 71
     3
 72
     8
 73
     4
 74
     0
 42
0.000000001
 43
0.00000001
 40
0.0
 40
0.0
 40
0.0
 40
0.0
 40
1.0
 40
1.0
 40
1.0
 40
1.0
 10
16.64779484217038
 20
0.6289554524259509
 30
0.0
 10
16.72428255814807
 20
0.5901734779447335
 30
0.0
 10
16.81650340081721
 20
0.5398800587236149
 30
0.0
 10
16.91125259093987
 20
0.4863782165400576
 30
0.0
  0
SPLINE
  5
E4
330
1F
100
AcDbEntity
  8
0
  6
Continuous
 62
     1
370
    15
100
AcDbSpline
210
0.0
220
0.0
230
1.0
 70
     8
 71
     3
 72
    10
 73
     6
 74
     0
 42
0.000000001
 43
0.00000001
 40
0.0
 40
0.0
 40
0.0
 40
0.0
 40
0.5
 40
0.5
 40
1.0
 40
1.0
 40
1.0
 40
1.0
 10
16.11415279832607
 20
0.9157056770367136
 30
0.0
 10
16.19554850818413
 20
0.8633675460175704
 30
0.0
 10
16.29266383999285
 20
0.8117166495088249
 30
0.0
 10
16.48183597788283
 20
0.7133228610372924
 30
0.0
 10
16.57220305667862
 20
0.6672831584956801
 30
0.0
 10
16.64779484217045
 20
0.6289554524260051
 30
0.0
  0
SPLINE
  5
E5
330
1F
100
AcDbEntity
  8
0
  6
Continuous
 62
     1
370
    15
100
AcDbSpline
210
0.0
220
0.0
230
1.0
 70
     8
 71
     3
 72
    10
 73
     6
 74
     0
 42
0.000000001
 43
0.00000001
 40
0.0
 40
0.0
 40
0.0
 40
0.0
 40
0.5
 40
0.5
 40
1.0
 40
1.0
 40
1.0
 40
1.0
 10
15.58298051484462
 20
1.19327710883863
 30
0.0
 10
15.65949593054107
 20
1.167909411285057
 30
0.0
 10
15.75040236653317
 20
1.126698604513396
 30
0.0
 10
15.93614309859085
 20
1.027310009798779
 30
0.0
 10
16.03226271192174
 20
0.9683616963635101
 30
0.0
 10
16.11415279832605
 20
0.9157056770367923
 30
0.0
  0
SPLINE
  5
E6
330
1F
100
AcDbEntity
  8
0
  6
Continuous
 62
     1
370
    15
100
AcDbSpline
210
0.0
220
0.0
230
1.0
 70
     8
 71
     3
 72
    10
 73
     6
 74
     0
 42
0.000000001
 43
0.00000001
 40
0.0
 40
0.0
 40
0.0
 40
0.0
 40
0.5
 40
0.5
 40
1.0
 40
1.0
 40
1.0
 40
1.0
 10
15.04887121050055
 20
1.460478980381395
 30
0.0
 10
15.1298440780521
 20
1.39982777478415
 30
0.0
 10
15.22692521681053
 20
1.346602886176421
 30
0.0
 10
15.41638859617461
 20
1.255663068035663
 30
0.0
 10
15.50692534765153
 20
1.218492216946973
 30
0.0
 10
15.58298051484467
 20
1.193277108838615
 30
0.0
  0
SPLINE
  5
E7
330
1F
100
AcDbEntity
  8
0
  6
Continuous
 62
     1
370
    15
100
AcDbSpline
210
0.0
220
0.0
230
1.0
 70
     8
 71
     3
 72
     8
 73
     4
 74
     0
 42
0.000000001
 43
0.00000001
 40
0.0
 40
0.0
 40
0.0
 40
0.0
 40
1.0
 40
1.0
 40
1.0
 40
1.0
 10
14.78776517491537
 20
1.621576931459837
 30
0.0
 10
14.87845730328804
 20
1.576581942945856
 30
0.0
 10
14.9705444360239
 20
1.51914817966017
 30
0.0
 10
15.04887121050058
 20
1.460478980381423
 30
0.0
  0
SPLINE
  5
E8
330
1F
100
AcDbEntity
  8
0
  6
Continuous
 62
     1
370
    15
100
AcDbSpline
210
0.0
220
0.0
230
1.0
 70
     8
 71
     3
 72
     8
 73
     4
 74
     0
 42
0.000000001
 43
0.00000001
 40
0.0
 40
0.0
 40
0.0
 40
0.0
 40
1.0
 40
1.0
 40
1.0
 40
1.0
 10
14.52369441613338
 20
1.710133813923638
 30
0.0
 10
14.60038849050398
 20
1.699388743914277
 30
0.0
 10
14.6927675405514
 20
1.667688686439263
 30
0.0
 10
14.78776517491372
 20
1.621576931460667
 30
0.0
  0
SPLINE
  5
E9
330
1F
100
AcDbEntity
  8
0
  6
Continuous
 62
     1
370
    15
100
AcDbSpline
210
0.0
220
0.0
230
1.0
 70
     8
 71
     3
 72
    10
 73
     6
 74
     0
 42
0.000000001
 43
0.00000001
 40
0.0
 40
0.0
 40
0.0
 40
0.0
 40
0.5
 40
0.5
 40
1.0
 40
1.0
 40
1.0
 40
1.0
 10
13.99003246731161
 20
1.946183969018045
 30
0.0
 10
14.07148476717413
 20
1.879507294038838
 30
0.0
 10
14.16871030605324
 20
1.826897783648978
 30
0.0
 10
14.35793535666112
 20
1.747371991424178
 30
0.0
 10
14.44814699313186
 20
1.720718234634622
 30
0.0
 10
14.52369441613349
 20
1.71013381392362
 30
0.0
  0
SPLINE
  5
EA
330
1F
100
AcDbEntity
  8
0
  6
Continuous
 62
     1
370
    15
100
AcDbSpline
210
0.0
220
0.0
230
1.0
 70
     8
 71
     3
 72
    10
 73
     6
 74
     0
 42
0.000000001
 43
0.00000001
 40
0.0
 40
0.0
 40
0.0
 40
0.0
 40
0.5
 40
0.5
 40
1.0
 40
1.0
 40
1.0
 40
1.0
 10
13.46017773980696
 20
2.162684970519172
 30
0.0
 10
13.53636279882283
 20
2.166639304058488
 30
0.0
 10
13.62697534605248
 20
2.14682577197623
 30
0.0
 10
13.81233475663373
 20
2.070289886880009
 30
0.0
 10
13.90837402103047
 20
2.013029395005826
 30
0.0
 10
13.99003246731161
 20
1.946183969018046
 30
0.0
  0
SPLINE
  5
EB
330
1F
100
AcDbEntity
  8
0
  6
Continuous
 62
     1
370
    15
100
AcDbSpline
210
0.0
220
0.0
230
1.0
 70
     8
 71
     3
 72
    10
 73
     6
 74
     0
 42
0.000000001
 43
0.00000001
 40
0.0
 40
0.0
 40
0.0
 40
0.0
 40
0.5000000000000002
 40
0.5000000000000002
 40
1.0
 40
1.0
 40
1.0
 40
1.0
 10
12.92685981035029
 20
2.362727204782401
 30
0.0
 10
13.00775931170581
 20
2.291940812352566
 30
0.0
 10
13.10464382572892
 20
2.241078370412392
 30
0.0
 10
13.29376733755185
 20
2.174432793905772
 30
0.0
 10
13.38422692096922
 20
2.158742795056591
 30
0.0
 10
13.46017773980696
 20
2.162684970519183
 30
0.0
  0
SPLINE
  5
EC
330
1F
100
AcDbEntity
  8
0
  6
Continuous
 62
     1
370
    15
100
AcDbSpline
210
0.0
220
0.0
230
1.0
 70
     8
 71
     3
 72
     8
 73
     4
 74
     0
 42
0.000000001
 43
0.00000001
 40
0.0
 40
0.0
 40
0.0
 40
0.0
 40
1.0
 40
1.0
 40
1.0
 40
1.0
 10
12.66592774778707
 20
2.515948653167705
 30
0.0
 10
12.75663232423795
 20
2.484130321658008
 30
0.0
 10
12.84863305872969
 20
2.431174963371079
 30
0.0
 10
12.9268598103503
 20
2.362727204782386
 30
0.0
  0
SPLINE
  5
ED
330
1F
100
AcDbEntity
  8
0
  6
Continuous
 62
     1
370
    15
100
AcDbSpline
210
0.0
220
0.0
230
1.0
 70
     8
 71
     3
 72
     8
 73
     4
 74
     0
 42
0.000000001
 43
0.00000001
 40
0.0
 40
0.0
 40
0.0
 40
0.0
 40
1.0
 40
1.0
 40
1.0
 40
1.0
 10
12.40196723450738
 20
2.535646080116453
 30
0.0
 10
12.47863408424254
 20
2.555079235637444
 30
0.0
 10
12.57102841852695
 20
2.54742127614174
 30
0.0
 10
12.66592774778541
 20
2.515948653168275
 30
0.0
  0
SPLINE
  5
EE
330
1F
100
AcDbEntity
  8
0
  6
Continuous
 62
     1
370
    15
100
AcDbSpline
210
0.0
220
0.0
230
1.0
 70
     8
 71
     3
 72
    10
 73
     6
 74
     0
 42
0.000000001
 43
0.00000001
 40
0.0
 40
0.0
 40
0.0
 40
0.0
 40
0.5
 40
0.5
 40
1.0
 40
1.0
 40
1.0
 40
1.0
 10
11.86777264899281
 20
2.686009326360848
 30
0.0
 10
11.94925766084089
 20
2.614583029405427
 30
0.0
 10
12.04647857343231
 20
2.568590122514061
 30
0.0
 10
12.23583398287909
 20
2.5196623634762
 30
0.0
 10
12.32627131451598
 20
2.516459031338798
 30
0.0
 10
12.40196723450745
 20
2.535646080116468
 30
0.0
  0
SPLINE
  5
EF
330
1F
100
AcDbEntity
  8
0
  6
Continuous
 62
     1
370
    15
100
AcDbSpline
210
0.0
220
0.0
230
1.0
 70
     8
 71
     3
 72
    10
 73
     6
 74
     0
 42
0.000000001
 43
0.00000001
 40
0.0
 40
0.0
 40
0.0
 40
0.0
 40
0.5
 40
0.5
 40
1.0
 40
1.0
 40
1.0
 40
1.0
 10
11.33647074058877
 20
2.812460316148962
 30
0.0
 10
11.41299776515363
 20
2.84510424012361
 30
0.0
 10
11.50391926391129
 20
2.849202428026321
 30
0.0
 10
11.68966780943065
 20
2.805700282887274
 30
0.0
 10
11.78582745523568
 20
2.757838999212384
 30
0.0
 10
11.86777264899274
 20
2.686009326360742
 30
0.0
  0
SPLINE
  5
F0
330
1F
100
AcDbEntity
  8
0
  6
Continuous
 62
     1
370
    15
100
AcDbSpline
210
0.0
220
0.0
230
1.0
 70
     8
 71
     3
 72
    10
 73
     6
 74
     0
 42
0.000000001
 43
0.00000001
 40
0.0
 40
0.0
 40
0.0
 40
0.0
 40
0.5
 40
0.5
 40
1.0
 40
1.0
 40
1.0
 40
1.0
 10
10.80270500289891
 20
2.914392852887898
 30
0.0
 10
10.88361790397274
 20
2.844018632368989
 30
0.0
 10
10.98065254111773
 20
2.803400588175457
 30
0.0
 10
11.17001731553037
 20
2.771671850260013
 30
0.0
 10
11.26047387317346
 20
2.780042539862402
 30
0.0
 10
11.33647074058876
 20
2.812460316148921
 30
0.0
  0
SPLINE
  5
F1
330
1F
100
AcDbEntity
  8
0
  6
Continuous
 62
     1
370
    15
100
AcDbSpline
210
0.0
220
0.0
230
1.0
 70
     8
 71
     3
 72
    13
 73
     9
 74
     0
 42
0.000000001
 43
0.00000001
 40
0.0
 40
0.0
 40
0.0
 40
0.0
 40
0.0772599413326326
 40
0.2330126351689432
 40
0.3790026929543532
 40
0.5259833953529054
 40
0.7601866816461909
 40
1.0
 40
1.0
 40
1.0
 40
1.0
 10
10.56139269975358
 20
3.033312371716451
 30
0.0
 10
10.56786752475653
 20
3.032110033614096
 30
0.0
 10
10.5873953163931
 20
3.02848383399808
 30
0.0
 10
10.61915508171701
 20
3.019049307805985
 30
0.0
 10
10.6564975338097
 20
3.005389865261193
 30
0.0
 10
10.69975383858928
 20
2.985484746071736
 30
0.0
 10
10.74975190180179
 20
2.957024986383261
 30
0.0
 10
10.78491524867033
 20
2.928715246882139
 30
0.0
 10
10.80270500289897
 20
2.91439285288805
 30
0.0
  0
SPLINE
  5
F2
330
1F
100
AcDbEntity
  8
0
  6
Continuous
 62
     1
370
    15
100
AcDbSpline
210
0.0
220
0.0
230
1.0
 70
     8
 71
     3
 72
     8
 73
     4
 74
     0
 42
0.000000001
 43
0.00000001
 40
0.0
 40
0.0
 40
0.0
 40
0.0
 40
1.0
 40
1.0
 40
1.0
 40
1.0
 10
10.54446267575067
 20
3.149545146998211
 30
0.0
 10
10.33292691166135
 20
3.181556777496537
 30
0.0
 10
10.12384270107324
 20
3.206443217222514
 30
0.0
 10
9.912157015402176
 20
3.224232278437849
 30
0.0
  0
SPLINE
  5
F3
330
1F
100
AcDbEntity
  8
0
  6
Continuous
 62
     4
370
    15
100
AcDbSpline
210
0.0
220
0.0
230
1.0
 70
     8
 71
     3
 72
     9
 73
     5
 74
     0
 42
0.000000001
 43
0.00000001
 40
0.0
 40
0.0
 40
0.0
 40
0.0
 40
0.979269065700883
 40
1.0
 40
1.0
 40
1.0
 40
1.0
 10
9.912157015399504
 20
3.12672010970295
 30
0.0
 10
9.66327853636043
 20
3.145293617541941
 30
0.0
 10
9.409131348671062
 20
3.164260322903656
 30
0.0
 10
9.155458556405419
 20
3.156713526045091
 30
0.0
 10
9.150199682415485
 20
3.156557073895247
 30
0.0
  0
SPLINE
  5
F4
330
1F
100
AcDbEntity
  8
0
  6
Continuous
 62
     1
370
    15
100
AcDbSpline
210
0.0
220
0.0
230
1.0
 70
     8
 71
     3
 72
    10
 73
     6
 74
     0
 42
0.000000001
 43
0.00000001
 40
0.0
 40
0.0
 40
0.0
 40
0.0
 40
0.35987399141815
 40
0.6966395709496453
 40
1.0
 40
1.0
 40
1.0
 40
1.0
 10
13.50642557777631
 20
2.423884314959919
 30
0.0
 10
13.45541742264337
 20
2.426561196332262
 30
0.0
 10
13.35667647399434
 20
2.431743069807927
 30
0.0
 10
13.19042521200723
 20
2.378224696914272
 30
0.0
 10
13.08987042214024
 20
2.313509632774585
 30
0.0
 10
13.04221676678463
 20
2.282840687347841
 30
0.0
  0
SPLINE
  5
F5
330
1F
100
AcDbEntity
  8
0
  6
Continuous
 62
     1
370
    15
100
AcDbSpline
210
0.0
220
0.0
230
1.0
 70
     8
 71
     3
 72
    10
 73
     6
 74
     0
 42
0.000000001
 43
0.00000001
 40
0.0
 40
0.0
 40
0.0
 40
0.0
 40
0.5
 40
0.5
 40
1.0
 40
1.0
 40
1.0
 40
1.0
 10
14.04006794476886
 20
2.592877205389393
 30
0.0
 10
13.95918103770247
 20
2.521106981149745
 30
0.0
 10
13.86217135840465
 20
2.473067124949587
 30
0.0
 10
13.67284521335204
 20
2.41764255888394
 30
0.0
 10
13.58240528996117
 20
2.410092510275207
 30
0.0
 10
13.50642557777631
 20
2.423884314959915
 30
0.0
  0
SPLINE
  5
F6
330
1F
100
AcDbEntity
  8
0
  6
Continuous
 62
     1
370
    15
100
AcDbSpline
210
0.0
220
0.0
230
1.0
 70
     8
 71
     3
 72
     8
 73
     4
 74
     0
 42
0.000000001
 43
0.00000001
 40
0.0
 40
0.0
 40
0.0
 40
0.0
 40
1.0
 40
1.0
 40
1.0
 40
1.0
 10
14.30078638509212
 20
2.738111873659319
 30
0.0
 10
14.21020998359048
 20
2.71183506230234
 30
0.0
 10
14.11825822898323
 20
2.662254740455995
 30
0.0
 10
14.04006794476886
 20
2.59287720538939
 30
0.0
  0
SPLINE
  5
F7
330
1F
100
AcDbEntity
  8
0
  6
Continuous
 62
     1
370
    15
100
AcDbSpline
210
0.0
220
0.0
230
1.0
 70
     8
 71
     3
 72
     8
 73
     4
 74
     0
 42
0.000000001
 43
0.00000001
 40
0.0
 40
0.0
 40
0.0
 40
0.0
 40
1.0
 40
1.0
 40
1.0
 40
1.0
 10
14.56424234716765
 20
2.733956793638538
 30
0.0
 10
14.4878000173193
 20
2.76293106889562
 30
0.0
 10
14.3955920494973
 20
2.763584588620303
 30
0.0
 10
14.30078638509379
 20
2.738111873659777
 30
0.0
  0
SPLINE
  5
F8
330
1F
100
AcDbEntity
  8
0
  6
Continuous
 62
     1
370
    15
100
AcDbSpline
210
0.0
220
0.0
230
1.0
 70
     8
 71
     3
 72
    10
 73
     6
 74
     0
 42
0.000000001
 43
0.00000001
 40
0.0
 40
0.0
 40
0.0
 40
0.0
 40
0.5
 40
0.5
 40
1.0
 40
1.0
 40
1.0
 40
1.0
 10
15.09736099619537
 20
2.84976636533124
 30
0.0
 10
15.01596813988315
 20
2.779229252615648
 30
0.0
 10
14.91883717339185
 20
2.737147356322293
 30
0.0
 10
14.72979413431724
 20
2.700439235130221
 30
0.0
 10
14.63965056378783
 20
2.70537448290398
 30
0.0
 10
14.56424234716765
 20
2.733956793638537
 30
0.0
  0
SPLINE
  5
F9
330
1F
100
AcDbEntity
  8
0
  6
Continuous
 62
     1
370
    15
100
AcDbSpline
210
0.0
220
0.0
230
1.0
 70
     8
 71
     3
 72
    10
 73
     6
 74
     0
 42
0.000000001
 43
0.00000001
 40
0.0
 40
0.0
 40
0.0
 40
0.0
 40
0.5
 40
0.5
 40
1.0
 40
1.0
 40
1.0
 40
1.0
 10
15.62804941022159
 20
2.939860460988768
 30
0.0
 10
15.55168950859903
 20
2.981186009523609
 30
0.0
 10
15.46092997049484
 20
2.993564337760056
 30
0.0
 10
15.27531311772317
 20
2.963414053441774
 30
0.0
 10
15.17914051247307
 20
2.920638567375345
 30
0.0
 10
15.09736099619538
 20
2.849766365331245
 30
0.0
  0
SPLINE
  5
FA
330
1F
100
AcDbEntity
  8
0
  6
Continuous
 62
     1
370
    15
100
AcDbSpline
210
0.0
220
0.0
230
1.0
 70
     8
 71
     3
 72
    10
 73
     6
 74
     0
 42
0.000000001
 43
0.00000001
 40
0.0
 40
0.0
 40
0.0
 40
0.0
 40
0.5
 40
0.5
 40
1.0
 40
1.0
 40
1.0
 40
1.0
 10
16.16223486413623
 20
3.005301173661383
 30
0.0
 10
16.08120734785171
 20
2.937354450784613
 30
0.0
 10
15.98419861407482
 20
2.901516116849575
 30
0.0
 10
15.79477913222534
 20
2.882476295055207
 30
0.0
 10
15.70417479535556
 20
2.898661831456249
 30
0.0
 10
15.62804941022159
 20
2.939860460988769
 30
0.0
  0
SPLINE
  5
FB
330
1F
100
AcDbEntity
  8
0
  6
Continuous
 62
     1
370
    15
100
AcDbSpline
210
0.0
220
0.0
230
1.0
 70
     8
 71
     3
 72
     8
 73
     4
 74
     0
 42
0.000000001
 43
0.00000001
 40
0.0
 40
0.0
 40
0.0
 40
0.0
 40
1.0
 40
1.0
 40
1.0
 40
1.0
 10
16.4233922917224
 20
3.113549238578365
 30
0.0
 10
16.33261651171069
 20
3.106044276172221
 30
0.0
 10
16.24054472363152
 20
3.070968968573925
 30
0.0
 10
16.16223486413623
 20
3.005301173661384
 30
0.0
  0
SPLINE
  5
FC
330
1F
100
AcDbEntity
  8
0
  6
Continuous
 62
     1
370
    15
100
AcDbSpline
210
0.0
220
0.0
230
1.0
 70
     8
 71
     3
 72
     8
 73
     4
 74
     0
 42
0.000000001
 43
0.00000001
 40
0.0
 40
0.0
 40
0.0
 40
0.0
 40
1.0
 40
1.0
 40
1.0
 40
1.0
 10
16.6874755766644
 20
3.039580328696399
 30
0.0
 10
16.61076898670964
 20
3.093852272800055
 30
0.0
 10
16.51832629753855
 20
3.118947429570062
 30
0.0
 10
16.42339229172407
 20
3.113549238578474
 30
0.0
  0
SPLINE
  5
FD
330
1F
100
AcDbEntity
  8
0
  6
Continuous
 62
     1
370
    15
100
AcDbSpline
210
0.0
220
0.0
230
1.0
 70
     8
 71
     3
 72
    10
 73
     6
 74
     0
 42
0.000000001
 43
0.00000001
 40
0.0
 40
0.0
 40
0.0
 40
0.0
 40
0.5
 40
0.5
 40
1.0
 40
1.0
 40
1.0
 40
1.0
 10
17.22146520593375
 20
3.043641064809444
 30
0.0
 10
17.14002339034695
 20
2.982326927939781
 30
0.0
 10
17.04282923502891
 20
2.955549447347956
 30
0.0
 10
16.85352797949417
 20
2.957850662862667
 30
0.0
 10
16.76314360909121
 20
2.986043191551818
 30
0.0
 10
16.68747557666441
 20
3.039580328696399
 30
0.0
  0
SPLINE
  5
FE
330
1F
100
AcDbEntity
  8
0
  6
Continuous
 62
     1
370
    15
100
AcDbSpline
210
0.0
220
0.0
230
1.0
 70
     8
 71
     3
 72
    10
 73
     6
 74
     0
 42
0.000000001
 43
0.00000001
 40
0.0
 40
0.0
 40
0.0
 40
0.0
 40
0.5
 40
0.5
 40
1.0
 40
1.0
 40
1.0
 40
1.0
 10
17.75204313804424
 20
3.021257042199862
 30
0.0
 10
17.67566580062373
 20
3.084159846998145
 30
0.0
 10
17.58487277715766
 20
3.118980091754544
 30
0.0
 10
17.39937693235793
 20
3.129481042591353
 30
0.0
 10
17.30330157086439
 20
3.105252241379114
 30
0.0
 10
17.22146520593375
 20
3.043641064809447
 30
0.0
  0
SPLINE
  5
FF
330
1F
100
AcDbEntity
  8
0
  6
Continuous
 62
     1
370
    15
100
AcDbSpline
210
0.0
220
0.0
230
1.0
 70
     8
 71
     3
 72
    10
 73
     6
 74
     0
 42
0.000000001
 43
0.00000001
 40
0.0
 40
0.0
 40
0.0
 40
0.0
 40
0.4999999999999999
 40
0.4999999999999999
 40
1.0
 40
1.0
 40
1.0
 40
1.0
 10
18.28478772557941
 20
2.972798138342094
 30
0.0
 10
18.20403032187334
 20
2.918834280272837
 30
0.0
 10
18.10717205826167
 20
2.900467383580841
 30
0.0
 10
17.91813439578317
 20
2.921008694275736
 30
0.0
 10
17.8278509963775
 20
2.958823248669479
 30
0.0
 10
17.75204313804424
 20
3.021257042199863
 30
0.0
  0
SPLINE
  5
100
330
1F
100
AcDbEntity
  8
0
  6
Continuous
 62
     1
370
    15
100
AcDbSpline
210
0.0
220
0.0
230
1.0
 70
     8
 71
     3
 72
     8
 73
     4
 74
     0
 42
0.000000001
 43
0.00000001
 40
0.0
 40
0.0
 40
0.0
 40
0.0
 40
1.0
 40
1.0
 40
1.0
 40
1.0
 10
18.54546488694568
 20
3.028100577578067
 30
0.0
 10
18.45489020954379
 20
3.040431121716212
 30
0.0
 10
18.36294625558057
 20
3.025025372333369
 30
0.0
 10
18.28478772557941
 20
2.972798138342095
 30
0.0
  0
SPLINE
  5
101
330
1F
100
AcDbEntity
  8
0
  6
Continuous
 62
     1
370
    15
100
AcDbSpline
210
0.0
220
0.0
230
1.0
 70
     8
 71
     3
 72
     8
 73
     4
 74
     0
 42
0.000000001
 43
0.00000001
 40
0.0
 40
0.0
 40
0.0
 40
0.0
 40
1.0
 40
1.0
 40
1.0
 40
1.0
 10
18.80927397601762
 20
2.895355245424325
 30
0.0
 10
18.73268360384785
 20
2.966818057594904
 30
0.0
 10
18.64037376784755
 20
3.012666403355777
 30
0.0
 10
18.54546488694735
 20
3.028100577577812
 30
0.0
  0
SPLINE
  5
102
330
1F
100
AcDbEntity
  8
0
  6
Continuous
 62
     1
370
    15
100
AcDbSpline
210
0.0
220
0.0
230
1.0
 70
     8
 71
     3
 72
    10
 73
     6
 74
     0
 42
0.000000001
 43
0.00000001
 40
0.0
 40
0.0
 40
0.0
 40
0.0
 40
0.5
 40
0.5
 40
1.0
 40
1.0
 40
1.0
 40
1.0
 10
19.34335611623283
 20
2.786828126349495
 30
0.0
 10
19.26179515620114
 20
2.743729879882432
 30
0.0
 10
19.16449246397933
 20
2.736300588497893
 30
0.0
 10
18.97516243849794
 20
2.777454914178102
 30
0.0
 10
18.88490263716974
 20
2.824789759795823
 30
0.0
 10
18.80927397601761
 20
2.895355245424325
 30
0.0
  0
SPLINE
  5
103
330
1F
100
AcDbEntity
  8
0
  6
Continuous
 62
     1
370
    15
100
AcDbSpline
210
0.0
220
0.0
230
1.0
 70
     8
 71
     3
 72
    10
 73
     6
 74
     0
 42
0.000000001
 43
0.00000001
 40
0.0
 40
0.0
 40
0.0
 40
0.0
 40
0.5
 40
0.5
 40
1.0
 40
1.0
 40
1.0
 40
1.0
 10
19.87451156711301
 20
2.655469588678467
 30
0.0
 10
19.7980703624662
 20
2.730441331520184
 30
0.0
 10
19.70721973032499
 20
2.782633905519423
 30
0.0
 10
19.52144828560011
 20
2.832286751971827
 30
0.0
 10
19.42521610438864
 20
2.830084384539179
 30
0.0
 10
19.34335611623283
 20
2.786828126349492
 30
0.0
  0
SPLINE
  5
104
330
1F
100
AcDbEntity
  8
0
  6
Continuous
 62
     1
370
    15
100
AcDbSpline
210
0.0
220
0.0
230
1.0
 70
     8
 71
     3
 72
    10
 73
     6
 74
     0
 42
0.000000001
 43
0.00000001
 40
0.0
 40
0.0
 40
0.0
 40
0.0
 40
0.5
 40
0.5
 40
1.0
 40
1.0
 40
1.0
 40
1.0
 10
20.40868823837524
 20
2.499679596821915
 30
0.0
 10
20.32769312054932
 20
2.46769785076035
 30
0.0
 10
20.23069554471934
 20
2.469910385248063
 30
0.0
 10
20.04125927270458
 20
2.527071639434963
 30
0.0
 10
19.95064697907041
 20
2.580797760143167
 30
0.0
 10
19.87451156711301
 20
2.655469588678467
 30
0.0
  0
SPLINE
  5
105
330
1F
100
AcDbEntity
  8
0
  6
Continuous
 62
     1
370
    15
100
AcDbSpline
210
0.0
220
0.0
230
1.0
 70
     8
 71
     3
 72
     8
 73
     4
 74
     0
 42
0.000000001
 43
0.00000001
 40
0.0
 40
0.0
 40
0.0
 40
0.0
 40
1.0
 40
1.0
 40
1.0
 40
1.0
 10
20.6697192817384
 20
2.493478423895868
 30
0.0
 10
20.57898127301441
 20
2.523917218374026
 30
0.0
 10
20.48695998936016
 20
2.530585993787397
 30
0.0
 10
20.40868823837524
 20
2.499679596821917
 30
0.0
  0
SPLINE
  5
106
330
1F
100
AcDbEntity
  8
0
  6
Continuous
 62
     1
370
    15
100
AcDbSpline
210
0.0
220
0.0
230
1.0
 70
     8
 71
     3
 72
     8
 73
     4
 74
     0
 42
0.000000001
 43
0.00000001
 40
0.0
 40
0.0
 40
0.0
 40
0.0
 40
1.0
 40
1.0
 40
1.0
 40
1.0
 10
20.93351307453154
 20
2.321682188244986
 30
0.0
 10
20.85691080664933
 20
2.39978630262876
 30
0.0
 10
20.76455502077319
 20
2.459465165658053
 30
0.0
 10
20.66971928174007
 20
2.493478423895283
 30
0.0
  0
SPLINE
  5
107
330
1F
100
AcDbEntity
  8
0
  6
Continuous
 62
     1
370
    15
100
AcDbSpline
210
0.0
220
0.0
230
1.0
 70
     8
 71
     3
 72
    10
 73
     6
 74
     0
 42
0.000000001
 43
0.00000001
 40
0.0
 40
0.0
 40
0.0
 40
0.0
 40
0.5
 40
0.5
 40
1.0
 40
1.0
 40
1.0
 40
1.0
 10
21.4665838871209
 20
2.117652855453332
 30
0.0
 10
21.38530439957116
 20
2.099187719078239
 30
0.0
 10
21.28825485237
 20
2.111957135670126
 30
0.0
 10
21.0992259828162
 20
2.185397808746665
 30
0.0
 10
21.00901740385479
 20
2.244697538351836
 30
0.0
 10
20.93351307453154
 20
2.321682188244987
 30
0.0
  0
SPLINE
  5
108
330
1F
100
AcDbEntity
  8
0
  6
Continuous
 62
     1
370
    15
100
AcDbSpline
210
0.0
220
0.0
230
1.0
 70
     8
 71
     3
 72
    10
 73
     6
 74
     0
 42
0.000000001
 43
0.00000001
 40
0.0
 40
0.0
 40
0.0
 40
0.0
 40
0.5
 40
0.5
 40
1.0
 40
1.0
 40
1.0
 40
1.0
 10
21.99673236283056
 20
1.89575168373627
 30
0.0
 10
21.92040626891994
 20
1.971920198700223
 30
0.0
 10
21.82975207647513
 20
2.033934679654947
 30
0.0
 10
21.6444344471127
 20
2.115890122106354
 30
0.0
 10
21.54833875594574
 20
2.136225989311432
 30
0.0
 10
21.46658388712089
 20
2.117652855453336
 30
0.0
  0
SPLINE
  5
109
330
1F
100
AcDbEntity
  8
0
  6
Continuous
 62
     1
370
    15
100
AcDbSpline
210
0.0
220
0.0
230
1.0
 70
     8
 71
     3
 72
    10
 73
     6
 74
     0
 42
0.000000001
 43
0.00000001
 40
0.0
 40
0.0
 40
0.0
 40
0.0
 40
0.5
 40
0.5
 40
1.0
 40
1.0
 40
1.0
 40
1.0
 10
22.53037283296633
 20
1.657042064528877
 30
0.0
 10
22.44944873588435
 20
1.651428029273928
 30
0.0
 10
22.35242534527181
 20
1.673249429701753
 30
0.0
 10
22.16310600685543
 20
1.758223017340537
 30
0.0
 10
22.07266795440088
 20
1.819972864901461
 30
0.0
 10
21.99673236283056
 20
1.895751683736267
 30
0.0
  0
SPLINE
  5
10A
330
1F
100
AcDbEntity
  8
0
  6
Continuous
 62
     1
370
    15
100
AcDbSpline
210
0.0
220
0.0
230
1.0
 70
     8
 71
     3
 72
     8
 73
     4
 74
     0
 42
0.000000001
 43
0.00000001
 40
0.0
 40
0.0
 40
0.0
 40
0.0
 40
1.0
 40
1.0
 40
1.0
 40
1.0
 10
22.79141046967759
 20
1.590993242782462
 30
0.0
 10
22.700715503778
 20
1.634944301260514
 30
0.0
 10
22.6086532340499
 20
1.66247269579078
 30
0.0
 10
22.53037283296632
 20
1.657042064528876
 30
0.0
  0
SPLINE
  5
10B
330
1F
100
AcDbEntity
  8
0
  6
Continuous
 62
     1
370
    15
100
AcDbSpline
210
0.0
220
0.0
230
1.0
 70
     8
 71
     3
 72
     8
 73
     4
 74
     0
 42
0.000000001
 43
0.00000001
 40
0.0
 40
0.0
 40
0.0
 40
0.0
 40
1.0
 40
1.0
 40
1.0
 40
1.0
 10
23.05552841722462
 20
1.404893109190166
 30
0.0
 10
22.97883260698938
 20
1.478373561612163
 30
0.0
 10
22.88641144419624
 20
1.543386295344189
 30
0.0
 10
22.79141046967926
 20
1.590993242781634
 30
0.0
  0
SPLINE
  5
10C
330
1F
100
AcDbEntity
  8
0
  6
Continuous
 62
     1
370
    15
100
AcDbSpline
210
0.0
220
0.0
230
1.0
 70
     8
 71
     3
 72
    10
 73
     6
 74
     0
 42
0.000000001
 43
0.00000001
 40
0.0
 40
0.0
 40
0.0
 40
0.0
 40
0.5
 40
0.5
 40
1.0
 40
1.0
 40
1.0
 40
1.0
 10
23.58988248198339
 20
1.132905753762486
 30
0.0
 10
23.50828017469454
 20
1.141829458894682
 30
0.0
 10
23.41093539333111
 20
1.173358484492552
 30
0.0
 10
23.22155373955263
 20
1.269285881493706
 30
0.0
 10
23.13124611823303
 20
1.332349760219913
 30
0.0
 10
23.05552841722462
 20
1.40489310919017
 30
0.0
  0
SPLINE
  5
10D
330
1F
100
AcDbEntity
  8
0
  6
Continuous
 62
     1
370
    15
100
AcDbSpline
210
0.0
220
0.0
230
1.0
 70
     8
 71
     3
 72
    10
 73
     6
 74
     0
 42
0.000000001
 43
0.00000001
 40
0.0
 40
0.0
 40
0.0
 40
0.0
 40
0.5
 40
0.5
 40
1.0
 40
1.0
 40
1.0
 40
1.0
 10
24.1208273723072
 20
0.8546166692373068
 30
0.0
 10
24.0444290429985
 20
0.9206490350051382
 30
0.0
 10
23.95360162821316
 20
0.9830409962635279
 30
0.0
 10
23.76788995163819
 20
1.084340440530418
 30
0.0
 10
23.67170570164506
 20
1.123957890528142
 30
0.0
 10
23.58988248198339
 20
1.132905753762486
 30
0.0
  0
SPLINE
  5
10E
330
1F
100
AcDbEntity
  8
0
  6
Continuous
 62
     1
370
    15
100
AcDbSpline
210
0.0
220
0.0
230
1.0
 70
     8
 71
     3
 72
    10
 73
     6
 74
     0
 42
0.000000001
 43
0.00000001
 40
0.0
 40
0.0
 40
0.0
 40
0.0
 40
0.5
 40
0.5
 40
1.0
 40
1.0
 40
1.0
 40
1.0
 10
24.65429882254756
 20
0.5666493488159419
 30
0.0
 10
24.57346573750275
 20
0.5887592601172814
 30
0.0
 10
24.47655842790508
 20
0.6275623037601976
 30
0.0
 10
24.28733479963301
 20
0.7282383243863603
 30
0.0
 10
24.19684074504718
 20
0.7889170279306013
 30
0.0
 10
24.1208273723072
 20
0.8546166692373064
 30
0.0
  0
SPLINE
  5
10F
330
1F
100
AcDbEntity
  8
0
  6
Continuous
 62
     1
370
    15
100
AcDbSpline
210
0.0
220
0.0
230
1.0
 70
     8
 71
     3
 72
     8
 73
     4
 74
     0
 42
0.000000001
 43
0.00000001
 40
0.0
 40
0.0
 40
0.0
 40
0.0
 40
1.0
 40
1.0
 40
1.0
 40
1.0
 10
24.91490395134854
 20
0.4495692948966035
 30
0.0
 10
24.82429778073995
 20
0.5006642499338694
 30
0.0
 10
24.73242912755704
 20
0.545278716818552
 30
0.0
 10
24.65429882254756
 20
0.5666493488159392
 30
0.0
  0
SPLINE
  5
110
330
1F
100
AcDbEntity
  8
0
  6
Continuous
 62
     1
370
    15
100
AcDbSpline
210
0.0
220
0.0
230
1.0
 70
     8
 71
     3
 72
     8
 73
     4
 74
     0
 42
0.000000001
 43
0.00000001
 40
0.0
 40
0.0
 40
0.0
 40
0.0
 40
1.0
 40
1.0
 40
1.0
 40
1.0
 10
25.17824637818324
 20
0.2775318292284349
 30
0.0
 10
25.10177957439506
 20
0.3350975718970017
 30
0.0
 10
25.00958745790696
 20
0.3954721618207359
 30
0.0
 10
24.91490395135021
 20
0.4495692948956505
 30
0.0
  0
SPLINE
  5
111
330
1F
100
AcDbEntity
  8
0
  6
Continuous
 62
     1
370
    15
100
AcDbSpline
210
0.0
220
0.0
230
1.0
 70
     8
 71
     3
 72
    10
 73
     6
 74
     0
 42
0.000000001
 43
0.00000001
 40
0.0
 40
0.0
 40
0.0
 40
0.0
 40
0.5
 40
0.5
 40
1.0
 40
1.0
 40
1.0
 40
1.0
 10
25.71162229307062
 20
-0.0189659562276812
 30
0.0
 10
25.6302574659347
 20
0.0158801644055204
 30
0.0
 10
25.53315506703051
 20
0.06097823496575
 30
0.0
 10
25.34403950759285
 20
0.1638972078609437
 30
0.0
 10
25.25375752767448
 20
0.2206855222706793
 30
0.0
 10
25.17824637818322
 20
0.2775318292284379
 30
0.0
  0
SPLINE
  5
112
330
1F
100
AcDbEntity
  8
0
  6
Continuous
 62
     1
370
    15
100
AcDbSpline
210
0.0
220
0.0
230
1.0
 70
     8
 71
     3
 72
    10
 73
     6
 74
     0
 42
0.000000001
 43
0.00000001
 40
0.0
 40
0.0
 40
0.0
 40
0.0
 40
0.5
 40
0.5
 40
1.0
 40
1.0
 40
1.0
 40
1.0
 10
26.24269611787898
 20
-0.3150515591436205
 30
0.0
 10
26.16623215404967
 20
-0.2685846424933248
 30
0.0
 10
26.07548796455045
 20
-0.2143693830045974
 30
0.0
 10
25.88981656046268
 20
-0.1074798013652504
 30
0.0
 10
25.7935486666921
 20
-0.0540525704164538
 30
0.0
 10
25.71162229307062
 20
-0.0189659562276783
 30
0.0
  0
SPLINE
  5
113
330
1F
100
AcDbEntity
  8
0
  6
Continuous
 62
     1
370
    15
100
AcDbSpline
210
0.0
220
0.0
230
1.0
 70
     8
 71
     3
 72
    10
 73
     6
 74
     0
 42
0.000000001
 43
0.00000001
 40
0.0
 40
0.0
 40
0.0
 40
0.0
 40
0.5000000000000001
 40
0.5000000000000001
 40
1.0
 40
1.0
 40
1.0
 40
1.0
 10
26.77683814449478
 20
-0.6090259679112286
 30
0.0
 10
26.69582557829298
 20
-0.5630204439005445
 30
0.0
 10
26.59870344706868
 20
-0.5133842585344486
 30
0.0
 10
26.40922476132024
 20
-0.4120389624324312
 30
0.0
 10
26.31872717197227
 20
-0.3612553978731051
 30
0.0
 10
26.24269611787898
 20
-0.3150515591436157
 30
0.0
  0
SPLINE
  5
114
330
1F
100
AcDbEntity
  8
0
  6
Continuous
 62
     1
370
    15
100
AcDbSpline
210
0.0
220
0.0
230
1.0
 70
     8
 71
     3
 72
     8
 73
     4
 74
     0
 42
0.000000001
 43
0.00000001
 40
0.0
 40
0.0
 40
0.0
 40
0.0
 40
1.0
 40
1.0
 40
1.0
 40
1.0
 10
27.03793600701108
 20
-0.7589330608314215
 30
0.0
 10
26.94721507815298
 20
-0.7083130124916774
 30
0.0
 10
26.85513699544586
 20
-0.6534904236904154
 30
0.0
 10
26.77683814449478
 20
-0.6090259679112283
 30
0.0
  0
SPLINE
  5
115
330
1F
100
AcDbEntity
  8
0
  6
Continuous
 62
     1
370
    15
100
AcDbSpline
210
0.0
220
0.0
230
1.0
 70
     8
 71
     3
 72
     8
 73
     4
 74
     0
 42
0.000000001
 43
0.00000001
 40
0.0
 40
0.0
 40
0.0
 40
0.0
 40
1.0
 40
1.0
 40
1.0
 40
1.0
 10
27.30199458805031
 20
-0.892663925628482
 30
0.0
 10
27.22532488852694
 20
-0.858929575411585
 30
0.0
 10
27.13291344296051
 20
-0.8116636729517843
 30
0.0
 10
27.03793600701275
 20
-0.7589330608323468
 30
0.0
  0
SPLINE
  5
116
330
1F
100
AcDbEntity
  8
0
  6
Continuous
 62
     1
370
    15
100
AcDbSpline
210
0.0
220
0.0
230
1.0
 70
     8
 71
     3
 72
    10
 73
     6
 74
     0
 42
0.000000001
 43
0.00000001
 40
0.0
 40
0.0
 40
0.0
 40
0.0
 40
0.5
 40
0.5
 40
1.0
 40
1.0
 40
1.0
 40
1.0
 10
27.83591897920885
 20
-1.173592494207745
 30
0.0
 10
27.75440358831594
 20
-1.117718098673351
 30
0.0
 10
27.65714824869359
 20
-1.065151643464801
 30
0.0
 10
27.46795406867535
 20
-0.9688744806116558
 30
0.0
 10
27.37766736224181
 20
-0.925959632828715
 30
0.0
 10
27.30199458805031
 20
-0.8926639256284833
 30
0.0
  0
SPLINE
  5
117
330
1F
100
AcDbEntity
  8
0
  6
Continuous
 62
     1
370
    15
100
AcDbSpline
210
0.0
220
0.0
230
1.0
 70
     8
 71
     3
 72
    10
 73
     6
 74
     0
 42
0.000000001
 43
0.00000001
 40
0.0
 40
0.0
 40
0.0
 40
0.0
 40
0.5
 40
0.5
 40
1.0
 40
1.0
 40
1.0
 40
1.0
 10
28.87766847366958
 20
-1.681125899395365
 30
0.0
 10
28.79804392660825
 20
-1.622241134714739
 30
0.0
 10
28.70484168179946
 20
-1.572057701732996
 30
0.0
 10
28.52427481048283
 20
-1.490418486001687
 30
0.0
 10
28.43857963805867
 20
-1.459251462301775
 30
0.0
 10
28.36598264749647
 20
-1.440637963296479
 30
0.0
  0
SPLINE
  5
118
330
1F
100
AcDbEntity
  8
0
  6
Continuous
 62
     1
370
    15
100
AcDbSpline
210
0.0
220
0.0
230
1.0
 70
     8
 71
     3
 72
     8
 73
     4
 74
     0
 42
0.000000001
 43
0.00000001
 40
0.0000000000000002
 40
0.0000000000000002
 40
0.0000000000000002
 40
0.0000000000000002
 40
0.0001348131447517
 40
0.0001348131447517
 40
0.0001348131447517
 40
0.0001348131447517
 10
28.96215701540223
 20
-1.686308216219696
 30
0.0
 10
28.93407400095075
 20
-1.684724305963834
 30
0.0
 10
28.9059084628274
 20
-1.682995747704629
 30
0.0
 10
28.87766847367154
 20
-1.681125899397069
 30
0.0
  0
SPLINE
  5
119
330
1F
100
AcDbEntity
  8
0
  6
Continuous
 62
     1
370
    15
100
AcDbSpline
210
0.0
220
0.0
230
1.0
 70
     8
 71
     3
 72
    10
 73
     6
 74
     0
 42
0.000000001
 43
0.00000001
 40
0.0
 40
0.0
 40
0.0
 40
0.0
 40
0.5
 40
0.5
 40
1.0
 40
1.0
 40
1.0
 40
1.0
 10
18.41386561744818
 20
-2.489504668328516
 30
0.0
 10
18.49029987555365
 20
-2.504640591588811
 30
0.0
 10
18.58112687913735
 20
-2.493685758297459
 30
0.0
 10
18.76673203978349
 20
-2.428377880384114
 30
0.0
 10
18.86278688024386
 20
-2.373523876859986
 30
0.0
 10
18.94456616420455
 20
-2.303368630484639
 30
0.0
  0
SPLINE
  5
11A
330
1F
100
AcDbEntity
  8
0
  6
Continuous
 62
     1
370
    15
100
AcDbSpline
210
0.0
220
0.0
230
1.0
 70
     8
 71
     3
 72
    10
 73
     6
 74
     0
 42
0.000000001
 43
0.00000001
 40
0.0
 40
0.0
 40
0.0
 40
0.0
 40
0.5
 40
0.5
 40
1.0
 40
1.0
 40
1.0
 40
1.0
 10
17.87990576629671
 20
-2.654607484644524
 30
0.0
 10
17.96085406319871
 20
-2.582770037081391
 30
0.0
 10
18.05790152428834
 20
-2.535090827025801
 30
0.0
 10
18.24731317241359
 20
-2.481022627637341
 30
0.0
 10
18.33784033567134
 20
-2.474449732762099
 30
0.0
 10
18.41386561744785
 20
-2.489504668328277
 30
0.0
  0
SPLINE
  5
11B
330
1F
100
AcDbEntity
  8
0
  6
Continuous
 62
     1
370
    15
100
AcDbSpline
210
0.0
220
0.0
230
1.0
 70
     8
 71
     3
 72
     8
 73
     4
 74
     0
 42
0.000000001
 43
0.00000001
 40
0.0
 40
0.0
 40
0.0
 40
0.0
 40
1.0
 40
1.0
 40
1.0
 40
1.0
 10
17.61875663371972
 20
-2.798878483831791
 30
0.0
 10
17.70945570761301
 20
-2.773269281106357
 30
0.0
 10
17.80155989324772
 20
-2.72413541496966
 30
0.0
 10
17.87990576629669
 20
-2.654607484644504
 30
0.0
  0
SPLINE
  5
11C
330
1F
100
AcDbEntity
  8
0
  6
Continuous
 62
     1
370
    15
100
AcDbSpline
210
0.0
220
0.0
230
1.0
 70
     8
 71
     3
 72
     8
 73
     4
 74
     0
 42
0.000000001
 43
0.00000001
 40
0.0
 40
0.0
 40
0.0
 40
0.0
 40
1.0
 40
1.0
 40
1.0
 40
1.0
 10
17.35455517796849
 20
-2.791922239616373
 30
0.0
 10
17.43132222077023
 20
-2.822094900842274
 30
0.0
 10
17.52372694904879
 20
-2.823654482687954
 30
0.0
 10
17.61875663371804
 20
-2.798878483832247
 30
0.0
  0
SPLINE
  5
11D
330
1F
100
AcDbEntity
  8
0
  6
Continuous
 62
     1
370
    15
100
AcDbSpline
210
0.0
220
0.0
230
1.0
 70
     8
 71
     3
 72
    10
 73
     6
 74
     0
 42
0.000000001
 43
0.00000001
 40
0.0
 40
0.0
 40
0.0
 40
0.0
 40
0.5
 40
0.5
 40
1.0
 40
1.0
 40
1.0
 40
1.0
 10
16.82044888192527
 20
-2.903227076320381
 30
0.0
 10
16.90197483075827
 20
-2.832802608222581
 30
0.0
 10
16.9992673871217
 20
-2.791283476821881
 30
0.0
 10
17.18862826341795
 20
-2.75621904441521
 30
0.0
 10
17.278930179391
 20
-2.762198449575626
 30
0.0
 10
17.3545551779685
 20
-2.791922239616373
 30
0.0
  0
SPLINE
  5
11E
330
1F
100
AcDbEntity
  8
0
  6
Continuous
 62
     1
370
    15
100
AcDbSpline
210
0.0
220
0.0
230
1.0
 70
     8
 71
     3
 72
    10
 73
     6
 74
     0
 42
0.000000001
 43
0.00000001
 40
0.0
 40
0.0
 40
0.0
 40
0.0
 40
0.5
 40
0.5
 40
1.0
 40
1.0
 40
1.0
 40
1.0
 10
16.28989079542279
 20
-2.988642794002537
 30
0.0
 10
16.36618680610274
 20
-3.031082152725893
 30
0.0
 10
16.45691997271582
 20
-3.044466342881512
 30
0.0
 10
16.6425066524474
 20
-3.015975038984865
 30
0.0
 10
16.73866327122067
 20
-2.973875847838818
 30
0.0
 10
16.8204488819254
 20
-2.903227076320274
 30
0.0
  0
SPLINE
  5
11F
330
1F
100
AcDbEntity
  8
0
  6
Continuous
 62
     1
370
    15
100
AcDbSpline
210
0.0
220
0.0
230
1.0
 70
     8
 71
     3
 72
    10
 73
     6
 74
     0
 42
0.000000001
 43
0.00000001
 40
0.0
 40
0.0
 40
0.0
 40
0.0
 40
0.5
 40
0.5
 40
1.0
 40
1.0
 40
1.0
 40
1.0
 10
15.75693819733913
 20
-3.04914200600706
 30
0.0
 10
15.83776984974632
 20
-2.981646497380497
 30
0.0
 10
15.93464371804902
 20
-2.946469936792989
 30
0.0
 10
16.12361736164195
 20
-2.929181656446478
 30
0.0
 10
16.21397240941943
 20
-2.946413487534136
 30
0.0
 10
16.28989079542355
 20
-2.988642794002869
 30
0.0
  0
SPLINE
  5
120
330
1F
100
AcDbEntity
  8
0
  6
Continuous
 62
     1
370
    15
100
AcDbSpline
210
0.0
220
0.0
230
1.0
 70
     8
 71
     3
 72
     8
 73
     4
 74
     0
 42
0.000000001
 43
0.00000001
 40
0.0
 40
0.0
 40
0.0
 40
0.0
 40
1.0
 40
1.0
 40
1.0
 40
1.0
 10
15.4963229680831
 20
-3.155347562150656
 30
0.0
 10
15.58692701088128
 20
-3.148695901218435
 30
0.0
 10
15.67882473067391
 20
-3.114367793259227
 30
0.0
 10
15.75693819733924
 20
-3.049142006006967
 30
0.0
  0
SPLINE
  5
121
330
1F
100
AcDbEntity
  8
0
  6
Continuous
 62
     1
370
    15
100
AcDbSpline
210
0.0
220
0.0
230
1.0
 70
     8
 71
     3
 72
     8
 73
     4
 74
     0
 42
0.000000001
 43
0.00000001
 40
0.0
 40
0.0
 40
0.0
 40
0.0
 40
1.0
 40
1.0
 40
1.0
 40
1.0
 10
15.23265803898529
 20
-3.078591905630484
 30
0.0
 10
15.30921964344039
 20
-3.133736357940334
 30
0.0
 10
15.40151132084705
 20
-3.159845968659417
 30
0.0
 10
15.49632296808144
 20
-3.155347562150766
 30
0.0
  0
SPLINE
  5
122
330
1F
100
AcDbEntity
  8
0
  6
Continuous
 62
     1
370
    15
100
AcDbSpline
210
0.0
220
0.0
230
1.0
 70
     8
 71
     3
 72
    10
 73
     6
 74
     0
 42
0.000000001
 43
0.00000001
 40
0.0
 40
0.0
 40
0.0
 40
0.0
 40
0.5
 40
0.5
 40
1.0
 40
1.0
 40
1.0
 40
1.0
 10
14.69875664709211
 20
-3.077818321624051
 30
0.0
 10
14.78019498476089
 20
-3.017149414179916
 30
0.0
 10
14.87735828452142
 20
-2.991111529957473
 30
0.0
 10
15.06661483364627
 20
-2.995031989887019
 30
0.0
 10
15.15701791880966
 20
-3.024111163887638
 30
0.0
 10
15.23265803898529
 20
-3.078591905630485
 30
0.0
  0
SPLINE
  5
123
330
1F
100
AcDbEntity
  8
0
  6
Continuous
 62
     1
370
    15
100
AcDbSpline
210
0.0
220
0.0
230
1.0
 70
     8
 71
     3
 72
    10
 73
     6
 74
     0
 42
0.000000001
 43
0.00000001
 40
0.0
 40
0.0
 40
0.0
 40
0.0
 40
0.5
 40
0.5
 40
1.0
 40
1.0
 40
1.0
 40
1.0
 10
14.16746362422488
 20
-3.050586537934784
 30
0.0
 10
14.24399765776309
 20
-3.114187822312775
 30
0.0
 10
14.33492306658961
 20
-3.149891198743867
 30
0.0
 10
14.52069262752851
 20
-3.162152372232311
 30
0.0
 10
14.61683331123887
 20
-3.138848536909201
 30
0.0
 10
14.69875664709212
 20
-3.077818321623989
 30
0.0
  0
SPLINE
  5
124
330
1F
100
AcDbEntity
  8
0
  6
Continuous
 62
     1
370
    15
100
AcDbSpline
210
0.0
220
0.0
230
1.0
 70
     8
 71
     3
 72
    10
 73
     6
 74
     0
 42
0.000000001
 43
0.00000001
 40
0.0
 40
0.0
 40
0.0
 40
0.0
 40
0.5
 40
0.5
 40
1.0
 40
1.0
 40
1.0
 40
1.0
 10
13.63339328488963
 20
-2.99720317706318
 30
0.0
 10
13.71435903499327
 20
-2.943996350868543
 30
0.0
 10
13.81143758600056
 20
-2.926544349525934
 30
0.0
 10
14.00089154737175
 20
-2.948794159777599
 30
0.0
 10
14.09141415097503
 20
-2.987387932668896
 30
0.0
 10
14.16746362422466
 20
-3.050586537934531
 30
0.0
  0
SPLINE
  5
125
330
1F
100
AcDbEntity
  8
0
  6
Continuous
 62
     1
370
    15
100
AcDbSpline
210
0.0
220
0.0
230
1.0
 70
     8
 71
     3
 72
     8
 73
     4
 74
     0
 42
0.000000001
 43
0.00000001
 40
0.0
 40
0.0
 40
0.0
 40
0.0
 40
1.0
 40
1.0
 40
1.0
 40
1.0
 10
13.3723592854574
 20
-3.049893519810275
 30
0.0
 10
13.46303209914256
 20
-3.063096646667868
 30
0.0
 10
13.55509348315187
 20
-3.04865806924663
 30
0.0
 10
13.63339328488964
 20
-2.997203177063167
 30
0.0
  0
SPLINE
  5
126
330
1F
100
AcDbEntity
  8
0
  6
Continuous
 62
     1
370
    15
100
AcDbSpline
210
0.0
220
0.0
230
1.0
 70
     8
 71
     3
 72
     8
 73
     4
 74
     0
 42
0.000000001
 43
0.00000001
 40
0.0
 40
0.0
 40
0.0
 40
0.0
 40
1.0
 40
1.0
 40
1.0
 40
1.0
 10
13.10841772767733
 20
-2.914883303493589
 30
0.0
 10
13.18504979524756
 20
-2.986941871984454
 30
0.0
 10
13.27740115685565
 20
-3.033559999622449
 30
0.0
 10
13.37235928545573
 20
-3.04989351981002
 30
0.0
  0
SPLINE
  5
127
330
1F
100
AcDbEntity
  8
0
  6
Continuous
 62
     1
370
    15
100
AcDbSpline
210
0.0
220
0.0
230
1.0
 70
     8
 71
     3
 72
    10
 73
     6
 74
     0
 42
0.000000001
 43
0.00000001
 40
0.0
 40
0.0
 40
0.0
 40
0.0
 40
0.5000000000000009
 40
0.5000000000000009
 40
1.0
 40
1.0
 40
1.0
 40
1.0
 10
12.57508950649781
 20
-2.802026094022871
 30
0.0
 10
12.65648603818788
 20
-2.759833394598676
 30
0.0
 10
12.75365908958892
 20
-2.753206659841521
 30
0.0
 10
12.94278160126981
 20
-2.795880290803214
 30
0.0
 10
13.03292944499832
 20
-2.843900257359144
 30
0.0
 10
13.10841772767725
 20
-2.914883303493101
 30
0.0
  0
SPLINE
  5
128
330
1F
100
AcDbEntity
  8
0
  6
Continuous
 62
     1
370
    15
100
AcDbSpline
210
0.0
220
0.0
230
1.0
 70
     8
 71
     3
 72
    10
 73
     6
 74
     0
 42
0.000000001
 43
0.00000001
 40
0.0
 40
0.0
 40
0.0
 40
0.0
 40
0.5
 40
0.5
 40
1.0
 40
1.0
 40
1.0
 40
1.0
 10
12.04523551114388
 20
-2.666655564689454
 30
0.0
 10
12.12144627533919
 20
-2.741815266309354
 30
0.0
 10
12.21206022009273
 20
-2.794571921845718
 30
0.0
 10
12.39740887820907
 20
-2.84568812793911
 30
0.0
 10
12.49344711031494
 20
-2.844346239744956
 30
0.0
 10
12.57508950649777
 20
-2.80202609402266
 30
0.0
  0
SPLINE
  5
129
330
1F
100
AcDbEntity
  8
0
  6
Continuous
 62
     1
370
    15
100
AcDbSpline
210
0.0
220
0.0
230
1.0
 70
     8
 71
     3
 72
    10
 73
     6
 74
     0
 42
0.000000001
 43
0.00000001
 40
0.0
 40
0.0
 40
0.0
 40
0.0
 40
0.5
 40
0.5
 40
1.0
 40
1.0
 40
1.0
 40
1.0
 10
11.51157705188679
 20
-2.506791945106662
 30
0.0
 10
11.59252579230575
 20
-2.475822162690724
 30
0.0
 10
11.68945165711564
 20
-2.478889834010606
 30
0.0
 10
11.87869717820961
 20
-2.537457486803224
 30
0.0
 10
11.96921687729793
 20
-2.591685343648459
 30
0.0
 10
12.04523551114351
 20
-2.666655564689194
 30
0.0
  0
SPLINE
  5
12A
330
1F
100
AcDbEntity
  8
0
  6
Continuous
 62
     1
370
    15
100
AcDbSpline
210
0.0
220
0.0
230
1.0
 70
     8
 71
     3
 72
     8
 73
     4
 74
     0
 42
0.000000001
 43
0.00000001
 40
0.0
 40
0.0
 40
0.0
 40
0.0
 40
1.0
 40
1.0
 40
1.0
 40
1.0
 10
11.25053567875255
 20
-2.498080747031264
 30
0.0
 10
11.34127509823709
 20
-2.529167510013175
 30
0.0
 10
11.43331057173156
 20
-2.536735534695841
 30
0.0
 10
11.51157705188679
 20
-2.506791945106633
 30
0.0
  0
SPLINE
  5
12B
330
1F
100
AcDbEntity
  8
0
  6
Continuous
 62
     1
370
    15
100
AcDbSpline
210
0.0
220
0.0
230
1.0
 70
     8
 71
     3
 72
     8
 73
     4
 74
     0
 42
0.000000001
 43
0.00000001
 40
0.0
 40
0.0
 40
0.0
 40
0.0
 40
1.0
 40
1.0
 40
1.0
 40
1.0
 10
10.98648785250149
 20
-2.325127627199793
 30
0.0
 10
11.06318568408658
 20
-2.403270485368262
 30
0.0
 10
11.15561147617039
 20
-2.463379989926782
 30
0.0
 10
11.25053567875093
 20
-2.498080747030689
 30
0.0
  0
SPLINE
  5
12C
330
1F
100
AcDbEntity
  8
0
  6
Continuous
 62
     1
370
    15
100
AcDbSpline
210
0.0
220
0.0
230
1.0
 70
     8
 71
     3
 72
    10
 73
     6
 74
     0
 42
0.000000001
 43
0.00000001
 40
0.0
 40
0.0
 40
0.0
 40
0.0
 40
0.5
 40
0.5
 40
1.0
 40
1.0
 40
1.0
 40
1.0
 10
10.45226047851067
 20
-2.11702600749579
 30
0.0
 10
10.53374937290187
 20
-2.099821491251685
 30
0.0
 10
10.6309797493507
 20
-2.113569072861247
 30
0.0
 10
10.82034928101014
 20
-2.188320068073307
 30
0.0
 10
10.91078469042649
 20
-2.247998178626384
 30
0.0
 10
10.98648785250156
 20
-2.325127627199834
 30
0.0
  0
SPLINE
  5
12D
330
1F
100
AcDbEntity
  8
0
  6
Continuous
 62
     1
370
    15
100
AcDbSpline
210
0.0
220
0.0
230
1.0
 70
     8
 71
     3
 72
    10
 73
     6
 74
     0
 42
0.000000001
 43
0.00000001
 40
0.0
 40
0.0
 40
0.0
 40
0.0
 40
0.5
 40
0.5
 40
1.0
 40
1.0
 40
1.0
 40
1.0
 10
9.921070476742191
 20
-1.891475139310073
 30
0.0
 10
9.99757189529417
 20
-1.967523480937255
 30
0.0
 10
10.08847049284386
 20
-2.029737609280736
 30
0.0
 10
10.27416914479385
 20
-2.112859909903221
 30
0.0
 10
10.3703266773024
 20
-2.134324455638299
 30
0.0
 10
10.45226047851065
 20
-2.117026007495637
 30
0.0
  0
SPLINE
  5
12E
330
1F
100
AcDbEntity
  8
0
  6
Continuous
 62
     4
370
    15
100
AcDbSpline
210
0.0
220
0.0
230
1.0
 70
     8
 71
     3
 72
     8
 73
     4
 74
     0
 42
0.000000001
 43
0.00000001
 40
0.9805823051983813
 40
0.9805823051983813
 40
0.9805823051983813
 40
0.9805823051983813
 40
1.0
 40
1.0
 40
1.0
 40
1.0
 10
9.912157015402228
 20
-1.88274092019352
 30
0.0
 10
9.915149570664777
 20
-1.885631545868186
 30
0.0
 10
9.918120923916097
 20
-1.888543055103873
 30
0.0
 10
9.921070476742333
 20
-1.89147513930863
 30
0.0
  0
SPLINE
  5
12F
330
1F
100
AcDbEntity
  8
0
  6
Continuous
 62
     4
370
    15
100
AcDbSpline
210
0.0
220
0.0
230
1.0
 70
     8
 71
     3
 72
     8
 73
     4
 74
     0
 42
0.000000001
 43
0.00000001
 40
0.0
 40
0.0
 40
0.0
 40
0.0
 40
1.0
 40
1.0
 40
1.0
 40
1.0
 10
9.126949670041634
 20
-1.581698410460263
 30
0.0
 10
9.217502369360172
 20
-1.62607554312539
 30
0.0
 10
9.309418861341605
 20
-1.654364258420477
 30
0.0
 10
9.912157015402228
 20
-1.88274092019352
 30
0.0
  0
SPLINE
  5
130
330
1F
100
AcDbEntity
  8
0
  6
Continuous
 62
     4
370
    15
100
AcDbSpline
210
0.0
220
0.0
230
1.0
 70
     8
 71
     3
 72
     8
 73
     4
 74
     0
 42
0.000000001
 43
0.00000001
 40
0.0001006631636993
 40
0.0001006631636993
 40
0.0001006631636993
 40
0.0001006631636993
 40
0.0001208505773903
 40
0.0001208505773903
 40
0.0001208505773903
 40
0.0001208505773903
 10
9.128192142499813
 20
-1.594492032328901
 30
0.0
 10
9.128102838380345
 20
-1.590405843520392
 30
0.0
 10
9.128010717507241
 20
-1.586301665837993
 30
0.0
 10
9.12791572974512
 20
-1.582179648266011
 30
0.0
  0
SPLINE
  5
131
330
1F
100
AcDbEntity
  8
0
  6
Continuous
 62
     4
370
    15
100
AcDbSpline
210
0.0
220
0.0
230
1.0
 70
     8
 71
     3
 72
     8
 73
     4
 74
     0
 42
0.000000001
 43
0.00000001
 40
0.0
 40
0.0
 40
0.0
 40
0.0
 40
1.0
 40
1.0
 40
1.0
 40
1.0
 10
9.12819214249981
 20
-1.594492032328899
 30
0.0
 10
8.945893694047333
 20
-1.503156193522397
 30
0.0
 10
8.765698265205794
 20
-1.409584115772364
 30
0.0
 10
8.58380176686198
 20
-1.313590256444259
 30
0.0
  0
SPLINE
  5
133
330
1F
100
AcDbEntity
  8
0
  6
Continuous
 62
     4
370
    15
100
AcDbSpline
210
0.0
220
0.0
230
1.0
 70
     8
 71
     3
 72
     8
 73
     4
 74
     0
 42
0.000000001
 43
0.00000001
 40
0.0
 40
0.0
 40
0.0
 40
0.0
 40
1.0
 40
1.0
 40
1.0
 40
1.0
 10
9.912157015399504
 20
2.223021982394473
 30
0.0
 10
9.596309638515272
 20
2.35214754969689
 30
0.0
 10
9.277600276813015
 20
2.470495458543427
 30
0.0
 10
8.963068524631174
 20
2.575500556562746
 30
0.0
  0
SPLINE
  5
134
330
1F
100
AcDbEntity
  8
0
  6
Continuous
 62
     1
370
    15
100
AcDbSpline
210
0.0
220
0.0
230
1.0
 70
    24
 71
     3
 72
     9
 73
     5
 74
     0
 42
0.000000001
 43
0.00000001
 40
0.0
 40
0.0
 40
0.0
 40
0.0
 40
0.5
 40
1.0
 40
1.0
 40
1.0
 40
1.0
 10
9.912157015402233
 20
2.301377076020928
 30
0.0
 10
9.912157015402233
 20
2.288679431982625
 30
0.0
 10
9.912157015402233
 20
2.262927369497061
 30
0.0
 10
9.912157015402233
 20
2.236447443773102
 30
0.0
 10
9.912157015402233
 20
2.223021982393242
 30
0.0
  0
SPLINE
  5
135
330
1F
100
AcDbEntity
  8
0
  6
Continuous
 62
     1
370
    15
100
AcDbSpline
210
0.0
220
0.0
230
1.0
 70
     8
 71
     3
 72
     8
 73
     4
 74
     0
 42
0.000000001
 43
0.00000001
 40
0.0
 40
0.0
 40
0.0
 40
0.0
 40
1.0
 40
1.0
 40
1.0
 40
1.0
 10
10.76108343789364
 20
1.917640648693465
 30
0.0
 10
10.47652243622143
 20
2.054044672743712
 30
0.0
 10
10.19596564851102
 20
2.182096131678613
 30
0.0
 10
9.912157015398995
 20
2.30137707600481
 30
0.0
  0
SPLINE
  5
136
330
1F
100
AcDbEntity
  8
0
  6
Continuous
 62
     1
370
    15
100
AcDbSpline
210
0.0
220
0.0
230
1.0
 70
     8
 71
     3
 72
     8
 73
     4
 74
     0
 42
0.000000001
 43
0.00000001
 40
0.0
 40
0.0
 40
0.0
 40
0.0
 40
0.000120847296749
 40
0.000120847296749
 40
0.000120847296749
 40
0.000120847296749
 10
10.76245314707808
 20
1.835441173364321
 30
0.0
 10
10.76190080931284
 20
1.863428109130819
 30
0.0
 10
10.76144734737259
 20
1.890839649410821
 30
0.0
 10
10.76108343789342
 20
1.917640648708835
 30
0.0
  0
SPLINE
  5
137
330
1F
100
AcDbEntity
  8
0
  6
Continuous
 62
     1
370
    15
100
AcDbSpline
210
0.0
220
0.0
230
1.0
 70
     8
 71
     3
 72
     8
 73
     4
 74
     0
 42
0.000000001
 43
0.00000001
 40
0.0
 40
0.0
 40
0.0
 40
0.0
 40
1.0
 40
1.0
 40
1.0
 40
1.0
 10
11.02549804743093
 20
1.651102542891356
 30
0.0
 10
10.94885653644781
 20
1.726564341853271
 30
0.0
 10
10.85648606963699
 20
1.791009931401131
 30
0.0
 10
10.7616005621473
 20
1.835836131866021
 30
0.0
  0
SPLINE
  5
138
330
1F
100
AcDbEntity
  8
0
  6
Continuous
 62
     1
370
    15
100
AcDbSpline
210
0.0
220
0.0
230
1.0
 70
     8
 71
     3
 72
    10
 73
     6
 74
     0
 42
0.000000001
 43
0.00000001
 40
0.0
 40
0.0
 40
0.0
 40
0.0
 40
0.5
 40
0.5
 40
1.0
 40
1.0
 40
1.0
 40
1.0
 10
11.55966067142338
 20
1.392728329839855
 30
0.0
 10
11.47818166240571
 20
1.395164860408722
 30
0.0
 10
11.38097360046641
 20
1.422459069885929
 30
0.0
 10
11.19163541283074
 20
1.513803908146836
 30
0.0
 10
11.101192603439
 20
1.576573122806593
 30
0.0
 10
11.02549804743093
 20
1.651102542891354
 30
0.0
  0
SPLINE
  5
139
330
1F
100
AcDbEntity
  8
0
  6
Continuous
 62
     1
370
    15
100
AcDbSpline
210
0.0
220
0.0
230
1.0
 70
     8
 71
     3
 72
    10
 73
     6
 74
     0
 42
0.000000001
 43
0.00000001
 40
0.0
 40
0.0
 40
0.0
 40
0.0
 40
0.5
 40
0.5
 40
1.0
 40
1.0
 40
1.0
 40
1.0
 10
12.09098033427145
 20
1.123246227367147
 30
0.0
 10
12.01444758955932
 20
1.192807550733714
 30
0.0
 10
11.92351528683188
 20
1.256097828325227
 30
0.0
 10
11.73773085321849
 20
1.354441681928228
 30
0.0
 10
11.64158911264193
 20
1.390278359548085
 30
0.0
 10
11.55966067142371
 20
1.392728329839845
 30
0.0
  0
SPLINE
  5
13A
330
1F
100
AcDbEntity
  8
0
  6
Continuous
 62
     1
370
    15
100
AcDbSpline
210
0.0
220
0.0
230
1.0
 70
     8
 71
     3
 72
    10
 73
     6
 74
     0
 42
0.000000001
 43
0.00000001
 40
0.0
 40
0.0
 40
0.0
 40
0.0
 40
0.5
 40
0.5
 40
1.0
 40
1.0
 40
1.0
 40
1.0
 10
12.62485001842925
 20
0.8440803910936941
 30
0.0
 10
12.54392370668788
 20
0.8594249087500202
 30
0.0
 10
12.44687921574107
 20
0.894385356877715
 30
0.0
 10
12.25748542509368
 20
0.9924053458831779
 30
0.0
 10
12.16700003187665
 20
1.05415121728702
 30
0.0
 10
12.09098033427145
 20
1.123246227367143
 30
0.0
  0
SPLINE
  5
13B
330
1F
100
AcDbEntity
  8
0
  6
Continuous
 62
     1
370
    15
100
AcDbSpline
210
0.0
220
0.0
230
1.0
 70
     8
 71
     3
 72
     8
 73
     4
 74
     0
 42
0.000000001
 43
0.00000001
 40
0.0
 40
0.0
 40
0.0
 40
0.0
 40
1.0
 40
1.0
 40
1.0
 40
1.0
 10
12.88572320300427
 20
0.738237507393764
 30
0.0
 10
12.79510171366986
 20
0.7883178058729023
 30
0.0
 10
12.70309605966822
 20
0.829244082166554
 30
0.0
 10
12.62485001842925
 20
0.8440803910936945
 30
0.0
  0
SPLINE
  5
13C
330
1F
100
AcDbEntity
  8
0
  6
Continuous
 62
     1
370
    15
100
AcDbSpline
210
0.0
220
0.0
230
1.0
 70
     8
 71
     3
 72
     8
 73
     4
 74
     0
 42
0.000000001
 43
0.00000001
 40
0.0
 40
0.0
 40
0.0
 40
0.0
 40
1.0
 40
1.0
 40
1.0
 40
1.0
 10
13.14940900893233
 20
0.5596424461946486
 30
0.0
 10
13.07286754793349
 20
0.6222190399807369
 30
0.0
 10
12.98060150790266
 20
0.684877768224661
 30
0.0
 10
12.88572320300593
 20
0.7382375073928285
 30
0.0
  0
SPLINE
  5
13D
330
1F
100
AcDbEntity
  8
0
  6
Continuous
 62
     1
370
    15
100
AcDbSpline
210
0.0
220
0.0
230
1.0
 70
     8
 71
     3
 72
    10
 73
     6
 74
     0
 42
0.000000001
 43
0.00000001
 40
0.0
 40
0.0
 40
0.0
 40
0.0
 40
0.5
 40
0.5
 40
1.0
 40
1.0
 40
1.0
 40
1.0
 10
13.68232194746916
 20
0.2649306822996096
 30
0.0
 10
13.60097717927695
 20
0.293763514551415
 30
0.0
 10
13.50388481292613
 20
0.3360871706320579
 30
0.0
 10
13.31490592207515
 20
0.4387842229444324
 30
0.0
 10
13.22481512472694
 20
0.49799405569506
 30
0.0
 10
13.14940900893233
 20
0.5596424461946512
 30
0.0
  0
SPLINE
  5
13E
330
1F
100
AcDbEntity
  8
0
  6
Continuous
 62
     1
370
    15
100
AcDbSpline
210
0.0
220
0.0
230
1.0
 70
     8
 71
     3
 72
    10
 73
     6
 74
     0
 42
0.000000001
 43
0.00000001
 40
0.0
 40
0.0
 40
0.0
 40
0.0
 40
0.5
 40
0.5
 40
1.0
 40
1.0
 40
1.0
 40
1.0
 10
14.21270613367555
 20
-0.0293783824158625
 30
0.0
 10
14.13640063244456
 20
0.0224102359686887
 30
0.0
 10
14.04569652728397
 20
0.0790462735284575
 30
0.0
 10
13.8601781658342
 20
0.1854460024517547
 30
0.0
 10
13.7640489959101
 20
0.2359623499716039
 30
0.0
 10
13.68232194746949
 20
0.2649306822994951
 30
0.0
  0
SPLINE
  5
13F
330
1F
100
AcDbEntity
  8
0
  6
Continuous
 62
     1
370
    15
100
AcDbSpline
210
0.0
220
0.0
230
1.0
 70
     8
 71
     3
 72
    10
 73
     6
 74
     0
 42
0.000000001
 43
0.00000001
 40
0.0
 40
0.0
 40
0.0
 40
0.0
 40
0.5
 40
0.5
 40
1.0
 40
1.0
 40
1.0
 40
1.0
 10
14.74673895152735
 20
-0.3269368138510398
 30
0.0
 10
14.66572774003703
 20
-0.2860528679371104
 30
0.0
 10
14.56873182979336
 20
-0.2380493373993346
 30
0.0
 10
14.37937302992948
 20
-0.1350313160266493
 30
0.0
 10
14.28879814844269
 20
-0.0810221073284091
 30
0.0
 10
14.21270613367555
 20
-0.0293783824158651
 30
0.0
  0
SPLINE
  5
140
330
1F
100
AcDbEntity
  8
0
  6
Continuous
 62
     1
370
    15
100
AcDbSpline
210
0.0
220
0.0
230
1.0
 70
     8
 71
     3
 72
     8
 73
     4
 74
     0
 42
0.000000001
 43
0.00000001
 40
0.0
 40
0.0
 40
0.0
 40
0.0
 40
1.0
 40
1.0
 40
1.0
 40
1.0
 10
15.007870981423
 20
-0.4710850298159115
 30
0.0
 10
14.91710381622158
 20
-0.4196185197527776
 30
0.0
 10
14.8250382173272
 20
-0.3664521215371074
 30
0.0
 10
14.74673895152735
 20
-0.3269368138510408
 30
0.0
  0
SPLINE
  5
141
330
1F
100
AcDbEntity
  8
0
  6
Continuous
 62
     1
370
    15
100
AcDbSpline
210
0.0
220
0.0
230
1.0
 70
     8
 71
     3
 72
     8
 73
     4
 74
     0
 42
0.000000001
 43
0.00000001
 40
0.0
 40
0.0
 40
0.0
 40
0.0
 40
1.0
 40
1.0
 40
1.0
 40
1.0
 10
15.2719691831548
 20
-0.6159811941605141
 30
0.0
 10
15.19525693205381
 20
-0.5759833707567368
 30
0.0
 10
15.10281212275856
 20
-0.524888836057532
 30
0.0
 10
15.00787098142467
 20
-0.471085029816864
 30
0.0
  0
SPLINE
  5
142
330
1F
100
AcDbEntity
  8
0
  6
Continuous
 62
     1
370
    15
100
AcDbSpline
210
0.0
220
0.0
230
1.0
 70
     8
 71
     3
 72
    10
 73
     6
 74
     0
 42
0.000000001
 43
0.00000001
 40
0.0
 40
0.0
 40
0.0
 40
0.0
 40
0.5
 40
0.5
 40
1.0
 40
1.0
 40
1.0
 40
1.0
 10
15.80611596461036
 20
-0.9039980434746714
 30
0.0
 10
15.72464541557088
 20
-0.8524848411329062
 30
0.0
 10
15.62742842070037
 20
-0.8010701947945496
 30
0.0
 10
15.43808260149132
 20
-0.7021845170122881
 30
0.0
 10
15.34766457261887
 20
-0.6554488251687367
 30
0.0
 10
15.2719691831548
 20
-0.6159811941605152
 30
0.0
  0
SPLINE
  5
143
330
1F
100
AcDbEntity
  8
0
  6
Continuous
 62
     1
370
    15
100
AcDbSpline
210
0.0
220
0.0
230
1.0
 70
     8
 71
     3
 72
    10
 73
     6
 74
     0
 42
0.000000001
 43
0.00000001
 40
0.0
 40
0.0
 40
0.0
 40
0.0
 40
0.5
 40
0.5
 40
1.0
 40
1.0
 40
1.0
 40
1.0
 10
16.33699405233903
 20
-1.183228779741836
 30
0.0
 10
16.26055556485778
 20
-1.156685478115367
 30
0.0
 10
16.16970630346396
 20
-1.114654583935004
 30
0.0
 10
15.98409794882577
 20
-1.014516189785875
 30
0.0
 10
15.88799683098923
 20
-0.9557706863182791
 30
0.0
 10
15.80611596461068
 20
-0.9039980434748816
 30
0.0
  0
SPLINE
  5
144
330
1F
100
AcDbEntity
  8
0
  6
Continuous
 62
     1
370
    15
100
AcDbSpline
210
0.0
220
0.0
230
1.0
 70
     8
 71
     3
 72
    10
 73
     6
 74
     0
 42
0.000000001
 43
0.00000001
 40
0.0
 40
0.0
 40
0.0
 40
0.0
 40
0.5
 40
0.5
 40
1.0
 40
1.0
 40
1.0
 40
1.0
 10
16.86996052018975
 20
-1.451981052372353
 30
0.0
 10
16.78918998950753
 20
-1.392100684990437
 30
0.0
 10
16.69228776472288
 20
-1.339027794758048
 30
0.0
 10
16.50316557101942
 20
-1.247468942451533
 30
0.0
 10
16.41285344210343
 20
-1.209570989406968
 30
0.0
 10
16.33699405233903
 20
-1.183228779741837
 30
0.0
  0
SPLINE
  5
145
330
1F
100
AcDbEntity
  8
0
  6
Continuous
 62
     1
370
    15
100
AcDbSpline
210
0.0
220
0.0
230
1.0
 70
     8
 71
     3
 72
     8
 73
     4
 74
     0
 42
0.000000001
 43
0.00000001
 40
0.0
 40
0.0
 40
0.0
 40
0.0
 40
1.0
 40
1.0
 40
1.0
 40
1.0
 10
17.13045289999134
 20
-1.612453288216846
 30
0.0
 10
17.03993865450624
 20
-1.567181970349467
 30
0.0
 10
16.94805714981296
 20
-1.509879085647964
 30
0.0
 10
16.86996052018975
 20
-1.451981052372355
 30
0.0
  0
SPLINE
  5
146
330
1F
100
AcDbEntity
  8
0
  6
Continuous
 62
     1
370
    15
100
AcDbSpline
210
0.0
220
0.0
230
1.0
 70
     8
 71
     3
 72
     8
 73
     4
 74
     0
 42
0.000000001
 43
0.00000001
 40
0.0
 40
0.0
 40
0.0
 40
0.0
 40
1.0
 40
1.0
 40
1.0
 40
1.0
 10
17.39407858272594
 20
-1.703320572192735
 30
0.0
 10
17.317552122628
 20
-1.691332139142689
 30
0.0
 10
17.2253058288014
 20
-1.658913450347483
 30
0.0
 10
17.13045289999301
 20
-1.612453288217669
 30
0.0
  0
SPLINE
  5
147
330
1F
100
AcDbEntity
  8
0
  6
Continuous
 62
     1
370
    15
100
AcDbSpline
210
0.0
220
0.0
230
1.0
 70
     8
 71
     3
 72
    10
 73
     6
 74
     0
 42
0.000000001
 43
0.00000001
 40
0.0
 40
0.0
 40
0.0
 40
0.0
 40
0.5
 40
0.5
 40
1.0
 40
1.0
 40
1.0
 40
1.0
 10
17.92791513792195
 20
-1.942755806073604
 30
0.0
 10
17.84639635227349
 20
-1.876472270836782
 30
0.0
 10
17.749136745192
 20
-1.823693873495264
 30
0.0
 10
17.55987669662219
 20
-1.742926621064027
 30
0.0
 10
17.46964787700199
 20
-1.715159058174032
 30
0.0
 10
17.39407858272594
 20
-1.703320572192738
 30
0.0
  0
SPLINE
  5
148
330
1F
100
AcDbEntity
  8
0
  6
Continuous
 62
     1
370
    15
100
AcDbSpline
210
0.0
220
0.0
230
1.0
 70
     8
 71
     3
 72
    10
 73
     6
 74
     0
 42
0.000000001
 43
0.00000001
 40
0.0
 40
0.0
 40
0.0
 40
0.0
 40
0.5
 40
0.5
 40
1.0
 40
1.0
 40
1.0
 40
1.0
 10
18.45898989426485
 20
-2.162981354415875
 30
0.0
 10
18.38256202696091
 20
-2.165608884742704
 30
0.0
 10
18.2917291089002
 20
-2.144725520606156
 30
0.0
 10
18.10598548208312
 20
-2.066858491026808
 30
0.0
 10
18.00976126187297
 20
-2.009305502536137
 30
0.0
 10
17.92791513792229
 20
-1.942755806073874
 30
0.0
  0
SPLINE
  5
149
330
1F
100
AcDbEntity
  8
0
  6
Continuous
 62
     1
370
    15
100
AcDbSpline
210
0.0
220
0.0
230
1.0
 70
     8
 71
     3
 72
    10
 73
     6
 74
     0
 42
0.000000001
 43
0.00000001
 40
0.0
 40
0.0
 40
0.0
 40
0.0
 40
0.5
 40
0.5
 40
1.0
 40
1.0
 40
1.0
 40
1.0
 10
18.99324739863363
 20
-2.366843130416764
 30
0.0
 10
18.91222754572133
 20
-2.296157730693101
 30
0.0
 10
18.81521764147498
 20
-2.244961295222054
 30
0.0
 10
18.62576070618316
 20
-2.177052609968165
 30
0.0
 10
18.53513692479975
 20
-2.160363479037608
 30
0.0
 10
18.45898989426485
 20
-2.162981354415874
 30
0.0
  0
SPLINE
  5
14A
330
1F
100
AcDbEntity
  8
0
  6
Continuous
 62
     1
370
    15
100
AcDbSpline
210
0.0
220
0.0
230
1.0
 70
     8
 71
     3
 72
     8
 73
     4
 74
     0
 42
0.000000001
 43
0.00000001
 40
0.0
 40
0.0
 40
0.0
 40
0.0
 40
1.0
 40
1.0
 40
1.0
 40
1.0
 10
19.25435424917819
 20
-2.521051225570814
 30
0.0
 10
19.16359307370056
 20
-2.488525206656926
 30
0.0
 10
19.07154347303952
 20
-2.435152182053328
 30
0.0
 10
18.99324739863363
 20
-2.366843130416763
 30
0.0
  0
SPLINE
  5
14B
330
1F
100
AcDbEntity
  8
0
  6
Continuous
 62
     1
370
    15
100
AcDbSpline
210
0.0
220
0.0
230
1.0
 70
     8
 71
     3
 72
     8
 73
     4
 74
     0
 42
0.000000001
 43
0.00000001
 40
0.0
 40
0.0
 40
0.0
 40
0.0
 40
1.0
 40
1.0
 40
1.0
 40
1.0
 10
19.51828505178217
 20
-2.543775018310964
 30
0.0
 10
19.44163356221945
 20
-2.56200098131654
 30
0.0
 10
19.34923546955904
 20
-2.553266401272772
 30
0.0
 10
19.25435424917987
 20
-2.521051225571391
 30
0.0
  0
SPLINE
  5
14C
330
1F
100
AcDbEntity
  8
0
  6
Continuous
 62
     1
370
    15
100
AcDbSpline
210
0.0
220
0.0
230
1.0
 70
     8
 71
     3
 72
    10
 73
     6
 74
     0
 42
0.000000001
 43
0.00000001
 40
0.0
 40
0.0
 40
0.0
 40
0.0
 40
0.5
 40
0.5
 40
1.0
 40
1.0
 40
1.0
 40
1.0
 10
20.05173569707789
 20
-2.697983731759101
 30
0.0
 10
19.97038959953645
 20
-2.626607867367054
 30
0.0
 10
19.87327933435679
 20
-2.580228924917408
 30
0.0
 10
19.68413686970836
 20
-2.52995359744306
 30
0.0
 10
19.59385738867308
 20
-2.525805653015177
 30
0.0
 10
19.51828505178217
 20
-2.543775018310964
 30
0.0
  0
SPLINE
  5
14D
330
1F
100
AcDbEntity
  8
0
  6
Continuous
 62
     1
370
    15
100
AcDbSpline
210
0.0
220
0.0
230
1.0
 70
     8
 71
     3
 72
    10
 73
     6
 74
     0
 42
0.000000001
 43
0.00000001
 40
0.0
 40
0.0
 40
0.0
 40
0.0
 40
0.5
 40
0.5
 40
1.0
 40
1.0
 40
1.0
 40
1.0
 10
20.58170597236832
 20
-2.828548944603227
 30
0.0
 10
20.50542003823227
 20
-2.86001669850637
 30
0.0
 10
20.41476208014677
 20
-2.863118441935248
 30
0.0
 10
20.22952392661276
 20
-2.818059637336284
 30
0.0
 10
20.13347342297811
 20
-2.769703224345557
 30
0.0
 10
20.05173569707822
 20
-2.697983731759394
 30
0.0
  0
SPLINE
  5
14E
330
1F
100
AcDbEntity
  8
0
  6
Continuous
 62
     1
370
    15
100
AcDbSpline
210
0.0
220
0.0
230
1.0
 70
     8
 71
     3
 72
    10
 73
     6
 74
     0
 42
0.000000001
 43
0.00000001
 40
0.0
 40
0.0
 40
0.0
 40
0.0
 40
0.5
 40
0.5
 40
1.0
 40
1.0
 40
1.0
 40
1.0
 10
21.11503018934898
 20
-2.935059607737233
 30
0.0
 10
21.03416107954634
 20
-2.864503953141327
 30
0.0
 10
20.93719608354822
 20
-2.82330992791414
 30
0.0
 10
20.7479760977032
 20
-2.78992506698408
 30
0.0
 10
20.65758276028221
 20
-2.79724996247662
 30
0.0
 10
20.58170597236832
 20
-2.828548944603226
 30
0.0
  0
SPLINE
  5
14F
330
1F
100
AcDbEntity
  8
0
  6
Continuous
 62
     1
370
    15
100
AcDbSpline
210
0.0
220
0.0
230
1.0
 70
     8
 71
     3
 72
     8
 73
     4
 74
     0
 42
0.000000001
 43
0.00000001
 40
0.0
 40
0.0
 40
0.0
 40
0.0
 40
1.0
 40
1.0
 40
1.0
 40
1.0
 10
21.37598064705184
 20
-3.059554848380217
 30
0.0
 10
21.28531541101361
 20
-3.044634049097229
 30
0.0
 10
21.19328131485748
 20
-3.003331156621512
 30
0.0
 10
21.11503018934897
 20
-2.935059607737233
 30
0.0
  0
SPLINE
  5
150
330
1F
100
AcDbEntity
  8
0
  6
Continuous
 62
     1
370
    15
100
AcDbSpline
210
0.0
220
0.0
230
1.0
 70
     8
 71
     3
 72
     8
 73
     4
 74
     0
 42
0.000000001
 43
0.00000001
 40
0.0
 40
0.0
 40
0.0
 40
0.0
 40
1.0
 40
1.0
 40
1.0
 40
1.0
 10
21.64003631184041
 20
-3.011408277761865
 30
0.0
 10
21.56336111094268
 20
-3.056782610727087
 30
0.0
 10
21.47096369257848
 20
-3.072853027609332
 30
0.0
 10
21.3759806470535
 20
-3.059554848380463
 30
0.0
  0
SPLINE
  5
151
330
1F
100
AcDbEntity
  8
0
  6
Continuous
 62
     1
370
    15
100
AcDbSpline
210
0.0
220
0.0
230
1.0
 70
     8
 71
     3
 72
    10
 73
     6
 74
     0
 42
0.000000001
 43
0.00000001
 40
0.0
 40
0.0
 40
0.0
 40
0.0
 40
0.5
 40
0.5
 40
1.0
 40
1.0
 40
1.0
 40
1.0
 10
22.17437770982717
 20
-3.059051256924304
 30
0.0
 10
22.09277490549988
 20
-2.992965012744865
 30
0.0
 10
21.99542952890964
 20
-2.959820357311293
 30
0.0
 10
21.80603851227979
 20
-2.947042035682477
 30
0.0
 10
21.71573917904389
 20
-2.96660934586869
 30
0.0
 10
21.64003631184041
 20
-3.011408277761862
 30
0.0
  0
SPLINE
  5
152
330
1F
100
AcDbEntity
  8
0
  6
Continuous
 62
     1
370
    15
100
AcDbSpline
210
0.0
220
0.0
230
1.0
 70
     8
 71
     3
 72
    10
 73
     6
 74
     0
 42
0.000000001
 43
0.00000001
 40
0.0
 40
0.0
 40
0.0
 40
0.0
 40
0.5000000000000001
 40
0.5000000000000001
 40
1.0
 40
1.0
 40
1.0
 40
1.0
 10
22.70546810802966
 20
-3.079933596079146
 30
0.0
 10
22.62904171068268
 20
-3.135558540021085
 30
0.0
 10
22.53819384883411
 20
-3.162307623208723
 30
0.0
 10
22.35243841142067
 20
-3.15722132133623
 30
0.0
 10
22.256226232778
 20
-3.125336496972559
 30
0.0
 10
22.1743777098275
 20
-3.059051256924576
 30
0.0
  0
SPLINE
  5
153
330
1F
100
AcDbEntity
  8
0
  6
Continuous
 62
     1
370
    15
100
AcDbSpline
210
0.0
220
0.0
230
1.0
 70
     8
 71
     3
 72
     9
 73
     5
 74
     0
 42
0.000000001
 43
0.00000001
 40
0.0
 40
0.0
 40
0.0
 40
0.0
 40
0.5528647770675156
 40
1.0
 40
1.0
 40
1.0
 40
1.0
 10
22.92420161264548
 20
-2.999730464797008
 30
0.0
 10
22.88056342460812
 20
-3.006076441123423
 30
0.0
 10
22.80163239147408
 20
-3.01755479277403
 30
0.0
 10
22.73518090724475
 20
-3.060659820083577
 30
0.0
 10
22.70546810802966
 20
-3.079933596079143
 30
0.0
  0
SPLINE
  5
154
330
1F
100
AcDbEntity
  8
0
  6
Continuous
 62
     1
370
    15
100
AcDbSpline
210
0.0
220
0.0
230
1.0
 70
     8
 71
     3
 72
    12
 73
     8
 74
     0
 42
0.000000001
 43
0.00000001
 40
0.0
 40
0.0
 40
0.0
 40
0.0
 40
0.5
 40
0.5
 40
0.75
 40
0.75
 40
1.0
 40
1.0
 40
1.0
 40
1.0
 10
15.80611596461036
 20
-0.9039980434746734
 30
0.0
 10
15.76847167736794
 20
-0.5605232194857472
 30
0.0
 10
15.72965376680282
 20
-0.194979400660359
 30
0.0
 10
15.67486739566544
 20
0.3369887351590447
 30
0.0
 10
15.65749090741654
 20
0.5105932657500237
 30
0.0
 10
15.62084134970228
 20
0.8567802806037668
 30
0.0
 10
15.6019720892772
 20
1.028002285086697
 30
0.0
 10
15.58298051484457
 20
1.193277108839037
 30
0.0
  0
SPLINE
  5
155
330
1F
100
AcDbEntity
  8
0
  6
Continuous
 62
     1
370
    15
100
AcDbSpline
210
0.0
220
0.0
230
1.0
 70
     8
 71
     3
 72
    10
 73
     6
 74
     0
 42
0.000000001
 43
0.00000001
 40
0.0
 40
0.0
 40
0.0
 40
0.0
 40
0.5
 40
0.5
 40
1.0
 40
1.0
 40
1.0
 40
1.0
 10
16.33699405233902
 20
-1.183228779741812
 30
0.0
 10
16.3002365055278
 20
-0.853864614319263
 30
0.0
 10
16.26134108889779
 20
-0.4939574841851769
 30
0.0
 10
16.18625111555311
 20
0.2228314560195374
 30
0.0
 10
16.15163520471994
 20
0.574307986713401
 30
0.0
 10
16.11415279832605
 20
0.9157056770368381
 30
0.0
  0
SPLINE
  5
156
330
1F
100
AcDbEntity
  8
0
  6
Continuous
 62
     1
370
    15
100
AcDbSpline
210
0.0
220
0.0
230
1.0
 70
     8
 71
     3
 72
    10
 73
     6
 74
     0
 42
0.000000001
 43
0.00000001
 40
0.0
 40
0.0
 40
0.0
 40
0.0
 40
0.5000000000000001
 40
0.5000000000000001
 40
1.0
 40
1.0
 40
1.0
 40
1.0
 10
28.86213729274996
 20
-1.382985081847523
 30
0.0
 10
28.84898683188866
 20
-1.129991162001014
 30
0.0
 10
28.83656688273137
 20
-0.8567928572235378
 30
0.0
 10
28.81474393924895
 20
-0.2984618315719842
 30
0.0
 10
28.80521354629553
 20
-0.0108669883391196
 30
0.0
 10
28.79737531960155
 20
0.277887199598346
 30
0.0
  0
SPLINE
  5
157
330
1F
100
AcDbEntity
  8
0
  6
Continuous
 62
     1
370
    15
100
AcDbSpline
210
0.0
220
0.0
230
1.0
 70
     8
 71
     3
 72
     8
 73
     4
 74
     0
 42
0.000000001
 43
0.00000001
 40
0.0
 40
0.0
 40
0.0
 40
0.0
 40
1.0
 40
1.0
 40
1.0
 40
1.0
 10
28.79737531960128
 20
0.2778871995983473
 30
0.0
 10
28.85180224411607
 20
0.2495614540603525
 30
0.0
 10
28.90669182198469
 20
0.2239691381144045
 30
0.0
 10
28.96215701540224
 20
0.201301187904601
 30
0.0
  0
LINE
  5
158
330
1F
100
AcDbEntity
  8
0
  6
Continuous
 62
     1
370
    15
100
AcDbLine
 10
28.96215701540224
 20
-1.686308216219836
 30
0.0
 11
28.96215701540224
 21
0.2013011879046012
 31
0.0
  0
SPLINE
  5
159
330
1F
100
AcDbEntity
  8
0
  6
Continuous
 62
     1
370
    15
100
AcDbSpline
210
0.0
220
0.0
230
1.0
 70
     8
 71
     3
 72
     8
 73
     4
 74
     0
 42
0.000000001
 43
0.00000001
 40
0.0
 40
0.0
 40
0.0
 40
0.0
 40
1.0
 40
1.0
 40
1.0
 40
1.0
 10
28.8776684736719
 20
-1.681125899396545
 30
0.0
 10
28.87260412302119
 20
-1.585371039907679
 30
0.0
 10
28.86748978309216
 20
-1.485958470148903
 30
0.0
 10
28.86213729274997
 20
-1.382985081847518
 30
0.0
  0
SPLINE
  5
15A
330
1F
100
AcDbEntity
  8
0
  6
Continuous
 62
     1
370
    15
100
AcDbSpline
210
0.0
220
0.0
230
1.0
 70
     8
 71
     3
 72
    12
 73
     8
 74
     0
 42
0.000000001
 43
0.00000001
 40
0.0
 40
0.0
 40
0.0
 40
0.0
 40
0.25
 40
0.25
 40
0.5
 40
0.5
 40
1.0
 40
1.0
 40
1.0
 40
1.0
 10
17.13045289999134
 20
-1.612453288216839
 30
0.0
 10
17.11268856150832
 20
-1.457257642872561
 30
0.0
 10
17.09525449319872
 20
-1.295315242682142
 30
0.0
 10
17.05861014464404
 20
-0.9550264524553651
 30
0.0
 10
17.03984378885454
 20
-0.7779639461637267
 30
0.0
 10
16.98346131845709
 20
-0.2375993076558433
 30
0.0
 10
16.94647094333136
 20
0.1323177236859131
 30
0.0
 10
16.91125259093987
 20
0.4863782165400674
 30
0.0
  0
SPLINE
  5
15B
330
1F
100
AcDbEntity
  8
0
  6
Continuous
 62
     1
370
    15
100
AcDbSpline
210
0.0
220
0.0
230
1.0
 70
     8
 71
     3
 72
    12
 73
     8
 74
     0
 42
0.000000001
 43
0.00000001
 40
0.0
 40
0.0
 40
0.0
 40
0.0
 40
0.25
 40
0.25
 40
0.5
 40
0.5
 40
1.0
 40
1.0
 40
1.0
 40
1.0
 10
17.39407858272594
 20
-1.703320572192744
 30
0.0
 10
17.37572129928793
 20
-1.554487368615497
 30
0.0
 10
17.35832294184073
 20
-1.399853583369781
 30
0.0
 10
17.32178237194092
 20
-1.073367394313212
 30
0.0
 10
17.30293988384459
 20
-0.9022251186349394
 30
0.0
 10
17.24595581647944
 20
-0.3762277995894428
 30
0.0
 10
17.20741546590666
 20
-0.0090922068422244
 30
0.0
 10
17.17171299662335
 20
0.3415805279478579
 30
0.0
  0
SPLINE
  5
15C
330
1F
100
AcDbEntity
  8
0
  6
Continuous
 62
     1
370
    15
100
AcDbSpline
210
0.0
220
0.0
230
1.0
 70
     8
 71
     3
 72
    12
 73
     8
 74
     0
 42
0.000000001
 43
0.00000001
 40
0.0
 40
0.0
 40
0.0
 40
0.0
 40
0.5
 40
0.5
 40
0.75
 40
0.75
 40
1.0
 40
1.0
 40
1.0
 40
1.0
 10
16.86996052018975
 20
-1.451981052372346
 30
0.0
 10
16.83459450005575
 20
-1.140884214761224
 30
0.0
 10
16.79621760048803
 20
-0.79189152657077
 30
0.0
 10
16.73915144678501
 20
-0.2560211020656268
 30
0.0
 10
16.72022895324221
 20
-0.0755474440903721
 30
0.0
 10
16.68343503864175
 20
0.2807927639850431
 30
0.0
 10
16.6660192409581
 20
0.4552061714647939
 30
0.0
 10
16.64779484216946
 20
0.6289554524346163
 30
0.0
  0
SPLINE
  5
15D
330
1F
100
AcDbEntity
  8
0
  6
Continuous
 62
     1
370
    15
100
AcDbSpline
210
0.0
220
0.0
230
1.0
 70
     8
 71
     3
 72
     8
 73
     4
 74
     0
 42
0.000000001
 43
0.00000001
 40
0.0
 40
0.0
 40
0.0
 40
0.0
 40
1.0
 40
1.0
 40
1.0
 40
1.0
 10
28.67661322311906
 20
0.3486257241929666
 30
0.0
 10
28.7136010141541
 20
0.3268554051128928
 30
0.0
 10
28.75441667806421
 20
0.302994337292366
 30
0.0
 10
28.79737531960053
 20
0.2778871995987917
 30
0.0
  0
SPLINE
  5
15E
330
1F
100
AcDbEntity
  8
0
  6
Continuous
 62
     1
370
    15
100
AcDbSpline
210
0.0
220
0.0
230
1.0
 70
     8
 71
     3
 72
    10
 73
     6
 74
     0
 42
0.000000001
 43
0.00000001
 40
0.0
 40
0.0
 40
0.0
 40
0.0
 40
0.5
 40
0.5
 40
1.0
 40
1.0
 40
1.0
 40
1.0
 10
28.86213729274997
 20
-1.382985081847529
 30
0.0
 10
28.83246556537765
 20
-1.120625283898404
 30
0.0
 10
28.8008830569122
 20
-0.8335995302462286
 30
0.0
 10
28.73771631615821
 20
-0.2440170968360778
 30
0.0
 10
28.70618770236284
 20
0.058019780024983
 30
0.0
 10
28.67661322311903
 20
0.3486257241930133
 30
0.0
  0
SPLINE
  5
15F
330
1F
100
AcDbEntity
  8
0
  6
Continuous
 62
     1
370
    15
100
AcDbSpline
210
0.0
220
0.0
230
1.0
 70
     8
 71
     3
 72
    12
 73
     8
 74
     0
 42
0.000000001
 43
0.00000001
 40
0.0
 40
0.0
 40
0.0
 40
0.0
 40
0.4999999999999998
 40
0.4999999999999998
 40
0.7499999999999999
 40
0.7499999999999999
 40
1.0
 40
1.0
 40
1.0
 40
1.0
 10
27.03793600701108
 20
-0.7589330608314148
 30
0.0
 10
27.00052228768719
 20
-0.4036759808073197
 30
0.0
 10
26.96253444595941
 20
-0.0316014328072673
 30
0.0
 10
26.90957157322217
 20
0.5030264473234968
 30
0.0
 10
26.89203066633942
 20
0.6792395941263253
 30
0.0
 10
26.85535132761345
 20
1.028185808708412
 30
0.0
 10
26.83659252368746
 20
1.199619528104394
 30
0.0
 10
26.81783067083078
 20
1.36405476758802
 30
0.0
  0
SPLINE
  5
160
330
1F
100
AcDbEntity
  8
0
  6
Continuous
 62
     1
370
    15
100
AcDbSpline
210
0.0
220
0.0
230
1.0
 70
     8
 71
     3
 72
     8
 73
     4
 74
     0
 42
0.000000001
 43
0.00000001
 40
0.0
 40
0.0
 40
0.0
 40
0.0
 40
1.0
 40
1.0
 40
1.0
 40
1.0
 10
26.81783067083241
 20
1.364054767587533
 30
0.0
 10
26.90857680429051
 20
1.317004684708093
 30
0.0
 10
27.00064947099329
 20
1.259829020031243
 30
0.0
 10
27.07894019354377
 20
1.204891291860611
 30
0.0
  0
SPLINE
  5
161
330
1F
100
AcDbEntity
  8
0
  6
Continuous
 62
     1
370
    15
100
AcDbSpline
210
0.0
220
0.0
230
1.0
 70
     8
 71
     3
 72
    12
 73
     8
 74
     0
 42
0.000000001
 43
0.00000001
 40
0.0
 40
0.0
 40
0.0
 40
0.0
 40
0.4999999999999998
 40
0.4999999999999998
 40
0.7499999999999999
 40
0.7499999999999999
 40
1.0
 40
1.0
 40
1.0
 40
1.0
 10
27.30199458805031
 20
-0.892663925628483
 30
0.0
 10
27.26433853164772
 20
-0.5485706813992763
 30
0.0
 10
27.22555166099724
 20
-0.1827853443866511
 30
0.0
 10
27.17086368776136
 20
0.3489917362854607
 30
0.0
 10
27.15348700667321
 20
0.52257996601143
 30
0.0
 10
27.11680519165293
 20
0.8687147180022015
 30
0.0
 10
27.09792897343032
 20
1.039819333883095
 30
0.0
 10
27.07894019354372
 20
1.204891291860959
 30
0.0
  0
SPLINE
  5
162
330
1F
100
AcDbEntity
  8
0
  6
Continuous
 62
     1
370
    15
100
AcDbSpline
210
0.0
220
0.0
230
1.0
 70
     8
 71
     3
 72
    10
 73
     6
 74
     0
 42
0.000000001
 43
0.00000001
 40
0.0
 40
0.0
 40
0.0
 40
0.0
 40
0.5
 40
0.5
 40
1.0
 40
1.0
 40
1.0
 40
1.0
 10
26.77683814449478
 20
-0.609025967911228
 30
0.0
 10
26.73882787395344
 20
-0.2557041192835476
 30
0.0
 10
26.7011820863437
 20
0.1086082635429651
 30
0.0
 10
26.63010502721419
 20
0.8044364046450406
 30
0.0
 10
26.59168474886283
 20
1.15185605676308
 30
0.0
 10
26.55374025996928
 20
1.466691482833947
 30
0.0
  0
SPLINE
  5
163
330
1F
100
AcDbEntity
  8
0
  6
Continuous
 62
     1
370
    15
100
AcDbSpline
210
0.0
220
0.0
230
1.0
 70
     8
 71
     3
 72
     8
 73
     4
 74
     0
 42
0.000000001
 43
0.00000001
 40
0.0
 40
0.0
 40
0.0
 40
0.0
 40
1.0
 40
1.0
 40
1.0
 40
1.0
 10
26.55374025996932
 20
1.466691482833821
 30
0.0
 10
26.63043287421854
 20
1.448999403298729
 30
0.0
 10
26.72286516742015
 20
1.412493428743154
 30
0.0
 10
26.81783067083075
 20
1.364054767588401
 30
0.0
  0
SPLINE
  5
164
330
1F
100
AcDbEntity
  8
0
  6
Continuous
 62
     1
370
    15
100
AcDbSpline
210
0.0
220
0.0
230
1.0
 70
     8
 71
     3
 72
    12
 73
     8
 74
     0
 42
0.000000001
 43
0.00000001
 40
0.0
 40
0.0
 40
0.0
 40
0.0
 40
0.2499999999999999
 40
0.2499999999999999
 40
0.4999999999999998
 40
0.4999999999999998
 40
1.0
 40
1.0
 40
1.0
 40
1.0
 10
25.71162229307062
 20
-0.0189659562276728
 30
0.0
 10
25.69301517180998
 20
0.1598457063100825
 30
0.0
 10
25.67524891492155
 20
0.3359500716002436
 30
0.0
 10
25.63937866642701
 20
0.6839670536544359
 30
0.0
 10
25.62077092775697
 20
0.857475690953101
 30
0.0
 10
25.5641380711196
 20
1.36418497582628
 30
0.0
 10
25.52534288388446
 20
1.682575723036522
 30
0.0
 10
25.48896794381637
 20
1.954139312919081
 30
0.0
  0
SPLINE
  5
165
330
1F
100
AcDbEntity
  8
0
  6
Continuous
 62
     1
370
    15
100
AcDbSpline
210
0.0
220
0.0
230
1.0
 70
     8
 71
     3
 72
    10
 73
     6
 74
     0
 42
0.000000001
 43
0.00000001
 40
0.0
 40
0.0
 40
0.0
 40
0.0
 40
0.5
 40
0.5
 40
1.0
 40
1.0
 40
1.0
 40
1.0
 10
25.48896794381634
 20
1.954139312919366
 30
0.0
 10
25.56533681098966
 20
1.950999505308616
 30
0.0
 10
25.65614619324541
 20
1.925601478702339
 30
0.0
 10
25.84174870763438
 20
1.84222818175028
 30
0.0
 10
25.93782179856703
 20
1.783671287042025
 30
0.0
 10
26.0195744909903
 20
1.719201371906368
 30
0.0
  0
SPLINE
  5
166
330
1F
100
AcDbEntity
  8
0
  6
Continuous
 62
     1
370
    15
100
AcDbSpline
210
0.0
220
0.0
230
1.0
 70
     8
 71
     3
 72
    12
 73
     8
 74
     0
 42
0.000000001
 43
0.00000001
 40
0.0
 40
0.0
 40
0.0
 40
0.0
 40
0.2500000000000001
 40
0.2500000000000001
 40
0.5000000000000001
 40
0.5000000000000001
 40
1.0
 40
1.0
 40
1.0
 40
1.0
 10
26.24269611787898
 20
-0.3150515591436157
 30
0.0
 10
26.22375055538149
 20
-0.136052856940016
 30
0.0
 10
26.20500357040966
 20
0.0438487603573189
 30
0.0
 10
26.16873282589382
 20
0.3972935416855466
 30
0.0
 10
26.15126900981623
 20
0.570695334904536
 30
0.0
 10
26.09591572776721
 20
1.088731168037125
 30
0.0
 10
26.0570034960087
 20
1.424169834801171
 30
0.0
 10
26.0195744909903
 20
1.71920137190637
 30
0.0
  0
SPLINE
  5
167
330
1F
100
AcDbEntity
  8
0
  6
Continuous
 62
     1
370
    15
100
AcDbSpline
210
0.0
220
0.0
230
1.0
 70
     8
 71
     3
 72
    10
 73
     6
 74
     0
 42
0.000000001
 43
0.00000001
 40
0.0
 40
0.0
 40
0.0
 40
0.0
 40
0.4999999999999999
 40
0.4999999999999999
 40
1.0
 40
1.0
 40
1.0
 40
1.0
 10
17.92791513792195
 20
-1.942755806073609
 30
0.0
 10
17.89028673185748
 20
-1.663620735833005
 30
0.0
 10
17.85564805161812
 20
-1.353177102647603
 30
0.0
 10
17.78092432704702
 20
-0.6761345226658786
 30
0.0
 10
17.74200247405645
 20
-0.3121047632897105
 30
0.0
 10
17.70501662681552
 20
0.0446299307678665
 30
0.0
  0
SPLINE
  5
168
330
1F
100
AcDbEntity
  8
0
  6
Continuous
 62
     1
370
    15
100
AcDbSpline
210
0.0
220
0.0
230
1.0
 70
     8
 71
     3
 72
    12
 73
     8
 74
     0
 42
0.000000001
 43
0.00000001
 40
0.0
 40
0.0
 40
0.0
 40
0.0
 40
0.2499999999999999
 40
0.2499999999999999
 40
0.4999999999999998
 40
0.4999999999999998
 40
1.0
 40
1.0
 40
1.0
 40
1.0
 10
18.45898989426485
 20
-2.162981354415859
 30
0.0
 10
18.43998072581692
 20
-2.034515239190705
 30
0.0
 10
18.42104239516588
 20
-1.895026551448461
 30
0.0
 10
18.38416211146473
 20
-1.600982860294986
 30
0.0
 10
18.36670813758564
 20
-1.447951981284481
 30
0.0
 10
18.31233683952052
 20
-0.9642386089281298
 30
0.0
 10
18.27361102717232
 20
-0.6083454983567383
 30
0.0
 10
18.23584873496331
 20
-0.2502367758904439
 30
0.0
  0
SPLINE
  5
169
330
1F
100
AcDbEntity
  8
0
  6
Continuous
 62
     1
370
    15
100
AcDbSpline
210
0.0
220
0.0
230
1.0
 70
     8
 71
     3
 72
    12
 73
     8
 74
     0
 42
0.000000001
 43
0.00000001
 40
0.0
 40
0.0
 40
0.0
 40
0.0
 40
0.25
 40
0.25
 40
0.5
 40
0.5
 40
1.0
 40
1.0
 40
1.0
 40
1.0
 10
15.007870981423
 20
-0.4710850298159191
 30
0.0
 10
14.98911857004011
 20
-0.29007030389103
 30
0.0
 10
14.97044356345202
 20
-0.1070193649294648
 30
0.0
 10
14.93406824707898
 20
0.2549519375958177
 30
0.0
 10
14.91684335678402
 20
0.4322991280509765
 30
0.0
 10
14.86322397100397
 20
0.9616033782158906
 30
0.0
 10
14.82505484036286
 20
1.309628439007725
 30
0.0
 10
14.7877651749137
 20
1.621576931460664
 30
0.0
  0
SPLINE
  5
16A
330
1F
100
AcDbEntity
  8
0
  6
Continuous
 62
     1
370
    15
100
AcDbSpline
210
0.0
220
0.0
230
1.0
 70
     8
 71
     3
 72
    10
 73
     6
 74
     0
 42
0.000000001
 43
0.00000001
 40
0.0
 40
0.0
 40
0.0
 40
0.0
 40
0.5000000000000001
 40
0.5000000000000001
 40
1.0
 40
1.0
 40
1.0
 40
1.0
 10
15.2719691831548
 20
-0.6159811941605179
 30
0.0
 10
15.23396182761187
 20
-0.2628310904952114
 30
0.0
 10
15.196227508926
 20
0.1017507290985559
 30
0.0
 10
15.12522471388372
 20
0.7975828077271736
 30
0.0
 10
15.08682220118147
 20
1.145223818892424
 30
0.0
 10
15.04887121050053
 20
1.460478980381464
 30
0.0
  0
SPLINE
  5
16B
330
1F
100
AcDbEntity
  8
0
  6
Continuous
 62
     1
370
    15
100
AcDbSpline
210
0.0
220
0.0
230
1.0
 70
     8
 71
     3
 72
    12
 73
     8
 74
     0
 42
0.000000001
 43
0.00000001
 40
0.0
 40
0.0
 40
0.0
 40
0.0
 40
0.2500000000000001
 40
0.2500000000000001
 40
0.5000000000000001
 40
0.5000000000000001
 40
1.0
 40
1.0
 40
1.0
 40
1.0
 10
14.74673895152735
 20
-0.3269368138510478
 30
0.0
 10
14.72779292277386
 20
-0.1479209081119363
 30
0.0
 10
14.70903569374044
 20
0.0320899775201493
 30
0.0
 10
14.67272655364147
 20
0.3859267019134976
 30
0.0
 10
14.65529384971514
 20
0.5594170401125272
 30
0.0
 10
14.6000306332569
 20
1.077934515635933
 30
0.0
 10
14.561142170355
 20
1.41408481149172
 30
0.0
 10
14.52369441613337
 20
1.710133813923733
 30
0.0
  0
SPLINE
  5
16C
330
1F
100
AcDbEntity
  8
0
  6
Continuous
 62
     1
370
    15
100
AcDbSpline
210
0.0
220
0.0
230
1.0
 70
     8
 71
     3
 72
    14
 73
    10
 74
     0
 42
0.000000001
 43
0.00000001
 40
0.0
 40
0.0
 40
0.0
 40
0.0
 40
0.2499999999999998
 40
0.2499999999999998
 40
0.4999999999999999
 40
0.4999999999999999
 40
0.7499999999999999
 40
0.7499999999999999
 40
1.0
 40
1.0
 40
1.0
 40
1.0
 10
13.68232194746915
 20
0.2649306822996207
 30
0.0
 10
13.66426716897564
 20
0.4413294930160488
 30
0.0
 10
13.64665298925042
 20
0.6149336348283512
 30
0.0
 10
13.60953972417914
 20
0.9598865577159978
 30
0.0
 10
13.59051781351152
 20
1.129649102023744
 30
0.0
 10
13.552410096377
 20
1.455647762355469
 30
0.0
 10
13.53332885484321
 20
1.611844390468055
 30
0.0
 10
13.49598721131316
 20
1.903744383133696
 30
0.0
 10
13.47805830640012
 20
2.038684401564674
 30
0.0
 10
13.46017773980695
 20
2.162684970519175
 30
0.0
  0
SPLINE
  5
16D
330
1F
100
AcDbEntity
  8
0
  6
Continuous
 62
     1
370
    15
100
AcDbSpline
210
0.0
220
0.0
230
1.0
 70
     8
 71
     3
 72
    12
 73
     8
 74
     0
 42
0.000000001
 43
0.00000001
 40
0.0
 40
0.0
 40
0.0
 40
0.0
 40
0.2500000000000001
 40
0.2500000000000001
 40
0.5000000000000001
 40
0.5000000000000001
 40
1.0
 40
1.0
 40
1.0
 40
1.0
 10
14.21270613367555
 20
-0.0293783824158439
 30
0.0
 10
14.19408293450383
 20
0.1494805811055351
 30
0.0
 10
14.17626717403257
 20
0.3257921624577517
 30
0.0
 10
14.14044978808853
 20
0.6738377806637489
 30
0.0
 10
14.12186141085046
 20
0.8474398514943842
 30
0.0
 10
14.06526118769005
 20
1.354670411549169
 30
0.0
 10
14.02645245185699
 20
1.673740051357099
 30
0.0
 10
13.99003246731166
 20
1.946183969017648
 30
0.0
  0
SPLINE
  5
16E
330
1F
100
AcDbEntity
  8
0
  6
Continuous
 62
     4
370
    15
100
AcDbSpline
210
0.0
220
0.0
230
1.0
 70
     8
 71
     3
 72
     8
 73
     4
 74
     0
 42
0.000000001
 43
0.00000001
 40
0.0
 40
0.0
 40
0.0
 40
0.0
 40
1.0
 40
1.0
 40
1.0
 40
1.0
 10
8.583801766861981
 20
-1.313590256444259
 30
0.0
 10
8.465673732196741
 20
-1.251249496475771
 30
0.0
 10
8.392352620737745
 20
-1.129239742717774
 30
0.0
 10
8.392352620737745
 20
-0.9995474927406898
 30
0.0
  0
SPLINE
  5
16F
330
1F
100
AcDbEntity
  8
0
  6
Continuous
 62
     4
370
    15
100
AcDbSpline
210
0.0
220
0.0
230
1.0
 70
     8
 71
     3
 72
    12
 73
     8
 74
     0
 42
0.000000001
 43
0.00000001
 40
0.0
 40
0.0
 40
0.0
 40
0.0
 40
0.2499999999999996
 40
0.2499999999999996
 40
0.4999999999999997
 40
0.4999999999999997
 40
1.0
 40
1.0
 40
1.0
 40
1.0
 10
8.392352620737745
 20
2.367165163263573
 30
0.0
 10
8.392352620737745
 20
2.4117178899992
 30
0.0
 10
8.409422860152922
 20
2.453927528499666
 30
0.0
 10
8.474190589998532
 20
2.525221830480678
 30
0.0
 10
8.522148616953762
 20
2.554447734976597
 30
0.0
 10
8.695884047440646
 20
2.613977373845451
 30
0.0
 10
8.84615504844282
 20
2.614531627167786
 30
0.0
 10
8.963068524631108
 20
2.575500556562765
 30
0.0
  0
SPLINE
  5
171
330
1F
100
AcDbEntity
  8
0
  6
Continuous
 62
     4
370
    15
100
AcDbSpline
210
0.0
220
0.0
230
1.0
 70
     8
 71
     3
 72
     8
 73
     4
 74
     0
 42
0.000000001
 43
0.00000001
 40
0.0
 40
0.0
 40
0.0
 40
0.0
 40
1.0
 40
1.0
 40
1.0
 40
1.0
 10
9.347268088171905
 20
-2.986662642957369
 30
0.0
 10
9.218826961064961
 20
-2.96042883517014
 30
0.0
 10
9.090605190839307
 20
-2.931789248582981
 30
0.0
 10
8.963068524631174
 20
-2.900865161006546
 30
0.0
  0
SPLINE
  5
172
330
1F
100
AcDbEntity
  8
0
  6
Continuous
 62
     4
370
    15
100
AcDbSpline
210
0.0
220
0.0
230
1.0
 70
     8
 71
     3
 72
    12
 73
     8
 74
     0
 42
0.000000001
 43
0.00000001
 40
0.0
 40
0.0
 40
0.0
 40
0.0
 40
0.2499999999999998
 40
0.2499999999999998
 40
0.4999999999999998
 40
0.4999999999999998
 40
1.0
 40
1.0
 40
1.0
 40
1.0
 10
8.392352620737745
 20
-3.025425956773909
 30
0.0
 10
8.392352620737745
 20
-3.003788663017973
 30
0.0
 10
8.409422860152922
 20
-2.980272250870226
 30
0.0
 10
8.474190589998532
 20
-2.936422091408684
 30
0.0
 10
8.522148616953764
 20
-2.916120725208357
 30
0.0
 10
8.695884047440646
 20
-2.872986532602457
 30
0.0
 10
8.84615504844282
 20
-2.872516900980569
 30
0.0
 10
8.963068524631108
 20
-2.900865161006528
 30
0.0
  0
LINE
  5
173
330
1F
100
AcDbEntity
  8
0
  6
Continuous
 62
     4
370
    15
100
AcDbLine
 10
8.392352620737745
 20
-3.025425956773909
 30
0.0
 11
8.392352620737745
 21
-3.192971807488543
 31
0.0
  0
LINE
  5
174
330
1F
100
AcDbEntity
  8
0
  6
Continuous
 62
     4
370
    15
100
AcDbLine
 10
-34.03784298459777
 20
3.15702819251145
 30
0.0
 11
-34.03784298459777
 21
-3.192971807488548
 31
0.0
  0
LINE
  5
175
330
1F
100
AcDbEntity
  8
0
  6
Continuous
 62
     4
370
    15
100
AcDbLine
 10
8.392352620737745
 20
2.367165163263573
 30
0.0
 11
8.392352620737745
 21
-0.99954749274069
 31
0.0
  0
LINE
  5
176
330
1F
100
AcDbEntity
  8
0
  6
Continuous
 62
     4
370
    15
100
AcDbLine
 10
-34.53784298459777
 20
2.657028192511451
 30
0.0
 11
-34.53784298459777
 21
-2.69297180748855
 31
0.0
  0
SPLINE
  5
177
330
1F
100
AcDbEntity
  8
0
  6
Continuous
 62
     1
370
    15
100
AcDbSpline
210
0.0
220
0.0
230
1.0
 70
     8
 71
     3
 72
    10
 73
     6
 74
     0
 42
0.000000001
 43
0.00000001
 40
0.0
 40
0.0
 40
0.0
 40
0.0
 40
0.5
 40
0.5
 40
1.0
 40
1.0
 40
1.0
 40
1.0
 10
28.1437092675141
 20
0.6406297734089323
 30
0.0
 10
28.22501941201568
 20
0.5933451083586567
 30
0.0
 10
28.32207287169311
 20
0.5433492076749927
 30
0.0
 10
28.51105168999171
 20
0.4427563715375271
 30
0.0
 10
28.60119996046938
 20
0.3930125541392078
 30
0.0
 10
28.6766132231191
 20
0.3486257241931159
 30
0.0
  0
LINE
  5
178
102
{ACAD_REACTORS
330
299
102
}
330
1F
100
AcDbEntity
  8
0
  6
Continuous
 62
     1
370
    15
100
AcDbLine
 10
28.96215701540224
 20
2.037853280105956
 30
0.0
 11
28.96215701540224
 21
2.938909041225266
 31
0.0
  0
SPLINE
  5
179
330
1F
100
AcDbEntity
  8
0
  6
Continuous
 62
     1
370
    15
100
AcDbSpline
210
0.0
220
0.0
230
1.0
 70
     8
 71
     3
 72
    12
 73
     8
 74
     0
 42
0.000000001
 43
0.00000001
 40
0.0
 40
0.0
 40
0.0
 40
0.0
 40
0.249999999999999
 40
0.249999999999999
 40
0.499999999999998
 40
0.499999999999998
 40
1.0
 40
1.0
 40
1.0
 40
1.0
 10
28.96215701540224
 20
2.037853280105954
 30
0.0
 10
28.90986448938253
 20
1.918364986789036
 30
0.0
 10
28.84820813171758
 20
1.807664761058998
 30
0.0
 10
28.70515830735084
 20
1.604787821635205
 30
0.0
 10
28.62270834297294
 20
1.512017237134091
 30
0.0
 10
28.35689491874314
 20
1.275513986272187
 30
0.0
 10
28.14928306983454
 20
1.168089321377343
 30
0.0
 10
27.9344683128902
 20
1.111566676259993
 30
0.0
  0
SPLINE
  5
17A
330
1F
100
AcDbEntity
  8
0
  6
Continuous
 62
     1
370
    15
100
AcDbSpline
210
0.0
220
0.0
230
1.0
 70
     8
 71
     3
 72
     8
 73
     4
 74
     0
 42
0.000000001
 43
0.00000001
 40
0.0
 40
0.0
 40
0.0
 40
0.0
 40
1.0
 40
1.0
 40
1.0
 40
1.0
 10
28.96215701540224
 20
0.5944870012758773
 30
0.0
 10
28.61055285325267
 20
0.7857467624926764
 30
0.0
 10
28.26834701218014
 20
0.9573602557531792
 30
0.0
 10
27.93446831288986
 20
1.111566676258558
 30
0.0
  0
LINE
  5
17B
330
1F
100
AcDbEntity
  8
0
  6
Continuous
 62
     1
370
    15
100
AcDbLine
 10
28.96215701540224
 20
0.2013011879046012
 30
0.0
 11
28.96215701540224
 21
0.5944870012758771
 31
0.0
  0
SPLINE
  5
17C
330
1F
100
AcDbEntity
  8
0
  6
Continuous
 62
     1
370
    15
100
AcDbSpline
210
0.0
220
0.0
230
1.0
 70
     8
 71
     3
 72
    10
 73
     6
 74
     0
 42
0.000000001
 43
0.00000001
 40
0.0
 40
0.0
 40
0.0
 40
0.0
 40
0.5
 40
0.5
 40
1.0
 40
1.0
 40
1.0
 40
1.0
 10
27.07894019354378
 20
1.204891291860546
 30
0.0
 10
27.15999095737777
 20
1.148016802949512
 30
0.0
 10
27.25713623317334
 20
1.095222328671039
 30
0.0
 10
27.44658214023426
 20
0.9997700804112036
 30
0.0
 10
27.53701076217196
 20
0.9577200649317055
 30
0.0
 10
27.61305850867733
 20
0.9256647827016896
 30
0.0
  0
SPLINE
  5
17D
330
1F
100
AcDbEntity
  8
0
  6
Continuous
 62
     1
370
    15
100
AcDbSpline
210
0.0
220
0.0
230
1.0
 70
     8
 71
     3
 72
    10
 73
     6
 74
     0
 42
0.000000001
 43
0.00000001
 40
0.0
 40
0.0
 40
0.0
 40
0.0
 40
0.5
 40
0.5
 40
1.0
 40
1.0
 40
1.0
 40
1.0
 10
26.01957449099033
 20
1.719201371906313
 30
0.0
 10
26.10107226849379
 20
1.654932481871589
 30
0.0
 10
26.19823644763383
 20
1.601545269225938
 30
0.0
 10
26.38756439518463
 20
1.516004459410441
 30
0.0
 10
26.47800942933326
 20
1.484161690258581
 30
0.0
 10
26.55374025996936
 20
1.466691482833932
 30
0.0
  0
SPLINE
  5
17E
330
1F
100
AcDbEntity
  8
0
  6
Continuous
 62
     1
370
    15
100
AcDbSpline
210
0.0
220
0.0
230
1.0
 70
     8
 71
     3
 72
    10
 73
     6
 74
     0
 42
0.000000001
 43
0.00000001
 40
0.0
 40
0.0
 40
0.0
 40
0.0
 40
0.5
 40
0.5
 40
1.0
 40
1.0
 40
1.0
 40
1.0
 10
24.95618826139852
 20
2.172475320429018
 30
0.0
 10
25.03691858700412
 20
2.103347394413194
 30
0.0
 10
25.13374738258826
 20
2.051367059566211
 30
0.0
 10
25.3227819057278
 20
1.978250703169426
 30
0.0
 10
25.41311671545568
 20
1.957257838477067
 30
0.0
 10
25.48896794381646
 20
1.954139312919374
 30
0.0
  0
SPLINE
  5
17F
330
1F
100
AcDbEntity
  8
0
  6
Continuous
 62
     1
370
    15
100
AcDbSpline
210
0.0
220
0.0
230
1.0
 70
     8
 71
     3
 72
     8
 73
     4
 74
     0
 42
0.000000001
 43
0.00000001
 40
0.0
 40
0.0
 40
0.0
 40
0.0
 40
1.0
 40
1.0
 40
1.0
 40
1.0
 10
24.69551874184893
 20
2.329883025919713
 30
0.0
 10
24.78605063069297
 20
2.294245521139423
 30
0.0
 10
24.87799696660359
 20
2.239429120021885
 30
0.0
 10
24.95618826139852
 20
2.172475320429014
 30
0.0
  0
SPLINE
  5
180
330
1F
100
AcDbEntity
  8
0
  6
Continuous
 62
     1
370
    15
100
AcDbSpline
210
0.0
220
0.0
230
1.0
 70
     8
 71
     3
 72
     8
 73
     4
 74
     0
 42
0.000000001
 43
0.00000001
 40
0.0
 40
0.0
 40
0.0
 40
0.0
 40
1.0
 40
1.0
 40
1.0
 40
1.0
 10
24.43173970766777
 20
2.367201938039651
 30
0.0
 10
24.5083912478302
 20
2.37943623369783
 30
0.0
 10
24.60068727361073
 20
2.365568030881216
 30
0.0
 10
24.69551874184726
 20
2.329883025920358
 30
0.0
  0
SPLINE
  5
181
330
1F
100
AcDbEntity
  8
0
  6
Continuous
 62
     1
370
    15
100
AcDbSpline
210
0.0
220
0.0
230
1.0
 70
     8
 71
     3
 72
    10
 73
     6
 74
     0
 42
0.000000001
 43
0.00000001
 40
0.0
 40
0.0
 40
0.0
 40
0.0
 40
0.5
 40
0.5
 40
1.0
 40
1.0
 40
1.0
 40
1.0
 10
23.89784845121641
 20
2.540622755803042
 30
0.0
 10
23.97933250969341
 20
2.469447280588497
 30
0.0
 10
24.0765670739936
 20
2.421249579803004
 30
0.0
 10
24.26585608563229
 20
2.364167667157655
 30
0.0
 10
24.3561619971944
 20
2.355139035544281
 30
0.0
 10
24.43173970766781
 20
2.367201938039661
 30
0.0
  0
SPLINE
  5
182
330
1F
100
AcDbEntity
  8
0
  6
Continuous
 62
     1
370
    15
100
AcDbSpline
210
0.0
220
0.0
230
1.0
 70
     8
 71
     3
 72
    10
 73
     6
 74
     0
 42
0.000000001
 43
0.00000001
 40
0.0
 40
0.0
 40
0.0
 40
0.0
 40
0.5
 40
0.5
 40
1.0
 40
1.0
 40
1.0
 40
1.0
 10
23.36666814180859
 20
2.690902915949258
 30
0.0
 10
23.44308703125678
 20
2.716760744739438
 30
0.0
 10
23.53390249269291
 20
2.715010651301376
 30
0.0
 10
23.71966932221216
 20
2.662910120646702
 30
0.0
 10
23.81594639799538
 20
2.612163345066838
 30
0.0
 10
23.89784845121639
 20
2.540622755803021
 30
0.0
  0
SPLINE
  5
183
330
1F
100
AcDbEntity
  8
0
  6
Continuous
 62
     1
370
    15
100
AcDbSpline
210
0.0
220
0.0
230
1.0
 70
     8
 71
     3
 72
    10
 73
     6
 74
     0
 42
0.000000001
 43
0.00000001
 40
0.0
 40
0.0
 40
0.0
 40
0.0
 40
0.5
 40
0.5
 40
1.0
 40
1.0
 40
1.0
 40
1.0
 10
22.83243439130709
 20
2.819001111766581
 30
0.0
 10
22.91349790480048
 20
2.747456463212855
 30
0.0
 10
23.01065636671848
 20
2.703760546593276
 30
0.0
 10
23.20010098807941
 20
2.662820509721279
 30
0.0
 10
23.29056108349949
 20
2.665150601335788
 30
0.0
 10
23.36666814180859
 20
2.690902915949249
 30
0.0
  0
SPLINE
  5
184
330
1F
100
AcDbEntity
  8
0
  6
Continuous
 62
     1
370
    15
100
AcDbSpline
210
0.0
220
0.0
230
1.0
 70
     8
 71
     3
 72
     8
 73
     4
 74
     0
 42
0.000000001
 43
0.00000001
 40
0.0
 40
0.0
 40
0.0
 40
0.0
 40
1.0
 40
1.0
 40
1.0
 40
1.0
 10
22.5714241773329
 20
2.950949634367963
 30
0.0
 10
22.66214352333471
 20
2.93231225167338
 30
0.0
 10
22.75417628220185
 20
2.888069779914905
 30
0.0
 10
22.83243439130714
 20
2.819001111766519
 30
0.0
  0
SPLINE
  5
185
330
1F
100
AcDbEntity
  8
0
  6
Continuous
 62
     1
370
    15
100
AcDbSpline
210
0.0
220
0.0
230
1.0
 70
     8
 71
     3
 72
     8
 73
     4
 74
     0
 42
0.000000001
 43
0.00000001
 40
0.0
 40
0.0
 40
0.0
 40
0.0
 40
1.0
 40
1.0
 40
1.0
 40
1.0
 10
22.30758841561347
 20
2.916446876889009
 30
0.0
 10
22.38418715110598
 20
2.956926766014271
 30
0.0
 10
22.47654468665804
 20
2.968192609319076
 30
0.0
 10
22.57142417733123
 20
2.950949634368285
 30
0.0
  0
SPLINE
  5
186
330
1F
100
AcDbEntity
  8
0
  6
Continuous
 62
     1
370
    15
100
AcDbSpline
210
0.0
220
0.0
230
1.0
 70
     8
 71
     3
 72
    10
 73
     6
 74
     0
 42
0.000000001
 43
0.00000001
 40
0.0
 40
0.0
 40
0.0
 40
0.0
 40
0.5
 40
0.5
 40
1.0
 40
1.0
 40
1.0
 40
1.0
 10
21.7742781664854
 20
2.986259679576359
 30
0.0
 10
21.85558986699003
 20
2.918364236069809
 30
0.0
 10
21.95264440506306
 20
2.882038624844741
 30
0.0
 10
22.14171243435793
 20
2.861428195612529
 30
0.0
 10
22.23200838552306
 20
2.876505339754272
 30
0.0
 10
22.30758841561352
 20
2.91644687688898
 30
0.0
  0
SPLINE
  5
187
330
1F
100
AcDbEntity
  8
0
  6
Continuous
 62
     1
370
    15
100
AcDbSpline
210
0.0
220
0.0
230
1.0
 70
     8
 71
     3
 72
    10
 73
     6
 74
     0
 42
0.000000001
 43
0.00000001
 40
0.0
 40
0.0
 40
0.0
 40
0.0
 40
0.4999999999999999
 40
0.4999999999999999
 40
1.0
 40
1.0
 40
1.0
 40
1.0
 10
21.24430195588315
 20
3.029685973985559
 30
0.0
 10
21.32060269761259
 20
3.081076175104973
 30
0.0
 10
21.41130295337292
 20
3.103370325188308
 30
0.0
 10
21.59668411136741
 20
3.090109252658622
 30
0.0
 10
21.69264210131418
 20
3.054425968271936
 30
0.0
 10
21.77427816648542
 20
2.986259679576313
 30
0.0
  0
SPLINE
  5
188
330
1F
100
AcDbEntity
  8
0
  6
Continuous
 62
     1
370
    15
100
AcDbSpline
210
0.0
220
0.0
230
1.0
 70
     8
 71
     3
 72
    10
 73
     6
 74
     0
 42
0.000000001
 43
0.00000001
 40
0.0
 40
0.0
 40
0.0
 40
0.0
 40
0.2319931207390826
 40
0.6998133405395554
 40
1.0
 40
1.0
 40
1.0
 40
1.0
 10
20.90815510446993
 20
2.96645286714898
 30
0.0
 10
20.93589243740892
 20
2.96098812586809
 30
0.0
 10
21.01956283056476
 20
2.944503590297464
 30
0.0
 10
21.13767144364663
 20
2.969726079004577
 30
0.0
 10
21.21433635872821
 20
3.012835880885873
 30
0.0
 10
21.24430195588316
 20
3.029685973985562
 30
0.0
  0
SPLINE
  5
189
330
1F
100
AcDbEntity
  8
0
  6
Continuous
 62
     1
370
    15
100
AcDbSpline
210
0.0
220
0.0
230
1.0
 70
     8
 71
     3
 72
     8
 73
     4
 74
     0
 42
0.000000001
 43
0.00000001
 40
0.0
 40
0.0
 40
0.0
 40
0.0
 40
1.0
 40
1.0
 40
1.0
 40
1.0
 10
20.18557476845204
 20
3.033776643961585
 30
0.0
 10
20.26234656260513
 20
3.096502677570415
 30
0.0
 10
20.3547368497175
 20
3.130964755772677
 30
0.0
 10
20.44973521248014
 20
3.134439919057052
 30
0.0
  0
SPLINE
  5
18A
330
1F
100
AcDbEntity
  8
0
  6
Continuous
 62
     4
370
    15
100
AcDbSpline
210
0.0
220
0.0
230
1.0
 70
     8
 71
     3
 72
     8
 73
     4
 74
     0
 42
0.000000001
 43
0.00000001
 40
0.0
 40
0.0
 40
0.0
 40
0.0
 40
0.0000201870110027
 40
0.0000201870110027
 40
0.0000201870110027
 40
0.0000201870110027
 10
9.347540510683766
 20
-2.968932835799812
 30
0.0
 10
9.347446913178885
 20
-2.974831895926946
 30
0.0
 10
9.347356121015345
 20
-2.980741897842333
 30
0.0
 10
9.347268088171942
 20
-2.986662642957376
 30
0.0
  0
SPLINE
  5
18B
330
1F
100
AcDbEntity
  8
0
  6
Continuous
 62
     4
370
    15
100
AcDbSpline
210
0.0
220
0.0
230
1.0
 70
     8
 71
     3
 72
     8
 73
     4
 74
     0
 42
0.000000001
 43
0.00000001
 40
0.0
 40
0.0
 40
0.0
 40
0.0
 40
1.0
 40
1.0
 40
1.0
 40
1.0
 10
9.91215701540223
 20
-2.901990606286185
 30
0.0
 10
9.53356090135766
 20
-2.976568936602078
 30
0.0
 10
9.441241828392489
 20
-2.986802540285425
 30
0.0
 10
9.34640027100027
 20
-2.968701878061474
 30
0.0
  0
SPLINE
  5
18C
330
1F
100
AcDbEntity
  8
0
  6
Continuous
 62
     4
370
    15
100
AcDbSpline
210
0.0
220
0.0
230
1.0
 70
     8
 71
     3
 72
     8
 73
     4
 74
     0
 42
0.000000001
 43
0.00000001
 40
0.0
 40
0.0
 40
0.0
 40
0.0
 40
0.4275068270552067
 40
0.4275068270552067
 40
0.4275068270552067
 40
0.4275068270552067
 10
10.1441657872975
 20
-3.011860006699402
 30
0.0
 10
10.07451991568292
 20
-2.95350270455083
 30
0.0
 10
9.993379481277756
 20
-2.918027257228959
 30
0.0
 10
9.91215701540223
 20
-2.901990606286185
 30
0.0
  0
SPLINE
  5
18D
330
1F
100
AcDbEntity
  8
0
  6
Continuous
 62
     1
370
    15
100
AcDbSpline
210
0.0
220
0.0
230
1.0
 70
     8
 71
     3
 72
    10
 73
     6
 74
     0
 42
0.000000001
 43
0.00000001
 40
0.0
 40
0.0
 40
0.0
 40
0.0
 40
0.5
 40
0.5
 40
1.0
 40
1.0
 40
1.0
 40
1.0
 10
10.67547786626453
 20
-3.0602704228079
 30
0.0
 10
10.5989431019498
 20
-3.110748381256641
 30
0.0
 10
10.50801100804818
 20
-3.132002318753737
 30
0.0
 10
10.32222032517273
 20
-3.116916014978183
 30
0.0
 10
10.22608040327148
 20
-3.080497470542662
 30
0.0
 10
10.1441657872975
 20
-3.011860006699401
 30
0.0
  0
SPLINE
  5
18E
330
1F
100
AcDbEntity
  8
0
  6
Continuous
 62
     1
370
    15
100
AcDbSpline
210
0.0
220
0.0
230
1.0
 70
     8
 71
     3
 72
    10
 73
     6
 74
     0
 42
0.000000001
 43
0.00000001
 40
0.0
 40
0.0
 40
0.0
 40
0.0
 40
0.30452892459704
 40
0.72761576486556
 40
1.0
 40
1.0
 40
1.0
 40
1.0
 10
11.04980171818343
 20
-3.006424064774391
 30
0.0
 10
11.00949633543006
 20
-2.997716443903206
 30
0.0
 10
10.91319404841711
 20
-2.976911187953445
 30
0.0
 10
10.78243096204201
 20
-3.001221235794653
 30
0.0
 10
10.70557775503038
 20
-3.04365216647888
 30
0.0
 10
10.67547786626453
 20
-3.060270422807899
 30
0.0
  0
SPLINE
  5
18F
330
1F
100
AcDbEntity
  8
0
  6
Continuous
 62
     1
370
    15
100
AcDbSpline
210
0.0
220
0.0
230
1.0
 70
     8
 71
     3
 72
     8
 73
     4
 74
     0
 42
0.000000001
 43
0.00000001
 40
0.0
 40
0.0
 40
0.0
 40
0.0
 40
1.0
 40
1.0
 40
1.0
 40
1.0
 10
11.73436979858352
 20
-3.0739759136843
 30
0.0
 10
11.65774543775166
 20
-3.135904926238608
 30
0.0
 10
11.56543097642497
 20
-3.169467335297171
 30
0.0
 10
11.47049512956368
 20
-3.172047034854191
 30
0.0
  0
SPLINE
  5
190
330
1F
100
AcDbEntity
  8
0
  6
Continuous
 62
     1
370
    15
100
AcDbSpline
210
0.0
220
0.0
230
1.0
 70
     8
 71
     3
 72
     9
 73
     5
 74
     0
 42
0.000000001
 43
0.00000001
 40
0.0
 40
0.0
 40
0.0
 40
0.0
 40
0.6342781885408868
 40
1.0
 40
1.0
 40
1.0
 40
1.0
 10
25.00533268758524
 20
2.417582772460588
 30
0.0
 10
24.96077984729527
 20
2.383223402459514
 30
0.0
 10
24.89053804946131
 20
2.329052581797817
 30
0.0
 10
24.81289975642656
 20
2.299454669050942
 30
0.0
 10
24.7845057392593
 20
2.288630066785746
 30
0.0
  0
SPLINE
  5
191
330
1F
100
AcDbEntity
  8
0
  6
Continuous
 62
     1
370
    15
100
AcDbSpline
210
0.0
220
0.0
230
1.0
 70
     8
 71
     3
 72
    10
 73
     6
 74
     0
 42
0.000000001
 43
0.00000001
 40
0.0
 40
0.0
 40
0.0
 40
0.0
 40
0.5
 40
0.5
 40
1.0
 40
1.0
 40
1.0
 40
1.0
 10
25.5360573708874
 20
2.584826288097338
 30
0.0
 10
25.45970075027513
 20
2.605736948030533
 30
0.0
 10
25.36890639027561
 20
2.599666563530258
 30
0.0
 10
25.18326212215513
 20
2.541280979639619
 30
0.0
 10
25.08711765840046
 20
2.488544693993807
 30
0.0
 10
25.00533268758524
 20
2.417582772460594
 30
0.0
  0
SPLINE
  5
192
330
1F
100
AcDbEntity
  8
0
  6
Continuous
 62
     1
370
    15
100
AcDbSpline
210
0.0
220
0.0
230
1.0
 70
     8
 71
     3
 72
    10
 73
     6
 74
     0
 42
0.000000001
 43
0.00000001
 40
0.0
 40
0.0
 40
0.0
 40
0.0
 40
0.5
 40
0.5
 40
1.0
 40
1.0
 40
1.0
 40
1.0
 10
26.06914277830105
 20
2.73080905595349
 30
0.0
 10
25.98838481193567
 20
2.658931770491075
 30
0.0
 10
25.89153335036406
 20
2.61312535530191
 30
0.0
 10
25.70242627626898
 20
2.565819497016104
 30
0.0
 10
25.61200148082449
 20
2.564028596370148
 30
0.0
 10
25.5360573708874
 20
2.584826288097333
 30
0.0
  0
SPLINE
  5
193
330
1F
100
AcDbEntity
  8
0
  6
Continuous
 62
     1
370
    15
100
AcDbSpline
210
0.0
220
0.0
230
1.0
 70
     8
 71
     3
 72
     8
 73
     4
 74
     0
 42
0.000000001
 43
0.00000001
 40
0.0
 40
0.0
 40
0.0
 40
0.0
 40
1.0
 40
1.0
 40
1.0
 40
1.0
 10
26.32969993261837
 20
2.869131340250602
 30
0.0
 10
26.2391065690286
 20
2.84712089546527
 30
0.0
 10
26.14725599491553
 20
2.800332425865792
 30
0.0
 10
26.06914277830106
 20
2.730809055953488
 30
0.0
  0
SPLINE
  5
194
330
1F
100
AcDbEntity
  8
0
  6
Continuous
 62
     1
370
    15
100
AcDbSpline
210
0.0
220
0.0
230
1.0
 70
     8
 71
     3
 72
     8
 73
     4
 74
     0
 42
0.000000001
 43
0.00000001
 40
0.0
 40
0.0
 40
0.0
 40
0.0
 40
1.0
 40
1.0
 40
1.0
 40
1.0
 10
26.5932690311147
 20
2.847493431503655
 30
0.0
 10
26.51671989182713
 20
2.883204567342364
 30
0.0
 10
26.42445139332047
 20
2.889989471100969
 30
0.0
 10
26.32969993262003
 20
2.86913134025098
 30
0.0
  0
SPLINE
  5
195
330
1F
100
AcDbEntity
  8
0
  6
Continuous
 62
     1
370
    15
100
AcDbSpline
210
0.0
220
0.0
230
1.0
 70
     8
 71
     3
 72
    10
 73
     6
 74
     0
 42
0.000000001
 43
0.00000001
 40
0.0
 40
0.0
 40
0.0
 40
0.0
 40
0.5
 40
0.5
 40
1.0
 40
1.0
 40
1.0
 40
1.0
 10
27.12695760555969
 20
2.937140969356817
 30
0.0
 10
27.04553970341766
 20
2.867911266857638
 30
0.0
 10
26.94838010165309
 20
2.829012296888806
 30
0.0
 10
26.75916507726968
 20
2.801451165998812
 30
0.0
 10
26.66883839515469
 20
2.812239373135488
 30
0.0
 10
26.5932690311147
 20
2.847493431503655
 30
0.0
  0
SPLINE
  5
196
330
1F
100
AcDbEntity
  8
0
  6
Continuous
 62
     1
370
    15
100
AcDbSpline
210
0.0
220
0.0
230
1.0
 70
     8
 71
     3
 72
    10
 73
     6
 74
     0
 42
0.000000001
 43
0.00000001
 40
0.0
 40
0.0
 40
0.0
 40
0.0
 40
0.5
 40
0.5
 40
1.0
 40
1.0
 40
1.0
 40
1.0
 10
27.65818817273577
 20
3.001112332794975
 30
0.0
 10
27.58170740628784
 20
3.048325463149963
 30
0.0
 10
27.4909465056887
 20
3.066283998634592
 30
0.0
 10
27.30521119865406
 20
3.045642298171882
 30
0.0
 10
27.20891338695311
 20
3.006828030981866
 30
0.0
 10
27.12695760555969
 20
2.937140969356819
 30
0.0
  0
SPLINE
  5
197
330
1F
100
AcDbEntity
  8
0
  6
Continuous
 62
     1
370
    15
100
AcDbSpline
210
0.0
220
0.0
230
1.0
 70
     8
 71
     3
 72
    10
 73
     6
 74
     0
 42
0.000000001
 43
0.00000001
 40
0.0
 40
0.0
 40
0.0
 40
0.0
 40
0.5
 40
0.5
 40
1.0
 40
1.0
 40
1.0
 40
1.0
 10
28.19234622150762
 20
3.039077593437856
 30
0.0
 10
28.11132998495679
 20
2.973645151442154
 30
0.0
 10
28.01420077689452
 20
2.941695568405995
 30
0.0
 10
27.82471588479529
 20
2.932360356770157
 30
0.0
 10
27.73422364193812
 20
2.9541740934731
 30
0.0
 10
27.65818817273578
 20
3.001112332794974
 30
0.0
  0
SPLINE
  5
198
330
1F
100
AcDbEntity
  8
0
  6
Continuous
 62
     1
370
    15
100
AcDbSpline
210
0.0
220
0.0
230
1.0
 70
     8
 71
     3
 72
     8
 73
     4
 74
     0
 42
0.000000001
 43
0.00000001
 40
0.0
 40
0.0
 40
0.0
 40
0.0
 40
1.0
 40
1.0
 40
1.0
 40
1.0
 10
28.45339681802101
 20
3.135689562109049
 30
0.0
 10
28.36268837285898
 20
3.132982288293122
 30
0.0
 10
28.27062799334879
 20
3.102301555860541
 30
0.0
 10
28.19234622150763
 20
3.03907759343786
 30
0.0
  0
SPLINE
  5
199
330
1F
100
AcDbEntity
  8
0
  6
Continuous
 62
     1
370
    15
100
AcDbSpline
210
0.0
220
0.0
230
1.0
 70
     8
 71
     3
 72
     8
 73
     4
 74
     0
 42
0.000000001
 43
0.00000001
 40
0.0
 40
0.0
 40
0.0
 40
0.0
 40
1.0
 40
1.0
 40
1.0
 40
1.0
 10
28.71735381183578
 20
3.046225159537675
 30
0.0
 10
28.64072201103038
 20
3.10546674001598
 30
0.0
 10
28.54834071423622
 20
3.136022778457265
 30
0.0
 10
28.45339681802268
 20
3.135689562109067
 30
0.0
  0
SPLINE
  5
19A
330
1F
100
AcDbEntity
  8
0
  6
Continuous
 62
     1
370
    15
100
AcDbSpline
210
0.0
220
0.0
230
1.0
 70
     8
 71
     3
 72
     8
 73
     4
 74
     0
 42
0.000000001
 43
0.00000001
 40
0.0
 40
0.0
 40
0.0
 40
0.0
 40
1.0
 40
1.0
 40
1.0
 40
1.0
 10
28.95064332468104
 20
2.951016471060282
 30
0.0
 10
28.86590579392943
 20
2.961327985792522
 30
0.0
 10
28.78574220756246
 20
2.993356290391398
 30
0.0
 10
28.71735381183578
 20
3.046225159537676
 30
0.0
  0
SPLINE
  5
19B
102
{ACAD_REACTORS
330
299
102
}
330
1F
100
AcDbEntity
  8
0
  6
Continuous
 62
     1
370
    15
100
AcDbSpline
210
0.0
220
0.0
230
1.0
 70
     8
 71
     3
 72
     8
 73
     4
 74
     0
 42
0.000000001
 43
0.00000001
 40
0.0000000000000002
 40
0.0000000000000002
 40
0.0000000000000002
 40
0.0000000000000002
 40
0.0000184158218246
 40
0.0000184158218246
 40
0.0000184158218246
 40
0.0000184158218246
 10
28.96215701540223
 20
2.938909041225426
 30
0.0
 10
28.95832064937836
 20
2.94294736817153
 30
0.0
 10
28.95448274519751
 20
2.946983173589683
 30
0.0
 10
28.95064332468103
 20
2.951016471060285
 30
0.0
  0
SPLINE
  5
19C
330
1F
100
AcDbEntity
  8
0
  6
Continuous
 62
     1
370
    15
100
AcDbSpline
210
0.0
220
0.0
230
1.0
 70
     8
 71
     3
 72
    12
 73
     8
 74
     0
 42
0.000000001
 43
0.00000001
 40
0.0
 40
0.0
 40
0.0
 40
0.0
 40
0.4999999999999997
 40
0.4999999999999997
 40
0.7499999999999997
 40
0.7499999999999997
 40
1.0
 40
1.0
 40
1.0
 40
1.0
 10
24.91490395134882
 20
0.4495692948936906
 30
0.0
 10
24.87987711479857
 20
0.8036402785064469
 30
0.0
 10
24.84197867056301
 20
1.157875386741679
 30
0.0
 10
24.78566462184391
 20
1.641460020825102
 30
0.0
 10
24.76699725653551
 20
1.794712520648047
 30
0.0
 10
24.73068879991286
 20
2.079075635357016
 30
0.0
 10
24.71349479166935
 20
2.209274421831091
 30
0.0
 10
24.69551874184726
 20
2.32988302592035
 30
0.0
  0
SPLINE
  5
19D
330
1F
100
AcDbEntity
  8
0
  6
Continuous
 62
     1
370
    15
100
AcDbSpline
210
0.0
220
0.0
230
1.0
 70
     8
 71
     3
 72
    14
 73
    10
 74
     0
 42
0.000000001
 43
0.00000001
 40
0.0
 40
0.0
 40
0.0
 40
0.0
 40
0.2499999999999999
 40
0.2499999999999999
 40
0.4999999999999999
 40
0.4999999999999999
 40
0.7499999999999999
 40
0.7499999999999999
 40
1.0
 40
1.0
 40
1.0
 40
1.0
 10
25.17824637818323
 20
0.2775318292284459
 30
0.0
 10
25.16022809162002
 20
0.4538340486289681
 30
0.0
 10
25.14257457613579
 20
0.6275242665458054
 30
0.0
 10
25.10543232550259
 20
0.9723577265549649
 30
0.0
 10
25.08640578797743
 20
1.141963898618297
 30
0.0
 10
25.04830935170756
 20
1.467473147255117
 30
0.0
 10
25.02924401169981
 20
1.623336987032226
 30
0.0
 10
24.9919523975813
 20
1.914437686401468
 30
0.0
 10
24.97409252812385
 20
2.048838137892278
 30
0.0
 10
24.95618826139851
 20
2.172475320429021
 30
0.0
  0
SPLINE
  5
19E
330
1F
100
AcDbEntity
  8
0
  6
Continuous
 62
     1
370
    15
100
AcDbSpline
210
0.0
220
0.0
230
1.0
 70
     8
 71
     3
 72
    12
 73
     8
 74
     0
 42
0.000000001
 43
0.00000001
 40
0.0
 40
0.0
 40
0.0
 40
0.0
 40
0.4999999999999999
 40
0.4999999999999999
 40
0.7499999999999998
 40
0.7499999999999998
 40
1.0
 40
1.0
 40
1.0
 40
1.0
 10
24.65429882254756
 20
0.5666493488159311
 30
0.0
 10
24.61814558464219
 20
0.9146509600124229
 30
0.0
 10
24.57942424491881
 20
1.258583002606425
 30
0.0
 10
24.52264928601556
 20
1.72072894049496
 30
0.0
 10
24.50395364619838
 20
1.865883178965698
 30
0.0
 10
24.46783940569018
 20
2.132692642328131
 30
0.0
 10
24.4502663527842
 20
2.254972959448421
 30
0.0
 10
24.43173970766776
 20
2.36720193803965
 30
0.0
  0
SPLINE
  5
19F
330
1F
100
AcDbEntity
  8
0
  6
Continuous
 62
     1
370
    15
100
AcDbSpline
210
0.0
220
0.0
230
1.0
 70
     8
 71
     3
 72
    12
 73
     8
 74
     0
 42
0.000000001
 43
0.00000001
 40
0.0
 40
0.0
 40
0.0
 40
0.0
 40
0.5000000000000001
 40
0.5000000000000001
 40
0.7499999999999999
 40
0.7499999999999999
 40
1.0
 40
1.0
 40
1.0
 40
1.0
 10
18.99324739863364
 20
-2.366843130416766
 30
0.0
 10
18.95535011019319
 20
-2.135678837229757
 30
0.0
 10
18.91678376167297
 20
-1.853387849811038
 30
0.0
 10
18.8630268878972
 20
-1.394198186856551
 30
0.0
 10
18.84527965392845
 20
-1.234051833885282
 30
0.0
 10
18.80810339497036
 20
-0.8980647065757223
 30
0.0
 10
18.78908307044749
 20
-0.7233860662864648
 30
0.0
 10
18.77006405009048
 20
-0.5459412056514653
 30
0.0
  0
SPLINE
  5
1A0
330
1F
100
AcDbEntity
  8
0
  6
Continuous
 62
     1
370
    15
100
AcDbSpline
210
0.0
220
0.0
230
1.0
 70
     8
 71
     3
 72
    12
 73
     8
 74
     0
 42
0.000000001
 43
0.00000001
 40
0.0
 40
0.0
 40
0.0
 40
0.0
 40
0.5
 40
0.5
 40
0.75
 40
0.75
 40
1.0
 40
1.0
 40
1.0
 40
1.0
 10
19.2543542491782
 20
-2.521051225570818
 30
0.0
 10
19.21718026195612
 20
-2.298998558559504
 30
0.0
 10
19.17891751064355
 20
-2.02329326548979
 30
0.0
 10
19.12488178529145
 20
-1.567276911858219
 30
0.0
 10
19.10773690215922
 20
-1.409497729407134
 30
0.0
 10
19.07159942036293
 20
-1.076480458973335
 30
0.0
 10
19.0529973188099
 20
-0.9022716879939057
 30
0.0
 10
19.03426648792981
 20
-0.724054218612689
 30
0.0
  0
SPLINE
  5
1A1
330
1F
100
AcDbEntity
  8
0
  6
Continuous
 62
     1
370
    15
100
AcDbSpline
210
0.0
220
0.0
230
1.0
 70
     8
 71
     3
 72
    10
 73
     6
 74
     0
 42
0.000000001
 43
0.00000001
 40
0.0
 40
0.0
 40
0.0
 40
0.0
 40
0.5
 40
0.5
 40
1.0
 40
1.0
 40
1.0
 40
1.0
 10
12.88572320300432
 20
0.7382375073932479
 30
0.0
 10
12.84942031588554
 20
1.089705576847288
 30
0.0
 10
12.8110749814941
 20
1.432160920938291
 30
0.0
 10
12.73699903177274
 20
2.038147643538851
 30
0.0
 10
12.70285295307353
 20
2.299043740037326
 30
0.0
 10
12.66592774778541
 20
2.515948653168269
 30
0.0
  0
SPLINE
  5
1A2
330
1F
100
AcDbEntity
  8
0
  6
Continuous
 62
     1
370
    15
100
AcDbSpline
210
0.0
220
0.0
230
1.0
 70
     8
 71
     3
 72
    12
 73
     8
 74
     0
 42
0.000000001
 43
0.00000001
 40
0.0
 40
0.0
 40
0.0
 40
0.0
 40
0.4999999999999999
 40
0.4999999999999999
 40
0.75
 40
0.75
 40
1.0
 40
1.0
 40
1.0
 40
1.0
 10
13.14940900893233
 20
0.5596424461946427
 30
0.0
 10
13.11328821025802
 20
0.9077063234442956
 30
0.0
 10
13.07457804962612
 20
1.251929501430281
 30
0.0
 10
13.01778323593406
 20
1.714795888467756
 30
0.0
 10
12.99907510572253
 20
1.860235281903111
 30
0.0
 10
12.96292596903062
 20
2.127674296368906
 30
0.0
 10
12.94537468260142
 20
2.250196609862138
 30
0.0
 10
12.92685981035029
 20
2.362727204782399
 30
0.0
  0
SPLINE
  5
1A3
330
1F
100
AcDbEntity
  8
0
  6
Continuous
 62
     1
370
    15
100
AcDbSpline
210
0.0
220
0.0
230
1.0
 70
     8
 71
     3
 72
    12
 73
     8
 74
     0
 42
0.000000001
 43
0.00000001
 40
0.0
 40
0.0
 40
0.0
 40
0.0
 40
0.5
 40
0.5
 40
0.75
 40
0.75
 40
1.0
 40
1.0
 40
1.0
 40
1.0
 10
19.51828505178216
 20
-2.543775018310963
 30
0.0
 10
19.48102719897202
 20
-2.341094886873912
 30
0.0
 10
19.44212354434744
 20
-2.082365602096318
 30
0.0
 10
19.38653668272204
 20
-1.645379242840535
 30
0.0
 10
19.36893579228069
 20
-1.493252648084415
 30
0.0
 10
19.33292835300885
 20
-1.173721892696687
 30
0.0
 10
19.31427781561167
 20
-1.005437561602031
 30
0.0
 10
19.29538650474849
 20
-0.8321677034879841
 30
0.0
  0
SPLINE
  5
1A4
330
1F
100
AcDbEntity
  8
0
  6
Continuous
 62
     1
370
    15
100
AcDbSpline
210
0.0
220
0.0
230
1.0
 70
     8
 71
     3
 72
    12
 73
     8
 74
     0
 42
0.000000001
 43
0.00000001
 40
0.0
 40
0.0
 40
0.0
 40
0.0
 40
0.5000000000000003
 40
0.5000000000000003
 40
0.7500000000000001
 40
0.7500000000000001
 40
1.0
 40
1.0
 40
1.0
 40
1.0
 10
12.62485001842925
 20
0.844080391093688
 30
0.0
 10
12.58762047444692
 20
1.187336105160988
 30
0.0
 10
12.54871562843201
 20
1.517336023464429
 30
0.0
 10
12.49308324465433
 20
1.948174545116813
 30
0.0
 10
12.47544829776892
 20
2.080261566427255
 30
0.0
 10
12.43948498198392
 20
2.324065590474401
 30
0.0
 10
12.42085021729749
 20
2.436263485081974
 30
0.0
 10
12.40196723450737
 20
2.535646080116453
 30
0.0
  0
SPLINE
  5
1A5
330
1F
100
AcDbEntity
  8
0
  6
Continuous
 62
     1
370
    15
100
AcDbSpline
210
0.0
220
0.0
230
1.0
 70
     8
 71
     3
 72
    12
 73
     8
 74
     0
 42
0.000000001
 43
0.00000001
 40
0.0
 40
0.0
 40
0.0
 40
0.0
 40
0.5000000000000001
 40
0.5000000000000001
 40
0.75
 40
0.75
 40
1.0
 40
1.0
 40
1.0
 40
1.0
 10
23.58988248198339
 20
1.132905753762484
 30
0.0
 10
23.55197357102778
 20
1.46618107594363
 30
0.0
 10
23.51341345205164
 20
1.776524968815609
 30
0.0
 10
23.45968990442064
 20
2.168900435593573
 30
0.0
 10
23.44191503395171
 20
2.289246590270723
 30
0.0
 10
23.40471669914587
 20
2.508747406672579
 30
0.0
 10
23.38568945748568
 20
2.606899029242545
 30
0.0
 10
23.36666814180858
 20
2.690902915949244
 30
0.0
  0
SPLINE
  5
1A6
330
1F
100
AcDbEntity
  8
0
  6
Continuous
 62
     1
370
    15
100
AcDbSpline
210
0.0
220
0.0
230
1.0
 70
     8
 71
     3
 72
    12
 73
     8
 74
     0
 42
0.000000001
 43
0.00000001
 40
0.0
 40
0.0
 40
0.0
 40
0.0
 40
0.4999999999999998
 40
0.4999999999999998
 40
0.7499999999999999
 40
0.7499999999999999
 40
1.0
 40
1.0
 40
1.0
 40
1.0
 10
24.1208273723072
 20
0.8546166692373045
 30
0.0
 10
24.08354916021563
 20
1.197461528951465
 30
0.0
 10
24.04463236548986
 20
1.526676034861709
 30
0.0
 10
23.98904163340684
 20
1.955937468444954
 30
0.0
 10
23.97144572898189
 20
2.087412719918227
 30
0.0
 10
23.93541132501575
 20
2.330239754538769
 30
0.0
 10
23.91674901578479
 20
2.441869506696583
 30
0.0
 10
23.89784845121639
 20
2.540622755803029
 30
0.0
  0
SPLINE
  5
1A7
330
1F
100
AcDbEntity
  8
0
  6
Continuous
 62
     1
370
    15
100
AcDbSpline
210
0.0
220
0.0
230
1.0
 70
     8
 71
     3
 72
    12
 73
     8
 74
     0
 42
0.000000001
 43
0.00000001
 40
0.0
 40
0.0
 40
0.0
 40
0.0
 40
0.4999999999999998
 40
0.4999999999999998
 40
0.7499999999999999
 40
0.7499999999999999
 40
1.0
 40
1.0
 40
1.0
 40
1.0
 10
20.05173569707789
 20
-2.697983731759102
 30
0.0
 10
20.01558989186543
 20
-2.52650547497509
 30
0.0
 10
19.97686830275774
 20
-2.29559177055304
 30
0.0
 10
19.9200813791739
 20
-1.887818205788897
 30
0.0
 10
19.90137990063959
 20
-1.7420019411084
 30
0.0
 10
19.86525110575751
 20
-1.438024097837983
 30
0.0
 10
19.84768332648031
 20
-1.279627831040947
 30
0.0
 10
19.82915849168798
 20
-1.112852245719181
 30
0.0
  0
SPLINE
  5
1A8
330
1F
100
AcDbEntity
  8
0
  6
Continuous
 62
     1
370
    15
100
AcDbSpline
210
0.0
220
0.0
230
1.0
 70
     8
 71
     3
 72
    14
 73
    10
 74
     0
 42
0.000000001
 43
0.00000001
 40
0.0
 40
0.0
 40
0.0
 40
0.0
 40
0.25
 40
0.25
 40
0.5
 40
0.5
 40
0.75
 40
0.75
 40
1.0
 40
1.0
 40
1.0
 40
1.0
 10
20.58170597236832
 20
-2.828548944603207
 30
0.0
 10
20.56366096189279
 20
-2.758154807417799
 30
0.0
 10
20.54602023434487
 20
-2.674357359526763
 30
0.0
 10
20.50887566673765
 20
-2.477645472791919
 30
0.0
 10
20.48984267176985
 20
-2.365294185642186
 30
0.0
 10
20.45172350830379
 20
-2.117140787412506
 30
0.0
 10
20.43264191185385
 20
-1.981367852973553
 30
0.0
 10
20.39531026977894
 20
-1.693131685554909
 30
0.0
 10
20.37741222779147
 20
-1.541733882296381
 30
0.0
 10
20.35950984345362
 20
-1.383575457774193
 30
0.0
  0
SPLINE
  5
1A9
330
1F
100
AcDbEntity
  8
0
  6
Continuous
 62
     1
370
    15
100
AcDbSpline
210
0.0
220
0.0
230
1.0
 70
     8
 71
     3
 72
    12
 73
     8
 74
     0
 42
0.000000001
 43
0.00000001
 40
0.0
 40
0.0
 40
0.0
 40
0.0
 40
0.2499999999999999
 40
0.2499999999999999
 40
0.4999999999999998
 40
0.4999999999999998
 40
1.0
 40
1.0
 40
1.0
 40
1.0
 10
11.55966067142338
 20
1.39272832983985
 30
0.0
 10
11.54064625256079
 20
1.55251209808057
 30
0.0
 10
11.52169742752184
 20
1.704732608418506
 30
0.0
 10
11.48478717696082
 20
1.987578397412526
 30
0.0
 10
11.46731586421937
 20
2.117179303350798
 30
0.0
 10
11.41297539696635
 20
2.476788346638343
 30
0.0
 10
11.37425112993932
 20
2.675214846070258
 30
0.0
 10
11.33647074058877
 20
2.812460316148852
 30
0.0
  0
SPLINE
  5
1AA
330
1F
100
AcDbEntity
  8
0
  6
Continuous
 62
     1
370
    15
100
AcDbSpline
210
0.0
220
0.0
230
1.0
 70
     8
 71
     3
 72
    12
 73
     8
 74
     0
 42
0.000000001
 43
0.00000001
 40
0.0
 40
0.0
 40
0.0
 40
0.0
 40
0.5000000000000006
 40
0.5000000000000006
 40
0.7500000000000003
 40
0.7500000000000003
 40
1.0
 40
1.0
 40
1.0
 40
1.0
 10
12.09098033427145
 20
1.123246227367146
 30
0.0
 10
12.05308545657289
 20
1.45693554764785
 30
0.0
 10
12.01450385537742
 20
1.768014590189393
 30
0.0
 10
11.96070377066451
 20
2.161757098011312
 30
0.0
 10
11.94297711288357
 20
2.282421719448265
 30
0.0
 10
11.90581237623913
 20
2.502808280787703
 30
0.0
 10
11.88679389655355
 20
2.601463210458808
 30
0.0
 10
11.86777264899273
 20
2.686009326360754
 30
0.0
  0
SPLINE
  5
1AB
330
1F
100
AcDbEntity
  8
0
  6
Continuous
 62
     1
370
    15
100
AcDbSpline
210
0.0
220
0.0
230
1.0
 70
     8
 71
     3
 72
    12
 73
     8
 74
     0
 42
0.000000001
 43
0.00000001
 40
0.0
 40
0.0
 40
0.0
 40
0.0
 40
0.2499999999999999
 40
0.2499999999999999
 40
0.4999999999999998
 40
0.4999999999999998
 40
1.0
 40
1.0
 40
1.0
 40
1.0
 10
23.05552841722462
 20
1.404893109190175
 30
0.0
 10
23.03652443798398
 20
1.564384405868794
 30
0.0
 10
23.01759639517919
 20
1.716226670009222
 30
0.0
 10
22.98074540461085
 20
1.998192395915738
 30
0.0
 10
22.96330724656935
 20
2.127316953184375
 30
0.0
 10
22.9089061140807
 20
2.485704573545188
 30
0.0
 10
22.87017894094302
 20
2.682999337216082
 30
0.0
 10
22.8324343913071
 20
2.819001111766483
 30
0.0
  0
SPLINE
  5
1AC
330
1F
100
AcDbEntity
  8
0
  6
Continuous
 62
     1
370
    15
100
AcDbSpline
210
0.0
220
0.0
230
1.0
 70
     8
 71
     3
 72
    12
 73
     8
 74
     0
 42
0.000000001
 43
0.00000001
 40
0.0
 40
0.0
 40
0.0
 40
0.0
 40
0.2500000000000001
 40
0.2500000000000001
 40
0.5000000000000002
 40
0.5000000000000002
 40
1.0
 40
1.0
 40
1.0
 40
1.0
 10
22.79141046967759
 20
1.590993242782463
 30
0.0
 10
22.77273688883735
 20
1.748117314912266
 30
0.0
 10
22.75426598838124
 20
1.896509050635018
 30
0.0
 10
22.71851989630087
 20
2.170079533026022
 30
0.0
 10
22.70129274358605
 20
2.295400884714644
 30
0.0
 10
22.64672328102471
 20
2.642092372397159
 30
0.0
 10
22.60838050295211
 20
2.827774715398629
 30
0.0
 10
22.5714241773318
 20
2.950949634366438
 30
0.0
  0
SPLINE
  5
1AE
330
1F
100
AcDbEntity
  8
0
  6
Continuous
 62
     1
370
    15
100
AcDbSpline
210
0.0
220
0.0
230
1.0
 70
     8
 71
     3
 72
    12
 73
     8
 74
     0
 42
0.000000001
 43
0.00000001
 40
0.0
 40
0.0
 40
0.0
 40
0.0
 40
0.2500000000000001
 40
0.2500000000000001
 40
0.5000000000000001
 40
0.5000000000000001
 40
1.0
 40
1.0
 40
1.0
 40
1.0
 10
21.11503018934897
 20
-2.935059607737235
 30
0.0
 10
21.09642231224402
 20
-2.880153947051645
 30
0.0
 10
21.07863603333557
 20
-2.811289183421004
 30
0.0
 10
21.04281186183957
 20
-2.646428794964219
 30
0.0
 10
21.02422368601785
 20
-2.549360979153358
 30
0.0
 10
20.96763502857363
 20
-2.218791412757609
 30
0.0
 10
20.92884906764511
 20
-1.945099853122166
 30
0.0
 10
20.89246100426841
 20
-1.6440664774767
 30
0.0
  0
SPLINE
  5
1B0
330
1F
100
AcDbEntity
  8
0
  6
Continuous
 62
     1
370
    15
100
AcDbSpline
210
0.0
220
0.0
230
1.0
 70
     8
 71
     3
 72
    10
 73
     6
 74
     0
 42
0.000000001
 43
0.00000001
 40
0.0
 40
0.0
 40
0.0
 40
0.0
 40
0.5
 40
0.5
 40
1.0
 40
1.0
 40
1.0
 40
1.0
 10
11.02549804743093
 20
1.65110254289135
 30
0.0
 10
10.98788017587247
 20
1.952176070117501
 30
0.0
 10
10.95325343231413
 20
2.211740859587218
 30
0.0
 10
10.87859220440187
 20
2.643411792877222
 30
0.0
 10
10.83968919001927
 20
2.810517098448676
 30
0.0
 10
10.80270500289888
 20
2.91439285288785
 30
0.0
  0
SPLINE
  5
1B1
330
1F
100
AcDbEntity
  8
0
  6
Continuous
 62
     1
370
    15
100
AcDbSpline
210
0.0
220
0.0
230
1.0
 70
     8
 71
     3
 72
    10
 73
     6
 74
     0
 42
0.000000001
 43
0.00000001
 40
0.0
 40
0.0
 40
0.0
 40
0.0
 40
0.4999999999999999
 40
0.4999999999999999
 40
1.0
 40
1.0
 40
1.0
 40
1.0
 10
22.53037283296633
 20
1.657042064528888
 30
0.0
 10
22.49277042193013
 20
1.957625314730359
 30
0.0
 10
22.45815267950675
 20
2.216626080370713
 30
0.0
 10
22.38344913513212
 20
2.647060392140919
 30
0.0
 10
22.3445480845827
 20
2.813382219996399
 30
0.0
 10
22.30758841561343
 20
2.91644687688894
 30
0.0
  0
SPLINE
  5
1B2
330
1F
100
AcDbEntity
  8
0
  6
Continuous
 62
     1
370
    15
100
AcDbSpline
210
0.0
220
0.0
230
1.0
 70
     8
 71
     3
 72
    10
 73
     6
 74
     0
 42
0.000000001
 43
0.00000001
 40
0.0
 40
0.0
 40
0.0
 40
0.0
 40
0.5
 40
0.5
 40
1.0
 40
1.0
 40
1.0
 40
1.0
 10
21.37598064705184
 20
-3.059554848380216
 30
0.0
 10
21.338906257532
 20
-2.962701997765491
 30
0.0
 10
21.30475270188196
 20
-2.808950270365966
 30
0.0
 10
21.23102306070712
 20
-2.390765690854237
 30
0.0
 10
21.19265181652087
 20
-2.125938059039186
 30
0.0
 10
21.15613125578961
 20
-1.828953904797626
 30
0.0
  0
LINE
  5
1B3
330
1F
100
AcDbEntity
  8
0
  6
Continuous
 62
     1
370
    15
100
AcDbLine
 10
9.91215701540223
 20
-3.192971807488544
 30
0.0
 11
9.912157015402233
 21
3.224232278437842
 31
0.0
  0
SPLINE
  5
1B4
330
1F
100
AcDbEntity
  8
0
  6
Continuous
 62
     1
370
    15
100
AcDbSpline
210
0.0
220
0.0
230
1.0
 70
     8
 71
     3
 72
    12
 73
     8
 74
     0
 42
0.000000001
 43
0.00000001
 40
0.0
 40
0.0
 40
0.0
 40
0.0
 40
0.5
 40
0.5
 40
0.75
 40
0.75
 40
1.0
 40
1.0
 40
1.0
 40
1.0
 10
10.7610834378936
 20
1.917640648693483
 30
0.0
 10
10.72632375624296
 20
2.214009150267206
 30
0.0
 10
10.68886974141098
 20
2.480246940264308
 30
0.0
 10
10.63333108516709
 20
2.796469294221871
 30
0.0
 10
10.61493864624463
 20
2.888213117887782
 30
0.0
 10
10.57917740175612
 20
3.041351316941365
 30
0.0
 10
10.56222271833605
 20
3.102534416185461
 30
0.0
 10
10.54446267575061
 20
3.1495451469984
 30
0.0
  0
SPLINE
  5
1B5
330
1F
100
AcDbEntity
  8
0
  6
Continuous
 62
     1
370
    15
100
AcDbSpline
210
0.0
220
0.0
230
1.0
 70
     8
 71
     3
 72
    12
 73
     8
 74
     0
 42
0.000000001
 43
0.00000001
 40
0.0
 40
0.0
 40
0.0
 40
0.0
 40
0.2499999999999999
 40
0.2499999999999999
 40
0.4999999999999998
 40
0.4999999999999998
 40
1.0
 40
1.0
 40
1.0
 40
1.0
 10
10.1441657872975
 20
-3.011860006699398
 30
0.0
 10
10.12521418968563
 20
-2.973938475083765
 30
0.0
 10
10.10644963885011
 20
-2.920547700682453
 30
0.0
 10
10.07012336234095
 20
-2.786499997652931
 30
0.0
 10
10.05269070051805
 20
-2.706362985369326
 30
0.0
 10
9.99742691277838
 20
-2.422101633710684
 30
0.0
 10
9.95853095586545
 20
-2.174906666390742
 30
0.0
 10
9.921070476741916
 20
-1.891475139308212
 30
0.0
  0
SPLINE
  5
1B6
330
1F
100
AcDbEntity
  8
0
  6
Continuous
 62
     1
370
    15
100
AcDbSpline
210
0.0
220
0.0
230
1.0
 70
     8
 71
     3
 72
    12
 73
     8
 74
     0
 42
0.000000001
 43
0.00000001
 40
0.0
 40
0.0
 40
0.0
 40
0.0
 40
0.2500000000000001
 40
0.2500000000000001
 40
0.5000000000000001
 40
0.5000000000000001
 40
1.0
 40
1.0
 40
1.0
 40
1.0
 10
21.64003631184041
 20
-3.011408277761864
 30
0.0
 10
21.62110057848426
 20
-2.972759401654379
 30
0.0
 10
21.60236203064192
 20
-2.918670024876407
 30
0.0
 10
21.56610431796278
 20
-2.783338289723974
 30
0.0
 10
21.54865435967792
 20
-2.702532675861124
 30
0.0
 10
21.49334393407755
 20
-2.416277824983205
 30
0.0
 10
21.45445622483092
 20
-2.167895518517675
 30
0.0
 10
21.41704140442573
 20
-1.883606766109667
 30
0.0
  0
SPLINE
  5
1B7
330
1F
100
AcDbEntity
  8
0
  6
Continuous
 62
     1
370
    15
100
AcDbSpline
210
0.0
220
0.0
230
1.0
 70
     8
 71
     3
 72
    12
 73
     8
 74
     0
 42
0.000000001
 43
0.00000001
 40
0.0
 40
0.0
 40
0.0
 40
0.0
 40
0.2499999999999999
 40
0.2499999999999999
 40
0.4999999999999998
 40
0.4999999999999998
 40
1.0
 40
1.0
 40
1.0
 40
1.0
 10
21.99673236283056
 20
1.895751683736279
 30
0.0
 10
21.97837013924446
 20
2.034823463385361
 30
0.0
 10
21.96096525654461
 20
2.161972383295981
 30
0.0
 10
21.92440147852673
 20
2.397202914521336
 30
0.0
 10
21.90554815849198
 20
2.504322430111138
 30
0.0
 10
21.84853612158174
 20
2.785414327782594
 30
0.0
 10
21.80998353610421
 20
2.91759251774808
 30
0.0
 10
21.77427816648538
 20
2.98625967957634
 30
0.0
  0
SPLINE
  5
1B8
330
1F
100
AcDbEntity
  8
0
  6
Continuous
 62
     1
370
    15
100
AcDbSpline
210
0.0
220
0.0
230
1.0
 70
     8
 71
     3
 72
    10
 73
     6
 74
     0
 42
0.000000001
 43
0.00000001
 40
0.0
 40
0.0
 40
0.0
 40
0.0
 40
0.5
 40
0.5
 40
1.0
 40
1.0
 40
1.0
 40
1.0
 10
10.67547786626453
 20
-3.060270422807895
 30
0.0
 10
10.63745357138258
 20
-3.018739103977757
 30
0.0
 10
10.59962103605697
 20
-2.912886543865212
 30
0.0
 10
10.52864496155002
 20
-2.597077687561655
 30
0.0
 10
10.4902361902276
 20
-2.379058090270568
 30
0.0
 10
10.45226047851069
 20
-2.117026007495963
 30
0.0
  0
SPLINE
  5
1B9
330
1F
100
AcDbEntity
  8
0
  6
Continuous
 62
     1
370
    15
100
AcDbSpline
210
0.0
220
0.0
230
1.0
 70
     8
 71
     3
 72
    12
 73
     8
 74
     0
 42
0.000000001
 43
0.00000001
 40
0.0
 40
0.0
 40
0.0
 40
0.0
 40
0.5
 40
0.5
 40
0.75
 40
0.75
 40
1.0
 40
1.0
 40
1.0
 40
1.0
 10
21.46658388712089
 20
2.117652855453335
 30
0.0
 10
21.43117062654951
 20
2.369961907285973
 30
0.0
 10
21.39275929390844
 20
2.585596531818946
 30
0.0
 10
21.33567421938316
 20
2.820047167933003
 30
0.0
 10
21.31675072617464
 20
2.883602097968139
 30
0.0
 10
21.2799654354927
 20
2.979600844912845
 30
0.0
 10
21.26254909835172
 20
3.01206178934522
 30
0.0
 10
21.24430195588315
 20
3.029685973985558
 30
0.0
  0
SPLINE
  5
1BA
330
1F
100
AcDbEntity
  8
0
  6
Continuous
 62
     1
370
    15
100
AcDbSpline
210
0.0
220
0.0
230
1.0
 70
     8
 71
     3
 72
    10
 73
     6
 74
     0
 42
0.000000001
 43
0.00000001
 40
0.0
 40
0.0
 40
0.0
 40
0.0
 40
0.5
 40
0.5
 40
1.0
 40
1.0
 40
1.0
 40
1.0
 10
22.17437770982717
 20
-3.059051256924305
 30
0.0
 10
22.13634841584496
 20
-3.016301854582241
 30
0.0
 10
22.09864691547248
 20
-2.909422941059321
 30
0.0
 10
22.02756030820806
 20
-2.591355149795747
 30
0.0
 10
21.98912467453152
 20
-2.372259721572679
 30
0.0
 10
21.95115790873842
 20
-2.109405452078576
 30
0.0
  0
SPLINE
  5
1BB
330
1F
100
AcDbEntity
  8
0
  6
Continuous
 62
     1
370
    15
100
AcDbSpline
210
0.0
220
0.0
230
1.0
 70
     8
 71
     3
 72
    12
 73
     8
 74
     0
 42
0.000000001
 43
0.00000001
 40
0.0
 40
0.0
 40
0.0
 40
0.0
 40
0.5
 40
0.5
 40
0.75
 40
0.75
 40
1.0
 40
1.0
 40
1.0
 40
1.0
 10
22.70546810802966
 20
-3.079933596079145
 30
0.0
 10
22.66781652196337
 20
-3.071793413017449
 30
0.0
 10
22.62901236065801
 20
-2.998636653408224
 30
0.0
 10
22.57427267746137
 20
-2.80397056691459
 30
0.0
 10
22.55689594275453
 20
-2.726011658120125
 30
0.0
 10
22.5202287936319
 20
-2.540955102153526
 30
0.0
 10
22.50135526503696
 20
-2.4341954492932
 30
0.0
 10
22.48236429341384
 20
-2.315198425685486
 30
0.0
  0
LINE
  5
1BC
330
1F
100
AcDbEntity
  8
0
  6
Continuous
 62
     1
370
    15
100
AcDbLine
 10
11.17885070051187
 20
-3.048224071807785
 30
0.0
 11
11.16990767182318
 21
-3.038238826903938
 31
0.0
  0
LINE
  5
1BD
330
1F
100
AcDbEntity
  8
0
  6
Continuous
 62
     1
370
    15
100
AcDbLine
 10
20.75209939549346
 20
3.011501946789341
 30
0.0
 11
20.74278359734533
 21
3.01951605019187
 31
0.0
  0
SPLINE
  5
1BE
330
1F
100
AcDbEntity
  8
0
  6
Continuous
 62
     1
370
    15
100
AcDbSpline
210
0.0
220
0.0
230
1.0
 70
     8
 71
     3
 72
    12
 73
     8
 74
     0
 42
0.000000001
 43
0.00000001
 40
0.0
 40
0.0
 40
0.0
 40
0.0
 40
0.5
 40
0.5
 40
0.75
 40
0.75
 40
1.0
 40
1.0
 40
1.0
 40
1.0
 10
11.47049512956198
 20
-3.172047034854229
 30
0.0
 10
11.43370472249566
 20
-3.180848873359926
 30
0.0
 10
11.39532866016149
 20
-3.125066351471093
 30
0.0
 10
11.34042379592389
 20
-2.952297811170056
 30
0.0
 10
11.32300183390562
 20
-2.880967225255462
 30
0.0
 10
11.28753494541889
 20
-2.710670951056736
 30
0.0
 10
11.26916131799765
 20
-2.610906344681021
 30
0.0
 10
11.25053567875089
 20
-2.498080747030675
 30
0.0
  0
SPLINE
  5
1BF
330
1F
100
AcDbEntity
  8
0
  6
Continuous
 62
     1
370
    15
100
AcDbSpline
210
0.0
220
0.0
230
1.0
 70
     8
 71
     3
 72
    11
 73
     7
 74
     0
 42
0.000000001
 43
0.00000001
 40
0.0
 40
0.0
 40
0.0
 40
0.0
 40
0.2602581912952599
 40
0.5205639560067025
 40
0.777600175023718
 40
1.0
 40
1.0
 40
1.0
 40
1.0
 10
20.6697192817384
 20
2.493478423895861
 30
0.0
 10
20.65266001297213
 20
2.588858531777926
 30
0.0
 10
20.61853835712201
 20
2.779636182373002
 30
0.0
 10
20.56696050495252
 20
2.973621122082619
 30
0.0
 10
20.52009028781009
 20
3.104865685058658
 30
0.0
 10
20.48906202138047
 20
3.113708142349024
 30
0.0
 10
20.47466869173886
 20
3.117809963600005
 30
0.0
  0
LINE
  5
1C0
330
1F
100
AcDbEntity
  8
0
  6
Continuous
 62
     1
370
    15
100
AcDbLine
 10
23.19074737634442
 20
-3.055960289716486
 30
0.0
 11
23.18390558072518
 21
-3.053343060332743
 31
0.0
  0
SPLINE
  5
1C1
330
1F
100
AcDbEntity
  8
0
  6
Continuous
 62
     1
370
    15
100
AcDbSpline
210
0.0
220
0.0
230
1.0
 70
     8
 71
     3
 72
    10
 73
     6
 74
     0
 42
0.000000001
 43
0.00000001
 40
0.0
 40
0.0
 40
0.0
 40
0.0
 40
0.5
 40
0.5
 40
1.0
 40
1.0
 40
1.0
 40
1.0
 10
11.73436979858352
 20
-3.073975913684298
 30
0.0
 10
11.69762661701253
 20
-3.101285429205714
 30
0.0
 10
11.65874085247718
 20
-3.065226042003925
 30
0.0
 10
11.58365575639087
 20
-2.87025863383188
 30
0.0
 10
11.54904604593541
 20
-2.716108226965264
 30
0.0
 10
11.51157705188679
 20
-2.506791945106658
 30
0.0
  0
SPLINE
  5
1C2
330
1F
100
AcDbEntity
  8
0
  6
Continuous
 62
     1
370
    15
100
AcDbSpline
210
0.0
220
0.0
230
1.0
 70
     8
 71
     3
 72
    12
 73
     8
 74
     0
 42
0.000000001
 43
0.00000001
 40
0.0
 40
0.0
 40
0.0
 40
0.0
 40
0.5
 40
0.5
 40
0.75
 40
0.75
 40
1.0
 40
1.0
 40
1.0
 40
1.0
 10
20.40868823837524
 20
2.49967959682192
 30
0.0
 10
20.37104298747117
 20
2.70446352478438
 30
0.0
 10
20.33223189622178
 20
2.85779008426586
 30
0.0
 10
20.27746473363293
 20
2.992502155316806
 30
0.0
 10
20.26008908995099
 20
3.022028554123945
 30
0.0
 10
20.22343506695967
 20
3.051299478594388
 30
0.0
 10
20.20456522105167
 20
3.050514722445446
 30
0.0
 10
20.18557476845204
 20
3.033776643961584
 30
0.0
  0
SPLINE
  5
1C3
330
1F
100
AcDbEntity
  8
0
  6
Continuous
 62
     1
370
    15
100
AcDbSpline
210
0.0
220
0.0
230
1.0
 70
     8
 71
     3
 72
    10
 73
     6
 74
     0
 42
0.000000001
 43
0.00000001
 40
0.0
 40
0.0
 40
0.0
 40
0.0
 40
0.1549343374569731
 40
0.5804127137605887
 40
1.0
 40
1.0
 40
1.0
 40
1.0
 10
23.45320856798629
 20
-3.152198412390558
 30
0.0
 10
23.44424404667057
 20
-3.15466451754941
 30
0.0
 10
23.41066129006655
 20
-3.163903004066742
 30
0.0
 10
23.35156327138674
 20
-3.014982407571774
 30
0.0
 10
23.3040096379929
 20
-2.783821184254204
 30
0.0
 10
23.28039857334912
 20
-2.66904630382216
 30
0.0
  0
LINE
  5
1C4
330
1F
100
AcDbEntity
  8
0
  6
Continuous
 62
     1
370
    15
100
AcDbLine
 10
12.18965370879716
 20
-3.06857711441896
 30
0.0
 11
12.18635257063064
 21
-3.06308135437456
 31
0.0
  0
LINE
  5
1C5
330
1F
100
AcDbEntity
  8
0
  6
Continuous
 62
     1
370
    15
100
AcDbLine
 10
19.7381953756723
 20
3.022251677238723
 30
0.0
 11
19.73496735246061
 21
3.02487633751309
 31
0.0
  0
LINE
  5
1C6
330
1F
100
AcDbEntity
  8
0
  6
Continuous
 62
     1
370
    15
100
AcDbLine
 10
23.73416639767642
 20
-3.053978268514633
 30
0.0
 11
23.72173901207319
 21
-3.060365678954558
 31
0.0
  0
LINE
  5
1C7
330
1F
100
AcDbEntity
  8
0
  6
Continuous
 62
     1
370
    15
100
AcDbLine
 10
12.73998897554346
 20
-3.054113568345306
 30
0.0
 11
12.73600877355344
 21
-3.056973129751304
 31
0.0
  0
LINE
  5
1C8
330
1F
100
AcDbEntity
  8
0
  6
Continuous
 62
     1
370
    15
100
AcDbLine
 10
28.96215701540224
 20
0.5944870012758773
 30
0.0
 11
28.96215701540224
 21
2.037853280105956
 31
0.0
  0
LINE
  5
1C9
330
1F
100
AcDbEntity
  8
0
  6
Continuous
 62
     1
370
    15
100
AcDbLine
 10
13.19090386858798
 20
-3.0630432572709
 30
0.0
 11
13.1871370880355
 21
-3.060249706002382
 31
0.0
  0
LINE
  5
1CA
330
1F
100
AcDbEntity
  8
0
  6
Continuous
 62
     1
370
    15
100
AcDbLine
 10
18.73703823378127
 20
3.022654804194173
 30
0.0
 11
18.73371972559008
 21
3.025294772072567
 31
0.0
  0
SPLINE
  5
1CB
330
1F
100
AcDbEntity
  8
0
  6
Continuous
 62
     1
370
    15
100
AcDbSpline
210
0.0
220
0.0
230
1.0
 70
     8
 71
     3
 72
     9
 73
     5
 74
     0
 42
0.000000001
 43
0.00000001
 40
0.0
 40
0.0
 40
0.0
 40
0.0
 40
0.1953427504846987
 40
1.0
 40
1.0
 40
1.0
 40
1.0
 10
13.46367658246596
 20
-3.158033962993922
 30
0.0
 10
13.45783608695144
 20
-3.162894961226568
 30
0.0
 10
13.42793738070292
 20
-3.18777941801129
 30
0.0
 10
13.39714034416752
 20
-3.111373830059169
 30
0.0
 10
13.37235928545573
 20
-3.049893519810016
 30
0.0
  0
SPLINE
  5
1CC
330
1F
100
AcDbEntity
  8
0
  6
Continuous
 62
     1
370
    15
100
AcDbSpline
210
0.0
220
0.0
230
1.0
 70
     8
 71
     3
 72
     9
 73
     5
 74
     0
 42
0.000000001
 43
0.00000001
 40
0.0
 40
0.0
 40
0.0
 40
0.0
 40
0.3312003235133621
 40
0.9999999999999999
 40
0.9999999999999999
 40
0.9999999999999999
 40
0.9999999999999999
 10
18.54546488694568
 20
3.02810057757807
 30
0.0
 10
18.53623362178874
 20
3.05064481885913
 30
0.0
 10
18.50836147160778
 20
3.118713113726455
 30
0.0
 10
18.4799194344003
 20
3.126342390623138
 30
0.0
 10
18.46089740911731
 20
3.131444848543467
 30
0.0
  0
SPLINE
  5
1CD
330
1F
100
AcDbEntity
  8
0
  6
Continuous
 62
     1
370
    15
100
AcDbSpline
210
0.0
220
0.0
230
1.0
 70
     8
 71
     3
 72
     9
 73
     5
 74
     0
 42
0.000000001
 43
0.00000001
 40
0.0
 40
0.0
 40
0.0
 40
0.0
 40
0.0288006401454596
 40
1.0
 40
1.0
 40
1.0
 40
1.0
 10
25.46276434220001
 20
-3.171490612405618
 30
0.0
 10
25.4621976529747
 20
-3.171984537809299
 30
0.0
 10
25.44252138111225
 20
-3.189134344243666
 30
0.0
 10
25.42212272291657
 20
-3.152961323566234
 30
0.0
 10
25.40231155913504
 20
-3.117830109040307
 30
0.0
  0
LINE
  5
1CE
330
1F
100
AcDbEntity
  8
0
  6
Continuous
 62
     1
370
    15
100
AcDbLine
 10
28.96215701540224
 20
-1.686308216219836
 30
0.0
 11
28.96215701540224
 21
-1.874102761613119
 31
0.0
  0
LINE
  5
1CF
330
1F
100
AcDbEntity
  8
0
  6
Continuous
 62
     1
370
    15
100
AcDbLine
 10
28.95064332468103
 20
2.951016471060283
 30
0.0
 11
28.9515388067485
 21
2.951977450836304
 31
0.0
  0
SPLINE
  5
1D0
330
1F
100
AcDbEntity
  8
0
  6
Continuous
 62
     1
370
    15
100
AcDbSpline
210
0.0
220
0.0
230
1.0
 70
     8
 71
     3
 72
    11
 73
     7
 74
     0
 42
0.000000001
 43
0.00000001
 40
0.0
 40
0.0
 40
0.0
 40
0.0
 40
0.1315453230114855
 40
0.4727928023623149
 40
0.8114892447464183
 40
1.0
 40
1.0
 40
1.0
 40
1.0
 10
11.16990767182318
 20
-3.038238826903938
 30
0.0
 10
11.16172187790984
 20
-3.030963304798701
 30
0.0
 10
11.13230095776423
 20
-3.004814032395579
 30
0.0
 10
11.08255988364829
 20
-2.836775245640219
 30
0.0
 10
11.03097211416102
 20
-2.592833435658664
 30
0.0
 10
10.99820442566898
 20
-2.395637838567933
 30
0.0
 10
10.98648785250149
 20
-2.325127627199761
 30
0.0
  0
SPLINE
  5
1D1
330
1F
100
AcDbEntity
  8
0
  6
Continuous
 62
     1
370
    15
100
AcDbSpline
210
0.0
220
0.0
230
1.0
 70
     8
 71
     3
 72
    11
 73
     7
 74
     0
 42
0.000000001
 43
0.00000001
 40
0.0
 40
0.0
 40
0.0
 40
0.0
 40
0.3100854931597317
 40
0.621213176541312
 40
0.9284827745779423
 40
1.0
 40
1.0
 40
1.0
 40
1.0
 10
20.93351307453154
 20
2.321682188244992
 30
0.0
 10
20.91474065743881
 20
2.43140171422603
 30
0.0
 10
20.87713272959057
 20
2.651209530995378
 30
0.0
 10
20.8197136725384
 20
2.870502579935569
 30
0.0
 10
20.77898420985364
 20
2.992171312864463
 30
0.0
 10
20.75636923791172
 20
3.00843185824052
 30
0.0
 10
20.75209939549346
 20
3.011501946789341
 30
0.0
  0
SPLINE
  5
1D2
330
1F
100
AcDbEntity
  8
0
  6
Continuous
 62
     1
370
    15
100
AcDbSpline
210
0.0
220
0.0
230
1.0
 70
     8
 71
     3
 72
    11
 73
     7
 74
     0
 42
0.000000001
 43
0.00000001
 40
0.0
 40
0.0
 40
0.0
 40
0.0
 40
0.1078885922017437
 40
0.5414662813403581
 40
0.9703101228089941
 40
1.0
 40
1.0
 40
1.0
 40
1.0
 10
23.18390558072518
 20
-3.053343060332743
 30
0.0
 10
23.17781206285414
 20
-3.052181671414297
 30
0.0
 10
23.14723019692581
 20
-3.046352946374629
 30
0.0
 10
23.09195424356071
 20
-2.877351113231303
 30
0.0
 10
23.04389189271833
 20
-2.655418682466295
 30
0.0
 10
23.01811902206098
 20
-2.511920186297364
 30
0.0
 10
23.01645023886459
 20
-2.502628715343377
 30
0.0
  0
SPLINE
  5
1D3
330
1F
100
AcDbEntity
  8
0
  6
Continuous
 62
     1
370
    15
100
AcDbSpline
210
0.0
220
0.0
230
1.0
 70
     8
 71
     3
 72
     9
 73
     5
 74
     0
 42
0.000000001
 43
0.00000001
 40
0.0
 40
0.0
 40
0.0
 40
0.0
 40
0.4780973037023445
 40
1.0
 40
1.0
 40
1.0
 40
1.0
 10
12.18635257063064
 20
-3.06308135437456
 30
0.0
 10
12.16336956216541
 20
-3.03660721434974
 30
0.0
 10
12.11529774020101
 20
-2.981233256329468
 30
0.0
 10
12.0692617950463
 20
-2.774532990664762
 30
0.0
 10
12.04523551114345
 20
-2.666655564688911
 30
0.0
  0
SPLINE
  5
1D4
330
1F
100
AcDbEntity
  8
0
  6
Continuous
 62
     1
370
    15
100
AcDbSpline
210
0.0
220
0.0
230
1.0
 70
     8
 71
     3
 72
    10
 73
     6
 74
     0
 42
0.000000001
 43
0.00000001
 40
0.0
 40
0.0
 40
0.0
 40
0.0
 40
0.3932924974420225
 40
0.781660637950372
 40
0.9999999999999999
 40
0.9999999999999999
 40
0.9999999999999999
 40
0.9999999999999999
 10
19.87451156711301
 20
2.655469588678473
 30
0.0
 10
19.85625668497448
 20
2.731263065424747
 30
0.0
 10
19.81997548736477
 20
2.881901020054692
 30
0.0
 10
19.77542674814454
 20
3.001337915095347
 30
0.0
 10
19.7480482391429
 20
3.016717085592691
 30
0.0
 10
19.7381953756723
 20
3.022251677238723
 30
0.0
  0
SPLINE
  5
1D5
330
1F
100
AcDbEntity
  8
0
  6
Continuous
 62
     1
370
    15
100
AcDbSpline
210
0.0
220
0.0
230
1.0
 70
     8
 71
     3
 72
    10
 73
     6
 74
     0
 42
0.000000001
 43
0.00000001
 40
0.0
 40
0.0
 40
0.0
 40
0.0
 40
0.1784510410017389
 40
0.5922553487842364
 40
1.0
 40
1.0
 40
1.0
 40
1.0
 10
23.72173901207319
 20
-3.060365678954558
 30
0.0
 10
23.71107628712307
 20
-3.068887747077905
 30
0.0
 10
23.67568811651407
 20
-3.097171361454281
 30
0.0
 10
23.61345292739752
 20
-2.976495763160617
 30
0.0
 10
23.56518572882848
 20
-2.766809775996734
 30
0.0
 10
23.54123013637092
 20
-2.662740093034417
 30
0.0
  0
SPLINE
  5
1D6
330
1F
100
AcDbEntity
  8
0
  6
Continuous
 62
     1
370
    15
100
AcDbSpline
210
0.0
220
0.0
230
1.0
 70
     8
 71
     3
 72
    10
 73
     6
 74
     0
 42
0.000000001
 43
0.00000001
 40
0.0
 40
0.0
 40
0.0
 40
0.0
 40
0.1986502160435436
 40
0.6011582345960239
 40
1.0
 40
1.0
 40
1.0
 40
1.0
 10
12.73600877355344
 20
-3.056973129751304
 30
0.0
 10
12.72552364874594
 20
-3.067340799744424
 30
0.0
 10
12.69379340830454
 20
-3.098715596681833
 30
0.0
 10
12.63861983345645
 20
-3.023075344776091
 30
0.0
 10
12.59620159295963
 20
-2.875484096171324
 30
0.0
 10
12.57508950649777
 20
-2.802026094022664
 30
0.0
  0
SPLINE
  5
1D7
330
1F
100
AcDbEntity
  8
0
  6
Continuous
 62
     1
370
    15
100
AcDbSpline
210
0.0
220
0.0
230
1.0
 70
     8
 71
     3
 72
    11
 73
     7
 74
     0
 42
0.000000001
 43
0.00000001
 40
0.0
 40
0.0
 40
0.0
 40
0.0
 40
0.2447517477088904
 40
0.4866012112163348
 40
0.9534022799654772
 40
1.0
 40
1.0
 40
1.0
 40
1.0
 10
19.34335611623283
 20
2.786828126349493
 30
0.0
 10
19.33044467720972
 20
2.832494824070306
 30
0.0
 10
19.30477490395576
 20
2.923286700456124
 30
0.0
 10
19.25636125766361
 20
3.025347506768305
 30
0.0
 10
19.21731723968814
 20
3.078637984884986
 30
0.0
 10
19.19015203839405
 20
3.032447764231843
 30
0.0
 10
19.18768643763254
 20
3.028255391718797
 30
0.0
  0
SPLINE
  5
1D8
330
1F
100
AcDbEntity
  8
0
  6
Continuous
 62
     1
370
    15
100
AcDbSpline
210
0.0
220
0.0
230
1.0
 70
     8
 71
     3
 72
     9
 73
     5
 74
     0
 42
0.000000001
 43
0.00000001
 40
0.0
 40
0.0
 40
0.0
 40
0.0
 40
0.4134793276959446
 40
1.0
 40
1.0
 40
1.0
 40
1.0
 10
24.18414824577911
 20
-3.055355037375261
 30
0.0
 10
24.16875043523392
 20
-3.042577712129654
 30
0.0
 10
24.13151082127065
 20
-3.011675743422278
 30
0.0
 10
24.09528611933765
 20
-2.876795561266515
 30
0.0
 10
24.07403958280589
 20
-2.797685546148025
 30
0.0
  0
SPLINE
  5
1D9
330
1F
100
AcDbEntity
  8
0
  6
Continuous
 62
     1
370
    15
100
AcDbSpline
210
0.0
220
0.0
230
1.0
 70
     8
 71
     3
 72
    10
 73
     6
 74
     0
 42
0.000000001
 43
0.00000001
 40
0.0
 40
0.0
 40
0.0
 40
0.0
 40
0.1846834263687809
 40
0.5928080787655305
 40
1.0
 40
1.0
 40
1.0
 40
1.0
 10
24.73886116772319
 20
-3.059379344203435
 30
0.0
 10
24.73076380921787
 20
-3.068201413132555
 30
0.0
 10
24.70477241609185
 20
-3.096519025792422
 30
0.0
 10
24.65904844436892
 20
-3.054477636591429
 30
0.0
 10
24.6225412542195
 20
-2.957199295881952
 30
0.0
 10
24.60430854145909
 20
-2.908615769275134
 30
0.0
  0
SPLINE
  5
1DA
330
1F
100
AcDbEntity
  8
0
  6
Continuous
 62
     1
370
    15
100
AcDbSpline
210
0.0
220
0.0
230
1.0
 70
     8
 71
     3
 72
     9
 73
     5
 74
     0
 42
0.000000001
 43
0.00000001
 40
0.0
 40
0.0
 40
0.0
 40
0.0
 40
0.3070538868456741
 40
1.0
 40
1.0
 40
1.0
 40
1.0
 10
13.1871370880355
 20
-3.060249706002382
 30
0.0
 10
13.17905311466395
 20
-3.056226948893587
 30
0.0
 10
13.15272557504351
 20
-3.043125805149339
 30
0.0
 10
13.12655353860242
 20
-2.967374722075991
 30
0.0
 10
13.10841772767723
 20
-2.914883303493083
 30
0.0
  0
SPLINE
  5
1DB
330
1F
100
AcDbEntity
  8
0
  6
Continuous
 62
     1
370
    15
100
AcDbSpline
210
0.0
220
0.0
230
1.0
 70
     8
 71
     3
 72
     9
 73
     5
 74
     0
 42
0.000000001
 43
0.00000001
 40
0.0
 40
0.0
 40
0.0
 40
0.0
 40
0.6155045047582548
 40
1.0
 40
1.0
 40
1.0
 40
1.0
 10
18.80927397601761
 20
2.895355245424329
 30
0.0
 10
18.79450592245349
 20
2.937545495338846
 30
0.0
 10
18.77051250981398
 20
3.006091297340876
 30
0.0
 10
18.74633455029894
 20
3.018054865955019
 30
0.0
 10
18.73703823378127
 20
3.022654804194173
 30
0.0
  0
LINE
  5
1DC
330
1F
100
AcDbEntity
  8
0
  6
Continuous
 62
     1
370
    15
100
AcDbLine
 10
25.18499927786465
 20
-3.055276105898066
 30
0.0
 11
25.13826532777464
 21
-2.995528626877349
 31
0.0
  0
SPLINE
  5
1DD
330
1F
100
AcDbEntity
  8
0
  6
Continuous
 62
     1
370
    15
100
AcDbSpline
210
0.0
220
0.0
230
1.0
 70
     8
 71
     3
 72
     9
 73
     5
 74
     0
 42
0.000000001
 43
0.00000001
 40
0.0
 40
0.0
 40
0.0
 40
0.0
 40
0.3468676487052633
 40
1.0
 40
1.0
 40
1.0
 40
1.0
 10
13.7349829418224
 20
-3.0573357621742
 30
0.0
 10
13.72345305450308
 20
-3.069416779175656
 30
0.0
 10
13.69021303525551
 20
-3.104245674423019
 30
0.0
 10
13.65584207256678
 20
-3.039494357157942
 30
0.0
 10
13.63339328488963
 20
-2.99720317706317
 30
0.0
  0
SPLINE
  5
1DE
330
1F
100
AcDbEntity
  8
0
  6
Continuous
 62
     1
370
    15
100
AcDbSpline
210
0.0
220
0.0
230
1.0
 70
     8
 71
     3
 72
    10
 73
     6
 74
     0
 42
0.000000001
 43
0.00000001
 40
0.0
 40
0.0
 40
0.0
 40
0.0
 40
0.1524281488314886
 40
0.870431223632168
 40
1.0
 40
1.0
 40
1.0
 40
1.0
 10
18.28478772557941
 20
2.972798138342096
 30
0.0
 10
18.28003724021346
 20
2.982219497233162
 30
0.0
 10
18.25290989646741
 20
3.036019566385055
 30
0.0
 10
18.22103220130617
 20
3.076393143669784
 30
0.0
 10
18.19340376463381
 20
3.032721565074989
 30
0.0
 10
18.18918019028119
 20
3.026045466768068
 30
0.0
  0
LINE
  5
1DF
330
1F
100
AcDbEntity
  8
0
  6
Continuous
 62
     1
370
    15
100
AcDbLine
 10
14.19148528227512
 20
-3.064529668570852
 30
0.0
 11
14.16746362422449
 21
-3.050586537934386
 31
0.0
  0
LINE
  5
1E0
330
1F
100
AcDbEntity
  8
0
  6
Continuous
 62
     1
370
    15
100
AcDbLine
 10
17.75204313804424
 20
3.02125704219986
 30
0.0
 11
17.73113165395302
 21
3.022673180376289
 31
0.0
  0
SPLINE
  5
1E1
330
1F
100
AcDbEntity
  8
0
  6
Continuous
 62
     1
370
    15
100
AcDbSpline
210
0.0
220
0.0
230
1.0
 70
     8
 71
     3
 72
     9
 73
     5
 74
     0
 42
0.000000001
 43
0.00000001
 40
0.0
 40
0.0
 40
0.0
 40
0.0
 40
0.2596641177987937
 40
0.9999999999999999
 40
0.9999999999999999
 40
0.9999999999999999
 40
0.9999999999999999
 10
25.73279505926192
 20
-3.066196387626042
 30
0.0
 10
25.72691893516994
 20
-3.072848012187639
 30
0.0
 10
25.70428922359564
 20
-3.098464276067236
 30
0.0
 10
25.68080663991563
 20
-3.071293029375966
 30
0.0
 10
25.66342164061052
 20
-3.051177180486279
 30
0.0
  0
LINE
  5
1E2
330
1F
100
AcDbEntity
  8
0
  6
Continuous
 62
     1
370
    15
100
AcDbLine
 10
14.73527082677599
 20
-3.054719023808718
 30
0.0
 11
14.69875664709208
 21
-3.077818321623995
 31
0.0
  0
LINE
  5
1E3
330
1F
100
AcDbEntity
  8
0
  6
Continuous
 62
     1
370
    15
100
AcDbLine
 10
17.22146520593375
 20
3.043641064809444
 30
0.0
 11
17.187721088118
 21
3.018193446404479
 31
0.0
  0
LINE
  5
1E4
330
1F
100
AcDbEntity
  8
0
  6
Continuous
 62
     1
370
    15
100
AcDbLine
 10
26.7455332185739
 20
-3.05842323078319
 30
0.0
 11
26.72855828288976
 21
-3.076966915025146
 31
0.0
  0
LINE
  5
1E5
330
1F
100
AcDbEntity
  8
0
  6
Continuous
 62
     8
370
    15
100
AcDbLine
 10
28.19234622150762
 20
3.039077593437857
 30
0.0
 11
28.18990838737475
 21
3.035340868745186
 31
0.0
  0
LINE
  5
1E6
330
1F
100
AcDbEntity
  8
중심선
100
AcDbLine
 10
-34.53784298459777
 20
-0.0000000000000034
 30
0.0
 11
28.96215701540223
 21
-0.0000000000000034
 31
0.0
  0
CIRCLE
  5
1E7
330
1F
100
AcDbEntity
  8
외형선
100
AcDbCircle
 10
-0.0000000000000013
 20
-0.0000000000000039
 30
0.0
 40
3.000000000000004
  0
INSERT
  5
1E8
330
1F
100
AcDbEntity
  8
0
  6
Continuous
 62
     7
100
AcDbBlockReference
 66
     1
  2
블럭10
 10
-16.63945112874702
 20
-52.04717430164393
 30
0.0
  0
ATTRIB
  5
1E9
330
1E8
100
AcDbEntity
  8
FORMAT
 62
     2
100
AcDbText
 10
-25.70707290932103
 20
-49.97180738881174
 30
0.0
 40
4.233333333333333
  1
E5E44016 [ 3 FLUTE ]
 41
0.75
  7
SLDTEXTSTYLE0
 11
-25.70707290932103
 21
-52.08847405547841
 31
0.0
100
AcDbAttribute
  2
AUTOATTR0
 70
     0
 74
     1
  0
SEQEND
  5
1EA
330
1E8
100
AcDbEntity
  8
0
  6
Continuous
 62
     7
  0
HATCH
  5
1EB
330
1F
100
AcDbEntity
  8
중심선
100
AcDbHatch
 10
0.0
 20
0.0
 30
0.0
210
0.0
220
0.0
230
1.0
  2
SOLID
 70
     1
 71
     0
 91
        1
 92
        0
 93
        4
 72
     1
 10
-10.92454182436617
 20
-35.8
 11
-14.37081706820345
 21
-35.8
 72
     1
 10
-14.37081706820345
 20
-35.8
 11
-16.49904692740747
 21
-38.33632558057259
 72
     1
 10
-16.49904692740747
 20
-38.33632558057259
 11
-13.05273859845704
 21
-38.3362861512701
 72
     1
 10
-13.05273859845704
 20
-38.3362861512701
 11
-10.92454182436617
 21
-35.8
 97
        0
 75
     0
 76
     1
 98
        1
 10
0.0
 20
0.0
  0
HATCH
  5
1EC
330
1F
100
AcDbEntity
  8
중심선
100
AcDbHatch
 10
0.0
 20
0.0
 30
0.0
210
0.0
220
0.0
230
1.0
  2
SOLID
 70
     1
 71
     0
 91
        1
 92
        0
 93
        4
 72
     1
 10
-5.911777833330217
 20
-35.8
 11
-9.358053077167499
 21
-35.8
 72
     1
 10
-9.358053077167499
 20
-35.8
 11
-13.88919108552489
 21
-41.20000000000002
 72
     1
 10
-13.88919108552489
 20
-41.20000000000002
 11
-10.44291584168761
 21
-41.20000000000002
 72
     1
 10
-10.44291584168761
 20
-41.20000000000002
 11
-5.911777833330217
 21
-35.8
 97
        0
 75
     0
 76
     1
 98
        1
 10
0.0
 20
0.0
  0
HATCH
  5
1ED
330
1F
100
AcDbEntity
  8
중심선
100
AcDbHatch
 10
0.0
 20
0.0
 30
0.0
210
0.0
220
0.0
230
1.0
  2
SOLID
 70
     1
 71
     0
 91
        1
 92
        0
 93
        4
 72
     1
 10
-0.8990138422943217
 20
-35.80000000000003
 11
-4.345289086131437
 21
-35.8
 72
     1
 10
-4.345289086131437
 20
-35.8
 11
-11.39372598802069
 21
-44.20000000000002
 72
     1
 10
-11.39372598802069
 20
-44.20000000000002
 11
-7.947450744183405
 21
-44.20000000000002
 72
     1
 10
-7.947450744183405
 20
-44.20000000000002
 11
-0.8990138422943215
 21
-35.80000000000003
 97
        0
 75
     0
 76
     1
 98
        1
 10
0.0
 20
0.0
  0
HATCH
  5
1EE
330
1F
100
AcDbEntity
  8
중심선
100
AcDbHatch
 10
0.0
 20
0.0
 30
0.0
210
0.0
220
0.0
230
1.0
  2
SOLID
 70
     1
 71
     0
 91
        1
 92
        0
 93
        6
 72
     3
 10
3.900876588717877
 20
-40.00000000005127
 11
3.960054785062284
 21
1.540850780301639E-10
 40
0.3939339440162633
 50
17.09539180608433
 51
320.0019657685079
 73
     0
 72
     1
 10
5.583876244418473
 20
-38.5878940046383
 11
7.889178118119511
 21
-36.65356729459038
 72
     3
 10
3.900876588665031
 20
-40.00000000000015
 11
6.600054785286829
 21
-1.249000902703301E-13
 40
0.6363583540795982
 50
39.99873849337408
 51
368.4976242363724
 73
     1
 72
     1
 10
10.32620908056564
 20
-39.03999999993002
 11
2.580943895500953
 21
-39.03999999992999
 72
     1
 10
2.580943895500953
 20
-39.03999999992999
 11
2.58091885105502
 21
-40.95999999992991
 72
     1
 10
2.58091885105502
 20
-40.95999999992991
 11
7.022298620527057
 21
-40.95999999992988
 97
        0
 75
     0
 76
     1
 98
        1
 10
0.0
 20
0.0
  0
POINT
  5
1EF
330
1F
100
AcDbEntity
  8
치수문자_일반주서
100
AcDbPoint
 10
-0.0000000000000013
 20
-0.0000000000000039
 30
0.0
  0
DIMENSION
  5
1F0
102
{ACAD_XDICTIONARY
360
298
102
}
330
1F
100
AcDbEntity
  8
치수문자_일반주서
100
AcDbDimension
  2
_D
 10
9.912157015402233
 20
12.60433160867749
 30
0.0
 11
19.43715701540222
 21
12.60433160867749
 31
0.0
 70
   160
  1
<>
 71
     2
 42
19.05
  3
SLDDIMSTYLE0
100
AcDbAlignedDimension
 13
28.96215701540223
 23
2.037853280105956
 33
0.0
 14
9.912157015402233
 24
3.224232278437842
 34
0.0
 50
0.0000000000000534
100
AcDbRotatedDimension
1001
ACAD
1000
DSTYLE
1002
{
1070
   171
1070
     6
1070
   273
1070
     7
1002
}
1001
ENABLE_CUSTOM_SPLIT
1070
     1
  0
DIMENSION
  5
206
330
1F
100
AcDbEntity
  8
치수문자_일반주서
100
AcDbDimension
  2
_D_1
 10
-34.53784298459777
 20
24.3394406096044
 30
0.0
 11
-1.111549056260578
 21
24.3394406096044
 31
0.0
 70
   160
  1
<>
 71
     2
 42
63.50000000000001
  3
SLDDIMSTYLE1
100
AcDbAlignedDimension
 13
28.96215701540224
 23
2.938909041225266
 33
0.0
 14
-34.53784298459777
 24
2.657028192511451
 34
0.0
 50
0.0000000000000064
100
AcDbRotatedDimension
1001
ACAD
1000
DSTYLE
1002
{
1070
   171
1070
     6
1070
   273
1070
     7
1002
}
  0
DIMENSION
  5
21A
330
1F
100
AcDbEntity
  8
치수문자_일반주서
100
AcDbDimension
  2
_D_2
 10
-48.30984065240877
 20
-3.192971807488597
 30
0.0
 11
-48.30984065240885
 21
22.4485281925114
 31
0.0
 70
   160
  1
%%c<>
 71
     2
 42
6.35
  3
SLDDIMSTYLE0
100
AcDbAlignedDimension
 13
-34.03784298459777
 23
3.157028192511451
 33
0.0
 14
-34.03784298459777
 24
-3.192971807488548
 34
0.0
 50
90.0000000000002
100
AcDbRotatedDimension
1001
ACAD
1000
DSTYLE
1002
{
1070
   171
1070
     6
1070
   273
1070
     7
1002
}
  0
INSERT
  5
234
330
1F
100
AcDbEntity
  8
외형선
100
AcDbBlockReference
  2
SW_DOWELSYMBOL_0
 10
-0.0000000000000013
 20
-0.0000000000000039
 30
0.0
  0
DIMENSION
  5
25E
330
1F
100
AcDbEntity
  8
치수문자_일반주서
100
AcDbDimension
  2
*D6
 10
42.80175714933332
 20
-3.192971807488544
 30
0.0
 11
42.80175714933332
 21
22.44852819251145
 31
0.0
 70
   160
  1
{%%c<>[]}
 71
     5
 42
6.35
  3
SLDDIMSTYLE0
100
AcDbAlignedDimension
 13
28.96215701540224
 23
3.157028192511456
 33
0.0
 14
28.96215701540224
 24
-3.192971807488544
 34
0.0
 50
90.0
100
AcDbRotatedDimension
1001
ACAD
1000
DSTYLE
1002
{
1070
   283
1070
     1
1070
   170
1070
     1
1070
   171
1070
     6
1070
   273
1070
     7
1002
}
  0
ENDSEC
  0
SECTION
  2
OBJECTS
  0
DICTIONARY
  5
C
330
0
100
AcDbDictionary
281
     1
  3
ACAD_GROUP
350
D
  3
ACAD_IMAGE_VARS
350
258
  3
ACAD_LAYOUT
350
1A
  3
ACAD_MLINESTYLE
350
17
  3
ACAD_PLOTSETTINGS
350
19
  3
ACAD_PLOTSTYLENAME
350
E
  3
ACAD_SCALELIST
350
47
  3
APPDATA
350
256
  3
DWGPROPS
350
29D
  0
DICTIONARY
  5
29B
330
1F
100
AcDbDictionary
280
     1
281
     1
  3
DIM_BOUNDING_BOXES_V1
360
29C
  0
DICTIONARY
  5
298
330
1F0
100
AcDbDictionary
280
     1
281
     1
  3
ACAD_CUSTOM_BREAKDATA
360
299
  0
DICTIONARY
  5
D
102
{ACAD_REACTORS
330
C
102
}
330
C
100
AcDbDictionary
281
     1
  0
RASTERVARIABLES
  5
258
102
{ACAD_REACTORS
330
C
102
}
330
C
100
AcDbRasterVariables
 90
        0
 70
     1
 71
     1
 72
     1
  0
DICTIONARY
  5
1A
102
{ACAD_REACTORS
330
C
102
}
330
C
100
AcDbDictionary
281
     1
  3
Layout1
350
1E
  3
Layout2
350
26
  3
Model
350
22
  0
DICTIONARY
  5
17
102
{ACAD_REACTORS
330
C
102
}
330
C
100
AcDbDictionary
281
     1
  3
Standard
350
18
  0
DICTIONARY
  5
19
102
{ACAD_REACTORS
330
C
102
}
330
C
100
AcDbDictionary
281
     1
  0
ACDBDICTIONARYWDFLT
  5
E
102
{ACAD_REACTORS
330
C
102
}
330
C
100
AcDbDictionary
281
     1
  3
Normal
350
F
100
AcDbDictionaryWithDefault
340
F
  0
DICTIONARY
  5
47
102
{ACAD_REACTORS
330
C
102
}
330
C
100
AcDbDictionary
281
     1
  3
A0
350
48
  3
A1
350
49
  3
A2
350
4A
  3
A3
350
4B
  3
A4
350
4C
  3
A5
350
4D
  3
A6
350
4E
  3
A7
350
4F
  3
A8
350
50
  3
A9
350
51
  3
B0
350
52
  3
B1
350
53
  3
B2
350
54
  3
B3
350
55
  3
B4
350
56
  3
B5
350
57
  3
B6
350
58
  3
B7
350
59
  3
B8
350
5A
  3
B9
350
5B
  3
C0
350
5C
  3
C1
350
5D
  3
C2
350
5E
  3
C3
350
5F
  3
C4
350
60
  3
C5
350
61
  3
C6
350
62
  3
C7
350
63
  3
C8
350
64
  3
C9
350
65
  3
D0
350
66
  3
D1
350
67
  3
D2
350
68
  0
DICTIONARY
  5
256
102
{ACAD_REACTORS
330
C
102
}
330
C
100
AcDbDictionary
281
     1
  0
XRECORD
  5
29D
102
{ACAD_REACTORS
330
C
102
}
330
C
100
AcDbXrecord
280
     1
  1
DWGPROPS COOKIE
  2

  3

  4

  6

  7

  8
12014102
  9

300
=
301
=
302
=
303
=
304
=
305
=
306
=
307
=
308
=
309
=
 40
0.0
 41
2458270.406324514
 42
2459720.377092732
  1

 90
        0
  0
DICTIONARY
  5
29C
102
{ACAD_REACTORS
330
29B
102
}
330
29B
100
AcDbDictionary
281
     1
  0
BREAKDATA
  5
299
102
{ACAD_REACTORS
330
298
102
}
330
298
100
AcDbBreakData
 70
     0
330
1F0
 90
        2
100
AcDbBreakPointRef
 71
     0
 72
     0
 91
       -1
 10
0.0
 20
0.0
 30
0.0
 11
0.0
 21
0.0
 31
0.0
331
19B
 73
     2
 92
        0
100
AcDbBreakPointRef
 71
     0
 72
     0
 91
       -1
 10
0.0
 20
0.0
 30
0.0
 11
0.0
 21
0.0
 31
0.0
331
178
 73
     2
 92
        0
  0
LAYOUT
  5
1E
102
{ACAD_REACTORS
330
1A
102
}
330
1A
100
AcDbPlotSettings
  1

  2
none_device
  4

  6

 40
0.0
 41
0.0
 42
0.0
 43
0.0
 44
0.0
 45
0.0
 46
0.0
 47
0.0
 48
0.0
 49
0.0
140
0.0
141
0.0
142
1.0
143
1.0
 70
   688
 72
     1
 73
     0
 74
     5
  7

 75
    16
147
1.0
148
0.0
149
0.0
100
AcDbLayout
  1
Layout1
 70
     1
 71
     1
 10
0.0
 20
0.0
 11
420.0
 21
297.0
 12
0.0
 22
0.0
 32
0.0
 14
1.000000000000000E+20
 24
1.000000000000000E+20
 34
1.000000000000000E+20
 15
-1.000000000000000E+20
 25
-1.000000000000000E+20
 35
-1.000000000000000E+20
146
0.0
 13
0.0
 23
0.0
 33
0.0
 16
1.0
 26
0.0
 36
0.0
 17
0.0
 27
1.0
 37
0.0
 76
     0
330
1B
  0
LAYOUT
  5
26
102
{ACAD_REACTORS
330
1A
102
}
330
1A
100
AcDbPlotSettings
  1

  2
none_device
  4

  6

 40
0.0
 41
0.0
 42
0.0
 43
0.0
 44
0.0
 45
0.0
 46
0.0
 47
0.0
 48
0.0
 49
0.0
140
0.0
141
0.0
142
1.0
143
1.0
 70
   688
 72
     1
 73
     0
 74
     5
  7

 75
    16
147
1.0
148
0.0
149
0.0
100
AcDbLayout
  1
Layout2
 70
     1
 71
     2
 10
0.0
 20
0.0
 11
0.0
 21
0.0
 12
0.0
 22
0.0
 32
0.0
 14
0.0
 24
0.0
 34
0.0
 15
0.0
 25
0.0
 35
0.0
146
0.0
 13
0.0
 23
0.0
 33
0.0
 16
1.0
 26
0.0
 36
0.0
 17
0.0
 27
1.0
 37
0.0
 76
     0
330
23
  0
LAYOUT
  5
22
102
{ACAD_REACTORS
330
1A
102
}
330
1A
100
AcDbPlotSettings
  1

  2
none_device
  4
ANSI_A_(11.00_x_8.50_Inches)
  6

 40
6.35
 41
19.05
 42
6.35000508
 43
19.05000254
 44
279.4
 45
215.9
 46
154.1920544397954
 47
104.7473369368827
 48
0.0
 49
0.0
140
0.0
141
0.0
142
0.0800735294117647
143
1.0
 70
  1696
 72
     0
 73
     0
 74
     0
  7

 75
     0
147
0.0235690232323232
148
0.0
149
0.0
100
AcDbLayout
  1
Model
 70
     1
 71
     0
 10
0.0
 20
0.0
 11
420.0
 21
297.0
 12
0.0
 22
0.0
 32
0.0
 14
-52.68484065240881
 24
-49.97180738881174
 34
0.0
 15
43.35209048266666
 25
35.1360281925114
 35
0.0
146
0.0
 13
0.0
 23
0.0
 33
0.0
 16
1.0
 26
0.0
 36
0.0
 17
0.0
 27
1.0
 37
0.0
 76
     0
330
1F
331
29
  0
MLINESTYLE
  5
18
102
{ACAD_REACTORS
330
17
102
}
330
17
100
AcDbMlineStyle
  2
Standard
 70
     0
  3

 62
   256
 51
90.0
 52
90.0
 71
     2
 49
0.5
 62
   256
  6
BYLAYER
 49
-0.5
 62
   256
  6
BYLAYER
  0
ACDBPLACEHOLDER
  5
F
102
{ACAD_REACTORS
330
E
102
}
330
E
  0
SCALE
  5
48
102
{ACAD_REACTORS
330
47
102
}
330
47
100
AcDbScale
 70
     0
300
1:1
140
1.0
141
1.0
290
     1
  0
SCALE
  5
49
102
{ACAD_REACTORS
330
47
102
}
330
47
100
AcDbScale
 70
     0
300
1:2
140
1.0
141
2.0
290
     0
  0
SCALE
  5
4A
102
{ACAD_REACTORS
330
47
102
}
330
47
100
AcDbScale
 70
     0
300
1:4
140
1.0
141
4.0
290
     0
  0
SCALE
  5
4B
102
{ACAD_REACTORS
330
47
102
}
330
47
100
AcDbScale
 70
     0
300
1:5
140
1.0
141
5.0
290
     0
  0
SCALE
  5
4C
102
{ACAD_REACTORS
330
47
102
}
330
47
100
AcDbScale
 70
     0
300
1:8
140
1.0
141
8.0
290
     0
  0
SCALE
  5
4D
102
{ACAD_REACTORS
330
47
102
}
330
47
100
AcDbScale
 70
     0
300
1:10
140
1.0
141
10.0
290
     0
  0
SCALE
  5
4E
102
{ACAD_REACTORS
330
47
102
}
330
47
100
AcDbScale
 70
     0
300
1:16
140
1.0
141
16.0
290
     0
  0
SCALE
  5
4F
102
{ACAD_REACTORS
330
47
102
}
330
47
100
AcDbScale
 70
     0
300
1:20
140
1.0
141
20.0
290
     0
  0
SCALE
  5
50
102
{ACAD_REACTORS
330
47
102
}
330
47
100
AcDbScale
 70
     0
300
1:30
140
1.0
141
30.0
290
     0
  0
SCALE
  5
51
102
{ACAD_REACTORS
330
47
102
}
330
47
100
AcDbScale
 70
     0
300
1:40
140
1.0
141
40.0
290
     0
  0
SCALE
  5
52
102
{ACAD_REACTORS
330
47
102
}
330
47
100
AcDbScale
 70
     0
300
1:50
140
1.0
141
50.0
290
     0
  0
SCALE
  5
53
102
{ACAD_REACTORS
330
47
102
}
330
47
100
AcDbScale
 70
     0
300
1:100
140
1.0
141
100.0
290
     0
  0
SCALE
  5
54
102
{ACAD_REACTORS
330
47
102
}
330
47
100
AcDbScale
 70
     0
300
2:1
140
2.0
141
1.0
290
     0
  0
SCALE
  5
55
102
{ACAD_REACTORS
330
47
102
}
330
47
100
AcDbScale
 70
     0
300
4:1
140
4.0
141
1.0
290
     0
  0
SCALE
  5
56
102
{ACAD_REACTORS
330
47
102
}
330
47
100
AcDbScale
 70
     0
300
8:1
140
8.0
141
1.0
290
     0
  0
SCALE
  5
57
102
{ACAD_REACTORS
330
47
102
}
330
47
100
AcDbScale
 70
     0
300
10:1
140
10.0
141
1.0
290
     0
  0
SCALE
  5
58
102
{ACAD_REACTORS
330
47
102
}
330
47
100
AcDbScale
 70
     0
300
100:1
140
100.0
141
1.0
290
     0
  0
SCALE
  5
59
102
{ACAD_REACTORS
330
47
102
}
330
47
100
AcDbScale
 70
     0
300
1/128" = 1'-0"
140
0.0078125
141
12.0
290
     0
  0
SCALE
  5
5A
102
{ACAD_REACTORS
330
47
102
}
330
47
100
AcDbScale
 70
     0
300
1/64" = 1'-0"
140
0.015625
141
12.0
290
     0
  0
SCALE
  5
5B
102
{ACAD_REACTORS
330
47
102
}
330
47
100
AcDbScale
 70
     0
300
1/32" = 1'-0"
140
0.03125
141
12.0
290
     0
  0
SCALE
  5
5C
102
{ACAD_REACTORS
330
47
102
}
330
47
100
AcDbScale
 70
     0
300
1/16" = 1'-0"
140
0.0625
141
12.0
290
     0
  0
SCALE
  5
5D
102
{ACAD_REACTORS
330
47
102
}
330
47
100
AcDbScale
 70
     0
300
3/32" = 1'-0"
140
0.09375
141
12.0
290
     0
  0
SCALE
  5
5E
102
{ACAD_REACTORS
330
47
102
}
330
47
100
AcDbScale
 70
     0
300
1/8" = 1'-0"
140
0.125
141
12.0
290
     0
  0
SCALE
  5
5F
102
{ACAD_REACTORS
330
47
102
}
330
47
100
AcDbScale
 70
     0
300
3/16" = 1'-0"
140
0.1875
141
12.0
290
     0
  0
SCALE
  5
60
102
{ACAD_REACTORS
330
47
102
}
330
47
100
AcDbScale
 70
     0
300
1/4" = 1'-0"
140
0.25
141
12.0
290
     0
  0
SCALE
  5
61
102
{ACAD_REACTORS
330
47
102
}
330
47
100
AcDbScale
 70
     0
300
3/8" = 1'-0"
140
0.375
141
12.0
290
     0
  0
SCALE
  5
62
102
{ACAD_REACTORS
330
47
102
}
330
47
100
AcDbScale
 70
     0
300
1/2" = 1'-0"
140
0.5
141
12.0
290
     0
  0
SCALE
  5
63
102
{ACAD_REACTORS
330
47
102
}
330
47
100
AcDbScale
 70
     0
300
3/4" = 1'-0"
140
0.75
141
12.0
290
     0
  0
SCALE
  5
64
102
{ACAD_REACTORS
330
47
102
}
330
47
100
AcDbScale
 70
     0
300
1" = 1'-0"
140
1.0
141
12.0
290
     0
  0
SCALE
  5
65
102
{ACAD_REACTORS
330
47
102
}
330
47
100
AcDbScale
 70
     0
300
1-1/2" = 1'-0"
140
1.5
141
12.0
290
     0
  0
SCALE
  5
66
102
{ACAD_REACTORS
330
47
102
}
330
47
100
AcDbScale
 70
     0
300
3" = 1'-0"
140
3.0
141
12.0
290
     0
  0
SCALE
  5
67
102
{ACAD_REACTORS
330
47
102
}
330
47
100
AcDbScale
 70
     0
300
6" = 1'-0"
140
6.0
141
12.0
290
     0
  0
SCALE
  5
68
102
{ACAD_REACTORS
330
47
102
}
330
47
100
AcDbScale
 70
     0
300
1'-0" = 1'-0"
140
12.0
141
12.0
290
     0
  0
ENDSEC
  0
EOF
