  0
SECTION
  2
HEADER
  9
$ACADVER
  1
AC1015
  9
$ACADMAINTVER
 70
     6
  9
$DWGCODEPAGE
  3
ANSI_949
  9
$INSBASE
 10
0.0
 20
0.0
 30
0.0
  9
$EXTMIN
 10
-49.5098406524088
 20
-49.97180738881174
 30
0.0
  9
$EXTMAX
 10
52.55449193088917
 20
37.83643533958066
 30
0.0
  9
$LIMMIN
 10
0.0
 20
0.0
  9
$LIMMAX
 10
420.0
 20
297.0
  9
$ORTHOMODE
 70
     1
  9
$REGENMODE
 70
     1
  9
$FILLMODE
 70
     1
  9
$QTEXTMODE
 70
     0
  9
$MIRRTEXT
 70
     1
  9
$LTSCALE
 40
1.0
  9
$ATTMODE
 70
     1
  9
$TEXTSIZE
 40
3.5
  9
$TRACEWID
 40
1.0
  9
$TEXTSTYLE
  7
Standard
  9
$CLAYER
  8
0
  9
$CELTYPE
  6
ByLayer
  9
$CECOLOR
 62
   256
  9
$CELTSCALE
 40
1.0
  9
$DISPSILH
 70
     0
  9
$DIMSCALE
 40
1.0
  9
$DIMASZ
 40
3.302
  9
$DIMEXO
 40
1.0
  9
$DIMDLI
 40
3.75
  9
$DIMRND
 40
0.0
  9
$DIMDLE
 40
0.0
  9
$DIMEXE
 40
1.0
  9
$DIMTP
 40
0.0
  9
$DIMTM
 40
0.0
  9
$DIMTXT
 40
3.5
  9
$DIMCEN
 40
2.5
  9
$DIMTSZ
 40
0.0
  9
$DIMTOL
 70
     0
  9
$DIMLIM
 70
     0
  9
$DIMTIH
 70
     1
  9
$DIMTOH
 70
     1
  9
$DIMSE1
 70
     0
  9
$DIMSE2
 70
     0
  9
$DIMTAD
 70
     1
  9
$DIMZIN
 70
     0
  9
$DIMBLK
  1

  9
$DIMASO
 70
     1
  9
$DIMSHO
 70
     1
  9
$DIMPOST
  1

  9
$DIMAPOST
  1

  9
$DIMALT
 70
     0
  9
$DIMALTD
 70
     3
  9
$DIMALTF
 40
0.0393700787401575
  9
$DIMLFAC
 40
1.0
  9
$DIMTOFL
 70
     1
  9
$DIMTVP
 40
0.0
  9
$DIMTIX
 70
     0
  9
$DIMSOXD
 70
     0
  9
$DIMSAH
 70
     0
  9
$DIMBLK1
  1

  9
$DIMBLK2
  1

  9
$DIMSTYLE
  2
ISO-25
  9
$DIMCLRD
 70
     0
  9
$DIMCLRE
 70
     0
  9
$DIMCLRT
 70
     0
  9
$DIMTFAC
 40
1.0
  9
$DIMGAP
 40
1.524
  9
$DIMJUST
 70
     0
  9
$DIMSD1
 70
     0
  9
$DIMSD2
 70
     0
  9
$DIMTOLJ
 70
     0
  9
$DIMTZIN
 70
     0
  9
$DIMALTZ
 70
     0
  9
$DIMALTTZ
 70
     0
  9
$DIMUPT
 70
     0
  9
$DIMDEC
 70
     2
  9
$DIMTDEC
 70
     2
  9
$DIMALTU
 70
     2
  9
$DIMALTTD
 70
     3
  9
$DIMTXSTY
  7
Standard
  9
$DIMAUNIT
 70
     0
  9
$DIMADEC
 70
     2
  9
$DIMALTRND
 40
0.0
  9
$DIMAZIN
 70
     0
  9
$DIMDSEP
 70
    44
  9
$DIMATFIT
 70
     3
  9
$DIMFRAC
 70
     0
  9
$DIMLDRBLK
  1

  9
$DIMLUNIT
 70
     2
  9
$DIMLWD
 70
    -2
  9
$DIMLWE
 70
    -2
  9
$DIMTMOVE
 70
     0
  9
$LUNITS
 70
     2
  9
$LUPREC
 70
     2
  9
$SKETCHINC
 40
1.0
  9
$FILLETRAD
 40
10.0
  9
$AUNITS
 70
     0
  9
$AUPREC
 70
     2
  9
$MENU
  1
.
  9
$ELEVATION
 40
0.0
  9
$PELEVATION
 40
0.0
  9
$THICKNESS
 40
0.0
  9
$LIMCHECK
 70
     0
  9
$CHAMFERA
 40
0.0
  9
$CHAMFERB
 40
0.0
  9
$CHAMFERC
 40
0.0
  9
$CHAMFERD
 40
0.0
  9
$SKPOLY
 70
     0
  9
$TDCREATE
 40
2458270.781574271
  9
$TDUCREATE
 40
2458270.406574271
  9
$TDUPDATE
 40
2459720.751117222
  9
$TDUUPDATE
 40
2459720.376117222
  9
$TDINDWG
 40
0.0027308565
  9
$TDUSRTIMER
 40
0.0023790972
  9
$USRTIMER
 70
     1
  9
$ANGBASE
 50
0.0
  9
$ANGDIR
 70
     0
  9
$PDMODE
 70
     0
  9
$PDSIZE
 40
-1.0
  9
$PLINEWID
 40
0.0
  9
$SPLFRAME
 70
     0
  9
$SPLINETYPE
 70
     6
  9
$SPLINESEGS
 70
     8
  9
$HANDSEED
  5
2D0
  9
$SURFTAB1
 70
     6
  9
$SURFTAB2
 70
     6
  9
$SURFTYPE
 70
     6
  9
$SURFU
 70
     6
  9
$SURFV
 70
     6
  9
$UCSBASE
  2

  9
$UCSNAME
  2

  9
$UCSORG
 10
0.0
 20
0.0
 30
0.0
  9
$UCSXDIR
 10
1.0
 20
0.0
 30
0.0
  9
$UCSYDIR
 10
0.0
 20
1.0
 30
0.0
  9
$UCSORTHOREF
  2

  9
$UCSORTHOVIEW
 70
     0
  9
$UCSORGTOP
 10
0.0
 20
0.0
 30
0.0
  9
$UCSORGBOTTOM
 10
0.0
 20
0.0
 30
0.0
  9
$UCSORGLEFT
 10
0.0
 20
0.0
 30
0.0
  9
$UCSORGRIGHT
 10
0.0
 20
0.0
 30
0.0
  9
$UCSORGFRONT
 10
0.0
 20
0.0
 30
0.0
  9
$UCSORGBACK
 10
0.0
 20
0.0
 30
0.0
  9
$PUCSBASE
  2

  9
$PUCSNAME
  2

  9
$PUCSORG
 10
0.0
 20
0.0
 30
0.0
  9
$PUCSXDIR
 10
1.0
 20
0.0
 30
0.0
  9
$PUCSYDIR
 10
0.0
 20
1.0
 30
0.0
  9
$PUCSORTHOREF
  2

  9
$PUCSORTHOVIEW
 70
     0
  9
$PUCSORGTOP
 10
0.0
 20
0.0
 30
0.0
  9
$PUCSORGBOTTOM
 10
0.0
 20
0.0
 30
0.0
  9
$PUCSORGLEFT
 10
0.0
 20
0.0
 30
0.0
  9
$PUCSORGRIGHT
 10
0.0
 20
0.0
 30
0.0
  9
$PUCSORGFRONT
 10
0.0
 20
0.0
 30
0.0
  9
$PUCSORGBACK
 10
0.0
 20
0.0
 30
0.0
  9
$USERI1
 70
     0
  9
$USERI2
 70
     0
  9
$USERI3
 70
     0
  9
$USERI4
 70
     0
  9
$USERI5
 70
     0
  9
$USERR1
 40
0.0
  9
$USERR2
 40
0.0
  9
$USERR3
 40
0.0
  9
$USERR4
 40
0.0
  9
$USERR5
 40
0.0
  9
$WORLDVIEW
 70
     1
  9
$SHADEDGE
 70
     3
  9
$SHADEDIF
 70
    70
  9
$TILEMODE
 70
     1
  9
$MAXACTVP
 70
    64
  9
$PINSBASE
 10
0.0
 20
0.0
 30
0.0
  9
$PLIMCHECK
 70
     0
  9
$PEXTMIN
 10
1.000000000000000E+20
 20
1.000000000000000E+20
 30
1.000000000000000E+20
  9
$PEXTMAX
 10
-1.000000000000000E+20
 20
-1.000000000000000E+20
 30
-1.000000000000000E+20
  9
$PLIMMIN
 10
0.0
 20
0.0
  9
$PLIMMAX
 10
0.0
 20
0.0
  9
$UNITMODE
 70
     0
  9
$VISRETAIN
 70
     1
  9
$PLINEGEN
 70
     0
  9
$PSLTSCALE
 70
     1
  9
$TREEDEPTH
 70
  3020
  9
$CMLSTYLE
  2
Standard
  9
$CMLJUST
 70
     0
  9
$CMLSCALE
 40
20.0
  9
$PROXYGRAPHICS
 70
     1
  9
$MEASUREMENT
 70
     1
  9
$CELWEIGHT
370
    -1
  9
$ENDCAPS
280
     0
  9
$JOINSTYLE
280
     0
  9
$LWDISPLAY
290
     1
  9
$INSUNITS
 70
     4
  9
$HYPERLINKBASE
  1

  9
$STYLESHEET
  1

  9
$XEDIT
290
     1
  9
$CEPSNTYPE
380
     0
  9
$PSTYLEMODE
290
     1
  9
$FINGERPRINTGUID
  2
{4A5A833B-6645-45EF-BAE4-8317EDD7C178}
  9
$VERSIONGUID
  2
{FAEB1C32-E019-11D5-929B-00C0DF256EC4}
  9
$EXTNAMES
290
     1
  9
$PSVPSCALE
 40
0.0
  9
$OLESTARTUP
290
     0
  0
ENDSEC
  0
SECTION
  2
CLASSES
  0
CLASS
  1
ACDBDICTIONARYWDFLT
  2
AcDbDictionaryWithDefault
  3
ObjectDBX Classes
 90
        0
280
     0
281
     0
  0
CLASS
  1
VISUALSTYLE
  2
AcDbVisualStyle
  3
ObjectDBX Classes
 90
     4095
280
     0
281
     0
  0
CLASS
  1
MATERIAL
  2
AcDbMaterial
  3
ObjectDBX Classes
 90
     1153
280
     0
281
     0
  0
CLASS
  1
SCALE
  2
AcDbScale
  3
ObjectDBX Classes
 90
     1153
280
     0
281
     0
  0
CLASS
  1
SUN
  2
AcDbSun
  3
SCENEOE
 90
     1153
280
     0
281
     0
  0
CLASS
  1
ACDBPLACEHOLDER
  2
AcDbPlaceHolder
  3
ObjectDBX Classes
 90
        0
280
     0
281
     0
  0
CLASS
  1
LAYOUT
  2
AcDbLayout
  3
ObjectDBX Classes
 90
        0
280
     0
281
     0
  0
CLASS
  1
TABLESTYLE
  2
AcDbTableStyle
  3
ObjectDBX Classes
 90
     4095
280
     0
281
     0
  0
CLASS
  1
MLEADERSTYLE
  2
AcDbMLeaderStyle
  3
ACDB_MLEADERSTYLE_CLASS
 90
     4095
280
     0
281
     0
  0
CLASS
  1
RASTERVARIABLES
  2
AcDbRasterVariables
  3
ISM
 90
        0
280
     0
281
     0
  0
CLASS
  1
DIMASSOC
  2
AcDbDimAssoc
  3
"AcDbDimAssoc|Product Desc:     AcDim ARX App For Dimension|Company:          Autodesk, Inc.|WEB Address:      www.autodesk.com"
 90
        0
280
     0
281
     0
  0
CLASS
  1
DICTIONARYVAR
  2
AcDbDictionaryVar
  3
ObjectDBX Classes
 90
        0
280
     0
281
     0
  0
ENDSEC
  0
SECTION
  2
TABLES
  0
TABLE
  2
VPORT
  5
8
330
0
100
AcDbSymbolTable
 70
     1
  0
VPORT
  5
29
330
8
100
AcDbSymbolTableRecord
100
AcDbViewportTableRecord
  2
*Active
 70
     0
 10
0.0
 20
0.0
 11
1.0
 21
1.0
 12
1.52232563924013
 22
-6.06768602461554
 13
0.0
 23
0.0
 14
10.0
 24
10.0
 15
10.0
 25
10.0
 16
0.0
 26
0.0
 36
1.0
 17
0.0
 27
0.0
 37
0.0
 40
89.56440758296026
 41
1.913499344692005
 42
50.0
 43
0.0
 44
0.0
 50
0.0
 51
0.0
 71
    16
 72
  2000
 73
     1
 74
     3
 75
     0
 76
     0
 77
     0
 78
     0
281
     0
 65
     1
110
0.0
120
0.0
130
0.0
111
1.0
121
0.0
131
0.0
112
0.0
122
1.0
132
0.0
 79
     0
146
0.0
  0
ENDTAB
  0
TABLE
  2
LTYPE
  5
5
330
0
100
AcDbSymbolTable
 70
     6
  0
LTYPE
  5
14
330
5
100
AcDbSymbolTableRecord
100
AcDbLinetypeTableRecord
  2
ByBlock
 70
     0
  3

 72
    65
 73
     0
 40
0.0
  0
LTYPE
  5
15
330
5
100
AcDbSymbolTableRecord
100
AcDbLinetypeTableRecord
  2
ByLayer
 70
     0
  3

 72
    65
 73
     0
 40
0.0
  0
LTYPE
  5
16
330
5
100
AcDbSymbolTableRecord
100
AcDbLinetypeTableRecord
  2
Continuous
 70
     0
  3
Solid line
 72
    65
 73
     0
 40
0.0
  0
LTYPE
  5
6A
330
5
100
AcDbSymbolTableRecord
100
AcDbLinetypeTableRecord
  2
HIDDEN
 70
     0
  3
Hidden __ __ __ __ __ __ __ __ __ __ __ __ __ __
 72
    65
 73
     2
 40
1.905
 49
1.27
 74
     0
 49
-0.635
 74
     0
  0
LTYPE
  5
6B
330
5
100
AcDbSymbolTableRecord
100
AcDbLinetypeTableRecord
  2
PHANTOM
 70
     0
  3
Phantom ______  __  __  ______  __  __  ______
 72
    65
 73
     6
 40
12.7
 49
6.35
 74
     0
 49
-1.27
 74
     0
 49
1.27
 74
     0
 49
-1.27
 74
     0
 49
1.27
 74
     0
 49
-1.27
 74
     0
  0
LTYPE
  5
6C
330
5
100
AcDbSymbolTableRecord
100
AcDbLinetypeTableRecord
  2
CENTER
 70
     0
  3
Center ____ _ ____ _ ____ _ ____ _ ____ _ ____
 72
    65
 73
     4
 40
10.16
 49
6.35
 74
     0
 49
-1.27
 74
     0
 49
1.27
 74
     0
 49
-1.27
 74
     0
  0
LTYPE
  5
6D
330
5
100
AcDbSymbolTableRecord
100
AcDbLinetypeTableRecord
  2
CENTERX2
 70
     0
  3
Center (2x) ________  __  ________  __  _____
 72
    65
 73
     4
 40
20.32
 49
12.7
 74
     0
 49
-2.54
 74
     0
 49
2.54
 74
     0
 49
-2.54
 74
     0
  0
LTYPE
  5
6E
330
5
100
AcDbSymbolTableRecord
100
AcDbLinetypeTableRecord
  2
DOT2
 70
     0
  3
Dot (.5x) ........................................
 72
    65
 73
     2
 40
0.635
 49
0.0
 74
     0
 49
-0.635
 74
     0
  0
ENDTAB
  0
TABLE
  2
LAYER
  5
2
330
0
100
AcDbSymbolTable
 70
    17
  0
LAYER
  5
10
330
2
100
AcDbSymbolTableRecord
100
AcDbLayerTableRecord
  2
0
 70
     0
 62
     7
  6
Continuous
370
    -3
390
F
  0
LAYER
  5
6F
330
2
100
AcDbSymbolTableRecord
100
AcDbLayerTableRecord
  2
FORMAT
 70
     0
 62
     2
  6
Continuous
370
    -3
390
F
  0
LAYER
  5
70
330
2
100
AcDbSymbolTableRecord
100
AcDbLayerTableRecord
  2
외형선
 70
     0
 62
   100
  6
Continuous
370
    30
390
F
  0
LAYER
  5
71
330
2
100
AcDbSymbolTableRecord
100
AcDbLayerTableRecord
  2
숨은선
 70
     0
 62
     2
  6
HIDDEN
370
    15
390
F
  0
LAYER
  5
72
330
2
100
AcDbSymbolTableRecord
100
AcDbLayerTableRecord
  2
중심선
 70
     0
 62
     1
  6
CENTERX2
370
    -3
390
F
  0
LAYER
  5
73
330
2
100
AcDbSymbolTableRecord
100
AcDbLayerTableRecord
  2
파단선
 70
     0
 62
     4
  6
Continuous
370
    -3
390
F
  0
LAYER
  5
74
330
2
100
AcDbSymbolTableRecord
100
AcDbLayerTableRecord
  2
해칭선
 70
     0
 62
     4
  6
Continuous
370
    -3
390
F
  0
LAYER
  5
75
330
2
100
AcDbSymbolTableRecord
100
AcDbLayerTableRecord
  2
가는실선
 70
     0
 62
     4
  6
Continuous
370
    -3
390
F
  0
LAYER
  5
76
330
2
100
AcDbSymbolTableRecord
100
AcDbLayerTableRecord
  2
치수_보조선
 70
     0
 62
     4
  6
Continuous
370
    -3
390
F
  0
LAYER
  5
77
330
2
100
AcDbSymbolTableRecord
100
AcDbLayerTableRecord
  2
치수문자_일반주서
 70
     0
 62
     7
  6
Continuous
370
    15
390
F
  0
LAYER
  5
78
330
2
100
AcDbSymbolTableRecord
100
AcDbLayerTableRecord
  2
개별주서
 70
     0
 62
   100
  6
Continuous
370
    30
390
F
  0
LAYER
  5
79
330
2
100
AcDbSymbolTableRecord
100
AcDbLayerTableRecord
  2
중간선
 70
     0
 62
     2
  6
Continuous
370
    15
390
F
  0
LAYER
  5
7A
330
2
100
AcDbSymbolTableRecord
100
AcDbLayerTableRecord
  2
윤곽선
 70
     0
 62
     3
  6
Continuous
370
    40
390
F
  0
LAYER
  5
7B
330
2
100
AcDbSymbolTableRecord
100
AcDbLayerTableRecord
  2
중심마크
 70
     0
 62
   100
  6
Continuous
370
    30
390
F
  0
LAYER
  5
7C
330
2
100
AcDbSymbolTableRecord
100
AcDbLayerTableRecord
  2
가상선
 70
     0
 62
     4
  6
PHANTOM
370
    -3
390
F
  0
LAYER
  5
7D
330
2
100
AcDbSymbolTableRecord
100
AcDbLayerTableRecord
  2
특수지정선
 70
     0
 62
     5
  6
CENTERX2
370
    60
390
F
  0
LAYER
  5
285
330
2
100
AcDbSymbolTableRecord
100
AcDbLayerTableRecord
  2
Defpoints
 70
     0
 62
     7
  6
Continuous
290
     0
370
    -3
390
F
  0
ENDTAB
  0
TABLE
  2
STYLE
  5
3
330
0
100
AcDbSymbolTable
 70
     2
  0
STYLE
  5
11
330
3
100
AcDbSymbolTableRecord
100
AcDbTextStyleTableRecord
  2
Standard
 70
     0
 40
0.0
 41
1.0
 50
0.0
 71
     0
 42
3.5
  3
txt
  4

  0
STYLE
  5
93
330
3
100
AcDbSymbolTableRecord
100
AcDbTextStyleTableRecord
  2
SLDTEXTSTYLE0
 70
     0
 40
0.0
 41
0.75
 50
0.0
 71
     0
 42
3.5
  3
TXT
  4

  0
ENDTAB
  0
TABLE
  2
VIEW
  5
6
330
0
100
AcDbSymbolTable
 70
     0
  0
ENDTAB
  0
TABLE
  2
UCS
  5
7
330
0
100
AcDbSymbolTable
 70
     0
  0
ENDTAB
  0
TABLE
  2
APPID
  5
9
330
0
100
AcDbSymbolTable
 70
     2
  0
APPID
  5
12
330
9
100
AcDbSymbolTableRecord
100
AcDbRegAppTableRecord
  2
ACAD
 70
     0
  0
APPID
  5
29C
330
9
100
AcDbSymbolTableRecord
100
AcDbRegAppTableRecord
  2
PE_DIMMEASUREMENT
 70
     0
  0
ENDTAB
  0
TABLE
  2
DIMSTYLE
  5
A
330
0
100
AcDbSymbolTable
 70
     3
100
AcDbDimStyleTable
  0
DIMSTYLE
105
27
330
A
100
AcDbSymbolTableRecord
100
AcDbDimStyleTableRecord
  2
ISO-25
 70
     0
 41
2.5
 42
0.625
 43
3.75
 44
1.25
 73
     0
 74
     0
 77
     1
 78
     8
140
2.5
141
2.5
143
0.03937007874016
147
0.625
171
     3
172
     1
178
     0
271
     2
272
     2
274
     3
278
    44
283
     0
284
     8
340
11
  0
DIMSTYLE
105
21B
102
{ACAD_REACTORS
330
21A
330
244
330
289
102
}
330
A
100
AcDbSymbolTableRecord
100
AcDbDimStyleTableRecord
  2
SLDDIMSTYLE0
 70
     0
 41
3.302
 44
0.0
 45
0.000000001
 73
     0
 74
     0
 77
     1
 78
    12
 79
     3
140
3.5
143
0.0393700787401575
147
0.875
148
0.000000001
170
     1
172
     1
173
     1
178
     0
271
     2
272
     2
276
     2
284
    12
289
     0
340
93
  0
DIMSTYLE
105
231
102
{ACAD_REACTORS
330
230
102
}
330
A
100
AcDbSymbolTableRecord
100
AcDbDimStyleTableRecord
  2
SLDDIMSTYLE1
 70
     0
 41
3.302
 44
0.0
 45
0.000000001
 73
     0
 74
     0
 77
     1
 78
     4
 79
     1
140
3.5
143
0.0393700787401575
147
0.875
148
0.000000001
170
     1
173
     1
178
     0
271
     2
272
     2
276
     2
284
    12
340
93
  0
ENDTAB
  0
TABLE
  2
BLOCK_RECORD
  5
1
330
0
100
AcDbSymbolTable
 70
     7
  0
BLOCK_RECORD
  5
1F
102
{ACAD_XDICTIONARY
360
2CD
102
}
330
1
100
AcDbSymbolTableRecord
100
AcDbBlockTableRecord
  2
*Model_Space
340
22
  0
BLOCK_RECORD
  5
1B
330
1
100
AcDbSymbolTableRecord
100
AcDbBlockTableRecord
  2
*Paper_Space
340
1E
  0
BLOCK_RECORD
  5
23
330
1
100
AcDbSymbolTableRecord
100
AcDbBlockTableRecord
  2
*Paper_Space0
340
26
  0
BLOCK_RECORD
  5
7E
330
1
100
AcDbSymbolTableRecord
100
AcDbBlockTableRecord
  2
블럭10
340
0
102
{BLKREFS
331
212
102
}
  0
BLOCK_RECORD
  5
21C
330
1
100
AcDbSymbolTableRecord
100
AcDbBlockTableRecord
  2
_D
340
0
  0
BLOCK_RECORD
  5
232
330
1
100
AcDbSymbolTableRecord
100
AcDbBlockTableRecord
  2
_D_1
340
0
  0
BLOCK_RECORD
  5
245
330
1
100
AcDbSymbolTableRecord
100
AcDbBlockTableRecord
  2
_D_2
340
0
  0
BLOCK_RECORD
  5
258
330
1
100
AcDbSymbolTableRecord
100
AcDbBlockTableRecord
  2
SW_DOWELSYMBOL_0
340
0
102
{BLKREFS
331
25E
102
}
  0
BLOCK_RECORD
  5
28C
330
1
100
AcDbSymbolTableRecord
100
AcDbBlockTableRecord
  2
*D6
340
0
  0
ENDTAB
  0
ENDSEC
  0
SECTION
  2
BLOCKS
  0
BLOCK
  5
20
330
1F
100
AcDbEntity
  8
0
100
AcDbBlockBegin
  2
*Model_Space
 70
     0
 10
0.0
 20
0.0
 30
0.0
  3
*Model_Space
  1
*Model_Space
  0
ENDBLK
  5
21
330
1F
100
AcDbEntity
  8
0
100
AcDbBlockEnd
  0
BLOCK
  5
1C
330
1B
100
AcDbEntity
 67
     1
  8
0
100
AcDbBlockBegin
  2
*Paper_Space
 70
     0
 10
0.0
 20
0.0
 30
0.0
  3
*Paper_Space
  1
*Paper_Space
  0
ENDBLK
  5
1D
330
1B
100
AcDbEntity
 67
     1
  8
0
100
AcDbBlockEnd
  0
BLOCK
  5
24
330
23
100
AcDbEntity
  8
0
100
AcDbBlockBegin
  2
*Paper_Space0
 70
     0
 10
0.0
 20
0.0
 30
0.0
  3
*Paper_Space0
  1
*Paper_Space0
  0
ENDBLK
  5
25
330
23
100
AcDbEntity
  8
0
100
AcDbBlockEnd
  0
BLOCK
  5
7F
330
7E
100
AcDbEntity
  8
0
100
AcDbBlockBegin
  2
블럭10
 70
     2
 10
0.0
 20
0.0
 30
0.0
  3
블럭10
  1
블럭10
  0
ELLIPSE
  5
81
330
7E
100
AcDbEntity
  8
중심선
100
AcDbEllipse
 10
20.54032771741204
 20
12.0471743016438
 30
0.0
 11
6.600054785286829
 21
-1.261213355974178E-13
 31
0.0
210
0.0
220
0.0
230
1.0
 40
0.636358354079598
 41
0.9219305317359503
 42
6.513795318482858
  0
ELLIPSE
  5
82
330
7E
100
AcDbEntity
  8
중심선
100
AcDbEllipse
 10
20.54032771746488
 20
12.04717430159265
 30
0.0
 11
3.960054785062283
 21
1.540847449632565E-10
 31
0.0
210
0.0
220
0.0
230
1.0
 40
0.3939339440162632
 41
1.131841032648279
 42
5.62031148352944
  0
LINE
  5
83
330
7E
100
AcDbEntity
  8
중심선
100
AcDbLine
 10
2.268634060543552
 20
16.24717430164393
 30
0.0
 11
5.714909304380834
 21
16.24717430164393
 31
0.0
  0
LINE
  5
84
330
7E
100
AcDbEntity
  8
중심선
100
AcDbLine
 10
5.245725140726316
 20
7.84717430164391
 30
0.0
 11
8.692000384563599
 21
7.84717430164391
 31
0.0
  0
LINE
  5
85
330
7E
100
AcDbEntity
  8
중심선
100
AcDbLine
 10
15.74043728645272
 20
16.24717430164393
 30
0.0
 11
8.692000384563599
 21
7.84717430164391
 31
0.0
  0
LINE
  5
86
330
7E
100
AcDbEntity
  8
중심선
100
AcDbLine
 10
0.1404042013395286
 20
13.71084872107135
 30
0.0
 11
3.58671253028996
 21
13.71088815037384
 31
0.0
  0
LINE
  5
87
330
7E
100
AcDbEntity
  8
중심선
100
AcDbLine
 10
2.750260043222114
 20
10.84717430164391
 30
0.0
 11
6.196535287059397
 21
10.84717430164391
 31
0.0
  0
LINE
  5
88
330
7E
100
AcDbEntity
  8
중심선
100
AcDbLine
 10
12.29416204261559
 20
16.24717430164393
 30
0.0
 11
5.245725140726316
 21
7.84717430164391
 31
0.0
  0
LINE
  5
89
330
7E
100
AcDbEntity
  8
중심선
100
AcDbLine
 10
10.72767329541681
 20
16.24717430164393
 30
0.0
 11
6.196535287059397
 21
10.84717430164391
 31
0.0
  0
LINE
  5
8A
330
7E
100
AcDbEntity
  8
중심선
100
AcDbLine
 10
7.28139805157953
 20
16.24717430164393
 30
0.0
 11
2.750260043222114
 21
10.84717430164391
 31
0.0
  0
LINE
  5
8B
330
7E
100
AcDbEntity
  8
중심선
100
AcDbLine
 10
5.714909304380834
 20
16.24717430164393
 30
0.0
 11
3.58671253028996
 21
13.71088815037384
 31
0.0
  0
LINE
  5
8C
330
7E
100
AcDbEntity
  8
중심선
100
AcDbLine
 10
2.268634060543552
 20
16.24717430164393
 30
0.0
 11
0.1404042013395286
 21
13.71084872107135
 31
0.0
  0
LINE
  5
8D
330
7E
100
AcDbEntity
  8
중심선
100
AcDbLine
 10
7.28139805157953
 20
16.24717430164393
 30
0.0
 11
10.72767329541681
 21
16.24717430164393
 31
0.0
  0
LINE
  5
8E
330
7E
100
AcDbEntity
  8
중심선
100
AcDbLine
 10
12.29416204261559
 20
16.24717430164393
 30
0.0
 11
15.74043728645272
 21
16.24717430164393
 31
0.0
  0
LINE
  5
8F
330
7E
100
AcDbEntity
  8
중심선
100
AcDbLine
 10
19.22036997980202
 20
11.08717430171403
 30
0.0
 11
23.66174974927406
 21
11.08717430171406
 31
0.0
  0
LINE
  5
90
330
7E
100
AcDbEntity
  8
중심선
100
AcDbLine
 10
19.22039502424796
 20
13.00717430171391
 30
0.0
 11
19.22036997980202
 21
11.08717430171403
 31
0.0
  0
LINE
  5
91
330
7E
100
AcDbEntity
  8
중심선
100
AcDbLine
 10
19.22039502424796
 20
13.00717430171391
 30
0.0
 11
26.96566020931264
 21
13.00717430171391
 31
0.0
  0
LINE
  5
92
330
7E
100
AcDbEntity
  8
중심선
100
AcDbLine
 10
22.22332737316547
 20
13.45928029700563
 30
0.0
 11
24.52862924686651
 21
15.39360700705356
 31
0.0
  0
ATTDEF
  5
94
330
7E
100
AcDbEntity
  8
FORMAT
 62
     2
100
AcDbText
 10
-9.067621780574013
 20
2.075366912832191
 30
0.0
 40
4.233333333333333
  1
E5E44024 [ 3 FLUTE ]
 41
0.75
  7
SLDTEXTSTYLE0
 11
-9.067621780574013
 21
-0.0412997538344756
 31
0.0
100
AcDbAttributeDefinition
  3

  2
AUTOATTR0
 70
     0
 74
     1
  0
ENDBLK
  5
80
330
7E
100
AcDbEntity
  8
0
100
AcDbBlockEnd
  0
BLOCK
  5
21D
330
21C
100
AcDbEntity
  8
0
100
AcDbBlockBegin
  2
_D
 70
     0
 10
0.0
 20
0.0
 30
0.0
  3
_D
  1
_D
  0
LINE
  5
21F
330
21C
100
AcDbEntity
  8
치수문자_일반주서
 62
     0
370
    -2
100
AcDbLine
 10
32.13715701540224
 20
4.826185339580654
 30
0.0
 11
32.13715701540224
 21
12.62348875574669
 31
0.0
  0
LINE
  5
220
330
21C
100
AcDbEntity
  8
치수문자_일반주서
 62
     0
370
    -2
100
AcDbLine
 10
9.912157015402235
 20
-0.4546210319186486
 30
0.0
 11
9.912157015402235
 21
12.62348875574669
 31
0.0
  0
LINE
  5
221
330
21C
100
AcDbEntity
  8
치수문자_일반주서
 62
     0
370
    -2
100
AcDbLine
 10
28.83515701540224
 20
12.62348875574669
 30
0.0
 11
13.21415701540223
 21
12.62348875574669
 31
0.0
  0
SOLID
  5
222
330
21C
100
AcDbEntity
  8
치수문자_일반주서
 62
     0
100
AcDbTrace
 10
28.83515701540224
 20
12.07315542241335
 30
0.0
 11
28.83515701540224
 21
13.17382208908002
 31
0.0
 12
32.13715701540224
 22
12.62348875574669
 32
0.0
 13
32.13715701540224
 23
12.62348875574669
 33
0.0
  0
SOLID
  5
223
330
21C
100
AcDbEntity
  8
치수문자_일반주서
 62
     0
100
AcDbTrace
 10
13.21415701540223
 20
13.17382208908002
 30
0.0
 11
13.21415701540223
 21
12.07315542241335
 31
0.0
 12
9.912157015402235
 22
12.62348875574669
 32
0.0
 13
9.912157015402235
 23
12.62348875574669
 33
0.0
  0
MTEXT
  5
224
330
21C
100
AcDbEntity
  8
치수문자_일반주서
 62
     0
100
AcDbMText
 10
19.43715701540222
 20
16.99848875574668
 30
0.0
 40
3.5
 41
0.0
 71
     2
 72
     1
  1
\A1;22.23 [7/8]
  7
SLDTEXTSTYLE0
 73
     1
 44
1.0
  0
POINT
  5
225
330
21C
100
AcDbEntity
  8
Defpoints
 62
     0
100
AcDbPoint
 10
32.13715701540224
 20
4.763685339580654
 30
0.0
  0
POINT
  5
226
330
21C
100
AcDbEntity
  8
Defpoints
 62
     0
100
AcDbPoint
 10
9.912157015402235
 20
-0.5171210319186486
 30
0.0
  0
POINT
  5
227
330
21C
100
AcDbEntity
  8
Defpoints
 62
     0
100
AcDbPoint
 10
9.912157015402235
 20
12.62348875574669
 30
0.0
  0
ENDBLK
  5
21E
330
21C
100
AcDbEntity
  8
0
100
AcDbBlockEnd
  0
BLOCK
  5
233
330
232
100
AcDbEntity
  8
0
100
AcDbBlockBegin
  2
_D_1
 70
     0
 10
0.0
 20
0.0
 30
0.0
  3
_D_1
  1
_D_1
  0
LINE
  5
235
330
232
100
AcDbEntity
  8
치수문자_일반주서
 62
     0
370
    -2
100
AcDbLine
 10
32.13715701540224
 20
4.605186254234417
 30
0.0
 11
32.13715701540224
 21
25.94321782261355
 31
0.0
  0
LINE
  5
236
330
232
100
AcDbEntity
  8
치수문자_일반주서
 62
     0
370
    -2
100
AcDbLine
 10
-31.36284298459777
 20
4.32618533958065
 30
0.0
 11
-31.36284298459777
 21
25.94321782261355
 31
0.0
  0
LINE
  5
237
330
232
100
AcDbEntity
  8
치수문자_일반주서
 62
     0
370
    -2
100
AcDbLine
 10
28.83515701540224
 20
25.94321782261355
 30
0.0
 11
-28.06084298459777
 21
25.94321782261355
 31
0.0
  0
SOLID
  5
238
330
232
100
AcDbEntity
  8
치수문자_일반주서
 62
     0
100
AcDbTrace
 10
28.83515701540224
 20
25.39288448928021
 30
0.0
 11
28.83515701540224
 21
26.49355115594688
 31
0.0
 12
32.13715701540224
 22
25.94321782261355
 32
0.0
 13
32.13715701540224
 23
25.94321782261355
 33
0.0
  0
SOLID
  5
239
330
232
100
AcDbEntity
  8
치수문자_일반주서
 62
     0
100
AcDbTrace
 10
-28.06084298459777
 20
26.49355115594688
 30
0.0
 11
-28.06084298459777
 21
25.39288448928021
 31
0.0
 12
-31.36284298459777
 22
25.94321782261355
 32
0.0
 13
-31.36284298459777
 23
25.94321782261355
 33
0.0
  0
MTEXT
  5
23A
330
232
100
AcDbEntity
  8
치수문자_일반주서
 62
     0
100
AcDbMText
 10
2.063450943739421
 20
30.31821782261355
 30
0.0
 40
3.5
 41
0.0
 71
     2
 72
     1
  1
\A1;63.50 [2 1/2]
  7
SLDTEXTSTYLE0
 73
     1
 44
1.0
  0
POINT
  5
23B
330
232
100
AcDbEntity
  8
Defpoints
 62
     0
100
AcDbPoint
 10
32.13715701540224
 20
4.542686254234417
 30
0.0
  0
POINT
  5
23C
330
232
100
AcDbEntity
  8
Defpoints
 62
     0
100
AcDbPoint
 10
-31.36284298459777
 20
4.26368533958065
 30
0.0
  0
POINT
  5
23D
330
232
100
AcDbEntity
  8
Defpoints
 62
     0
100
AcDbPoint
 10
-31.36284298459777
 20
25.94321782261355
 30
0.0
  0
ENDBLK
  5
234
330
232
100
AcDbEntity
  8
0
100
AcDbBlockEnd
  0
BLOCK
  5
246
330
245
100
AcDbEntity
  8
0
100
AcDbBlockBegin
  2
_D_2
 70
     0
 10
0.0
 20
0.0
 30
0.0
  3
_D_2
  1
_D_2
  0
LINE
  5
248
330
245
100
AcDbEntity
  8
치수문자_일반주서
 62
     0
370
    -2
100
AcDbLine
 10
-30.92534298459777
 20
4.763685339580649
 30
0.0
 11
-45.13484065240879
 21
4.763685339580594
 31
0.0
  0
LINE
  5
249
330
245
100
AcDbEntity
  8
치수문자_일반주서
 62
     0
370
    -2
100
AcDbLine
 10
-30.92534298459777
 20
-4.761314660419352
 30
0.0
 11
-45.13484065240876
 21
-4.761314660419405
 31
0.0
  0
LINE
  5
24A
330
245
100
AcDbEntity
  8
치수문자_일반주서
 62
     0
370
    -2
100
AcDbLine
 10
-45.13484065240879
 20
4.763685339580594
 30
0.0
 11
-45.13484065240891
 21
37.6176853395806
 31
0.0
  0
LINE
  5
24B
330
245
100
AcDbEntity
  8
치수문자_일반주서
 62
     0
370
    -2
100
AcDbLine
 10
-45.13484065240879
 20
4.763685339580594
 30
0.0
 11
-45.13484065240876
 21
-4.761314660419405
 31
0.0
  0
LINE
  5
24C
330
245
100
AcDbEntity
  8
치수문자_일반주서
 62
     0
370
    -2
100
AcDbLine
 10
-45.1348406524088
 20
8.065685339580593
 30
0.0
 11
-45.13484065240882
 21
11.36768533958059
 31
0.0
  0
LINE
  5
24D
330
245
100
AcDbEntity
  8
치수문자_일반주서
 62
     0
370
    -2
100
AcDbLine
 10
-45.13484065240874
 20
-8.063314660419405
 30
0.0
 11
-45.13484065240873
 21
-11.3653146604194
 31
0.0
  0
SOLID
  5
24E
330
245
100
AcDbEntity
  8
치수문자_일반주서
 62
     0
100
AcDbTrace
 10
-45.68517398574214
 20
8.065685339580591
 30
0.0
 11
-44.58450731907547
 21
8.065685339580595
 31
0.0
 12
-45.13484065240879
 22
4.763685339580594
 32
0.0
 13
-45.13484065240879
 23
4.763685339580594
 33
0.0
  0
SOLID
  5
24F
330
245
100
AcDbEntity
  8
치수문자_일반주서
 62
     0
100
AcDbTrace
 10
-44.58450731907541
 20
-8.063314660419403
 30
0.0
 11
-45.68517398574208
 21
-8.063314660419406
 31
0.0
 12
-45.13484065240876
 22
-4.761314660419405
 32
0.0
 13
-45.13484065240876
 23
-4.761314660419405
 33
0.0
  0
MTEXT
  5
250
330
245
100
AcDbEntity
  8
치수문자_일반주서
 62
     0
100
AcDbMText
 10
-49.50984065240886
 20
24.49268533958058
 30
0.0
 40
3.5
 41
0.0
 71
     2
 72
     1
  1
\A1;%%c9.53 [3/8]
  7
SLDTEXTSTYLE0
 11
-3.729883127349607E-15
 21
1.0
 31
0.0
 73
     1
 44
1.0
  0
POINT
  5
29E
330
245
100
AcDbEntity
  8
Defpoints
 62
     0
100
AcDbPoint
 10
-30.86284298459777
 20
4.763685339580649
 30
0.0
  0
POINT
  5
29F
330
245
100
AcDbEntity
  8
Defpoints
 62
     0
100
AcDbPoint
 10
-30.86284298459777
 20
-4.761314660419352
 30
0.0
  0
POINT
  5
2A0
330
245
100
AcDbEntity
  8
Defpoints
 62
     0
100
AcDbPoint
 10
-45.13484065240876
 20
-4.761314660419405
 30
0.0
  0
ENDBLK
  5
247
330
245
100
AcDbEntity
  8
0
100
AcDbBlockEnd
  0
BLOCK
  5
259
330
258
100
AcDbEntity
  8
0
100
AcDbBlockBegin
  2
SW_DOWELSYMBOL_0
 70
     0
 10
0.0
 20
0.0
 30
0.0
  3
SW_DOWELSYMBOL_0
  1
SW_DOWELSYMBOL_0
  0
CIRCLE
  5
25B
330
258
100
AcDbEntity
  8
외형선
 62
     0
100
AcDbCircle
 10
0.0
 20
0.0
 30
0.0
 40
3.000000000000004
  0
HATCH
  5
25C
330
258
100
AcDbEntity
  8
0
  6
Continuous
 62
     0
370
    30
100
AcDbHatch
 10
0.0
 20
0.0
 30
0.0
210
0.0
220
0.0
230
1.0
  2
SOLID
 70
     1
 71
     0
 91
        1
 92
        0
 93
        3
 72
     2
 10
-0.0000000000000013
 20
-0.0000000000000039
 40
3.000000000000004
 50
0.0
 51
90.0
 73
     1
 72
     1
 10
-0.0000000000000013
 20
3.0
 11
-0.0000000000000013
 21
-0.000000000000004
 72
     1
 10
-0.0000000000000013
 20
-0.0000000000000039
 11
3.000000000000003
 21
-0.0000000000000039
 97
        0
 75
     0
 76
     1
 98
        1
 10
0.0
 20
0.0
  0
HATCH
  5
25D
330
258
100
AcDbEntity
  8
0
  6
Continuous
 62
     0
370
    30
100
AcDbHatch
 10
0.0
 20
0.0
 30
0.0
210
0.0
220
0.0
230
1.0
  2
SOLID
 70
     1
 71
     0
 91
        1
 92
        0
 93
        3
 72
     2
 10
-0.0000000000000013
 20
-0.0000000000000039
 40
3.000000000000004
 50
180.0
 51
270.0000000000007
 73
     1
 72
     1
 10
-0.0000000000000013
 20
-3.000000000000008
 11
-0.0000000000000013
 21
-0.000000000000004
 72
     1
 10
-0.0000000000000013
 20
-0.0000000000000039
 11
-3.000000000000006
 21
-0.0000000000000039
 97
        0
 75
     0
 76
     1
 98
        1
 10
0.0
 20
0.0
  0
ENDBLK
  5
25A
330
258
100
AcDbEntity
  8
0
100
AcDbBlockEnd
  0
BLOCK
  5
28D
330
28C
100
AcDbEntity
  8
0
100
AcDbBlockBegin
  2
*D6
 70
     1
 10
0.0
 20
0.0
 30
0.0
  3
*D6
  1
*D6
  0
LINE
  5
28F
330
28C
100
AcDbEntity
  8
치수문자_일반주서
 62
     0
370
    -2
100
AcDbLine
 10
32.19965701540224
 20
4.763685339580654
 30
0.0
 11
52.00415859755584
 21
4.76368533958065
 31
0.0
  0
LINE
  5
290
330
28C
100
AcDbEntity
  8
치수문자_일반주서
 62
     0
370
    -2
100
AcDbLine
 10
32.19965701540225
 20
-4.761314660419348
 30
0.0
 11
52.00415859755584
 21
-4.761314660419352
 31
0.0
  0
LINE
  5
291
330
28C
100
AcDbEntity
  8
치수문자_일반주서
 62
     0
370
    -2
100
AcDbLine
 10
52.00415859755584
 20
4.76368533958065
 30
0.0
 11
52.00415859755584
 21
37.83643533958065
 31
0.0
  0
LINE
  5
292
330
28C
100
AcDbEntity
  8
치수문자_일반주서
 62
     0
370
    -2
100
AcDbLine
 10
52.00415859755584
 20
4.76368533958065
 30
0.0
 11
52.00415859755584
 21
-4.761314660419352
 31
0.0
  0
LINE
  5
293
330
28C
100
AcDbEntity
  8
치수문자_일반주서
 62
     0
370
    -2
100
AcDbLine
 10
52.00415859755584
 20
8.06568533958065
 30
0.0
 11
52.00415859755584
 21
11.36768533958065
 31
0.0
  0
LINE
  5
294
330
28C
100
AcDbEntity
  8
치수문자_일반주서
 62
     0
370
    -2
100
AcDbLine
 10
52.00415859755584
 20
-8.063314660419351
 30
0.0
 11
52.00415859755584
 21
-11.36531466041935
 31
0.0
  0
SOLID
  5
295
330
28C
100
AcDbEntity
  8
치수문자_일반주서
 62
     0
100
AcDbTrace
 10
51.45382526422251
 20
8.06568533958065
 30
0.0
 11
52.55449193088918
 21
8.06568533958065
 31
0.0
 12
52.00415859755584
 22
4.76368533958065
 32
0.0
 13
52.00415859755584
 23
4.76368533958065
 33
0.0
  0
SOLID
  5
296
330
28C
100
AcDbEntity
  8
치수문자_일반주서
 62
     0
100
AcDbTrace
 10
52.55449193088918
 20
-8.063314660419351
 30
0.0
 11
51.45382526422251
 21
-8.063314660419351
 31
0.0
 12
52.00415859755584
 22
-4.761314660419352
 32
0.0
 13
52.00415859755584
 23
-4.761314660419352
 33
0.0
  0
MTEXT
  5
297
330
28C
100
AcDbEntity
  8
치수문자_일반주서
 62
     0
100
AcDbMText
 10
49.37915859755584
 20
24.71143533958065
 30
0.0
 40
3.5
 41
0.0
 71
     5
 72
     1
  1
\A1;{%%c9.53 [3/8]}
  7
SLDTEXTSTYLE0
 11
0.0
 21
1.0
 31
0.0
 73
     1
 44
1.0
  0
POINT
  5
298
330
28C
100
AcDbEntity
  8
Defpoints
 62
     0
100
AcDbPoint
 10
32.13715701540224
 20
4.763685339580654
 30
0.0
  0
POINT
  5
299
330
28C
100
AcDbEntity
  8
Defpoints
 62
     0
100
AcDbPoint
 10
32.13715701540225
 20
-4.761314660419348
 30
0.0
  0
POINT
  5
29D
330
28C
100
AcDbEntity
  8
Defpoints
 62
     0
100
AcDbPoint
 10
52.00415859755584
 20
-4.761314660419349
 30
0.0
  0
ENDBLK
  5
28E
330
28C
100
AcDbEntity
  8
0
100
AcDbBlockEnd
  0
ENDSEC
  0
SECTION
  2
ENTITIES
  0
LINE
  5
95
330
1F
100
AcDbEntity
  8
0
  6
Continuous
 62
     1
370
    15
100
AcDbLine
 10
10.12776885387775
 20
0.1511455174458547
 30
0.0
 11
10.12776885855206
 21
0.1543280459375572
 31
0.0
  0
LINE
  5
96
330
1F
100
AcDbEntity
  8
0
  6
Continuous
 62
     4
370
    15
100
AcDbLine
 10
-30.86284298459777
 20
4.763685339580649
 30
0.0
 11
-31.36284298459777
 21
4.263685339580649
 31
0.0
  0
LINE
  5
97
330
1F
100
AcDbEntity
  8
0
  6
Continuous
 62
     4
370
    15
100
AcDbLine
 10
-31.36284298459777
 20
-4.261314660419354
 30
0.0
 11
-30.86284298459777
 21
-4.761314660419353
 31
0.0
  0
LINE
  5
98
330
1F
100
AcDbEntity
  8
0
  6
Continuous
 62
     4
370
    15
100
AcDbLine
 10
8.391958181813617
 20
4.763685339580654
 30
0.0
 11
-30.86284298459777
 21
4.763685339580649
 31
0.0
  0
LINE
  5
99
330
1F
100
AcDbEntity
  8
0
  6
Continuous
 62
     4
370
    15
100
AcDbLine
 10
-30.86284298459777
 20
-4.761314660419352
 30
0.0
 11
9.912157015402233
 21
-4.761314660419347
 31
0.0
  0
SPLINE
  5
9A
330
1F
100
AcDbEntity
  8
0
  6
Continuous
 62
     1
370
    15
100
AcDbSpline
210
0.0
220
0.0
230
1.0
 70
     8
 71
     3
 72
     9
 73
     5
 74
     0
 42
0.000000001
 43
0.00000001
 40
0.0
 40
0.0
 40
0.0
 40
0.0
 40
0.4021872790651855
 40
0.9999999999999999
 40
0.9999999999999999
 40
0.9999999999999999
 40
0.9999999999999999
 10
20.02539500939679
 20
4.581307432532861
 30
0.0
 10
20.00968236654731
 20
4.585826910386595
 30
0.0
 10
19.97061439083708
 20
4.597064157532352
 30
0.0
 10
19.94205707641446
 20
4.609277096848635
 30
0.0
 10
19.92498515057688
 20
4.616578147331913
 30
0.0
  0
SPLINE
  5
9B
330
1F
100
AcDbEntity
  8
0
  6
Continuous
 62
     1
370
    15
100
AcDbSpline
210
0.0
220
0.0
230
1.0
 70
     8
 71
     3
 72
     9
 73
     5
 74
     0
 42
0.000000001
 43
0.00000001
 40
0.0
 40
0.0
 40
0.0
 40
0.0
 40
0.498951587319901
 40
1.0
 40
1.0
 40
1.0
 40
1.0
 10
19.91871907065919
 20
4.627394108258094
 30
0.0
 10
19.88005151988043
 20
4.654594883620318
 30
0.0
 10
19.80255391938884
 20
4.709110744584568
 30
0.0
 10
19.71035773966318
 20
4.721267293302526
 30
0.0
 10
19.66416299015647
 20
4.727358312741328
 30
0.0
  0
SPLINE
  5
9C
330
1F
100
AcDbEntity
  8
0
  6
Continuous
 62
     1
370
    15
100
AcDbSpline
210
0.0
220
0.0
230
1.0
 70
     8
 71
     3
 72
    11
 73
     7
 74
     0
 42
0.000000001
 43
0.00000001
 40
0.0
 40
0.0
 40
0.0
 40
0.0
 40
0.2442192619354392
 40
0.5000074083343713
 40
0.7557894243545906
 40
1.0
 40
1.0
 40
1.0
 40
1.0
 10
22.873142688775
 20
-4.648196141576864
 30
0.0
 10
22.90841510471009
 20
-4.622923354326024
 30
0.0
 10
22.98063082241242
 20
-4.571180585330105
 30
0.0
 10
23.11606451787297
 20
-4.545217843220608
 30
0.0
 10
23.25169788289508
 20
-4.563102271516688
 30
0.0
 10
23.32435008200163
 20
-4.609124041206228
 30
0.0
 10
23.35983547850843
 20
-4.631602379996535
 30
0.0
  0
SPLINE
  5
9D
330
1F
100
AcDbEntity
  8
0
  6
Continuous
 62
     1
370
    15
100
AcDbSpline
210
0.0
220
0.0
230
1.0
 70
     8
 71
     3
 72
     9
 73
     5
 74
     0
 42
0.000000001
 43
0.00000001
 40
0.0
 40
0.0
 40
0.0
 40
0.0
 40
0.8745589025149061
 40
1.0
 40
1.0
 40
1.0
 40
1.0
 10
19.63744586269986
 20
4.743683204549
 30
0.0
 10
19.59499603936555
 20
4.741687415958031
 30
0.0
 10
19.54645748671664
 20
4.739405364302929
 30
0.0
 10
19.5078802870197
 20
4.719999907729001
 30
0.0
 10
19.50304112075181
 20
4.717565665959167
 30
0.0
  0
SPLINE
  5
9E
330
1F
100
AcDbEntity
  8
0
  6
Continuous
 62
     1
370
    15
100
AcDbSpline
210
0.0
220
0.0
230
1.0
 70
     8
 71
     3
 72
    11
 73
     7
 74
     0
 42
0.000000001
 43
0.00000001
 40
0.0
 40
0.0
 40
0.0
 40
0.0
 40
0.2438363674233333
 40
0.5001098488471462
 40
0.7563279074240135
 40
1.0
 40
1.0
 40
1.0
 40
1.0
 10
23.36869189741073
 20
-4.640902038509833
 30
0.0
 10
23.406934583687
 20
-4.666187493331296
 30
0.0
 10
23.48537056210661
 20
-4.718048112493321
 30
0.0
 10
23.62811945988276
 20
-4.742178890520865
 30
0.0
 10
23.77085868319904
 20
-4.722105335881065
 30
0.0
 10
23.84929551872092
 20
-4.673000080940681
 30
0.0
 10
23.88752965436567
 20
-4.649063661708965
 30
0.0
  0
SPLINE
  5
9F
330
1F
100
AcDbEntity
  8
0
  6
Continuous
 62
     1
370
    15
100
AcDbSpline
210
0.0
220
0.0
230
1.0
 70
     8
 71
     3
 72
    11
 73
     7
 74
     0
 42
0.000000001
 43
0.00000001
 40
0.0
 40
0.0
 40
0.0
 40
0.0
 40
0.2446161416208609
 40
0.5001107703894849
 40
0.7555547955243203
 40
1.0
 40
1.0
 40
1.0
 40
1.0
 10
19.39289325596846
 20
4.653581467043728
 30
0.0
 10
19.35781454348858
 20
4.628830513191122
 30
0.0
 10
19.28609710977246
 20
4.578227889353299
 30
0.0
 10
19.15092391912437
 20
4.553391526807722
 30
0.0
 10
19.0155437072093
 20
4.572539551142047
 30
0.0
 10
18.94330956858808
 20
4.619235628739427
 30
0.0
 10
18.90798716566465
 20
4.642069951946186
 30
0.0
  0
SPLINE
  5
A0
330
1F
100
AcDbEntity
  8
0
  6
Continuous
 62
     1
370
    15
100
AcDbSpline
210
0.0
220
0.0
230
1.0
 70
     8
 71
     3
 72
    11
 73
     7
 74
     0
 42
0.000000001
 43
0.00000001
 40
0.0
 40
0.0
 40
0.0
 40
0.0
 40
0.2439470837856995
 40
0.4997737374540103
 40
0.7557143255881621
 40
0.9999999999999999
 40
0.9999999999999999
 40
0.9999999999999999
 40
0.9999999999999999
 10
18.90213700201815
 20
4.646716706266723
 30
0.0
 10
18.86363007232037
 20
4.671848018123357
 30
0.0
 10
18.78474102853968
 20
4.723334469442225
 30
0.0
 10
18.64089144357169
 20
4.746541980006044
 30
0.0
 10
18.49702272081625
 20
4.724916270211073
 30
0.0
 10
18.41813838373294
 20
4.674542349257817
 30
0.0
 10
18.37961518947511
 20
4.64994222692477
 30
0.0
  0
SPLINE
  5
A1
330
1F
100
AcDbEntity
  8
0
  6
Continuous
 62
     1
370
    15
100
AcDbSpline
210
0.0
220
0.0
230
1.0
 70
     8
 71
     3
 72
    11
 73
     7
 74
     0
 42
0.000000001
 43
0.00000001
 40
0.0
 40
0.0
 40
0.0
 40
0.0
 40
0.245473858195737
 40
0.4998028619336372
 40
0.7542238343715753
 40
1.0
 40
1.0
 40
1.0
 40
1.0
 10
23.89791310371807
 20
-4.646715041960479
 30
0.0
 10
23.93257397412543
 20
-4.623349261196444
 30
0.0
 10
24.00314606010656
 20
-4.575774809957459
 30
0.0
 10
24.13748458432486
 20
-4.553773530896933
 30
0.0
 10
24.27160808601046
 20
-4.575925799020198
 30
0.0
 10
24.34162948950055
 20
-4.623304198090966
 30
0.0
 10
24.37603510830967
 20
-4.646583981942272
 30
0.0
  0
SPLINE
  5
A2
330
1F
100
AcDbEntity
  8
0
  6
Continuous
 62
     1
370
    15
100
AcDbSpline
210
0.0
220
0.0
230
1.0
 70
     8
 71
     3
 72
    11
 73
     7
 74
     0
 42
0.000000001
 43
0.00000001
 40
0.0
 40
0.0
 40
0.0
 40
0.0
 40
0.2691258708455118
 40
0.5293525042724837
 40
0.773089927407823
 40
0.9999999999999999
 40
0.9999999999999999
 40
0.9999999999999999
 40
0.9999999999999999
 10
18.3708919032901
 20
4.645043614148502
 30
0.0
 10
18.32880909602297
 20
4.618735668888839
 30
0.0
 10
18.24603504184642
 20
4.566989708302763
 30
0.0
 10
18.10155179632398
 20
4.557881841185385
 30
0.0
 10
17.98080778424305
 20
4.591202321015234
 30
0.0
 10
17.92873555053889
 20
4.627986162981441
 30
0.0
 10
17.90363031905012
 20
4.645720506256482
 30
0.0
  0
SPLINE
  5
A3
330
1F
100
AcDbEntity
  8
0
  6
Continuous
 62
     1
370
    15
100
AcDbSpline
210
0.0
220
0.0
230
1.0
 70
     8
 71
     3
 72
     9
 73
     5
 74
     0
 42
0.000000001
 43
0.00000001
 40
0.0
 40
0.0
 40
0.0
 40
0.0
 40
0.4729252864016484
 40
1.0
 40
1.0
 40
1.0
 40
1.0
 10
24.3725308742094
 20
-4.644024212703831
 30
0.0
 10
24.40702490154077
 20
-4.668911989347669
 30
0.0
 10
24.47996248454426
 20
-4.721537165796157
 30
0.0
 10
24.58500585188395
 20
-4.734384351230844
 30
0.0
 10
24.64037155463992
 20
-4.741155777814379
 30
0.0
  0
SPLINE
  5
A4
330
1F
100
AcDbEntity
  8
0
  6
Continuous
 62
     1
370
    15
100
AcDbSpline
210
0.0
220
0.0
230
1.0
 70
     8
 71
     3
 72
     9
 73
     5
 74
     0
 42
0.000000001
 43
0.00000001
 40
0.0
 40
0.0
 40
0.0
 40
0.0
 40
0.5021189218111807
 40
0.9999999999999999
 40
0.9999999999999999
 40
0.9999999999999999
 40
0.9999999999999999
 10
24.64124456199148
 20
-4.741032229020004
 30
0.0
 10
24.68876815118731
 20
-4.735888693220753
 30
0.0
 10
24.78341423427934
 20
-4.72564503265386
 30
0.0
 10
24.86390643414935
 20
-4.670500413415439
 30
0.0
 10
24.90398197740641
 20
-4.643044950932702
 30
0.0
  0
SPLINE
  5
A5
330
1F
100
AcDbEntity
  8
0
  6
Continuous
 62
     1
370
    15
100
AcDbSpline
210
0.0
220
0.0
230
1.0
 70
     8
 71
     3
 72
     9
 73
     5
 74
     0
 42
0.000000001
 43
0.00000001
 40
0.0
 40
0.0
 40
0.0
 40
0.0
 40
0.5558747540958752
 40
1.0
 40
1.0
 40
1.0
 40
1.0
 10
17.90259419169293
 20
4.646585244424253
 30
0.0
 10
17.85631621756711
 20
4.677165478276526
 30
0.0
 10
17.77306369748982
 20
4.732178291193368
 30
0.0
 10
17.67871465562833
 20
4.740132404827414
 30
0.0
 10
17.63681186421078
 20
4.743665027501085
 30
0.0
  0
SPLINE
  5
A6
330
1F
100
AcDbEntity
  8
0
  6
Continuous
 62
     1
370
    15
100
AcDbSpline
210
0.0
220
0.0
230
1.0
 70
     8
 71
     3
 72
    10
 73
     6
 74
     0
 42
0.000000001
 43
0.00000001
 40
0.0
 40
0.0
 40
0.0
 40
0.0
 40
0.450175001583015
 40
0.7156137629214133
 40
1.0
 40
1.0
 40
1.0
 40
1.0
 10
24.90597616301523
 20
-4.641206672916231
 30
0.0
 10
24.96703427599963
 20
-4.606273586865331
 30
0.0
 10
25.06409436560034
 20
-4.550742744256486
 30
0.0
 10
25.25019462718124
 20
-4.566572527362942
 30
0.0
 10
25.32866600192107
 20
-4.615874367817479
 30
0.0
 10
25.3692537872071
 20
-4.641374781455057
 30
0.0
  0
SPLINE
  5
A7
330
1F
100
AcDbEntity
  8
0
  6
Continuous
 62
     1
370
    15
100
AcDbSpline
210
0.0
220
0.0
230
1.0
 70
     8
 71
     3
 72
     9
 73
     5
 74
     0
 42
0.000000001
 43
0.00000001
 40
0.0
 40
0.0
 40
0.0
 40
0.0
 40
0.4855392395047241
 40
1.0
 40
1.0
 40
1.0
 40
1.0
 10
17.6374631892944
 20
4.743683440899741
 30
0.0
 10
17.58541548153809
 20
4.737142115956343
 30
0.0
 10
17.47821980398709
 20
4.723669826981156
 30
0.0
 10
17.40606265610717
 20
4.6705395368074
 30
0.0
 10
17.36894063493371
 20
4.643206087319276
 30
0.0
  0
SPLINE
  5
A8
330
1F
100
AcDbEntity
  8
0
  6
Continuous
 62
     1
370
    15
100
AcDbSpline
210
0.0
220
0.0
230
1.0
 70
     8
 71
     3
 72
    11
 73
     7
 74
     0
 42
0.000000001
 43
0.00000001
 40
0.0
 40
0.0
 40
0.0
 40
0.0
 40
0.2469498462557707
 40
0.5003572574039057
 40
0.7535963685224121
 40
1.0
 40
1.0
 40
1.0
 40
1.0
 10
17.37445281027055
 20
4.647866526507119
 30
0.0
 10
17.34072948394071
 20
4.62506622780686
 30
0.0
 10
17.27240099000246
 20
4.578869418622229
 30
0.0
 10
17.13939323617428
 20
4.556287730194732
 30
0.0
 10
17.00615525579644
 20
4.577720849726366
 30
0.0
 10
16.93720351378347
 20
4.62344289082851
 30
0.0
 10
16.90319929801036
 20
4.645991155830016
 30
0.0
  0
SPLINE
  5
A9
330
1F
100
AcDbEntity
  8
0
  6
Continuous
 62
     1
370
    15
100
AcDbSpline
210
0.0
220
0.0
230
1.0
 70
     8
 71
     3
 72
    11
 73
     7
 74
     0
 42
0.000000001
 43
0.00000001
 40
0.0
 40
0.0
 40
0.0
 40
0.0
 40
0.2454088133914641
 40
0.5004526375898519
 40
0.7552688260515024
 40
1.0
 40
1.0
 40
1.0
 40
1.0
 10
25.3699016300958
 20
-4.64190243331391
 30
0.0
 10
25.40922944909324
 20
-4.667853094622895
 30
0.0
 10
25.48942913905519
 20
-4.72077326778133
 30
0.0
 10
25.63646977055591
 20
-4.744694902475564
 30
0.0
 10
25.78347409254984
 20
-4.721741430516608
 30
0.0
 10
25.86368726061345
 20
-4.669409404884449
 30
0.0
 10
25.9029841606944
 20
-4.643771639515674
 30
0.0
  0
SPLINE
  5
AA
330
1F
100
AcDbEntity
  8
0
  6
Continuous
 62
     1
370
    15
100
AcDbSpline
210
0.0
220
0.0
230
1.0
 70
     8
 71
     3
 72
    11
 73
     7
 74
     0
 42
0.000000001
 43
0.00000001
 40
0.0
 40
0.0
 40
0.0
 40
0.0
 40
0.2054844949426463
 40
0.4453006135075388
 40
0.7143095424794547
 40
1.0
 40
1.0
 40
1.0
 40
1.0
 10
16.90675879611348
 20
4.643177896586928
 30
0.0
 10
16.8752177338925
 20
4.665003778478209
 30
0.0
 10
16.80686584018098
 20
4.712302133515868
 30
0.0
 10
16.67070564638011
 20
4.746007805913274
 30
0.0
 10
16.51089473408542
 20
4.733563513959863
 30
0.0
 10
16.4178319483357
 20
4.674627156422273
 30
0.0
 10
16.36990121236158
 20
4.644272778250021
 30
0.0
  0
SPLINE
  5
AB
330
1F
100
AcDbEntity
  8
0
  6
Continuous
 62
     1
370
    15
100
AcDbSpline
210
0.0
220
0.0
230
1.0
 70
     8
 71
     3
 72
    11
 73
     7
 74
     0
 42
0.000000001
 43
0.00000001
 40
0.0
 40
0.0
 40
0.0
 40
0.0
 40
0.2809733532801657
 40
0.5449326677234355
 40
0.7851600407505349
 40
1.0
 40
1.0
 40
1.0
 40
1.0
 10
25.90570559667246
 20
-4.641701061389551
 30
0.0
 10
25.94677679104534
 20
-4.615967399413971
 30
0.0
 10
26.02643215784407
 20
-4.566058349652008
 30
0.0
 10
26.1698813801345
 20
-4.555312976106145
 30
0.0
 10
26.28964512995668
 20
-4.586417833373423
 30
0.0
 10
26.34356360589235
 20
-4.623434957317984
 30
0.0
 10
26.36901883493476
 20
-4.640910958858234
 30
0.0
  0
SPLINE
  5
AC
330
1F
100
AcDbEntity
  8
0
  6
Continuous
 62
     1
370
    15
100
AcDbSpline
210
0.0
220
0.0
230
1.0
 70
     8
 71
     3
 72
    10
 73
     6
 74
     0
 42
0.000000001
 43
0.00000001
 40
0.0
 40
0.0
 40
0.0
 40
0.0
 40
0.4519347780051736
 40
0.7169244848900493
 40
0.9999999999999999
 40
0.9999999999999999
 40
0.9999999999999999
 40
0.9999999999999999
 10
16.3676445308502
 20
4.642354106224348
 30
0.0
 10
16.30657682763979
 20
4.60773918831227
 30
0.0
 10
16.20970238071011
 20
4.55282798563129
 30
0.0
 10
16.0234224886408
 20
4.569388650963348
 30
0.0
 10
15.94514914595143
 20
4.619086946058359
 30
0.0
 10
15.90472098902419
 20
4.644756099873484
 30
0.0
  0
SPLINE
  5
AD
330
1F
100
AcDbEntity
  8
0
  6
Continuous
 62
     1
370
    15
100
AcDbSpline
210
0.0
220
0.0
230
1.0
 70
     8
 71
     3
 72
     9
 73
     5
 74
     0
 42
0.000000001
 43
0.00000001
 40
0.0
 40
0.0
 40
0.0
 40
0.0
 40
0.4982549375002203
 40
1.0
 40
1.0
 40
1.0
 40
1.0
 10
26.37087330646983
 20
-4.642623102065896
 30
0.0
 10
26.41109518505905
 20
-4.670220549966985
 30
0.0
 10
26.49182068432058
 20
-4.725608757537085
 30
0.0
 10
26.58681059719434
 20
-4.735902141626918
 30
0.0
 10
26.63447131696604
 20
-4.741066796270404
 30
0.0
  0
SPLINE
  5
AE
330
1F
100
AcDbEntity
  8
0
  6
Continuous
 62
     1
370
    15
100
AcDbSpline
210
0.0
220
0.0
230
1.0
 70
     8
 71
     3
 72
     9
 73
     5
 74
     0
 42
0.000000001
 43
0.00000001
 40
0.0
 40
0.0
 40
0.0
 40
0.0
 40
0.5312499949419808
 40
1.0
 40
1.0
 40
1.0
 40
1.0
 10
26.63496137083883
 20
-4.741135317379008
 30
0.0
 10
26.69025568602808
 20
-4.734499532141553
 30
0.0
 10
26.7943391038459
 20
-4.722008642163891
 30
0.0
 10
26.86812372929818
 20
-4.668978196861855
 30
0.0
 10
26.90271027285213
 20
-4.644120175358298
 30
0.0
  0
SPLINE
  5
AF
330
1F
100
AcDbEntity
  8
0
  6
Continuous
 62
     1
370
    15
100
AcDbSpline
210
0.0
220
0.0
230
1.0
 70
     8
 71
     3
 72
     9
 73
     5
 74
     0
 42
0.000000001
 43
0.00000001
 40
0.0
 40
0.0
 40
0.0
 40
0.0
 40
0.4983796789780786
 40
1.0
 40
1.0
 40
1.0
 40
1.0
 10
15.89885972484879
 20
4.649287616548777
 30
0.0
 10
15.8594666044696
 20
4.675822908804186
 30
0.0
 10
15.78042421562266
 20
4.729066035229044
 30
0.0
 10
15.68697716898579
 20
4.738716547471214
 30
0.0
 10
15.64010223145326
 20
4.743557440520162
 30
0.0
  0
SPLINE
  5
B0
330
1F
100
AcDbEntity
  8
0
  6
Continuous
 62
     1
370
    15
100
AcDbSpline
210
0.0
220
0.0
230
1.0
 70
     8
 71
     3
 72
    11
 73
     7
 74
     0
 42
0.000000001
 43
0.00000001
 40
0.0
 40
0.0
 40
0.0
 40
0.0
 40
0.2455794806511742
 40
0.4998753393151509
 40
0.7542242381328346
 40
1.0
 40
1.0
 40
1.0
 40
1.0
 10
26.89911283349663
 20
-4.646754218872609
 30
0.0
 10
26.93352552209507
 20
-4.623457838119427
 30
0.0
 10
27.00357231242253
 20
-4.576038215751412
 30
0.0
 10
27.13766291957744
 20
-4.553808137247961
 30
0.0
 10
27.27195077195095
 20
-4.575733317618762
 30
0.0
 10
27.34234898459772
 20
-4.623137298106215
 30
0.0
 10
27.37694470783929
 20
-4.646432988832373
 30
0.0
  0
SPLINE
  5
B1
330
1F
100
AcDbEntity
  8
0
  6
Continuous
 62
     1
370
    15
100
AcDbSpline
210
0.0
220
0.0
230
1.0
 70
     8
 71
     3
 72
     9
 73
     5
 74
     0
 42
0.000000001
 43
0.00000001
 40
0.0
 40
0.0
 40
0.0
 40
0.0
 40
0.5015418585958995
 40
1.0
 40
1.0
 40
1.0
 40
1.0
 10
15.63632059702371
 20
4.743638192705525
 30
0.0
 10
15.58914877054274
 20
4.738817180605349
 30
0.0
 10
15.49509515234021
 20
4.729204798273647
 30
0.0
 10
15.41543092135632
 20
4.675511709058476
 30
0.0
 10
15.37572163684371
 20
4.648747951602039
 30
0.0
  0
LINE
  5
B2
330
1F
100
AcDbEntity
  8
0
  6
Continuous
 62
     1
370
    15
100
AcDbLine
 10
9.912157015402233
 20
-4.861314660419343
 30
0.0
 11
10.63675498069245
 21
-4.861314660419343
 31
0.0
  0
SPLINE
  5
B3
330
1F
100
AcDbEntity
  8
0
  6
Continuous
 62
     1
370
    15
100
AcDbSpline
210
0.0
220
0.0
230
1.0
 70
     8
 71
     3
 72
    11
 73
     7
 74
     0
 42
0.000000001
 43
0.00000001
 40
0.0
 40
0.0
 40
0.0
 40
0.0
 40
0.2449712497710066
 40
0.5001115111331373
 40
0.7551998456430735
 40
0.9999999999999999
 40
0.9999999999999999
 40
0.9999999999999999
 40
0.9999999999999999
 10
15.37318446470464
 20
4.646913789278931
 30
0.0
 10
15.33832983421335
 20
4.623657896361949
 30
0.0
 10
15.26717372123566
 20
4.576180734203802
 30
0.0
 10
15.13236456107412
 20
4.555083998519598
 30
0.0
 10
14.99734750795852
 20
4.578055930707348
 30
0.0
 10
14.92568228413215
 20
4.627191027981581
 30
0.0
 10
14.89058714142445
 20
4.651252953120807
 30
0.0
  0
SPLINE
  5
B4
330
1F
100
AcDbEntity
  8
0
  6
Continuous
 62
     1
370
    15
100
AcDbSpline
210
0.0
220
0.0
230
1.0
 70
     8
 71
     3
 72
    11
 73
     7
 74
     0
 42
0.000000001
 43
0.00000001
 40
0.0
 40
0.0
 40
0.0
 40
0.0
 40
0.2438907224407117
 40
0.5001692888901653
 40
0.7563624569816444
 40
0.9999999999999999
 40
0.9999999999999999
 40
0.9999999999999999
 40
0.9999999999999999
 10
27.38716653999669
 20
-4.649057055752702
 30
0.0
 10
27.4254049917954
 20
-4.673049171156882
 30
0.0
 10
27.50382412579536
 20
-4.722252023895967
 30
0.0
 10
27.64656549657729
 20
-4.742497434782233
 30
0.0
 10
27.78929201949245
 20
-4.718524751305583
 30
0.0
 10
27.86771270022506
 20
-4.666746832799062
 30
0.0
 10
27.90593808644251
 20
-4.641508197863002
 30
0.0
  0
SPLINE
  5
B5
330
1F
100
AcDbEntity
  8
0
  6
Continuous
 62
     1
370
    15
100
AcDbSpline
210
0.0
220
0.0
230
1.0
 70
     8
 71
     3
 72
    11
 73
     7
 74
     0
 42
0.000000001
 43
0.00000001
 40
0.0
 40
0.0
 40
0.0
 40
0.0
 40
0.2434986215230101
 40
0.4999350178763683
 40
0.7564042603363673
 40
1.0
 40
1.0
 40
1.0
 40
1.0
 10
14.87915498051707
 20
4.649768800292444
 30
0.0
 10
14.8410864766708
 20
4.673191236267131
 30
0.0
 10
14.76292678101472
 20
4.721280608906997
 30
0.0
 10
14.6208468128412
 20
4.740075552313276
 30
0.0
 10
14.47876095178225
 20
4.715032080509252
 30
0.0
 10
14.40060101432315
 20
4.66267242469248
 30
0.0
 10
14.36252710701503
 20
4.637166561368368
 30
0.0
  0
SPLINE
  5
B6
330
1F
100
AcDbEntity
  8
0
  6
Continuous
 62
     1
370
    15
100
AcDbSpline
210
0.0
220
0.0
230
1.0
 70
     8
 71
     3
 72
     9
 73
     5
 74
     0
 42
0.000000001
 43
0.00000001
 40
0.0
 40
0.0
 40
0.0
 40
0.0
 40
0.5011709021473922
 40
1.0
 40
1.0
 40
1.0
 40
1.0
 10
10.65595875724453
 20
-4.73359058139964
 30
0.0
 10
10.70229255859467
 20
-4.727844322813285
 30
0.0
 10
10.79474365891117
 20
-4.716378655988383
 30
0.0
 10
10.87255889759426
 20
-4.662278218273664
 30
0.0
 10
10.91137540290573
 20
-4.635291345734998
 30
0.0
  0
LINE
  5
B7
330
1F
100
AcDbEntity
  8
0
  6
Continuous
 62
     1
370
    15
100
AcDbLine
 10
31.67302594796324
 20
4.738550746804918
 30
0.0
 11
31.63805381797591
 21
4.743683207329397
 31
0.0
  0
LINE
  5
B8
330
1F
100
AcDbEntity
  8
0
  6
Continuous
 62
     1
370
    15
100
AcDbLine
 10
11.11050957010197
 20
-4.566871057246042
 30
0.0
 11
11.16897826002893
 21
-4.574323861644278
 31
0.0
  0
LINE
  5
B9
330
1F
100
AcDbEntity
  8
0
  6
Continuous
 62
     1
370
    15
100
AcDbLine
 10
14.17361713261709
 20
4.570887508946996
 30
0.0
 11
14.14317397110185
 21
4.570966235678397
 31
0.0
  0
SPLINE
  5
BA
330
1F
100
AcDbEntity
  8
0
  6
Continuous
 62
     1
370
    15
100
AcDbSpline
210
0.0
220
0.0
230
1.0
 70
     8
 71
     3
 72
     9
 73
     5
 74
     0
 42
0.000000001
 43
0.00000001
 40
0.0
 40
0.0
 40
0.0
 40
0.0
 40
0.9756452765881168
 40
1.0
 40
1.0
 40
1.0
 40
1.0
 10
31.63744576490658
 20
4.743683203175678
 30
0.0
 10
31.58662305185354
 20
4.741296344589511
 30
0.0
 10
31.5345316675435
 20
4.738849903609944
 30
0.0
 10
31.49671278299
 20
4.7170894857765
 30
0.0
 10
31.49579171451695
 20
4.716559516818839
 30
0.0
  0
SPLINE
  5
BC
330
1F
100
AcDbEntity
  8
0
  6
Continuous
 62
     4
370
    15
100
AcDbSpline
210
0.0
220
0.0
230
1.0
 70
     8
 71
     3
 72
    10
 73
     6
 74
     0
 42
0.000000001
 43
0.00000001
 40
0.0
 40
0.0
 40
0.0
 40
0.0
 40
0.5
 40
0.5
 40
1.0
 40
1.0
 40
1.0
 40
1.0
 10
8.679683162871033
 20
-4.564745356733452
 30
0.0
 10
8.590937034609444
 20
-4.550196503404443
 30
0.0
 10
8.517795981462918
 20
-4.528183910834803
 30
0.0
 10
8.418258673255588
 20
-4.470671410312665
 30
0.0
 10
8.391958181813619
 20
-4.435010710513275
 30
0.0
 10
8.391958181813617
 20
-4.39566709658252
 30
0.0
  0
SPLINE
  5
BD
330
1F
100
AcDbEntity
  8
0
  6
Continuous
 62
     4
370
    15
100
AcDbSpline
210
0.0
220
0.0
230
1.0
 70
     8
 71
     3
 72
    14
 73
    10
 74
     0
 42
0.000000001
 43
0.00000001
 40
0.0
 40
0.0
 40
0.0
 40
0.0
 40
0.25
 40
0.25
 40
0.5
 40
0.5
 40
0.75
 40
0.75
 40
1.0
 40
1.0
 40
1.0
 40
1.0
 10
8.391958181813619
 20
-0.0549608527868357
 30
0.0
 10
8.391958181813619
 20
0.0461990219010504
 30
0.0
 10
8.417519754570472
 20
0.146003408549812
 30
0.0
 10
8.514515128551023
 20
0.3200424032075597
 30
0.0
 10
8.586324644385046
 20
0.3944579155742448
 30
0.0
 10
8.759851493287805
 20
0.4971917724050756
 30
0.0
 10
8.859419842814036
 20
0.5244746205782729
 30
0.0
 10
9.05915749854805
 20
0.5259314526537358
 30
0.0
 10
9.159467356005205
 20
0.5000330287878759
 30
0.0
 10
9.24716983719785
 20
0.4497060565914094
 30
0.0
  0
SPLINE
  5
BE
330
1F
100
AcDbEntity
  8
0
  6
Continuous
 62
     1
370
    15
100
AcDbSpline
210
0.0
220
0.0
230
1.0
 70
     8
 71
     3
 72
    10
 73
     6
 74
     0
 42
0.000000001
 43
0.00000001
 40
0.0
 40
0.0
 40
0.0
 40
0.0
 40
0.5
 40
0.5
 40
1.0
 40
1.0
 40
1.0
 40
1.0
 10
31.5519539047102
 20
-2.303693754667896
 30
0.0
 10
31.47749189436329
 20
-2.28789252534273
 30
0.0
 10
31.38853778206986
 20
-2.253894504036439
 30
0.0
 10
31.20638953021705
 20
-2.162430217893615
 30
0.0
 10
31.11209753987632
 20
-2.104350917625669
 30
0.0
 10
31.03251422677619
 20
-2.045459020703219
 30
0.0
  0
SPLINE
  5
BF
330
1F
100
AcDbEntity
  8
0
  6
Continuous
 62
     1
370
    15
100
AcDbSpline
210
0.0
220
0.0
230
1.0
 70
     8
 71
     3
 72
    12
 73
     8
 74
     0
 42
0.000000001
 43
0.00000001
 40
0.0
 40
0.0
 40
0.0
 40
0.0
 40
0.5
 40
0.5
 40
0.75
 40
0.75
 40
1.0
 40
1.0
 40
1.0
 40
1.0
 10
31.03251422677621
 20
-2.045459020703219
 30
0.0
 10
30.99756840550289
 20
-1.576100715879517
 30
0.0
 10
30.96002201585685
 20
-1.055411924776638
 30
0.0
 10
30.90452167458036
 20
-0.2615429979055698
 30
0.0
 10
30.88617051157969
 20
0.0049579490934595
 30
0.0
 10
30.85054290158729
 20
0.5301383592944398
 30
0.0
 10
30.83359551126688
 20
0.787254113026923
 30
0.0
 10
30.81575592979585
 20
1.043703790180467
 30
0.0
  0
SPLINE
  5
C0
330
1F
100
AcDbEntity
  8
0
  6
Continuous
 62
     1
370
    15
100
AcDbSpline
210
0.0
220
0.0
230
1.0
 70
     8
 71
     3
 72
    10
 73
     6
 74
     0
 42
0.000000001
 43
0.00000001
 40
0.0
 40
0.0
 40
0.0
 40
0.0
 40
0.5
 40
0.5
 40
1.0
 40
1.0
 40
1.0
 40
1.0
 10
30.81575592979584
 20
1.043703790180468
 30
0.0
 10
30.89026199119593
 20
1.007045402488783
 30
0.0
 10
30.97925230621818
 20
0.9593652994686064
 30
0.0
 10
31.1614711332201
 20
0.8569997862574794
 30
0.0
 10
31.25580577439291
 20
0.8017150463905476
 30
0.0
 10
31.33542333738896
 20
0.7568422475609466
 30
0.0
  0
SPLINE
  5
C1
330
1F
100
AcDbEntity
  8
0
  6
Continuous
 62
     1
370
    15
100
AcDbSpline
210
0.0
220
0.0
230
1.0
 70
     8
 71
     3
 72
    14
 73
    10
 74
     0
 42
0.000000001
 43
0.00000001
 40
0.0
 40
0.0
 40
0.0
 40
0.0
 40
0.25
 40
0.25
 40
0.5
 40
0.5
 40
0.75
 40
0.75
 40
1.0
 40
1.0
 40
1.0
 40
1.0
 10
31.5519539047102
 20
-2.303693754667895
 30
0.0
 10
31.53449607261763
 20
-2.076697395636739
 30
0.0
 10
31.51713779379749
 20
-1.839266356129782
 30
0.0
 10
31.48086209656545
 20
-1.341889213074441
 30
0.0
 10
31.46231192995688
 20
-1.083533492263048
 30
0.0
 10
31.42519196000179
 20
-0.5585184380435702
 30
0.0
 10
31.40662616376311
 20
-0.2919157161063627
 30
0.0
 10
31.37029018753758
 20
0.2377204180891875
 30
0.0
 10
31.35283268434517
 20
0.4991929871341189
 30
0.0
 10
31.33542333738896
 20
0.7568422475609513
 30
0.0
  0
SPLINE
  5
C2
330
1F
100
AcDbEntity
  8
0
  6
Continuous
 62
     1
370
    15
100
AcDbSpline
210
0.0
220
0.0
230
1.0
 70
     8
 71
     3
 72
    10
 73
     6
 74
     0
 42
0.000000001
 43
0.00000001
 40
0.0
 40
0.0
 40
0.0
 40
0.0
 40
0.5
 40
0.5
 40
1.0
 40
1.0
 40
1.0
 40
1.0
 10
13.5236938673315
 20
-1.92665695907327
 30
0.0
 10
13.44917778760619
 20
-1.903956072882424
 30
0.0
 10
13.36017011212699
 20
-1.865139014720206
 30
0.0
 10
13.17788356027773
 20
-1.769106973792365
 30
0.0
 10
13.08349367535256
 20
-1.711271728961136
 30
0.0
 10
13.00379139019695
 20
-1.656180491910951
 30
0.0
  0
SPLINE
  5
C3
330
1F
100
AcDbEntity
  8
0
  6
Continuous
 62
     1
370
    15
100
AcDbSpline
210
0.0
220
0.0
230
1.0
 70
     8
 71
     3
 72
    12
 73
     8
 74
     0
 42
0.000000001
 43
0.00000001
 40
0.0
 40
0.0
 40
0.0
 40
0.0
 40
0.5
 40
0.5
 40
0.75
 40
0.75
 40
1.0
 40
1.0
 40
1.0
 40
1.0
 10
13.00379139019695
 20
-1.656180491910966
 30
0.0
 10
12.9677080971664
 20
-1.162843100845198
 30
0.0
 10
12.92983400433111
 20
-0.628652588274673
 30
0.0
 10
12.87518860317447
 20
0.1656967085902669
 30
0.0
 10
12.85746406795373
 20
0.4285598829981925
 30
0.0
 10
12.82293074222402
 20
0.9433103108151024
 30
0.0
 10
12.80497637186513
 20
1.200823751458682
 30
0.0
 10
12.78669513230741
 20
1.452738254967666
 30
0.0
  0
SPLINE
  5
C4
330
1F
100
AcDbEntity
  8
0
  6
Continuous
 62
     1
370
    15
100
AcDbSpline
210
0.0
220
0.0
230
1.0
 70
     8
 71
     3
 72
    10
 73
     6
 74
     0
 42
0.000000001
 43
0.00000001
 40
0.0
 40
0.0
 40
0.0
 40
0.0
 40
0.5
 40
0.5
 40
1.0
 40
1.0
 40
1.0
 40
1.0
 10
12.78669513230742
 20
1.452738254967581
 30
0.0
 10
12.8613002443799
 20
1.422323654326967
 30
0.0
 10
12.95038854461191
 20
1.378481643698477
 30
0.0
 10
13.13274238482654
 20
1.27845488830314
 30
0.0
 10
13.22711036183717
 20
1.221659800638062
 30
0.0
 10
13.30678721167359
 20
1.171790518917309
 30
0.0
  0
SPLINE
  5
C5
330
1F
100
AcDbEntity
  8
0
  6
Continuous
 62
     1
370
    15
100
AcDbSpline
210
0.0
220
0.0
230
1.0
 70
     8
 71
     3
 72
    12
 73
     8
 74
     0
 42
0.000000001
 43
0.00000001
 40
0.0
 40
0.0
 40
0.0
 40
0.0
 40
0.5
 40
0.5
 40
0.75
 40
0.75
 40
1.0
 40
1.0
 40
1.0
 40
1.0
 10
13.5236938673315
 20
-1.926656959073284
 30
0.0
 10
13.48834712834332
 20
-1.449234772861797
 30
0.0
 10
13.45064114133423
 20
-0.9235510889774334
 30
0.0
 10
13.39532713851763
 20
-0.1283655027760754
 30
0.0
 10
13.37710655079426
 20
0.1375780039340138
 30
0.0
 10
13.3418586731269
 20
0.6598044864130113
 30
0.0
 10
13.32478927458599
 20
0.9163727183407593
 30
0.0
 10
13.30678721167358
 20
1.171790518917367
 30
0.0
  0
SPLINE
  5
C6
330
1F
100
AcDbEntity
  8
0
  6
Continuous
 62
     1
370
    15
100
AcDbSpline
210
0.0
220
0.0
230
1.0
 70
     8
 71
     3
 72
     8
 73
     4
 74
     0
 42
0.000000001
 43
0.00000001
 40
0.0
 40
0.0
 40
0.0
 40
0.0
 40
1.0
 40
1.0
 40
1.0
 40
1.0
 10
14.55990544059272
 20
-2.442725525455202
 30
0.0
 10
14.48537634113104
 20
-2.429938611435107
 30
0.0
 10
14.39504939153326
 20
-2.397576893230029
 30
0.0
 10
14.30212989404399
 20
-2.351750207656501
 30
0.0
  0
SPLINE
  5
C7
330
1F
100
AcDbEntity
  8
0
  6
Continuous
 62
     1
370
    15
100
AcDbSpline
210
0.0
220
0.0
230
1.0
 70
     8
 71
     3
 72
    14
 73
    10
 74
     0
 42
0.000000001
 43
0.00000001
 40
0.0
 40
0.0
 40
0.0
 40
0.0
 40
0.25
 40
0.25
 40
0.5
 40
0.5
 40
0.75
 40
0.75
 40
1.0
 40
1.0
 40
1.0
 40
1.0
 10
14.3021298940425
 20
-2.351750207655749
 30
0.0
 10
14.28481791320914
 20
-2.122297039356398
 30
0.0
 10
14.26762260657723
 20
-1.882457621638706
 30
0.0
 10
14.23167835052157
 20
-1.380040895938525
 30
0.0
 10
14.21329646801909
 20
-1.119082251735029
 30
0.0
 10
14.17649665771067
 20
-0.588601464493951
 30
0.0
 10
14.15808256793096
 20
-0.3191345166646501
 30
0.0
 10
14.12201402098237
 20
0.2165628357979717
 30
0.0
 10
14.10460268220547
 20
0.4815465242267735
 30
0.0
 10
14.08739238632666
 20
0.7420698525434801
 30
0.0
  0
SPLINE
  5
C8
330
1F
100
AcDbEntity
  8
0
  6
Continuous
 62
     1
370
    15
100
AcDbSpline
210
0.0
220
0.0
230
1.0
 70
     8
 71
     3
 72
     8
 73
     4
 74
     0
 42
0.000000001
 43
0.00000001
 40
0.0
 40
0.0
 40
0.0
 40
0.0
 40
1.0
 40
1.0
 40
1.0
 40
1.0
 10
14.08739238632852
 20
0.7420698525429268
 30
0.0
 10
14.1765901870227
 20
0.6914109522871363
 30
0.0
 10
14.2670021634366
 20
0.6390232620547711
 30
0.0
 10
14.34330391519056
 20
0.5978430300644642
 30
0.0
  0
SPLINE
  5
C9
330
1F
100
AcDbEntity
  8
0
  6
Continuous
 62
     1
370
    15
100
AcDbSpline
210
0.0
220
0.0
230
1.0
 70
     8
 71
     3
 72
    12
 73
     8
 74
     0
 42
0.000000001
 43
0.00000001
 40
0.0
 40
0.0
 40
0.0
 40
0.0
 40
0.2499999999999999
 40
0.2499999999999999
 40
0.4999999999999998
 40
0.4999999999999998
 40
1.0
 40
1.0
 40
1.0
 40
1.0
 10
14.55990544059289
 20
-2.442725525455123
 30
0.0
 10
14.54220916730602
 20
-2.219298710276239
 30
0.0
 10
14.52520875587891
 20
-1.987289198118452
 30
0.0
 10
14.48931713872148
 20
-1.49817991864926
 30
0.0
 10
14.47088188914887
 20
-1.242943569930268
 30
0.0
 10
14.41529093353927
 20
-0.4611923260482926
 30
0.0
 10
14.37790711880499
 20
0.0808903711545491
 30
0.0
 10
14.34330391519117
 20
0.5978430300640207
 30
0.0
  0
SPLINE
  5
CA
330
1F
100
AcDbEntity
  8
0
  6
Continuous
 62
     1
370
    15
100
AcDbSpline
210
0.0
220
0.0
230
1.0
 70
     8
 71
     3
 72
     8
 73
     4
 74
     0
 42
0.000000001
 43
0.00000001
 40
0.0
 40
0.0
 40
0.0
 40
0.0
 40
1.0
 40
1.0
 40
1.0
 40
1.0
 10
14.30212989404251
 20
-2.351750207655763
 30
0.0
 10
14.21289667685826
 20
-2.306818765291329
 30
0.0
 10
14.12248472654869
 20
-2.250234363280137
 30
0.0
 10
14.04619117712793
 20
-2.191975624459918
 30
0.0
  0
SPLINE
  5
CB
330
1F
100
AcDbEntity
  8
0
  6
Continuous
 62
     1
370
    15
100
AcDbSpline
210
0.0
220
0.0
230
1.0
 70
     8
 71
     3
 72
    12
 73
     8
 74
     0
 42
0.000000001
 43
0.00000001
 40
0.0
 40
0.0
 40
0.0
 40
0.0
 40
0.5
 40
0.5
 40
0.75
 40
0.75
 40
1.0
 40
1.0
 40
1.0
 40
1.0
 10
14.04619117712742
 20
-2.191975624459531
 30
0.0
 10
14.01172399403549
 20
-1.732784646564683
 30
0.0
 10
13.97451380041072
 20
-1.219276505158351
 30
0.0
 10
13.91887354546349
 20
-0.4280070297688557
 30
0.0
 10
13.90038937970318
 20
-0.1611279555230668
 30
0.0
 10
13.86434185770447
 20
0.3671630265359067
 30
0.0
 10
13.84724218352527
 20
0.6263017104841879
 30
0.0
 10
13.82963245789896
 20
0.883729821180365
 30
0.0
  0
SPLINE
  5
CC
330
1F
100
AcDbEntity
  8
0
  6
Continuous
 62
     1
370
    15
100
AcDbSpline
210
0.0
220
0.0
230
1.0
 70
     8
 71
     3
 72
     8
 73
     4
 74
     0
 42
0.000000001
 43
0.00000001
 40
0.0
 40
0.0
 40
0.0
 40
0.0
 40
1.0
 40
1.0
 40
1.0
 40
1.0
 10
13.82963245789983
 20
0.8837298211804165
 30
0.0
 10
13.90414554802433
 20
0.8446780863816477
 30
0.0
 10
13.99445163497483
 20
0.794786706254508
 30
0.0
 10
14.08739238632536
 20
0.7420698525441995
 30
0.0
  0
SPLINE
  5
CD
330
1F
100
AcDbEntity
  8
0
  6
Continuous
 62
     1
370
    15
100
AcDbSpline
210
0.0
220
0.0
230
1.0
 70
     8
 71
     3
 72
     8
 73
     4
 74
     0
 42
0.000000001
 43
0.00000001
 40
0.0
 40
0.0
 40
0.0
 40
0.0
 40
0.0001208805834613
 40
0.0001208805834613
 40
0.0001208805834613
 40
0.0001208805834613
 10
10.14245020207486
 20
-0.0694278032121898
 30
0.0
 10
10.14208961052823
 20
-0.0645914848660161
 30
0.0
 10
10.14177282301504
 20
-0.0602813428180859
 30
0.0
 10
10.14149698987786
 20
-0.0565001789835246
 30
0.0
  0
SPLINE
  5
CE
330
1F
100
AcDbEntity
  8
0
  6
Continuous
 62
     1
370
    15
100
AcDbSpline
210
0.0
220
0.0
230
1.0
 70
     8
 71
     3
 72
    12
 73
     8
 74
     0
 42
0.000000001
 43
0.00000001
 40
0.0
 40
0.0
 40
0.0
 40
0.0
 40
0.5000000000000002
 40
0.5000000000000002
 40
0.7500000000000001
 40
0.7500000000000001
 40
1.0
 40
1.0
 40
1.0
 40
1.0
 10
10.14149698987798
 20
-0.0565001789851693
 30
0.0
 10
10.10647624866895
 20
0.4839191596454968
 30
0.0
 10
10.06937302882119
 20
1.035868822406363
 30
0.0
 10
10.01516628117538
 20
1.8121788009614
 30
0.0
 10
9.997346245219527
 20
2.062344282356569
 30
0.0
 10
9.96291277219428
 20
2.53599065059611
 30
0.0
 10
9.946013241559019
 20
2.761010114367183
 30
0.0
 10
9.928269180180589
 20
2.975718873899138
 30
0.0
  0
SPLINE
  5
CF
330
1F
100
AcDbEntity
  8
0
  6
Continuous
 62
     1
370
    15
100
AcDbSpline
210
0.0
220
0.0
230
1.0
 70
     8
 71
     3
 72
     8
 73
     4
 74
     0
 42
0.000000001
 43
0.00000001
 40
0.0
 40
0.0
 40
0.0
 40
0.0
 40
1.0
 40
1.0
 40
1.0
 40
1.0
 10
30.50982519201453
 20
-1.777624172458226
 30
0.0
 10
30.43519174197655
 20
-1.752649582293852
 30
0.0
 10
30.34479512134269
 20
-1.711579243995663
 30
0.0
 10
30.25182465087032
 20
-1.661619601327664
 30
0.0
  0
SPLINE
  5
D0
330
1F
100
AcDbEntity
  8
0
  6
Continuous
 62
     1
370
    15
100
AcDbSpline
210
0.0
220
0.0
230
1.0
 70
     8
 71
     3
 72
    12
 73
     8
 74
     0
 42
0.000000001
 43
0.00000001
 40
0.0
 40
0.0
 40
0.0
 40
0.0
 40
0.5
 40
0.5
 40
0.75
 40
0.75
 40
1.0
 40
1.0
 40
1.0
 40
1.0
 10
30.25182465086871
 20
-1.661619601326786
 30
0.0
 10
30.2159804439965
 20
-1.161244933380686
 30
0.0
 10
30.17843153194251
 20
-0.6206657961875153
 30
0.0
 10
30.1242853207062
 20
0.1825132501245549
 30
0.0
 10
30.1067533027797
 20
0.4480668719390217
 30
0.0
 10
30.07247847259122
 20
0.9686431872104115
 30
0.0
 10
30.05466847750972
 20
1.229006462209016
 30
0.0
 10
30.03653827332056
 20
1.483737748325008
 30
0.0
  0
SPLINE
  5
D1
330
1F
100
AcDbEntity
  8
0
  6
Continuous
 62
     1
370
    15
100
AcDbSpline
210
0.0
220
0.0
230
1.0
 70
     8
 71
     3
 72
     8
 73
     4
 74
     0
 42
0.000000001
 43
0.00000001
 40
0.0
 40
0.0
 40
0.0
 40
0.0
 40
1.0
 40
1.0
 40
1.0
 40
1.0
 10
30.03653827332308
 20
1.483737748324818
 30
0.0
 10
30.12588291396834
 20
1.434657176397835
 30
0.0
 10
30.21639777351512
 20
1.379246245719816
 30
0.0
 10
30.29282742328856
 20
1.32937670473739
 30
0.0
  0
SPLINE
  5
D2
330
1F
100
AcDbEntity
  8
0
  6
Continuous
 62
     1
370
    15
100
AcDbSpline
210
0.0
220
0.0
230
1.0
 70
     8
 71
     3
 72
    12
 73
     8
 74
     0
 42
0.000000001
 43
0.00000001
 40
0.0
 40
0.0
 40
0.0
 40
0.0
 40
0.5
 40
0.5
 40
0.75
 40
0.75
 40
1.0
 40
1.0
 40
1.0
 40
1.0
 10
30.50982519201525
 20
-1.777624172457995
 30
0.0
 10
30.47404691833866
 20
-1.290817224030406
 30
0.0
 10
30.43622238266749
 20
-0.759783619528527
 30
0.0
 10
30.38124808116319
 20
0.0358167668608645
 30
0.0
 10
30.36322377879511
 20
0.3006734073499225
 30
0.0
 10
30.32850738699687
 20
0.8185309434507646
 30
0.0
 10
30.31099559801784
 20
1.075624463037187
 30
0.0
 10
30.29282742328859
 20
1.329376704737377
 30
0.0
  0
SPLINE
  5
D3
330
1F
100
AcDbEntity
  8
0
  6
Continuous
 62
     1
370
    15
100
AcDbSpline
210
0.0
220
0.0
230
1.0
 70
     8
 71
     3
 72
     9
 73
     5
 74
     0
 42
0.000000001
 43
0.00000001
 40
0.0
 40
0.0
 40
0.0
 40
0.0
 40
0.2564448294316092
 40
0.9999999999999999
 40
0.9999999999999999
 40
0.9999999999999999
 40
0.9999999999999999
 10
31.21674872817848
 20
-2.163866972580633
 30
0.0
 10
31.16718600035202
 20
-2.176771938937843
 30
0.0
 10
30.97391742115578
 20
-2.227094522496313
 30
0.0
 10
30.75693438922911
 20
-2.325947473730094
 30
0.0
 10
30.59559553391443
 20
-2.399450096745917
 30
0.0
  0
SPLINE
  5
D4
330
1F
100
AcDbEntity
  8
0
  6
Continuous
 62
     1
370
    15
100
AcDbSpline
210
0.0
220
0.0
230
1.0
 70
     8
 71
     3
 72
     8
 73
     4
 74
     0
 42
0.000000001
 43
0.00000001
 40
0.0
 40
0.0
 40
0.0
 40
0.0
 40
1.0
 40
1.0
 40
1.0
 40
1.0
 10
32.13715701540224
 20
-2.783011091606211
 30
0.0
 10
31.61008541575844
 20
-2.702340508576643
 30
0.0
 10
31.0967002496818
 20
-2.57281387834536
 30
0.0
 10
30.59559553391376
 20
-2.399450096748649
 30
0.0
  0
LINE
  5
D5
330
1F
100
AcDbEntity
  8
0
  6
Continuous
 62
     1
370
    15
100
AcDbLine
 10
32.13715701540224
 20
-4.090004016990275
 30
0.0
 11
32.13715701540224
 21
-2.783011091606213
 31
0.0
  0
SPLINE
  5
D6
330
1F
100
AcDbEntity
  8
0
  6
Continuous
 62
     1
370
    15
100
AcDbSpline
210
0.0
220
0.0
230
1.0
 70
     8
 71
     3
 72
     8
 73
     4
 74
     0
 42
0.000000001
 43
0.00000001
 40
0.0
 40
0.0
 40
0.0
 40
0.0
 40
1.0
 40
1.0
 40
1.0
 40
1.0
 10
32.06436905653215
 20
-4.167857822730586
 30
0.0
 10
32.088563504333
 20
-4.141831647308876
 30
0.0
 10
32.11282469684162
 20
-4.115878972976915
 30
0.0
 10
32.13715701540204
 20
-4.090004016990724
 30
0.0
  0
SPLINE
  5
D7
330
1F
100
AcDbEntity
  8
0
  6
Continuous
 62
     1
370
    15
100
AcDbSpline
210
0.0
220
0.0
230
1.0
 70
     8
 71
     3
 72
     8
 73
     4
 74
     0
 42
0.000000001
 43
0.00000001
 40
0.0
 40
0.0
 40
0.0
 40
0.0
 40
1.0
 40
1.0
 40
1.0
 40
1.0
 10
32.02837335443864
 20
-4.197446521710446
 30
0.0
 10
32.04006557668744
 20
-4.187014182206602
 30
0.0
 10
32.05207434848176
 20
-4.177168527168629
 30
0.0
 10
32.06436905653603
 20
-4.167857822733587
 30
0.0
  0
SPLINE
  5
D8
330
1F
100
AcDbEntity
  8
0
  6
Continuous
 62
     1
370
    15
100
AcDbSpline
210
0.0
220
0.0
230
1.0
 70
     8
 71
     3
 72
    10
 73
     6
 74
     0
 42
0.000000001
 43
0.00000001
 40
0.0
 40
0.0
 40
0.0
 40
0.0
 40
0.4999999999999998
 40
0.4999999999999998
 40
1.0
 40
1.0
 40
1.0
 40
1.0
 10
31.50801466231812
 20
-4.315155341258377
 30
0.0
 10
31.58267298283483
 20
-4.349132240784362
 30
0.0
 10
31.67181822026695
 20
-4.354958391116164
 30
0.0
 10
31.85425467941276
 20
-4.314909317728336
 30
0.0
 10
31.94864525439052
 20
-4.268583606688791
 30
0.0
 10
32.02837335443863
 20
-4.19744652171045
 30
0.0
  0
SPLINE
  5
D9
330
1F
100
AcDbEntity
  8
0
  6
Continuous
 62
     1
370
    15
100
AcDbSpline
210
0.0
220
0.0
230
1.0
 70
     8
 71
     3
 72
    10
 73
     6
 74
     0
 42
0.000000001
 43
0.00000001
 40
0.0
 40
0.0
 40
0.0
 40
0.0
 40
0.5
 40
0.5
 40
1.0
 40
1.0
 40
1.0
 40
1.0
 10
30.98495038026391
 20
-4.417997336850985
 30
0.0
 10
31.06401491090652
 20
-4.347676901450965
 30
0.0
 10
31.15869552626907
 20
-4.30579485026542
 30
0.0
 10
31.34455083511622
 20
-4.272698911246158
 30
0.0
 10
31.43358869422843
 20
-4.281284185004036
 30
0.0
 10
31.50801466231812
 20
-4.315155341258373
 30
0.0
  0
SPLINE
  5
DA
330
1F
100
AcDbEntity
  8
0
  6
Continuous
 62
     1
370
    15
100
AcDbSpline
210
0.0
220
0.0
230
1.0
 70
     8
 71
     3
 72
     8
 73
     4
 74
     0
 42
0.000000001
 43
0.00000001
 40
0.0
 40
0.0
 40
0.0
 40
0.0
 40
1.0
 40
1.0
 40
1.0
 40
1.0
 10
30.72875597892319
 20
-4.543630935360549
 30
0.0
 10
30.81804045142567
 20
-4.527860102853682
 30
0.0
 10
30.90854850920119
 20
-4.48594958794031
 30
0.0
 10
30.98495038026328
 20
-4.417997336851502
 30
0.0
  0
SPLINE
  5
DB
330
1F
100
AcDbEntity
  8
0
  6
Continuous
 62
     1
370
    15
100
AcDbSpline
210
0.0
220
0.0
230
1.0
 70
     8
 71
     3
 72
     8
 73
     4
 74
     0
 42
0.000000001
 43
0.00000001
 40
0.0
 40
0.0
 40
0.0
 40
0.0
 40
1.0
 40
1.0
 40
1.0
 40
1.0
 10
30.4708148172098
 20
-4.50002294471481
 30
0.0
 10
30.54538377666032
 20
-4.543230991277679
 30
0.0
 10
30.63575709451673
 20
-4.557744593807787
 30
0.0
 10
30.72875597892002
 20
-4.54363093536088
 30
0.0
  0
SPLINE
  5
DC
330
1F
100
AcDbEntity
  8
0
  6
Continuous
 62
     1
370
    15
100
AcDbSpline
210
0.0
220
0.0
230
1.0
 70
     8
 71
     3
 72
    10
 73
     6
 74
     0
 42
0.000000001
 43
0.00000001
 40
0.0
 40
0.0
 40
0.0
 40
0.0
 40
0.5000000000000001
 40
0.5000000000000001
 40
1.0
 40
1.0
 40
1.0
 40
1.0
 10
29.94814692455901
 20
-4.563489073025298
 30
0.0
 10
30.02769298662822
 20
-4.496069412521286
 30
0.0
 10
30.1225038861858
 20
-4.459608921466053
 30
0.0
 10
30.30808653627785
 20
-4.440350821326764
 30
0.0
 10
30.3968447963202
 20
-4.457161945574351
 30
0.0
 10
30.47081481720895
 20
-4.500022944714113
 30
0.0
  0
SPLINE
  5
DD
330
1F
100
AcDbEntity
  8
0
  6
Continuous
 62
     1
370
    15
100
AcDbSpline
210
0.0
220
0.0
230
1.0
 70
     8
 71
     3
 72
    10
 73
     6
 74
     0
 42
0.000000001
 43
0.00000001
 40
0.0
 40
0.0
 40
0.0
 40
0.0
 40
0.5
 40
0.5
 40
1.0
 40
1.0
 40
1.0
 40
1.0
 10
29.4286744890619
 20
-4.610283204850136
 30
0.0
 10
29.50316760537067
 20
-4.660201574700924
 30
0.0
 10
29.59214839802988
 20
-4.681419864643102
 30
0.0
 10
29.77430544049715
 20
-4.666965168857971
 30
0.0
 10
29.86857479245103
 20
-4.63093082932032
 30
0.0
 10
29.94814692455902
 20
-4.563489073025283
 30
0.0
  0
SPLINE
  5
DE
330
1F
100
AcDbEntity
  8
0
  6
Continuous
 62
     1
370
    15
100
AcDbSpline
210
0.0
220
0.0
230
1.0
 70
     8
 71
     3
 72
    10
 73
     6
 74
     0
 42
0.000000001
 43
0.00000001
 40
0.0
 40
0.0
 40
0.0
 40
0.0
 40
0.5
 40
0.5
 40
1.0
 40
1.0
 40
1.0
 40
1.0
 10
28.90599536244475
 20
-4.641188069260156
 30
0.0
 10
28.98499493601404
 20
-4.576528863119012
 30
0.0
 10
29.07959408269635
 20
-4.544612192408445
 30
0.0
 10
29.26531808983726
 20
-4.536833619485761
 30
0.0
 10
29.35432038662179
 20
-4.560457989186674
 30
0.0
 10
29.42867448906189
 20
-4.610283204850144
 30
0.0
  0
SPLINE
  5
DF
330
1F
100
AcDbEntity
  8
0
  6
Continuous
 62
     1
370
    15
100
AcDbSpline
210
0.0
220
0.0
230
1.0
 70
     8
 71
     3
 72
     8
 73
     4
 74
     0
 42
0.000000001
 43
0.00000001
 40
0.0
 40
0.0
 40
0.0
 40
0.0
 40
1.0
 40
1.0
 40
1.0
 40
1.0
 10
28.64979686477107
 20
-4.737944519293321
 30
0.0
 10
28.73906833640861
 20
-4.734808185841654
 30
0.0
 10
28.82958197113598
 20
-4.703730548887917
 30
0.0
 10
28.90599536244414
 20
-4.641188069260655
 30
0.0
  0
SPLINE
  5
E0
330
1F
100
AcDbEntity
  8
0
  6
Continuous
 62
     1
370
    15
100
AcDbSpline
210
0.0
220
0.0
230
1.0
 70
     8
 71
     3
 72
     8
 73
     4
 74
     0
 42
0.000000001
 43
0.00000001
 40
0.0
 40
0.0
 40
0.0
 40
0.0
 40
1.0
 40
1.0
 40
1.0
 40
1.0
 10
28.3917121784589
 20
-4.651304224822568
 30
0.0
 10
28.46635508718481
 20
-4.709124916825033
 30
0.0
 10
28.55675020098042
 20
-4.738715111317385
 30
0.0
 10
28.64979686476793
 20
-4.737944519293364
 30
0.0
  0
SPLINE
  5
E1
330
1F
100
AcDbEntity
  8
0
  6
Continuous
 62
     1
370
    15
100
AcDbSpline
210
0.0
220
0.0
230
1.0
 70
     8
 71
     3
 72
    10
 73
     6
 74
     0
 42
0.000000001
 43
0.00000001
 40
0.0
 40
0.0
 40
0.0
 40
0.0
 40
0.5
 40
0.5
 40
1.0
 40
1.0
 40
1.0
 40
1.0
 10
27.86846475476313
 20
-4.640706953971203
 30
0.0
 10
27.94811120439518
 20
-4.58113178931495
 30
0.0
 10
28.043024838313
 20
-4.555868527560914
 30
0.0
 10
28.228829827651
 20
-4.562626235669489
 30
0.0
 10
28.31769523280024
 20
-4.593968423056578
 30
0.0
 10
28.39171217845806
 20
-4.651304224821836
 30
0.0
  0
SPLINE
  5
E2
330
1F
100
AcDbEntity
  8
0
  6
Continuous
 62
     1
370
    15
100
AcDbSpline
210
0.0
220
0.0
230
1.0
 70
     8
 71
     3
 72
    10
 73
     6
 74
     0
 42
0.000000001
 43
0.00000001
 40
0.0
 40
0.0
 40
0.0
 40
0.0
 40
0.5
 40
0.5
 40
1.0
 40
1.0
 40
1.0
 40
1.0
 10
27.34811631250756
 20
-4.613973742479111
 30
0.0
 10
27.4227507088107
 20
-4.676694611549117
 30
0.0
 10
27.51187133771503
 20
-4.711881323740687
 30
0.0
 10
27.69430971181172
 20
-4.723809458889676
 30
0.0
 10
27.7887348216165
 20
-4.700344563898403
 30
0.0
 10
27.86846475476314
 20
-4.640706953971195
 30
0.0
  0
SPLINE
  5
E3
330
1F
100
AcDbEntity
  8
0
  6
Continuous
 62
     1
370
    15
100
AcDbSpline
210
0.0
220
0.0
230
1.0
 70
     8
 71
     3
 72
    10
 73
     6
 74
     0
 42
0.000000001
 43
0.00000001
 40
0.0
 40
0.0
 40
0.0
 40
0.0
 40
0.5
 40
0.5
 40
1.0
 40
1.0
 40
1.0
 40
1.0
 10
26.82482122201676
 20
-4.570870370014186
 30
0.0
 10
26.90391756214966
 20
-4.515932404241016
 30
0.0
 10
26.99861115188077
 20
-4.496075814109865
 30
0.0
 10
27.18451522356792
 20
-4.514197903890308
 30
0.0
 10
27.27362893888177
 20
-4.551376427568496
 30
0.0
 10
27.34811631250756
 20
-4.613973742479111
 30
0.0
  0
SPLINE
  5
E4
330
1F
100
AcDbEntity
  8
0
  6
Continuous
 62
     1
370
    15
100
AcDbSpline
210
0.0
220
0.0
230
1.0
 70
     8
 71
     3
 72
     8
 73
     4
 74
     0
 42
0.000000001
 43
0.00000001
 40
0.0
 40
0.0
 40
0.0
 40
0.0
 40
1.0
 40
1.0
 40
1.0
 40
1.0
 10
26.56844114590966
 20
-4.63242870399856
 30
0.0
 10
26.65775959631227
 20
-4.64220190107915
 30
0.0
 10
26.74832464711339
 20
-4.624002616167748
 30
0.0
 10
26.82482122201616
 20
-4.570870370014608
 30
0.0
  0
SPLINE
  5
E5
330
1F
100
AcDbEntity
  8
0
  6
Continuous
 62
     1
370
    15
100
AcDbSpline
210
0.0
220
0.0
230
1.0
 70
     8
 71
     3
 72
     8
 73
     4
 74
     0
 42
0.000000001
 43
0.00000001
 40
0.0
 40
0.0
 40
0.0
 40
0.0
 40
1.0
 40
1.0
 40
1.0
 40
1.0
 10
26.31026430066165
 20
-4.508084692822242
 30
0.0
 10
26.38496068360261
 20
-4.576910444399457
 30
0.0
 10
26.47543327508583
 20
-4.619729533809087
 30
0.0
 10
26.56844114590655
 20
-4.632428703998292
 30
0.0
  0
SPLINE
  5
E6
330
1F
100
AcDbEntity
  8
0
  6
Continuous
 62
     1
370
    15
100
AcDbSpline
210
0.0
220
0.0
230
1.0
 70
     8
 71
     3
 72
    10
 73
     6
 74
     0
 42
0.000000001
 43
0.00000001
 40
0.0
 40
0.0
 40
0.0
 40
0.0
 40
0.5
 40
0.5
 40
1.0
 40
1.0
 40
1.0
 40
1.0
 10
25.78713227357622
 20
-4.424222663643227
 30
0.0
 10
25.86673242294149
 20
-4.376257067015342
 30
0.0
 10
25.96161413322931
 20
-4.363750536066559
 30
0.0
 10
26.14739328715297
 20
-4.396036966562447
 30
0.0
 10
26.23625065554816
 20
-4.439888020488326
 30
0.0
 10
26.31026430066079
 20
-4.508084692821462
 30
0.0
  0
SPLINE
  5
E7
330
1F
100
AcDbEntity
  8
0
  6
Continuous
 62
     1
370
    15
100
AcDbSpline
210
0.0
220
0.0
230
1.0
 70
     8
 71
     3
 72
    10
 73
     6
 74
     0
 42
0.000000001
 43
0.00000001
 40
0.0
 40
0.0
 40
0.0
 40
0.0
 40
0.5
 40
0.5
 40
1.0
 40
1.0
 40
1.0
 40
1.0
 10
25.26719760514271
 20
-4.325649279030025
 30
0.0
 10
25.34173652441397
 20
-4.397207650884193
 30
0.0
 10
25.43077643826316
 20
-4.444160135644931
 30
0.0
 10
25.61308674580145
 20
-4.481703576528814
 30
0.0
 10
25.70745870971933
 20
-4.472232498503035
 30
0.0
 10
25.78713227357619
 20
-4.424222663642954
 30
0.0
  0
SPLINE
  5
E8
330
1F
100
AcDbEntity
  8
0
  6
Continuous
 62
     1
370
    15
100
AcDbSpline
210
0.0
220
0.0
230
1.0
 70
     8
 71
     3
 72
    10
 73
     6
 74
     0
 42
0.000000001
 43
0.00000001
 40
0.0
 40
0.0
 40
0.0
 40
0.0
 40
0.5
 40
0.5
 40
1.0
 40
1.0
 40
1.0
 40
1.0
 10
24.74461837378923
 20
-4.211148926236949
 30
0.0
 10
24.82358584356821
 20
-4.169489857726328
 30
0.0
 10
24.91814674351953
 20
-4.162935641464212
 30
0.0
 10
25.10381680620877
 20
-4.205833613125762
 30
0.0
 10
25.19281794316245
 20
-4.254243796331687
 30
0.0
 10
25.26719760514269
 20
-4.325649279029916
 30
0.0
  0
SPLINE
  5
E9
330
1F
100
AcDbEntity
  8
0
  6
Continuous
 62
     1
370
    15
100
AcDbSpline
210
0.0
220
0.0
230
1.0
 70
     8
 71
     3
 72
     8
 73
     4
 74
     0
 42
0.000000001
 43
0.00000001
 40
0.0
 40
0.0
 40
0.0
 40
0.0
 40
1.0
 40
1.0
 40
1.0
 40
1.0
 10
24.48866800719015
 20
-4.23371676577155
 30
0.0
 10
24.57790663207364
 20
-4.255692258824454
 30
0.0
 10
24.66830192963425
 20
-4.251409453570759
 30
0.0
 10
24.74461837378861
 20
-4.211148926237252
 30
0.0
  0
SPLINE
  5
EA
330
1F
100
AcDbEntity
  8
0
  6
Continuous
 62
     1
370
    15
100
AcDbSpline
210
0.0
220
0.0
230
1.0
 70
     8
 71
     3
 72
     8
 73
     4
 74
     0
 42
0.000000001
 43
0.00000001
 40
0.0
 40
0.0
 40
0.0
 40
0.0
 40
1.0
 40
1.0
 40
1.0
 40
1.0
 10
24.23092473255917
 20
-4.079843592593424
 30
0.0
 10
24.30546003408272
 20
-4.155157470882315
 30
0.0
 10
24.39578163127615
 20
-4.208452624929954
 30
0.0
 10
24.48866800718699
 20
-4.23371676577098
 30
0.0
  0
SPLINE
  5
EB
330
1F
100
AcDbEntity
  8
0
  6
Continuous
 62
     1
370
    15
100
AcDbSpline
210
0.0
220
0.0
230
1.0
 70
     8
 71
     3
 72
    10
 73
     6
 74
     0
 42
0.000000001
 43
0.00000001
 40
0.0
 40
0.0
 40
0.0
 40
0.0
 40
0.4999999999999998
 40
0.4999999999999998
 40
1.0
 40
1.0
 40
1.0
 40
1.0
 10
23.70818906319137
 20
-3.928341777667919
 30
0.0
 10
23.78771491043928
 20
-3.8950153634737
 30
0.0
 10
23.88251299515174
 20
-3.895996839033498
 30
0.0
 10
24.06816607015112
 20
-3.951617728002067
 30
0.0
 10
24.1569871218192
 20
-4.005133648413372
 30
0.0
 10
24.23092473255833
 20
-4.079843592592829
 30
0.0
  0
SPLINE
  5
EC
330
1F
100
AcDbEntity
  8
0
  6
Continuous
 62
     1
370
    15
100
AcDbSpline
210
0.0
220
0.0
230
1.0
 70
     8
 71
     3
 72
    10
 73
     6
 74
     0
 42
0.000000001
 43
0.00000001
 40
0.0
 40
0.0
 40
0.0
 40
0.0
 40
0.5
 40
0.5
 40
1.0
 40
1.0
 40
1.0
 40
1.0
 10
23.18811135765743
 20
-3.764026428146604
 30
0.0
 10
23.26268047636491
 20
-3.839916721639075
 30
0.0
 10
23.35172781768418
 20
-3.895709424615784
 30
0.0
 10
23.53407137033957
 20
-3.956577048762503
 30
0.0
 10
23.62848268311102
 20
-3.961743846660634
 30
0.0
 10
23.70818906319137
 20
-3.928341777667912
 30
0.0
  0
SPLINE
  5
ED
330
1F
100
AcDbEntity
  8
0
  6
Continuous
 62
     1
370
    15
100
AcDbSpline
210
0.0
220
0.0
230
1.0
 70
     8
 71
     3
 72
    10
 73
     6
 74
     0
 42
0.000000001
 43
0.00000001
 40
0.0
 40
0.0
 40
0.0
 40
0.0
 40
0.5
 40
0.5
 40
1.0
 40
1.0
 40
1.0
 40
1.0
 10
22.66487310971553
 20
-3.584950904670284
 30
0.0
 10
22.74401329193822
 20
-3.559113705730558
 30
0.0
 10
22.83870043526833
 20
-3.566420579501508
 30
0.0
 10
23.02453487615298
 20
-3.631595882102312
 30
0.0
 10
23.11362576098022
 20
-3.688221136481969
 30
0.0
 10
23.18811135765743
 20
-3.7640264281466
 30
0.0
  0
SPLINE
  5
EE
330
1F
100
AcDbEntity
  8
0
  6
Continuous
 62
     1
370
    15
100
AcDbSpline
210
0.0
220
0.0
230
1.0
 70
     8
 71
     3
 72
     8
 73
     4
 74
     0
 42
0.000000001
 43
0.00000001
 40
0.0
 40
0.0
 40
0.0
 40
0.0
 40
1.0
 40
1.0
 40
1.0
 40
1.0
 10
22.40851921981417
 20
-3.56712757123459
 30
0.0
 10
22.49788378293916
 20
-3.59993812180744
 30
0.0
 10
22.58842965767328
 20
-3.60990769176082
 30
0.0
 10
22.66487310971491
 20
-3.584950904670486
 30
0.0
  0
SPLINE
  5
EF
330
1F
100
AcDbEntity
  8
0
  6
Continuous
 62
     1
370
    15
100
AcDbSpline
210
0.0
220
0.0
230
1.0
 70
     8
 71
     3
 72
     8
 73
     4
 74
     0
 42
0.000000001
 43
0.00000001
 40
0.0
 40
0.0
 40
0.0
 40
0.0
 40
1.0
 40
1.0
 40
1.0
 40
1.0
 10
22.15033873855131
 20
-3.393298767470471
 30
0.0
 10
22.22501556090013
 20
-3.470451997204011
 30
0.0
 10
22.31548278721352
 20
-3.530863153983932
 30
0.0
 10
22.40851921981101
 20
-3.567127571233748
 30
0.0
  0
SPLINE
  5
F0
330
1F
100
AcDbEntity
  8
0
  6
Continuous
 62
     1
370
    15
100
AcDbSpline
210
0.0
220
0.0
230
1.0
 70
     8
 71
     3
 72
    10
 73
     6
 74
     0
 42
0.000000001
 43
0.00000001
 40
0.0
 40
0.0
 40
0.0
 40
0.0
 40
0.5
 40
0.5
 40
1.0
 40
1.0
 40
1.0
 40
1.0
 10
21.62702118537024
 20
-3.18335330554562
 30
0.0
 10
21.70663073121659
 20
-3.16679596200327
 30
0.0
 10
21.80151643655889
 20
-3.181323543500658
 30
0.0
 10
21.98734715999925
 20
-3.256937069090797
 30
0.0
 10
22.07627558335738
 20
-3.316779555113124
 30
0.0
 10
22.15033873855046
 20
-3.393298767469947
 30
0.0
  0
SPLINE
  5
F1
330
1F
100
AcDbEntity
  8
0
  6
Continuous
 62
     1
370
    15
100
AcDbSpline
210
0.0
220
0.0
230
1.0
 70
     8
 71
     3
 72
    10
 73
     6
 74
     0
 42
0.000000001
 43
0.00000001
 40
0.0
 40
0.0
 40
0.0
 40
0.0
 40
0.5
 40
0.5
 40
1.0
 40
1.0
 40
1.0
 40
1.0
 10
21.10666353378097
 20
-2.963252168854417
 30
0.0
 10
21.18126700028589
 20
-3.038776517739417
 30
0.0
 10
21.27034888674119
 20
-3.099944347742271
 30
0.0
 10
21.45277498009029
 20
-3.180403155478938
 30
0.0
 10
21.54723951478827
 20
-3.199946447915216
 30
0.0
 10
21.62702118537024
 20
-3.183353305545612
 30
0.0
  0
SPLINE
  5
F2
330
1F
100
AcDbEntity
  8
0
  6
Continuous
 62
     1
370
    15
100
AcDbSpline
210
0.0
220
0.0
230
1.0
 70
     8
 71
     3
 72
    10
 73
     6
 74
     0
 42
0.000000001
 43
0.00000001
 40
0.0
 40
0.0
 40
0.0
 40
0.0
 40
0.5
 40
0.5
 40
1.0
 40
1.0
 40
1.0
 40
1.0
 10
20.58353055670265
 20
-2.731375274352842
 30
0.0
 10
20.66265802281787
 20
-2.722974387201827
 30
0.0
 10
20.75739019522797
 20
-2.743445318534635
 30
0.0
 10
20.94325095954475
 20
-2.826577247613403
 30
0.0
 10
21.03222843352788
 20
-2.887898264482773
 30
0.0
 10
21.10666353378097
 20
-2.963252168854413
 30
0.0
  0
SPLINE
  5
F3
330
1F
100
AcDbEntity
  8
0
  6
Continuous
 62
     1
370
    15
100
AcDbSpline
210
0.0
220
0.0
230
1.0
 70
     8
 71
     3
 72
     8
 73
     4
 74
     0
 42
0.000000001
 43
0.00000001
 40
0.0
 40
0.0
 40
0.0
 40
0.0
 40
1.0
 40
1.0
 40
1.0
 40
1.0
 10
20.32734429041432
 20
-2.674489540008502
 30
0.0
 10
20.41665332531745
 20
-2.715998559941842
 30
0.0
 10
20.50714671327832
 20
-2.739484873715179
 30
0.0
 10
20.58353055670203
 20
-2.731375274352875
 30
0.0
  0
SPLINE
  5
F4
330
1F
100
AcDbEntity
  8
0
  6
Continuous
 62
     1
370
    15
100
AcDbSpline
210
0.0
220
0.0
230
1.0
 70
     8
 71
     3
 72
     8
 73
     4
 74
     0
 42
0.000000001
 43
0.00000001
 40
0.0
 40
0.0
 40
0.0
 40
0.0
 40
1.0
 40
1.0
 40
1.0
 40
1.0
 10
20.06944158189802
 20
-2.491933823224928
 30
0.0
 10
20.14400656604547
 20
-2.565950204383548
 30
0.0
 10
20.2343828045036
 20
-2.629594931117135
 30
0.0
 10
20.32734429041116
 20
-2.674489540007432
 30
0.0
  0
SPLINE
  5
F5
330
1F
100
AcDbEntity
  8
0
  6
Continuous
 62
     1
370
    15
100
AcDbSpline
210
0.0
220
0.0
230
1.0
 70
     8
 71
     3
 72
    10
 73
     6
 74
     0
 42
0.000000001
 43
0.00000001
 40
0.0
 40
0.0
 40
0.0
 40
0.0
 40
0.5
 40
0.5
 40
1.0
 40
1.0
 40
1.0
 40
1.0
 10
19.54687491539805
 20
-2.237185801834389
 30
0.0
 10
19.62634234808808
 20
-2.238424378423337
 30
0.0
 10
19.72108944405874
 20
-2.265493172697418
 30
0.0
 10
19.90668379973415
 20
-2.356196825987021
 30
0.0
 10
19.99549445258755
 20
-2.418530751109738
 30
0.0
 10
20.06944158189713
 20
-2.491933823224292
 30
0.0
  0
SPLINE
  5
F6
330
1F
100
AcDbEntity
  8
0
  6
Continuous
 62
     1
370
    15
100
AcDbSpline
210
0.0
220
0.0
230
1.0
 70
     8
 71
     3
 72
    10
 73
     6
 74
     0
 42
0.000000001
 43
0.00000001
 40
0.0
 40
0.0
 40
0.0
 40
0.0
 40
0.5
 40
0.5
 40
1.0
 40
1.0
 40
1.0
 40
1.0
 10
19.02731806529087
 20
-1.975552397602189
 30
0.0
 10
19.10182757830765
 20
-2.045772592899455
 30
0.0
 10
19.19075135148401
 20
-2.108415323097785
 30
0.0
 10
19.37288987842514
 20
-2.203323140103255
 30
0.0
 10
19.46722117136023
 20
-2.235944321403296
 30
0.0
 10
19.54687491539805
 20
-2.237185801834305
 30
0.0
  0
SPLINE
  5
F7
330
1F
100
AcDbEntity
  8
0
  6
Continuous
 62
     1
370
    15
100
AcDbSpline
210
0.0
220
0.0
230
1.0
 70
     8
 71
     3
 72
    10
 73
     6
 74
     0
 42
0.000000001
 43
0.00000001
 40
0.0
 40
0.0
 40
0.0
 40
0.0
 40
0.5
 40
0.5
 40
1.0
 40
1.0
 40
1.0
 40
1.0
 10
18.5045830109426
 20
-1.706184451853292
 30
0.0
 10
18.58363129131987
 20
-1.715740439836477
 30
0.0
 10
18.67828146393015
 20
-1.748037437891169
 30
0.0
 10
18.86402920293249
 20
-1.843593636320522
 30
0.0
 10
18.95298546734434
 20
-1.905498932837435
 30
0.0
 10
19.02731806529088
 20
-1.975552397602186
 30
0.0
  0
SPLINE
  5
F8
330
1F
100
AcDbEntity
  8
0
  6
Continuous
 62
     1
370
    15
100
AcDbSpline
210
0.0
220
0.0
230
1.0
 70
     8
 71
     3
 72
     8
 73
     4
 74
     0
 42
0.000000001
 43
0.00000001
 40
0.0
 40
0.0
 40
0.0
 40
0.0
 40
1.0
 40
1.0
 40
1.0
 40
1.0
 10
18.24840102444408
 20
-1.613778379424898
 30
0.0
 10
18.33770357564939
 20
-1.661391908241508
 30
0.0
 10
18.42820334988626
 20
-1.696951067904379
 30
0.0
 10
18.504583010942
 20
-1.706184451853222
 30
0.0
  0
SPLINE
  5
F9
330
1F
100
AcDbEntity
  8
0
  6
Continuous
 62
     1
370
    15
100
AcDbSpline
210
0.0
220
0.0
230
1.0
 70
     8
 71
     3
 72
     8
 73
     4
 74
     0
 42
0.000000001
 43
0.00000001
 40
0.0
 40
0.0
 40
0.0
 40
0.0
 40
1.0
 40
1.0
 40
1.0
 40
1.0
 10
17.99036015269902
 20
-1.433781522453709
 30
0.0
 10
18.06497579213575
 20
-1.500083087580416
 30
0.0
 10
18.15538737704613
 20
-1.563021781580793
 30
0.0
 10
18.24840102444093
 20
-1.613778379423706
 30
0.0
  0
SPLINE
  5
FA
330
1F
100
AcDbEntity
  8
0
  6
Continuous
 62
     1
370
    15
100
AcDbSpline
210
0.0
220
0.0
230
1.0
 70
     8
 71
     3
 72
    10
 73
     6
 74
     0
 42
0.000000001
 43
0.00000001
 40
0.0
 40
0.0
 40
0.0
 40
0.0
 40
0.5
 40
0.5
 40
1.0
 40
1.0
 40
1.0
 40
1.0
 10
17.46711995545436
 20
-1.149428457499621
 30
0.0
 10
17.54671148153265
 20
-1.16853641033908
 30
0.0
 10
17.64155776513902
 20
-1.2066198447795
 30
0.0
 10
17.82733869386389
 20
-1.306948829472491
 30
0.0
 10
17.91629076955024
 20
-1.367965346812886
 30
0.0
 10
17.99036015269817
 20
-1.433781522453436
 30
0.0
  0
SPLINE
  5
FB
330
1F
100
AcDbEntity
  8
0
  6
Continuous
 62
     1
370
    15
100
AcDbSpline
210
0.0
220
0.0
230
1.0
 70
     8
 71
     3
 72
    10
 73
     6
 74
     0
 42
0.000000001
 43
0.00000001
 40
0.0
 40
0.0
 40
0.0
 40
0.0
 40
0.5
 40
0.5
 40
1.0
 40
1.0
 40
1.0
 40
1.0
 10
16.94667864850987
 20
-0.8623874626728918
 30
0.0
 10
17.02136751325107
 20
-0.9229425247055105
 30
0.0
 10
17.11052676503686
 20
-0.9830029500227904
 30
0.0
 10
17.29295973767494
 20
-1.086402487176137
 30
0.0
 10
17.38733888554204
 20
-1.130274999883178
 30
0.0
 10
17.46711995545436
 20
-1.149428457499591
 30
0.0
  0
SPLINE
  5
FC
330
1F
100
AcDbEntity
  8
0
  6
Continuous
 62
     1
370
    15
100
AcDbSpline
210
0.0
220
0.0
230
1.0
 70
     8
 71
     3
 72
    10
 73
     6
 74
     0
 42
0.000000001
 43
0.00000001
 40
0.0
 40
0.0
 40
0.0
 40
0.0
 40
0.5
 40
0.5
 40
1.0
 40
1.0
 40
1.0
 40
1.0
 10
16.42340076888899
 20
-0.5720020306979883
 30
0.0
 10
16.50251887896015
 20
-0.5989860441194266
 30
0.0
 10
16.59724962334105
 20
-0.6412029428601362
 30
0.0
 10
16.78317102886024
 20
-0.7433605092956239
 30
0.0
 10
16.87222916970736
 20
-0.8020264862033311
 30
0.0
 10
16.94667864850987
 20
-0.8623874626728947
 30
0.0
  0
SPLINE
  5
FD
330
1F
100
AcDbEntity
  8
0
  6
Continuous
 62
     1
370
    15
100
AcDbSpline
210
0.0
220
0.0
230
1.0
 70
     8
 71
     3
 72
     8
 73
     4
 74
     0
 42
0.000000001
 43
0.00000001
 40
0.0
 40
0.0
 40
0.0
 40
0.0
 40
1.0
 40
1.0
 40
1.0
 40
1.0
 10
16.16707305089268
 20
-0.4497094219626775
 30
0.0
 10
16.25641186565623
 20
-0.500481840510336
 30
0.0
 10
16.34696333156324
 20
-0.5459322872113275
 30
0.0
 10
16.42340076888838
 20
-0.5720020306977867
 30
0.0
  0
SPLINE
  5
FE
330
1F
100
AcDbEntity
  8
0
  6
Continuous
 62
     1
370
    15
100
AcDbSpline
210
0.0
220
0.0
230
1.0
 70
     8
 71
     3
 72
     8
 73
     4
 74
     0
 42
0.000000001
 43
0.00000001
 40
0.0
 40
0.0
 40
0.0
 40
0.0
 40
1.0
 40
1.0
 40
1.0
 40
1.0
 10
15.908937519187
 20
-0.2835599712141431
 30
0.0
 10
15.98357912987388
 20
-0.3379797567124198
 30
0.0
 10
16.0740209703789
 20
-0.3962607494375311
 30
0.0
 10
16.16707305088953
 20
-0.4497094219614179
 30
0.0
  0
SPLINE
  5
FF
330
1F
100
AcDbEntity
  8
0
  6
Continuous
 62
     1
370
    15
100
AcDbSpline
210
0.0
220
0.0
230
1.0
 70
     8
 71
     3
 72
    10
 73
     6
 74
     0
 42
0.000000001
 43
0.00000001
 40
0.0
 40
0.0
 40
0.0
 40
0.0
 40
0.5
 40
0.5
 40
1.0
 40
1.0
 40
1.0
 40
1.0
 10
15.38575778719678
 20
0.012292815644328
 30
0.0
 10
15.46535993868414
 20
-0.0233716442682597
 30
0.0
 10
15.56017035753095
 20
-0.0700972425174796
 30
0.0
 10
15.74592390403483
 20
-0.1737285555835603
 30
0.0
 10
15.83485824717288
 20
-0.2295501761983941
 30
0.0
 10
15.90893751918614
 20
-0.2835599712141061
 30
0.0
  0
SPLINE
  5
100
330
1F
100
AcDbEntity
  8
0
  6
Continuous
 62
     1
370
    15
100
AcDbSpline
210
0.0
220
0.0
230
1.0
 70
     8
 71
     3
 72
    10
 73
     6
 74
     0
 42
0.000000001
 43
0.00000001
 40
0.0
 40
0.0
 40
0.0
 40
0.0
 40
0.5
 40
0.5
 40
1.0
 40
1.0
 40
1.0
 40
1.0
 10
14.86579467171723
 20
0.3053421689355146
 30
0.0
 10
14.94037703545734
 20
0.2584362890710333
 30
0.0
 10
15.02945689441491
 20
0.2048372455087875
 30
0.0
 10
15.21177050136087
 20
0.0998932355086349
 30
0.0
 10
15.30609586493826
 20
0.047984054886768
 30
0.0
 10
15.38575778719678
 20
0.0122928156443265
 30
0.0
  0
SPLINE
  5
101
330
1F
100
AcDbEntity
  8
0
  6
Continuous
 62
     1
370
    15
100
AcDbSpline
210
0.0
220
0.0
230
1.0
 70
     8
 71
     3
 72
    10
 73
     6
 74
     0
 42
0.000000001
 43
0.00000001
 40
0.0
 40
0.0
 40
0.0
 40
0.0
 40
0.5
 40
0.5
 40
1.0
 40
1.0
 40
1.0
 40
1.0
 10
14.34330391519118
 20
0.5978430300640567
 30
0.0
 10
14.42226688424943
 20
0.555226532936361
 30
0.0
 10
14.51685143520175
 20
0.5058538872163277
 30
0.0
 10
14.70253302939239
 20
0.4037176287538439
 30
0.0
 10
14.79146925117916
 20
0.3520864536672969
 30
0.0
 10
14.86579467171722
 20
0.3053421689355368
 30
0.0
  0
SPLINE
  5
102
330
1F
100
AcDbEntity
  8
0
  6
Continuous
 62
     1
370
    15
100
AcDbSpline
210
0.0
220
0.0
230
1.0
 70
     8
 71
     3
 72
    10
 73
     6
 74
     0
 42
0.000000001
 43
0.00000001
 40
0.0
 40
0.0
 40
0.0
 40
0.0
 40
0.4999999999999999
 40
0.4999999999999999
 40
1.0
 40
1.0
 40
1.0
 40
1.0
 10
13.30678721167359
 20
1.171790518917305
 30
0.0
 10
13.38637519560133
 20
1.121976857857314
 30
0.0
 10
13.48120930720869
 20
1.069890315120162
 30
0.0
 10
13.66683015341026
 20
0.969643821106722
 30
0.0
 10
13.75564467224058
 20
0.9225062479672015
 30
0.0
 10
13.82963245789904
 20
0.8837298211802811
 30
0.0
  0
SPLINE
  5
103
330
1F
100
AcDbEntity
  8
0
  6
Continuous
 62
     1
370
    15
100
AcDbSpline
210
0.0
220
0.0
230
1.0
 70
     8
 71
     3
 72
    10
 73
     6
 74
     0
 42
0.000000001
 43
0.00000001
 40
0.0
 40
0.0
 40
0.0
 40
0.0
 40
0.5
 40
0.5
 40
1.0
 40
1.0
 40
1.0
 40
1.0
 10
12.26353750055768
 20
1.729875943524732
 30
0.0
 10
12.34261689515167
 20
1.674152714799621
 30
0.0
 10
12.43729971363161
 20
1.62057588522235
 30
0.0
 10
12.62317329388262
 20
1.524601069528185
 30
0.0
 10
12.71225033189035
 20
1.483087500636659
 30
0.0
 10
12.78669513230742
 20
1.452738254967602
 30
0.0
  0
SPLINE
  5
104
330
1F
100
AcDbEntity
  8
0
  6
Continuous
 62
     1
370
    15
100
AcDbSpline
210
0.0
220
0.0
230
1.0
 70
     8
 71
     3
 72
     8
 73
     4
 74
     0
 42
0.000000001
 43
0.00000001
 40
0.0
 40
0.0
 40
0.0
 40
0.0
 40
1.0
 40
1.0
 40
1.0
 40
1.0
 10
12.00718247800519
 20
1.887485162651561
 30
0.0
 10
12.09650365162994
 20
1.839966406074213
 30
0.0
 10
12.18706955297541
 20
1.78375901831484
 30
0.0
 10
12.26353750055707
 20
1.729875943525184
 30
0.0
  0
SPLINE
  5
105
330
1F
100
AcDbEntity
  8
0
  6
Continuous
 62
     1
370
    15
100
AcDbSpline
210
0.0
220
0.0
230
1.0
 70
     8
 71
     3
 72
     8
 73
     4
 74
     0
 42
0.000000001
 43
0.00000001
 40
0.0
 40
0.0
 40
0.0
 40
0.0
 40
1.0
 40
1.0
 40
1.0
 40
1.0
 10
11.74895646576217
 20
1.996211717135468
 30
0.0
 10
11.82364220442441
 20
1.974862360818752
 30
0.0
 10
11.91409053552878
 20
1.93631230957258
 30
0.0
 10
12.00718247800203
 20
1.887485162652725
 30
0.0
  0
SPLINE
  5
106
330
1F
100
AcDbEntity
  8
0
  6
Continuous
 62
     1
370
    15
100
AcDbSpline
210
0.0
220
0.0
230
1.0
 70
     8
 71
     3
 72
    10
 73
     6
 74
     0
 42
0.000000001
 43
0.00000001
 40
0.0
 40
0.0
 40
0.0
 40
0.0
 40
0.5
 40
0.5
 40
1.0
 40
1.0
 40
1.0
 40
1.0
 10
11.22557772103199
 20
2.258170939406903
 30
0.0
 10
11.30524518623397
 20
2.197247158864266
 30
0.0
 10
11.40018318468513
 20
2.142991332493918
 30
0.0
 10
11.58602971217737
 20
2.052698380377095
 30
0.0
 10
11.67491144020982
 20
2.017377921852173
 30
0.0
 10
11.74895646576132
 20
1.996211717135174
 30
0.0
  0
SPLINE
  5
107
330
1F
100
AcDbEntity
  8
0
  6
Continuous
 62
     1
370
    15
100
AcDbSpline
210
0.0
220
0.0
230
1.0
 70
     8
 71
     3
 72
    10
 73
     6
 74
     0
 42
0.000000001
 43
0.00000001
 40
0.0
 40
0.0
 40
0.0
 40
0.0
 40
0.5
 40
0.5
 40
1.0
 40
1.0
 40
1.0
 40
1.0
 10
10.7052796501141
 20
2.509510446176941
 30
0.0
 10
10.77990096426046
 20
2.497501383084803
 30
0.0
 10
10.86901503466161
 20
2.466150752969525
 30
0.0
 10
11.05143970203823
 20
2.37727491252792
 30
0.0
 10
11.14585438295784
 20
2.319137447386568
 30
0.0
 10
11.22557772103199
 20
2.258170939406903
 30
0.0
  0
SPLINE
  5
108
330
1F
100
AcDbEntity
  8
0
  6
Continuous
 62
     1
370
    15
100
AcDbSpline
210
0.0
220
0.0
230
1.0
 70
     8
 71
     3
 72
    10
 73
     6
 74
     0
 42
0.000000001
 43
0.00000001
 40
0.0
 40
0.0
 40
0.0
 40
0.0
 40
0.5
 40
0.5
 40
1.0
 40
1.0
 40
1.0
 40
1.0
 10
10.18221597941661
 20
2.753492445794875
 30
0.0
 10
10.26126907377791
 20
2.688235043329892
 30
0.0
 10
10.35592503820989
 20
2.633880370090708
 30
0.0
 10
10.54176116077018
 20
2.55020574474154
 30
0.0
 10
10.63083065386599
 20
2.521491777560839
 30
0.0
 10
10.70527965011416
 20
2.509510446176929
 30
0.0
  0
SPLINE
  5
109
330
1F
100
AcDbEntity
  8
0
  6
Continuous
 62
     1
370
    15
100
AcDbSpline
210
0.0
220
0.0
230
1.0
 70
     8
 71
     3
 72
     8
 73
     4
 74
     0
 42
0.000000001
 43
0.00000001
 40
0.0
 40
0.0
 40
0.0
 40
0.0
 40
1.0
 40
1.0
 40
1.0
 40
1.0
 10
9.925998683343417
 20
2.914253152080335
 30
0.0
 10
10.01525864929168
 20
2.872971546621538
 30
0.0
 10
10.10577613863992
 20
2.816592638067157
 30
0.0
 10
10.18221597941601
 20
2.753492445795379
 30
0.0
  0
SPLINE
  5
10A
330
1F
100
AcDbEntity
  8
0
  6
Continuous
 62
     1
370
    15
100
AcDbSpline
210
0.0
220
0.0
230
1.0
 70
     8
 71
     3
 72
     8
 73
     4
 74
     0
 42
0.000000001
 43
0.00000001
 40
0.0
 40
0.0
 40
0.0
 40
0.0
 40
1.0
 40
1.0
 40
1.0
 40
1.0
 10
9.928269180180589
 20
2.975718873899141
 30
0.0
 10
9.922898627117114
 20
2.978233667314209
 30
0.0
 10
9.917528526806779
 20
2.980746483277906
 30
0.0
 10
9.912157015401837
 20
2.983257606697846
 30
0.0
  0
SPLINE
  5
10B
330
1F
100
AcDbEntity
  8
0
  6
Continuous
 62
     4
370
    15
100
AcDbSpline
210
0.0
220
0.0
230
1.0
 70
     8
 71
     3
 72
     8
 73
     4
 74
     0
 42
0.000000001
 43
0.00000001
 40
0.0
 40
0.0
 40
0.0
 40
0.0
 40
1.0
 40
1.0
 40
1.0
 40
1.0
 10
9.912157015402231
 20
2.930837553618076
 30
0.0
 10
9.504130765984812
 20
3.117318230162413
 30
0.0
 10
9.091020541868641
 20
3.293669951693081
 30
0.0
 10
8.679683162871031
 20
3.45686648657494
 30
0.0
  0
SPLINE
  5
10C
330
1F
100
AcDbEntity
  8
0
  6
Continuous
 62
     4
370
    15
100
AcDbSpline
210
0.0
220
0.0
230
1.0
 70
     8
 71
     3
 72
     8
 73
     4
 74
     0
 42
0.000000001
 43
0.00000001
 40
0.0
 40
0.0
 40
0.0
 40
0.0
 40
1.0
 40
1.0
 40
1.0
 40
1.0
 10
9.447892396376666
 20
3.94894480090475
 30
0.0
 10
9.381041258652683
 20
3.927368950853645
 30
0.0
 10
9.314123880346017
 20
3.905397476888554
 30
0.0
 10
9.247169837197843
 20
3.883039514586123
 30
0.0
  0
SPLINE
  5
10D
330
1F
100
AcDbEntity
  8
0
  6
Continuous
 62
     4
370
    15
100
AcDbSpline
210
0.0
220
0.0
230
1.0
 70
     8
 71
     3
 72
     8
 73
     4
 74
     0
 42
0.000000001
 43
0.00000001
 40
0.0
 40
0.0
 40
0.0
 40
0.0
 40
0.0000201774080797
 40
0.0000201774080797
 40
0.0000201774080797
 40
0.0000201774080797
 10
9.448074059252884
 20
3.933857612182338
 30
0.0
 10
9.448012249951258
 20
3.93887682931431
 30
0.0
 10
9.447951700530327
 20
3.943905916192753
 30
0.0
 10
9.44789239637732
 20
3.948944800904961
 30
0.0
  0
SPLINE
  5
10E
330
1F
100
AcDbEntity
  8
0
  6
Continuous
 62
     4
370
    15
100
AcDbSpline
210
0.0
220
0.0
230
1.0
 70
     8
 71
     3
 72
     8
 73
     4
 74
     0
 42
0.000000001
 43
0.00000001
 40
0.0
 40
0.0
 40
0.0
 40
0.0
 40
1.0
 40
1.0
 40
1.0
 40
1.0
 10
9.70705357071853
 20
3.94571789451586
 30
0.0
 10
9.632465447141914
 20
3.967840654665819
 30
0.0
 10
9.542074307861256
 20
3.963088405662763
 30
0.0
 10
9.449059951123544
 20
3.934174176535882
 30
0.0
  0
SPLINE
  5
10F
330
1F
100
AcDbEntity
  8
0
  6
Continuous
 62
     4
370
    15
100
AcDbSpline
210
0.0
220
0.0
230
1.0
 70
     8
 71
     3
 72
    10
 73
     6
 74
     0
 42
0.000000001
 43
0.00000001
 40
0.0
 40
0.0
 40
0.0
 40
0.0
 40
0.5
 40
0.5
 40
1.0
 40
1.0
 40
1.0
 40
1.0
 10
10.22985085391204
 20
4.092580536218029
 30
0.0
 10
10.15028400255494
 20
4.021381244214765
 30
0.0
 10
10.05545757039264
 20
3.974554156085944
 30
0.0
 10
9.869852806586826
 20
3.925723937010335
 30
0.0
 10
9.781051855833285
 20
3.923770079841686
 30
0.0
 10
9.70705357071925
 20
3.945717894515364
 30
0.0
  0
SPLINE
  5
110
330
1F
100
AcDbEntity
  8
0
  6
Continuous
 62
     1
370
    15
100
AcDbSpline
210
0.0
220
0.0
230
1.0
 70
     8
 71
     3
 72
    10
 73
     6
 74
     0
 42
0.000000001
 43
0.00000001
 40
0.0
 40
0.0
 40
0.0
 40
0.0
 40
0.5
 40
0.5
 40
1.0
 40
1.0
 40
1.0
 40
1.0
 10
10.74931818338165
 20
4.223448410332613
 30
0.0
 10
10.67483139395625
 20
4.253916678249999
 30
0.0
 10
10.58584935054704
 20
4.256639710483888
 30
0.0
 10
10.4036915943193
 20
4.211811527721346
 30
0.0
 10
10.30942643328917
 20
4.16378763836881
 30
0.0
 10
10.22985085391204
 20
4.092580536218029
 30
0.0
  0
SPLINE
  5
111
330
1F
100
AcDbEntity
  8
0
  6
Continuous
 62
     1
370
    15
100
AcDbSpline
210
0.0
220
0.0
230
1.0
 70
     8
 71
     3
 72
    10
 73
     6
 74
     0
 42
0.000000001
 43
0.00000001
 40
0.0
 40
0.0
 40
0.0
 40
0.0
 40
0.5
 40
0.5
 40
1.0
 40
1.0
 40
1.0
 40
1.0
 10
11.27187037119983
 20
4.34014743162053
 30
0.0
 10
11.19289130108312
 20
4.269264585049291
 30
0.0
 10
11.09831218857437
 20
4.225646541279864
 30
0.0
 10
10.91262609498538
 20
4.18759800567098
 30
0.0
 10
10.82364670748231
 20
4.193044879670692
 30
0.0
 10
10.74931818338165
 20
4.223448410332612
 30
0.0
  0
SPLINE
  5
112
330
1F
100
AcDbEntity
  8
0
  6
Continuous
 62
     1
370
    15
100
AcDbSpline
210
0.0
220
0.0
230
1.0
 70
     8
 71
     3
 72
     8
 73
     4
 74
     0
 42
0.000000001
 43
0.00000001
 40
0.0
 40
0.0
 40
0.0
 40
0.0
 40
1.0
 40
1.0
 40
1.0
 40
1.0
 10
11.52801998638892
 20
4.470784494602658
 30
0.0
 10
11.43876135293931
 20
4.452522388866845
 30
0.0
 10
11.34826432819378
 20
4.408710167603249
 30
0.0
 10
11.27187037119983
 20
4.340147431620529
 30
0.0
  0
SPLINE
  5
113
330
1F
100
AcDbEntity
  8
0
  6
Continuous
 62
     1
370
    15
100
AcDbSpline
210
0.0
220
0.0
230
1.0
 70
     8
 71
     3
 72
     8
 73
     4
 74
     0
 42
0.000000001
 43
0.00000001
 40
0.0
 40
0.0
 40
0.0
 40
0.0
 40
1.0
 40
1.0
 40
1.0
 40
1.0
 10
11.78605442736599
 20
4.436443764128041
 30
0.0
 10
11.71143999164502
 20
4.476285236028327
 30
0.0
 10
11.62105189621453
 20
4.487560456363493
 30
0.0
 10
11.52801998639229
 20
4.470784494602979
 30
0.0
  0
SPLINE
  5
114
330
1F
100
AcDbEntity
  8
0
  6
Continuous
 62
     1
370
    15
100
AcDbSpline
210
0.0
220
0.0
230
1.0
 70
     8
 71
     3
 72
    10
 73
     6
 74
     0
 42
0.000000001
 43
0.00000001
 40
0.0
 40
0.0
 40
0.0
 40
0.0
 40
0.5
 40
0.5
 40
1.0
 40
1.0
 40
1.0
 40
1.0
 10
12.30924538585254
 20
4.514554792572734
 30
0.0
 10
12.22960483577506
 20
4.446054614573137
 30
0.0
 10
12.13469891181752
 20
4.407597241304147
 30
0.0
 10
11.94891287795926
 20
4.383190589461883
 30
0.0
 10
11.86005908119431
 20
4.396927894208882
 30
0.0
 10
11.78605442736671
 20
4.436443764127481
 30
0.0
  0
SPLINE
  5
115
330
1F
100
AcDbEntity
  8
0
  6
Continuous
 62
     1
370
    15
100
AcDbSpline
210
0.0
220
0.0
230
1.0
 70
     8
 71
     3
 72
    10
 73
     6
 74
     0
 42
0.000000001
 43
0.00000001
 40
0.0
 40
0.0
 40
0.0
 40
0.0
 40
0.5000000000000001
 40
0.5000000000000001
 40
1.0
 40
1.0
 40
1.0
 40
1.0
 10
12.82956452681958
 20
4.576081775825195
 30
0.0
 10
12.75493296082409
 20
4.622991047721408
 30
0.0
 10
12.66581580343714
 20
4.641160463676929
 30
0.0
 10
12.4833870461479
 20
4.621413562785452
 30
0.0
 10
12.38896858800493
 20
4.583126061013544
 30
0.0
 10
12.30924538585254
 20
4.514554792572736
 30
0.0
  0
SPLINE
  5
116
330
1F
100
AcDbEntity
  8
0
  6
Continuous
 62
     1
370
    15
100
AcDbSpline
210
0.0
220
0.0
230
1.0
 70
     8
 71
     3
 72
    10
 73
     6
 74
     0
 42
0.000000001
 43
0.00000001
 40
0.0
 40
0.0
 40
0.0
 40
0.0
 40
0.5
 40
0.5
 40
1.0
 40
1.0
 40
1.0
 40
1.0
 10
13.35285693328484
 20
4.621921043535604
 30
0.0
 10
13.27376024767507
 20
4.5557353325219
 30
0.0
 10
13.17906549734689
 20
4.521624080265649
 30
0.0
 10
12.99316045165654
 20
4.508613998239149
 30
0.0
 10
12.90404870332759
 20
4.529265144803535
 30
0.0
 10
12.82956452681959
 20
4.576081775825195
 30
0.0
  0
SPLINE
  5
117
330
1F
100
AcDbEntity
  8
0
  6
Continuous
 62
     1
370
    15
100
AcDbSpline
210
0.0
220
0.0
230
1.0
 70
     8
 71
     3
 72
     8
 73
     4
 74
     0
 42
0.000000001
 43
0.00000001
 40
0.0
 40
0.0
 40
0.0
 40
0.0
 40
1.0
 40
1.0
 40
1.0
 40
1.0
 10
13.60924427355193
 20
4.725117474287648
 30
0.0
 10
13.51992980102974
 20
4.719373437552415
 30
0.0
 10
13.42935324469926
 20
4.685930840176717
 30
0.0
 10
13.35285693328557
 20
4.621921043536215
 30
0.0
  0
SPLINE
  5
118
330
1F
100
AcDbEntity
  8
0
  6
Continuous
 62
     1
370
    15
100
AcDbSpline
210
0.0
220
0.0
230
1.0
 70
     8
 71
     3
 72
     8
 73
     4
 74
     0
 42
0.000000001
 43
0.00000001
 40
0.0
 40
0.0
 40
0.0
 40
0.0
 40
1.0
 40
1.0
 40
1.0
 40
1.0
 10
13.86744704871548
 20
4.646819895783766
 30
0.0
 10
13.79273916771594
 20
4.701998214482651
 30
0.0
 10
13.70226891809062
 20
4.728628747594429
 30
0.0
 10
13.60924427355529
 20
4.725117474287743
 30
0.0
  0
SPLINE
  5
119
330
1F
100
AcDbEntity
  8
0
  6
Continuous
 62
     1
370
    15
100
AcDbSpline
210
0.0
220
0.0
230
1.0
 70
     8
 71
     3
 72
    10
 73
     6
 74
     0
 42
0.000000001
 43
0.00000001
 40
0.0
 40
0.0
 40
0.0
 40
0.0
 40
0.5
 40
0.5
 40
1.0
 40
1.0
 40
1.0
 40
1.0
 10
14.3906489113852
 20
4.651244915240824
 30
0.0
 10
14.31103352573595
 20
4.589768826758447
 30
0.0
 10
14.21613812029232
 20
4.562086313761863
 30
0.0
 10
14.03033841340076
 20
4.56358733292755
 30
0.0
 10
13.94147125854048
 20
4.59214652817445
 30
0.0
 10
13.8674470487162
 20
4.646819895783184
 30
0.0
  0
SPLINE
  5
11A
330
1F
100
AcDbEntity
  8
0
  6
Continuous
 62
     1
370
    15
100
AcDbSpline
210
0.0
220
0.0
230
1.0
 70
     8
 71
     3
 72
    10
 73
     6
 74
     0
 42
0.000000001
 43
0.00000001
 40
0.0
 40
0.0
 40
0.0
 40
0.0
 40
0.5
 40
0.5
 40
1.0
 40
1.0
 40
1.0
 40
1.0
 10
14.91067903943684
 20
4.639394799661761
 30
0.0
 10
14.83612036301527
 20
4.699826962129337
 30
0.0
 10
14.74706256611379
 20
4.732339031604488
 30
0.0
 10
14.56472210829357
 20
4.738934184260243
 30
0.0
 10
14.47033682378076
 20
4.712777006223689
 30
0.0
 10
14.3906489113852
 20
4.651244915240825
 30
0.0
  0
SPLINE
  5
11B
330
1F
100
AcDbEntity
  8
0
  6
Continuous
 62
     1
370
    15
100
AcDbSpline
210
0.0
220
0.0
230
1.0
 70
     8
 71
     3
 72
    10
 73
     6
 74
     0
 42
0.000000001
 43
0.00000001
 40
0.0
 40
0.0
 40
0.0
 40
0.0
 40
0.5
 40
0.5
 40
1.0
 40
1.0
 40
1.0
 40
1.0
 10
15.43338048962195
 20
4.611169476665489
 30
0.0
 10
15.35439175098817
 20
4.553980700427305
 30
0.0
 10
15.25980841487082
 20
4.531553289541652
 30
0.0
 10
15.07409829041087
 20
4.544483320239299
 30
0.0
 10
14.98507807902577
 20
4.579092027889804
 30
0.0
 10
14.91067903943684
 20
4.639394799661757
 30
0.0
  0
SPLINE
  5
11C
330
1F
100
AcDbEntity
  8
0
  6
Continuous
 62
     1
370
    15
100
AcDbSpline
210
0.0
220
0.0
230
1.0
 70
     8
 71
     3
 72
     8
 73
     4
 74
     0
 42
0.000000001
 43
0.00000001
 40
0.0
 40
0.0
 40
0.0
 40
0.0
 40
1.0
 40
1.0
 40
1.0
 40
1.0
 10
15.68938369958224
 20
4.680255355457899
 30
0.0
 10
15.6001305004307
 20
4.687417288910654
 30
0.0
 10
15.50972629357682
 20
4.666444737096205
 30
0.0
 10
15.43338048962268
 20
4.61116947666602
 30
0.0
  0
SPLINE
  5
11D
330
1F
100
AcDbEntity
  8
0
  6
Continuous
 62
     1
370
    15
100
AcDbSpline
210
0.0
220
0.0
230
1.0
 70
     8
 71
     3
 72
     8
 73
     4
 74
     0
 42
0.000000001
 43
0.00000001
 40
0.0
 40
0.0
 40
0.0
 40
0.0
 40
1.0
 40
1.0
 40
1.0
 40
1.0
 10
15.94706222880737
 20
4.563071937156471
 30
0.0
 10
15.87254903839744
 20
4.629941544901099
 30
0.0
 10
15.7822478820476
 20
4.670273006004351
 30
0.0
 10
15.68938369958562
 20
4.680255355457761
 30
0.0
  0
SPLINE
  5
11E
330
1F
100
AcDbEntity
  8
0
  6
Continuous
 62
     1
370
    15
100
AcDbSpline
210
0.0
220
0.0
230
1.0
 70
     8
 71
     3
 72
    10
 73
     6
 74
     0
 42
0.000000001
 43
0.00000001
 40
0.0
 40
0.0
 40
0.0
 40
0.0
 40
0.5
 40
0.5
 40
1.0
 40
1.0
 40
1.0
 40
1.0
 10
16.4696750831439
 20
4.49390358350554
 30
0.0
 10
16.39016799843319
 20
4.443346621747502
 30
0.0
 10
16.29538906544641
 20
4.428108652928508
 30
0.0
 10
16.10977378741106
 20
4.455245017954015
 30
0.0
 10
16.0209752240561
 20
4.496740956395119
 30
0.0
 10
15.94706222880809
 20
4.563071937155894
 30
0.0
  0
SPLINE
  5
11F
330
1F
100
AcDbEntity
  8
0
  6
Continuous
 62
     1
370
    15
100
AcDbSpline
210
0.0
220
0.0
230
1.0
 70
     8
 71
     3
 72
    10
 73
     6
 74
     0
 42
0.000000001
 43
0.00000001
 40
0.0
 40
0.0
 40
0.0
 40
0.0
 40
0.5
 40
0.5
 40
1.0
 40
1.0
 40
1.0
 40
1.0
 10
16.98965654918645
 20
4.409486087637515
 30
0.0
 10
16.91510296451571
 20
4.479594054364592
 30
0.0
 10
16.82607011687348
 20
4.524406046729236
 30
0.0
 10
16.64375614728156
 20
4.556945791385485
 30
0.0
 10
16.54936158231947
 20
4.544574631326121
 30
0.0
 10
16.4696750831439
 20
4.49390358350554
 30
0.0
  0
SPLINE
  5
120
330
1F
100
AcDbEntity
  8
0
  6
Continuous
 62
     1
370
    15
100
AcDbSpline
210
0.0
220
0.0
230
1.0
 70
     8
 71
     3
 72
    10
 73
     6
 74
     0
 42
0.000000001
 43
0.00000001
 40
0.0
 40
0.0
 40
0.0
 40
0.0
 40
0.5
 40
0.5
 40
1.0
 40
1.0
 40
1.0
 40
1.0
 10
17.51283147417121
 20
4.308747235984395
 30
0.0
 10
17.43370686815782
 20
4.264115122556793
 30
0.0
 10
17.33904773922344
 20
4.254915995300827
 30
0.0
 10
17.15321982965105
 20
4.293074805660141
 30
0.0
 10
17.0641321579551
 20
4.339451447122359
 30
0.0
 10
16.98965654918645
 20
4.409486087637514
 30
0.0
  0
SPLINE
  5
121
330
1F
100
AcDbEntity
  8
0
  6
Continuous
 62
     1
370
    15
100
AcDbSpline
210
0.0
220
0.0
230
1.0
 70
     8
 71
     3
 72
     8
 73
     4
 74
     0
 42
0.000000001
 43
0.00000001
 40
0.0
 40
0.0
 40
0.0
 40
0.0
 40
1.0
 40
1.0
 40
1.0
 40
1.0
 10
17.76917125420475
 20
4.339438162171209
 30
0.0
 10
17.6798108596293
 20
4.359018880136169
 30
0.0
 10
17.58927063654724
 20
4.351864561142101
 30
0.0
 10
17.51283147417194
 20
4.308747235984802
 30
0.0
  0
SPLINE
  5
122
330
1F
100
AcDbEntity
  8
0
  6
Continuous
 62
     1
370
    15
100
AcDbSpline
210
0.0
220
0.0
230
1.0
 70
     8
 71
     3
 72
     8
 73
     4
 74
     0
 42
0.000000001
 43
0.00000001
 40
0.0
 40
0.0
 40
0.0
 40
0.0
 40
1.0
 40
1.0
 40
1.0
 40
1.0
 10
18.02734146636633
 20
4.190812060526572
 30
0.0
 10
17.95266654352493
 20
4.265200412312803
 30
0.0
 10
17.86220266495197
 20
4.316623351282169
 30
0.0
 10
17.76917125420811
 20
4.339438162170853
 30
0.0
  0
SPLINE
  5
123
330
1F
100
AcDbEntity
  8
0
  6
Continuous
 62
     1
370
    15
100
AcDbSpline
210
0.0
220
0.0
230
1.0
 70
     8
 71
     3
 72
    10
 73
     6
 74
     0
 42
0.000000001
 43
0.00000001
 40
0.0
 40
0.0
 40
0.0
 40
0.0
 40
0.5
 40
0.5
 40
1.0
 40
1.0
 40
1.0
 40
1.0
 10
18.5506609619483
 20
4.052251708523444
 30
0.0
 10
18.47104923345866
 20
4.015782692361979
 30
0.0
 10
18.37616150419125
 20
4.014050871039111
 30
0.0
 10
18.19032957256418
 20
4.065219014542654
 30
0.0
 10
18.10140251770631
 20
4.117035224459907
 30
0.0
 10
18.02734146636705
 20
4.190812060526047
 30
0.0
  0
SPLINE
  5
124
330
1F
100
AcDbEntity
  8
0
  6
Continuous
 62
     1
370
    15
100
AcDbSpline
210
0.0
220
0.0
230
1.0
 70
     8
 71
     3
 72
    10
 73
     6
 74
     0
 42
0.000000001
 43
0.00000001
 40
0.0
 40
0.0
 40
0.0
 40
0.0
 40
0.5
 40
0.5
 40
1.0
 40
1.0
 40
1.0
 40
1.0
 10
19.07104730772904
 20
3.900187676583205
 30
0.0
 10
18.99643668720137
 20
3.975656186068572
 30
0.0
 10
18.90734787952029
 20
4.029993583649015
 30
0.0
 10
18.72491154679473
 20
4.08653010478376
 30
0.0
 10
18.63044378882543
 20
4.088799102456337
 30
0.0
 10
18.55066096194831
 20
4.052251708523444
 30
0.0
  0
SPLINE
  5
125
330
1F
100
AcDbEntity
  8
0
  6
Continuous
 62
     1
370
    15
100
AcDbSpline
210
0.0
220
0.0
230
1.0
 70
     8
 71
     3
 72
    10
 73
     6
 74
     0
 42
0.000000001
 43
0.00000001
 40
0.0
 40
0.0
 40
0.0
 40
0.0
 40
0.5
 40
0.5
 40
1.0
 40
1.0
 40
1.0
 40
1.0
 10
19.59425168039502
 20
3.733361624270302
 30
0.0
 10
19.51511032687721
 20
3.704088516934088
 30
0.0
 10
19.42036771652247
 20
3.708548928846401
 30
0.0
 10
19.23449385999552
 20
3.769556842231519
 30
0.0
 10
19.14550276540598
 20
3.82487611404438
 30
0.0
 10
19.07104730772904
 20
3.900187676583207
 30
0.0
  0
SPLINE
  5
126
330
1F
100
AcDbEntity
  8
0
  6
Continuous
 62
     1
370
    15
100
AcDbSpline
210
0.0
220
0.0
230
1.0
 70
     8
 71
     3
 72
     8
 73
     4
 74
     0
 42
0.000000001
 43
0.00000001
 40
0.0
 40
0.0
 40
0.0
 40
0.0
 40
1.0
 40
1.0
 40
1.0
 40
1.0
 10
19.85047993115099
 20
3.723857209802609
 30
0.0
 10
19.76115719308614
 20
3.754577061820483
 30
0.0
 10
19.67065017871861
 20
3.761620193808511
 30
0.0
 10
19.59425168039576
 20
3.733361624270576
 30
0.0
  0
SPLINE
  5
127
330
1F
100
AcDbEntity
  8
0
  6
Continuous
 62
     1
370
    15
100
AcDbSpline
210
0.0
220
0.0
230
1.0
 70
     8
 71
     3
 72
     8
 73
     4
 74
     0
 42
0.000000001
 43
0.00000001
 40
0.0
 40
0.0
 40
0.0
 40
0.0
 40
1.0
 40
1.0
 40
1.0
 40
1.0
 10
20.10843961642572
 20
3.553340540726226
 30
0.0
 10
20.03385284317445
 20
3.630477749762933
 30
0.0
 10
19.94345765224562
 20
3.689705708938675
 30
0.0
 10
19.85047993115436
 20
3.723857209802039
 30
0.0
  0
SPLINE
  5
128
330
1F
100
AcDbEntity
  8
0
  6
Continuous
 62
     1
370
    15
100
AcDbSpline
210
0.0
220
0.0
230
1.0
 70
     8
 71
     3
 72
    10
 73
     6
 74
     0
 42
0.000000001
 43
0.00000001
 40
0.0
 40
0.0
 40
0.0
 40
0.0
 40
0.5
 40
0.5
 40
1.0
 40
1.0
 40
1.0
 40
1.0
 10
20.63113287258941
 20
3.354358383400852
 30
0.0
 10
20.55164238648972
 20
3.334304167645062
 30
0.0
 10
20.45687213542993
 20
3.346121750460786
 30
0.0
 10
20.271237599648
 20
3.418007899444856
 30
0.0
 10
20.18240721627864
 20
3.476843677232886
 30
0.0
 10
20.10843961642644
 20
3.553340540725777
 30
0.0
  0
SPLINE
  5
129
330
1F
100
AcDbEntity
  8
0
  6
Continuous
 62
     1
370
    15
100
AcDbSpline
210
0.0
220
0.0
230
1.0
 70
     8
 71
     3
 72
    10
 73
     6
 74
     0
 42
0.000000001
 43
0.00000001
 40
0.0
 40
0.0
 40
0.0
 40
0.0
 40
0.5
 40
0.5
 40
1.0
 40
1.0
 40
1.0
 40
1.0
 10
21.15065921982852
 20
3.144439185456805
 30
0.0
 10
21.07616880626997
 20
3.220392208343914
 30
0.0
 10
20.98725735659861
 20
3.280824865259222
 30
0.0
 10
20.80511746754318
 20
3.357747990066682
 30
0.0
 10
20.71078666220907
 20
3.374453798099857
 30
0.0
 10
20.63113287258941
 20
3.354358383400847
 30
0.0
  0
SPLINE
  5
12A
330
1F
100
AcDbEntity
  8
0
  6
Continuous
 62
     1
370
    15
100
AcDbSpline
210
0.0
220
0.0
230
1.0
 70
     8
 71
     3
 72
    10
 73
     6
 74
     0
 42
0.000000001
 43
0.00000001
 40
0.0
 40
0.0
 40
0.0
 40
0.0
 40
0.5
 40
0.5
 40
1.0
 40
1.0
 40
1.0
 40
1.0
 10
21.67327621896599
 20
2.922792849271916
 30
0.0
 10
21.59424484264752
 20
2.910719621967591
 30
0.0
 10
21.4996129692526
 20
2.928456424147797
 30
0.0
 10
21.31390271337166
 20
3.008097178578248
 30
0.0
 10
21.2249682760367
 20
3.068671080847415
 30
0.0
 10
21.15065921982851
 20
3.144439185456804
 30
0.0
  0
SPLINE
  5
12B
330
1F
100
AcDbEntity
  8
0
  6
Continuous
 62
     1
370
    15
100
AcDbSpline
210
0.0
220
0.0
230
1.0
 70
     8
 71
     3
 72
     8
 73
     4
 74
     0
 42
0.000000001
 43
0.00000001
 40
0.0
 40
0.0
 40
0.0
 40
0.0
 40
1.0
 40
1.0
 40
1.0
 40
1.0
 10
21.92941392491469
 20
2.873767147546332
 30
0.0
 10
21.84012411944066
 20
2.913672135025341
 30
0.0
 10
21.74963990833504
 20
2.934458547409532
 30
0.0
 10
21.67327621896672
 20
2.922792849272031
 30
0.0
  0
SPLINE
  5
12C
330
1F
100
AcDbEntity
  8
0
  6
Continuous
 62
     1
370
    15
100
AcDbSpline
210
0.0
220
0.0
230
1.0
 70
     8
 71
     3
 72
     8
 73
     4
 74
     0
 42
0.000000001
 43
0.00000001
 40
0.0
 40
0.0
 40
0.0
 40
0.0
 40
1.0
 40
1.0
 40
1.0
 40
1.0
 10
22.18740856665965
 20
2.69204793502784
 30
0.0
 10
22.11280837257191
 20
2.767097391208754
 30
0.0
 10
22.02241176406528
 20
2.830421934115166
 30
0.0
 10
21.92941392491806
 20
2.873767147545609
 30
0.0
  0
SPLINE
  5
12D
330
1F
100
AcDbEntity
  8
0
  6
Continuous
 62
     1
370
    15
100
AcDbSpline
210
0.0
220
0.0
230
1.0
 70
     8
 71
     3
 72
    10
 73
     6
 74
     0
 42
0.000000001
 43
0.00000001
 40
0.0
 40
0.0
 40
0.0
 40
0.0
 40
0.5
 40
0.5
 40
1.0
 40
1.0
 40
1.0
 40
1.0
 10
22.71058271287721
 20
2.444629186621229
 30
0.0
 10
22.63100204025658
 20
2.442361071722846
 30
0.0
 10
22.53616534980625
 20
2.467116840018112
 30
0.0
 10
22.35040257004001
 20
2.55534042540845
 30
0.0
 10
22.26146311729843
 20
2.617547408304988
 30
0.0
 10
22.18740856666036
 20
2.6920479350275
 30
0.0
  0
SPLINE
  5
12E
330
1F
100
AcDbEntity
  8
0
  6
Continuous
 62
     1
370
    15
100
AcDbSpline
210
0.0
220
0.0
230
1.0
 70
     8
 71
     3
 72
    10
 73
     6
 74
     0
 42
0.000000001
 43
0.00000001
 40
0.0
 40
0.0
 40
0.0
 40
0.0
 40
0.5
 40
0.5
 40
1.0
 40
1.0
 40
1.0
 40
1.0
 10
23.23099835549856
 20
2.189683187768352
 30
0.0
 10
23.15631402387067
 20
2.261375090479397
 30
0.0
 10
23.06716283887614
 20
2.323995996458617
 30
0.0
 10
22.88474912270179
 20
2.416570741225666
 30
0.0
 10
22.79036554167897
 20
2.446903063137744
 30
0.0
 10
22.71058271287721
 20
2.444629186621229
 30
0.0
  0
SPLINE
  5
12F
330
1F
100
AcDbEntity
  8
0
  6
Continuous
 62
     1
370
    15
100
AcDbSpline
210
0.0
220
0.0
230
1.0
 70
     8
 71
     3
 72
    10
 73
     6
 74
     0
 42
0.000000001
 43
0.00000001
 40
0.0
 40
0.0
 40
0.0
 40
0.0
 40
0.5
 40
0.5
 40
1.0
 40
1.0
 40
1.0
 40
1.0
 10
23.75428309391143
 20
1.926748057157565
 30
0.0
 10
23.67516095248811
 20
1.932685605446318
 30
0.0
 10
23.58042722430882
 20
1.962721230230078
 30
0.0
 10
23.39450421752343
 20
2.056163771853169
 30
0.0
 10
23.3054468312997
 20
2.118217690685053
 30
0.0
 10
23.23099835549856
 20
2.189683187768354
 30
0.0
  0
SPLINE
  5
130
330
1F
100
AcDbEntity
  8
0
  6
Continuous
 62
     1
370
    15
100
AcDbSpline
210
0.0
220
0.0
230
1.0
 70
     8
 71
     3
 72
     8
 73
     4
 74
     0
 42
0.000000001
 43
0.00000001
 40
0.0
 40
0.0
 40
0.0
 40
0.0
 40
1.0
 40
1.0
 40
1.0
 40
1.0
 10
24.01062246686323
 20
1.841066749388965
 30
0.0
 10
23.92127855544621
 20
1.887711504625211
 30
0.0
 10
23.8307234333941
 20
1.921011758837821
 30
0.0
 10
23.75428309391216
 20
1.926748057157505
 30
0.0
  0
SPLINE
  5
131
330
1F
100
AcDbEntity
  8
0
  6
Continuous
 62
     1
370
    15
100
AcDbSpline
210
0.0
220
0.0
230
1.0
 70
     8
 71
     3
 72
     8
 73
     4
 74
     0
 42
0.000000001
 43
0.00000001
 40
0.0
 40
0.0
 40
0.0
 40
0.0
 40
1.0
 40
1.0
 40
1.0
 40
1.0
 10
24.26877927783391
 20
1.659452253158803
 30
0.0
 10
24.19412929147821
 20
1.727739306458899
 30
0.0
 10
24.10368004675847
 20
1.791205814046853
 30
0.0
 10
24.0106224668666
 20
1.841066749388111
 30
0.0
  0
SPLINE
  5
132
330
1F
100
AcDbEntity
  8
0
  6
Continuous
 62
     1
370
    15
100
AcDbSpline
210
0.0
220
0.0
230
1.0
 70
     8
 71
     3
 72
    10
 73
     6
 74
     0
 42
0.000000001
 43
0.00000001
 40
0.0
 40
0.0
 40
0.0
 40
0.0
 40
0.4999999999999964
 40
0.4999999999999964
 40
1.0
 40
1.0
 40
1.0
 40
1.0
 10
24.79202216563476
 20
1.379047308774136
 30
0.0
 10
24.71241660513034
 20
1.394685088763384
 30
0.0
 10
24.61759273024676
 20
1.43090388292596
 30
0.0
 10
24.43181849527089
 20
1.530002136897514
 30
0.0
 10
24.34286850029831
 20
1.59167816597722
 30
0.0
 10
24.26877927783463
 20
1.659452253158597
 30
0.0
  0
SPLINE
  5
133
330
1F
100
AcDbEntity
  8
0
  6
Continuous
 62
     1
370
    15
100
AcDbSpline
210
0.0
220
0.0
230
1.0
 70
     8
 71
     3
 72
    10
 73
     6
 74
     0
 42
0.000000001
 43
0.00000001
 40
0.0
 40
0.0
 40
0.0
 40
0.0
 40
0.5
 40
0.5
 40
1.0
 40
1.0
 40
1.0
 40
1.0
 10
25.31209030588142
 20
1.096257220501169
 30
0.0
 10
25.23748570113765
 20
1.159005196991198
 30
0.0
 10
25.14838678572625
 20
1.219778684963939
 30
0.0
 10
24.96604165158366
 20
1.321737455296389
 30
0.0
 10
24.87170230130261
 20
1.363394879180129
 30
0.0
 10
24.79202216563476
 20
1.379047308774141
 30
0.0
  0
SPLINE
  5
134
330
1F
100
AcDbEntity
  8
0
  6
Continuous
 62
     1
370
    15
100
AcDbSpline
210
0.0
220
0.0
230
1.0
 70
     8
 71
     3
 72
    10
 73
     6
 74
     0
 42
0.000000001
 43
0.00000001
 40
0.0
 40
0.0
 40
0.0
 40
0.0
 40
0.5
 40
0.5
 40
1.0
 40
1.0
 40
1.0
 40
1.0
 10
25.83471194954076
 20
0.8091948752548952
 30
0.0
 10
25.75572423896766
 20
0.8327041036369831
 30
0.0
 10
25.66111559469237
 20
0.8730342034677516
 30
0.0
 10
25.4753935864274
 20
0.974199235270597
 30
0.0
 10
25.38643718975493
 20
1.033726006276196
 30
0.0
 10
25.31209030588142
 20
1.096257220501169
 30
0.0
  0
SPLINE
  5
135
330
1F
100
AcDbEntity
  8
0
  6
Continuous
 62
     1
370
    15
100
AcDbSpline
210
0.0
220
0.0
230
1.0
 70
     8
 71
     3
 72
     8
 73
     4
 74
     0
 42
0.000000001
 43
0.00000001
 40
0.0
 40
0.0
 40
0.0
 40
0.0
 40
1.0
 40
1.0
 40
1.0
 40
1.0
 10
26.09065932521948
 20
0.6924945334111337
 30
0.0
 10
26.0014489973393
 20
0.7428669721736114
 30
0.0
 10
25.91102631301199
 20
0.7864813190995019
 30
0.0
 10
25.8347119495415
 20
0.8091948752546683
 30
0.0
  0
SPLINE
  5
136
330
1F
100
AcDbEntity
  8
0
  6
Continuous
 62
     1
370
    15
100
AcDbSpline
210
0.0
220
0.0
230
1.0
 70
     8
 71
     3
 72
     8
 73
     4
 74
     0
 42
0.000000001
 43
0.00000001
 40
0.0
 40
0.0
 40
0.0
 40
0.0
 40
1.0
 40
1.0
 40
1.0
 40
1.0
 10
26.34834254275592
 20
0.5226808037829316
 30
0.0
 10
26.27385685973752
 20
0.5798032792831846
 30
0.0
 10
26.18357518788389
 20
0.6393383138078288
 30
0.0
 10
26.09065932522284
 20
0.6924945334102195
 30
0.0
  0
SPLINE
  5
137
330
1F
100
AcDbEntity
  8
0
  6
Continuous
 62
     1
370
    15
100
AcDbSpline
210
0.0
220
0.0
230
1.0
 70
     8
 71
     3
 72
    10
 73
     6
 74
     0
 42
0.000000001
 43
0.00000001
 40
0.0
 40
0.0
 40
0.0
 40
0.0
 40
0.5
 40
0.5
 40
1.0
 40
1.0
 40
1.0
 40
1.0
 10
26.87106576174241
 20
0.2276450724327615
 30
0.0
 10
26.79150095750529
 20
0.2599960114290304
 30
0.0
 10
26.69669484707009
 20
0.3050861011478717
 30
0.0
 10
26.5111304386463
 20
0.408712792073244
 30
0.0
 10
26.42231236711634
 20
0.4659539361684321
 30
0.0
 10
26.34834254275664
 20
0.5226808037828676
 30
0.0
  0
SPLINE
  5
138
330
1F
100
AcDbEntity
  8
0
  6
Continuous
 62
     1
370
    15
100
AcDbSpline
210
0.0
220
0.0
230
1.0
 70
     8
 71
     3
 72
    10
 73
     6
 74
     0
 42
0.000000001
 43
0.00000001
 40
0.0
 40
0.0
 40
0.0
 40
0.0
 40
0.5
 40
0.5
 40
1.0
 40
1.0
 40
1.0
 40
1.0
 10
27.39107087493879
 20
-0.0651531370485402
 30
0.0
 10
27.31647891339762
 20
-0.0152558722342866
 30
0.0
 10
27.22740405449323
 20
0.0398701726391237
 30
0.0
 10
27.04507853239086
 20
0.1448483956741676
 30
0.0
 10
26.9507265900872
 20
0.1952550901675638
 30
0.0
 10
26.87106576174242
 20
0.2276450724327635
 30
0.0
  0
SPLINE
  5
139
330
1F
100
AcDbEntity
  8
0
  6
Continuous
 62
     1
370
    15
100
AcDbSpline
210
0.0
220
0.0
230
1.0
 70
     8
 71
     3
 72
    10
 73
     6
 74
     0
 42
0.000000001
 43
0.00000001
 40
0.0
 40
0.0
 40
0.0
 40
0.0
 40
0.5
 40
0.5
 40
1.0
 40
1.0
 40
1.0
 40
1.0
 10
27.91416761657944
 20
-0.3589892877761895
 30
0.0
 10
27.83509724115673
 20
-0.3192674693754275
 30
0.0
 10
27.74042315736856
 20
-0.271045426993112
 30
0.0
 10
27.55456728199617
 20
-0.1683116082146854
 30
0.0
 10
27.46550208363398
 20
-0.1149428684616028
 30
0.0
 10
27.39107087493879
 20
-0.0651531370485375
 30
0.0
  0
SPLINE
  5
13A
330
1F
100
AcDbEntity
  8
0
  6
Continuous
 62
     1
370
    15
100
AcDbSpline
210
0.0
220
0.0
230
1.0
 70
     8
 71
     3
 72
     8
 73
     4
 74
     0
 42
0.000000001
 43
0.00000001
 40
0.0
 40
0.0
 40
0.0
 40
0.0
 40
1.0
 40
1.0
 40
1.0
 40
1.0
 10
28.17050367117666
 20
-0.4998689731483143
 30
0.0
 10
28.08118605086809
 20
-0.4487782510203356
 30
0.0
 10
27.99062657948292
 20
-0.3973992361712586
 30
0.0
 10
27.91416761658018
 20
-0.3589892877765545
 30
0.0
  0
SPLINE
  5
13B
330
1F
100
AcDbEntity
  8
0
  6
Continuous
 62
     1
370
    15
100
AcDbSpline
210
0.0
220
0.0
230
1.0
 70
     8
 71
     3
 72
     8
 73
     4
 74
     0
 42
0.000000001
 43
0.00000001
 40
0.0
 40
0.0
 40
0.0
 40
0.0
 40
1.0
 40
1.0
 40
1.0
 40
1.0
 10
28.42871502452743
 20
-0.6478129140254985
 30
0.0
 10
28.35404371285058
 20
-0.6052351314662527
 30
0.0
 10
28.26359088609069
 20
-0.5531773914990412
 30
0.0
 10
28.17050367118002
 20
-0.4998689731492325
 30
0.0
  0
SPLINE
  5
13C
330
1F
100
AcDbEntity
  8
0
  6
Continuous
 62
     1
370
    15
100
AcDbSpline
210
0.0
220
0.0
230
1.0
 70
     8
 71
     3
 72
    10
 73
     6
 74
     0
 42
0.000000001
 43
0.00000001
 40
0.0
 40
0.0
 40
0.0
 40
0.0
 40
0.5
 40
0.5
 40
1.0
 40
1.0
 40
1.0
 40
1.0
 10
28.95210527063164
 20
-0.9389041158787892
 30
0.0
 10
28.87243190635545
 20
-0.8917600861260166
 30
0.0
 10
28.77749006748241
 20
-0.8405647265475498
 30
0.0
 10
28.59164174050711
 20
-0.7391989588342305
 30
0.0
 10
28.50276245388162
 20
-0.6900349572075171
 30
0.0
 10
28.42871502452815
 20
-0.6478129140254199
 30
0.0
  0
SPLINE
  5
13D
330
1F
100
AcDbEntity
  8
0
  6
Continuous
 62
     1
370
    15
100
AcDbSpline
210
0.0
220
0.0
230
1.0
 70
     8
 71
     3
 72
    10
 73
     6
 74
     0
 42
0.000000001
 43
0.00000001
 40
0.0
 40
0.0
 40
0.0
 40
0.0
 40
0.5
 40
0.5
 40
1.0
 40
1.0
 40
1.0
 40
1.0
 10
29.47244140647128
 20
-1.223621729752942
 30
0.0
 10
29.39781057694711
 20
-1.189672872552251
 30
0.0
 10
29.30868854507898
 20
-1.14361590804725
 30
0.0
 10
29.12625234949068
 20
-1.042122120117716
 30
0.0
 10
29.03183369808944
 20
-0.9860807274146353
 30
0.0
 10
28.95210527063165
 20
-0.9389041158787905
 30
0.0
  0
SPLINE
  5
13E
330
1F
100
AcDbEntity
  8
0
  6
Continuous
 62
     1
370
    15
100
AcDbSpline
210
0.0
220
0.0
230
1.0
 70
     8
 71
     3
 72
    10
 73
     6
 74
     0
 42
0.000000001
 43
0.00000001
 40
0.0
 40
0.0
 40
0.0
 40
0.0
 40
0.5
 40
0.5
 40
1.0
 40
1.0
 40
1.0
 40
1.0
 10
29.99556996575474
 20
-1.505617829597195
 30
0.0
 10
29.91650480870964
 20
-1.452198036187883
 30
0.0
 10
29.82183614566697
 20
-1.399132051021588
 30
0.0
 10
29.63597836422366
 20
-1.30131301686426
 30
0.0
 10
29.54689951800184
 20
-1.257492019174902
 30
0.0
 10
29.47244140647128
 20
-1.223621729752945
 30
0.0
  0
SPLINE
  5
13F
330
1F
100
AcDbEntity
  8
0
  6
Continuous
 62
     1
370
    15
100
AcDbSpline
210
0.0
220
0.0
230
1.0
 70
     8
 71
     3
 72
     8
 73
     4
 74
     0
 42
0.000000001
 43
0.00000001
 40
0.0
 40
0.0
 40
0.0
 40
0.0
 40
1.0
 40
1.0
 40
1.0
 40
1.0
 10
30.25182465086695
 20
-1.661619601326791
 30
0.0
 10
30.16255024880358
 20
-1.613096304809066
 30
0.0
 10
30.07201982957532
 20
-1.557270619322667
 30
0.0
 10
29.99556996575548
 20
-1.505617829597693
 30
0.0
  0
SPLINE
  5
140
330
1F
100
AcDbEntity
  8
0
  6
Continuous
 62
     1
370
    15
100
AcDbSpline
210
0.0
220
0.0
230
1.0
 70
     8
 71
     3
 72
    10
 73
     6
 74
     0
 42
0.000000001
 43
0.00000001
 40
0.0
 40
0.0
 40
0.0
 40
0.0
 40
0.5
 40
0.5
 40
1.0
 40
1.0
 40
1.0
 40
1.0
 10
31.03251422677621
 20
-2.045459020703226
 30
0.0
 10
30.95298936368682
 20
-1.986610376968825
 30
0.0
 10
30.8581792058758
 20
-1.93263412392622
 30
0.0
 10
30.67253530467322
 20
-1.840120494152558
 30
0.0
 10
30.58376007235195
 20
-1.802365000254541
 30
0.0
 10
30.50982519201524
 20
-1.777624172457995
 30
0.0
  0
SPLINE
  5
141
330
1F
100
AcDbEntity
  8
0
  6
Continuous
 62
     1
370
    15
100
AcDbSpline
210
0.0
220
0.0
230
1.0
 70
     8
 71
     3
 72
    10
 73
     6
 74
     0
 42
0.000000001
 43
0.00000001
 40
0.0
 40
0.0
 40
0.0
 40
0.0
 40
0.5
 40
0.5
 40
1.0
 40
1.0
 40
1.0
 40
1.0
 10
32.05305837105653
 20
-2.539088375539196
 30
0.0
 10
31.97525428343671
 20
-2.480045860268095
 30
0.0
 10
31.88418520892239
 20
-2.42897983435158
 30
0.0
 10
31.70728510532129
 20
-2.348200266244323
 30
0.0
 10
31.62299668082588
 20
-2.318769404547214
 30
0.0
 10
31.5519539047102
 20
-2.303693754667897
 30
0.0
  0
SPLINE
  5
142
330
1F
100
AcDbEntity
  8
0
  6
Continuous
 62
     1
370
    15
100
AcDbSpline
210
0.0
220
0.0
230
1.0
 70
     8
 71
     3
 72
     8
 73
     4
 74
     0
 42
0.000000001
 43
0.00000001
 40
0.0
 40
0.0
 40
0.0
 40
0.0
 40
0.0001337194648195
 40
0.0001337194648195
 40
0.0001337194648195
 40
0.0001337194648195
 10
32.13715701540223
 20
-2.543461574731437
 30
0.0
 10
32.10917283224037
 20
-2.54209739474357
 30
0.0
 10
32.08113888177429
 20
-2.540639181034938
 30
0.0
 10
32.05305837105689
 20
-2.539088375539512
 30
0.0
  0
SPLINE
  5
143
330
1F
100
AcDbEntity
  8
0
  6
Continuous
 62
     1
370
    15
100
AcDbSpline
210
0.0
220
0.0
230
1.0
 70
     8
 71
     3
 72
    13
 73
     9
 74
     0
 42
0.000000001
 43
0.00000001
 40
0.0
 40
0.0
 40
0.0
 40
0.0
 40
0.1685024967303871
 40
0.3381179926132734
 40
0.4982787275339884
 40
0.6595299415940744
 40
0.9163748927990842
 40
1.0
 40
1.0
 40
1.0
 40
1.0
 10
16.86148904509932
 20
-3.617336224418464
 30
0.0
 10
16.87420677007974
 20
-3.612269949943664
 30
0.0
 10
16.89972622364529
 20
-3.602103937043642
 30
0.0
 10
16.93730039544527
 20
-3.584160628884912
 30
0.0
 10
16.97406403885776
 20
-3.564542787513957
 30
0.0
 10
17.01658650680875
 20
-3.538873407974609
 30
0.0
 10
17.05317561641633
 20
-3.5147580327575
 30
0.0
 10
17.07589548617766
 20
-3.495974691745251
 30
0.0
 10
17.08147586394503
 20
-3.491361190889714
 30
0.0
  0
SPLINE
  5
144
330
1F
100
AcDbEntity
  8
0
  6
Continuous
 62
     1
370
    15
100
AcDbSpline
210
0.0
220
0.0
230
1.0
 70
     8
 71
     3
 72
     8
 73
     4
 74
     0
 42
0.000000001
 43
0.00000001
 40
0.0
 40
0.0
 40
0.0
 40
0.0
 40
1.0
 40
1.0
 40
1.0
 40
1.0
 10
16.60352404938916
 20
-3.648723119131737
 30
0.0
 10
16.67812703160401
 20
-3.662674642689931
 30
0.0
 10
16.76852059724374
 20
-3.651015133370193
 30
0.0
 10
16.86148904509932
 20
-3.617336224418482
 30
0.0
  0
SPLINE
  5
145
330
1F
100
AcDbEntity
  8
0
  6
Continuous
 62
     1
370
    15
100
AcDbSpline
210
0.0
220
0.0
230
1.0
 70
     8
 71
     3
 72
    10
 73
     6
 74
     0
 42
0.000000001
 43
0.00000001
 40
0.0
 40
0.0
 40
0.0
 40
0.0
 40
0.5
 40
0.5
 40
1.0
 40
1.0
 40
1.0
 40
1.0
 10
16.08043858786939
 20
-3.822232756788429
 30
0.0
 10
16.16001237506483
 20
-3.751358424349602
 30
0.0
 10
16.2548577803877
 20
-3.701862708598133
 30
0.0
 10
16.44061516948069
 20
-3.643544083384075
 30
0.0
 10
16.52950937049116
 20
-3.634881614332823
 30
0.0
 10
16.60352404938857
 20
-3.648723119131363
 30
0.0
  0
SPLINE
  5
146
330
1F
100
AcDbEntity
  8
0
  6
Continuous
 62
     1
370
    15
100
AcDbSpline
210
0.0
220
0.0
230
1.0
 70
     8
 71
     3
 72
    10
 73
     6
 74
     0
 42
0.000000001
 43
0.00000001
 40
0.0
 40
0.0
 40
0.0
 40
0.0
 40
0.5
 40
0.5
 40
1.0
 40
1.0
 40
1.0
 40
1.0
 10
15.56009133992325
 20
-3.981574107419154
 30
0.0
 10
15.63469900361729
 20
-4.004014066135674
 30
0.0
 10
15.72377815136204
 20
-3.999731188441938
 30
0.0
 10
15.90619862030622
 20
-3.944633707203429
 30
0.0
 10
16.00066287555407
 20
-3.893286938755328
 30
0.0
 10
16.08043858786939
 20
-3.822232756788434
 30
0.0
  0
SPLINE
  5
147
330
1F
100
AcDbEntity
  8
0
  6
Continuous
 62
     1
370
    15
100
AcDbSpline
210
0.0
220
0.0
230
1.0
 70
     8
 71
     3
 72
    10
 73
     6
 74
     0
 42
0.000000001
 43
0.00000001
 40
0.0
 40
0.0
 40
0.0
 40
0.0
 40
0.5
 40
0.5
 40
1.0
 40
1.0
 40
1.0
 40
1.0
 10
15.03674335451265
 20
-4.127882728266854
 30
0.0
 10
15.11591243677481
 20
-4.056189790731124
 30
0.0
 10
15.21067994122368
 20
-4.009227684127831
 30
0.0
 10
15.39660279248736
 20
-3.960731180274773
 30
0.0
 10
15.48562132111
 20
-3.959175548543995
 30
0.0
 10
15.56009133992324
 20
-3.981574107419139
 30
0.0
  0
SPLINE
  5
148
330
1F
100
AcDbEntity
  8
0
  6
Continuous
 62
     1
370
    15
100
AcDbSpline
210
0.0
220
0.0
230
1.0
 70
     8
 71
     3
 72
     8
 73
     4
 74
     0
 42
0.000000001
 43
0.00000001
 40
0.0
 40
0.0
 40
0.0
 40
0.0
 40
1.0
 40
1.0
 40
1.0
 40
1.0
 10
14.78038931663999
 20
-4.267942795104389
 30
0.0
 10
14.86975096438699
 20
-4.244589452333764
 30
0.0
 10
14.96030250979442
 20
-4.197105062907664
 30
0.0
 10
15.0367433545125
 20
-4.12788272826697
 30
0.0
  0
SPLINE
  5
149
330
1F
100
AcDbEntity
  8
0
  6
Continuous
 62
     1
370
    15
100
AcDbSpline
210
0.0
220
0.0
230
1.0
 70
     8
 71
     3
 72
     8
 73
     4
 74
     0
 42
0.000000001
 43
0.00000001
 40
0.0
 40
0.0
 40
0.0
 40
0.0
 40
1.0
 40
1.0
 40
1.0
 40
1.0
 10
14.5222276295629
 20
-4.253313327815421
 30
0.0
 10
14.59688838017194
 20
-4.285761011252693
 30
0.0
 10
14.68734749481478
 20
-4.290140425255786
 30
0.0
 10
14.7803893166383
 20
-4.26794279510462
 30
0.0
  0
SPLINE
  5
14A
330
1F
100
AcDbEntity
  8
0
  6
Continuous
 62
     1
370
    15
100
AcDbSpline
210
0.0
220
0.0
230
1.0
 70
     8
 71
     3
 72
    10
 73
     6
 74
     0
 42
0.000000001
 43
0.00000001
 40
0.0
 40
0.0
 40
0.0
 40
0.0
 40
0.5
 40
0.5
 40
1.0
 40
1.0
 40
1.0
 40
1.0
 10
13.99900930894189
 20
-4.361963263638951
 30
0.0
 10
14.07859351868014
 20
-4.291772140921945
 30
0.0
 10
14.17345048680981
 20
-4.249339240278933
 30
0.0
 10
14.35924271272248
 20
-4.214099332628934
 30
0.0
 10
14.44816794442363
 20
-4.221126868406651
 30
0.0
 10
14.5222276295623
 20
-4.253313327814958
 30
0.0
  0
SPLINE
  5
14B
330
1F
100
AcDbEntity
  8
0
  6
Continuous
 62
     1
370
    15
100
AcDbSpline
210
0.0
220
0.0
230
1.0
 70
     8
 71
     3
 72
    10
 73
     6
 74
     0
 42
0.000000001
 43
0.00000001
 40
0.0
 40
0.0
 40
0.0
 40
0.0
 40
0.5
 40
0.5
 40
1.0
 40
1.0
 40
1.0
 40
1.0
 10
13.4788429324269
 20
-4.454861988346316
 30
0.0
 10
13.5534478889077
 20
-4.494876715057032
 30
0.0
 10
13.64247776241607
 20
-4.506263754173064
 30
0.0
 10
13.82481695564547
 20
-4.475204517324565
 30
0.0
 10
13.91924407344183
 20
-4.432314046186722
 30
0.0
 10
13.99900930894189
 20
-4.361963263638914
 30
0.0
  0
SPLINE
  5
14C
330
1F
100
AcDbEntity
  8
0
  6
Continuous
 62
     1
370
    15
100
AcDbSpline
210
0.0
220
0.0
230
1.0
 70
     8
 71
     3
 72
    10
 73
     6
 74
     0
 42
0.000000001
 43
0.00000001
 40
0.0
 40
0.0
 40
0.0
 40
0.0
 40
0.5
 40
0.5
 40
1.0
 40
1.0
 40
1.0
 40
1.0
 10
12.95609455883425
 20
-4.532270204431662
 30
0.0
 10
13.0351339419327
 20
-4.46347100727159
 30
0.0
 10
13.12979009497531
 20
-4.424929648815736
 30
0.0
 10
13.31554870922077
 20
-4.400851489676691
 30
0.0
 10
13.40449190021473
 20
-4.414983455136596
 30
0.0
 10
13.47884293242703
 20
-4.454861988346385
 30
0.0
  0
SPLINE
  5
14D
330
1F
100
AcDbEntity
  8
0
  6
Continuous
 62
     1
370
    15
100
AcDbSpline
210
0.0
220
0.0
230
1.0
 70
     8
 71
     3
 72
     8
 73
     4
 74
     0
 42
0.000000001
 43
0.00000001
 40
0.0
 40
0.0
 40
0.0
 40
0.0
 40
1.0
 40
1.0
 40
1.0
 40
1.0
 10
12.70010663207701
 20
-4.648219087604363
 30
0.0
 10
12.7893482144994
 20
-4.636972503242069
 30
0.0
 10
12.87977845239696
 20
-4.598698947261362
 30
0.0
 10
12.95609455883413
 20
-4.532270204431766
 30
0.0
  0
SPLINE
  5
14E
330
1F
100
AcDbEntity
  8
0
  6
Continuous
 62
     1
370
    15
100
AcDbSpline
210
0.0
220
0.0
230
1.0
 70
     8
 71
     3
 72
     8
 73
     4
 74
     0
 42
0.000000001
 43
0.00000001
 40
0.0
 40
0.0
 40
0.0
 40
0.0
 40
1.0
 40
1.0
 40
1.0
 40
1.0
 10
12.44245102657388
 20
-4.588471014022891
 30
0.0
 10
12.51692650697041
 20
-4.637351639029004
 30
0.0
 10
12.60721326287302
 20
-4.657528520097287
 30
0.0
 10
12.70010663207533
 20
-4.648219087604472
 30
0.0
  0
SPLINE
  5
14F
330
1F
100
AcDbEntity
  8
0
  6
Continuous
 62
     1
370
    15
100
AcDbSpline
210
0.0
220
0.0
230
1.0
 70
     8
 71
     3
 72
    10
 73
     6
 74
     0
 42
0.000000001
 43
0.00000001
 40
0.0
 40
0.0
 40
0.0
 40
0.0
 40
0.5
 40
0.5
 40
1.0
 40
1.0
 40
1.0
 40
1.0
 10
11.91987698710484
 20
-4.625298507414625
 30
0.0
 10
11.99935741186795
 20
-4.560318270735888
 30
0.0
 10
12.09408964958568
 20
-4.527628356097743
 30
0.0
 10
12.27966436956416
 20
-4.517671458880193
 30
0.0
 10
12.36850909029802
 20
-4.539940570981496
 30
0.0
 10
12.44245102657329
 20
-4.588471014022415
 30
0.0
  0
SPLINE
  5
150
330
1F
100
AcDbEntity
  8
0
  6
Continuous
 62
     1
370
    15
100
AcDbSpline
210
0.0
220
0.0
230
1.0
 70
     8
 71
     3
 72
    10
 73
     6
 74
     0
 42
0.000000001
 43
0.00000001
 40
0.0
 40
0.0
 40
0.0
 40
0.0
 40
0.5
 40
0.5
 40
1.0
 40
1.0
 40
1.0
 40
1.0
 10
11.39987849878784
 20
-4.645715099443325
 30
0.0
 10
11.47449207388192
 20
-4.700697365808592
 30
0.0
 10
11.56357408627136
 20
-4.72713775638887
 30
0.0
 10
11.7458633232499
 20
-4.722154960258445
 30
0.0
 10
11.84017541556456
 20
-4.690459545466319
 30
0.0
 10
11.91987698710484
 20
-4.625298507414625
 30
0.0
  0
SPLINE
  5
151
330
1F
100
AcDbEntity
  8
0
  6
Continuous
 62
     1
370
    15
100
AcDbSpline
210
0.0
220
0.0
230
1.0
 70
     8
 71
     3
 72
    10
 73
     6
 74
     0
 42
0.000000001
 43
0.00000001
 40
0.0
 40
0.0
 40
0.0
 40
0.0
 40
0.5
 40
0.5
 40
1.0
 40
1.0
 40
1.0
 40
1.0
 10
10.87682256353939
 20
-4.649846322124398
 30
0.0
 10
10.95590691425243
 20
-4.588220662011825
 30
0.0
 10
11.05059887990272
 20
-4.560482307516795
 30
0.0
 10
11.23644965200807
 20
-4.562134509879068
 30
0.0
 10
11.32547544170132
 20
-4.590887962451651
 30
0.0
 10
11.39987849878784
 20
-4.645715099443325
 30
0.0
  0
SPLINE
  5
152
330
1F
100
AcDbEntity
  8
0
  6
Continuous
 62
     1
370
    15
100
AcDbSpline
210
0.0
220
0.0
230
1.0
 70
     8
 71
     3
 72
     8
 73
     4
 74
     0
 42
0.000000001
 43
0.00000001
 40
0.0
 40
0.0
 40
0.0
 40
0.0
 40
1.0
 40
1.0
 40
1.0
 40
1.0
 10
10.62052252289795
 20
-4.734508130947419
 30
0.0
 10
10.70985326963916
 20
-4.736041498738557
 30
0.0
 10
10.80039643139638
 20
-4.709400592984483
 30
0.0
 10
10.87682256353925
 20
-4.649846322124498
 30
0.0
  0
SPLINE
  5
153
330
1F
100
AcDbEntity
  8
0
  6
Continuous
 62
     1
370
    15
100
AcDbSpline
210
0.0
220
0.0
230
1.0
 70
     8
 71
     3
 72
     8
 73
     4
 74
     0
 42
0.000000001
 43
0.00000001
 40
0.0
 40
0.0
 40
0.0
 40
0.0
 40
0.0001208816012171
 40
0.0001208816012171
 40
0.0001208816012171
 40
0.0001208816012171
 10
10.62041654823987
 20
-4.855070167345048
 30
0.0
 10
10.62013615166029
 20
-4.814838675141639
 30
0.0
 10
10.61981409143895
 20
-4.774633278574496
 30
0.0
 10
10.61944743595132
 20
-4.734475043989021
 30
0.0
  0
SPLINE
  5
154
330
1F
100
AcDbEntity
  8
0
  6
Continuous
 62
     1
370
    15
100
AcDbSpline
210
0.0
220
0.0
230
1.0
 70
     8
 71
     3
 72
     8
 73
     4
 74
     0
 42
0.000000001
 43
0.00000001
 40
0.0
 40
0.0
 40
0.0
 40
0.0
 40
1.0
 40
1.0
 40
1.0
 40
1.0
 10
10.62041654824343
 20
-4.855070167345153
 30
0.0
 10
10.38347030366484
 20
-4.848005946237667
 30
0.0
 10
10.14706877992838
 20
-4.834948392318117
 30
0.0
 10
9.912157015402233
 20
-4.816014264519962
 30
0.0
  0
SPLINE
  5
155
330
1F
100
AcDbEntity
  8
0
  6
Continuous
 62
     1
370
    15
100
AcDbSpline
210
0.0
220
0.0
230
1.0
 70
    24
 71
     3
 72
     9
 73
     5
 74
     0
 42
0.000000001
 43
0.00000001
 40
0.0
 40
0.0
 40
0.0
 40
0.0
 40
0.5
 40
1.0
 40
1.0
 40
1.0
 40
1.0
 10
9.912157015402235
 20
-4.715395388575576
 30
0.0
 10
9.912157015402235
 20
-4.732163939750709
 30
0.0
 10
9.912157015402235
 20
-4.765704176357845
 30
0.0
 10
9.912157015402235
 20
-4.799245063981985
 30
0.0
 10
9.912157015402235
 20
-4.816014264519962
 30
0.0
  0
SPLINE
  5
156
330
1F
100
AcDbEntity
  8
0
  6
Continuous
 62
     4
370
    15
100
AcDbSpline
210
0.0
220
0.0
230
1.0
 70
     8
 71
     3
 72
     8
 73
     4
 74
     0
 42
0.000000001
 43
0.00000001
 40
0.0
 40
0.0
 40
0.0
 40
0.0
 40
1.0
 40
1.0
 40
1.0
 40
1.0
 10
9.912157015402231
 20
-4.715395388575575
 30
0.0
 10
9.504130765984812
 20
-4.682629095682677
 30
0.0
 10
9.091020541868641
 20
-4.632179140189733
 30
0.0
 10
8.679683162871033
 20
-4.564745356733452
 30
0.0
  0
SPLINE
  5
157
330
1F
100
AcDbEntity
  8
0
  6
Continuous
 62
     4
370
    15
100
AcDbSpline
210
0.0
220
0.0
230
1.0
 70
     8
 71
     3
 72
     8
 73
     4
 74
     0
 42
0.000000001
 43
0.00000001
 40
0.0
 40
0.0
 40
0.0
 40
0.0
 40
1.0
 40
1.0
 40
1.0
 40
1.0
 10
9.912157015402235
 20
0.0661899802232347
 30
0.0
 10
9.691618043443789
 20
0.194021653582324
 30
0.0
 10
9.469597329795981
 20
0.3220688212077598
 30
0.0
 10
9.247169837197843
 20
0.4497060565914133
 30
0.0
  0
SPLINE
  5
158
330
1F
100
AcDbEntity
  8
0
  6
Continuous
 62
     1
370
    15
100
AcDbSpline
210
0.0
220
0.0
230
1.0
 70
    24
 71
     3
 72
     9
 73
     5
 74
     0
 42
0.000000001
 43
0.00000001
 40
0.0
 40
0.0
 40
0.0
 40
0.0
 40
0.5
 40
1.0
 40
1.0
 40
1.0
 40
1.0
 10
9.912157015402235
 20
0.0790788071609833
 30
0.0
 10
9.912157015402235
 20
0.0771262678984097
 30
0.0
 10
9.912157015402235
 20
0.0730290724404731
 30
0.0
 10
9.912157015402235
 20
0.0685372195421614
 30
0.0
 10
9.912157015402235
 20
0.0661899802228743
 30
0.0
  0
SPLINE
  5
159
330
1F
100
AcDbEntity
  8
0
  6
Continuous
 62
     1
370
    15
100
AcDbSpline
210
0.0
220
0.0
230
1.0
 70
     8
 71
     3
 72
     8
 73
     4
 74
     0
 42
0.000000001
 43
0.00000001
 40
0.0
 40
0.0
 40
0.0
 40
0.0
 40
1.0
 40
1.0
 40
1.0
 40
1.0
 10
10.14149698987798
 20
-0.0565001789851711
 30
0.0
 10
10.0648988345324
 20
-0.0112790081686995
 30
0.0
 10
9.988474382833765
 20
0.0339154868101499
 30
0.0
 10
9.912157015401455
 20
0.0790788071601664
 30
0.0
  0
SPLINE
  5
15A
330
1F
100
AcDbEntity
  8
0
  6
Continuous
 62
     1
370
    15
100
AcDbSpline
210
0.0
220
0.0
230
1.0
 70
     8
 71
     3
 72
     8
 73
     4
 74
     0
 42
0.000000001
 43
0.00000001
 40
0.0
 40
0.0
 40
0.0
 40
0.0
 40
1.0
 40
1.0
 40
1.0
 40
1.0
 10
10.39931024577637
 20
-0.2255826466981836
 30
0.0
 10
10.32465286361573
 20
-0.1775068872124708
 30
0.0
 10
10.2342151411179
 20
-0.1224098519803833
 30
0.0
 10
10.14122258305954
 20
-0.0687209712458809
 30
0.0
  0
SPLINE
  5
15B
330
1F
100
AcDbEntity
  8
0
  6
Continuous
 62
     1
370
    15
100
AcDbSpline
210
0.0
220
0.0
230
1.0
 70
     8
 71
     3
 72
    10
 73
     6
 74
     0
 42
0.000000001
 43
0.00000001
 40
0.0
 40
0.0
 40
0.0
 40
0.0
 40
0.5
 40
0.5
 40
1.0
 40
1.0
 40
1.0
 40
1.0
 10
10.92254131505504
 20
-0.5192924574948061
 30
0.0
 10
10.84293175281266
 20
-0.477305172898442
 30
0.0
 10
10.74804682346446
 20
-0.4281105369039211
 30
0.0
 10
10.56223963578183
 20
-0.3255480923407333
 30
0.0
 10
10.47334184333391
 20
-0.2732554310298653
 30
0.0
 10
10.39931024577653
 20
-0.2255826466981808
 30
0.0
  0
SPLINE
  5
15C
330
1F
100
AcDbEntity
  8
0
  6
Continuous
 62
     1
370
    15
100
AcDbSpline
210
0.0
220
0.0
230
1.0
 70
     8
 71
     3
 72
    10
 73
     6
 74
     0
 42
0.000000001
 43
0.00000001
 40
0.0
 40
0.0
 40
0.0
 40
0.0
 40
0.5
 40
0.5
 40
1.0
 40
1.0
 40
1.0
 40
1.0
 10
11.44291996301044
 20
-0.809255963263728
 30
0.0
 10
11.36829975934375
 20
-0.769120974241533
 30
0.0
 10
11.27919845102766
 20
-0.7193270002860745
 30
0.0
 10
11.09675714849923
 20
-0.615744500212906
 30
0.0
 10
11.00230112175082
 20
-0.5613589832833847
 30
0.0
 10
10.92254131505504
 20
-0.5192924574948021
 30
0.0
  0
SPLINE
  5
15D
330
1F
100
AcDbEntity
  8
0
  6
Continuous
 62
     1
370
    15
100
AcDbSpline
210
0.0
220
0.0
230
1.0
 70
     8
 71
     3
 72
    10
 73
     6
 74
     0
 42
0.000000001
 43
0.00000001
 40
0.0
 40
0.0
 40
0.0
 40
0.0
 40
0.5
 40
0.5
 40
1.0
 40
1.0
 40
1.0
 40
1.0
 10
11.9662727139108
 20
-1.098865485621947
 30
0.0
 10
11.88712044712974
 20
-1.049920131884231
 30
0.0
 10
11.79242674811848
 20
-0.9979640065958804
 30
0.0
 10
11.60654419429476
 20
-0.8971474546342006
 30
0.0
 10
11.51743332402074
 20
-0.8493334862293953
 30
0.0
 10
11.44291996301044
 20
-0.8092559632637222
 30
0.0
  0
SPLINE
  5
15E
330
1F
100
AcDbEntity
  8
0
  6
Continuous
 62
     1
370
    15
100
AcDbSpline
210
0.0
220
0.0
230
1.0
 70
     8
 71
     3
 72
     8
 73
     4
 74
     0
 42
0.000000001
 43
0.00000001
 40
0.0
 40
0.0
 40
0.0
 40
0.0
 40
1.0
 40
1.0
 40
1.0
 40
1.0
 10
12.22261867787174
 20
-1.250435713664353
 30
0.0
 10
12.13325664776954
 20
-1.200735425163791
 30
0.0
 10
12.04271533723213
 20
-1.14613527827931
 30
0.0
 10
11.96627271391081
 20
-1.098865485621941
 30
0.0
  0
SPLINE
  5
15F
330
1F
100
AcDbEntity
  8
0
  6
Continuous
 62
     1
370
    15
100
AcDbSpline
210
0.0
220
0.0
230
1.0
 70
     8
 71
     3
 72
     8
 73
     4
 74
     0
 42
0.000000001
 43
0.00000001
 40
0.0
 40
0.0
 40
0.0
 40
0.0
 40
1.0
 40
1.0
 40
1.0
 40
1.0
 10
12.48073776420936
 20
-1.378410879972312
 30
0.0
 10
12.40608440182598
 20
-1.34699080041134
 30
0.0
 10
12.31563479221825
 20
-1.301822520508882
 30
0.0
 10
12.22261867787323
 20
-1.250435713665178
 30
0.0
  0
SPLINE
  5
160
330
1F
100
AcDbEntity
  8
0
  6
Continuous
 62
     1
370
    15
100
AcDbSpline
210
0.0
220
0.0
230
1.0
 70
     8
 71
     3
 72
    10
 73
     6
 74
     0
 42
0.000000001
 43
0.00000001
 40
0.0
 40
0.0
 40
0.0
 40
0.0
 40
0.5
 40
0.5
 40
1.0
 40
1.0
 40
1.0
 40
1.0
 10
13.00379139019695
 20
-1.656180491910949
 30
0.0
 10
12.92422998631838
 20
-1.601186633798069
 30
0.0
 10
12.82938661271802
 20
-1.547878661233215
 30
0.0
 10
12.64363408900924
 20
-1.451636727622876
 30
0.0
 10
12.55475662182838
 20
-1.409563909402508
 30
0.0
 10
12.48073776420953
 20
-1.378410879972276
 30
0.0
  0
SPLINE
  5
161
330
1F
100
AcDbEntity
  8
0
  6
Continuous
 62
     1
370
    15
100
AcDbSpline
210
0.0
220
0.0
230
1.0
 70
     8
 71
     3
 72
    10
 73
     6
 74
     0
 42
0.000000001
 43
0.00000001
 40
0.0
 40
0.0
 40
0.0
 40
0.0
 40
0.5
 40
0.5
 40
1.0
 40
1.0
 40
1.0
 40
1.0
 10
14.04619117712742
 20
-2.191975624459536
 30
0.0
 10
13.96717538182489
 20
-2.131638143556406
 30
0.0
 10
13.87255274709766
 20
-2.077258179601307
 30
0.0
 10
13.68689260208991
 20
-1.985711287569802
 30
0.0
 10
13.59802513463784
 20
-1.94930154324575
 30
0.0
 10
13.52369386733151
 20
-1.926656959073281
 30
0.0
  0
SPLINE
  5
162
330
1F
100
AcDbEntity
  8
0
  6
Continuous
 62
     1
370
    15
100
AcDbSpline
210
0.0
220
0.0
230
1.0
 70
     8
 71
     3
 72
    10
 73
     6
 74
     0
 42
0.000000001
 43
0.00000001
 40
0.0
 40
0.0
 40
0.0
 40
0.0
 40
0.5
 40
0.5
 40
1.0
 40
1.0
 40
1.0
 40
1.0
 10
15.08273109704091
 20
-2.687208518828677
 30
0.0
 10
15.00320633466158
 20
-2.622678976090507
 30
0.0
 10
14.90841720241083
 20
-2.568594543691576
 30
0.0
 10
14.72274879088501
 20
-2.484670661496106
 30
0.0
 10
14.63388095380097
 20
-2.45541746100532
 30
0.0
 10
14.55990544059288
 20
-2.442725525455138
 30
0.0
  0
SPLINE
  5
163
330
1F
100
AcDbEntity
  8
0
  6
Continuous
 62
     1
370
    15
100
AcDbSpline
210
0.0
220
0.0
230
1.0
 70
     8
 71
     3
 72
    10
 73
     6
 74
     0
 42
0.000000001
 43
0.00000001
 40
0.0
 40
0.0
 40
0.0
 40
0.0
 40
0.5
 40
0.5
 40
1.0
 40
1.0
 40
1.0
 40
1.0
 10
15.60293698966872
 20
-2.921508469831051
 30
0.0
 10
15.52831825410024
 20
-2.917679209001497
 30
0.0
 10
15.43928945291217
 20
-2.892184577218973
 30
0.0
 10
15.25693660415046
 20
-2.80963165647935
 30
0.0
 10
15.16249653507981
 20
-2.751933355331906
 30
0.0
 10
15.08273109704091
 20
-2.687208518828679
 30
0.0
  0
SPLINE
  5
164
330
1F
100
AcDbEntity
  8
0
  6
Continuous
 62
     1
370
    15
100
AcDbSpline
210
0.0
220
0.0
230
1.0
 70
     8
 71
     3
 72
    10
 73
     6
 74
     0
 42
0.000000001
 43
0.00000001
 40
0.0
 40
0.0
 40
0.0
 40
0.0
 40
0.5
 40
0.5
 40
1.0
 40
1.0
 40
1.0
 40
1.0
 10
16.12616259828641
 20
-3.146225043110497
 30
0.0
 10
16.04703065163199
 20
-3.078140135638685
 30
0.0
 10
15.95229385208127
 20
-3.024577971515285
 30
0.0
 10
15.76639413420785
 20
-2.947932732878464
 30
0.0
 10
15.6773625900319
 20
-2.925327819408823
 30
0.0
 10
15.60293698966872
 20
-2.92150846983106
 30
0.0
  0
SPLINE
  5
165
330
1F
100
AcDbEntity
  8
0
  6
Continuous
 62
     1
370
    15
100
AcDbSpline
210
0.0
220
0.0
230
1.0
 70
     8
 71
     3
 72
     8
 73
     4
 74
     0
 42
0.000000001
 43
0.00000001
 40
0.0
 40
0.0
 40
0.0
 40
0.0
 40
1.0
 40
1.0
 40
1.0
 40
1.0
 10
16.38250138993818
 20
-3.304631222548075
 30
0.0
 10
16.29314942142476
 20
-3.267147457331916
 30
0.0
 10
16.20259782843593
 20
-3.211989703179267
 30
0.0
 10
16.12616259828692
 20
-3.146225043110933
 30
0.0
  0
SPLINE
  5
166
330
1F
100
AcDbEntity
  8
0
  6
Continuous
 62
     1
370
    15
100
AcDbSpline
210
0.0
220
0.0
230
1.0
 70
     8
 71
     3
 72
     8
 73
     4
 74
     0
 42
0.000000001
 43
0.00000001
 40
0.0
 40
0.0
 40
0.0
 40
0.0
 40
1.0
 40
1.0
 40
1.0
 40
1.0
 10
16.64067933569825
 20
-3.353291461188821
 30
0.0
 10
16.56601670661467
 20
-3.359828437404316
 30
0.0
 10
16.47555710606814
 20
-3.342153610199914
 30
0.0
 10
16.38250138993967
 20
-3.30463122254868
 30
0.0
  0
SPLINE
  5
167
330
1F
100
AcDbEntity
  8
0
  6
Continuous
 62
     1
370
    15
100
AcDbSpline
210
0.0
220
0.0
230
1.0
 70
     8
 71
     3
 72
    10
 73
     6
 74
     0
 42
0.000000001
 43
0.00000001
 40
0.0
 40
0.0
 40
0.0
 40
0.0
 40
0.5
 40
0.5
 40
1.0
 40
1.0
 40
1.0
 40
1.0
 10
17.16402571515141
 20
-3.549415039381929
 30
0.0
 10
17.08441941864466
 20
-3.479342292090457
 30
0.0
 10
16.98955260965231
 20
-3.4278540879932
 30
0.0
 10
16.80373513159966
 20
-3.361446339272737
 30
0.0
 10
16.71477155683017
 20
-3.346804426198908
 30
0.0
 10
16.64067933569842
 20
-3.353291461188727
 30
0.0
  0
SPLINE
  5
168
330
1F
100
AcDbEntity
  8
0
  6
Continuous
 62
     1
370
    15
100
AcDbSpline
210
0.0
220
0.0
230
1.0
 70
     8
 71
     3
 72
    10
 73
     6
 74
     0
 42
0.000000001
 43
0.00000001
 40
0.0
 40
0.0
 40
0.0
 40
0.0
 40
0.5
 40
0.5
 40
1.0
 40
1.0
 40
1.0
 40
1.0
 10
17.68438860719399
 20
-3.732089686221495
 30
0.0
 10
17.60971964950983
 20
-3.747503751817706
 30
0.0
 10
17.52057522697363
 20
-3.737203178538724
 30
0.0
 10
17.33817313579892
 20
-3.673533876968661
 30
0.0
 10
17.24380157347805
 20
-3.619637041984573
 30
0.0
 10
17.16402571515141
 20
-3.549415039381927
 30
0.0
  0
SPLINE
  5
169
330
1F
100
AcDbEntity
  8
0
  6
Continuous
 62
     1
370
    15
100
AcDbSpline
210
0.0
220
0.0
230
1.0
 70
     8
 71
     3
 72
    10
 73
     6
 74
     0
 42
0.000000001
 43
0.00000001
 40
0.0
 40
0.0
 40
0.0
 40
0.0
 40
0.5
 40
0.5
 40
1.0
 40
1.0
 40
1.0
 40
1.0
 10
18.20739823087003
 20
-3.901781949414495
 30
0.0
 10
18.12832823482543
 20
-3.830303881152875
 30
0.0
 10
18.03364070411175
 20
-3.780954315471544
 30
0.0
 10
17.8477996492525
 20
-3.724094545030443
 30
0.0
 10
17.75879314985094
 20
-3.716730204359951
 30
0.0
 10
17.68438860719399
 20
-3.732089686221496
 30
0.0
  0
SPLINE
  5
16A
330
1F
100
AcDbEntity
  8
0
  6
Continuous
 62
     1
370
    15
100
AcDbSpline
210
0.0
220
0.0
230
1.0
 70
     8
 71
     3
 72
     8
 73
     4
 74
     0
 42
0.000000001
 43
0.00000001
 40
0.0
 40
0.0
 40
0.0
 40
0.0
 40
1.0
 40
1.0
 40
1.0
 40
1.0
 10
18.46354341497164
 20
-4.048642288496803
 30
0.0
 10
18.37426046005243
 20
-4.021030939794649
 30
0.0
 10
18.28377256937804
 20
-3.970823184451633
 30
0.0
 10
18.20739823087053
 20
-3.90178194941495
 30
0.0
  0
SPLINE
  5
16B
330
1F
100
AcDbEntity
  8
0
  6
Continuous
 62
     1
370
    15
100
AcDbSpline
210
0.0
220
0.0
230
1.0
 70
     8
 71
     3
 72
     8
 73
     4
 74
     0
 42
0.000000001
 43
0.00000001
 40
0.0
 40
0.0
 40
0.0
 40
0.0
 40
1.0
 40
1.0
 40
1.0
 40
1.0
 10
18.72140920665865
 20
-4.051672818277671
 30
0.0
 10
18.64686630759593
 20
-4.077200312025953
 30
0.0
 10
18.55651052818556
 20
-4.075419210061611
 30
0.0
 10
18.46354341497312
 20
-4.048642288497239
 30
0.0
  0
SPLINE
  5
16C
330
1F
100
AcDbEntity
  8
0
  6
Continuous
 62
     1
370
    15
100
AcDbSpline
210
0.0
220
0.0
230
1.0
 70
     8
 71
     3
 72
    10
 73
     6
 74
     0
 42
0.000000001
 43
0.00000001
 40
0.0
 40
0.0
 40
0.0
 40
0.0
 40
0.5
 40
0.5
 40
1.0
 40
1.0
 40
1.0
 40
1.0
 10
19.24394018364937
 20
-4.186525356157035
 30
0.0
 10
19.164458902778
 20
-4.115492299155903
 30
0.0
 10
19.06975656171018
 20
-4.069912949625306
 30
0.0
 10
18.88419996180209
 20
-4.02536057945784
 30
0.0
 10
18.79537467232084
 20
-4.026343068750452
 30
0.0
 10
18.72140920665881
 20
-4.05167281827756
 30
0.0
  0
SPLINE
  5
16D
330
1F
100
AcDbEntity
  8
0
  6
Continuous
 62
     1
370
    15
100
AcDbSpline
210
0.0
220
0.0
230
1.0
 70
     8
 71
     3
 72
    10
 73
     6
 74
     0
 42
0.000000001
 43
0.00000001
 40
0.0
 40
0.0
 40
0.0
 40
0.0
 40
0.5000000000000002
 40
0.5000000000000002
 40
1.0
 40
1.0
 40
1.0
 40
1.0
 10
19.76354935698429
 20
-4.305575325110529
 30
0.0
 10
19.68901279028312
 20
-4.339177281997689
 30
0.0
 10
19.59999605209244
 20
-4.344700979991793
 30
0.0
 10
19.41780245832406
 20
-4.304173243369094
 30
0.0
 10
19.32353045982178
 20
-4.257655823131277
 30
0.0
 10
19.24394018364937
 20
-4.186525356157033
 30
0.0
  0
SPLINE
  5
16E
330
1F
100
AcDbEntity
  8
0
  6
Continuous
 62
     1
370
    15
100
AcDbSpline
210
0.0
220
0.0
230
1.0
 70
     8
 71
     3
 72
    10
 73
     6
 74
     0
 42
0.000000001
 43
0.00000001
 40
0.0
 40
0.0
 40
0.0
 40
0.0
 40
0.5
 40
0.5
 40
1.0
 40
1.0
 40
1.0
 40
1.0
 10
20.28632757603384
 20
-4.409882612512201
 30
0.0
 10
20.207301466244
 20
-4.339519428043564
 30
0.0
 10
20.11266972532355
 20
-4.297443853265097
 30
0.0
 10
19.92690663620363
 20
-4.263804426742649
 30
0.0
 10
19.83790879238976
 20
-4.272053221085188
 30
0.0
 10
19.76354935698429
 20
-4.305575325110526
 30
0.0
  0
SPLINE
  5
16F
330
1F
100
AcDbEntity
  8
0
  6
Continuous
 62
     1
370
    15
100
AcDbSpline
210
0.0
220
0.0
230
1.0
 70
     8
 71
     3
 72
     8
 73
     4
 74
     0
 42
0.000000001
 43
0.00000001
 40
0.0
 40
0.0
 40
0.0
 40
0.0
 40
1.0
 40
1.0
 40
1.0
 40
1.0
 10
20.54254487435021
 20
-4.536061350084671
 30
0.0
 10
20.45325011858688
 20
-4.520024412948113
 30
0.0
 10
20.36273209473242
 20
-4.477911587463761
 30
0.0
 10
20.28632757603435
 20
-4.409882612512653
 30
0.0
  0
SPLINE
  5
170
330
1F
100
AcDbEntity
  8
0
  6
Continuous
 62
     1
370
    15
100
AcDbSpline
210
0.0
220
0.0
230
1.0
 70
     8
 71
     3
 72
     8
 73
     4
 74
     0
 42
0.000000001
 43
0.00000001
 40
0.0
 40
0.0
 40
0.0
 40
0.0
 40
1.0
 40
1.0
 40
1.0
 40
1.0
 10
20.80063798313904
 20
-4.493447038250831
 30
0.0
 10
20.72600828040306
 20
-4.536289396602514
 30
0.0
 10
20.63558934300931
 20
-4.550463756913063
 30
0.0
 10
20.54254487435169
 20
-4.536061350084909
 30
0.0
  0
SPLINE
  5
171
330
1F
100
AcDbEntity
  8
0
  6
Continuous
 62
     1
370
    15
100
AcDbSpline
210
0.0
220
0.0
230
1.0
 70
     8
 71
     3
 72
    10
 73
     6
 74
     0
 42
0.000000001
 43
0.00000001
 40
0.0
 40
0.0
 40
0.0
 40
0.0
 40
0.5
 40
0.5
 40
1.0
 40
1.0
 40
1.0
 40
1.0
 10
21.32396760145746
 20
-4.558588009502515
 30
0.0
 10
21.24430149439257
 20
-4.491019500254018
 30
0.0
 10
21.14938972498551
 20
-4.454342859366346
 30
0.0
 10
20.96363359100499
 20
-4.434463975073468
 30
0.0
 10
20.87472323119287
 20
-4.450917232699608
 30
0.0
 10
20.8006379831392
 20
-4.493447038250702
 30
0.0
  0
SPLINE
  5
172
330
1F
100
AcDbEntity
  8
0
  6
Continuous
 62
     1
370
    15
100
AcDbSpline
210
0.0
220
0.0
230
1.0
 70
     8
 71
     3
 72
    10
 73
     6
 74
     0
 42
0.000000001
 43
0.00000001
 40
0.0
 40
0.0
 40
0.0
 40
0.0
 40
0.5
 40
0.5
 40
1.0
 40
1.0
 40
1.0
 40
1.0
 10
21.84435328458586
 20
-4.607030835676803
 30
0.0
 10
21.76969785419415
 20
-4.656652257316911
 30
0.0
 10
21.6805572020407
 20
-4.677521488686713
 30
0.0
 10
21.49810924518965
 20
-4.662471739927726
 30
0.0
 10
21.40369839620944
 20
-4.626211383369659
 30
0.0
 10
21.32396760145746
 20
-4.558588009502516
 30
0.0
  0
SPLINE
  5
173
330
1F
100
AcDbEntity
  8
0
  6
Continuous
 62
     1
370
    15
100
AcDbSpline
210
0.0
220
0.0
230
1.0
 70
     8
 71
     3
 72
    10
 73
     6
 74
     0
 42
0.000000001
 43
0.00000001
 40
0.0
 40
0.0
 40
0.0
 40
0.0
 40
0.5
 40
0.5
 40
1.0
 40
1.0
 40
1.0
 40
1.0
 10
22.36761189978013
 20
-4.639510251515751
 30
0.0
 10
22.28851791112411
 20
-4.574650041791218
 30
0.0
 10
22.19381531126254
 20
-4.542521434117232
 30
0.0
 10
22.00790752565534
 20
-4.534220768600901
 30
0.0
 10
21.91882005834587
 20
-4.557534808937226
 30
0.0
 10
21.84435328458586
 20
-4.607030835676813
 30
0.0
  0
SPLINE
  5
174
330
1F
100
AcDbEntity
  8
0
  6
Continuous
 62
     1
370
    15
100
AcDbSpline
210
0.0
220
0.0
230
1.0
 70
     8
 71
     3
 72
     8
 73
     4
 74
     0
 42
0.000000001
 43
0.00000001
 40
0.0
 40
0.0
 40
0.0
 40
0.0
 40
1.0
 40
1.0
 40
1.0
 40
1.0
 10
22.62394876422454
 20
-4.736940914616749
 30
0.0
 10
22.5346316052015
 20
-4.73353578439276
 30
0.0
 10
22.44407304629583
 20
-4.702211426194643
 30
0.0
 10
22.36761189978063
 20
-4.639510251516164
 30
0.0
  0
SPLINE
  5
175
330
1F
100
AcDbEntity
  8
0
  6
Continuous
 62
     1
370
    15
100
AcDbSpline
210
0.0
220
0.0
230
1.0
 70
     8
 71
     3
 72
     8
 73
     4
 74
     0
 42
0.000000001
 43
0.00000001
 40
0.0
 40
0.0
 40
0.0
 40
0.0
 40
1.0
 40
1.0
 40
1.0
 40
1.0
 10
22.8821020263176
 20
-4.651151995169754
 30
0.0
 10
22.80745437928324
 20
-4.708699333555171
 30
0.0
 10
22.71701827815862
 20
-4.737993448466486
 30
0.0
 10
22.62394876422602
 20
-4.736940914616777
 30
0.0
  0
SPLINE
  5
176
330
1F
100
AcDbEntity
  8
0
  6
Continuous
 62
     1
370
    15
100
AcDbSpline
210
0.0
220
0.0
230
1.0
 70
     8
 71
     3
 72
    10
 73
     6
 74
     0
 42
0.000000001
 43
0.00000001
 40
0.0
 40
0.0
 40
0.0
 40
0.0
 40
0.5000000000000001
 40
0.5000000000000001
 40
1.0
 40
1.0
 40
1.0
 40
1.0
 10
23.40520872809881
 20
-4.642104800287175
 30
0.0
 10
23.32558916865286
 20
-4.582316013779358
 30
0.0
 10
23.23069474201177
 20
-4.556802294597046
 30
0.0
 10
23.04493078194663
 20
-4.563037784583602
 30
0.0
 10
22.95610170025107
 20
-4.594104191984356
 30
0.0
 10
22.88210202631777
 20
-4.65115199516962
 30
0.0
  0
SPLINE
  5
177
330
1F
100
AcDbEntity
  8
0
  6
Continuous
 62
     1
370
    15
100
AcDbSpline
210
0.0
220
0.0
230
1.0
 70
     8
 71
     3
 72
    12
 73
     8
 74
     0
 42
0.000000001
 43
0.00000001
 40
0.0
 40
0.0
 40
0.0
 40
0.0
 40
0.5
 40
0.5
 40
0.75
 40
0.75
 40
1.0
 40
1.0
 40
1.0
 40
1.0
 10
29.99556996575474
 20
-1.505617829597201
 30
0.0
 10
29.95917185342341
 20
-1.004493458781992
 30
0.0
 10
29.92130863927825
 20
-0.4668370557250391
 30
0.0
 10
29.86716421933125
 20
0.3254142433881773
 30
0.0
 10
29.8499934710081
 20
0.584914693568173
 30
0.0
 10
29.8149485851977
 20
1.099378840383393
 30
0.0
 10
29.7968061809828
 20
1.355602534871013
 30
0.0
 10
29.77841773217089
 20
1.605061490796339
 30
0.0
  0
SPLINE
  5
178
330
1F
100
AcDbEntity
  8
0
  6
Continuous
 62
     1
370
    15
100
AcDbSpline
210
0.0
220
0.0
230
1.0
 70
     8
 71
     3
 72
     8
 73
     4
 74
     0
 42
0.000000001
 43
0.00000001
 40
0.0
 40
0.0
 40
0.0
 40
0.0
 40
1.0
 40
1.0
 40
1.0
 40
1.0
 10
29.77841773217094
 20
1.605061490795868
 30
0.0
 10
29.85308476093584
 20
1.5772258111866
 30
0.0
 10
29.94353339551149
 20
1.53435618614036
 30
0.0
 10
30.03653827332053
 20
1.483737748325319
 30
0.0
  0
SPLINE
  5
179
330
1F
100
AcDbEntity
  8
0
  6
Continuous
 62
     1
370
    15
100
AcDbSpline
210
0.0
220
0.0
230
1.0
 70
     8
 71
     3
 72
    10
 73
     6
 74
     0
 42
0.000000001
 43
0.00000001
 40
0.0
 40
0.0
 40
0.0
 40
0.0
 40
0.5
 40
0.5
 40
1.0
 40
1.0
 40
1.0
 40
1.0
 10
28.95210527063164
 20
-0.9389041158787854
 30
0.0
 10
28.91506690343396
 20
-0.4174299257418164
 30
0.0
 10
28.87779997005781
 20
0.1235861593684482
 30
0.0
 10
28.80895726709998
 20
1.153232524082061
 30
0.0
 10
28.77179975704786
 20
1.669163571704125
 30
0.0
 10
28.73475474386332
 20
2.141886306845154
 30
0.0
  0
SPLINE
  5
17A
330
1F
100
AcDbEntity
  8
0
  6
Continuous
 62
     1
370
    15
100
AcDbSpline
210
0.0
220
0.0
230
1.0
 70
     8
 71
     3
 72
    10
 73
     6
 74
     0
 42
0.000000001
 43
0.00000001
 40
0.0
 40
0.0
 40
0.0
 40
0.0
 40
0.5
 40
0.5
 40
1.0
 40
1.0
 40
1.0
 40
1.0
 10
28.73475474386253
 20
2.141886306855198
 30
0.0
 10
28.80937526057604
 20
2.122948861831946
 30
0.0
 10
28.89847694676467
 20
2.086715624385701
 30
0.0
 10
29.08092170961379
 20
1.993031150385763
 30
0.0
 10
29.17538135196052
 20
1.934956375692628
 30
0.0
 10
29.25514657165751
 20
1.877622147568627
 30
0.0
  0
SPLINE
  5
17B
330
1F
100
AcDbEntity
  8
0
  6
Continuous
 62
     1
370
    15
100
AcDbSpline
210
0.0
220
0.0
230
1.0
 70
     8
 71
     3
 72
    12
 73
     8
 74
     0
 42
0.000000001
 43
0.00000001
 40
0.0
 40
0.0
 40
0.0
 40
0.0
 40
0.5
 40
0.5
 40
0.75
 40
0.75
 40
1.0
 40
1.0
 40
1.0
 40
1.0
 10
29.47244140647128
 20
-1.223621729752946
 30
0.0
 10
29.43561449459183
 20
-0.7109339128867032
 30
0.0
 10
29.39793507268827
 20
-0.170039029965129
 30
0.0
 10
29.34491188337219
 20
0.6141428359877947
 30
0.0
 10
29.32792786821255
 20
0.8705402771424364
 30
0.0
 10
29.29207248023477
 20
1.381654290054678
 30
0.0
 10
29.27365690247984
 20
1.634064048966754
 30
0.0
 10
29.25514657165748
 20
1.877622147568994
 30
0.0
  0
LINE
  5
17C
330
1F
100
AcDbEntity
  8
0
  6
Continuous
 62
     1
370
    15
100
AcDbLine
 10
9.912157015402235
 20
0.0790788071617685
 30
0.0
 11
9.912157015402235
 21
2.98325760669766
 31
0.0
  0
SPLINE
  5
17D
330
1F
100
AcDbEntity
  8
0
  6
Continuous
 62
     1
370
    15
100
AcDbSpline
210
0.0
220
0.0
230
1.0
 70
     8
 71
     3
 72
    12
 73
     8
 74
     0
 42
0.000000001
 43
0.00000001
 40
0.0
 40
0.0
 40
0.0
 40
0.0
 40
0.5
 40
0.5
 40
0.75
 40
0.75
 40
1.0
 40
1.0
 40
1.0
 40
1.0
 10
32.03713729274997
 20
-2.070824561388172
 30
0.0
 10
32.02429268205953
 20
-1.692763510108776
 30
0.0
 10
32.01214352087882
 20
-1.287357224575603
 30
0.0
 10
31.99604391693164
 20
-0.6674742969468448
 30
0.0
 10
31.9909970970543
 20
-0.4579302950036926
 30
0.0
 10
31.98157935061639
 20
-0.0328605791214551
 30
0.0
 10
31.97721831681521
 20
0.1824689375768276
 30
0.0
 10
31.97329906419774
 20
0.3962929154539581
 30
0.0
  0
SPLINE
  5
17E
330
1F
100
AcDbEntity
  8
0
  6
Continuous
 62
     1
370
    15
100
AcDbSpline
210
0.0
220
0.0
230
1.0
 70
     8
 71
     3
 72
     8
 73
     4
 74
     0
 42
0.000000001
 43
0.00000001
 40
0.0
 40
0.0
 40
0.0
 40
0.0
 40
1.0
 40
1.0
 40
1.0
 40
1.0
 10
31.97329906419773
 20
0.3962929154539631
 30
0.0
 10
32.02758856498498
 20
0.3681707303043139
 30
0.0
 10
32.08219146763405
 20
0.3418651001626291
 30
0.0
 10
32.13715701540204
 20
0.3174537259217327
 30
0.0
  0
LINE
  5
17F
330
1F
100
AcDbEntity
  8
0
  6
Continuous
 62
     1
370
    15
100
AcDbLine
 10
32.13715701540224
 20
-2.543461574731424
 30
0.0
 11
32.13715701540224
 21
0.31745372592162
 31
0.0
  0
SPLINE
  5
180
330
1F
100
AcDbEntity
  8
0
  6
Continuous
 62
     1
370
    15
100
AcDbSpline
210
0.0
220
0.0
230
1.0
 70
     8
 71
     3
 72
     8
 73
     4
 74
     0
 42
0.000000001
 43
0.00000001
 40
0.0
 40
0.0
 40
0.0
 40
0.0
 40
1.0
 40
1.0
 40
1.0
 40
1.0
 10
32.05305837105693
 20
-2.539088375539467
 30
0.0
 10
32.04787396711444
 20
-2.388670957886598
 30
0.0
 10
32.042631978905
 20
-2.232552065186392
 30
0.0
 10
32.03713729274995
 20
-2.070824561388058
 30
0.0
  0
SPLINE
  5
181
330
1F
100
AcDbEntity
  8
0
  6
Continuous
 62
     1
370
    15
100
AcDbSpline
210
0.0
220
0.0
230
1.0
 70
     8
 71
     3
 72
    12
 73
     8
 74
     0
 42
0.000000001
 43
0.00000001
 40
0.0
 40
0.0
 40
0.0
 40
0.0
 40
0.2500000000000001
 40
0.2500000000000001
 40
0.5000000000000001
 40
0.5000000000000001
 40
1.0
 40
1.0
 40
1.0
 40
1.0
 10
15.08273109704145
 20
-2.6872085188351
 30
0.0
 10
15.0646646634166
 20
-2.471639338861128
 30
0.0
 10
15.04747071202872
 20
-2.246701937745797
 30
0.0
 10
15.01241363475954
 20
-1.775068073811271
 30
0.0
 10
14.9942624089771
 20
-1.526865855871495
 30
0.0
 10
14.93906392299226
 20
-0.7598942939023765
 30
0.0
 10
14.90130682951792
 20
-0.2188995838140684
 30
0.0
 10
14.86579467171729
 20
0.3053421689345689
 30
0.0
  0
SPLINE
  5
182
330
1F
100
AcDbEntity
  8
0
  6
Continuous
 62
     1
370
    15
100
AcDbSpline
210
0.0
220
0.0
230
1.0
 70
     8
 71
     3
 72
    12
 73
     8
 74
     0
 42
0.000000001
 43
0.00000001
 40
0.0
 40
0.0
 40
0.0
 40
0.0
 40
0.25
 40
0.25
 40
0.5
 40
0.5
 40
1.0
 40
1.0
 40
1.0
 40
1.0
 10
15.60293698966872
 20
-2.921508469831043
 30
0.0
 10
15.58460622074895
 20
-2.715057716739008
 30
0.0
 10
15.56657188537548
 20
-2.495362030867657
 30
0.0
 10
15.53182875199751
 20
-2.040143612553234
 30
0.0
 10
15.514346588916
 20
-1.801375791087834
 30
0.0
 10
15.45986525381091
 20
-1.053145693650306
 30
0.0
 10
15.42197631304755
 20
-0.5164201435844766
 30
0.0
 10
15.38575778719697
 20
0.0122928156414053
 30
0.0
  0
SPLINE
  5
183
330
1F
100
AcDbEntity
  8
0
  6
Continuous
 62
     1
370
    15
100
AcDbSpline
210
0.0
220
0.0
230
1.0
 70
     8
 71
     3
 72
    12
 73
     8
 74
     0
 42
0.000000001
 43
0.00000001
 40
0.0
 40
0.0
 40
0.0
 40
0.0
 40
0.5
 40
0.5
 40
0.75
 40
0.75
 40
1.0
 40
1.0
 40
1.0
 40
1.0
 10
12.22261867787173
 20
-1.250435713664185
 30
0.0
 10
12.18610261306946
 20
-0.7320422682879204
 30
0.0
 10
12.14874209858283
 20
-0.1852824634718431
 30
0.0
 10
12.09609526014481
 20
0.6082983401249364
 30
0.0
 10
12.07927157721526
 20
0.8676535920578856
 30
0.0
 10
12.04377103122973
 20
1.384895663589811
 30
0.0
 10
12.02553075558793
 20
1.640526493446656
 30
0.0
 10
12.00718247800329
 20
1.88748516265256
 30
0.0
  0
SPLINE
  5
184
330
1F
100
AcDbEntity
  8
0
  6
Continuous
 62
     1
370
    15
100
AcDbSpline
210
0.0
220
0.0
230
1.0
 70
     8
 71
     3
 72
    12
 73
     8
 74
     0
 42
0.000000001
 43
0.00000001
 40
0.0
 40
0.0
 40
0.0
 40
0.0
 40
0.5
 40
0.5
 40
0.75
 40
0.75
 40
1.0
 40
1.0
 40
1.0
 40
1.0
 10
12.48073776420953
 20
-1.378410879972288
 30
0.0
 10
12.44412270436597
 20
-0.8716175651815246
 30
0.0
 10
12.40631870918479
 20
-0.3320177344514988
 30
0.0
 10
12.35265389699742
 20
0.4572015600465164
 30
0.0
 10
12.33570151163111
 20
0.7147937921396357
 30
0.0
 10
12.30026960356966
 20
1.228169450177106
 30
0.0
 10
12.28199246076553
 20
1.482882921096138
 30
0.0
 10
12.26353750055762
 20
1.729875943525525
 30
0.0
  0
SPLINE
  5
185
330
1F
100
AcDbEntity
  8
0
  6
Continuous
 62
     1
370
    15
100
AcDbSpline
210
0.0
220
0.0
230
1.0
 70
     8
 71
     3
 72
    12
 73
     8
 74
     0
 42
0.000000001
 43
0.00000001
 40
0.0
 40
0.0
 40
0.0
 40
0.0
 40
0.5
 40
0.5
 40
0.75
 40
0.75
 40
1.0
 40
1.0
 40
1.0
 40
1.0
 10
11.96627271391079
 20
-1.098865485621792
 30
0.0
 10
11.92932797911257
 20
-0.5817040251625032
 30
0.0
 10
11.89180543306023
 20
-0.0401159944541239
 30
0.0
 10
11.83936731431131
 20
0.7396353257260857
 30
0.0
 10
11.8221317860641
 20
0.9961558125944483
 30
0.0
 10
11.78598477946814
 20
1.505150507945949
 30
0.0
 10
11.76748445159896
 20
1.755552846532835
 30
0.0
 10
11.74895646576131
 20
1.996211717135201
 30
0.0
  0
SPLINE
  5
186
330
1F
100
AcDbEntity
  8
0
  6
Continuous
 62
     1
370
    15
100
AcDbSpline
210
0.0
220
0.0
230
1.0
 70
     8
 71
     3
 72
     8
 73
     4
 74
     0
 42
0.000000001
 43
0.00000001
 40
0.0
 40
0.0
 40
0.0
 40
0.0
 40
1.0
 40
1.0
 40
1.0
 40
1.0
 10
31.85783279057143
 20
0.4650591408930047
 30
0.0
 10
31.89316461150631
 20
0.4437647358363275
 30
0.0
 10
31.93217703758376
 20
0.4205680300108897
 30
0.0
 10
31.97329906419773
 20
0.3962929154539661
 30
0.0
  0
SPLINE
  5
187
330
1F
100
AcDbEntity
  8
0
  6
Continuous
 62
     1
370
    15
100
AcDbSpline
210
0.0
220
0.0
230
1.0
 70
     8
 71
     3
 72
    10
 73
     6
 74
     0
 42
0.000000001
 43
0.00000001
 40
0.0
 40
0.0
 40
0.0
 40
0.0
 40
0.5
 40
0.5
 40
1.0
 40
1.0
 40
1.0
 40
1.0
 10
32.03713729274997
 20
-2.070824561388061
 30
0.0
 10
32.00850098851934
 20
-1.686475002511232
 30
0.0
 10
31.97808669985248
 20
-1.267291341985951
 30
0.0
 10
31.91712547776627
 20
-0.4051427610337315
 30
0.0
 10
31.88662524034269
 20
0.0371632335591857
 30
0.0
 10
31.85783279057146
 20
0.4650591408925369
 30
0.0
  0
SPLINE
  5
188
330
1F
100
AcDbEntity
  8
0
  6
Continuous
 62
     1
370
    15
100
AcDbSpline
210
0.0
220
0.0
230
1.0
 70
     8
 71
     3
 72
    12
 73
     8
 74
     0
 42
0.000000001
 43
0.00000001
 40
0.0
 40
0.0
 40
0.0
 40
0.0
 40
0.2500000000000001
 40
0.2500000000000001
 40
0.5000000000000001
 40
0.5000000000000001
 40
1.0
 40
1.0
 40
1.0
 40
1.0
 10
10.92254131505504
 20
-0.5192924574947793
 30
0.0
 10
10.90406321440228
 20
-0.2549155077144334
 30
0.0
 10
10.88573730307823
 20
0.0112840119762927
 30
0.0
 10
10.85016342025417
 20
0.5357933975375511
 30
0.0
 10
10.83323281269312
 20
0.7925983422519756
 30
0.0
 10
10.77974985831958
 20
1.561038031122072
 30
0.0
 10
10.74197155861086
 20
2.062525795863483
 30
0.0
 10
10.7052796501141
 20
2.509510446176914
 30
0.0
  0
SPLINE
  5
189
330
1F
100
AcDbEntity
  8
0
  6
Continuous
 62
     1
370
    15
100
AcDbSpline
210
0.0
220
0.0
230
1.0
 70
     8
 71
     3
 72
    12
 73
     8
 74
     0
 42
0.000000001
 43
0.00000001
 40
0.0
 40
0.0
 40
0.0
 40
0.0
 40
0.25
 40
0.25
 40
0.5
 40
0.5
 40
1.0
 40
1.0
 40
1.0
 40
1.0
 10
11.44291996301044
 20
-0.8092559632637395
 30
0.0
 10
11.42438902005487
 20
-0.5470403227910436
 30
0.0
 10
11.40585848671724
 20
-0.2808301988607972
 30
0.0
 10
11.36960086288521
 20
0.2478765481549937
 30
0.0
 10
11.35220420944554
 20
0.5087270651716576
 30
0.0
 10
11.30001226649727
 20
1.280429074895301
 30
0.0
 10
11.26256170546203
 20
1.792849648213249
 30
0.0
 10
11.22557772103199
 20
2.258170939406908
 30
0.0
  0
SPLINE
  5
18A
330
1F
100
AcDbEntity
  8
0
  6
Continuous
 62
     1
370
    15
100
AcDbSpline
210
0.0
220
0.0
230
1.0
 70
     8
 71
     3
 72
    10
 73
     6
 74
     0
 42
0.000000001
 43
0.00000001
 40
0.0
 40
0.0
 40
0.0
 40
0.0
 40
0.5
 40
0.5
 40
1.0
 40
1.0
 40
1.0
 40
1.0
 10
31.33542333738898
 20
0.7568422475609389
 30
0.0
 10
31.4149028870178
 20
0.7120472336550558
 30
0.0
 10
31.5096586491694
 20
0.6618040753295242
 30
0.0
 10
31.6952107598551
 20
0.5600469428424286
 30
0.0
 10
31.78394802962693
 20
0.5095893118674278
 30
0.0
 10
31.85783279057144
 20
0.4650591408929962
 30
0.0
  0
SPLINE
  5
18B
330
1F
100
AcDbEntity
  8
0
  6
Continuous
 62
     1
370
    15
100
AcDbSpline
210
0.0
220
0.0
230
1.0
 70
     8
 71
     3
 72
    10
 73
     6
 74
     0
 42
0.000000001
 43
0.00000001
 40
0.0
 40
0.0
 40
0.0
 40
0.0
 40
0.5
 40
0.5
 40
1.0
 40
1.0
 40
1.0
 40
1.0
 10
30.29282742328861
 20
1.329376704737308
 30
0.0
 10
30.37186698328651
 20
1.277804224839354
 30
0.0
 10
30.46648381992185
 20
1.225169065194312
 30
0.0
 10
30.65225374270994
 20
1.125951741247191
 30
0.0
 10
30.74132863068524
 20
1.08032342534
 30
0.0
 10
30.81575592979584
 20
1.043703790180512
 30
0.0
  0
SPLINE
  5
18C
330
1F
100
AcDbEntity
  8
0
  6
Continuous
 62
     1
370
    15
100
AcDbSpline
210
0.0
220
0.0
230
1.0
 70
     8
 71
     3
 72
    12
 73
     8
 74
     0
 42
0.000000001
 43
0.00000001
 40
0.0
 40
0.0
 40
0.0
 40
0.0
 40
0.25
 40
0.25
 40
0.5
 40
0.5
 40
1.0
 40
1.0
 40
1.0
 40
1.0
 10
28.17050367117841
 20
-0.4998689731483074
 30
0.0
 10
28.15219179455518
 20
-0.2323775504312667
 30
0.0
 10
28.13404432754421
 20
0.0367230098814913
 30
0.0
 10
28.09882930566957
 20
0.5666971631960174
 30
0.0
 10
28.08203319448674
 20
0.826269902843394
 30
0.0
 10
28.0289369053464
 20
1.603069398963525
 30
0.0
 10
27.99148179083562
 20
2.109634069563035
 30
0.0
 10
27.95510091097342
 20
2.561489939474506
 30
0.0
  0
SPLINE
  5
18D
330
1F
100
AcDbEntity
  8
0
  6
Continuous
 62
     1
370
    15
100
AcDbSpline
210
0.0
220
0.0
230
1.0
 70
     8
 71
     3
 72
     8
 73
     4
 74
     0
 42
0.000000001
 43
0.00000001
 40
0.0
 40
0.0
 40
0.0
 40
0.0
 40
1.0
 40
1.0
 40
1.0
 40
1.0
 10
27.95510091097598
 20
2.561489939474041
 30
0.0
 10
28.04445535093409
 20
2.51775679257239
 30
0.0
 10
28.13498947468452
 20
2.461057975875906
 30
0.0
 10
28.21142326817353
 20
2.40082968369354
 30
0.0
  0
SPLINE
  5
18E
330
1F
100
AcDbEntity
  8
0
  6
Continuous
 62
     1
370
    15
100
AcDbSpline
210
0.0
220
0.0
230
1.0
 70
     8
 71
     3
 72
    12
 73
     8
 74
     0
 42
0.000000001
 43
0.00000001
 40
0.0
 40
0.0
 40
0.0
 40
0.0
 40
0.2500000000000001
 40
0.2500000000000001
 40
0.5000000000000001
 40
0.5000000000000001
 40
1.0
 40
1.0
 40
1.0
 40
1.0
 10
28.42871502452815
 20
-0.6478129140254136
 30
0.0
 10
28.41020155476233
 20
-0.3840881297252062
 30
0.0
 10
28.39177349939674
 20
-0.1175786115520235
 30
0.0
 10
28.35587626137561
 20
0.4093703902453745
 30
0.0
 10
28.33886989065242
 20
0.6675529961156124
 30
0.0
 10
28.28592694320127
 20
1.438313440082278
 30
0.0
 10
28.2482680424942
 20
1.945237681758531
 30
0.0
 10
28.21142326817355
 20
2.400829683693526
 30
0.0
  0
SPLINE
  5
18F
330
1F
100
AcDbEntity
  8
0
  6
Continuous
 62
     1
370
    15
100
AcDbSpline
210
0.0
220
0.0
230
1.0
 70
     8
 71
     3
 72
    12
 73
     8
 74
     0
 42
0.000000001
 43
0.00000001
 40
0.0
 40
0.0
 40
0.0
 40
0.0
 40
0.2500000000000001
 40
0.2500000000000001
 40
0.5000000000000001
 40
0.5000000000000001
 40
1.0
 40
1.0
 40
1.0
 40
1.0
 10
27.91416761657945
 20
-0.3589892877761799
 30
0.0
 10
27.89576734674618
 20
-0.0939946972113287
 30
0.0
 10
27.8776017168899
 20
0.1716215997922417
 30
0.0
 10
27.84249083388998
 20
0.6927480390631435
 30
0.0
 10
27.82537288139935
 20
0.9491875107165275
 30
0.0
 10
27.77130746464537
 20
1.714151014821263
 30
0.0
 10
27.73345270706782
 20
2.208439620992054
 30
0.0
 10
27.69701665308881
 20
2.644453439365253
 30
0.0
  0
SPLINE
  5
190
330
1F
100
AcDbEntity
  8
0
  6
Continuous
 62
     1
370
    15
100
AcDbSpline
210
0.0
220
0.0
230
1.0
 70
     8
 71
     3
 72
     8
 73
     4
 74
     0
 42
0.000000001
 43
0.00000001
 40
0.0
 40
0.0
 40
0.0
 40
0.0
 40
1.0
 40
1.0
 40
1.0
 40
1.0
 10
27.69701665308882
 20
2.644453439365201
 30
0.0
 10
27.77165580199445
 20
2.63552671866944
 30
0.0
 10
27.86209387701803
 20
2.605931832884349
 30
0.0
 10
27.95510091097343
 20
2.56148993947449
 30
0.0
  0
SPLINE
  5
191
330
1F
100
AcDbEntity
  8
0
  6
Continuous
 62
     1
370
    15
100
AcDbSpline
210
0.0
220
0.0
230
1.0
 70
     8
 71
     3
 72
    12
 73
     8
 74
     0
 42
0.000000001
 43
0.00000001
 40
0.0
 40
0.0
 40
0.0
 40
0.0
 40
0.25
 40
0.25
 40
0.5
 40
0.5
 40
1.0
 40
1.0
 40
1.0
 40
1.0
 10
26.87106576174241
 20
0.2276450724327523
 30
0.0
 10
26.85319715037885
 20
0.4906395096105117
 30
0.0
 10
26.83624292930489
 20
0.7481056855943453
 30
0.0
 10
26.80066790892179
 20
1.261536110146826
 30
0.0
 10
26.78233348180337
 20
1.516017437875083
 30
0.0
 10
26.72685107966697
 20
2.255480017002961
 30
0.0
 10
26.6892721267917
 20
2.714988250043687
 30
0.0
 10
26.65425775154612
 20
3.104545326325361
 30
0.0
  0
SPLINE
  5
192
330
1F
100
AcDbEntity
  8
0
  6
Continuous
 62
     1
370
    15
100
AcDbSpline
210
0.0
220
0.0
230
1.0
 70
     8
 71
     3
 72
    10
 73
     6
 74
     0
 42
0.000000001
 43
0.00000001
 40
0.0
 40
0.0
 40
0.0
 40
0.0
 40
0.5
 40
0.5
 40
1.0
 40
1.0
 40
1.0
 40
1.0
 10
26.65425775154613
 20
3.104545326325366
 30
0.0
 10
26.72875157019005
 20
3.104636892405709
 30
0.0
 10
26.81773827860342
 20
3.082245247159316
 30
0.0
 10
26.99998855258282
 20
3.003337553764343
 30
0.0
 10
27.09436211143284
 20
2.946220176747805
 30
0.0
 10
27.17404875690024
 20
2.880146103170169
 30
0.0
  0
SPLINE
  5
193
330
1F
100
AcDbEntity
  8
0
  6
Continuous
 62
     1
370
    15
100
AcDbSpline
210
0.0
220
0.0
230
1.0
 70
     8
 71
     3
 72
    12
 73
     8
 74
     0
 42
0.000000001
 43
0.00000001
 40
0.0
 40
0.0
 40
0.0
 40
0.0
 40
0.25
 40
0.25
 40
0.5
 40
0.5
 40
1.0
 40
1.0
 40
1.0
 40
1.0
 10
27.39107087493879
 20
-0.0651531370485288
 30
0.0
 10
27.37288430918158
 20
0.1995541274297214
 30
0.0
 10
27.35529953935871
 20
0.4616314128516171
 30
0.0
 10
27.32064513550812
 20
0.9764611575392661
 30
0.0
 10
27.30264400921281
 20
1.233772387729923
 30
0.0
 10
27.24771096590052
 20
1.988152992963382
 30
0.0
 10
27.20987476799759
 20
2.466430098310622
 30
0.0
 10
27.17404875690073
 20
2.880146103164601
 30
0.0
  0
SPLINE
  5
194
330
1F
100
AcDbEntity
  8
0
  6
Continuous
 62
     1
370
    15
100
AcDbSpline
210
0.0
220
0.0
230
1.0
 70
     8
 71
     3
 72
    10
 73
     6
 74
     0
 42
0.000000001
 43
0.00000001
 40
0.0
 40
0.0
 40
0.0
 40
0.0
 40
0.5
 40
0.5
 40
1.0
 40
1.0
 40
1.0
 40
1.0
 10
29.25514657165751
 20
1.877622147568624
 30
0.0
 10
29.334760580611
 20
1.820396607808991
 30
0.0
 10
29.42965058183718
 20
1.766651810900586
 30
0.0
 10
29.61547018397047
 20
1.672381365019196
 30
0.0
 10
29.70437653637986
 20
1.632663861454249
 30
0.0
 10
29.77841773217094
 20
1.605061490795889
 30
0.0
  0
SPLINE
  5
195
330
1F
100
AcDbEntity
  8
0
  6
Continuous
 62
     1
370
    15
100
AcDbSpline
210
0.0
220
0.0
230
1.0
 70
     8
 71
     3
 72
    12
 73
     8
 74
     0
 42
0.000000001
 43
0.00000001
 40
0.0
 40
0.0
 40
0.0
 40
0.0
 40
0.25
 40
0.25
 40
0.5
 40
0.5
 40
1.0
 40
1.0
 40
1.0
 40
1.0
 10
10.39931024577653
 20
-0.2255826466981885
 30
0.0
 10
10.38099455398471
 20
0.039524131925255
 30
0.0
 10
10.36298102262329
 20
0.3042594950125512
 30
0.0
 10
10.32828818718208
 20
0.821836231581814
 30
0.0
 10
10.31076931400872
 20
1.078866675404945
 30
0.0
 10
10.25627393852698
 20
1.839748895717598
 30
0.0
 10
10.21839957109052
 20
2.327242584165194
 30
0.0
 10
10.18221597941661
 20
2.75349244579486
 30
0.0
  0
LINE
  5
196
330
1F
100
AcDbEntity
  8
0
  6
Continuous
 62
     4
370
    15
100
AcDbLine
 10
-30.86284298459777
 20
4.76368533958065
 30
0.0
 11
-30.86284298459777
 21
-4.761314660419346
 31
0.0
  0
LINE
  5
197
330
1F
100
AcDbEntity
  8
0
  6
Continuous
 62
     4
370
    15
100
AcDbLine
 10
-31.36284298459777
 20
4.26368533958065
 30
0.0
 11
-31.36284298459777
 21
-4.261314660419354
 31
0.0
  0
SPLINE
  5
198
330
1F
100
AcDbEntity
  8
0
  6
Continuous
 62
     4
370
    15
100
AcDbSpline
210
0.0
220
0.0
230
1.0
 70
     8
 71
     3
 72
    14
 73
    10
 74
     0
 42
0.000000001
 43
0.00000001
 40
0.0
 40
0.0
 40
0.0
 40
0.0
 40
0.2500000000000002
 40
0.2500000000000002
 40
0.5000000000000003
 40
0.5000000000000003
 40
0.7500000000000001
 40
0.7500000000000001
 40
1.0
 40
1.0
 40
1.0
 40
1.0
 10
8.391958181813617
 20
4.153417791477013
 30
0.0
 10
8.391958181813617
 20
4.103870744952909
 30
0.0
 10
8.417519754570472
 20
4.052005411959628
 30
0.0
 10
8.514515128551023
 20
3.957640078979249
 30
0.0
 10
8.586324644385046
 20
3.915151625456765
 30
0.0
 10
8.759851493287805
 20
3.855441771648733
 30
0.0
 10
8.859419842814036
 20
3.839013998985373
 30
0.0
 10
9.05915749854805
 20
3.83814591522608
 30
0.0
 10
9.159467356005205
 20
3.853753026778431
 30
0.0
 10
9.24716983719785
 20
3.883039514586125
 30
0.0
  0
LINE
  5
199
330
1F
100
AcDbEntity
  8
0
  6
Continuous
 62
     4
370
    15
100
AcDbLine
 10
8.391958181813617
 20
4.763685339580654
 30
0.0
 11
8.391958181813619
 21
3.784484164042489
 31
0.0
  0
SPLINE
  5
19A
330
1F
100
AcDbEntity
  8
0
  6
Continuous
 62
     4
370
    15
100
AcDbSpline
210
0.0
220
0.0
230
1.0
 70
     8
 71
     3
 72
    10
 73
     6
 74
     0
 42
0.000000001
 43
0.00000001
 40
0.0
 40
0.0
 40
0.0
 40
0.0
 40
0.5
 40
0.5
 40
1.0
 40
1.0
 40
1.0
 40
1.0
 10
8.679683162871033
 20
3.456866486574941
 30
0.0
 10
8.590937034609443
 20
3.492076174184091
 30
0.0
 10
8.517795981462918
 20
3.542766184218125
 30
0.0
 10
8.418258673255586
 20
3.657932568736374
 30
0.0
 10
8.391958181813617
 20
3.722293840230366
 30
0.0
 10
8.391958181813617
 20
3.784484164042488
 30
0.0
  0
LINE
  5
19B
330
1F
100
AcDbEntity
  8
0
  6
Continuous
 62
     4
370
    15
100
AcDbLine
 10
8.391958181813619
 20
-0.0549608527868357
 30
0.0
 11
8.391958181813619
 21
-4.395667096582519
 31
0.0
  0
LINE
  5
19C
330
1F
100
AcDbEntity
  8
0
  6
Continuous
 62
     1
370
    15
100
AcDbLine
 10
32.13715701540224
 20
3.084922970972407
 30
0.0
 11
32.13715701540224
 21
4.542686254234417
 31
0.0
  0
SPLINE
  5
19D
330
1F
100
AcDbEntity
  8
0
  6
Continuous
 62
     1
370
    15
100
AcDbSpline
210
0.0
220
0.0
230
1.0
 70
     8
 71
     3
 72
    12
 73
     8
 74
     0
 42
0.000000001
 43
0.00000001
 40
0.0
 40
0.0
 40
0.0
 40
0.0
 40
0.2499999999999993
 40
0.2499999999999993
 40
0.4999999999999986
 40
0.4999999999999986
 40
1.0
 40
1.0
 40
1.0
 40
1.0
 10
32.13715701540224
 20
3.084922970972404
 30
0.0
 10
32.05868794261984
 20
2.905710064544701
 30
0.0
 10
31.96618329567047
 20
2.739674961304557
 30
0.0
 10
31.75159704534972
 20
2.435374143235461
 30
0.0
 10
31.6279279188627
 20
2.296211847585583
 30
0.0
 10
31.22922946085786
 20
1.941412001189453
 30
0.0
 10
30.91782240629139
 20
1.780213826037147
 30
0.0
 10
30.59559553391418
 20
1.695524310271909
 30
0.0
  0
SPLINE
  5
19E
330
1F
100
AcDbEntity
  8
0
  6
Continuous
 62
     1
370
    15
100
AcDbSpline
210
0.0
220
0.0
230
1.0
 70
     8
 71
     3
 72
     8
 73
     4
 74
     0
 42
0.000000001
 43
0.00000001
 40
0.0
 40
0.0
 40
0.0
 40
0.0
 40
1.0
 40
1.0
 40
1.0
 40
1.0
 10
32.13715701540224
 20
0.9198735527272852
 30
0.0
 10
31.61008541575842
 20
1.206486247773044
 30
0.0
 10
31.09670024968176
 20
1.464041493388961
 30
0.0
 10
30.59559553391371
 20
1.695524310269695
 30
0.0
  0
LINE
  5
19F
330
1F
100
AcDbEntity
  8
0
  6
Continuous
 62
     1
370
    15
100
AcDbLine
 10
32.13715701540224
 20
0.31745372592162
 30
0.0
 11
32.13715701540224
 21
0.9198735527272843
 31
0.0
  0
SPLINE
  5
1A0
330
1F
100
AcDbEntity
  8
0
  6
Continuous
 62
     1
370
    15
100
AcDbSpline
210
0.0
220
0.0
230
1.0
 70
     8
 71
     3
 72
    10
 73
     6
 74
     0
 42
0.000000001
 43
0.00000001
 40
0.0
 40
0.0
 40
0.0
 40
0.0
 40
0.5
 40
0.5
 40
1.0
 40
1.0
 40
1.0
 40
1.0
 10
28.21142326817355
 20
2.400829683693514
 30
0.0
 10
28.29057626616196
 20
2.338458713048951
 30
0.0
 10
28.38528454802175
 20
2.283800052645008
 30
0.0
 10
28.57114716000631
 20
2.194574262229388
 30
0.0
 10
28.66024690083628
 20
2.160795157172167
 30
0.0
 10
28.73475474386259
 20
2.141886306855181
 30
0.0
  0
SPLINE
  5
1A1
330
1F
100
AcDbEntity
  8
0
  6
Continuous
 62
     1
370
    15
100
AcDbSpline
210
0.0
220
0.0
230
1.0
 70
     8
 71
     3
 72
    10
 73
     6
 74
     0
 42
0.000000001
 43
0.00000001
 40
0.0
 40
0.0
 40
0.0
 40
0.0
 40
0.5
 40
0.5
 40
1.0
 40
1.0
 40
1.0
 40
1.0
 10
27.17404875690025
 20
2.880146103170164
 30
0.0
 10
27.25359352920922
 20
2.814189667089427
 30
0.0
 10
27.34842064118319
 20
2.760399669680541
 30
0.0
 10
27.53414623483532
 20
2.67969156664727
 30
0.0
 10
27.62301096379423
 20
2.653304399322763
 30
0.0
 10
27.69701665308881
 20
2.644453439365203
 30
0.0
  0
SPLINE
  5
1A2
330
1F
100
AcDbEntity
  8
0
  6
Continuous
 62
     1
370
    15
100
AcDbSpline
210
0.0
220
0.0
230
1.0
 70
     8
 71
     3
 72
    10
 73
     6
 74
     0
 42
0.000000001
 43
0.00000001
 40
0.0
 40
0.0
 40
0.0
 40
0.0
 40
0.5
 40
0.5
 40
1.0
 40
1.0
 40
1.0
 40
1.0
 10
26.13184349353783
 20
3.319277539861373
 30
0.0
 10
26.2108520645027
 20
3.250166563294234
 30
0.0
 10
26.30545847565484
 20
3.19716635663432
 30
0.0
 10
26.49109387787704
 20
3.124119411976187
 30
0.0
 10
26.57995304173014
 20
3.104453992693237
 30
0.0
 10
26.65425775154614
 20
3.104545326325381
 30
0.0
  0
SPLINE
  5
1A3
330
1F
100
AcDbEntity
  8
0
  6
Continuous
 62
     1
370
    15
100
AcDbSpline
210
0.0
220
0.0
230
1.0
 70
     8
 71
     3
 72
     8
 73
     4
 74
     0
 42
0.000000001
 43
0.00000001
 40
0.0
 40
0.0
 40
0.0
 40
0.0
 40
1.0
 40
1.0
 40
1.0
 40
1.0
 10
25.87584247748574
 20
3.476095159270451
 30
0.0
 10
25.96509445801476
 20
3.440459514472
 30
0.0
 10
26.05552827511709
 20
3.386032566658858
 30
0.0
 10
26.13184349353779
 20
3.319277539861411
 30
0.0
  0
SPLINE
  5
1A4
330
1F
100
AcDbEntity
  8
0
  6
Continuous
 62
     1
370
    15
100
AcDbSpline
210
0.0
220
0.0
230
1.0
 70
     8
 71
     3
 72
     8
 73
     4
 74
     0
 42
0.000000001
 43
0.00000001
 40
0.0
 40
0.0
 40
0.0
 40
0.0
 40
1.0
 40
1.0
 40
1.0
 40
1.0
 10
25.61799877799444
 20
3.515563945369812
 30
0.0
 10
25.69255085535203
 20
3.526054565852135
 30
0.0
 10
25.78290012338169
 20
3.51158741213144
 30
0.0
 10
25.8758424774832
 20
3.476095159270818
 30
0.0
  0
SPLINE
  5
1A5
330
1F
100
AcDbEntity
  8
0
  6
Continuous
 62
     1
370
    15
100
AcDbSpline
210
0.0
220
0.0
230
1.0
 70
     8
 71
     3
 72
    10
 73
     6
 74
     0
 42
0.000000001
 43
0.00000001
 40
0.0
 40
0.0
 40
0.0
 40
0.0
 40
0.5
 40
0.5
 40
1.0
 40
1.0
 40
1.0
 40
1.0
 10
25.09506593590051
 20
3.699830667966305
 30
0.0
 10
25.17460805610791
 20
3.629288871772922
 30
0.0
 10
25.26941375959442
 20
3.578807365388646
 30
0.0
 10
25.45511367126228
 20
3.516629056158763
 30
0.0
 10
25.54400114738546
 20
3.505151344047033
 30
0.0
 10
25.61799877799445
 20
3.515563945369819
 30
0.0
  0
SPLINE
  5
1A6
330
1F
100
AcDbEntity
  8
0
  6
Continuous
 62
     1
370
    15
100
AcDbSpline
210
0.0
220
0.0
230
1.0
 70
     8
 71
     3
 72
    10
 73
     6
 74
     0
 42
0.000000001
 43
0.00000001
 40
0.0
 40
0.0
 40
0.0
 40
0.0
 40
0.5
 40
0.5
 40
1.0
 40
1.0
 40
1.0
 40
1.0
 10
24.57478448219674
 20
3.870530316240423
 30
0.0
 10
24.64942315445239
 20
3.889661751712948
 30
0.0
 10
24.7384731330507
 20
3.882440736025046
 30
0.0
 10
24.92084046538676
 20
3.823178143482048
 30
0.0
 10
25.01528697300362
 20
3.770582507702527
 30
0.0
 10
25.09506593590051
 20
3.699830667966303
 30
0.0
  0
SPLINE
  5
1A7
330
1F
100
AcDbEntity
  8
0
  6
Continuous
 62
     1
370
    15
100
AcDbSpline
210
0.0
220
0.0
230
1.0
 70
     8
 71
     3
 72
    10
 73
     6
 74
     0
 42
0.000000001
 43
0.00000001
 40
0.0
 40
0.0
 40
0.0
 40
0.0
 40
0.5000000000000002
 40
0.5000000000000002
 40
1.0
 40
1.0
 40
1.0
 40
1.0
 10
24.05152370236811
 20
4.028038409521299
 30
0.0
 10
24.13065820584249
 20
3.95637291013134
 30
0.0
 10
24.22539912005858
 20
3.90823173952846
 30
0.0
 10
24.41131087228165
 20
3.855732587873472
 30
0.0
 10
24.5003503628137
 20
3.851451311899975
 30
0.0
 10
24.57478448219674
 20
3.870530316240424
 30
0.0
  0
SPLINE
  5
1A8
330
1F
100
AcDbEntity
  8
0
  6
Continuous
 62
     1
370
    15
100
AcDbSpline
210
0.0
220
0.0
230
1.0
 70
     8
 71
     3
 72
     8
 73
     4
 74
     0
 42
0.000000001
 43
0.00000001
 40
0.0
 40
0.0
 40
0.0
 40
0.0
 40
1.0
 40
1.0
 40
1.0
 40
1.0
 10
23.79517789115418
 20
4.171481434844359
 30
0.0
 10
23.88453098803752
 20
4.14608512607384
 30
0.0
 10
23.97508545322755
 20
4.09726213693023
 30
0.0
 10
24.05152370236808
 20
4.028038409521325
 30
0.0
  0
SPLINE
  5
1A9
330
1F
100
AcDbEntity
  8
0
  6
Continuous
 62
     1
370
    15
100
AcDbSpline
210
0.0
220
0.0
230
1.0
 70
     8
 71
     3
 72
     8
 73
     4
 74
     0
 42
0.000000001
 43
0.00000001
 40
0.0
 40
0.0
 40
0.0
 40
0.0
 40
1.0
 40
1.0
 40
1.0
 40
1.0
 10
23.53699859638731
 20
4.165216694607754
 30
0.0
 10
23.61166061908296
 20
4.194415438054568
 30
0.0
 10
23.70212039468524
 20
4.195878530953179
 30
0.0
 10
23.79517789115165
 20
4.171481434844621
 30
0.0
  0
SPLINE
  5
1AA
330
1F
100
AcDbEntity
  8
0
  6
Continuous
 62
     1
370
    15
100
AcDbSpline
210
0.0
220
0.0
230
1.0
 70
     8
 71
     3
 72
    10
 73
     6
 74
     0
 42
0.000000001
 43
0.00000001
 40
0.0
 40
0.0
 40
0.0
 40
0.0
 40
0.5
 40
0.5
 40
1.0
 40
1.0
 40
1.0
 40
1.0
 10
23.01367047157151
 20
4.286472170000478
 30
0.0
 10
23.09327305907926
 20
4.215770725854656
 30
0.0
 10
23.18813513976101
 20
4.171801649957123
 30
0.0
 10
23.37394488068009
 20
4.132088959739639
 30
0.0
 10
23.4629068773314
 20
4.136240984894308
 30
0.0
 10
23.53699859638733
 20
4.165216694607753
 30
0.0
  0
SPLINE
  5
1AB
330
1F
100
AcDbEntity
  8
0
  6
Continuous
 62
     1
370
    15
100
AcDbSpline
210
0.0
220
0.0
230
1.0
 70
     8
 71
     3
 72
    10
 73
     6
 74
     0
 42
0.000000001
 43
0.00000001
 40
0.0
 40
0.0
 40
0.0
 40
0.0
 40
0.5
 40
0.5
 40
1.0
 40
1.0
 40
1.0
 40
1.0
 10
22.49336617430374
 20
4.392001963030986
 30
0.0
 10
22.56802413411596
 20
4.429053311011241
 30
0.0
 10
22.65716210768121
 20
4.437673401871053
 30
0.0
 10
22.83955656869774
 20
4.402013309378476
 30
0.0
 10
22.9339113728662
 20
4.357312624297085
 30
0.0
 10
23.01367047157154
 20
4.286472170000458
 30
0.0
  0
SPLINE
  5
1AC
330
1F
100
AcDbEntity
  8
0
  6
Continuous
 62
     1
370
    15
100
AcDbSpline
210
0.0
220
0.0
230
1.0
 70
     8
 71
     3
 72
    10
 73
     6
 74
     0
 42
0.000000001
 43
0.00000001
 40
0.0
 40
0.0
 40
0.0
 40
0.0
 40
0.5
 40
0.5
 40
1.0
 40
1.0
 40
1.0
 40
1.0
 10
21.97044695651123
 20
4.482187902362156
 30
0.0
 10
22.04949852468725
 20
4.412562380800992
 30
0.0
 10
22.1441687953783
 20
4.372313262874927
 30
0.0
 10
22.32998257762284
 20
4.343706755708532
 30
0.0
 10
22.41897583456531
 20
4.355083429883944
 30
0.0
 10
22.49336617430383
 20
4.392001963031035
 30
0.0
  0
SPLINE
  5
1AD
330
1F
100
AcDbEntity
  8
0
  6
Continuous
 62
     1
370
    15
100
AcDbSpline
210
0.0
220
0.0
230
1.0
 70
     8
 71
     3
 72
     8
 73
     4
 74
     0
 42
0.000000001
 43
0.00000001
 40
0.0
 40
0.0
 40
0.0
 40
0.0
 40
1.0
 40
1.0
 40
1.0
 40
1.0
 10
21.71435055342577
 20
4.603084526816401
 30
0.0
 10
21.80361685715472
 20
4.589568906838949
 30
0.0
 10
21.89408844525915
 20
4.549441484982021
 30
0.0
 10
21.9704469565112
 20
4.482187902362147
 30
0.0
  0
SPLINE
  5
1AE
330
1F
100
AcDbEntity
  8
0
  6
Continuous
 62
     1
370
    15
100
AcDbSpline
210
0.0
220
0.0
230
1.0
 70
     8
 71
     3
 72
     8
 73
     4
 74
     0
 42
0.000000001
 43
0.00000001
 40
0.0
 40
0.0
 40
0.0
 40
0.0
 40
1.0
 40
1.0
 40
1.0
 40
1.0
 10
21.45655039533574
 20
4.551328201071936
 30
0.0
 10
21.53106908452047
 20
4.597432207977919
 30
0.0
 10
21.62140282277154
 20
4.614799784288675
 30
0.0
 10
21.71435055342322
 20
4.603084526816533
 30
0.0
  0
SPLINE
  5
1AF
330
1F
100
AcDbEntity
  8
0
  6
Continuous
 62
     1
370
    15
100
AcDbSpline
210
0.0
220
0.0
230
1.0
 70
     8
 71
     3
 72
    10
 73
     6
 74
     0
 42
0.000000001
 43
0.00000001
 40
0.0
 40
0.0
 40
0.0
 40
0.0
 40
0.5
 40
0.5
 40
1.0
 40
1.0
 40
1.0
 40
1.0
 10
20.93408573073353
 20
4.601536752466044
 30
0.0
 10
21.01357133002101
 20
4.535274920342603
 30
0.0
 10
21.10825729183955
 20
4.500640283232937
 30
0.0
 10
21.29378508214814
 20
4.485990933043559
 30
0.0
 10
21.38260007268535
 20
4.50557583715527
 30
0.0
 10
21.45655039533574
 20
4.551328201071943
 30
0.0
  0
SPLINE
  5
1B0
330
1F
100
AcDbEntity
  8
0
  6
Continuous
 62
     1
370
    15
100
AcDbSpline
210
0.0
220
0.0
230
1.0
 70
     8
 71
     3
 72
    10
 73
     6
 74
     0
 42
0.000000001
 43
0.00000001
 40
0.0
 40
0.0
 40
0.0
 40
0.0
 40
0.5
 40
0.5
 40
1.0
 40
1.0
 40
1.0
 40
1.0
 10
20.41434884243372
 20
4.635198159569102
 30
0.0
 10
20.48890579799818
 20
4.687701986808356
 30
0.0
 10
20.57794305012976
 20
4.711555045331449
 30
0.0
 10
20.76017828713397
 20
4.701817997024905
 30
0.0
 10
20.85447301356224
 20
4.667904554273932
 30
0.0
 10
20.93408573073353
 20
4.601536752466021
 30
0.0
  0
SPLINE
  5
1B1
330
1F
100
AcDbEntity
  8
0
  6
Continuous
 62
     1
370
    15
100
AcDbSpline
210
0.0
220
0.0
230
1.0
 70
     8
 71
     3
 72
    10
 73
     6
 74
     0
 42
0.000000001
 43
0.00000001
 40
0.0
 40
0.0
 40
0.0
 40
0.0
 40
0.3385246492874533
 40
0.7305136832465737
 40
1.0
 40
1.0
 40
1.0
 40
1.0
 10
20.02531822924067
 20
4.580883231912303
 30
0.0
 10
20.07161872451601
 20
4.570354503615996
 30
0.0
 10
20.17153211460715
 20
4.547634208051619
 30
0.0
 10
20.30761870717978
 20
4.572500593290782
 30
0.0
 10
20.38345357355065
 20
4.617049038293508
 30
0.0
 10
20.41434884243371
 20
4.635198159569072
 30
0.0
  0
SPLINE
  5
1B2
330
1F
100
AcDbEntity
  8
0
  6
Continuous
 62
     1
370
    15
100
AcDbSpline
210
0.0
220
0.0
230
1.0
 70
     8
 71
     3
 72
     8
 73
     4
 74
     0
 42
0.000000001
 43
0.00000001
 40
0.0
 40
0.0
 40
0.0
 40
0.0
 40
1.0
 40
1.0
 40
1.0
 40
1.0
 10
19.63521382606961
 20
4.743536983140289
 30
0.0
 10
19.72451832220995
 20
4.742736034969977
 30
0.0
 10
19.81504922920943
 20
4.713846816621136
 30
0.0
 10
19.89146854908944
 20
4.652737067296655
 30
0.0
  0
SPLINE
  5
1B3
330
1F
100
AcDbEntity
  8
0
  6
Continuous
 62
     1
370
    15
100
AcDbSpline
210
0.0
220
0.0
230
1.0
 70
     8
 71
     3
 72
    11
 73
     7
 74
     0
 42
0.000000001
 43
0.00000001
 40
0.0
 40
0.0
 40
0.0
 40
0.0
 40
0.2726658090815668
 40
0.5472867195159508
 40
0.8199302992560901
 40
1.0
 40
1.0
 40
1.0
 40
1.0
 10
19.37708314674092
 20
4.64961394004684
 30
0.0
 10
19.387664072798
 20
4.657677005185465
 30
0.0
 10
19.40890179354753
 20
4.673860950227294
 30
0.0
 10
19.44302793283759
 20
4.693833387069557
 30
0.0
 10
19.47431893836837
 20
4.709231326468499
 30
0.0
 10
19.49462751588912
 20
4.716354601489302
 30
0.0
 10
19.5027053868824
 20
4.719187931229356
 30
0.0
  0
SPLINE
  5
1B4
330
1F
100
AcDbEntity
  8
0
  6
Continuous
 62
     1
370
    15
100
AcDbSpline
210
0.0
220
0.0
230
1.0
 70
     8
 71
     3
 72
     9
 73
     5
 74
     0
 42
0.000000001
 43
0.00000001
 40
0.0
 40
0.0
 40
0.0
 40
0.0
 40
0.3962173218710288
 40
1.0
 40
1.0
 40
1.0
 40
1.0
 10
19.2149322731717
 20
4.57372026172829
 30
0.0
 10
19.23839213662536
 20
4.578417363565431
 30
0.0
 10
19.29760172227116
 20
4.590272225980227
 30
0.0
 10
19.34716044712439
 20
4.627273320253082
 30
0.0
 10
19.37708314674094
 20
4.649613940046851
 30
0.0
  0
SPLINE
  5
1B5
330
1F
100
AcDbEntity
  8
0
  6
Continuous
 62
     1
370
    15
100
AcDbSpline
210
0.0
220
0.0
230
1.0
 70
     8
 71
     3
 72
    10
 73
     6
 74
     0
 42
0.000000001
 43
0.00000001
 40
0.0
 40
0.0
 40
0.0
 40
0.0
 40
0.3453227721660797
 40
0.6891230213040136
 40
0.9999999999999999
 40
0.9999999999999999
 40
0.9999999999999999
 40
0.9999999999999999
 10
26.17872693130886
 20
3.685020449134625
 30
0.0
 10
26.13546064004507
 20
3.652015743922508
 30
0.0
 10
26.04911881795988
 20
3.586151850758569
 30
0.0
 10
25.90674258606855
 20
3.525056311544623
 30
0.0
 10
25.82134737487288
 20
3.511124281748124
 30
0.0
 10
25.78079700268497
 20
3.504508582979177
 30
0.0
  0
SPLINE
  5
1B6
330
1F
100
AcDbEntity
  8
0
  6
Continuous
 62
     1
370
    15
100
AcDbSpline
210
0.0
220
0.0
230
1.0
 70
     8
 71
     3
 72
    10
 73
     6
 74
     0
 42
0.000000001
 43
0.00000001
 40
0.0
 40
0.0
 40
0.0
 40
0.0
 40
0.5
 40
0.5
 40
1.0
 40
1.0
 40
1.0
 40
1.0
 10
26.69896856378682
 20
3.856925325412247
 30
0.0
 10
26.62435629701303
 20
3.875670150333629
 30
0.0
 10
26.53532026370524
 20
3.868118323878966
 30
0.0
 10
26.35294877799738
 20
3.80842117804498
 30
0.0
 10
26.2585047387808
 20
3.755702950420509
 30
0.0
 10
26.17872693130887
 20
3.685020449134621
 30
0.0
  0
SPLINE
  5
1B7
330
1F
100
AcDbEntity
  8
0
  6
Continuous
 62
     1
370
    15
100
AcDbSpline
210
0.0
220
0.0
230
1.0
 70
     8
 71
     3
 72
    10
 73
     6
 74
     0
 42
0.000000001
 43
0.00000001
 40
0.0
 40
0.0
 40
0.0
 40
0.0
 40
0.5
 40
0.5
 40
1.0
 40
1.0
 40
1.0
 40
1.0
 10
27.22183259192922
 20
4.015676678076886
 30
0.0
 10
27.14276970215831
 20
3.944035814169092
 30
0.0
 10
27.048091871744
 20
3.895765365963075
 30
0.0
 10
26.86229901233708
 20
3.842826832462219
 30
0.0
 10
26.77333852517303
 20
3.838241374825118
 30
0.0
 10
26.69896856378682
 20
3.856925325412241
 30
0.0
  0
SPLINE
  5
1B8
330
1F
100
AcDbEntity
  8
0
  6
Continuous
 62
     1
370
    15
100
AcDbSpline
210
0.0
220
0.0
230
1.0
 70
     8
 71
     3
 72
     8
 73
     4
 74
     0
 42
0.000000001
 43
0.00000001
 40
0.0
 40
0.0
 40
0.0
 40
0.0
 40
1.0
 40
1.0
 40
1.0
 40
1.0
 10
27.47788046892185
 20
4.15942203049504
 30
0.0
 10
27.38861920166157
 20
4.133815109844573
 30
0.0
 10
27.29816904144485
 20
4.084847046207876
 30
0.0
 10
27.22183259192922
 20
4.015676678076888
 30
0.0
  0
SPLINE
  5
1B9
330
1F
100
AcDbEntity
  8
0
  6
Continuous
 62
     1
370
    15
100
AcDbSpline
210
0.0
220
0.0
230
1.0
 70
     8
 71
     3
 72
     8
 73
     4
 74
     0
 42
0.000000001
 43
0.00000001
 40
0.0
 40
0.0
 40
0.0
 40
0.0
 40
1.0
 40
1.0
 40
1.0
 40
1.0
 10
27.73560441085904
 20
4.154009347698955
 30
0.0
 10
27.66110924442575
 20
4.1828673303628
 30
0.0
 10
27.57079440849347
 20
4.184032867357265
 30
0.0
 10
27.47788046892396
 20
4.159422030495612
 30
0.0
  0
SPLINE
  5
1BA
330
1F
100
AcDbEntity
  8
0
  6
Continuous
 62
     1
370
    15
100
AcDbSpline
210
0.0
220
0.0
230
1.0
 70
     8
 71
     3
 72
    10
 73
     6
 74
     0
 42
0.000000001
 43
0.00000001
 40
0.0
 40
0.0
 40
0.0
 40
0.0
 40
0.5
 40
0.5
 40
1.0
 40
1.0
 40
1.0
 40
1.0
 10
28.25805073426792
 20
4.276475666836084
 30
0.0
 10
28.17859283842342
 20
4.20581126269443
 30
0.0
 10
28.08388084843966
 20
4.1616793325167
 30
0.0
 10
27.89834352012576
 20
4.121500570978915
 30
0.0
 10
27.80952907827837
 20
4.12537236528842
 30
0.0
 10
27.73560441085908
 20
4.154009347698929
 30
0.0
  0
SPLINE
  5
1BB
330
1F
100
AcDbEntity
  8
0
  6
Continuous
 62
     1
370
    15
100
AcDbSpline
210
0.0
220
0.0
230
1.0
 70
     8
 71
     3
 72
    10
 73
     6
 74
     0
 42
0.000000001
 43
0.00000001
 40
0.0
 40
0.0
 40
0.0
 40
0.0
 40
0.5
 40
0.5
 40
1.0
 40
1.0
 40
1.0
 40
1.0
 10
28.77794030503536
 20
4.383452142442062
 30
0.0
 10
28.70334662800895
 20
4.420116829316659
 30
0.0
 10
28.61428697979838
 20
4.428413069117287
 30
0.0
 10
28.43204343533388
 20
4.392238181385542
 30
0.0
 10
28.3377392394268
 20
4.347345159089079
 30
0.0
 10
28.25805073426793
 20
4.276475666836087
 30
0.0
  0
SPLINE
  5
1BC
330
1F
100
AcDbEntity
  8
0
  6
Continuous
 62
     1
370
    15
100
AcDbSpline
210
0.0
220
0.0
230
1.0
 70
     8
 71
     3
 72
    10
 73
     6
 74
     0
 42
0.000000001
 43
0.00000001
 40
0.0
 40
0.0
 40
0.0
 40
0.0
 40
0.5
 40
0.5
 40
1.0
 40
1.0
 40
1.0
 40
1.0
 10
29.30091929162809
 20
4.475212336528456
 30
0.0
 10
29.22184538989454
 20
4.405500465592469
 30
0.0
 10
29.12716477114845
 20
4.365046198783151
 30
0.0
 10
28.94133814349374
 20
4.335866629835921
 30
0.0
 10
28.8523271466547
 20
4.346889120423481
 30
0.0
 10
28.77794030503536
 20
4.383452142442058
 30
0.0
  0
SPLINE
  5
1BD
330
1F
100
AcDbEntity
  8
0
  6
Continuous
 62
     1
370
    15
100
AcDbSpline
210
0.0
220
0.0
230
1.0
 70
     8
 71
     3
 72
     8
 73
     4
 74
     0
 42
0.000000001
 43
0.00000001
 40
0.0
 40
0.0
 40
0.0
 40
0.0
 40
1.0
 40
1.0
 40
1.0
 40
1.0
 10
29.55719341847272
 20
4.596711759451066
 30
0.0
 10
29.46786928292662
 20
4.58291939034388
 30
0.0
 10
29.37733526204334
 20
4.542580964485957
 30
0.0
 10
29.30091929162809
 20
4.475212336528451
 30
0.0
  0
SPLINE
  5
1BE
330
1F
100
AcDbEntity
  8
0
  6
Continuous
 62
     1
370
    15
100
AcDbSpline
210
0.0
220
0.0
230
1.0
 70
     8
 71
     3
 72
     8
 73
     4
 74
     0
 42
0.000000001
 43
0.00000001
 40
0.0
 40
0.0
 40
0.0
 40
0.0
 40
1.0
 40
1.0
 40
1.0
 40
1.0
 10
29.8153304249119
 20
4.545955194700761
 30
0.0
 10
29.7406844408518
 20
4.591705551482348
 30
0.0
 10
29.65024425572943
 20
4.608726579948759
 30
0.0
 10
29.55719341847486
 20
4.596711759451351
 30
0.0
  0
SPLINE
  5
1BF
330
1F
100
AcDbEntity
  8
0
  6
Continuous
 62
     1
370
    15
100
AcDbSpline
210
0.0
220
0.0
230
1.0
 70
     8
 71
     3
 72
    10
 73
     6
 74
     0
 42
0.000000001
 43
0.00000001
 40
0.0
 40
0.0
 40
0.0
 40
0.0
 40
0.5
 40
0.5
 40
1.0
 40
1.0
 40
1.0
 40
1.0
 10
30.33870843542356
 20
4.597818873086181
 30
0.0
 10
30.2590771094472
 20
4.531372061152291
 30
0.0
 10
30.16423039323123
 20
4.496530111733721
 30
0.0
 10
29.97841687892891
 20
4.481309264571129
 30
0.0
 10
29.88943810152185
 20
4.500534765352097
 30
0.0
 10
29.81533042491194
 20
4.545955194700723
 30
0.0
  0
SPLINE
  5
1C0
330
1F
100
AcDbEntity
  8
0
  6
Continuous
 62
     1
370
    15
100
AcDbSpline
210
0.0
220
0.0
230
1.0
 70
     8
 71
     3
 72
    10
 73
     6
 74
     0
 42
0.000000001
 43
0.00000001
 40
0.0
 40
0.0
 40
0.0
 40
0.0
 40
0.5
 40
0.5
 40
1.0
 40
1.0
 40
1.0
 40
1.0
 10
30.85913460536639
 20
4.633088986381346
 30
0.0
 10
30.7844581939916
 20
4.685318376345874
 30
0.0
 10
30.69529957114834
 20
4.708839244906056
 30
0.0
 10
30.5128446974193
 20
4.698512820960949
 30
0.0
 10
30.41844772310605
 20
4.664355771566994
 30
0.0
 10
30.33870843542356
 20
4.597818873086178
 30
0.0
  0
SPLINE
  5
1C1
330
1F
100
AcDbEntity
  8
0
  6
Continuous
 62
     1
370
    15
100
AcDbSpline
210
0.0
220
0.0
230
1.0
 70
     8
 71
     3
 72
    10
 73
     6
 74
     0
 42
0.000000001
 43
0.00000001
 40
0.0
 40
0.0
 40
0.0
 40
0.0
 40
0.5
 40
0.5
 40
1.0
 40
1.0
 40
1.0
 40
1.0
 10
31.38233312000396
 20
4.652177658471489
 30
0.0
 10
31.303241349712
 20
4.588768109690114
 30
0.0
 10
31.20853497188722
 20
4.558684514558811
 30
0.0
 10
31.02263825022877
 20
4.555099532674278
 30
0.0
 10
30.9335803760528
 20
4.581020908700471
 30
0.0
 10
30.85913460536639
 20
4.633088986381338
 30
0.0
  0
SPLINE
  5
1C2
330
1F
100
AcDbEntity
  8
0
  6
Continuous
 62
     1
370
    15
100
AcDbSpline
210
0.0
220
0.0
230
1.0
 70
     8
 71
     3
 72
     8
 73
     4
 74
     0
 42
0.000000001
 43
0.00000001
 40
0.0
 40
0.0
 40
0.0
 40
0.0
 40
1.0
 40
1.0
 40
1.0
 40
1.0
 10
31.63860880736561
 20
4.743668300944254
 30
0.0
 10
31.54929577409528
 20
4.742599564580174
 30
0.0
 10
31.45876015269668
 20
4.713450830634076
 30
0.0
 10
31.38233312000398
 20
4.652177658471487
 30
0.0
  0
SPLINE
  5
1C3
330
1F
100
AcDbEntity
  8
0
  6
Continuous
 62
     1
370
    15
100
AcDbSpline
210
0.0
220
0.0
230
1.0
 70
     8
 71
     3
 72
     8
 73
     4
 74
     0
 42
0.000000001
 43
0.00000001
 40
0.0
 40
0.0
 40
0.0
 40
0.0
 40
1.0
 40
1.0
 40
1.0
 40
1.0
 10
31.89666587145018
 20
4.650573917191421
 30
0.0
 10
31.82205446249045
 20
4.710407465389721
 30
0.0
 10
31.73164230458074
 20
4.742268821520017
 30
0.0
 10
31.63860880736774
 20
4.743668300944232
 30
0.0
  0
SPLINE
  5
1C4
330
1F
100
AcDbEntity
  8
0
  6
Continuous
 62
     1
370
    15
100
AcDbSpline
210
0.0
220
0.0
230
1.0
 70
     8
 71
     3
 72
     8
 73
     4
 74
     0
 42
0.000000001
 43
0.00000001
 40
0.0
 40
0.0
 40
0.0
 40
0.0
 40
1.0
 40
1.0
 40
1.0
 40
1.0
 10
32.12574514648229
 20
4.554643998782261
 30
0.0
 10
32.04249254018885
 20
4.56457322234179
 30
0.0
 10
31.96365021338
 20
4.596856785893791
 30
0.0
 10
31.89666587145023
 20
4.650573917191389
 30
0.0
  0
SPLINE
  5
1C5
330
1F
100
AcDbEntity
  8
0
  6
Continuous
 62
     1
370
    15
100
AcDbSpline
210
0.0
220
0.0
230
1.0
 70
     8
 71
     3
 72
     8
 73
     4
 74
     0
 42
0.000000001
 43
0.00000001
 40
0.0
 40
0.0
 40
0.0
 40
0.0
 40
0.0000181721207099
 40
0.0000181721207099
 40
0.0000181721207099
 40
0.0000181721207099
 10
32.13715701540223
 20
4.542686254234453
 30
0.0
 10
32.13335397441772
 20
4.546673736202784
 30
0.0
 10
32.12955001532444
 20
4.550659649283985
 30
0.0
 10
32.12574514648227
 20
4.554643998782259
 30
0.0
  0
SPLINE
  5
1C6
330
1F
100
AcDbEntity
  8
0
  6
Continuous
 62
     1
370
    15
100
AcDbSpline
210
0.0
220
0.0
230
1.0
 70
     8
 71
     3
 72
    12
 73
     8
 74
     0
 42
0.000000001
 43
0.00000001
 40
0.0
 40
0.0
 40
0.0
 40
0.0
 40
0.25
 40
0.25
 40
0.5
 40
0.5
 40
1.0
 40
1.0
 40
1.0
 40
1.0
 10
16.12616259828641
 20
-3.146225043110492
 30
0.0
 10
16.10768378338383
 20
-2.95022145754228
 30
0.0
 10
16.08935107568642
 20
-2.739194637404678
 30
0.0
 10
16.05375245120441
 20
-2.29722482239067
 30
0.0
 10
16.03682643366895
 20
-2.067995117347184
 30
0.0
 10
15.98340096815854
 20
-1.342665846297993
 30
0.0
 10
15.94563909450398
 20
-0.8136295286127249
 30
0.0
 10
15.90893751918615
 20
-0.2835599712141896
 30
0.0
  0
SPLINE
  5
1C7
330
1F
100
AcDbEntity
  8
0
  6
Continuous
 62
     1
370
    15
100
AcDbSpline
210
0.0
220
0.0
230
1.0
 70
     8
 71
     3
 72
    12
 73
     8
 74
     0
 42
0.000000001
 43
0.00000001
 40
0.0
 40
0.0
 40
0.0
 40
0.0
 40
0.2499999999999998
 40
0.2499999999999998
 40
0.4999999999999999
 40
0.4999999999999999
 40
1.0
 40
1.0
 40
1.0
 40
1.0
 10
16.38250138993815
 20
-3.304631222547763
 30
0.0
 10
16.36414149494216
 20
-3.111611463299036
 30
0.0
 10
16.34585835522131
 20
-2.902786872857829
 30
0.0
 10
16.31021560269638
 20
-2.463291323539028
 30
0.0
 10
16.2933135476238
 20
-2.234809252164162
 30
0.0
 10
16.24093741071131
 20
-1.514323481304108
 30
0.0
 10
16.20364721665966
 20
-0.9849627115911033
 30
0.0
 10
16.16707305089082
 20
-0.4497094219621481
 30
0.0
  0
SPLINE
  5
1C8
330
1F
100
AcDbEntity
  8
0
  6
Continuous
 62
     1
370
    15
100
AcDbSpline
210
0.0
220
0.0
230
1.0
 70
     8
 71
     3
 72
    12
 73
     8
 74
     0
 42
0.000000001
 43
0.00000001
 40
0.0
 40
0.0
 40
0.0
 40
0.0
 40
0.2500000000000001
 40
0.2500000000000001
 40
0.5000000000000001
 40
0.5000000000000001
 40
1.0
 40
1.0
 40
1.0
 40
1.0
 10
16.64067933569842
 20
-3.353291461188729
 30
0.0
 10
16.62215388044817
 20
-3.16873389268555
 30
0.0
 10
16.60362459425266
 20
-2.967567557510248
 30
0.0
 10
16.56736088533464
 20
-2.541427383064056
 30
0.0
 10
16.54994000012115
 20
-2.317890896905247
 30
0.0
 10
16.49780534755075
 20
-1.618627846468082
 30
0.0
 10
16.46037958999947
 20
-1.10028633246337
 30
0.0
 10
16.423400768889
 20
-0.5720020306980405
 30
0.0
  0
SPLINE
  5
1C9
330
1F
100
AcDbEntity
  8
0
  6
Continuous
 62
     1
370
    15
100
AcDbSpline
210
0.0
220
0.0
230
1.0
 70
     8
 71
     3
 72
    12
 73
     8
 74
     0
 42
0.000000001
 43
0.00000001
 40
0.0
 40
0.0
 40
0.0
 40
0.0
 40
0.4999999999999999
 40
0.4999999999999999
 40
0.75
 40
0.75
 40
1.0
 40
1.0
 40
1.0
 40
1.0
 10
26.09065932522124
 20
0.6924945334111339
 30
0.0
 10
26.05641323641942
 20
1.213452409831051
 30
0.0
 10
26.01939834793855
 20
1.735011579872153
 30
0.0
 10
25.9642465754901
 20
2.450423113006886
 30
0.0
 10
25.945938666223
 20
2.677757533616046
 30
0.0
 10
25.91024800187799
 20
3.101145070599301
 30
0.0
 10
25.89332398517305
 20
3.29569209092144
 30
0.0
 10
25.8758424774832
 20
3.476095159270816
 30
0.0
  0
SPLINE
  5
1CA
330
1F
100
AcDbEntity
  8
0
  6
Continuous
 62
     1
370
    15
100
AcDbSpline
210
0.0
220
0.0
230
1.0
 70
     8
 71
     3
 72
    14
 73
    10
 74
     0
 42
0.000000001
 43
0.00000001
 40
0.0
 40
0.0
 40
0.0
 40
0.0
 40
0.2499999999999999
 40
0.2499999999999999
 40
0.4999999999999999
 40
0.4999999999999999
 40
0.75
 40
0.75
 40
1.0
 40
1.0
 40
1.0
 40
1.0
 10
26.34834254275665
 20
0.5226808037828634
 30
0.0
 10
26.33090695443863
 20
0.7823850964690797
 30
0.0
 10
26.31351199468498
 20
1.039477154614704
 30
0.0
 10
26.27721684837294
 20
1.54827775308803
 30
0.0
 10
26.25866294625071
 20
1.798238306774318
 30
0.0
 10
26.22154805816643
 20
2.277983722920029
 30
0.0
 10
26.20299107664485
 20
2.50771679231816
 30
0.0
 10
26.16668405385466
 20
2.937362209778056
 30
0.0
 10
26.14926952634066
 20
3.136108744173469
 30
0.0
 10
26.13184349353782
 20
3.31927753986138
 30
0.0
  0
SPLINE
  5
1CB
330
1F
100
AcDbEntity
  8
0
  6
Continuous
 62
     1
370
    15
100
AcDbSpline
210
0.0
220
0.0
230
1.0
 70
     8
 71
     3
 72
    12
 73
     8
 74
     0
 42
0.000000001
 43
0.00000001
 40
0.0
 40
0.0
 40
0.0
 40
0.0
 40
0.5000000000000001
 40
0.5000000000000001
 40
0.75
 40
0.75
 40
1.0
 40
1.0
 40
1.0
 40
1.0
 10
25.83471194954076
 20
0.8091948752548972
 30
0.0
 10
25.79974612754762
 20
1.32421118909701
 30
0.0
 10
25.76219759486293
 20
1.835860859756216
 30
0.0
 10
25.70672208497188
 20
2.530732541360488
 30
0.0
 10
25.68838369332891
 20
2.750314594076529
 30
0.0
 10
25.65278889026462
 20
3.156871515608796
 30
0.0
 10
25.63584457142939
 20
3.343051166421408
 30
0.0
 10
25.61799877799444
 20
3.515563945369822
 30
0.0
  0
SPLINE
  5
1CC
330
1F
100
AcDbEntity
  8
0
  6
Continuous
 62
     1
370
    15
100
AcDbSpline
210
0.0
220
0.0
230
1.0
 70
     8
 71
     3
 72
    12
 73
     8
 74
     0
 42
0.000000001
 43
0.00000001
 40
0.0
 40
0.0
 40
0.0
 40
0.0
 40
0.5
 40
0.5
 40
0.75
 40
0.75
 40
1.0
 40
1.0
 40
1.0
 40
1.0
 10
17.16402571515141
 20
-3.549415039381935
 30
0.0
 10
17.12708184903583
 20
-3.205836789612402
 30
0.0
 10
17.0895427878203
 20
-2.789048895910593
 30
0.0
 10
17.03706015734809
 20
-2.11155241676935
 30
0.0
 10
17.01984316650045
 20
-1.875922832558032
 30
0.0
 10
16.98370737136294
 20
-1.381275538990469
 30
0.0
 10
16.96520882478286
 20
-1.124055185333807
 30
0.0
 10
16.94667864850987
 20
-0.862387462672906
 30
0.0
  0
SPLINE
  5
1CD
330
1F
100
AcDbEntity
  8
0
  6
Continuous
 62
     1
370
    15
100
AcDbSpline
210
0.0
220
0.0
230
1.0
 70
     8
 71
     3
 72
    12
 73
     8
 74
     0
 42
0.000000001
 43
0.00000001
 40
0.0
 40
0.0
 40
0.0
 40
0.0
 40
0.4999999999999998
 40
0.4999999999999998
 40
0.7499999999999999
 40
0.7499999999999999
 40
1.0
 40
1.0
 40
1.0
 40
1.0
 10
17.68438860719399
 20
-3.732089686221499
 30
0.0
 10
17.64777960173953
 20
-3.415792830800984
 30
0.0
 10
17.60995551221718
 20
-3.021246211257006
 30
0.0
 10
17.5562288939347
 20
-2.364511644317015
 30
0.0
 10
17.53926081810707
 20
-2.13721855216489
 30
0.0
 10
17.50384888152846
 20
-1.658273894912397
 30
0.0
 10
17.48557624902829
 20
-1.407134056098338
 30
0.0
 10
17.46711995545435
 20
-1.149428457499574
 30
0.0
  0
SPLINE
  5
1CE
330
1F
100
AcDbEntity
  8
0
  6
Continuous
 62
     1
370
    15
100
AcDbSpline
210
0.0
220
0.0
230
1.0
 70
     8
 71
     3
 72
    12
 73
     8
 74
     0
 42
0.000000001
 43
0.00000001
 40
0.0
 40
0.0
 40
0.0
 40
0.0
 40
0.5000000000000002
 40
0.5000000000000002
 40
0.7500000000000001
 40
0.7500000000000001
 40
1.0
 40
1.0
 40
1.0
 40
1.0
 10
24.79202216563476
 20
1.379047308774134
 30
0.0
 10
24.75559163976147
 20
1.88495690710335
 30
0.0
 10
24.71771698809764
 20
2.369605889522119
 30
0.0
 10
24.66359096484958
 20
3.003147957028386
 30
0.0
 10
24.64644139196483
 20
3.197524874432072
 30
0.0
 10
24.61134842115747
 20
3.557299000500462
 30
0.0
 10
24.59318653992733
 20
3.723129006733422
 30
0.0
 10
24.57478448219673
 20
3.870530316240429
 30
0.0
  0
SPLINE
  5
1CF
330
1F
100
AcDbEntity
  8
0
  6
Continuous
 62
     1
370
    15
100
AcDbSpline
210
0.0
220
0.0
230
1.0
 70
     8
 71
     3
 72
    12
 73
     8
 74
     0
 42
0.000000001
 43
0.00000001
 40
0.0
 40
0.0
 40
0.0
 40
0.0
 40
0.4999999999999999
 40
0.4999999999999999
 40
0.7499999999999999
 40
0.7499999999999999
 40
1.0
 40
1.0
 40
1.0
 40
1.0
 10
25.31209030588143
 20
1.096257220501152
 30
0.0
 10
25.27628878048824
 20
1.608163305322866
 30
0.0
 10
25.23845617300451
 20
2.107757235770541
 30
0.0
 10
25.18349564755779
 20
2.773503132658552
 30
0.0
 10
25.16548009383827
 20
2.981620526369212
 30
0.0
 10
25.1307882752124
 20
3.362902408655023
 30
0.0
 10
25.11324363119234
 20
3.539386477442236
 30
0.0
 10
25.09506593590051
 20
3.699830667966301
 30
0.0
  0
SPLINE
  5
1D0
330
1F
100
AcDbEntity
  8
0
  6
Continuous
 62
     1
370
    15
100
AcDbSpline
210
0.0
220
0.0
230
1.0
 70
     8
 71
     3
 72
    10
 73
     6
 74
     0
 42
0.000000001
 43
0.00000001
 40
0.0
 40
0.0
 40
0.0
 40
0.0
 40
0.5
 40
0.5
 40
1.0
 40
1.0
 40
1.0
 40
1.0
 10
18.20739823087002
 20
-3.901781949414494
 30
0.0
 10
18.17134897162178
 20
-3.614379053347357
 30
0.0
 10
18.13348647392553
 20
-3.244703165286806
 30
0.0
 10
18.06059846166674
 20
-2.40254560191529
 30
0.0
 10
18.02689445202837
 20
-1.938297907391403
 30
0.0
 10
17.99036015269814
 20
-1.433781522453177
 30
0.0
  0
SPLINE
  5
1D1
330
1F
100
AcDbEntity
  8
0
  6
Continuous
 62
     1
370
    15
100
AcDbSpline
210
0.0
220
0.0
230
1.0
 70
     8
 71
     3
 72
    12
 73
     8
 74
     0
 42
0.000000001
 43
0.00000001
 40
0.0
 40
0.0
 40
0.0
 40
0.0
 40
0.5
 40
0.5
 40
0.75
 40
0.75
 40
1.0
 40
1.0
 40
1.0
 40
1.0
 10
18.46354341497163
 20
-4.048642288496787
 30
0.0
 10
18.42810170691699
 20
-3.771645525661208
 30
0.0
 10
18.39062283971597
 20
-3.41073288626925
 30
0.0
 10
18.33605533067601
 20
-2.786349486710396
 30
0.0
 10
18.31814815297557
 20
-2.564822386949747
 30
0.0
 10
18.28361572341688
 20
-2.105539783531504
 30
0.0
 10
18.2663758188994
 20
-1.865208952836163
 30
0.0
 10
18.24840102444217
 20
-1.613778379423724
 30
0.0
  0
SPLINE
  5
1D2
330
1F
100
AcDbEntity
  8
0
  6
Continuous
 62
     1
370
    15
100
AcDbSpline
210
0.0
220
0.0
230
1.0
 70
     8
 71
     3
 72
    12
 73
     8
 74
     0
 42
0.000000001
 43
0.00000001
 40
0.0
 40
0.0
 40
0.0
 40
0.0
 40
0.4999999999999998
 40
0.4999999999999998
 40
0.7499999999999999
 40
0.7499999999999999
 40
1.0
 40
1.0
 40
1.0
 40
1.0
 10
18.72140920665882
 20
-4.051672818277555
 30
0.0
 10
18.68609690457474
 20
-3.794047783011818
 30
0.0
 10
18.64841242965033
 20
-3.451205437853959
 30
0.0
 10
18.59310320283584
 20
-2.848493622214584
 30
0.0
 10
18.57487976585493
 20
-2.633312564861119
 30
0.0
 10
18.53961780780049
 20
-2.184806095619344
 30
0.0
 10
18.52256877391034
 20
-1.951679886853906
 30
0.0
 10
18.50458301094253
 20
-1.70618445185235
 30
0.0
  0
SPLINE
  5
1D3
330
1F
100
AcDbEntity
  8
0
  6
Continuous
 62
     1
370
    15
100
AcDbSpline
210
0.0
220
0.0
230
1.0
 70
     8
 71
     3
 72
    12
 73
     8
 74
     0
 42
0.000000001
 43
0.00000001
 40
0.0
 40
0.0
 40
0.0
 40
0.0
 40
0.5
 40
0.5
 40
0.75
 40
0.75
 40
1.0
 40
1.0
 40
1.0
 40
1.0
 10
24.26877927783463
 20
1.65945225315861
 30
0.0
 10
24.23194630993589
 20
2.156206265992769
 30
0.0
 10
24.19428716393105
 20
2.62284959767966
 30
0.0
 10
24.1413260931517
 20
3.221003431842627
 30
0.0
 10
24.12433056593029
 20
3.40382048957519
 30
0.0
 10
24.08845363410553
 20
3.741589623136339
 30
0.0
 10
24.07003299566362
 20
3.89466531585296
 30
0.0
 10
24.05152370236811
 20
4.028038409521304
 30
0.0
  0
SPLINE
  5
1D4
330
1F
100
AcDbEntity
  8
0
  6
Continuous
 62
     1
370
    15
100
AcDbSpline
210
0.0
220
0.0
230
1.0
 70
     8
 71
     3
 72
    12
 73
     8
 74
     0
 42
0.000000001
 43
0.00000001
 40
0.0
 40
0.0
 40
0.0
 40
0.0
 40
0.4999999999999998
 40
0.4999999999999998
 40
0.7499999999999999
 40
0.7499999999999999
 40
1.0
 40
1.0
 40
1.0
 40
1.0
 10
24.01062246686498
 20
1.841066749388975
 30
0.0
 10
23.97396103984972
 20
2.337024504937553
 30
0.0
 10
23.93681619829993
 20
2.798205318262916
 30
0.0
 10
23.88495021849069
 20
3.38435216619493
 30
0.0
 10
23.8677866814546
 20
3.564624301296902
 30
0.0
 10
23.83190216461572
 20
3.894801824319928
 30
0.0
 10
23.81355003969795
 20
4.043266873570827
 30
0.0
 10
23.79517789115163
 20
4.171481434844623
 30
0.0
  0
SPLINE
  5
1D5
330
1F
100
AcDbEntity
  8
0
  6
Continuous
 62
     1
370
    15
100
AcDbSpline
210
0.0
220
0.0
230
1.0
 70
     8
 71
     3
 72
    10
 73
     6
 74
     0
 42
0.000000001
 43
0.00000001
 40
0.0
 40
0.0
 40
0.0
 40
0.0
 40
0.5
 40
0.5
 40
1.0
 40
1.0
 40
1.0
 40
1.0
 10
23.75428309391143
 20
1.926748057157564
 30
0.0
 10
23.71725270020898
 20
2.411577390135909
 30
0.0
 10
23.68001325072132
 20
2.85793695207245
 30
0.0
 10
23.61125072808566
 20
3.605845665472849
 30
0.0
 10
23.57403012418078
 20
3.927652493792948
 30
0.0
 10
23.53699859638731
 20
4.16521669460775
 30
0.0
  0
SPLINE
  5
1D6
330
1F
100
AcDbEntity
  8
0
  6
Continuous
 62
     1
370
    15
100
AcDbSpline
210
0.0
220
0.0
230
1.0
 70
     8
 71
     3
 72
    12
 73
     8
 74
     0
 42
0.000000001
 43
0.00000001
 40
0.0
 40
0.0
 40
0.0
 40
0.0
 40
0.5000000000000001
 40
0.5000000000000001
 40
0.75
 40
0.75
 40
1.0
 40
1.0
 40
1.0
 40
1.0
 10
19.24394018364937
 20
-4.186525356157035
 30
0.0
 10
19.20943087413461
 20
-3.960111911343631
 30
0.0
 10
19.17228099955648
 20
-3.647116973026215
 30
0.0
 10
19.11661745891606
 20
-3.078056454459227
 30
0.0
 10
19.09812138579424
 20
-2.872339838823586
 30
0.0
 10
19.06204335641871
 20
-2.438631317726544
 30
0.0
 10
19.04492283557789
 20
-2.212792383294918
 30
0.0
 10
19.02731806529083
 20
-1.975552397601623
 30
0.0
  0
SPLINE
  5
1D7
330
1F
100
AcDbEntity
  8
0
  6
Continuous
 62
     1
370
    15
100
AcDbSpline
210
0.0
220
0.0
230
1.0
 70
     8
 71
     3
 72
    12
 73
     8
 74
     0
 42
0.000000001
 43
0.00000001
 40
0.0
 40
0.0
 40
0.0
 40
0.0
 40
0.2500000000000001
 40
0.2500000000000001
 40
0.5000000000000002
 40
0.5000000000000002
 40
1.0
 40
1.0
 40
1.0
 40
1.0
 10
19.76354935698429
 20
-4.305575325110518
 30
0.0
 10
19.74583060212028
 20
-4.206525856444143
 30
0.0
 10
19.72883917914981
 20
-4.088589425220367
 30
0.0
 10
19.69296838193347
 20
-3.810445742614609
 30
0.0
 10
19.67453753497488
 20
-3.650911132786289
 30
0.0
 10
19.6189407136837
 20
-3.119554237642066
 30
0.0
 10
19.58152677595879
 20
-2.694151963917167
 30
0.0
 10
19.54687491539805
 20
-2.237185801834326
 30
0.0
  0
SPLINE
  5
1D8
330
1F
100
AcDbEntity
  8
0
  6
Continuous
 62
     1
370
    15
100
AcDbSpline
210
0.0
220
0.0
230
1.0
 70
     8
 71
     3
 72
    12
 73
     8
 74
     0
 42
0.000000001
 43
0.00000001
 40
0.0
 40
0.0
 40
0.0
 40
0.0
 40
0.25
 40
0.25
 40
0.5
 40
0.5
 40
1.0
 40
1.0
 40
1.0
 40
1.0
 10
23.23099835549856
 20
2.189683187768361
 30
0.0
 10
23.21248323700812
 20
2.424594463186839
 30
0.0
 10
23.19405747756986
 20
2.648270808839153
 30
0.0
 10
23.15817234484661
 20
3.064212894065109
 30
0.0
 10
23.14117343651455
 20
3.25503473766386
 30
0.0
 10
23.08818729977564
 20
3.785847679470945
 30
0.0
 10
23.05051312099867
 20
4.08004176840604
 30
0.0
 10
23.01367047157152
 20
4.28647217000043
 30
0.0
  0
SPLINE
  5
1D9
330
1F
100
AcDbEntity
  8
0
  6
Continuous
 62
     1
370
    15
100
AcDbSpline
210
0.0
220
0.0
230
1.0
 70
     8
 71
     3
 72
    12
 73
     8
 74
     0
 42
0.000000001
 43
0.00000001
 40
0.0
 40
0.0
 40
0.0
 40
0.0
 40
0.2499999999999999
 40
0.2499999999999999
 40
0.4999999999999998
 40
0.4999999999999998
 40
1.0
 40
1.0
 40
1.0
 40
1.0
 10
22.71058271287721
 20
2.444629186621225
 30
0.0
 10
22.69218281869508
 20
2.670711558596852
 30
0.0
 10
22.67402342057338
 20
2.883735908172249
 30
0.0
 10
22.63893573828257
 20
3.275808511421068
 30
0.0
 10
22.62178635424127
 20
3.456006629069796
 30
0.0
 10
22.56766354770548
 20
3.953020237459038
 30
0.0
 10
22.52979250417764
 20
4.217568943278778
 30
0.0
 10
22.49336617430474
 20
4.392001963026209
 30
0.0
  0
SPLINE
  5
1DA
330
1F
100
AcDbEntity
  8
0
  6
Continuous
 62
     1
370
    15
100
AcDbSpline
210
0.0
220
0.0
230
1.0
 70
     8
 71
     3
 72
    12
 73
     8
 74
     0
 42
0.000000001
 43
0.00000001
 40
0.0
 40
0.0
 40
0.0
 40
0.0
 40
0.2499999999999999
 40
0.2499999999999999
 40
0.4999999999999999
 40
0.4999999999999999
 40
1.0
 40
1.0
 40
1.0
 40
1.0
 10
20.28632757603384
 20
-4.409882612512206
 30
0.0
 10
20.26825401651834
 20
-4.325843742700101
 30
0.0
 10
20.25103519181046
 20
-4.222032782698788
 30
0.0
 10
20.21602535892443
 20
-3.974710341277981
 30
0.0
 10
20.19789306480827
 20
-3.830014384634238
 30
0.0
 10
20.14273348597339
 20
-3.33936938771125
 30
0.0
 10
20.10497748890999
 20
-2.935728485003126
 30
0.0
 10
20.06944158189713
 20
-2.491933823224262
 30
0.0
  0
SPLINE
  5
1DB
330
1F
100
AcDbEntity
  8
0
  6
Continuous
 62
     1
370
    15
100
AcDbSpline
210
0.0
220
0.0
230
1.0
 70
     8
 71
     3
 72
    12
 73
     8
 74
     0
 42
0.000000001
 43
0.00000001
 40
0.0
 40
0.0
 40
0.0
 40
0.0
 40
0.2499999999999999
 40
0.2499999999999999
 40
0.5
 40
0.5
 40
1.0
 40
1.0
 40
1.0
 40
1.0
 10
20.54254487435021
 20
-4.536061350084674
 30
0.0
 10
20.52449406379861
 20
-4.45813688025078
 30
0.0
 10
20.50694956361868
 20
-4.35922870946035
 30
0.0
 10
20.4726866123725
 20
-4.124043034256323
 30
0.0
 10
20.45488136446717
 20
-3.985187786653305
 30
0.0
 10
20.40050047160665
 20
-3.510327502949777
 30
0.0
 10
20.3629809532638
 20
-3.114765418817716
 30
0.0
 10
20.32734429041246
 20
-2.674489540008013
 30
0.0
  0
SPLINE
  5
1DC
330
1F
100
AcDbEntity
  8
0
  6
Continuous
 62
     1
370
    15
100
AcDbSpline
210
0.0
220
0.0
230
1.0
 70
     8
 71
     3
 72
    12
 73
     8
 74
     0
 42
0.000000001
 43
0.00000001
 40
0.0
 40
0.0
 40
0.0
 40
0.0
 40
0.2499999999999999
 40
0.2499999999999999
 40
0.4999999999999999
 40
0.4999999999999999
 40
1.0
 40
1.0
 40
1.0
 40
1.0
 10
22.18740856666036
 20
2.69204793502751
 30
0.0
 10
22.16923788237606
 20
2.908022776037054
 30
0.0
 10
22.15170502748463
 20
3.108416760301308
 30
0.0
 10
22.11701725300414
 20
3.476928471507059
 30
0.0
 10
22.09900481936093
 20
3.647912230452897
 30
0.0
 10
22.04405644128825
 20
4.107411225467827
 30
0.0
 10
22.00623571736309
 20
4.340464374254
 30
0.0
 10
21.97044695651122
 20
4.48218790236213
 30
0.0
  0
SPLINE
  5
1DD
330
1F
100
AcDbEntity
  8
0
  6
Continuous
 62
     1
370
    15
100
AcDbSpline
210
0.0
220
0.0
230
1.0
 70
     8
 71
     3
 72
    12
 73
     8
 74
     0
 42
0.000000001
 43
0.00000001
 40
0.0
 40
0.0
 40
0.0
 40
0.0
 40
0.2499999999999999
 40
0.2499999999999999
 40
0.5
 40
0.5
 40
1.0
 40
1.0
 40
1.0
 40
1.0
 10
20.8006379831392
 20
-4.493447038250705
 30
0.0
 10
20.78230842212989
 20
-4.424871188210157
 30
0.0
 10
20.76427137647163
 20
-4.334565211380673
 30
0.0
 10
20.72951547872722
 20
-4.116535918431666
 30
0.0
 10
20.71206739640621
 20
-3.987539064317806
 30
0.0
 10
20.65762897125875
 20
-3.539168235089997
 30
0.0
 10
20.61975368870153
 20
-3.159413707648324
 30
0.0
 10
20.58353055670265
 20
-2.731375274352824
 30
0.0
  0
SPLINE
  5
1DE
330
1F
100
AcDbEntity
  8
0
  6
Continuous
 62
     1
370
    15
100
AcDbSpline
210
0.0
220
0.0
230
1.0
 70
     8
 71
     3
 72
    12
 73
     8
 74
     0
 42
0.000000001
 43
0.00000001
 40
0.0
 40
0.0
 40
0.0
 40
0.0
 40
0.2499999999999999
 40
0.2499999999999999
 40
0.4999999999999998
 40
0.4999999999999998
 40
1.0
 40
1.0
 40
1.0
 40
1.0
 10
21.92941392491645
 20
2.873767147546349
 30
0.0
 10
21.91155597094033
 20
3.086107672606829
 30
0.0
 10
21.89460538571982
 20
3.28140781149855
 30
0.0
 10
21.85972048373696
 20
3.643451863644504
 30
0.0
 10
21.84168389056449
 20
3.810210821513022
 30
0.0
 10
21.7868951117654
 20
4.254747485381832
 30
0.0
 10
21.74949977161135
 20
4.474766456293026
 30
0.0
 10
21.71435055342322
 20
4.603084526816533
 30
0.0
  0
SPLINE
  5
1DF
330
1F
100
AcDbEntity
  8
0
  6
Continuous
 62
     1
370
    15
100
AcDbSpline
210
0.0
220
0.0
230
1.0
 70
     8
 71
     3
 72
    12
 73
     8
 74
     0
 42
0.000000001
 43
0.00000001
 40
0.0
 40
0.0
 40
0.0
 40
0.0
 40
0.25
 40
0.25
 40
0.5
 40
0.5
 40
1.0
 40
1.0
 40
1.0
 40
1.0
 10
21.67327621896599
 20
2.92279284927192
 30
0.0
 10
21.65542510069304
 20
3.127697605764679
 30
0.0
 10
21.63847928685936
 20
3.31539619406571
 30
0.0
 10
21.60289273960694
 20
3.663470832029539
 30
0.0
 10
21.5845568253545
 20
3.822422274412653
 30
0.0
 10
21.52908325484946
 20
4.241644987587634
 30
0.0
 10
21.49152844261386
 20
4.442208921984142
 30
0.0
 10
21.45655039533574
 20
4.551328201071938
 30
0.0
  0
SPLINE
  5
1E0
330
1F
100
AcDbEntity
  8
0
  6
Continuous
 62
     1
370
    15
100
AcDbSpline
210
0.0
220
0.0
230
1.0
 70
     8
 71
     3
 72
    12
 73
     8
 74
     0
 42
0.000000001
 43
0.00000001
 40
0.0
 40
0.0
 40
0.0
 40
0.0
 40
0.2500000000000001
 40
0.2500000000000001
 40
0.5000000000000002
 40
0.5000000000000002
 40
1.0
 40
1.0
 40
1.0
 40
1.0
 10
21.32396760145746
 20
-4.558588009502516
 30
0.0
 10
21.30547940787307
 20
-4.506347762640645
 30
0.0
 10
21.28713287069592
 20
-4.431687989672413
 30
0.0
 10
21.25149953757403
 20
-4.24234010992848
 30
0.0
 10
21.23456775754861
 20
-4.128829546485409
 30
0.0
 10
21.18115705637727
 20
-3.725450429463481
 30
0.0
 10
21.14338790046014
 20
-3.372398156581857
 30
0.0
 10
21.10666353378099
 20
-2.963252168854687
 30
0.0
  0
SPLINE
  5
1E1
330
1F
100
AcDbEntity
  8
0
  6
Continuous
 62
     1
370
    15
100
AcDbSpline
210
0.0
220
0.0
230
1.0
 70
     8
 71
     3
 72
    12
 73
     8
 74
     0
 42
0.000000001
 43
0.00000001
 40
0.0
 40
0.0
 40
0.0
 40
0.0
 40
0.2500000000000001
 40
0.2500000000000001
 40
0.5000000000000001
 40
0.5000000000000001
 40
1.0
 40
1.0
 40
1.0
 40
1.0
 10
21.84435328458586
 20
-4.607030835676805
 30
0.0
 10
21.82582377165675
 20
-4.571310011304461
 30
0.0
 10
21.80728396792523
 20
-4.512757679695179
 30
0.0
 10
21.77098774313946
 20
-4.353458750863914
 30
0.0
 10
21.75351986712901
 20
-4.253407555002281
 30
0.0
 10
21.7014321702573
 20
-3.895846563220479
 30
0.0
 10
21.66401559911101
 20
-3.571206428357459
 30
0.0
 10
21.62702118537028
 20
-3.183353305546125
 30
0.0
  0
SPLINE
  5
1E2
330
1F
100
AcDbEntity
  8
0
  6
Continuous
 62
     1
370
    15
100
AcDbSpline
210
0.0
220
0.0
230
1.0
 70
     8
 71
     3
 72
    14
 73
    10
 74
     0
 42
0.000000001
 43
0.00000001
 40
0.0
 40
0.0
 40
0.0
 40
0.0
 40
0.25
 40
0.25
 40
0.5
 40
0.5
 40
0.75
 40
0.75
 40
1.0
 40
1.0
 40
1.0
 40
1.0
 10
21.15065921982851
 20
3.144439185456813
 30
0.0
 10
21.13322961738887
 20
3.336975855849999
 30
0.0
 10
21.11580323249363
 20
3.51474658440978
 30
0.0
 10
21.07947950174601
 20
3.839180032569286
 30
0.0
 10
21.06091479945137
 20
3.984575396898001
 30
0.0
 10
21.02378674499968
 20
4.234526947055861
 30
0.0
 10
21.0052274043443
 20
4.339056238581487
 30
0.0
 10
20.96892435157916
 20
4.503579607610082
 30
0.0
 10
20.9515319584752
 20
4.563354933265692
 30
0.0
 10
20.93408573073353
 20
4.601536752466017
 30
0.0
  0
SPLINE
  5
1E3
330
1F
100
AcDbEntity
  8
0
  6
Continuous
 62
     1
370
    15
100
AcDbSpline
210
0.0
220
0.0
230
1.0
 70
     8
 71
     3
 72
    12
 73
     8
 74
     0
 42
0.000000001
 43
0.00000001
 40
0.0
 40
0.0
 40
0.0
 40
0.0
 40
0.4999999999999999
 40
0.4999999999999999
 40
0.7499999999999999
 40
0.7499999999999999
 40
1.0
 40
1.0
 40
1.0
 40
1.0
 10
20.63113287258941
 20
3.354358383400835
 30
0.0
 10
20.59612124175221
 20
3.716739560638705
 30
0.0
 10
20.55854634255851
 20
4.022249120929665
 30
0.0
 10
20.50307054409734
 20
4.350404925516317
 30
0.0
 10
20.48473839393209
 20
4.438462125219029
 30
0.0
 10
20.44916779153744
 20
4.569754442660502
 30
0.0
 10
20.43221545779646
 20
4.613216175027875
 30
0.0
 10
20.41434884243371
 20
4.635198159569068
 30
0.0
  0
SPLINE
  5
1E4
330
1F
100
AcDbEntity
  8
0
  6
Continuous
 62
     1
370
    15
100
AcDbSpline
210
0.0
220
0.0
230
1.0
 70
     8
 71
     3
 72
    12
 73
     8
 74
     0
 42
0.000000001
 43
0.00000001
 40
0.0
 40
0.0
 40
0.0
 40
0.0
 40
0.4999999999999998
 40
0.4999999999999998
 40
0.7499999999999998
 40
0.7499999999999998
 40
1.0
 40
1.0
 40
1.0
 40
1.0
 10
22.36761189978012
 20
-4.639510251515751
 30
0.0
 10
22.33068885688456
 20
-4.601599525027127
 30
0.0
 10
22.29314713119316
 20
-4.469902480691745
 30
0.0
 10
22.24062681006637
 20
-4.155102784641253
 30
0.0
 10
22.22344565061914
 20
-4.030871256160633
 30
0.0
 10
22.18734724981755
 20
-3.740638975513249
 30
0.0
 10
22.16886197313332
 20
-3.575441133051258
 30
0.0
 10
22.15033873855026
 20
-3.393298767468056
 30
0.0
  0
SPLINE
  5
1E5
330
1F
100
AcDbEntity
  8
0
  6
Continuous
 62
     1
370
    15
100
AcDbSpline
210
0.0
220
0.0
230
1.0
 70
     8
 71
     3
 72
    12
 73
     8
 74
     0
 42
0.000000001
 43
0.00000001
 40
0.0
 40
0.0
 40
0.0
 40
0.0
 40
0.5
 40
0.5
 40
0.75
 40
0.75
 40
1.0
 40
1.0
 40
1.0
 40
1.0
 10
22.62394876422454
 20
-4.736940914616751
 30
0.0
 10
22.58745412037588
 20
-4.713868663508157
 30
0.0
 10
22.55007521214624
 20
-4.59682509905432
 30
0.0
 10
22.49734828527978
 20
-4.299789243172464
 30
0.0
 10
22.48054029141635
 20
-4.181926210289848
 30
0.0
 10
22.44508736324802
 20
-3.903935440192495
 30
0.0
 10
22.42686217747407
 20
-3.744408123754772
 30
0.0
 10
22.40851921981231
 20
-3.56712757123428
 30
0.0
  0
SPLINE
  5
1E6
330
1F
100
AcDbEntity
  8
0
  6
Continuous
 62
     1
370
    15
100
AcDbSpline
210
0.0
220
0.0
230
1.0
 70
     8
 71
     3
 72
    12
 73
     8
 74
     0
 42
0.000000001
 43
0.00000001
 40
0.0
 40
0.0
 40
0.0
 40
0.0
 40
0.5000000000000003
 40
0.5000000000000003
 40
0.7500000000000001
 40
0.7500000000000001
 40
1.0
 40
1.0
 40
1.0
 40
1.0
 10
22.88210202631777
 20
-4.651151995169621
 30
0.0
 10
22.84551052711611
 20
-4.646453700233258
 30
0.0
 10
22.80768861550807
 20
-4.548310714932803
 30
0.0
 10
22.75394162613601
 20
-4.276185498784807
 30
0.0
 10
22.73696844884781
 20
-4.166433922654884
 30
0.0
 10
22.70158467818781
 20
-3.905633732575014
 30
0.0
 10
22.68332276891519
 20
-3.754444259434339
 30
0.0
 10
22.66487310971553
 20
-3.584950904670283
 30
0.0
  0
SPLINE
  5
1E7
330
1F
100
AcDbEntity
  8
0
  6
Continuous
 62
     1
370
    15
100
AcDbSpline
210
0.0
220
0.0
230
1.0
 70
     8
 71
     3
 72
    11
 73
     7
 74
     0
 42
0.000000001
 43
0.00000001
 40
0.0
 40
0.0
 40
0.0
 40
0.0
 40
0.2467099829441738
 40
0.4937147314776028
 40
0.7376573624420122
 40
1.0
 40
1.0
 40
1.0
 40
1.0
 10
19.85047993115272
 20
3.723857209802859
 30
0.0
 10
19.83281799618081
 20
3.875913005962554
 30
0.0
 10
19.79747302400755
 20
4.180206272391034
 30
0.0
 10
19.74389099724227
 20
4.491835156641755
 30
0.0
 10
19.69154955217833
 20
4.704447429690991
 30
0.0
 10
19.65585617113479
 20
4.72842687851625
 30
0.0
 10
19.6373608754813
 20
4.740852347403317
 30
0.0
  0
LINE
  5
1E8
330
1F
100
AcDbEntity
  8
0
  6
Continuous
 62
     1
370
    15
100
AcDbLine
 10
23.36929133930156
 20
-4.627180986450242
 30
0.0
 11
23.35988440060189
 21
-4.623272367070315
 31
0.0
  0
SPLINE
  5
1E9
330
1F
100
AcDbEntity
  8
0
  6
Continuous
 62
     1
370
    15
100
AcDbSpline
210
0.0
220
0.0
230
1.0
 70
     8
 71
     3
 72
    12
 73
     8
 74
     0
 42
0.000000001
 43
0.00000001
 40
0.0
 40
0.0
 40
0.0
 40
0.0
 40
0.5
 40
0.5
 40
0.75
 40
0.75
 40
1.0
 40
1.0
 40
1.0
 40
1.0
 10
19.59425168039502
 20
3.733361624270313
 30
0.0
 10
19.55781839942168
 20
4.049721068607726
 30
0.0
 10
19.51995919701452
 20
4.295267557300579
 30
0.0
 10
19.46587794012124
 20
4.527143185258372
 30
0.0
 10
19.44875145866359
 20
4.581958200010885
 30
0.0
 10
19.41364711780949
 20
4.64893820863045
 30
0.0
 10
19.39548326727875
 20
4.66075852469648
 30
0.0
 10
19.3770831467409
 20
4.649613940046829
 30
0.0
  0
LINE
  5
1EA
330
1F
100
AcDbEntity
  8
0
  6
Continuous
 62
     1
370
    15
100
AcDbLine
 10
23.89737004687387
 20
-4.629984478745232
 30
0.0
 11
23.88660474243994
 21
-4.635061582198768
 31
0.0
  0
LINE
  5
1EB
330
1F
100
AcDbEntity
  8
0
  6
Continuous
 62
     1
370
    15
100
AcDbLine
 10
18.38058516911818
 20
4.641402649442474
 30
0.0
 11
18.37119940077296
 21
4.630294055722516
 31
0.0
  0
LINE
  5
1EC
330
1F
100
AcDbEntity
  8
0
  6
Continuous
 62
     1
370
    15
100
AcDbLine
 10
24.37627964294306
 20
-4.632744364207888
 30
0.0
 11
24.37418189149686
 21
-4.63037163406922
 31
0.0
  0
SPLINE
  5
1ED
330
1F
100
AcDbEntity
  8
0
  6
Continuous
 62
     1
370
    15
100
AcDbSpline
210
0.0
220
0.0
230
1.0
 70
     8
 71
     3
 72
    10
 73
     6
 74
     0
 42
0.000000001
 43
0.00000001
 40
0.0
 40
0.0
 40
0.0
 40
0.0
 40
0.325179202657376
 40
0.6648484944186327
 40
1.0
 40
1.0
 40
1.0
 40
1.0
 10
24.64033072831683
 20
-4.738609544586422
 30
0.0
 10
24.62375715982633
 20
-4.730330445508424
 30
0.0
 10
24.58987149934125
 20
-4.713403328053904
 30
0.0
 10
24.53845009731232
 20
-4.542368592752863
 30
0.0
 10
24.50518780917469
 20
-4.336140489881203
 30
0.0
 10
24.48866800718829
 20
-4.23371676577133
 30
0.0
  0
SPLINE
  5
1EE
330
1F
100
AcDbEntity
  8
0
  6
Continuous
 62
     1
370
    15
100
AcDbSpline
210
0.0
220
0.0
230
1.0
 70
     8
 71
     3
 72
    11
 73
     7
 74
     0
 42
0.000000001
 43
0.00000001
 40
0.0
 40
0.0
 40
0.0
 40
0.0
 40
0.2902051767433192
 40
0.5769971796900962
 40
0.9203005502711649
 40
1.0
 40
1.0
 40
1.0
 40
1.0
 10
17.76917125420648
 20
4.339438162171388
 30
0.0
 10
17.75612663388929
 20
4.411134717843312
 30
0.0
 10
17.73019081421298
 20
4.553684588525956
 30
0.0
 10
17.69024247071753
 20
4.686416537861391
 30
0.0
 10
17.65950262762576
 20
4.752793534689545
 30
0.0
 10
17.64047548749513
 20
4.737666384377978
 30
0.0
 10
17.63689051707528
 20
4.734816224762223
 30
0.0
  0
LINE
  5
1EF
330
1F
100
AcDbEntity
  8
0
  6
Continuous
 62
     1
370
    15
100
AcDbLine
 10
32.13715701540224
 20
0.9198735527272852
 30
0.0
 11
32.13715701540224
 21
3.084922970972407
 31
0.0
  0
LINE
  5
1F0
330
1F
100
AcDbEntity
  8
0
  6
Continuous
 62
     1
370
    15
100
AcDbLine
 10
16.90508935130182
 20
4.628664081752851
 30
0.0
 11
16.90258317289248
 21
4.631852911109814
 31
0.0
  0
LINE
  5
1F1
330
1F
100
AcDbEntity
  8
0
  6
Continuous
 62
     1
370
    15
100
AcDbLine
 10
25.90517576301577
 20
-4.630489192856845
 30
0.0
 11
25.90144251742995
 21
-4.63566760257549
 31
0.0
  0
LINE
  5
1F2
330
1F
100
AcDbEntity
  8
0
  6
Continuous
 62
     1
370
    15
100
AcDbLine
 10
26.37205865978805
 20
-4.633100415826402
 30
0.0
 11
26.36935272185119
 21
-4.631688406385764
 31
0.0
  0
SPLINE
  5
1F3
330
1F
100
AcDbEntity
  8
0
  6
Continuous
 62
     1
370
    15
100
AcDbSpline
210
0.0
220
0.0
230
1.0
 70
     8
 71
     3
 72
     9
 73
     5
 74
     0
 42
0.000000001
 43
0.00000001
 40
0.0
 40
0.0
 40
0.0
 40
0.0
 40
0.3602332503889246
 40
1.0
 40
1.0
 40
1.0
 40
1.0
 10
26.63426642810839
 20
-4.731188897196043
 30
0.0
 10
26.626408915757
 20
-4.731688227441285
 30
0.0
 10
26.60459662512893
 20
-4.733074357801829
 30
0.0
 10
26.58254746525318
 20
-4.671696327159866
 30
0.0
 10
26.56844114590782
 20
-4.632428703998528
 30
0.0
  0
LINE
  5
1F4
330
1F
100
AcDbEntity
  8
0
  6
Continuous
 62
     1
370
    15
100
AcDbLine
 10
15.689383699584
 20
4.680255355457927
 30
0.0
 11
15.64006353104476
 21
4.739078472958886
 31
0.0
  0
LINE
  5
1F5
330
1F
100
AcDbEntity
  8
0
  6
Continuous
 62
     1
370
    15
100
AcDbLine
 10
15.37699016966566
 20
4.646813597961667
 30
0.0
 11
15.37328719910455
 21
4.640391449289247
 31
0.0
  0
LINE
  5
1F6
330
1F
100
AcDbEntity
  8
0
  6
Continuous
 62
     1
370
    15
100
AcDbLine
 10
10.71239151317215
 20
-4.721936059053452
 30
0.0
 11
10.66956205535317
 21
-4.836186149599705
 31
0.0
  0
LINE
  5
1F7
330
1F
100
AcDbEntity
  8
0
  6
Continuous
 62
     1
370
    15
100
AcDbLine
 10
10.63675498069245
 20
-4.848792172336183
 30
0.0
 11
10.62041654823987
 21
-4.85507016734505
 31
0.0
  0
LINE
  5
1F8
330
1F
100
AcDbEntity
  8
0
  6
Continuous
 62
     1
370
    15
100
AcDbLine
 10
32.13715701540224
 20
-2.543461574731425
 30
0.0
 11
32.13715701540224
 21
-2.783011091606214
 31
0.0
  0
SPLINE
  5
1FA
330
1F
100
AcDbEntity
  8
0
  6
Continuous
 62
     1
370
    15
100
AcDbSpline
210
0.0
220
0.0
230
1.0
 70
     8
 71
     3
 72
    11
 73
     7
 74
     0
 42
0.000000001
 43
0.00000001
 40
0.0
 40
0.0
 40
0.0
 40
0.0
 40
0.2948689945855361
 40
0.5907125019555072
 40
0.8829305560992189
 40
1.0
 40
1.0
 40
1.0
 40
1.0
 10
20.10843961642644
 20
3.553340540725777
 30
0.0
 10
20.08967352256471
 20
3.719554664125026
 30
0.0
 10
20.05207931476209
 20
4.052532232117617
 30
0.0
 10
19.9947016303217
 20
4.388427402991662
 30
0.0
 10
19.95088399700094
 20
4.577106750322233
 30
0.0
 10
19.92525385361424
 20
4.606310093056001
 30
0.0
 10
19.91792280478496
 20
4.614663192308288
 30
0.0
  0
SPLINE
  5
1FB
330
1F
100
AcDbEntity
  8
0
  6
Continuous
 62
     1
370
    15
100
AcDbSpline
210
0.0
220
0.0
230
1.0
 70
     8
 71
     3
 72
    12
 73
     8
 74
     0
 42
0.000000001
 43
0.00000001
 40
0.0
 40
0.0
 40
0.0
 40
0.0
 40
0.0477601149399101
 40
0.3571135258781442
 40
0.6628665009934951
 40
0.9679980754713724
 40
1.0
 40
1.0
 40
1.0
 40
1.0
 10
23.35988440060189
 20
-4.623272367070315
 30
0.0
 10
23.35712060253038
 20
-4.622521094798612
 30
0.0
 10
23.3364550393219
 20
-4.616903656687763
 30
0.0
 10
23.29744967692447
 20
-4.482579508151231
 30
0.0
 10
23.24541556811026
 20
-4.217748612147301
 30
0.0
 10
23.20940097580432
 20
-3.943978229939095
 30
0.0
 10
23.1899570454721
 20
-3.779627217484563
 30
0.0
 10
23.18811135765743
 20
-3.764026428146592
 30
0.0
  0
SPLINE
  5
1FC
330
1F
100
AcDbEntity
  8
0
  6
Continuous
 62
     1
370
    15
100
AcDbSpline
210
0.0
220
0.0
230
1.0
 70
     8
 71
     3
 72
    11
 73
     7
 74
     0
 42
0.000000001
 43
0.00000001
 40
0.0
 40
0.0
 40
0.0
 40
0.0
 40
0.0888493343621057
 40
0.3951076478141499
 40
0.6991302884927713
 40
1.0
 40
1.0
 40
1.0
 40
1.0
 10
23.88660474243994
 20
-4.635061582198768
 30
0.0
 10
23.88132430940886
 20
-4.638880475010117
 30
0.0
 10
23.85784254120735
 20
-4.655862861730062
 30
0.0
 10
23.81507786833566
 20
-4.547020742054342
 30
0.0
 10
23.76081773836663
 20
-4.318654356667979
 30
0.0
 10
23.7256708886632
 20
-4.057993082071913
 30
0.0
 10
23.70818906319054
 20
-3.928341777661425
 30
0.0
  0
SPLINE
  5
1FD
330
1F
100
AcDbEntity
  8
0
  6
Continuous
 62
     1
370
    15
100
AcDbSpline
210
0.0
220
0.0
230
1.0
 70
     8
 71
     3
 72
    11
 73
     7
 74
     0
 42
0.000000001
 43
0.00000001
 40
0.0
 40
0.0
 40
0.0
 40
0.0
 40
0.262620217855
 40
0.5244041766004935
 40
0.7830074253007174
 40
0.9999999999999999
 40
0.9999999999999999
 40
0.9999999999999999
 40
0.9999999999999999
 10
19.07104730772904
 20
3.900187676583193
 30
0.0
 10
19.05652452624864
 20
4.007347459726615
 30
0.0
 10
19.02752520804541
 20
4.221325798115779
 30
0.0
 10
18.98420962757462
 20
4.443669496604283
 30
0.0
 10
18.9450052488237
 20
4.591976760154538
 30
0.0
 10
18.91943377994405
 20
4.62151582074712
 30
0.0
 10
18.90776669079391
 20
4.63499314013644
 30
0.0
  0
SPLINE
  5
1FE
330
1F
100
AcDbEntity
  8
0
  6
Continuous
 62
     1
370
    15
100
AcDbSpline
210
0.0
220
0.0
230
1.0
 70
     8
 71
     3
 72
    11
 73
     7
 74
     0
 42
0.000000001
 43
0.00000001
 40
0.0
 40
0.0
 40
0.0
 40
0.0
 40
0.3182932544449253
 40
0.6326549328259701
 40
0.9511158957619427
 40
1.0
 40
1.0
 40
1.0
 40
1.0
 10
18.55066096194831
 20
4.052251708523436
 30
0.0
 10
18.53222789583894
 20
4.171288634592389
 30
0.0
 10
18.49558944988276
 20
4.407892135968176
 30
0.0
 10
18.44241028591067
 20
4.59397064549146
 30
0.0
 10
18.40459590905689
 20
4.673338486105661
 30
0.0
 10
18.38340511446227
 20
4.64515335908898
 30
0.0
 10
18.38058516911818
 20
4.641402649442474
 30
0.0
  0
SPLINE
  5
1FF
330
1F
100
AcDbEntity
  8
0
  6
Continuous
 62
     1
370
    15
100
AcDbSpline
210
0.0
220
0.0
230
1.0
 70
     8
 71
     3
 72
    10
 73
     6
 74
     0
 42
0.000000001
 43
0.00000001
 40
0.0
 40
0.0
 40
0.0
 40
0.0
 40
0.2509541113466383
 40
0.6281645466727147
 40
1.0
 40
1.0
 40
1.0
 40
1.0
 10
24.37418189149686
 20
-4.63037163406922
 30
0.0
 10
24.36204208549423
 20
-4.621449099212416
 30
0.0
 10
24.33165487369119
 20
-4.599115055616076
 30
0.0
 10
24.28304161542846
 20
-4.419402979190436
 30
0.0
 10
24.24821372118023
 20
-4.19248728976055
 30
0.0
 10
24.23092473255831
 20
-4.079843592592775
 30
0.0
  0
SPLINE
  5
200
330
1F
100
AcDbEntity
  8
0
  6
Continuous
 62
     1
370
    15
100
AcDbSpline
210
0.0
220
0.0
230
1.0
 70
     8
 71
     3
 72
    10
 73
     6
 74
     0
 42
0.000000001
 43
0.00000001
 40
0.0
 40
0.0
 40
0.0
 40
0.0
 40
0.3534144938486981
 40
0.702503656148074
 40
1.0
 40
1.0
 40
1.0
 40
1.0
 10
18.02734146636705
 20
4.190812060526054
 30
0.0
 10
18.01240270152383
 20
4.276038591387056
 30
0.0
 10
17.98270800279654
 20
4.445448591748566
 30
0.0
 10
17.94206915951819
 20
4.593932551027162
 30
0.0
 10
17.91554354706298
 20
4.626266123770082
 30
0.0
 10
17.90333901626422
 20
4.64114291822832
 30
0.0
  0
SPLINE
  5
201
330
1F
100
AcDbEntity
  8
0
  6
Continuous
 62
     1
370
    15
100
AcDbSpline
210
0.0
220
0.0
230
1.0
 70
     8
 71
     3
 72
    11
 73
     7
 74
     0
 42
0.000000001
 43
0.00000001
 40
0.0
 40
0.0
 40
0.0
 40
0.0
 40
0.0674344600761116
 40
0.3793328418281541
 40
0.6914205672228436
 40
1.0
 40
1.0
 40
1.0
 40
1.0
 10
24.90254694075932
 20
-4.634958521405497
 30
0.0
 10
24.8990652188682
 20
-4.640660794724393
 30
0.0
 10
24.87947981019257
 20
-4.672737266316162
 30
0.0
 10
24.84237416627179
 20
-4.622293974594333
 30
0.0
 10
24.79262142761426
 20
-4.48647974161602
 30
0.0
 10
24.76055898122882
 20
-4.302579368557934
 30
0.0
 10
24.74461837378922
 20
-4.211148926236931
 30
0.0
  0
SPLINE
  5
202
330
1F
100
AcDbEntity
  8
0
  6
Continuous
 62
     1
370
    15
100
AcDbSpline
210
0.0
220
0.0
230
1.0
 70
     8
 71
     3
 72
     9
 73
     5
 74
     0
 42
0.000000001
 43
0.00000001
 40
0.0
 40
0.0
 40
0.0
 40
0.0
 40
0.4255404842481494
 40
1.0
 40
1.0
 40
1.0
 40
1.0
 10
25.36970404110268
 20
-4.626564607443766
 30
0.0
 10
25.35505463037106
 20
-4.613709487365555
 30
0.0
 10
25.3206292084103
 20
-4.583500563528557
 30
0.0
 10
25.28669273514246
 20
-4.419729261745983
 30
0.0
 10
25.26719760514269
 20
-4.325649279029918
 30
0.0
  0
SPLINE
  5
203
330
1F
100
AcDbEntity
  8
0
  6
Continuous
 62
     1
370
    15
100
AcDbSpline
210
0.0
220
0.0
230
1.0
 70
     8
 71
     3
 72
    11
 73
     7
 74
     0
 42
0.000000001
 43
0.00000001
 40
0.0
 40
0.0
 40
0.0
 40
0.0
 40
0.2384679304508041
 40
0.4742772481333468
 40
0.8192292509431133
 40
1.0
 40
1.0
 40
1.0
 40
1.0
 10
17.51283147417121
 20
4.308747235984394
 30
0.0
 10
17.50135810006526
 20
4.366905153823153
 30
0.0
 10
17.47853926531675
 20
4.482572603016798
 30
0.0
 10
17.44047382265848
 20
4.605530256866673
 30
0.0
 10
17.40486732556977
 20
4.671183540956616
 30
0.0
 10
17.37939634189732
 20
4.640972509057194
 30
0.0
 10
17.37063809664097
 20
4.630584389374626
 30
0.0
  0
SPLINE
  5
204
330
1F
100
AcDbEntity
  8
0
  6
Continuous
 62
     1
370
    15
100
AcDbSpline
210
0.0
220
0.0
230
1.0
 70
     8
 71
     3
 72
     9
 73
     5
 74
     0
 42
0.000000001
 43
0.00000001
 40
0.0
 40
0.0
 40
0.0
 40
0.0
 40
0.5559358303581797
 40
1.0
 40
1.0
 40
1.0
 40
1.0
 10
16.98965654918645
 20
4.409486087637522
 30
0.0
 10
16.9740209728861
 20
4.476910680981145
 30
0.0
 10
16.94589618681091
 20
4.598191932632404
 30
0.0
 10
16.91763786119979
 20
4.619293591243605
 30
0.0
 10
16.90508935130182
 20
4.628664081752851
 30
0.0
  0
SPLINE
  5
205
330
1F
100
AcDbEntity
  8
0
  6
Continuous
 62
     1
370
    15
100
AcDbSpline
210
0.0
220
0.0
230
1.0
 70
     8
 71
     3
 72
    10
 73
     6
 74
     0
 42
0.000000001
 43
0.00000001
 40
0.0
 40
0.0
 40
0.0
 40
0.0
 40
0.0836206690124461
 40
0.5419934043956173
 40
1.0
 40
1.0
 40
1.0
 40
1.0
 10
25.90144251742995
 20
-4.63566760257549
 30
0.0
 10
25.89833275504569
 20
-4.64047333242994
 30
0.0
 10
25.87817660559832
 20
-4.671622017500031
 30
0.0
 10
25.83938837957743
 20
-4.61686719644008
 30
0.0
 10
25.80454633519171
 20
-4.488420400916789
 30
0.0
 10
25.78713227357619
 20
-4.424222663642952
 30
0.0
  0
SPLINE
  5
206
330
1F
100
AcDbEntity
  8
0
  6
Continuous
 62
     1
370
    15
100
AcDbSpline
210
0.0
220
0.0
230
1.0
 70
     8
 71
     3
 72
    10
 73
     6
 74
     0
 42
0.000000001
 43
0.00000001
 40
0.0
 40
0.0
 40
0.0
 40
0.0
 40
0.2770853111251207
 40
0.749947107101112
 40
1.0
 40
1.0
 40
1.0
 40
1.0
 10
16.4696750831439
 20
4.493903583505539
 30
0.0
 10
16.46068569247107
 20
4.524719093905103
 30
0.0
 10
16.43635539685809
 20
4.608123020241571
 30
0.0
 10
16.40392870301335
 20
4.665102289325275
 30
0.0
 10
16.3795918149473
 20
4.640775252832844
 30
0.0
 10
16.37117379639168
 20
4.632360641891604
 30
0.0
  0
SPLINE
  5
207
330
1F
100
AcDbEntity
  8
0
  6
Continuous
 62
     1
370
    15
100
AcDbSpline
210
0.0
220
0.0
230
1.0
 70
     8
 71
     3
 72
     9
 73
     5
 74
     0
 42
0.000000001
 43
0.00000001
 40
0.0
 40
0.0
 40
0.0
 40
0.0
 40
0.2248900905029931
 40
1.0
 40
1.0
 40
1.0
 40
1.0
 10
26.36935272185119
 20
-4.631688406385764
 30
0.0
 10
26.36494138202046
 20
-4.630395355312323
 30
0.0
 10
26.34532584528937
 20
-4.624645652999741
 30
0.0
 10
26.32557408544565
 20
-4.558981572395671
 30
0.0
 10
26.31026430066078
 20
-4.508084692821446
 30
0.0
  0
SPLINE
  5
208
330
1F
100
AcDbEntity
  8
0
  6
Continuous
 62
     1
370
    15
100
AcDbSpline
210
0.0
220
0.0
230
1.0
 70
     8
 71
     3
 72
     9
 73
     5
 74
     0
 42
0.000000001
 43
0.00000001
 40
0.0
 40
0.0
 40
0.0
 40
0.0
 40
0.1694051562632428
 40
0.9999999999999999
 40
0.9999999999999999
 40
0.9999999999999999
 40
0.9999999999999999
 10
15.94706222880809
 20
4.563071937155896
 30
0.0
 10
15.94467869236009
 20
4.570007523376263
 30
0.0
 10
15.93060865753599
 20
4.610948344620158
 30
0.0
 10
15.91612920562737
 20
4.622422000301015
 30
0.0
 10
15.90410264753195
 20
4.631951959548346
 30
0.0
  0
SPLINE
  5
209
330
1F
100
AcDbEntity
  8
0
  6
Continuous
 62
     1
370
    15
100
AcDbSpline
210
0.0
220
0.0
230
1.0
 70
     8
 71
     3
 72
     9
 73
     5
 74
     0
 42
0.000000001
 43
0.00000001
 40
0.0
 40
0.0
 40
0.0
 40
0.0
 40
0.2332995983607475
 40
1.0
 40
1.0
 40
1.0
 40
1.0
 10
26.90081242658753
 20
-4.629528299016181
 30
0.0
 10
26.89502903359773
 20
-4.638576594466734
 30
0.0
 10
26.87023947960602
 20
-4.677360610873657
 30
0.0
 10
26.8445315228143
 20
-4.617084267040452
 30
0.0
 10
26.82482122201676
 20
-4.570870370014188
 30
0.0
  0
LINE
  5
20A
330
1F
100
AcDbEntity
  8
0
  6
Continuous
 62
     1
370
    15
100
AcDbLine
 10
27.37713507120066
 20
-4.63411026026139
 30
0.0
 11
27.34811631250756
 21
-4.613973742479113
 31
0.0
  0
SPLINE
  5
20B
330
1F
100
AcDbEntity
  8
0
  6
Continuous
 62
     1
370
    15
100
AcDbSpline
210
0.0
220
0.0
230
1.0
 70
     8
 71
     3
 72
     9
 73
     5
 74
     0
 42
0.000000001
 43
0.00000001
 40
0.0
 40
0.0
 40
0.0
 40
0.0
 40
0.9593466020191875
 40
1.0
 40
1.0
 40
1.0
 40
1.0
 10
15.43338048962195
 20
4.611169476665488
 30
0.0
 10
15.41551685334032
 20
4.646005588030303
 30
0.0
 10
15.39689622525446
 20
4.682317919039237
 30
0.0
 10
15.37776780494908
 20
4.648200583578208
 30
0.0
 10
15.37699016966566
 20
4.646813597961667
 30
0.0
  0
SPLINE
  5
20C
330
1F
100
AcDbEntity
  8
0
  6
Continuous
 62
     1
370
    15
100
AcDbSpline
210
0.0
220
0.0
230
1.0
 70
     8
 71
     3
 72
     8
 73
     4
 74
     0
 42
0.000000001
 43
0.00000001
 40
0.0
 40
0.0
 40
0.0
 40
0.0
 40
1.0
 40
1.0
 40
1.0
 40
1.0
 10
27.90623721764791
 20
-4.641256344635078
 30
0.0
 10
27.89382273946112
 20
-4.651795293757464
 30
0.0
 10
27.88118921873238
 20
-4.651699692328887
 30
0.0
 10
27.86846475476313
 20
-4.640706953971193
 30
0.0
  0
LINE
  5
20D
330
1F
100
AcDbEntity
  8
0
  6
Continuous
 62
     1
370
    15
100
AcDbLine
 10
14.3906489113852
 20
4.651244915240824
 30
0.0
 11
14.36311121957123
 21
4.623962562406739
 31
0.0
  0
SPLINE
  5
20E
330
1F
100
AcDbEntity
  8
0
  6
Continuous
 62
     1
370
    15
100
AcDbSpline
210
0.0
220
0.0
230
1.0
 70
     8
 71
     3
 72
     9
 73
     5
 74
     0
 42
0.000000001
 43
0.00000001
 40
0.0
 40
0.0
 40
0.0
 40
0.0
 40
0.0505856651868367
 40
1.0
 40
1.0
 40
1.0
 40
1.0
 10
10.91054539598561
 20
-4.635103214455357
 30
0.0
 10
10.90998866835913
 20
-4.636157194163189
 30
0.0
 10
10.89898302823512
 20
-4.656992735298007
 30
0.0
 10
10.88761527316117
 20
-4.653326807000457
 30
0.0
 10
10.87682256353932
 20
-4.649846322124366
 30
0.0
  0
LINE
  5
20F
330
1F
100
AcDbEntity
  8
0
  6
Continuous
 62
     8
370
    15
100
AcDbLine
 10
31.38233312000396
 20
4.652177658471489
 30
0.0
 11
31.37410733538747
 21
4.640452969213357
 31
0.0
  0
LINE
  5
210
330
1F
100
AcDbEntity
  8
중심선
100
AcDbLine
 10
-34.36284298459778
 20
0.0011853395806516
 30
0.0
 11
35.13715701540224
 21
0.0011853395806516
 31
0.0
  0
CIRCLE
  5
211
330
1F
100
AcDbEntity
  8
외형선
100
AcDbCircle
 10
0.0
 20
0.0
 30
0.0
 40
3.000000000000004
  0
INSERT
  5
212
330
1F
100
AcDbEntity
  8
0
  6
Continuous
 62
     7
100
AcDbBlockReference
 66
     1
  2
블럭10
 10
-16.63945112874702
 20
-52.04717430164393
 30
0.0
  0
ATTRIB
  5
213
330
212
100
AcDbEntity
  8
FORMAT
 62
     2
100
AcDbText
 10
-25.70707290932103
 20
-49.97180738881174
 30
0.0
 40
4.233333333333333
  1
E5E44024 [ 3 FLUTE ]
 41
0.75
  7
SLDTEXTSTYLE0
 11
-25.70707290932103
 21
-52.08847405547841
 31
0.0
100
AcDbAttribute
  2
AUTOATTR0
 70
     0
 74
     1
  0
SEQEND
  5
214
330
212
100
AcDbEntity
  8
0
  6
Continuous
 62
     7
  0
HATCH
  5
215
330
1F
100
AcDbEntity
  8
중심선
100
AcDbHatch
 10
0.0
 20
0.0
 30
0.0
210
0.0
220
0.0
230
1.0
  2
SOLID
 70
     1
 71
     0
 91
        1
 92
        0
 93
        4
 72
     1
 10
-10.92454182436617
 20
-35.8
 11
-14.37081706820345
 21
-35.8
 72
     1
 10
-14.37081706820345
 20
-35.8
 11
-16.49904692740747
 21
-38.33632558057259
 72
     1
 10
-16.49904692740747
 20
-38.33632558057259
 11
-13.05273859845704
 21
-38.3362861512701
 72
     1
 10
-13.05273859845704
 20
-38.3362861512701
 11
-10.92454182436617
 21
-35.8
 97
        0
 75
     0
 76
     1
 98
        1
 10
0.0
 20
0.0
  0
HATCH
  5
216
330
1F
100
AcDbEntity
  8
중심선
100
AcDbHatch
 10
0.0
 20
0.0
 30
0.0
210
0.0
220
0.0
230
1.0
  2
SOLID
 70
     1
 71
     0
 91
        1
 92
        0
 93
        4
 72
     1
 10
-5.911777833330217
 20
-35.8
 11
-9.358053077167499
 21
-35.8
 72
     1
 10
-9.358053077167499
 20
-35.8
 11
-13.88919108552489
 21
-41.20000000000002
 72
     1
 10
-13.88919108552489
 20
-41.20000000000002
 11
-10.44291584168761
 21
-41.20000000000002
 72
     1
 10
-10.44291584168761
 20
-41.20000000000002
 11
-5.911777833330217
 21
-35.8
 97
        0
 75
     0
 76
     1
 98
        1
 10
0.0
 20
0.0
  0
HATCH
  5
217
330
1F
100
AcDbEntity
  8
중심선
100
AcDbHatch
 10
0.0
 20
0.0
 30
0.0
210
0.0
220
0.0
230
1.0
  2
SOLID
 70
     1
 71
     0
 91
        1
 92
        0
 93
        4
 72
     1
 10
-0.8990138422943217
 20
-35.80000000000003
 11
-4.345289086131437
 21
-35.8
 72
     1
 10
-4.345289086131437
 20
-35.8
 11
-11.39372598802069
 21
-44.20000000000002
 72
     1
 10
-11.39372598802069
 20
-44.20000000000002
 11
-7.947450744183405
 21
-44.20000000000002
 72
     1
 10
-7.947450744183405
 20
-44.20000000000002
 11
-0.8990138422943215
 21
-35.80000000000003
 97
        0
 75
     0
 76
     1
 98
        1
 10
0.0
 20
0.0
  0
HATCH
  5
218
330
1F
100
AcDbEntity
  8
중심선
100
AcDbHatch
 10
0.0
 20
0.0
 30
0.0
210
0.0
220
0.0
230
1.0
  2
SOLID
 70
     1
 71
     0
 91
        1
 92
        0
 93
        6
 72
     3
 10
3.900876588717877
 20
-40.00000000005127
 11
3.960054785062284
 21
1.540850780301639E-10
 40
0.3939339440162633
 50
17.09539180608433
 51
320.0019657685079
 73
     0
 72
     1
 10
5.583876244418473
 20
-38.5878940046383
 11
7.889178118119511
 21
-36.65356729459038
 72
     3
 10
3.900876588665031
 20
-40.00000000000015
 11
6.600054785286829
 21
-1.249000902703301E-13
 40
0.6363583540795982
 50
39.99873849337408
 51
368.4976242363724
 73
     1
 72
     1
 10
10.32620908056564
 20
-39.03999999993002
 11
2.580943895500953
 21
-39.03999999992999
 72
     1
 10
2.580943895500953
 20
-39.03999999992999
 11
2.58091885105502
 21
-40.95999999992991
 72
     1
 10
2.58091885105502
 20
-40.95999999992991
 11
7.022298620527057
 21
-40.95999999992988
 97
        0
 75
     0
 76
     1
 98
        1
 10
0.0
 20
0.0
  0
POINT
  5
219
330
1F
100
AcDbEntity
  8
치수문자_일반주서
100
AcDbPoint
 10
0.0
 20
0.0191571470691927
 30
0.0
  0
DIMENSION
  5
21A
330
1F
100
AcDbEntity
  8
치수문자_일반주서
100
AcDbDimension
  2
_D
 10
9.912157015402235
 20
12.62348875574669
 30
0.0
 11
19.43715701540222
 21
12.62348875574669
 31
0.0
 70
   160
  1
<>
 71
     2
 42
22.225
  3
SLDDIMSTYLE0
100
AcDbAlignedDimension
 13
32.13715701540224
 23
4.763685339580654
 33
0.0
 14
9.912157015402235
 24
-0.5171210319186486
 34
0.0
 50
0.0000000000000534
100
AcDbRotatedDimension
1001
ACAD
1000
DSTYLE
1002
{
1070
   171
1070
     6
1070
   273
1070
     7
1002
}
  0
DIMENSION
  5
230
330
1F
100
AcDbEntity
  8
치수문자_일반주서
100
AcDbDimension
  2
_D_1
 10
-31.36284298459777
 20
25.94321782261355
 30
0.0
 11
2.063450943739421
 21
25.94321782261355
 31
0.0
 70
   160
  1
<>
 71
     2
 42
63.50000000000001
  3
SLDDIMSTYLE1
100
AcDbAlignedDimension
 13
32.13715701540224
 23
4.542686254234417
 33
0.0
 14
-31.36284298459777
 24
4.26368533958065
 34
0.0
 50
0.0000000000000064
100
AcDbRotatedDimension
1001
ACAD
1000
DSTYLE
1002
{
1070
   171
1070
     6
1070
   273
1070
     7
1002
}
  0
DIMENSION
  5
244
330
1F
100
AcDbEntity
  8
치수문자_일반주서
100
AcDbDimension
  2
_D_2
 10
-45.13484065240876
 20
-4.761314660419405
 30
0.0
 11
-45.13484065240886
 21
24.4926853395806
 31
0.0
 70
   160
  1
%%c<>
 71
     2
 42
9.525
 52
-270.0
  3
SLDDIMSTYLE0
100
AcDbAlignedDimension
 13
-30.86284298459777
 23
4.763685339580649
 33
0.0
 14
-30.86284298459777
 24
-4.761314660419352
 34
0.0
 50
90.0000000000002
100
AcDbRotatedDimension
1001
ACAD
1000
DSTYLE
1002
{
1070
   171
1070
     6
1070
   273
1070
     7
1002
}
  0
INSERT
  5
25E
330
1F
100
AcDbEntity
  8
외형선
100
AcDbBlockReference
  2
SW_DOWELSYMBOL_0
 10
0.0
 20
0.0
 30
0.0
  0
DIMENSION
  5
289
330
1F
100
AcDbEntity
  8
치수문자_일반주서
100
AcDbDimension
  2
*D6
 10
52.00415859755584
 20
-4.761314660419352
 30
0.0
 11
52.00415859755584
 21
24.71143533958065
 31
0.0
 70
   160
  1
{%%c<>}
 71
     5
 42
9.525000000000002
  3
SLDDIMSTYLE0
100
AcDbAlignedDimension
 13
32.13715701540224
 23
4.763685339580654
 33
0.0
 14
32.13715701540225
 24
-4.761314660419348
 34
0.0
 50
90.0
100
AcDbRotatedDimension
1001
ACAD
1000
DSTYLE
1002
{
1070
   171
1070
     6
1070
   273
1070
     7
1002
}
  0
ENDSEC
  0
SECTION
  2
OBJECTS
  0
DICTIONARY
  5
C
330
0
100
AcDbDictionary
281
     1
  3
ACAD_DETAILVIEWSTYLE
350
2A6
  3
ACAD_GROUP
350
D
  3
ACAD_IMAGE_VARS
350
282
  3
ACAD_LAYOUT
350
1A
  3
ACAD_MLINESTYLE
350
17
  3
ACAD_PLOTSETTINGS
350
19
  3
ACAD_PLOTSTYLENAME
350
E
  3
ACAD_SCALELIST
350
47
  3
ACAD_SECTIONVIEWSTYLE
350
2A7
  3
AcDbVariableDictionary
350
2A1
  3
APPDATA
350
280
  3
DWGPROPS
350
2CF
  0
DICTIONARY
  5
2CD
330
1F
100
AcDbDictionary
280
     1
281
     1
  3
DIM_BOUNDING_BOXES_V1
360
2CE
  0
DICTIONARY
  5
2A6
102
{ACAD_REACTORS
330
C
102
}
330
C
100
AcDbDictionary
281
     1
  0
DICTIONARY
  5
D
102
{ACAD_REACTORS
330
C
102
}
330
C
100
AcDbDictionary
281
     1
  0
RASTERVARIABLES
  5
282
102
{ACAD_REACTORS
330
C
102
}
330
C
100
AcDbRasterVariables
 90
        0
 70
     1
 71
     1
 72
     1
  0
DICTIONARY
  5
1A
102
{ACAD_REACTORS
330
C
102
}
330
C
100
AcDbDictionary
281
     1
  3
Layout1
350
1E
  3
Layout2
350
26
  3
Model
350
22
  0
DICTIONARY
  5
17
102
{ACAD_REACTORS
330
C
102
}
330
C
100
AcDbDictionary
281
     1
  3
Standard
350
18
  0
DICTIONARY
  5
19
102
{ACAD_REACTORS
330
C
102
}
330
C
100
AcDbDictionary
281
     1
  0
ACDBDICTIONARYWDFLT
  5
E
102
{ACAD_REACTORS
330
C
102
}
330
C
100
AcDbDictionary
281
     1
  3
Normal
350
F
100
AcDbDictionaryWithDefault
340
F
  0
DICTIONARY
  5
47
102
{ACAD_REACTORS
330
C
102
}
330
C
100
AcDbDictionary
281
     1
  3
A0
350
48
  3
A1
350
49
  3
A2
350
4A
  3
A3
350
4B
  3
A4
350
4C
  3
A5
350
4D
  3
A6
350
4E
  3
A7
350
4F
  3
A8
350
50
  3
A9
350
51
  3
B0
350
52
  3
B1
350
53
  3
B2
350
54
  3
B3
350
55
  3
B4
350
56
  3
B5
350
57
  3
B6
350
58
  3
B7
350
59
  3
B8
350
5A
  3
B9
350
5B
  3
C0
350
5C
  3
C1
350
5D
  3
C2
350
5E
  3
C3
350
5F
  3
C4
350
60
  3
C5
350
61
  3
C6
350
62
  3
C7
350
63
  3
C8
350
64
  3
C9
350
65
  3
D0
350
66
  3
D1
350
67
  3
D2
350
68
  0
DICTIONARY
  5
2A7
102
{ACAD_REACTORS
330
C
102
}
330
C
100
AcDbDictionary
281
     1
  0
DICTIONARY
  5
2A1
102
{ACAD_REACTORS
330
C
102
}
330
C
100
AcDbDictionary
281
     1
  0
DICTIONARY
  5
280
102
{ACAD_REACTORS
330
C
102
}
330
C
100
AcDbDictionary
281
     1
  0
XRECORD
  5
2CF
102
{ACAD_REACTORS
330
C
102
}
330
C
100
AcDbXrecord
280
     1
  1
DWGPROPS COOKIE
  2

  3

  4

  6

  7

  8
12014102
  9

300
=
301
=
302
=
303
=
304
=
305
=
306
=
307
=
308
=
309
=
 40
0.0
 41
2458270.406574271
 42
2459720.376117222
  1

 90
        0
  0
DICTIONARY
  5
2CE
102
{ACAD_REACTORS
330
2CD
102
}
330
2CD
100
AcDbDictionary
281
     1
  0
LAYOUT
  5
1E
102
{ACAD_REACTORS
330
1A
102
}
330
1A
100
AcDbPlotSettings
  1

  2
none_device
  4

  6

 40
0.0
 41
0.0
 42
0.0
 43
0.0
 44
0.0
 45
0.0
 46
0.0
 47
0.0
 48
0.0
 49
0.0
140
0.0
141
0.0
142
1.0
143
1.0
 70
   688
 72
     1
 73
     0
 74
     5
  7

 75
    16
147
1.0
148
0.0
149
0.0
100
AcDbLayout
  1
Layout1
 70
     1
 71
     1
 10
0.0
 20
0.0
 11
420.0
 21
297.0
 12
0.0
 22
0.0
 32
0.0
 14
1.000000000000000E+20
 24
1.000000000000000E+20
 34
1.000000000000000E+20
 15
-1.000000000000000E+20
 25
-1.000000000000000E+20
 35
-1.000000000000000E+20
146
0.0
 13
0.0
 23
0.0
 33
0.0
 16
1.0
 26
0.0
 36
0.0
 17
0.0
 27
1.0
 37
0.0
 76
     0
330
1B
  0
LAYOUT
  5
26
102
{ACAD_REACTORS
330
1A
102
}
330
1A
100
AcDbPlotSettings
  1

  2
none_device
  4

  6

 40
0.0
 41
0.0
 42
0.0
 43
0.0
 44
0.0
 45
0.0
 46
0.0
 47
0.0
 48
0.0
 49
0.0
140
0.0
141
0.0
142
1.0
143
1.0
 70
   688
 72
     1
 73
     0
 74
     5
  7

 75
    16
147
1.0
148
0.0
149
0.0
100
AcDbLayout
  1
Layout2
 70
     1
 71
     2
 10
0.0
 20
0.0
 11
0.0
 21
0.0
 12
0.0
 22
0.0
 32
0.0
 14
0.0
 24
0.0
 34
0.0
 15
0.0
 25
0.0
 35
0.0
146
0.0
 13
0.0
 23
0.0
 33
0.0
 16
1.0
 26
0.0
 36
0.0
 17
0.0
 27
1.0
 37
0.0
 76
     0
330
23
  0
LAYOUT
  5
22
102
{ACAD_REACTORS
330
1A
102
}
330
1A
100
AcDbPlotSettings
  1

  2
none_device
  4
ANSI_A_(11.00_x_8.50_Inches)
  6

 40
6.35
 41
19.05
 42
6.35000508
 43
19.05000254
 44
279.4
 45
215.9
 46
154.1920544397954
 47
103.135883194385
 48
0.0
 49
0.0
140
0.0
141
0.0
142
0.0800735294117647
143
1.0
 70
  1696
 72
     0
 73
     0
 74
     0
  7

 75
     0
147
0.0235690232323232
148
0.0
149
0.0
100
AcDbLayout
  1
Model
 70
     1
 71
     0
 10
0.0
 20
0.0
 11
420.0
 21
297.0
 12
0.0
 22
0.0
 32
0.0
 14
-49.5098406524088
 24
-49.97180738881174
 34
0.0
 15
52.55449193088917
 25
37.83643533958066
 35
0.0
146
0.0
 13
0.0
 23
0.0
 33
0.0
 16
1.0
 26
0.0
 36
0.0
 17
0.0
 27
1.0
 37
0.0
 76
     0
330
1F
331
29
  0
MLINESTYLE
  5
18
102
{ACAD_REACTORS
330
17
102
}
330
17
100
AcDbMlineStyle
  2
Standard
 70
     0
  3

 62
   256
 51
90.0
 52
90.0
 71
     2
 49
0.5
 62
   256
  6
BYLAYER
 49
-0.5
 62
   256
  6
BYLAYER
  0
ACDBPLACEHOLDER
  5
F
102
{ACAD_REACTORS
330
E
102
}
330
E
  0
SCALE
  5
48
102
{ACAD_REACTORS
330
47
102
}
330
47
100
AcDbScale
 70
     0
300
1:1
140
1.0
141
1.0
290
     1
  0
SCALE
  5
49
102
{ACAD_REACTORS
330
47
102
}
330
47
100
AcDbScale
 70
     0
300
1:2
140
1.0
141
2.0
290
     0
  0
SCALE
  5
4A
102
{ACAD_REACTORS
330
47
102
}
330
47
100
AcDbScale
 70
     0
300
1:4
140
1.0
141
4.0
290
     0
  0
SCALE
  5
4B
102
{ACAD_REACTORS
330
47
102
}
330
47
100
AcDbScale
 70
     0
300
1:5
140
1.0
141
5.0
290
     0
  0
SCALE
  5
4C
102
{ACAD_REACTORS
330
47
102
}
330
47
100
AcDbScale
 70
     0
300
1:8
140
1.0
141
8.0
290
     0
  0
SCALE
  5
4D
102
{ACAD_REACTORS
330
47
102
}
330
47
100
AcDbScale
 70
     0
300
1:10
140
1.0
141
10.0
290
     0
  0
SCALE
  5
4E
102
{ACAD_REACTORS
330
47
102
}
330
47
100
AcDbScale
 70
     0
300
1:16
140
1.0
141
16.0
290
     0
  0
SCALE
  5
4F
102
{ACAD_REACTORS
330
47
102
}
330
47
100
AcDbScale
 70
     0
300
1:20
140
1.0
141
20.0
290
     0
  0
SCALE
  5
50
102
{ACAD_REACTORS
330
47
102
}
330
47
100
AcDbScale
 70
     0
300
1:30
140
1.0
141
30.0
290
     0
  0
SCALE
  5
51
102
{ACAD_REACTORS
330
47
102
}
330
47
100
AcDbScale
 70
     0
300
1:40
140
1.0
141
40.0
290
     0
  0
SCALE
  5
52
102
{ACAD_REACTORS
330
47
102
}
330
47
100
AcDbScale
 70
     0
300
1:50
140
1.0
141
50.0
290
     0
  0
SCALE
  5
53
102
{ACAD_REACTORS
330
47
102
}
330
47
100
AcDbScale
 70
     0
300
1:100
140
1.0
141
100.0
290
     0
  0
SCALE
  5
54
102
{ACAD_REACTORS
330
47
102
}
330
47
100
AcDbScale
 70
     0
300
2:1
140
2.0
141
1.0
290
     0
  0
SCALE
  5
55
102
{ACAD_REACTORS
330
47
102
}
330
47
100
AcDbScale
 70
     0
300
4:1
140
4.0
141
1.0
290
     0
  0
SCALE
  5
56
102
{ACAD_REACTORS
330
47
102
}
330
47
100
AcDbScale
 70
     0
300
8:1
140
8.0
141
1.0
290
     0
  0
SCALE
  5
57
102
{ACAD_REACTORS
330
47
102
}
330
47
100
AcDbScale
 70
     0
300
10:1
140
10.0
141
1.0
290
     0
  0
SCALE
  5
58
102
{ACAD_REACTORS
330
47
102
}
330
47
100
AcDbScale
 70
     0
300
100:1
140
100.0
141
1.0
290
     0
  0
SCALE
  5
59
102
{ACAD_REACTORS
330
47
102
}
330
47
100
AcDbScale
 70
     0
300
1/128" = 1'-0"
140
0.0078125
141
12.0
290
     0
  0
SCALE
  5
5A
102
{ACAD_REACTORS
330
47
102
}
330
47
100
AcDbScale
 70
     0
300
1/64" = 1'-0"
140
0.015625
141
12.0
290
     0
  0
SCALE
  5
5B
102
{ACAD_REACTORS
330
47
102
}
330
47
100
AcDbScale
 70
     0
300
1/32" = 1'-0"
140
0.03125
141
12.0
290
     0
  0
SCALE
  5
5C
102
{ACAD_REACTORS
330
47
102
}
330
47
100
AcDbScale
 70
     0
300
1/16" = 1'-0"
140
0.0625
141
12.0
290
     0
  0
SCALE
  5
5D
102
{ACAD_REACTORS
330
47
102
}
330
47
100
AcDbScale
 70
     0
300
3/32" = 1'-0"
140
0.09375
141
12.0
290
     0
  0
SCALE
  5
5E
102
{ACAD_REACTORS
330
47
102
}
330
47
100
AcDbScale
 70
     0
300
1/8" = 1'-0"
140
0.125
141
12.0
290
     0
  0
SCALE
  5
5F
102
{ACAD_REACTORS
330
47
102
}
330
47
100
AcDbScale
 70
     0
300
3/16" = 1'-0"
140
0.1875
141
12.0
290
     0
  0
SCALE
  5
60
102
{ACAD_REACTORS
330
47
102
}
330
47
100
AcDbScale
 70
     0
300
1/4" = 1'-0"
140
0.25
141
12.0
290
     0
  0
SCALE
  5
61
102
{ACAD_REACTORS
330
47
102
}
330
47
100
AcDbScale
 70
     0
300
3/8" = 1'-0"
140
0.375
141
12.0
290
     0
  0
SCALE
  5
62
102
{ACAD_REACTORS
330
47
102
}
330
47
100
AcDbScale
 70
     0
300
1/2" = 1'-0"
140
0.5
141
12.0
290
     0
  0
SCALE
  5
63
102
{ACAD_REACTORS
330
47
102
}
330
47
100
AcDbScale
 70
     0
300
3/4" = 1'-0"
140
0.75
141
12.0
290
     0
  0
SCALE
  5
64
102
{ACAD_REACTORS
330
47
102
}
330
47
100
AcDbScale
 70
     0
300
1" = 1'-0"
140
1.0
141
12.0
290
     0
  0
SCALE
  5
65
102
{ACAD_REACTORS
330
47
102
}
330
47
100
AcDbScale
 70
     0
300
1-1/2" = 1'-0"
140
1.5
141
12.0
290
     0
  0
SCALE
  5
66
102
{ACAD_REACTORS
330
47
102
}
330
47
100
AcDbScale
 70
     0
300
3" = 1'-0"
140
3.0
141
12.0
290
     0
  0
SCALE
  5
67
102
{ACAD_REACTORS
330
47
102
}
330
47
100
AcDbScale
 70
     0
300
6" = 1'-0"
140
6.0
141
12.0
290
     0
  0
SCALE
  5
68
102
{ACAD_REACTORS
330
47
102
}
330
47
100
AcDbScale
 70
     0
300
1'-0" = 1'-0"
140
12.0
141
12.0
290
     0
  0
ENDSEC
  0
EOF
