  0
SECTION
  2
HEADER
  9
$ACADVER
  1
AC1015
  9
$ACADMAINTVER
 70
     6
  9
$DWGCODEPAGE
  3
ANSI_949
  9
$INSBASE
 10
0.0
 20
0.0
 30
0.0
  9
$EXTMIN
 10
-59.03484065240882
 20
-49.97180738881174
 30
0.0
  9
$EXTMAX
 10
53.06538910758555
 20
39.6235281925114
 30
0.0
  9
$LIMMIN
 10
0.0
 20
0.0
  9
$LIMMAX
 10
420.0
 20
297.0
  9
$ORTHOMODE
 70
     1
  9
$REGENMODE
 70
     1
  9
$FILLMODE
 70
     1
  9
$QTEXTMODE
 70
     0
  9
$MIRRTEXT
 70
     1
  9
$LTSCALE
 40
1.0
  9
$ATTMODE
 70
     1
  9
$TEXTSIZE
 40
3.5
  9
$TRACEWID
 40
1.0
  9
$TEXTSTYLE
  7
Standard
  9
$CLAYER
  8
0
  9
$CELTYPE
  6
ByLayer
  9
$CECOLOR
 62
   256
  9
$CELTSCALE
 40
1.0
  9
$DISPSILH
 70
     0
  9
$DIMSCALE
 40
1.0
  9
$DIMASZ
 40
3.302
  9
$DIMEXO
 40
1.0
  9
$DIMDLI
 40
3.75
  9
$DIMRND
 40
0.0
  9
$DIMDLE
 40
0.0
  9
$DIMEXE
 40
1.0
  9
$DIMTP
 40
0.0
  9
$DIMTM
 40
0.0
  9
$DIMTXT
 40
3.5
  9
$DIMCEN
 40
2.5
  9
$DIMTSZ
 40
0.0
  9
$DIMTOL
 70
     0
  9
$DIMLIM
 70
     0
  9
$DIMTIH
 70
     1
  9
$DIMTOH
 70
     1
  9
$DIMSE1
 70
     0
  9
$DIMSE2
 70
     0
  9
$DIMTAD
 70
     1
  9
$DIMZIN
 70
     0
  9
$DIMBLK
  1

  9
$DIMASO
 70
     1
  9
$DIMSHO
 70
     1
  9
$DIMPOST
  1

  9
$DIMAPOST
  1

  9
$DIMALT
 70
     0
  9
$DIMALTD
 70
     3
  9
$DIMALTF
 40
0.0393700787401575
  9
$DIMLFAC
 40
1.0
  9
$DIMTOFL
 70
     1
  9
$DIMTVP
 40
0.0
  9
$DIMTIX
 70
     0
  9
$DIMSOXD
 70
     0
  9
$DIMSAH
 70
     0
  9
$DIMBLK1
  1

  9
$DIMBLK2
  1

  9
$DIMSTYLE
  2
ISO-25
  9
$DIMCLRD
 70
     0
  9
$DIMCLRE
 70
     0
  9
$DIMCLRT
 70
     0
  9
$DIMTFAC
 40
1.0
  9
$DIMGAP
 40
1.524
  9
$DIMJUST
 70
     0
  9
$DIMSD1
 70
     0
  9
$DIMSD2
 70
     0
  9
$DIMTOLJ
 70
     0
  9
$DIMTZIN
 70
     0
  9
$DIMALTZ
 70
     0
  9
$DIMALTTZ
 70
     0
  9
$DIMUPT
 70
     0
  9
$DIMDEC
 70
     2
  9
$DIMTDEC
 70
     2
  9
$DIMALTU
 70
     2
  9
$DIMALTTD
 70
     3
  9
$DIMTXSTY
  7
Standard
  9
$DIMAUNIT
 70
     0
  9
$DIMADEC
 70
     2
  9
$DIMALTRND
 40
0.0
  9
$DIMAZIN
 70
     0
  9
$DIMDSEP
 70
    44
  9
$DIMATFIT
 70
     3
  9
$DIMFRAC
 70
     0
  9
$DIMLDRBLK
  1

  9
$DIMLUNIT
 70
     2
  9
$DIMLWD
 70
    -2
  9
$DIMLWE
 70
    -2
  9
$DIMTMOVE
 70
     0
  9
$LUNITS
 70
     2
  9
$LUPREC
 70
     2
  9
$SKETCHINC
 40
1.0
  9
$FILLETRAD
 40
10.0
  9
$AUNITS
 70
     0
  9
$AUPREC
 70
     2
  9
$MENU
  1
.
  9
$ELEVATION
 40
0.0
  9
$PELEVATION
 40
0.0
  9
$THICKNESS
 40
0.0
  9
$LIMCHECK
 70
     0
  9
$CHAMFERA
 40
0.0
  9
$CHAMFERB
 40
0.0
  9
$CHAMFERC
 40
0.0
  9
$CHAMFERD
 40
0.0
  9
$SKPOLY
 70
     0
  9
$TDCREATE
 40
2458270.781788044
  9
$TDUCREATE
 40
2458270.406788044
  9
$TDUPDATE
 40
2459720.748734722
  9
$TDUUPDATE
 40
2459720.373734722
  9
$TDINDWG
 40
0.0034687037
  9
$TDUSRTIMER
 40
0.0003452546
  9
$USRTIMER
 70
     1
  9
$ANGBASE
 50
0.0
  9
$ANGDIR
 70
     0
  9
$PDMODE
 70
     0
  9
$PDSIZE
 40
-1.0
  9
$PLINEWID
 40
0.0
  9
$SPLFRAME
 70
     0
  9
$SPLINETYPE
 70
     6
  9
$SPLINESEGS
 70
     8
  9
$HANDSEED
  5
2FD
  9
$SURFTAB1
 70
     6
  9
$SURFTAB2
 70
     6
  9
$SURFTYPE
 70
     6
  9
$SURFU
 70
     6
  9
$SURFV
 70
     6
  9
$UCSBASE
  2

  9
$UCSNAME
  2

  9
$UCSORG
 10
0.0
 20
0.0
 30
0.0
  9
$UCSXDIR
 10
1.0
 20
0.0
 30
0.0
  9
$UCSYDIR
 10
0.0
 20
1.0
 30
0.0
  9
$UCSORTHOREF
  2

  9
$UCSORTHOVIEW
 70
     0
  9
$UCSORGTOP
 10
0.0
 20
0.0
 30
0.0
  9
$UCSORGBOTTOM
 10
0.0
 20
0.0
 30
0.0
  9
$UCSORGLEFT
 10
0.0
 20
0.0
 30
0.0
  9
$UCSORGRIGHT
 10
0.0
 20
0.0
 30
0.0
  9
$UCSORGFRONT
 10
0.0
 20
0.0
 30
0.0
  9
$UCSORGBACK
 10
0.0
 20
0.0
 30
0.0
  9
$PUCSBASE
  2

  9
$PUCSNAME
  2

  9
$PUCSORG
 10
0.0
 20
0.0
 30
0.0
  9
$PUCSXDIR
 10
1.0
 20
0.0
 30
0.0
  9
$PUCSYDIR
 10
0.0
 20
1.0
 30
0.0
  9
$PUCSORTHOREF
  2

  9
$PUCSORTHOVIEW
 70
     0
  9
$PUCSORGTOP
 10
0.0
 20
0.0
 30
0.0
  9
$PUCSORGBOTTOM
 10
0.0
 20
0.0
 30
0.0
  9
$PUCSORGLEFT
 10
0.0
 20
0.0
 30
0.0
  9
$PUCSORGRIGHT
 10
0.0
 20
0.0
 30
0.0
  9
$PUCSORGFRONT
 10
0.0
 20
0.0
 30
0.0
  9
$PUCSORGBACK
 10
0.0
 20
0.0
 30
0.0
  9
$USERI1
 70
     0
  9
$USERI2
 70
     0
  9
$USERI3
 70
     0
  9
$USERI4
 70
     0
  9
$USERI5
 70
     0
  9
$USERR1
 40
0.0
  9
$USERR2
 40
0.0
  9
$USERR3
 40
0.0
  9
$USERR4
 40
0.0
  9
$USERR5
 40
0.0
  9
$WORLDVIEW
 70
     1
  9
$SHADEDGE
 70
     3
  9
$SHADEDIF
 70
    70
  9
$TILEMODE
 70
     1
  9
$MAXACTVP
 70
    64
  9
$PINSBASE
 10
0.0
 20
0.0
 30
0.0
  9
$PLIMCHECK
 70
     0
  9
$PEXTMIN
 10
1.000000000000000E+20
 20
1.000000000000000E+20
 30
1.000000000000000E+20
  9
$PEXTMAX
 10
-1.000000000000000E+20
 20
-1.000000000000000E+20
 30
-1.000000000000000E+20
  9
$PLIMMIN
 10
0.0
 20
0.0
  9
$PLIMMAX
 10
0.0
 20
0.0
  9
$UNITMODE
 70
     0
  9
$VISRETAIN
 70
     1
  9
$PLINEGEN
 70
     0
  9
$PSLTSCALE
 70
     1
  9
$TREEDEPTH
 70
  3020
  9
$CMLSTYLE
  2
Standard
  9
$CMLJUST
 70
     0
  9
$CMLSCALE
 40
20.0
  9
$PROXYGRAPHICS
 70
     1
  9
$MEASUREMENT
 70
     1
  9
$CELWEIGHT
370
    -1
  9
$ENDCAPS
280
     0
  9
$JOINSTYLE
280
     0
  9
$LWDISPLAY
290
     1
  9
$INSUNITS
 70
     4
  9
$HYPERLINKBASE
  1

  9
$STYLESHEET
  1

  9
$XEDIT
290
     1
  9
$CEPSNTYPE
380
     0
  9
$PSTYLEMODE
290
     1
  9
$FINGERPRINTGUID
  2
{2ADF4CC2-F3B5-4AD1-8104-725347E6FC45}
  9
$VERSIONGUID
  2
{FAEB1C32-E019-11D5-929B-00C0DF256EC4}
  9
$EXTNAMES
290
     1
  9
$PSVPSCALE
 40
0.0
  9
$OLESTARTUP
290
     0
  0
ENDSEC
  0
SECTION
  2
CLASSES
  0
CLASS
  1
ACDBDICTIONARYWDFLT
  2
AcDbDictionaryWithDefault
  3
ObjectDBX Classes
 90
        0
280
     0
281
     0
  0
CLASS
  1
VISUALSTYLE
  2
AcDbVisualStyle
  3
ObjectDBX Classes
 90
     4095
280
     0
281
     0
  0
CLASS
  1
MATERIAL
  2
AcDbMaterial
  3
ObjectDBX Classes
 90
     1153
280
     0
281
     0
  0
CLASS
  1
SCALE
  2
AcDbScale
  3
ObjectDBX Classes
 90
     1153
280
     0
281
     0
  0
CLASS
  1
SUN
  2
AcDbSun
  3
SCENEOE
 90
     1153
280
     0
281
     0
  0
CLASS
  1
ACDBPLACEHOLDER
  2
AcDbPlaceHolder
  3
ObjectDBX Classes
 90
        0
280
     0
281
     0
  0
CLASS
  1
LAYOUT
  2
AcDbLayout
  3
ObjectDBX Classes
 90
        0
280
     0
281
     0
  0
CLASS
  1
TABLESTYLE
  2
AcDbTableStyle
  3
ObjectDBX Classes
 90
     4095
280
     0
281
     0
  0
CLASS
  1
MLEADERSTYLE
  2
AcDbMLeaderStyle
  3
ACDB_MLEADERSTYLE_CLASS
 90
     4095
280
     0
281
     0
  0
CLASS
  1
RASTERVARIABLES
  2
AcDbRasterVariables
  3
ISM
 90
        0
280
     0
281
     0
  0
ENDSEC
  0
SECTION
  2
TABLES
  0
TABLE
  2
VPORT
  5
8
330
0
100
AcDbSymbolTable
 70
     1
  0
VPORT
  5
29
330
8
100
AcDbSymbolTableRecord
100
AcDbViewportTableRecord
  2
*Active
 70
     0
 10
0.0
 20
0.0
 11
1.0
 21
1.0
 12
-2.984725772411636
 22
-5.174139598150163
 13
0.0
 23
0.0
 14
10.0
 24
10.0
 15
10.0
 25
10.0
 16
0.0
 26
0.0
 36
1.0
 17
0.0
 27
0.0
 37
0.0
 40
91.38724229294962
 41
1.913499344692005
 42
50.0
 43
0.0
 44
0.0
 50
0.0
 51
0.0
 71
    16
 72
  2000
 73
     1
 74
     3
 75
     0
 76
     0
 77
     0
 78
     0
281
     0
 65
     1
110
0.0
120
0.0
130
0.0
111
1.0
121
0.0
131
0.0
112
0.0
122
1.0
132
0.0
 79
     0
146
0.0
  0
ENDTAB
  0
TABLE
  2
LTYPE
  5
5
330
0
100
AcDbSymbolTable
 70
     6
  0
LTYPE
  5
14
330
5
100
AcDbSymbolTableRecord
100
AcDbLinetypeTableRecord
  2
ByBlock
 70
     0
  3

 72
    65
 73
     0
 40
0.0
  0
LTYPE
  5
15
330
5
100
AcDbSymbolTableRecord
100
AcDbLinetypeTableRecord
  2
ByLayer
 70
     0
  3

 72
    65
 73
     0
 40
0.0
  0
LTYPE
  5
16
330
5
100
AcDbSymbolTableRecord
100
AcDbLinetypeTableRecord
  2
Continuous
 70
     0
  3
Solid line
 72
    65
 73
     0
 40
0.0
  0
LTYPE
  5
6A
330
5
100
AcDbSymbolTableRecord
100
AcDbLinetypeTableRecord
  2
HIDDEN
 70
     0
  3
Hidden __ __ __ __ __ __ __ __ __ __ __ __ __ __
 72
    65
 73
     2
 40
1.905
 49
1.27
 74
     0
 49
-0.635
 74
     0
  0
LTYPE
  5
6B
330
5
100
AcDbSymbolTableRecord
100
AcDbLinetypeTableRecord
  2
PHANTOM
 70
     0
  3
Phantom ______  __  __  ______  __  __  ______
 72
    65
 73
     6
 40
12.7
 49
6.35
 74
     0
 49
-1.27
 74
     0
 49
1.27
 74
     0
 49
-1.27
 74
     0
 49
1.27
 74
     0
 49
-1.27
 74
     0
  0
LTYPE
  5
6C
330
5
100
AcDbSymbolTableRecord
100
AcDbLinetypeTableRecord
  2
CENTER
 70
     0
  3
Center ____ _ ____ _ ____ _ ____ _ ____ _ ____
 72
    65
 73
     4
 40
10.16
 49
6.35
 74
     0
 49
-1.27
 74
     0
 49
1.27
 74
     0
 49
-1.27
 74
     0
  0
LTYPE
  5
6D
330
5
100
AcDbSymbolTableRecord
100
AcDbLinetypeTableRecord
  2
CENTERX2
 70
     0
  3
Center (2x) ________  __  ________  __  _____
 72
    65
 73
     4
 40
20.32
 49
12.7
 74
     0
 49
-2.54
 74
     0
 49
2.54
 74
     0
 49
-2.54
 74
     0
  0
LTYPE
  5
6E
330
5
100
AcDbSymbolTableRecord
100
AcDbLinetypeTableRecord
  2
DOT2
 70
     0
  3
Dot (.5x) ........................................
 72
    65
 73
     2
 40
0.635
 49
0.0
 74
     0
 49
-0.635
 74
     0
  0
ENDTAB
  0
TABLE
  2
LAYER
  5
2
330
0
100
AcDbSymbolTable
 70
    17
  0
LAYER
  5
10
330
2
100
AcDbSymbolTableRecord
100
AcDbLayerTableRecord
  2
0
 70
     0
 62
     7
  6
Continuous
370
    -3
390
F
  0
LAYER
  5
6F
330
2
100
AcDbSymbolTableRecord
100
AcDbLayerTableRecord
  2
FORMAT
 70
     0
 62
     2
  6
Continuous
370
    -3
390
F
  0
LAYER
  5
70
330
2
100
AcDbSymbolTableRecord
100
AcDbLayerTableRecord
  2
외형선
 70
     0
 62
   100
  6
Continuous
370
    30
390
F
  0
LAYER
  5
71
330
2
100
AcDbSymbolTableRecord
100
AcDbLayerTableRecord
  2
숨은선
 70
     0
 62
     2
  6
HIDDEN
370
    15
390
F
  0
LAYER
  5
72
330
2
100
AcDbSymbolTableRecord
100
AcDbLayerTableRecord
  2
중심선
 70
     0
 62
     1
  6
CENTERX2
370
    -3
390
F
  0
LAYER
  5
73
330
2
100
AcDbSymbolTableRecord
100
AcDbLayerTableRecord
  2
파단선
 70
     0
 62
     4
  6
Continuous
370
    -3
390
F
  0
LAYER
  5
74
330
2
100
AcDbSymbolTableRecord
100
AcDbLayerTableRecord
  2
해칭선
 70
     0
 62
     4
  6
Continuous
370
    -3
390
F
  0
LAYER
  5
75
330
2
100
AcDbSymbolTableRecord
100
AcDbLayerTableRecord
  2
가는실선
 70
     0
 62
     4
  6
Continuous
370
    -3
390
F
  0
LAYER
  5
76
330
2
100
AcDbSymbolTableRecord
100
AcDbLayerTableRecord
  2
치수_보조선
 70
     0
 62
     4
  6
Continuous
370
    -3
390
F
  0
LAYER
  5
77
330
2
100
AcDbSymbolTableRecord
100
AcDbLayerTableRecord
  2
치수문자_일반주서
 70
     0
 62
     7
  6
Continuous
370
    15
390
F
  0
LAYER
  5
78
330
2
100
AcDbSymbolTableRecord
100
AcDbLayerTableRecord
  2
개별주서
 70
     0
 62
   100
  6
Continuous
370
    30
390
F
  0
LAYER
  5
79
330
2
100
AcDbSymbolTableRecord
100
AcDbLayerTableRecord
  2
중간선
 70
     0
 62
     2
  6
Continuous
370
    15
390
F
  0
LAYER
  5
7A
330
2
100
AcDbSymbolTableRecord
100
AcDbLayerTableRecord
  2
윤곽선
 70
     0
 62
     3
  6
Continuous
370
    40
390
F
  0
LAYER
  5
7B
330
2
100
AcDbSymbolTableRecord
100
AcDbLayerTableRecord
  2
중심마크
 70
     0
 62
   100
  6
Continuous
370
    30
390
F
  0
LAYER
  5
7C
330
2
100
AcDbSymbolTableRecord
100
AcDbLayerTableRecord
  2
가상선
 70
     0
 62
     4
  6
PHANTOM
370
    -3
390
F
  0
LAYER
  5
7D
330
2
100
AcDbSymbolTableRecord
100
AcDbLayerTableRecord
  2
특수지정선
 70
     0
 62
     5
  6
CENTERX2
370
    60
390
F
  0
LAYER
  5
2BF
330
2
100
AcDbSymbolTableRecord
100
AcDbLayerTableRecord
  2
Defpoints
 70
     0
 62
     7
  6
Continuous
290
     0
370
    -3
390
F
  0
ENDTAB
  0
TABLE
  2
STYLE
  5
3
330
0
100
AcDbSymbolTable
 70
     2
  0
STYLE
  5
11
330
3
100
AcDbSymbolTableRecord
100
AcDbTextStyleTableRecord
  2
Standard
 70
     0
 40
0.0
 41
1.0
 50
0.0
 71
     0
 42
3.5
  3
txt
  4

  0
STYLE
  5
93
330
3
100
AcDbSymbolTableRecord
100
AcDbTextStyleTableRecord
  2
SLDTEXTSTYLE0
 70
     0
 40
0.0
 41
0.75
 50
0.0
 71
     0
 42
3.5
  3
TXT
  4

  0
ENDTAB
  0
TABLE
  2
VIEW
  5
6
330
0
100
AcDbSymbolTable
 70
     0
  0
ENDTAB
  0
TABLE
  2
UCS
  5
7
330
0
100
AcDbSymbolTable
 70
     0
  0
ENDTAB
  0
TABLE
  2
APPID
  5
9
330
0
100
AcDbSymbolTable
 70
     2
  0
APPID
  5
12
330
9
100
AcDbSymbolTableRecord
100
AcDbRegAppTableRecord
  2
ACAD
 70
     0
  0
APPID
  5
2CF
330
9
100
AcDbSymbolTableRecord
100
AcDbRegAppTableRecord
  2
PE_DIMMEASUREMENT
 70
     0
  0
ENDTAB
  0
TABLE
  2
DIMSTYLE
  5
A
330
0
100
AcDbSymbolTable
 70
     3
100
AcDbDimStyleTable
  0
DIMSTYLE
105
27
330
A
100
AcDbSymbolTableRecord
100
AcDbDimStyleTableRecord
  2
ISO-25
 70
     0
 41
2.5
 42
0.625
 43
3.75
 44
1.25
 73
     0
 74
     0
 77
     1
 78
     8
140
2.5
141
2.5
143
0.03937007874016
147
0.625
171
     3
172
     1
178
     0
271
     2
272
     2
274
     3
278
    44
283
     0
284
     8
340
11
  0
DIMSTYLE
105
253
102
{ACAD_REACTORS
330
252
330
27C
330
2C0
102
}
330
A
100
AcDbSymbolTableRecord
100
AcDbDimStyleTableRecord
  2
SLDDIMSTYLE0
 70
     0
 41
3.302
 44
0.0
 45
0.000000001
 73
     0
 74
     0
 77
     1
 78
     4
 79
     1
140
3.5
143
0.0393700787401575
147
0.875
148
0.000000001
170
     1
172
     1
173
     1
178
     0
271
     2
272
     2
276
     2
284
    12
289
     0
340
93
  0
DIMSTYLE
105
269
102
{ACAD_REACTORS
330
268
102
}
330
A
100
AcDbSymbolTableRecord
100
AcDbDimStyleTableRecord
  2
SLDDIMSTYLE1
 70
     0
 41
3.302
 44
0.0
 45
0.000000001
 73
     0
 74
     0
 77
     1
 78
     4
 79
     1
140
3.5
143
0.0393700787401575
147
0.875
148
0.000000001
170
     1
173
     1
178
     0
271
     2
272
     2
276
     2
284
    12
340
93
  0
ENDTAB
  0
TABLE
  2
BLOCK_RECORD
  5
1
330
0
100
AcDbSymbolTable
 70
     7
  0
BLOCK_RECORD
  5
1F
102
{ACAD_XDICTIONARY
360
2FA
102
}
330
1
100
AcDbSymbolTableRecord
100
AcDbBlockTableRecord
  2
*Model_Space
340
22
  0
BLOCK_RECORD
  5
1B
330
1
100
AcDbSymbolTableRecord
100
AcDbBlockTableRecord
  2
*Paper_Space
340
1E
  0
BLOCK_RECORD
  5
23
330
1
100
AcDbSymbolTableRecord
100
AcDbBlockTableRecord
  2
*Paper_Space0
340
26
  0
BLOCK_RECORD
  5
7E
330
1
100
AcDbSymbolTableRecord
100
AcDbBlockTableRecord
  2
블럭10
340
0
102
{BLKREFS
331
24A
102
}
  0
BLOCK_RECORD
  5
254
330
1
100
AcDbSymbolTableRecord
100
AcDbBlockTableRecord
  2
_D
340
0
  0
BLOCK_RECORD
  5
26A
330
1
100
AcDbSymbolTableRecord
100
AcDbBlockTableRecord
  2
_D_1
340
0
  0
BLOCK_RECORD
  5
27D
330
1
100
AcDbSymbolTableRecord
100
AcDbBlockTableRecord
  2
_D_2
340
0
  0
BLOCK_RECORD
  5
290
330
1
100
AcDbSymbolTableRecord
100
AcDbBlockTableRecord
  2
SW_DOWELSYMBOL_0
340
0
102
{BLKREFS
331
296
102
}
  0
BLOCK_RECORD
  5
2C1
330
1
100
AcDbSymbolTableRecord
100
AcDbBlockTableRecord
  2
*D6
340
0
  0
ENDTAB
  0
ENDSEC
  0
SECTION
  2
BLOCKS
  0
BLOCK
  5
20
330
1F
100
AcDbEntity
  8
0
100
AcDbBlockBegin
  2
*Model_Space
 70
     0
 10
0.0
 20
0.0
 30
0.0
  3
*Model_Space
  1
*Model_Space
  0
ENDBLK
  5
21
330
1F
100
AcDbEntity
  8
0
100
AcDbBlockEnd
  0
BLOCK
  5
1C
330
1B
100
AcDbEntity
 67
     1
  8
0
100
AcDbBlockBegin
  2
*Paper_Space
 70
     0
 10
0.0
 20
0.0
 30
0.0
  3
*Paper_Space
  1
*Paper_Space
  0
ENDBLK
  5
1D
330
1B
100
AcDbEntity
 67
     1
  8
0
100
AcDbBlockEnd
  0
BLOCK
  5
24
330
23
100
AcDbEntity
  8
0
100
AcDbBlockBegin
  2
*Paper_Space0
 70
     0
 10
0.0
 20
0.0
 30
0.0
  3
*Paper_Space0
  1
*Paper_Space0
  0
ENDBLK
  5
25
330
23
100
AcDbEntity
  8
0
100
AcDbBlockEnd
  0
BLOCK
  5
7F
330
7E
100
AcDbEntity
  8
0
100
AcDbBlockBegin
  2
블럭10
 70
     2
 10
0.0
 20
0.0
 30
0.0
  3
블럭10
  1
블럭10
  0
ELLIPSE
  5
81
330
7E
100
AcDbEntity
  8
중심선
100
AcDbEllipse
 10
20.54032771741204
 20
12.0471743016438
 30
0.0
 11
6.600054785286829
 21
-1.261213355974178E-13
 31
0.0
210
0.0
220
0.0
230
1.0
 40
0.636358354079598
 41
0.9219305317359503
 42
6.513795318482858
  0
ELLIPSE
  5
82
330
7E
100
AcDbEntity
  8
중심선
100
AcDbEllipse
 10
20.54032771746488
 20
12.04717430159265
 30
0.0
 11
3.960054785062283
 21
1.540847449632565E-10
 31
0.0
210
0.0
220
0.0
230
1.0
 40
0.3939339440162632
 41
1.131841032648279
 42
5.62031148352944
  0
LINE
  5
83
330
7E
100
AcDbEntity
  8
중심선
100
AcDbLine
 10
2.268634060543552
 20
16.24717430164393
 30
0.0
 11
5.714909304380834
 21
16.24717430164393
 31
0.0
  0
LINE
  5
84
330
7E
100
AcDbEntity
  8
중심선
100
AcDbLine
 10
5.245725140726316
 20
7.84717430164391
 30
0.0
 11
8.692000384563599
 21
7.84717430164391
 31
0.0
  0
LINE
  5
85
330
7E
100
AcDbEntity
  8
중심선
100
AcDbLine
 10
15.74043728645272
 20
16.24717430164393
 30
0.0
 11
8.692000384563599
 21
7.84717430164391
 31
0.0
  0
LINE
  5
86
330
7E
100
AcDbEntity
  8
중심선
100
AcDbLine
 10
0.1404042013395286
 20
13.71084872107135
 30
0.0
 11
3.58671253028996
 21
13.71088815037384
 31
0.0
  0
LINE
  5
87
330
7E
100
AcDbEntity
  8
중심선
100
AcDbLine
 10
2.750260043222114
 20
10.84717430164391
 30
0.0
 11
6.196535287059397
 21
10.84717430164391
 31
0.0
  0
LINE
  5
88
330
7E
100
AcDbEntity
  8
중심선
100
AcDbLine
 10
12.29416204261559
 20
16.24717430164393
 30
0.0
 11
5.245725140726316
 21
7.84717430164391
 31
0.0
  0
LINE
  5
89
330
7E
100
AcDbEntity
  8
중심선
100
AcDbLine
 10
10.72767329541681
 20
16.24717430164393
 30
0.0
 11
6.196535287059397
 21
10.84717430164391
 31
0.0
  0
LINE
  5
8A
330
7E
100
AcDbEntity
  8
중심선
100
AcDbLine
 10
7.28139805157953
 20
16.24717430164393
 30
0.0
 11
2.750260043222114
 21
10.84717430164391
 31
0.0
  0
LINE
  5
8B
330
7E
100
AcDbEntity
  8
중심선
100
AcDbLine
 10
5.714909304380834
 20
16.24717430164393
 30
0.0
 11
3.58671253028996
 21
13.71088815037384
 31
0.0
  0
LINE
  5
8C
330
7E
100
AcDbEntity
  8
중심선
100
AcDbLine
 10
2.268634060543552
 20
16.24717430164393
 30
0.0
 11
0.1404042013395286
 21
13.71084872107135
 31
0.0
  0
LINE
  5
8D
330
7E
100
AcDbEntity
  8
중심선
100
AcDbLine
 10
7.28139805157953
 20
16.24717430164393
 30
0.0
 11
10.72767329541681
 21
16.24717430164393
 31
0.0
  0
LINE
  5
8E
330
7E
100
AcDbEntity
  8
중심선
100
AcDbLine
 10
12.29416204261559
 20
16.24717430164393
 30
0.0
 11
15.74043728645272
 21
16.24717430164393
 31
0.0
  0
LINE
  5
8F
330
7E
100
AcDbEntity
  8
중심선
100
AcDbLine
 10
19.22036997980202
 20
11.08717430171403
 30
0.0
 11
23.66174974927406
 21
11.08717430171406
 31
0.0
  0
LINE
  5
90
330
7E
100
AcDbEntity
  8
중심선
100
AcDbLine
 10
19.22039502424796
 20
13.00717430171391
 30
0.0
 11
19.22036997980202
 21
11.08717430171403
 31
0.0
  0
LINE
  5
91
330
7E
100
AcDbEntity
  8
중심선
100
AcDbLine
 10
19.22039502424796
 20
13.00717430171391
 30
0.0
 11
26.96566020931264
 21
13.00717430171391
 31
0.0
  0
LINE
  5
92
330
7E
100
AcDbEntity
  8
중심선
100
AcDbLine
 10
22.22332737316547
 20
13.45928029700563
 30
0.0
 11
24.52862924686651
 21
15.39360700705356
 31
0.0
  0
ATTDEF
  5
94
330
7E
100
AcDbEntity
  8
FORMAT
 62
     2
100
AcDbText
 10
-9.067621780574013
 20
2.075366912832191
 30
0.0
 40
4.233333333333333
  1
E5E44032 [ 3 FLUTE ]
 41
0.75
  7
SLDTEXTSTYLE0
 11
-9.067621780574013
 21
-0.0412997538344756
 31
0.0
100
AcDbAttributeDefinition
  3

  2
AUTOATTR0
 70
     0
 74
     1
  0
ENDBLK
  5
80
330
7E
100
AcDbEntity
  8
0
100
AcDbBlockEnd
  0
BLOCK
  5
255
330
254
100
AcDbEntity
  8
0
100
AcDbBlockBegin
  2
_D
 70
     0
 10
0.0
 20
0.0
 30
0.0
  3
_D
  1
_D
  0
LINE
  5
257
330
254
100
AcDbEntity
  8
치수문자_일반주서
 62
     0
370
    -2
100
AcDbLine
 10
35.31215701540224
 20
6.394528115770479
 30
0.0
 11
35.31215701540224
 21
14.660156696272
 31
0.0
  0
LINE
  5
258
330
254
100
AcDbEntity
  8
치수문자_일반주서
 62
     0
370
    -2
100
AcDbLine
 10
9.912157015402233
 20
-6.093463319389517
 30
0.0
 11
9.912157015402233
 21
14.660156696272
 31
0.0
  0
LINE
  5
259
330
254
100
AcDbEntity
  8
치수문자_일반주서
 62
     0
370
    -2
100
AcDbLine
 10
32.01015701540224
 20
14.660156696272
 30
0.0
 11
13.21415701540223
 21
14.660156696272
 31
0.0
  0
SOLID
  5
25A
330
254
100
AcDbEntity
  8
치수문자_일반주서
 62
     0
100
AcDbTrace
 10
32.01015701540224
 20
14.10982336293867
 30
0.0
 11
32.01015701540224
 21
15.21049002960533
 31
0.0
 12
35.31215701540224
 22
14.660156696272
 32
0.0
 13
35.31215701540224
 23
14.660156696272
 33
0.0
  0
SOLID
  5
25B
330
254
100
AcDbEntity
  8
치수문자_일반주서
 62
     0
100
AcDbTrace
 10
13.21415701540223
 20
15.21049002960533
 30
0.0
 11
13.21415701540223
 21
14.10982336293867
 31
0.0
 12
9.912157015402233
 22
14.660156696272
 32
0.0
 13
9.912157015402233
 23
14.660156696272
 33
0.0
  0
MTEXT
  5
25C
330
254
100
AcDbEntity
  8
치수문자_일반주서
 62
     0
100
AcDbMText
 10
22.61215701540223
 20
19.035156696272
 30
0.0
 40
3.5
 41
0.0
 71
     2
 72
     1
  1
\A1;25.40 [1]
  7
SLDTEXTSTYLE0
 73
     1
 44
1.0
  0
POINT
  5
25D
330
254
100
AcDbEntity
  8
Defpoints
 62
     0
100
AcDbPoint
 10
35.31215701540224
 20
6.332028115770479
 30
0.0
  0
POINT
  5
25E
330
254
100
AcDbEntity
  8
Defpoints
 62
     0
100
AcDbPoint
 10
9.912157015402233
 20
-6.155963319389517
 30
0.0
  0
POINT
  5
25F
330
254
100
AcDbEntity
  8
Defpoints
 62
     0
100
AcDbPoint
 10
9.912157015402233
 20
14.660156696272
 30
0.0
  0
ENDBLK
  5
256
330
254
100
AcDbEntity
  8
0
100
AcDbBlockEnd
  0
BLOCK
  5
26B
330
26A
100
AcDbEntity
  8
0
100
AcDbBlockBegin
  2
_D_1
 70
     0
 10
0.0
 20
0.0
 30
0.0
  3
_D_1
  1
_D_1
  0
LINE
  5
26D
330
26A
100
AcDbEntity
  8
치수문자_일반주서
 62
     0
370
    -2
100
AcDbLine
 10
35.31215701540224
 20
6.394528115770479
 30
0.0
 11
35.31215701540224
 21
27.20511009518712
 31
0.0
  0
LINE
  5
26E
330
26A
100
AcDbEntity
  8
치수문자_일반주서
 62
     0
370
    -2
100
AcDbLine
 10
-40.88784298459777
 20
5.894528192511455
 30
0.0
 11
-40.88784298459777
 21
27.20511009518712
 31
0.0
  0
LINE
  5
26F
330
26A
100
AcDbEntity
  8
치수문자_일반주서
 62
     0
370
    -2
100
AcDbLine
 10
32.01015701540224
 20
27.20511009518712
 30
0.0
 11
-37.58584298459777
 21
27.20511009518712
 31
0.0
  0
SOLID
  5
270
330
26A
100
AcDbEntity
  8
치수문자_일반주서
 62
     0
100
AcDbTrace
 10
32.01015701540224
 20
26.65477676185379
 30
0.0
 11
32.01015701540224
 21
27.75544342852045
 31
0.0
 12
35.31215701540224
 22
27.20511009518712
 32
0.0
 13
35.31215701540224
 23
27.20511009518712
 33
0.0
  0
SOLID
  5
271
330
26A
100
AcDbEntity
  8
치수문자_일반주서
 62
     0
100
AcDbTrace
 10
-37.58584298459777
 20
27.75544342852045
 30
0.0
 11
-37.58584298459777
 21
26.65477676185379
 31
0.0
 12
-40.88784298459777
 22
27.20511009518712
 32
0.0
 13
-40.88784298459777
 23
27.20511009518712
 33
0.0
  0
MTEXT
  5
272
330
26A
100
AcDbEntity
  8
치수문자_일반주서
 62
     0
100
AcDbMText
 10
-0.776290270593152
 20
31.58011009518712
 30
0.0
 40
3.5
 41
0.0
 71
     2
 72
     1
  1
\A1;76.20 [3]
  7
SLDTEXTSTYLE0
 73
     1
 44
1.0
  0
POINT
  5
273
330
26A
100
AcDbEntity
  8
Defpoints
 62
     0
100
AcDbPoint
 10
35.31215701540224
 20
6.332028115770479
 30
0.0
  0
POINT
  5
274
330
26A
100
AcDbEntity
  8
Defpoints
 62
     0
100
AcDbPoint
 10
-40.88784298459777
 20
5.832028192511455
 30
0.0
  0
POINT
  5
275
330
26A
100
AcDbEntity
  8
Defpoints
 62
     0
100
AcDbPoint
 10
-40.88784298459777
 20
27.20511009518712
 30
0.0
  0
ENDBLK
  5
26C
330
26A
100
AcDbEntity
  8
0
100
AcDbBlockEnd
  0
BLOCK
  5
27E
330
27D
100
AcDbEntity
  8
0
100
AcDbBlockBegin
  2
_D_2
 70
     0
 10
0.0
 20
0.0
 30
0.0
  3
_D_2
  1
_D_2
  0
LINE
  5
280
330
27D
100
AcDbEntity
  8
치수문자_일반주서
 62
     0
370
    -2
100
AcDbLine
 10
-40.45034298459777
 20
6.332028192511455
 30
0.0
 11
-54.65984065240871
 21
6.332028192511402
 31
0.0
  0
LINE
  5
281
330
27D
100
AcDbEntity
  8
치수문자_일반주서
 62
     0
370
    -2
100
AcDbLine
 10
-40.45034298459777
 20
-6.367971807488544
 30
0.0
 11
-54.65984065240867
 21
-6.367971807488601
 31
0.0
  0
LINE
  5
282
330
27D
100
AcDbEntity
  8
치수문자_일반주서
 62
     0
370
    -2
100
AcDbLine
 10
-54.65984065240871
 20
6.332028192511402
 30
0.0
 11
-54.65984065240882
 21
39.6235281925114
 31
0.0
  0
LINE
  5
283
330
27D
100
AcDbEntity
  8
치수문자_일반주서
 62
     0
370
    -2
100
AcDbLine
 10
-54.65984065240871
 20
6.332028192511402
 30
0.0
 11
-54.65984065240867
 21
-6.367971807488601
 31
0.0
  0
LINE
  5
284
330
27D
100
AcDbEntity
  8
치수문자_일반주서
 62
     0
370
    -2
100
AcDbLine
 10
-54.65984065240873
 20
9.634028192511401
 30
0.0
 11
-54.65984065240874
 21
12.9360281925114
 31
0.0
  0
LINE
  5
285
330
27D
100
AcDbEntity
  8
치수문자_일반주서
 62
     0
370
    -2
100
AcDbLine
 10
-54.65984065240865
 20
-9.6699718074886
 30
0.0
 11
-54.65984065240864
 21
-12.9719718074886
 31
0.0
  0
SOLID
  5
286
330
27D
100
AcDbEntity
  8
치수문자_일반주서
 62
     0
100
AcDbTrace
 10
-55.21017398574206
 20
9.6340281925114
 30
0.0
 11
-54.10950731907539
 21
9.634028192511403
 31
0.0
 12
-54.65984065240871
 22
6.332028192511402
 32
0.0
 13
-54.65984065240871
 23
6.332028192511402
 33
0.0
  0
SOLID
  5
287
330
27D
100
AcDbEntity
  8
치수문자_일반주서
 62
     0
100
AcDbTrace
 10
-54.10950731907532
 20
-9.669971807488599
 30
0.0
 11
-55.21017398574199
 21
-9.669971807488603
 31
0.0
 12
-54.65984065240867
 22
-6.367971807488601
 32
0.0
 13
-54.65984065240867
 23
-6.367971807488601
 33
0.0
  0
MTEXT
  5
288
330
27D
100
AcDbEntity
  8
치수문자_일반주서
 62
     0
100
AcDbMText
 10
-59.03484065240877
 20
26.27977819251139
 30
0.0
 40
3.5
 41
0.0
 71
     2
 72
     1
  1
\A1;%%c12.70 [1/2]
  7
SLDTEXTSTYLE0
 11
-3.356894814614647E-15
 21
1.0
 31
0.0
 73
     1
 44
1.0
  0
POINT
  5
2D1
330
27D
100
AcDbEntity
  8
Defpoints
 62
     0
100
AcDbPoint
 10
-40.38784298459777
 20
6.332028192511455
 30
0.0
  0
POINT
  5
2D2
330
27D
100
AcDbEntity
  8
Defpoints
 62
     0
100
AcDbPoint
 10
-40.38784298459777
 20
-6.367971807488544
 30
0.0
  0
POINT
  5
2D3
330
27D
100
AcDbEntity
  8
Defpoints
 62
     0
100
AcDbPoint
 10
-54.65984065240867
 20
-6.367971807488598
 30
0.0
  0
ENDBLK
  5
27F
330
27D
100
AcDbEntity
  8
0
100
AcDbBlockEnd
  0
BLOCK
  5
291
330
290
100
AcDbEntity
  8
0
100
AcDbBlockBegin
  2
SW_DOWELSYMBOL_0
 70
     0
 10
0.0
 20
0.0
 30
0.0
  3
SW_DOWELSYMBOL_0
  1
SW_DOWELSYMBOL_0
  0
CIRCLE
  5
293
330
290
100
AcDbEntity
  8
외형선
 62
     0
100
AcDbCircle
 10
0.0
 20
0.0
 30
0.0
 40
3.000000000000004
  0
HATCH
  5
294
330
290
100
AcDbEntity
  8
0
  6
Continuous
 62
     0
370
    30
100
AcDbHatch
 10
0.0
 20
0.0
 30
0.0
210
0.0
220
0.0
230
1.0
  2
SOLID
 70
     1
 71
     0
 91
        1
 92
        0
 93
        3
 72
     2
 10
-0.0000000000000013
 20
-0.0000000000000039
 40
3.000000000000004
 50
0.0
 51
90.0
 73
     1
 72
     1
 10
-0.0000000000000013
 20
3.0
 11
-0.0000000000000013
 21
-0.000000000000004
 72
     1
 10
-0.0000000000000013
 20
-0.0000000000000039
 11
3.000000000000003
 21
-0.0000000000000039
 97
        0
 75
     0
 76
     1
 98
        1
 10
0.0
 20
0.0
  0
HATCH
  5
295
330
290
100
AcDbEntity
  8
0
  6
Continuous
 62
     0
370
    30
100
AcDbHatch
 10
0.0
 20
0.0
 30
0.0
210
0.0
220
0.0
230
1.0
  2
SOLID
 70
     1
 71
     0
 91
        1
 92
        0
 93
        3
 72
     2
 10
-0.0000000000000013
 20
-0.0000000000000039
 40
3.000000000000004
 50
180.0
 51
270.0000000000007
 73
     1
 72
     1
 10
-0.0000000000000013
 20
-3.000000000000008
 11
-0.0000000000000013
 21
-0.000000000000004
 72
     1
 10
-0.0000000000000013
 20
-0.0000000000000039
 11
-3.000000000000006
 21
-0.0000000000000039
 97
        0
 75
     0
 76
     1
 98
        1
 10
0.0
 20
0.0
  0
ENDBLK
  5
292
330
290
100
AcDbEntity
  8
0
100
AcDbBlockEnd
  0
BLOCK
  5
2C2
330
2C1
100
AcDbEntity
  8
0
100
AcDbBlockBegin
  2
*D6
 70
     1
 10
0.0
 20
0.0
 30
0.0
  3
*D6
  1
*D6
  0
LINE
  5
2C4
330
2C1
100
AcDbEntity
  8
치수문자_일반주서
 62
     0
370
    -2
100
AcDbLine
 10
35.37465701540224
 20
6.332028115770479
 30
0.0
 11
52.51505577425223
 21
6.332028115770481
 31
0.0
  0
LINE
  5
2C5
330
2C1
100
AcDbEntity
  8
치수문자_일반주서
 62
     0
370
    -2
100
AcDbLine
 10
35.37465701540224
 20
-6.367971730747559
 30
0.0
 11
52.51505577425223
 21
-6.367971730747559
 31
0.0
  0
LINE
  5
2C6
330
2C1
100
AcDbEntity
  8
치수문자_일반주서
 62
     0
370
    -2
100
AcDbLine
 10
52.51505577425223
 20
6.332028115770481
 30
0.0
 11
52.51505577425223
 21
39.62352811577048
 31
0.0
  0
LINE
  5
2C7
330
2C1
100
AcDbEntity
  8
치수문자_일반주서
 62
     0
370
    -2
100
AcDbLine
 10
52.51505577425223
 20
6.332028115770481
 30
0.0
 11
52.51505577425223
 21
-6.367971730747559
 31
0.0
  0
LINE
  5
2C8
330
2C1
100
AcDbEntity
  8
치수문자_일반주서
 62
     0
370
    -2
100
AcDbLine
 10
52.51505577425223
 20
9.63402811577048
 30
0.0
 11
52.51505577425223
 21
12.93602811577048
 31
0.0
  0
LINE
  5
2C9
330
2C1
100
AcDbEntity
  8
치수문자_일반주서
 62
     0
370
    -2
100
AcDbLine
 10
52.51505577425223
 20
-9.669971730747559
 30
0.0
 11
52.51505577425223
 21
-12.97197173074756
 31
0.0
  0
SOLID
  5
2CA
330
2C1
100
AcDbEntity
  8
치수문자_일반주서
 62
     0
100
AcDbTrace
 10
51.96472244091889
 20
9.63402811577048
 30
0.0
 11
53.06538910758556
 21
9.63402811577048
 31
0.0
 12
52.51505577425223
 22
6.332028115770481
 32
0.0
 13
52.51505577425223
 23
6.332028115770481
 33
0.0
  0
SOLID
  5
2CB
330
2C1
100
AcDbEntity
  8
치수문자_일반주서
 62
     0
100
AcDbTrace
 10
53.06538910758556
 20
-9.669971730747559
 30
0.0
 11
51.96472244091889
 21
-9.669971730747559
 31
0.0
 12
52.51505577425223
 22
-6.367971730747559
 32
0.0
 13
52.51505577425223
 23
-6.367971730747559
 33
0.0
  0
MTEXT
  5
2CC
330
2C1
100
AcDbEntity
  8
치수문자_일반주서
 62
     0
100
AcDbMText
 10
49.89005577425223
 20
26.27977811577048
 30
0.0
 40
3.5
 41
0.0
 71
     5
 72
     1
  1
\A1;{%%c12.70 [1/2]}
  7
SLDTEXTSTYLE0
 11
0.0
 21
1.0
 31
0.0
 73
     1
 44
1.0
  0
POINT
  5
2CD
330
2C1
100
AcDbEntity
  8
Defpoints
 62
     0
100
AcDbPoint
 10
35.31215701540224
 20
6.332028115770479
 30
0.0
  0
POINT
  5
2CE
330
2C1
100
AcDbEntity
  8
Defpoints
 62
     0
100
AcDbPoint
 10
35.31215701540224
 20
-6.367971730747559
 30
0.0
  0
POINT
  5
2D0
330
2C1
100
AcDbEntity
  8
Defpoints
 62
     0
100
AcDbPoint
 10
52.51505577425223
 20
-6.36797173074756
 30
0.0
  0
ENDBLK
  5
2C3
330
2C1
100
AcDbEntity
  8
0
100
AcDbBlockEnd
  0
ENDSEC
  0
SECTION
  2
ENTITIES
  0
LINE
  5
95
330
1F
100
AcDbEntity
  8
0
  6
Continuous
 62
     1
370
    15
100
AcDbLine
 10
9.312492281424241
 20
-0.0128823065149854
 30
0.0
 11
9.312492281424241
 21
-0.0128662339246156
 31
0.0
  0
LINE
  5
96
330
1F
100
AcDbEntity
  8
0
  6
Continuous
 62
     4
370
    15
100
AcDbLine
 10
7.88199934595487
 20
6.332028115770481
 30
0.0
 11
-40.38784305612334
 21
6.332028115770481
 31
0.0
  0
LINE
  5
97
330
1F
100
AcDbEntity
  8
0
  6
Continuous
 62
     4
370
    15
100
AcDbLine
 10
-40.38784305612334
 20
-6.367971730747559
 30
0.0
 11
7.887654918704544
 21
-6.367971730747559
 31
0.0
  0
LINE
  5
98
330
1F
100
AcDbEntity
  8
0
  6
Continuous
 62
     4
370
    15
100
AcDbLine
 10
-40.38784305612334
 20
6.332028115770481
 30
0.0
 11
-40.88784406940231
 21
5.832028033814094
 31
0.0
  0
LINE
  5
99
330
1F
100
AcDbEntity
  8
0
  6
Continuous
 62
     4
370
    15
100
AcDbLine
 10
-40.88784406940231
 20
-5.867971648791173
 30
0.0
 11
-40.38784305612334
 21
-6.367971730747559
 31
0.0
  0
LINE
  5
9A
330
1F
100
AcDbEntity
  8
0
  6
Continuous
 62
     1
370
    15
100
AcDbLine
 10
19.10336942364684
 20
6.175191997221372
 30
0.0
 11
19.09872026135436
 21
6.175388040623329
 31
0.0
  0
SPLINE
  5
9B
330
1F
100
AcDbEntity
  8
0
  6
Continuous
 62
     1
370
    15
100
AcDbSpline
210
0.0
220
0.0
230
1.0
 70
     8
 71
     3
 72
     9
 73
     5
 74
     0
 42
0.000000001
 43
0.00000001
 40
0.0
 40
0.0
 40
0.0
 40
0.0
 40
0.5553084060777725
 40
1.0
 40
1.0
 40
1.0
 40
1.0
 10
19.15336468209735
 20
6.165821495136878
 30
0.0
 10
19.14423948580035
 20
6.169299826948556
 30
0.0
 10
19.12780682208208
 20
6.175563610773199
 30
0.0
 10
19.11514428324856
 20
6.175127170753598
 30
0.0
 10
19.10951335867158
 20
6.174933089545629
 30
0.0
  0
SPLINE
  5
9C
330
1F
100
AcDbEntity
  8
0
  6
Continuous
 62
     1
370
    15
100
AcDbSpline
210
0.0
220
0.0
230
1.0
 70
     8
 71
     3
 72
     9
 73
     5
 74
     0
 42
0.000000001
 43
0.00000001
 40
0.0
 40
0.0
 40
0.0
 40
0.0
 40
0.8083389251638733
 40
0.9999999999999999
 40
0.9999999999999999
 40
0.9999999999999999
 40
0.9999999999999999
 10
19.07322251190654
 20
6.21665494390454
 30
0.0
 10
19.0378978408461
 20
6.243509926083997
 30
0.0
 10
18.99419751916076
 20
6.276732354626594
 30
0.0
 10
18.94235252009604
 20
6.287036377309104
 30
0.0
 10
18.93241585185043
 20
6.289011257371566
 30
0.0
  0
SPLINE
  5
9D
330
1F
100
AcDbEntity
  8
0
  6
Continuous
 62
     1
370
    15
100
AcDbSpline
210
0.0
220
0.0
230
1.0
 70
     8
 71
     3
 72
    11
 73
     7
 74
     0
 42
0.000000001
 43
0.00000001
 40
0.0
 40
0.0
 40
0.0
 40
0.0
 40
0.2440313139645251
 40
0.4999597615911862
 40
0.7559067002223138
 40
1.0
 40
1.0
 40
1.0
 40
1.0
 10
23.0482357828807
 20
-6.249360815950968
 30
0.0
 10
23.08410244883492
 20
-6.22429408798858
 30
0.0
 10
23.15758436993849
 20
-6.172938566714096
 30
0.0
 10
23.29417780628271
 20
-6.148163762595715
 30
0.0
 10
23.43056979131231
 20
-6.167265653239802
 30
0.0
 10
23.50358437652292
 20
-6.214212687739634
 30
0.0
 10
23.53922625025026
 20
-6.237129756578545
 30
0.0
  0
SPLINE
  5
9E
330
1F
100
AcDbEntity
  8
0
  6
Continuous
 62
     1
370
    15
100
AcDbSpline
210
0.0
220
0.0
230
1.0
 70
     8
 71
     3
 72
    11
 73
     7
 74
     0
 42
0.000000001
 43
0.00000001
 40
0.0
 40
0.0
 40
0.0
 40
0.0
 40
0.2441924621878237
 40
0.5000740722927246
 40
0.7559210665979175
 40
1.0
 40
1.0
 40
1.0
 40
1.0
 10
18.57630883296243
 20
6.218518986037633
 30
0.0
 10
18.5406940643836
 20
6.193304993331502
 30
0.0
 10
18.46775969860748
 20
6.141670049736819
 30
0.0
 10
18.33137495180345
 20
6.116101082374513
 30
0.0
 10
18.19478765223095
 20
6.134468143125474
 30
0.0
 10
18.12136425626524
 20
6.181092718079602
 30
0.0
 10
18.08551673730127
 20
6.203856243422887
 30
0.0
  0
SPLINE
  5
9F
330
1F
100
AcDbEntity
  8
0
  6
Continuous
 62
     1
370
    15
100
AcDbSpline
210
0.0
220
0.0
230
1.0
 70
     8
 71
     3
 72
     9
 73
     5
 74
     0
 42
0.000000001
 43
0.00000001
 40
0.0
 40
0.0
 40
0.0
 40
0.0
 40
0.4991539270650749
 40
1.0
 40
1.0
 40
1.0
 40
1.0
 10
23.54361743618957
 20
-6.243486964472869
 30
0.0
 10
23.58214343008597
 20
-6.270274595375374
 30
0.0
 10
23.65932602208303
 20
-6.323940668003534
 30
0.0
 10
23.75129245227322
 20
-6.335113957951307
 30
0.0
 10
23.79735347767583
 20
-6.340710056343415
 30
0.0
  0
SPLINE
  5
A0
330
1F
100
AcDbEntity
  8
0
  6
Continuous
 62
     1
370
    15
100
AcDbSpline
210
0.0
220
0.0
230
1.0
 70
     8
 71
     3
 72
    11
 73
     7
 74
     0
 42
0.000000001
 43
0.00000001
 40
0.0
 40
0.0
 40
0.0
 40
0.0
 40
0.2437399093296849
 40
0.4998886752920928
 40
0.7560920865990091
 40
1.0
 40
1.0
 40
1.0
 40
1.0
 10
18.07887547602168
 20
6.21181905143585
 30
0.0
 10
18.04108917300247
 20
6.236907775255792
 30
0.0
 10
17.96359285730922
 20
6.288362495779857
 30
0.0
 10
17.82208639075598
 20
6.312279799296363
 30
0.0
 10
17.68057157810839
 20
6.29218088165166
 30
0.0
 10
17.60308165621109
 20
6.243381770517077
 30
0.0
 10
17.56528926034681
 20
6.219582090756557
 30
0.0
  0
SPLINE
  5
A1
330
1F
100
AcDbEntity
  8
0
  6
Continuous
 62
     1
370
    15
100
AcDbSpline
210
0.0
220
0.0
230
1.0
 70
     8
 71
     3
 72
     9
 73
     5
 74
     0
 42
0.000000001
 43
0.00000001
 40
0.0
 40
0.0
 40
0.0
 40
0.0
 40
0.5008543541626994
 40
1.0
 40
1.0
 40
1.0
 40
1.0
 10
23.80184338380805
 20
-6.344322190949061
 30
0.0
 10
23.84784447278005
 20
-6.340442922466393
 30
0.0
 10
23.93968971399572
 20
-6.33269761996392
 30
0.0
 10
24.01674443597482
 20
-6.282411576441207
 30
0.0
 10
24.0552059649419
 20
-6.257311516770462
 30
0.0
  0
SPLINE
  5
A2
330
1F
100
AcDbEntity
  8
0
  6
Continuous
 62
     1
370
    15
100
AcDbSpline
210
0.0
220
0.0
230
1.0
 70
     8
 71
     3
 72
    11
 73
     7
 74
     0
 42
0.000000001
 43
0.00000001
 40
0.0
 40
0.0
 40
0.0
 40
0.0
 40
0.2447637055266332
 40
0.4999620365980221
 40
0.7551752079120245
 40
1.0
 40
1.0
 40
1.0
 40
1.0
 10
24.06229146708957
 20
-6.257823278525212
 30
0.0
 10
24.09757846698143
 20
-6.233421309980608
 30
0.0
 10
24.16965680185305
 20
-6.183577082200548
 30
0.0
 10
24.30560172754769
 20
-6.159665059208352
 30
0.0
 10
24.44174764142015
 20
-6.179947932517864
 30
0.0
 10
24.51424279427563
 20
-6.227382414527218
 30
0.0
 10
24.54973732074014
 20
-6.250606925555804
 30
0.0
  0
SPLINE
  5
A3
330
1F
100
AcDbEntity
  8
0
  6
Continuous
 62
     1
370
    15
100
AcDbSpline
210
0.0
220
0.0
230
1.0
 70
     8
 71
     3
 72
    11
 73
     7
 74
     0
 42
0.000000001
 43
0.00000001
 40
0.0
 40
0.0
 40
0.0
 40
0.0
 40
0.2450826947380511
 40
0.5000699883144044
 40
0.7550259749395688
 40
1.0
 40
1.0
 40
1.0
 40
1.0
 10
17.55765986581556
 20
6.218993029228113
 30
0.0
 10
17.52227903038797
 20
6.195156900339056
 30
0.0
 10
17.45008750345157
 20
6.146521346091731
 30
0.0
 10
17.31407061482461
 20
6.124261235942603
 30
0.0
 10
17.17825539612749
 20
6.146258611757634
 30
0.0
 10
17.1064646330341
 20
6.194484947592125
 30
0.0
 10
17.07128596444837
 20
6.218116654685399
 30
0.0
  0
SPLINE
  5
A4
330
1F
100
AcDbEntity
  8
0
  6
Continuous
 62
     1
370
    15
100
AcDbSpline
210
0.0
220
0.0
230
1.0
 70
     8
 71
     3
 72
    11
 73
     7
 74
     0
 42
0.000000001
 43
0.00000001
 40
0.0
 40
0.0
 40
0.0
 40
0.0
 40
0.2447102839415449
 40
0.5001940922115562
 40
0.7555826862164073
 40
1.0
 40
1.0
 40
1.0
 40
1.0
 10
24.55295783420316
 20
-6.252821610638239
 30
0.0
 10
24.59114117278472
 20
-6.27767079992136
 30
0.0
 10
24.66918889547043
 20
-6.328463179691688
 30
0.0
 10
24.81247160823388
 20
-6.351093501563039
 30
0.0
 10
24.95574181652595
 20
-6.328631881503753
 30
0.0
 10
25.03380400002689
 20
-6.277922445161076
 30
0.0
 10
25.07197831710092
 20
-6.25312429047499
 30
0.0
  0
SPLINE
  5
A5
330
1F
100
AcDbEntity
  8
0
  6
Continuous
 62
     1
370
    15
100
AcDbSpline
210
0.0
220
0.0
230
1.0
 70
     8
 71
     3
 72
     9
 73
     5
 74
     0
 42
0.000000001
 43
0.00000001
 40
0.0
 40
0.0
 40
0.0
 40
0.0
 40
0.4985521023836592
 40
1.0
 40
1.0
 40
1.0
 40
1.0
 10
17.06989643116704
 20
6.2190228315505
 30
0.0
 10
17.03068727587394
 20
6.245391478516163
 30
0.0
 10
16.95204122242109
 20
6.298281932371621
 30
0.0
 10
16.85890391372753
 20
6.307430913102191
 30
0.0
 10
16.81220040609351
 20
6.312018650254867
 30
0.0
  0
SPLINE
  5
A6
330
1F
100
AcDbEntity
  8
0
  6
Continuous
 62
     1
370
    15
100
AcDbSpline
210
0.0
220
0.0
230
1.0
 70
     8
 71
     3
 72
     9
 73
     5
 74
     0
 42
0.000000001
 43
0.00000001
 40
0.0
 40
0.0
 40
0.0
 40
0.0
 40
0.5011328403662169
 40
1.0
 40
1.0
 40
1.0
 40
1.0
 10
16.80985254188291
 20
6.311769987127445
 30
0.0
 10
16.76331137844696
 20
6.306859238302524
 30
0.0
 10
16.67043946966937
 20
6.297059942727858
 30
0.0
 10
16.59219034667841
 20
6.243911002956503
 30
0.0
 10
16.55315442894808
 20
6.217396742335222
 30
0.0
  0
SPLINE
  5
A7
330
1F
100
AcDbEntity
  8
0
  6
Continuous
 62
     1
370
    15
100
AcDbSpline
210
0.0
220
0.0
230
1.0
 70
     8
 71
     3
 72
    11
 73
     7
 74
     0
 42
0.000000001
 43
0.00000001
 40
0.0
 40
0.0
 40
0.0
 40
0.0
 40
0.2685555280686923
 40
0.5285593930581065
 40
0.7725957143517461
 40
1.0
 40
1.0
 40
1.0
 40
1.0
 10
25.07724587758294
 20
-6.249296089032033
 30
0.0
 10
25.11989362341861
 20
-6.222903149546333
 30
0.0
 10
25.20383107507453
 20
-6.170957705801777
 30
0.0
 10
25.3500728084409
 20
-6.162128998989989
 30
0.0
 10
25.4724193284951
 20
-6.196010254030842
 30
0.0
 10
25.52568263786073
 20
-6.233723247407589
 30
0.0
 10
25.55137474973909
 20
-6.251914502450564
 30
0.0
  0
SPLINE
  5
A8
330
1F
100
AcDbEntity
  8
0
  6
Continuous
 62
     1
370
    15
100
AcDbSpline
210
0.0
220
0.0
230
1.0
 70
     8
 71
     3
 72
    10
 73
     6
 74
     0
 42
0.000000001
 43
0.00000001
 40
0.0
 40
0.0
 40
0.0
 40
0.0
 40
0.278765784122893
 40
0.5423643355100827
 40
1.0
 40
1.0
 40
1.0
 40
1.0
 10
16.54937372495643
 20
6.214140372953079
 30
0.0
 10
16.50799834233859
 20
6.187994661345488
 30
0.0
 10
16.42749875028641
 20
6.137125787508955
 30
0.0
 10
16.2372247253779
 20
6.121375146588639
 30
0.0
 10
16.13963030190177
 20
6.177392878309661
 30
0.0
 10
16.07770494138113
 20
6.212937104186675
 30
0.0
  0
SPLINE
  5
A9
330
1F
100
AcDbEntity
  8
0
  6
Continuous
 62
     1
370
    15
100
AcDbSpline
210
0.0
220
0.0
230
1.0
 70
     8
 71
     3
 72
     9
 73
     5
 74
     0
 42
0.000000001
 43
0.00000001
 40
0.0
 40
0.0
 40
0.0
 40
0.0
 40
0.4986076178787625
 40
1.0
 40
1.0
 40
1.0
 40
1.0
 10
25.55213843425027
 20
-6.252549198785164
 30
0.0
 10
25.59196983970042
 20
-6.279655956008904
 30
0.0
 10
25.67185511225121
 20
-6.33402086390795
 30
0.0
 10
25.76620066177306
 20
-6.343301239410073
 30
0.0
 10
25.81350480159036
 20
-6.347954348990061
 30
0.0
  0
SPLINE
  5
AA
330
1F
100
AcDbEntity
  8
0
  6
Continuous
 62
     1
370
    15
100
AcDbSpline
210
0.0
220
0.0
230
1.0
 70
     8
 71
     3
 72
    11
 73
     7
 74
     0
 42
0.000000001
 43
0.00000001
 40
0.0
 40
0.0
 40
0.0
 40
0.0
 40
0.2700920372673367
 40
0.5328076972480724
 40
0.7773570843335044
 40
0.9999999999999999
 40
0.9999999999999999
 40
0.9999999999999999
 40
0.9999999999999999
 10
16.07720156152955
 20
6.213391589603088
 30
0.0
 10
16.02989251836543
 20
6.243353840992352
 30
0.0
 10
15.93656647068808
 20
6.302460056520211
 30
0.0
 10
15.77815257885673
 20
6.314211421633283
 30
0.0
 10
15.64276475360392
 20
6.279576919468012
 30
0.0
 10
15.57794073608924
 20
6.234038772593314
 30
0.0
 10
15.54704851423612
 20
6.212337332448623
 30
0.0
  0
SPLINE
  5
AB
330
1F
100
AcDbEntity
  8
0
  6
Continuous
 62
     1
370
    15
100
AcDbSpline
210
0.0
220
0.0
230
1.0
 70
     8
 71
     3
 72
     9
 73
     5
 74
     0
 42
0.000000001
 43
0.00000001
 40
0.0
 40
0.0
 40
0.0
 40
0.0
 40
0.5019965059485195
 40
0.9999999999999999
 40
0.9999999999999999
 40
0.9999999999999999
 40
0.9999999999999999
 10
25.81306335468999
 20
-6.347968784489968
 30
0.0
 10
25.86065473614736
 20
-6.34309852132435
 30
0.0
 10
25.95545894472933
 20
-6.333396734343953
 30
0.0
 10
26.03604731733354
 20
-6.277669281672825
 30
0.0
 10
26.07618060847036
 20
-6.249916815528014
 30
0.0
  0
SPLINE
  5
AC
330
1F
100
AcDbEntity
  8
0
  6
Continuous
 62
     1
370
    15
100
AcDbSpline
210
0.0
220
0.0
230
1.0
 70
     8
 71
     3
 72
    11
 73
     7
 74
     0
 42
0.000000001
 43
0.00000001
 40
0.0
 40
0.0
 40
0.0
 40
0.0
 40
0.246503825391548
 40
0.4997736886052496
 40
0.7531462455833954
 40
1.0
 40
1.0
 40
1.0
 40
1.0
 10
26.07165810604802
 20
-6.253798102357724
 30
0.0
 10
26.10597922441974
 20
-6.23059940166749
 30
0.0
 10
26.17556350733479
 20
-6.183565242273039
 30
0.0
 10
26.31020482134924
 20
-6.160504279856047
 30
0.0
 10
26.44504242178201
 20
-6.181782507475658
 30
0.0
 10
26.51495917016863
 20
-6.22771877788546
 30
0.0
 10
26.5494619770836
 20
-6.250387599089482
 30
0.0
  0
SPLINE
  5
AD
330
1F
100
AcDbEntity
  8
0
  6
Continuous
 62
     1
370
    15
100
AcDbSpline
210
0.0
220
0.0
230
1.0
 70
     8
 71
     3
 72
    11
 73
     7
 74
     0
 42
0.000000001
 43
0.00000001
 40
0.0
 40
0.0
 40
0.0
 40
0.0
 40
0.2464100545866016
 40
0.5001805026421126
 40
0.753868533766952
 40
1.0
 40
1.0
 40
1.0
 40
1.0
 10
15.55179499973765
 20
6.216149701407812
 30
0.0
 10
15.51706003798488
 20
6.193087785384034
 30
0.0
 10
15.44655256353176
 20
6.146275082192941
 30
0.0
 10
15.31137520694558
 20
6.124554724324547
 30
0.0
 10
15.1763979810869
 20
6.14722581034575
 30
0.0
 10
15.10624147520763
 20
6.194532614369015
 30
0.0
 10
15.0716935559105
 20
6.217828410348556
 30
0.0
  0
SPLINE
  5
AE
330
1F
100
AcDbEntity
  8
0
  6
Continuous
 62
     1
370
    15
100
AcDbSpline
210
0.0
220
0.0
230
1.0
 70
     8
 71
     3
 72
    11
 73
     7
 74
     0
 42
0.000000001
 43
0.00000001
 40
0.0
 40
0.0
 40
0.0
 40
0.0
 40
0.2454632428457372
 40
0.5003265155399763
 40
0.7550262283478926
 40
0.9999999999999999
 40
0.9999999999999999
 40
0.9999999999999999
 40
0.9999999999999999
 10
26.55180704732648
 20
-6.252100766965487
 30
0.0
 10
26.59035378584614
 20
-6.27724990235736
 30
0.0
 10
26.66892341258697
 20
-6.328511260814063
 30
0.0
 10
26.813837611781
 20
-6.35123473558532
 30
0.0
 10
26.95873017191062
 20
-6.327730157527835
 30
0.0
 10
27.03732694029216
 20
-6.275886719011382
 30
0.0
 10
27.07586039741746
 20
-6.250469555476048
 30
0.0
  0
SPLINE
  5
AF
330
1F
100
AcDbEntity
  8
0
  6
Continuous
 62
     1
370
    15
100
AcDbSpline
210
0.0
220
0.0
230
1.0
 70
     8
 71
     3
 72
     9
 73
     5
 74
     0
 42
0.000000001
 43
0.00000001
 40
0.0
 40
0.0
 40
0.0
 40
0.0
 40
0.4982631230203343
 40
1.0
 40
1.0
 40
1.0
 40
1.0
 10
15.07330707227102
 20
6.216586026034019
 30
0.0
 10
15.03365185736652
 20
6.24359379633786
 30
0.0
 10
14.95406496226554
 20
6.297797627719415
 30
0.0
 10
14.86013264932889
 20
6.307272305563556
 30
0.0
 10
14.81300334398857
 20
6.312026100835464
 30
0.0
  0
SPLINE
  5
B0
330
1F
100
AcDbEntity
  8
0
  6
Continuous
 62
     1
370
    15
100
AcDbSpline
210
0.0
220
0.0
230
1.0
 70
     8
 71
     3
 72
     9
 73
     5
 74
     0
 42
0.000000001
 43
0.00000001
 40
0.0
 40
0.0
 40
0.0
 40
0.0
 40
0.5013643065746453
 40
1.0
 40
1.0
 40
1.0
 40
1.0
 10
14.81258285184613
 20
6.312027497819326
 30
0.0
 10
14.76541433205109
 20
6.307270116225165
 30
0.0
 10
14.67133400128863
 20
6.297781244497017
 30
0.0
 10
14.59173460107438
 20
6.243563601638384
 30
0.0
 10
14.5520434989523
 20
6.21652874969568
 30
0.0
  0
SPLINE
  5
B1
330
1F
100
AcDbEntity
  8
0
  6
Continuous
 62
     1
370
    15
100
AcDbSpline
210
0.0
220
0.0
230
1.0
 70
     8
 71
     3
 72
    11
 73
     7
 74
     0
 42
0.000000001
 43
0.00000001
 40
0.0
 40
0.0
 40
0.0
 40
0.0
 40
0.2715286108180431
 40
0.5323625646584788
 40
0.7755102226326969
 40
1.0
 40
1.0
 40
1.0
 40
1.0
 10
27.07712327082864
 20
-6.249404122450688
 30
0.0
 10
27.11946721003696
 20
-6.223126645777556
 30
0.0
 10
27.20248729402285
 20
-6.171606679493649
 30
0.0
 10
27.3484194989055
 20
-6.162118588631584
 30
0.0
 10
27.47039449910766
 20
-6.195130484497424
 30
0.0
 10
27.52398789983501
 20
-6.23248239280743
 30
0.0
 10
27.54971546073667
 20
-6.250413210460284
 30
0.0
  0
SPLINE
  5
B2
330
1F
100
AcDbEntity
  8
0
  6
Continuous
 62
     1
370
    15
100
AcDbSpline
210
0.0
220
0.0
230
1.0
 70
     8
 71
     3
 72
    10
 73
     6
 74
     0
 42
0.000000001
 43
0.00000001
 40
0.0
 40
0.0
 40
0.0
 40
0.0
 40
0.2810530865479599
 40
0.5452785854526364
 40
1.0
 40
1.0
 40
1.0
 40
1.0
 10
14.55006443848124
 20
6.214799283674619
 30
0.0
 10
14.50887884219753
 20
6.188625250207512
 30
0.0
 10
14.42897356893245
 20
6.13784431013732
 30
0.0
 10
14.23947546286905
 20
6.121050096744083
 30
0.0
 10
14.14125133159615
 20
6.176498708856382
 30
0.0
 10
14.07912627746573
 20
6.211568991324565
 30
0.0
  0
SPLINE
  5
B3
330
1F
100
AcDbEntity
  8
0
  6
Continuous
 62
     1
370
    15
100
AcDbSpline
210
0.0
220
0.0
230
1.0
 70
     8
 71
     3
 72
     9
 73
     5
 74
     0
 42
0.000000001
 43
0.00000001
 40
0.0
 40
0.0
 40
0.0
 40
0.0
 40
0.4985787314616935
 40
0.9999999999999999
 40
0.9999999999999999
 40
0.9999999999999999
 40
0.9999999999999999
 10
27.54897971590272
 20
-6.24969609207783
 30
0.0
 10
27.58888401329902
 20
-6.27729976771732
 30
0.0
 10
27.66892011367442
 20
-6.332664495287156
 30
0.0
 10
27.76340017794766
 20
-6.34277953953
 30
0.0
 10
27.81077449162713
 20
-6.347851437845566
 30
0.0
  0
SPLINE
  5
B4
330
1F
100
AcDbEntity
  8
0
  6
Continuous
 62
     1
370
    15
100
AcDbSpline
210
0.0
220
0.0
230
1.0
 70
     8
 71
     3
 72
    11
 73
     7
 74
     0
 42
0.000000001
 43
0.00000001
 40
0.0
 40
0.0
 40
0.0
 40
0.0
 40
0.2671361965627622
 40
0.5289276222995243
 40
0.7743990146065225
 40
1.0
 40
1.0
 40
1.0
 40
1.0
 10
14.07737166573516
 20
6.213239784023425
 30
0.0
 10
14.03017889920746
 20
6.243105391689546
 30
0.0
 10
13.93673758309076
 20
6.302239066027314
 30
0.0
 10
13.7788480574862
 20
6.314107035681612
 30
0.0
 10
13.64372908250477
 20
6.279928185786208
 30
0.0
 10
13.57949107864257
 20
6.235240775969855
 30
0.0
 10
13.54872689535132
 20
6.213839555761478
 30
0.0
  0
SPLINE
  5
B5
330
1F
100
AcDbEntity
  8
0
  6
Continuous
 62
     1
370
    15
100
AcDbSpline
210
0.0
220
0.0
230
1.0
 70
     8
 71
     3
 72
     9
 73
     5
 74
     0
 42
0.000000001
 43
0.00000001
 40
0.0
 40
0.0
 40
0.0
 40
0.0
 40
0.502018783045335
 40
1.0
 40
1.0
 40
1.0
 40
1.0
 10
27.80956377228013
 20
-6.347659119733908
 30
0.0
 10
27.85724721803497
 20
-6.343360244714164
 30
0.0
 10
27.95223060783085
 20
-6.334797069062315
 30
0.0
 10
28.03301213593333
 20
-6.27991457470919
 30
0.0
 10
28.07323981960527
 20
-6.252584123381714
 30
0.0
  0
SPLINE
  5
B6
330
1F
100
AcDbEntity
  8
0
  6
Continuous
 62
     1
370
    15
100
AcDbSpline
210
0.0
220
0.0
230
1.0
 70
     8
 71
     3
 72
    11
 73
     7
 74
     0
 42
0.000000001
 43
0.00000001
 40
0.0
 40
0.0
 40
0.0
 40
0.0
 40
0.245994381978096
 40
0.499842328515655
 40
0.7537634569347129
 40
1.0
 40
1.0
 40
1.0
 40
1.0
 10
28.07007891078702
 20
-6.254854687818625
 30
0.0
 10
28.10470790268016
 20
-6.231336998912488
 30
0.0
 10
28.17507144433029
 20
-6.183550800343134
 30
0.0
 10
28.31016210082192
 20
-6.160482485654095
 30
0.0
 10
28.44545508078876
 20
-6.181809555385707
 30
0.0
 10
28.51617989807647
 20
-6.228541203225792
 30
0.0
 10
28.55099898715726
 20
-6.251548027017453
 30
0.0
  0
SPLINE
  5
B7
330
1F
100
AcDbEntity
  8
0
  6
Continuous
 62
     1
370
    15
100
AcDbSpline
210
0.0
220
0.0
230
1.0
 70
     8
 71
     3
 72
    11
 73
     7
 74
     0
 42
0.000000001
 43
0.00000001
 40
0.0
 40
0.0
 40
0.0
 40
0.0
 40
0.2457048765699821
 40
0.5001101554574195
 40
0.7544663668797643
 40
1.0
 40
1.0
 40
1.0
 40
1.0
 10
13.55298955877534
 20
6.216896622112653
 30
0.0
 10
13.51790862245385
 20
6.193570778689123
 30
0.0
 10
13.44650453490684
 20
6.146093124425333
 30
0.0
 10
13.31086574161627
 20
6.12455170896998
 30
0.0
 10
13.17542859351199
 20
6.147377437868778
 30
0.0
 10
13.10440689668224
 20
6.19557358391677
 30
0.0
 10
13.06952278082481
 20
6.219246348968408
 30
0.0
  0
SPLINE
  5
B8
330
1F
100
AcDbEntity
  8
0
  6
Continuous
 62
     1
370
    15
100
AcDbSpline
210
0.0
220
0.0
230
1.0
 70
     8
 71
     3
 72
    11
 73
     7
 74
     0
 42
0.000000001
 43
0.00000001
 40
0.0
 40
0.0
 40
0.0
 40
0.0
 40
0.2443153972793922
 40
0.5001497668585612
 40
0.7559123720572383
 40
1.0
 40
1.0
 40
1.0
 40
1.0
 10
28.55743256350271
 20
-6.254865398028233
 30
0.0
 10
28.59542572923374
 20
-6.279253908520893
 30
0.0
 10
28.67320336091066
 20
-6.329180797995578
 30
0.0
 10
28.8156207371475
 20
-6.350753223798312
 30
0.0
 10
28.95802843675223
 20
-6.327776779888151
 30
0.0
 10
29.03581552847839
 20
-6.276858269496575
 30
0.0
 10
29.07380063970797
 20
-6.251993664869408
 30
0.0
  0
SPLINE
  5
B9
330
1F
100
AcDbEntity
  8
0
  6
Continuous
 62
     1
370
    15
100
AcDbSpline
210
0.0
220
0.0
230
1.0
 70
     8
 71
     3
 72
     9
 73
     5
 74
     0
 42
0.000000001
 43
0.00000001
 40
0.0
 40
0.0
 40
0.0
 40
0.0
 40
0.4990049028911999
 40
0.9999999999999999
 40
0.9999999999999999
 40
0.9999999999999999
 40
0.9999999999999999
 10
13.06346685578338
 20
6.221669650307557
 30
0.0
 10
13.02484285517095
 20
6.247308524314038
 30
0.0
 10
12.94744080884105
 20
6.298688528514251
 30
0.0
 10
12.8553197805064
 20
6.307312510177923
 30
0.0
 10
12.80916759697011
 20
6.311633082708976
 30
0.0
  0
SPLINE
  5
BA
330
1F
100
AcDbEntity
  8
0
  6
Continuous
 62
     1
370
    15
100
AcDbSpline
210
0.0
220
0.0
230
1.0
 70
     8
 71
     3
 72
     9
 73
     5
 74
     0
 42
0.000000001
 43
0.00000001
 40
0.0
 40
0.0
 40
0.0
 40
0.0
 40
0.5009678812147783
 40
1.0
 40
1.0
 40
1.0
 40
1.0
 10
12.80529282939843
 20
6.310319452217481
 30
0.0
 10
12.75904746101409
 20
6.305141975045411
 30
0.0
 10
12.66673541842925
 20
6.294807026705977
 30
0.0
 10
12.58913994717185
 20
6.241651230513897
 30
0.0
 10
12.55041731474212
 20
6.215124780914447
 30
0.0
  0
SPLINE
  5
BB
330
1F
100
AcDbEntity
  8
0
  6
Continuous
 62
     1
370
    15
100
AcDbSpline
210
0.0
220
0.0
230
1.0
 70
     8
 71
     3
 72
    11
 73
     7
 74
     0
 42
0.000000001
 43
0.00000001
 40
0.0
 40
0.0
 40
0.0
 40
0.0
 40
0.2662403635285137
 40
0.5445530665516424
 40
0.8229155383357645
 40
1.0
 40
1.0
 40
1.0
 40
1.0
 10
29.07867331941835
 20
-6.247961969443896
 30
0.0
 10
29.11436408566062
 20
-6.224829219673914
 30
0.0
 10
29.18736397173058
 20
-6.177514794249968
 30
0.0
 10
29.32339721784495
 20
-6.158564132258775
 30
0.0
 10
29.44587380692225
 20
-6.178284533272985
 30
0.0
 10
29.50692111339485
 20
-6.21965148706029
 30
0.0
 10
29.53065720339528
 20
-6.235735566684344
 30
0.0
  0
LINE
  5
BC
330
1F
100
AcDbEntity
  8
0
  6
Continuous
 62
     1
370
    15
100
AcDbLine
 10
35.31215687235108
 20
5.822028423330448
 30
0.0
 11
34.82429099221936
 21
6.309893837800882
 31
0.0
  0
SPLINE
  5
BD
330
1F
100
AcDbEntity
  8
0
  6
Continuous
 62
     1
370
    15
100
AcDbSpline
210
0.0
220
0.0
230
1.0
 70
     8
 71
     3
 72
     9
 73
     5
 74
     0
 42
0.000000001
 43
0.00000001
 40
0.0
 40
0.0
 40
0.0
 40
0.0
 40
0.5008425318802439
 40
1.0
 40
1.0
 40
1.0
 40
1.0
 10
29.83258639415017
 20
-6.335724686601498
 30
0.0
 10
29.87853876501763
 20
-6.329948189566508
 30
0.0
 10
29.97028890192184
 20
-6.31841463027931
 30
0.0
 10
30.04723643055441
 20
-6.26454401240983
 30
0.0
 10
30.0856453641247
 20
-6.237654091188054
 30
0.0
  0
LINE
  5
BE
330
1F
100
AcDbEntity
  8
0
  6
Continuous
 62
     1
370
    15
100
AcDbLine
 10
30.2902867360901
 20
-6.172696669915059
 30
0.0
 11
30.36020298441164
 21
-6.182959379026034
 31
0.0
  0
LINE
  5
BF
330
1F
100
AcDbEntity
  8
0
  6
Continuous
 62
     1
370
    15
100
AcDbLine
 10
34.81252280016653
 20
6.312026566496751
 30
0.0
 11
34.79449239512196
 21
6.308687309405467
 31
0.0
  0
SPLINE
  5
C0
330
1F
100
AcDbEntity
  8
0
  6
Continuous
 62
     1
370
    15
100
AcDbSpline
210
0.0
220
0.0
230
1.0
 70
     8
 71
     3
 72
     9
 73
     5
 74
     0
 42
0.000000001
 43
0.00000001
 40
0.0
 40
0.0
 40
0.0
 40
0.0
 40
0.1381055278028705
 40
1.0
 40
1.0
 40
1.0
 40
1.0
 10
34.69665137072316
 20
6.290567031732461
 30
0.0
 10
34.68927604233181
 20
6.289375462701301
 30
0.0
 10
34.63587247110112
 20
6.280747502255993
 30
0.0
 10
34.59084774865813
 20
6.246255421117969
 30
0.0
 10
34.55204118927232
 20
6.216526887050531
 30
0.0
  0
SPLINE
  5
C1
330
1F
100
AcDbEntity
  8
0
  6
Continuous
 62
     1
370
    15
100
AcDbSpline
210
0.0
220
0.0
230
1.0
 70
     8
 71
     3
 72
     9
 73
     5
 74
     0
 42
0.000000001
 43
0.00000001
 40
0.0
 40
0.0
 40
0.0
 40
0.0
 40
0.8514736781159213
 40
1.0
 40
1.0
 40
1.0
 40
1.0
 10
11.54947628219834
 20
6.214456091305873
 30
0.0
 10
11.51377080502307
 20
6.186162026210656
 30
0.0
 10
11.47183706344895
 20
6.152932502125047
 30
0.0
 10
11.41010539555118
 20
6.147581433270688
 30
0.0
 10
11.40093661797455
 20
6.1467866586956
 30
0.0
  0
LINE
  5
C2
330
1F
100
AcDbEntity
  8
0
  6
Continuous
 62
     1
370
    15
100
AcDbLine
 10
34.55204118927232
 20
6.216526887050531
 30
0.0
 11
34.48718574782124
 21
6.180208566269538
 31
0.0
  0
LINE
  5
C3
330
1F
100
AcDbEntity
  8
0
  6
Continuous
 62
     1
370
    15
100
AcDbLine
 10
34.43759468336813
 20
6.153425591668746
 30
0.0
 11
34.41393350203743
 21
6.149690988144538
 31
0.0
  0
SPLINE
  5
C4
330
1F
100
AcDbEntity
  8
0
  6
Continuous
 62
     1
370
    15
100
AcDbSpline
210
0.0
220
0.0
230
1.0
 70
     8
 71
     3
 72
     9
 73
     5
 74
     0
 42
0.000000001
 43
0.00000001
 40
0.0
 40
0.0
 40
0.0
 40
0.0
 40
0.7258236547578284
 40
0.9999999999999999
 40
0.9999999999999999
 40
0.9999999999999999
 40
0.9999999999999999
 10
31.03892107446902
 20
-6.271707435467579
 30
0.0
 10
31.03964151793189
 20
-6.271362506766355
 30
0.0
 10
31.0406341053988
 20
-6.270887282930701
 30
0.0
 10
31.04150876015981
 20
-6.269954358488175
 30
0.0
 10
31.04174856980554
 20
-6.269698572674134
 30
0.0
  0
SPLINE
  5
C5
330
1F
100
AcDbEntity
  8
0
  6
Continuous
 62
     1
370
    15
100
AcDbSpline
210
0.0
220
0.0
230
1.0
 70
     8
 71
     3
 72
    10
 73
     6
 74
     0
 42
0.000000001
 43
0.00000001
 40
0.0
 40
0.0
 40
0.0
 40
0.0
 40
0.5
 40
0.5
 40
1.0
 40
1.0
 40
1.0
 40
1.0
 10
34.73234913636655
 20
-3.203087855713083
 30
0.0
 10
34.65871052698602
 20
-3.189096255952036
 30
0.0
 10
34.57055953309811
 20
-3.156609644273013
 30
0.0
 10
34.3899313860416
 20
-3.06705423233101
 30
0.0
 10
34.29645911041036
 20
-3.009379129186273
 30
0.0
 10
34.21786554331997
 20
-2.94915735204032
 30
0.0
  0
SPLINE
  5
C6
330
1F
100
AcDbEntity
  8
0
  6
Continuous
 62
     1
370
    15
100
AcDbSpline
210
0.0
220
0.0
230
1.0
 70
     8
 71
     3
 72
    12
 73
     8
 74
     0
 42
0.000000001
 43
0.00000001
 40
0.0
 40
0.0
 40
0.0
 40
0.0
 40
0.5
 40
0.5
 40
0.75
 40
0.75
 40
1.0
 40
1.0
 40
1.0
 40
1.0
 10
34.21786554331996
 20
-2.949157352040308
 30
0.0
 10
34.18386059926219
 20
-2.340890472840795
 30
0.0
 10
34.14708777143368
 20
-1.66124661653962
 30
0.0
 10
34.09214422641917
 20
-0.6141374843980929
 30
0.0
 10
34.07388446626325
 20
-0.2609005236174744
 30
0.0
 10
34.03824199053835
 20
0.4388460349246854
 30
0.0
 10
34.0212971663786
 20
0.7824684775202227
 30
0.0
 10
34.00395785072218
 20
1.123385064655752
 30
0.0
  0
SPLINE
  5
C7
330
1F
100
AcDbEntity
  8
0
  6
Continuous
 62
     1
370
    15
100
AcDbSpline
210
0.0
220
0.0
230
1.0
 70
     8
 71
     3
 72
    10
 73
     6
 74
     0
 42
0.000000001
 43
0.00000001
 40
0.0
 40
0.0
 40
0.0
 40
0.0
 40
0.5000000000000001
 40
0.5000000000000001
 40
1.0
 40
1.0
 40
1.0
 40
1.0
 10
34.00395785072218
 20
1.123385064655755
 30
0.0
 10
34.07760359015004
 20
1.084604185671244
 30
0.0
 10
34.16576449411653
 20
1.035925706379103
 30
0.0
 10
34.34639058540699
 20
0.933614219263623
 30
0.0
 10
34.43984541432809
 20
0.8794538604786809
 30
0.0
 10
34.5184238298758
 20
0.8358803860486766
 30
0.0
  0
SPLINE
  5
C8
330
1F
100
AcDbEntity
  8
0
  6
Continuous
 62
     1
370
    15
100
AcDbSpline
210
0.0
220
0.0
230
1.0
 70
     8
 71
     3
 72
    12
 73
     8
 74
     0
 42
0.000000001
 43
0.00000001
 40
0.0
 40
0.0
 40
0.0
 40
0.0
 40
0.2499999999999999
 40
0.2499999999999999
 40
0.5
 40
0.5
 40
1.0
 40
1.0
 40
1.0
 40
1.0
 10
34.73234913636654
 20
-3.203087855713084
 30
0.0
 10
34.71498953401213
 20
-2.90481695716781
 30
0.0
 10
34.69807382146755
 20
-2.594460778092726
 30
0.0
 10
34.66246130998141
 20
-1.941916972937684
 30
0.0
 10
34.64421029568455
 20
-1.60224999559783
 30
0.0
 10
34.5892724537423
 20
-0.5640245313155645
 30
0.0
 10
34.55245844785851
 20
0.1530843505479314
 30
0.0
 10
34.5184238298758
 20
0.835880386048588
 30
0.0
  0
SPLINE
  5
C9
330
1F
100
AcDbEntity
  8
0
  6
Continuous
 62
     1
370
    15
100
AcDbSpline
210
0.0
220
0.0
230
1.0
 70
     8
 71
     3
 72
    10
 73
     6
 74
     0
 42
0.000000001
 43
0.00000001
 40
0.0
 40
0.0
 40
0.0
 40
0.0
 40
0.5
 40
0.5
 40
1.0
 40
1.0
 40
1.0
 40
1.0
 10
10.70441795439407
 20
-2.707460040060603
 30
0.0
 10
10.63072363366063
 20
-2.686824693670075
 30
0.0
 10
10.54250861357944
 20
-2.649661353646685
 30
0.0
 10
10.36181682503858
 20
-2.555510611245849
 30
0.0
 10
10.26835493318972
 20
-2.497937450949993
 30
0.0
 10
10.18973636711166
 20
-2.441195983117927
 30
0.0
  0
SPLINE
  5
CA
330
1F
100
AcDbEntity
  8
0
  6
Continuous
 62
     1
370
    15
100
AcDbSpline
210
0.0
220
0.0
230
1.0
 70
     8
 71
     3
 72
    12
 73
     8
 74
     0
 42
0.000000001
 43
0.00000001
 40
0.0
 40
0.0
 40
0.0
 40
0.0
 40
0.5
 40
0.5
 40
0.75
 40
0.75
 40
1.0
 40
1.0
 40
1.0
 40
1.0
 10
10.18973636711166
 20
-2.441195983117914
 30
0.0
 10
10.15448105199911
 20
-1.798887091790731
 30
0.0
 10
10.11717182759625
 20
-1.097746969596018
 30
0.0
 10
10.0627725954351
 20
-0.0442495891962626
 30
0.0
 10
10.04490741780994
 20
0.3069644673152213
 30
0.0
 10
10.01042634712592
 20
0.9949468648857971
 30
0.0
 10
9.993342294764261
 20
1.334900758551179
 30
0.0
 10
9.97547011720945
 20
1.671928763962944
 30
0.0
  0
SPLINE
  5
CB
330
1F
100
AcDbEntity
  8
0
  6
Continuous
 62
     1
370
    15
100
AcDbSpline
210
0.0
220
0.0
230
1.0
 70
     8
 71
     3
 72
    10
 73
     6
 74
     0
 42
0.000000001
 43
0.00000001
 40
0.0
 40
0.0
 40
0.0
 40
0.0
 40
0.5
 40
0.5
 40
1.0
 40
1.0
 40
1.0
 40
1.0
 10
9.97547011720945
 20
1.67192876396289
 30
0.0
 10
10.04916620367445
 20
1.638938299491912
 30
0.0
 10
10.13736018699639
 20
1.593679519192621
 30
0.0
 10
10.31809056405769
 20
1.493102424983658
 30
0.0
 10
10.41163634684982
 20
1.437219323260565
 30
0.0
 10
10.49032967857718
 20
1.3886577982225
 30
0.0
  0
SPLINE
  5
CC
330
1F
100
AcDbEntity
  8
0
  6
Continuous
 62
     1
370
    15
100
AcDbSpline
210
0.0
220
0.0
230
1.0
 70
     8
 71
     3
 72
    12
 73
     8
 74
     0
 42
0.000000001
 43
0.00000001
 40
0.0
 40
0.0
 40
0.0
 40
0.0
 40
0.5
 40
0.5
 40
0.75
 40
0.75
 40
1.0
 40
1.0
 40
1.0
 40
1.0
 10
10.70441795439407
 20
-2.707460040060603
 30
0.0
 10
10.66977225811285
 20
-2.082033646237891
 30
0.0
 10
10.63267420090133
 20
-1.390909669883162
 30
0.0
 10
10.57791135639993
 20
-0.3391226981350709
 30
0.0
 10
10.55981556905531
 20
0.0136686766274117
 30
0.0
 10
10.52468591041442
 20
0.7087253467168928
 30
0.0
 10
10.50795010834856
 20
1.049099346502737
 30
0.0
 10
10.49032967857717
 20
1.38865779822255
 30
0.0
  0
SPLINE
  5
CD
330
1F
100
AcDbEntity
  8
0
  6
Continuous
 62
     1
370
    15
100
AcDbSpline
210
0.0
220
0.0
230
1.0
 70
     8
 71
     3
 72
     8
 73
     4
 74
     0
 42
0.000000001
 43
0.00000001
 40
0.0
 40
0.0
 40
0.0
 40
0.0
 40
1.0
 40
1.0
 40
1.0
 40
1.0
 10
11.7304710032053
 20
-3.220220450416872
 30
0.0
 10
11.65689420763045
 20
-3.206872878621002
 30
0.0
 10
11.56749928324445
 20
-3.17439600530056
 30
0.0
 10
11.47545319204144
 20
-3.128795652626598
 30
0.0
  0
SPLINE
  5
CE
330
1F
100
AcDbEntity
  8
0
  6
Continuous
 62
     1
370
    15
100
AcDbSpline
210
0.0
220
0.0
230
1.0
 70
     8
 71
     3
 72
    14
 73
    10
 74
     0
 42
0.000000001
 43
0.00000001
 40
0.0
 40
0.0
 40
0.0
 40
0.0
 40
0.2499999999999998
 40
0.2499999999999998
 40
0.4999999999999999
 40
0.4999999999999999
 40
0.7499999999999999
 40
0.7499999999999999
 40
1.0
 40
1.0
 40
1.0
 40
1.0
 10
11.47545319204044
 20
-3.128795652626108
 30
0.0
 10
11.45836260395665
 20
-2.825040583879887
 30
0.0
 10
11.44127225454598
 20
-2.507174000188291
 30
0.0
 10
11.40566862258092
 20
-1.842471841762953
 30
0.0
 10
11.38747366453619
 20
-1.497523915335022
 30
0.0
 10
11.3510576664539
 20
-0.7966141502110061
 30
0.0
 10
11.33284026963866
 20
-0.440722315471405
 30
0.0
 10
11.29714998073599
 20
0.2668160959091361
 30
0.0
 10
11.27989906286605
 20
0.6169410299913453
 30
0.0
 10
11.26288083178638
 20
0.961043148092331
 30
0.0
  0
SPLINE
  5
CF
330
1F
100
AcDbEntity
  8
0
  6
Continuous
 62
     1
370
    15
100
AcDbSpline
210
0.0
220
0.0
230
1.0
 70
     8
 71
     3
 72
     8
 73
     4
 74
     0
 42
0.000000001
 43
0.00000001
 40
0.0
 40
0.0
 40
0.0
 40
0.0
 40
1.0
 40
1.0
 40
1.0
 40
1.0
 10
11.2628808317874
 20
0.9610431480917595
 30
0.0
 10
11.35145633325189
 20
0.9107344392180505
 30
0.0
 10
11.44115425272878
 20
0.8587969233017944
 30
0.0
 10
11.51656602226724
 20
0.8171133609147396
 30
0.0
  0
SPLINE
  5
D0
330
1F
100
AcDbEntity
  8
0
  6
Continuous
 62
     1
370
    15
100
AcDbSpline
210
0.0
220
0.0
230
1.0
 70
     8
 71
     3
 72
    12
 73
     8
 74
     0
 42
0.000000001
 43
0.00000001
 40
0.0
 40
0.0
 40
0.0
 40
0.0
 40
0.2500000000000001
 40
0.2500000000000001
 40
0.5
 40
0.5
 40
1.0
 40
1.0
 40
1.0
 40
1.0
 10
11.73047100320565
 20
-3.220220450416705
 30
0.0
 10
11.71309369749468
 20
-2.922308084792831
 30
0.0
 10
11.6962092968555
 20
-2.612511668259544
 30
0.0
 10
11.66063558717951
 20
-1.960817511428079
 30
0.0
 10
11.64239758225085
 20
-1.621460074182864
 30
0.0
 10
11.58747695735106
 20
-0.583752154620442
 30
0.0
 10
11.55064434768127
 20
0.1335799993145262
 30
0.0
 10
11.5165660222676
 20
0.8171133609144372
 30
0.0
  0
SPLINE
  5
D1
330
1F
100
AcDbEntity
  8
0
  6
Continuous
 62
     1
370
    15
100
AcDbSpline
210
0.0
220
0.0
230
1.0
 70
     8
 71
     3
 72
     8
 73
     4
 74
     0
 42
0.000000001
 43
0.00000001
 40
0.0
 40
0.0
 40
0.0
 40
0.0
 40
1.0
 40
1.0
 40
1.0
 40
1.0
 10
11.47545319204044
 20
-3.128795652626101
 30
0.0
 10
11.38688262675281
 20
-3.084001831641888
 30
0.0
 10
11.29717336970468
 20
-3.027811855476476
 30
0.0
 10
11.22175183407235
 20
-2.969477909919976
 30
0.0
  0
SPLINE
  5
D2
330
1F
100
AcDbEntity
  8
0
  6
Continuous
 62
     1
370
    15
100
AcDbSpline
210
0.0
220
0.0
230
1.0
 70
     8
 71
     3
 72
    12
 73
     8
 74
     0
 42
0.000000001
 43
0.00000001
 40
0.0
 40
0.0
 40
0.0
 40
0.0
 40
0.4999999999999999
 40
0.4999999999999999
 40
0.7499999999999999
 40
0.7499999999999999
 40
1.0
 40
1.0
 40
1.0
 40
1.0
 10
11.22175183407235
 20
-2.969477909919966
 30
0.0
 10
11.18769438508978
 20
-2.361874848363226
 30
0.0
 10
11.15107033484356
 20
-1.683771851743673
 30
0.0
 10
11.09612806520499
 20
-0.6369742520163219
 30
0.0
 10
11.07786015354665
 20
-0.2836769111141417
 30
0.0
 10
11.04218539315067
 20
0.4165097681772835
 30
0.0
 10
11.02520289773724
 20
0.7605944774272275
 30
0.0
 10
11.00789188880784
 20
1.101647563295399
 30
0.0
  0
SPLINE
  5
D3
330
1F
100
AcDbEntity
  8
0
  6
Continuous
 62
     1
370
    15
100
AcDbSpline
210
0.0
220
0.0
230
1.0
 70
     8
 71
     3
 72
     8
 73
     4
 74
     0
 42
0.000000001
 43
0.00000001
 40
0.0
 40
0.0
 40
0.0
 40
0.0
 40
1.0
 40
1.0
 40
1.0
 40
1.0
 10
11.00789188880785
 20
1.10164756329535
 30
0.0
 10
11.0814624860008
 20
1.062719773802616
 30
0.0
 10
11.17085358008757
 20
1.0132455419343
 30
0.0
 10
11.26288083178639
 20
0.9610431480923222
 30
0.0
  0
SPLINE
  5
D4
330
1F
100
AcDbEntity
  8
0
  6
Continuous
 62
     4
370
    15
100
AcDbSpline
210
0.0
220
0.0
230
1.0
 70
     8
 71
     3
 72
     8
 73
     4
 74
     0
 42
0.000000001
 43
0.00000001
 40
0.0
 40
0.0
 40
0.0
 40
0.0
 40
0.0000201722732124
 40
0.0000201722732124
 40
0.0000201722732124
 40
0.0000201722732124
 10
9.415431790151803
 20
-2.047739312323218
 30
0.0
 10
9.415386899563622
 20
-2.049033715082901
 30
0.0
 10
9.415342701453582
 20
-2.050338897903487
 30
0.0
 10
9.41529918967765
 20
-2.051654851260631
 30
0.0
  0
SPLINE
  5
D7
330
1F
100
AcDbEntity
  8
0
  6
Continuous
 62
     1
370
    15
100
AcDbSpline
210
0.0
220
0.0
230
1.0
 70
     8
 71
     3
 72
     8
 73
     4
 74
     0
 42
0.000000001
 43
0.00000001
 40
0.0
 40
0.0
 40
0.0
 40
0.0
 40
1.0
 40
1.0
 40
1.0
 40
1.0
 10
9.912157015402233
 20
6.258466721042799
 30
0.0
 10
9.61682900964902
 20
6.232508231638619
 30
0.0
 10
9.319719063190313
 20
6.199656227505841
 30
0.0
 10
9.0222775345559
 20
6.160023273167745
 30
0.0
  0
SPLINE
  5
D8
330
1F
100
AcDbEntity
  8
0
  6
Continuous
 62
     4
370
    15
100
AcDbSpline
210
0.0
220
0.0
230
1.0
 70
     8
 71
     3
 72
    14
 73
    10
 74
     0
 42
0.000000001
 43
0.00000001
 40
0.0
 40
0.0
 40
0.0
 40
0.0
 40
0.2500000000000001
 40
0.2500000000000001
 40
0.5000000000000002
 40
0.5000000000000002
 40
0.7500000000000001
 40
0.7500000000000001
 40
1.0
 40
1.0
 40
1.0
 40
1.0
 10
7.881999355590305
 20
6.280745634549005
 30
0.0
 10
7.881999355590305
 20
6.263637197965252
 30
0.0
 10
7.916081251351454
 20
6.242210911183847
 30
0.0
 10
8.045407690884812
 20
6.198866840079253
 30
0.0
 10
8.141153117445132
 20
6.177071172832012
 30
0.0
 10
8.372521273899181
 20
6.145376062683461
 30
0.0
 10
8.505278526413043
 20
6.136088547633207
 30
0.0
 10
8.771594584330053
 20
6.135606225319416
 30
0.0
 10
8.905340813901681
 20
6.144441899136305
 30
0.0
 10
9.0222775345559
 20
6.160023273167745
 30
0.0
  0
LINE
  5
D9
330
1F
100
AcDbEntity
  8
0
  6
Continuous
 62
     4
370
    15
100
AcDbLine
 10
7.88199934595487
 20
6.332028115770481
 30
0.0
 11
7.88199934595487
 21
3.210783161825201
 31
0.0
  0
SPLINE
  5
DA
330
1F
100
AcDbEntity
  8
0
  6
Continuous
 62
     4
370
    15
100
AcDbSpline
210
0.0
220
0.0
230
1.0
 70
     8
 71
     3
 72
    10
 73
     6
 74
     0
 42
0.000000001
 43
0.00000001
 40
0.0
 40
0.0
 40
0.0
 40
0.0
 40
0.5
 40
0.5
 40
1.0
 40
1.0
 40
1.0
 40
1.0
 10
8.265404761725112
 20
2.613701670673889
 30
0.0
 10
8.14713862465863
 20
2.67580836721547
 30
0.0
 10
8.049675952540401
 20
2.765804690163401
 30
0.0
 10
7.917043206194518
 20
2.974576411628945
 30
0.0
 10
7.881999355590312
 20
3.093269696051404
 30
0.0
 10
7.881999355590307
 20
3.210783209668207
 30
0.0
  0
SPLINE
  5
DB
330
1F
100
AcDbEntity
  8
0
  6
Continuous
 62
     4
370
    15
100
AcDbSpline
210
0.0
220
0.0
230
1.0
 70
     8
 71
     3
 72
     8
 73
     4
 74
     0
 42
0.000000001
 43
0.00000001
 40
0.0
 40
0.0
 40
0.0
 40
0.0
 40
1.0
 40
1.0
 40
1.0
 40
1.0
 10
9.202592846341272
 20
2.113080253777419
 30
0.0
 10
8.8903208439839
 20
2.28270583090932
 30
0.0
 10
8.577359577126813
 20
2.4498806181274
 30
0.0
 10
8.265404761725112
 20
2.613701670673889
 30
0.0
  0
SPLINE
  5
DC
330
1F
100
AcDbEntity
  8
0
  6
Continuous
 62
     4
370
    15
100
AcDbSpline
210
0.0
220
0.0
230
1.0
 70
     8
 71
     3
 72
     8
 73
     4
 74
     0
 42
0.000000001
 43
0.00000001
 40
0.0
 40
0.0
 40
0.0
 40
0.0
 40
1.0
 40
1.0
 40
1.0
 40
1.0
 10
9.41529918967765
 20
-2.051654851260625
 30
0.0
 10
9.28443929434891
 20
-1.980109148506829
 30
0.0
 10
9.15339041743768
 20
-1.908097366533209
 30
0.0
 10
9.0222775345559
 20
-1.835687479960463
 30
0.0
  0
SPLINE
  5
DD
330
1F
100
AcDbEntity
  8
0
  6
Continuous
 62
     4
370
    15
100
AcDbSpline
210
0.0
220
0.0
230
1.0
 70
     8
 71
     3
 72
    14
 73
    10
 74
     0
 42
0.000000001
 43
0.00000001
 40
0.0
 40
0.0
 40
0.0
 40
0.0
 40
0.25
 40
0.25
 40
0.5
 40
0.5
 40
0.75
 40
0.75
 40
1.0
 40
1.0
 40
1.0
 40
1.0
 10
7.881999355590307
 20
-2.469839353631975
 30
0.0
 10
7.881999355590307
 20
-2.345411402670284
 30
0.0
 10
7.916081251351454
 20
-2.220927948663688
 30
0.0
 10
8.045407690884812
 20
-2.001587420081697
 30
0.0
 10
8.141153117445132
 20
-1.906565718614011
 30
0.0
 10
8.372521273899181
 20
-1.774775442960334
 30
0.0
 10
8.505278526413043
 20
-1.739446166889433
 30
0.0
 10
8.771594584330053
 20
-1.737563799648863
 30
0.0
 10
8.905340813901681
 20
-1.771106681394732
 30
0.0
 10
9.0222775345559
 20
-1.835687479960464
 30
0.0
  0
LINE
  5
DE
330
1F
100
AcDbEntity
  8
0
  6
Continuous
 62
     4
370
    15
100
AcDbLine
 10
7.88199934595487
 20
-2.469839371138551
 30
0.0
 11
7.88199934595487
 21
-6.367666722604373
 31
0.0
  0
SPLINE
  5
DF
330
1F
100
AcDbEntity
  8
0
  6
Continuous
 62
     4
370
    15
100
AcDbSpline
210
0.0
220
0.0
230
1.0
 70
     8
 71
     3
 72
     8
 73
     4
 74
     0
 42
0.000000001
 43
0.00000001
 40
0.0
 40
0.0
 40
0.0
 40
0.0
 40
1.0
 40
1.0
 40
1.0
 40
1.0
 10
8.265404761725112
 20
-6.338565886166982
 30
0.0
 10
8.115912716109982
 20
-6.346857891900385
 30
0.0
 10
8.000610757459913
 20
-6.35800600145858
 30
0.0
 10
7.937194547051303
 20
-6.363813176069097
 30
0.0
  0
SPLINE
  5
E0
330
1F
100
AcDbEntity
  8
0
  6
Continuous
 62
     4
370
    15
100
AcDbSpline
210
0.0
220
0.0
230
1.0
 70
     8
 71
     3
 72
     9
 73
     5
 74
     0
 42
0.000000001
 43
0.00000001
 40
0.0
 40
0.0
 40
0.0
 40
0.0
 40
0.3502077325655289
 40
1.0
 40
1.0
 40
1.0
 40
1.0
 10
7.887654918704544
 20
-6.367582903572657
 30
0.0
 10
7.885873229268953
 20
-6.367729432704424
 30
0.0
 10
7.880785707578503
 20
-6.368147839033417
 30
0.0
 10
7.881521338603284
 20
-6.367856216604011
 30
0.0
 10
7.88199934595487
 20
-6.367666722604373
 30
0.0
  0
SPLINE
  5
E1
330
1F
100
AcDbEntity
  8
0
  6
Continuous
 62
     4
370
    15
100
AcDbSpline
210
0.0
220
0.0
230
1.0
 70
     8
 71
     3
 72
     8
 73
     4
 74
     0
 42
0.000000001
 43
0.00000001
 40
0.0
 40
0.0
 40
0.0
 40
0.0
 40
1.0
 40
1.0
 40
1.0
 40
1.0
 10
9.890143101021781
 20
-6.180030481340289
 30
0.0
 10
9.351433610695121
 20
-6.255357966569635
 30
0.0
 10
8.806906725044442
 20
-6.308529924280066
 30
0.0
 10
8.265404761725112
 20
-6.338565886166979
 30
0.0
  0
LINE
  5
E2
330
1F
100
AcDbEntity
  8
0
  6
Continuous
 62
     4
370
    15
100
AcDbLine
 10
9.893792196635523
 20
-6.160266773172953
 30
0.0
 11
9.890143158372851
 21
-6.180030369528868
 31
0.0
  0
LINE
  5
E3
330
1F
100
AcDbEntity
  8
0
  6
Continuous
 62
     4
370
    15
100
AcDbLine
 10
-40.38784305612334
 20
6.332028115770481
 30
0.0
 11
-40.38784305612334
 21
-6.367971730747559
 31
0.0
  0
SPLINE
  5
E4
330
1F
100
AcDbEntity
  8
0
  6
Continuous
 62
     1
370
    15
100
AcDbSpline
210
0.0
220
0.0
230
1.0
 70
     8
 71
     3
 72
     8
 73
     4
 74
     0
 42
0.000000001
 43
0.00000001
 40
0.0
 40
0.0
 40
0.0
 40
0.0
 40
1.0
 40
1.0
 40
1.0
 40
1.0
 10
33.70048240552011
 20
-2.688081529728086
 30
0.0
 10
33.62687616055307
 20
-2.667521780260248
 30
0.0
 10
33.53744982179068
 20
-2.629899540663652
 30
0.0
 10
33.44541380297164
 20
-2.581815330251106
 30
0.0
  0
SPLINE
  5
E5
330
1F
100
AcDbEntity
  8
0
  6
Continuous
 62
     1
370
    15
100
AcDbSpline
210
0.0
220
0.0
230
1.0
 70
     8
 71
     3
 72
    12
 73
     8
 74
     0
 42
0.000000001
 43
0.00000001
 40
0.0
 40
0.0
 40
0.0
 40
0.0
 40
0.4999999999999998
 40
0.4999999999999998
 40
0.7499999999999999
 40
0.7499999999999999
 40
1.0
 40
1.0
 40
1.0
 40
1.0
 10
33.44541380297058
 20
-2.581815330250566
 30
0.0
 10
33.41059870083131
 20
-1.940399230161981
 30
0.0
 10
33.37360125700772
 20
-1.237319786991467
 30
0.0
 10
33.31936441525296
 20
-0.175216170817662
 30
0.0
 10
33.30150390702584
 20
0.1797895088637576
 30
0.0
 10
33.26693448608625
 20
0.8770762763390956
 30
0.0
 10
33.25018834694324
 20
1.219707657078296
 30
0.0
 10
33.23253960216729
 20
1.560936889084677
 30
0.0
  0
SPLINE
  5
E6
330
1F
100
AcDbEntity
  8
0
  6
Continuous
 62
     1
370
    15
100
AcDbSpline
210
0.0
220
0.0
230
1.0
 70
     8
 71
     3
 72
     8
 73
     4
 74
     0
 42
0.000000001
 43
0.00000001
 40
0.0
 40
0.0
 40
0.0
 40
0.0
 40
1.0
 40
1.0
 40
1.0
 40
1.0
 10
33.23253960216832
 20
1.560936889084127
 30
0.0
 10
33.32114238677298
 20
1.511319727119165
 30
0.0
 10
33.41091230478659
 20
1.457395709327557
 30
0.0
 10
33.48641440898902
 20
1.410484917137879
 30
0.0
  0
SPLINE
  5
E7
330
1F
100
AcDbEntity
  8
0
  6
Continuous
 62
     1
370
    15
100
AcDbSpline
210
0.0
220
0.0
230
1.0
 70
     8
 71
     3
 72
    12
 73
     8
 74
     0
 42
0.000000001
 43
0.00000001
 40
0.0
 40
0.0
 40
0.0
 40
0.0
 40
0.5
 40
0.5
 40
0.75
 40
0.75
 40
1.0
 40
1.0
 40
1.0
 40
1.0
 10
33.70048240552053
 20
-2.688081529727932
 30
0.0
 10
33.66579161292151
 20
-2.061161587050201
 30
0.0
 10
33.62867923908554
 20
-1.36905309287667
 30
0.0
 10
33.57394692624623
 20
-0.3168051319680021
 30
0.0
 10
33.55586967764305
 20
0.0359759930435104
 30
0.0
 10
33.52079132229049
 20
0.7307094082713312
 30
0.0
 10
33.50405264888298
 20
1.071009858841194
 30
0.0
 10
33.48641440898911
 20
1.410484917137836
 30
0.0
  0
SPLINE
  5
E8
330
1F
100
AcDbEntity
  8
0
  6
Continuous
 62
     1
370
    15
100
AcDbSpline
210
0.0
220
0.0
230
1.0
 70
     8
 71
     3
 72
     8
 73
     4
 74
     0
 42
0.000000001
 43
0.00000001
 40
0.0
 40
0.0
 40
0.0
 40
0.0
 40
1.0
 40
1.0
 40
1.0
 40
1.0
 10
33.44541380297059
 20
-2.581815330250564
 30
0.0
 10
33.35678599412241
 20
-2.534818836249316
 30
0.0
 10
33.26704321180851
 20
-2.478924589550252
 30
0.0
 10
33.19156738598079
 20
-2.424254108855632
 30
0.0
  0
SPLINE
  5
E9
330
1F
100
AcDbEntity
  8
0
  6
Continuous
 62
     1
370
    15
100
AcDbSpline
210
0.0
220
0.0
230
1.0
 70
     8
 71
     3
 72
    12
 73
     8
 74
     0
 42
0.000000001
 43
0.00000001
 40
0.0
 40
0.0
 40
0.0
 40
0.0
 40
0.5000000000000001
 40
0.5000000000000001
 40
0.7500000000000002
 40
0.7500000000000002
 40
1.0
 40
1.0
 40
1.0
 40
1.0
 10
33.19156738598048
 20
-2.424254108855402
 30
0.0
 10
33.15628124808632
 20
-1.780764964478966
 30
0.0
 10
33.11896897023172
 20
-1.078915312380727
 30
0.0
 10
33.06460824772562
 20
-0.0252149429274954
 30
0.0
 10
33.04676281630624
 20
0.3259281666648049
 30
0.0
 10
33.0123324361678
 20
1.013522634602522
 30
0.0
 10
32.99520868988906
 20
1.35362353156772
 30
0.0
 10
32.97732523871533
 20
1.69051959480311
 30
0.0
  0
SPLINE
  5
EA
330
1F
100
AcDbEntity
  8
0
  6
Continuous
 62
     1
370
    15
100
AcDbSpline
210
0.0
220
0.0
230
1.0
 70
     8
 71
     3
 72
     8
 73
     4
 74
     0
 42
0.000000001
 43
0.00000001
 40
0.0
 40
0.0
 40
0.0
 40
0.0
 40
1.0
 40
1.0
 40
1.0
 40
1.0
 10
32.97732523871559
 20
1.690519594803147
 30
0.0
 10
33.05098175495268
 20
1.657911929388462
 30
0.0
 10
33.14042579158647
 20
1.612208871723876
 30
0.0
 10
33.23253960216729
 20
1.560936889084703
 30
0.0
  0
SPLINE
  5
EB
330
1F
100
AcDbEntity
  8
0
  6
Continuous
 62
     1
370
    15
100
AcDbSpline
210
0.0
220
0.0
230
1.0
 70
     8
 71
     3
 72
    10
 73
     6
 74
     0
 42
0.000000001
 43
0.00000001
 40
0.0
 40
0.0
 40
0.0
 40
0.0
 40
0.5
 40
0.5
 40
1.0
 40
1.0
 40
1.0
 40
1.0
 10
32.67380354848424
 20
-2.149517936668977
 30
0.0
 10
32.6000889326073
 20
-2.121806949434478
 30
0.0
 10
32.51186123782937
 20
-2.079947147776675
 30
0.0
 10
32.3310813147753
 20
-1.981912141222046
 30
0.0
 10
32.23752746960612
 20
-1.925160420120352
 30
0.0
 10
32.15883170982805
 20
-1.872924448799071
 30
0.0
  0
SPLINE
  5
EC
330
1F
100
AcDbEntity
  8
0
  6
Continuous
 62
     1
370
    15
100
AcDbSpline
210
0.0
220
0.0
230
1.0
 70
     8
 71
     3
 72
    12
 73
     8
 74
     0
 42
0.000000001
 43
0.00000001
 40
0.0
 40
0.0
 40
0.0
 40
0.0
 40
0.5
 40
0.5
 40
0.75
 40
0.75
 40
1.0
 40
1.0
 40
1.0
 40
1.0
 10
32.15883170982804
 20
-1.872924448799061
 30
0.0
 10
32.12267565293524
 20
-1.202080998510667
 30
0.0
 10
32.08535066971766
 20
-0.4881806762722373
 30
0.0
 10
32.03226225835818
 20
0.5576348035195945
 30
0.0
 10
32.01548905145442
 20
0.8991454302138642
 30
0.0
 10
31.98058956829792
 20
1.579342875326624
 30
0.0
 10
31.96257792003459
 20
1.917179902883966
 30
0.0
 10
31.94437117458807
 20
2.245327059355951
 30
0.0
  0
SPLINE
  5
ED
330
1F
100
AcDbEntity
  8
0
  6
Continuous
 62
     1
370
    15
100
AcDbSpline
210
0.0
220
0.0
230
1.0
 70
     8
 71
     3
 72
    10
 73
     6
 74
     0
 42
0.000000001
 43
0.00000001
 40
0.0
 40
0.0
 40
0.0
 40
0.0
 40
0.5
 40
0.5
 40
1.0
 40
1.0
 40
1.0
 40
1.0
 10
31.94437117458813
 20
2.245327059355009
 30
0.0
 10
32.01812748294224
 20
2.219305359053623
 30
0.0
 10
32.1063955090026
 20
2.178564619353989
 30
0.0
 10
32.28720516303116
 20
2.081419302706987
 30
0.0
 10
32.3807421453965
 20
2.024436348085198
 30
0.0
 10
32.45942034557891
 20
1.971089554688011
 30
0.0
  0
SPLINE
  5
EE
330
1F
100
AcDbEntity
  8
0
  6
Continuous
 62
     1
370
    15
100
AcDbSpline
210
0.0
220
0.0
230
1.0
 70
     8
 71
     3
 72
    12
 73
     8
 74
     0
 42
0.000000001
 43
0.00000001
 40
0.0
 40
0.0
 40
0.0
 40
0.0
 40
0.5
 40
0.5
 40
0.75
 40
0.75
 40
1.0
 40
1.0
 40
1.0
 40
1.0
 10
32.67380354848423
 20
-2.149517936668941
 30
0.0
 10
32.6380217491643
 20
-1.491353971221395
 30
0.0
 10
32.60063607557466
 20
-0.7823001961084138
 30
0.0
 10
32.54682763305892
 20
0.2690079528665723
 30
0.0
 10
32.52951092151307
 20
0.6156691756317281
 30
0.0
 10
32.49526996279985
 20
1.297416668301492
 30
0.0
 10
32.47749639515693
 20
1.638071965676153
 30
0.0
 10
32.45942034557891
 20
1.971089554688185
 30
0.0
  0
SPLINE
  5
EF
330
1F
100
AcDbEntity
  8
0
  6
Continuous
 62
     1
370
    15
100
AcDbSpline
210
0.0
220
0.0
230
1.0
 70
     8
 71
     3
 72
     9
 73
     5
 74
     0
 42
0.000000001
 43
0.00000001
 40
0.0
 40
0.0
 40
0.0
 40
0.0
 40
0.2992292604261273
 40
1.0
 40
1.0
 40
1.0
 40
1.0
 10
34.1320966645073
 20
-2.891562722021082
 30
0.0
 10
34.05047025965466
 20
-2.912566923325345
 30
0.0
 10
33.77768141294762
 20
-2.98276126619927
 30
0.0
 10
33.47136940441703
 20
-3.121573488694883
 30
0.0
 10
33.25671491165868
 20
-3.218849032515028
 30
0.0
  0
SPLINE
  5
F0
330
1F
100
AcDbEntity
  8
0
  6
Continuous
 62
     1
370
    15
100
AcDbSpline
210
0.0
220
0.0
230
1.0
 70
     8
 71
     3
 72
     8
 73
     4
 74
     0
 42
0.000000001
 43
0.00000001
 40
0.0
 40
0.0
 40
0.0
 40
0.0
 40
1.0
 40
1.0
 40
1.0
 40
1.0
 10
35.31215701540224
 20
-3.730233715737691
 30
0.0
 10
34.60960661047698
 20
-3.622599168301233
 30
0.0
 10
33.92504650642022
 20
-3.450018608531972
 30
0.0
 10
33.25671579784132
 20
-3.218849005334936
 30
0.0
  0
LINE
  5
F1
330
1F
100
AcDbEntity
  8
0
  6
Continuous
 62
     1
370
    15
100
AcDbLine
 10
35.31215687235108
 20
-5.28600726402674
 30
0.0
 11
35.31215687235108
 21
-3.730233601623514
 31
0.0
  0
SPLINE
  5
F2
330
1F
100
AcDbEntity
  8
0
  6
Continuous
 62
     1
370
    15
100
AcDbSpline
210
0.0
220
0.0
230
1.0
 70
     8
 71
     3
 72
     8
 73
     4
 74
     0
 42
0.000000001
 43
0.00000001
 40
0.0
 40
0.0
 40
0.0
 40
0.0
 40
1.0
 40
1.0
 40
1.0
 40
1.0
 10
34.8404516491006
 20
-5.788329638287568
 30
0.0
 10
34.99582053734623
 20
-5.618527018939647
 30
0.0
 10
35.15284413546056
 20
-5.450874116080925
 30
0.0
 10
35.31215701540224
 20
-5.286007397511806
 30
0.0
  0
SPLINE
  5
F3
330
1F
100
AcDbEntity
  8
0
  6
Continuous
 62
     1
370
    15
100
AcDbSpline
210
0.0
220
0.0
230
1.0
 70
     8
 71
     3
 72
     8
 73
     4
 74
     0
 42
0.000000001
 43
0.00000001
 40
0.0
 40
0.0
 40
0.0
 40
0.0
 40
1.0
 40
1.0
 40
1.0
 40
1.0
 10
34.68964023086809
 20
-5.75885413103498
 30
0.0
 10
34.73545196640733
 20
-5.779240295541909
 30
0.0
 10
34.78586748151153
 20
-5.788753695723649
 30
0.0
 10
34.84045164910053
 20
-5.788329638287514
 30
0.0
  0
SPLINE
  5
F4
330
1F
100
AcDbEntity
  8
0
  6
Continuous
 62
     1
370
    15
100
AcDbSpline
210
0.0
220
0.0
230
1.0
 70
     8
 71
     3
 72
    10
 73
     6
 74
     0
 42
0.000000001
 43
0.00000001
 40
0.0
 40
0.0
 40
0.0
 40
0.0
 40
0.5
 40
0.5
 40
1.0
 40
1.0
 40
1.0
 40
1.0
 10
34.17172598445244
 20
-5.869195153273331
 30
0.0
 10
34.24990404409768
 20
-5.798571731782825
 30
0.0
 10
34.34345901045095
 20
-5.755202058010449
 30
0.0
 10
34.52763909697315
 20
-5.718961225563817
 30
0.0
 10
34.61597016938773
 20
-5.726071046637564
 30
0.0
 10
34.68964023086819
 20
-5.758854131035021
 30
0.0
  0
SPLINE
  5
F5
330
1F
100
AcDbEntity
  8
0
  6
Continuous
 62
     1
370
    15
100
AcDbSpline
210
0.0
220
0.0
230
1.0
 70
     8
 71
     3
 72
     8
 73
     4
 74
     0
 42
0.000000001
 43
0.00000001
 40
0.0
 40
0.0
 40
0.0
 40
0.0
 40
1.0
 40
1.0
 40
1.0
 40
1.0
 10
33.91778610943678
 20
-5.998598307282961
 30
0.0
 10
34.00643334566788
 20
-5.980818497596914
 30
0.0
 10
34.09622128389785
 20
-5.937403552355754
 30
0.0
 10
34.17172598445212
 20
-5.869195153273605
 30
0.0
  0
SPLINE
  5
F6
330
1F
100
AcDbEntity
  8
0
  6
Continuous
 62
     1
370
    15
100
AcDbSpline
210
0.0
220
0.0
230
1.0
 70
     8
 71
     3
 72
     8
 73
     4
 74
     0
 42
0.000000001
 43
0.00000001
 40
0.0
 40
0.0
 40
0.0
 40
0.0
 40
1.0
 40
1.0
 40
1.0
 40
1.0
 10
33.66257007716772
 20
-5.963131672778399
 30
0.0
 10
33.73621367228661
 20
-6.003107136546184
 30
0.0
 10
33.82567946461332
 20
-6.014805163920741
 30
0.0
 10
33.91778610943587
 20
-5.998598307283137
 30
0.0
  0
SPLINE
  5
F7
330
1F
100
AcDbEntity
  8
0
  6
Continuous
 62
     1
370
    15
100
AcDbSpline
210
0.0
220
0.0
230
1.0
 70
     8
 71
     3
 72
    10
 73
     6
 74
     0
 42
0.000000001
 43
0.00000001
 40
0.0
 40
0.0
 40
0.0
 40
0.0
 40
0.5
 40
0.5
 40
1.0
 40
1.0
 40
1.0
 40
1.0
 10
33.14481751192923
 20
-6.043684035202958
 30
0.0
 10
33.22344952838726
 20
-5.975038110502549
 30
0.0
 10
33.31711567885084
 20
-5.935671269731685
 30
0.0
 10
33.50112650547144
 20
-5.909909446206644
 30
0.0
 10
33.58930874341532
 20
-5.923363709409761
 30
0.0
 10
33.66257007716764
 20
-5.963131672778266
 30
0.0
  0
SPLINE
  5
F8
330
1F
100
AcDbEntity
  8
0
  6
Continuous
 62
     1
370
    15
100
AcDbSpline
210
0.0
220
0.0
230
1.0
 70
     8
 71
     3
 72
    10
 73
     6
 74
     0
 42
0.000000001
 43
0.00000001
 40
0.0
 40
0.0
 40
0.0
 40
0.0
 40
0.5
 40
0.5
 40
1.0
 40
1.0
 40
1.0
 40
1.0
 10
32.63011411737667
 20
-6.11266683219992
 30
0.0
 10
32.70382315739681
 20
-6.157679813347862
 30
0.0
 10
32.79204308648832
 20
-6.174123831851235
 30
0.0
 10
32.97271911613332
 20
-6.151691175332939
 30
0.0
 10
33.06616312509535
 20
-6.112349489291075
 30
0.0
 10
33.14481751192928
 20
-6.043684035202919
 30
0.0
  0
SPLINE
  5
F9
330
1F
100
AcDbEntity
  8
0
  6
Continuous
 62
     1
370
    15
100
AcDbSpline
210
0.0
220
0.0
230
1.0
 70
     8
 71
     3
 72
    10
 73
     6
 74
     0
 42
0.000000001
 43
0.00000001
 40
0.0
 40
0.0
 40
0.0
 40
0.0
 40
0.5
 40
0.5
 40
1.0
 40
1.0
 40
1.0
 40
1.0
 10
32.11277533282955
 20
-6.170530224359693
 30
0.0
 10
32.19086377347278
 20
-6.103272042664287
 30
0.0
 10
32.28432810111633
 20
-6.066927038522586
 30
0.0
 10
32.46832974830248
 20
-6.049304899237672
 30
0.0
 10
32.55655078190891
 20
-6.067742830589181
 30
0.0
 10
32.63011411737667
 20
-6.112666832199926
 30
0.0
  0
SPLINE
  5
FA
330
1F
100
AcDbEntity
  8
0
  6
Continuous
 62
     1
370
    15
100
AcDbSpline
210
0.0
220
0.0
230
1.0
 70
     8
 71
     3
 72
     8
 73
     4
 74
     0
 42
0.000000001
 43
0.00000001
 40
0.0
 40
0.0
 40
0.0
 40
0.0
 40
1.0
 40
1.0
 40
1.0
 40
1.0
 10
31.859069037704
 20
-6.280098583488151
 30
0.0
 10
31.94764914577171
 20
-6.271493279751329
 30
0.0
 10
32.03735702933237
 20
-6.235488596149137
 30
0.0
 10
32.11277533282918
 20
-6.17053022436
 30
0.0
  0
SPLINE
  5
FB
330
1F
100
AcDbEntity
  8
0
  6
Continuous
 62
     1
370
    15
100
AcDbSpline
210
0.0
220
0.0
230
1.0
 70
     8
 71
     3
 72
     8
 73
     4
 74
     0
 42
0.000000001
 43
0.00000001
 40
0.0
 40
0.0
 40
0.0
 40
0.0
 40
1.0
 40
1.0
 40
1.0
 40
1.0
 10
31.60405119901893
 20
-6.212026513639518
 30
0.0
 10
31.67763028706627
 20
-6.263482283534017
 30
0.0
 10
31.76702964104303
 20
-6.286601947856589
 30
0.0
 10
31.85906903770299
 20
-6.280098583488238
 30
0.0
  0
SPLINE
  5
FC
330
1F
100
AcDbEntity
  8
0
  6
Continuous
 62
     1
370
    15
100
AcDbSpline
210
0.0
220
0.0
230
1.0
 70
     8
 71
     3
 72
    10
 73
     6
 74
     0
 42
0.000000001
 43
0.00000001
 40
0.0
 40
0.0
 40
0.0
 40
0.0
 40
0.5
 40
0.5
 40
1.0
 40
1.0
 40
1.0
 40
1.0
 10
31.08643483283253
 20
-6.238481207754214
 30
0.0
 10
31.16504787847818
 20
-6.174510478745511
 30
0.0
 10
31.25869669246929
 20
-6.142930548970178
 30
0.0
 10
31.44267422544068
 20
-6.13628076729688
 30
0.0
 10
31.53083216572446
 20
-6.160822539397589
 30
0.0
 10
31.60405119901856
 20
-6.21202651363922
 30
0.0
  0
SPLINE
  5
FD
330
1F
100
AcDbEntity
  8
0
  6
Continuous
 62
     1
370
    15
100
AcDbSpline
210
0.0
220
0.0
230
1.0
 70
     8
 71
     3
 72
    10
 73
     6
 74
     0
 42
0.000000001
 43
0.00000001
 40
0.0
 40
0.0
 40
0.0
 40
0.0
 40
0.5
 40
0.5
 40
1.0
 40
1.0
 40
1.0
 40
1.0
 10
30.57152605941121
 20
-6.25337324599804
 30
0.0
 10
30.6452592433408
 20
-6.308946934082083
 30
0.0
 10
30.73345004411272
 20
-6.336253092379707
 30
0.0
 10
30.91418142685981
 20
-6.333255944804074
 30
0.0
 10
31.00772841999805
 20
-6.302527913556426
 30
0.0
 10
31.08643483283253
 20
-6.238481207754212
 30
0.0
  0
SPLINE
  5
FE
330
1F
100
AcDbEntity
  8
0
  6
Continuous
 62
     1
370
    15
100
AcDbSpline
210
0.0
220
0.0
230
1.0
 70
     8
 71
     3
 72
    10
 73
     6
 74
     0
 42
0.000000001
 43
0.00000001
 40
0.0
 40
0.0
 40
0.0
 40
0.0
 40
0.5
 40
0.5
 40
1.0
 40
1.0
 40
1.0
 40
1.0
 10
30.05364535271548
 20
-6.25679042458883
 30
0.0
 10
30.13184519648537
 20
-6.195195538939604
 30
0.0
 10
30.22541006786787
 20
-6.167180279617389
 30
0.0
 10
30.40957019456869
 20
-6.168777018105017
 30
0.0
 10
30.49787700615203
 20
-6.197862968326859
 30
0.0
 10
30.57152605941121
 20
-6.253373245998027
 30
0.0
  0
SPLINE
  5
FF
330
1F
100
AcDbEntity
  8
0
  6
Continuous
 62
     1
370
    15
100
AcDbSpline
210
0.0
220
0.0
230
1.0
 70
     8
 71
     3
 72
     8
 73
     4
 74
     0
 42
0.000000001
 43
0.00000001
 40
0.0
 40
0.0
 40
0.0
 40
0.0
 40
1.0
 40
1.0
 40
1.0
 40
1.0
 10
29.79967050265989
 20
-6.342727212001805
 30
0.0
 10
29.88833730355764
 20
-6.343586417498392
 30
0.0
 10
29.97813295751876
 20
-6.316268514608016
 30
0.0
 10
30.05364535271513
 20
-6.256790424589116
 30
0.0
  0
SPLINE
  5
100
330
1F
100
AcDbEntity
  8
0
  6
Continuous
 62
     1
370
    15
100
AcDbSpline
210
0.0
220
0.0
230
1.0
 70
     8
 71
     3
 72
     8
 73
     4
 74
     0
 42
0.000000001
 43
0.00000001
 40
0.0
 40
0.0
 40
0.0
 40
0.0
 40
1.0
 40
1.0
 40
1.0
 40
1.0
 10
29.54437232875144
 20
-6.244465009031671
 30
0.0
 10
29.61805312022871
 20
-6.305616927661797
 30
0.0
 10
29.70754917309737
 20
-6.339311357488999
 30
0.0
 10
29.7996705026589
 20
-6.342727212001783
 30
0.0
  0
SPLINE
  5
101
330
1F
100
AcDbEntity
  8
0
  6
Continuous
 62
     1
370
    15
100
AcDbSpline
210
0.0
220
0.0
230
1.0
 70
     8
 71
     3
 72
    10
 73
     6
 74
     0
 42
0.000000001
 43
0.00000001
 40
0.0
 40
0.0
 40
0.0
 40
0.0
 40
0.5
 40
0.5
 40
1.0
 40
1.0
 40
1.0
 40
1.0
 10
29.02634725713284
 20
-6.215981031410648
 30
0.0
 10
29.10502982308244
 20
-6.158862628522249
 30
0.0
 10
29.19875634690261
 20
-6.136179705456181
 30
0.0
 10
29.38286900015384
 20
-6.14887785216774
 30
0.0
 10
29.47108312584476
 20
-6.183638092235894
 30
0.0
 10
29.54437232875112
 20
-6.244465009031423
 30
0.0
  0
SPLINE
  5
102
330
1F
100
AcDbEntity
  8
0
  6
Continuous
 62
     1
370
    15
100
AcDbSpline
210
0.0
220
0.0
230
1.0
 70
     8
 71
     3
 72
    10
 73
     6
 74
     0
 42
0.000000001
 43
0.00000001
 40
0.0
 40
0.0
 40
0.0
 40
0.0
 40
0.5
 40
0.5
 40
1.0
 40
1.0
 40
1.0
 40
1.0
 10
28.51117883051389
 20
-6.176229379233863
 30
0.0
 10
28.58492884690088
 20
-6.24046552835328
 30
0.0
 10
28.67318076789342
 20
-6.277720048177086
 30
0.0
 10
28.85401401304103
 20
-6.294215560212514
 30
0.0
 10
28.94760521413038
 20
-6.273142610754052
 30
0.0
 10
29.02634725713285
 20
-6.215981031410644
 30
0.0
  0
SPLINE
  5
103
330
1F
100
AcDbEntity
  8
0
  6
Continuous
 62
     1
370
    15
100
AcDbSpline
210
0.0
220
0.0
230
1.0
 70
     8
 71
     3
 72
    10
 73
     6
 74
     0
 42
0.000000001
 43
0.00000001
 40
0.0
 40
0.0
 40
0.0
 40
0.0
 40
0.5
 40
0.5
 40
1.0
 40
1.0
 40
1.0
 40
1.0
 10
27.99312735422166
 20
-6.124816600479727
 30
0.0
 10
28.07136691067798
 20
-6.071080271785105
 30
0.0
 10
28.16496530044351
 20
-6.052407067757843
 30
0.0
 10
28.34916118077561
 20
-6.07326818824137
 30
0.0
 10
28.4374744074427
 20
-6.112032941821282
 30
0.0
 10
28.51117883051389
 20
-6.176229379233853
 30
0.0
  0
SPLINE
  5
104
330
1F
100
AcDbEntity
  8
0
  6
Continuous
 62
     1
370
    15
100
AcDbSpline
210
0.0
220
0.0
230
1.0
 70
     8
 71
     3
 72
     8
 73
     4
 74
     0
 42
0.000000001
 43
0.00000001
 40
0.0
 40
0.0
 40
0.0
 40
0.0
 40
1.0
 40
1.0
 40
1.0
 40
1.0
 10
27.73912412044777
 20
-6.184032337819634
 30
0.0
 10
27.8278010815634
 20
-6.194349390813896
 30
0.0
 10
27.91760195654603
 20
-6.176688796311298
 30
0.0
 10
27.9931273542213
 20
-6.124816600479965
 30
0.0
  0
SPLINE
  5
105
330
1F
100
AcDbEntity
  8
0
  6
Continuous
 62
     1
370
    15
100
AcDbSpline
210
0.0
220
0.0
230
1.0
 70
     8
 71
     3
 72
     8
 73
     4
 74
     0
 42
0.000000001
 43
0.00000001
 40
0.0
 40
0.0
 40
0.0
 40
0.0
 40
1.0
 40
1.0
 40
1.0
 40
1.0
 10
27.48383375172208
 20
-6.058968679771811
 30
0.0
 10
27.55751479430798
 20
-6.127681580235453
 30
0.0
 10
27.64701180948336
 20
-6.170795407980931
 30
0.0
 10
27.73912412044674
 20
-6.184032337819501
 30
0.0
  0
SPLINE
  5
106
330
1F
100
AcDbEntity
  8
0
  6
Continuous
 62
     1
370
    15
100
AcDbSpline
210
0.0
220
0.0
230
1.0
 70
     8
 71
     3
 72
    10
 73
     6
 74
     0
 42
0.000000001
 43
0.00000001
 40
0.0
 40
0.0
 40
0.0
 40
0.0
 40
0.5
 40
0.5
 40
1.0
 40
1.0
 40
1.0
 40
1.0
 10
26.96594075152077
 20
-5.976567799365862
 30
0.0
 10
27.04460199351032
 20
-5.92830649840487
 30
0.0
 10
27.13831445812351
 20
-5.915288462324201
 30
0.0
 10
27.322393509011
 20
-5.946876940102994
 30
0.0
 10
27.41057189146389
 20
-5.990646697141697
 30
0.0
 10
27.48383375172171
 20
-6.058968679771478
 30
0.0
  0
SPLINE
  5
107
330
1F
100
AcDbEntity
  8
0
  6
Continuous
 62
     1
370
    15
100
AcDbSpline
210
0.0
220
0.0
230
1.0
 70
     8
 71
     3
 72
    10
 73
     6
 74
     0
 42
0.000000001
 43
0.00000001
 40
0.0
 40
0.0
 40
0.0
 40
0.0
 40
0.5
 40
0.5
 40
1.0
 40
1.0
 40
1.0
 40
1.0
 10
26.45105654579087
 20
-5.883743953977909
 30
0.0
 10
26.52475483410507
 20
-5.954383870555208
 30
0.0
 10
26.61296839043177
 20
-6.000232267709555
 30
0.0
 10
26.7937215592676
 20
-6.035567826305522
 30
0.0
 10
26.88726089340198
 20
-6.024840521944281
 30
0.0
 10
26.96594075152074
 20
-5.976567799365842
 30
0.0
  0
SPLINE
  5
108
330
1F
100
AcDbEntity
  8
0
  6
Continuous
 62
     1
370
    15
100
AcDbSpline
210
0.0
220
0.0
230
1.0
 70
     8
 71
     3
 72
    10
 73
     6
 74
     0
 42
0.000000001
 43
0.00000001
 40
0.0
 40
0.0
 40
0.0
 40
0.0
 40
0.5
 40
0.5
 40
1.0
 40
1.0
 40
1.0
 40
1.0
 10
25.93340437449804
 20
-5.779372206805073
 30
0.0
 10
26.01155565969004
 20
-5.735428064094542
 30
0.0
 10
26.10502656247046
 20
-5.726747991378017
 30
0.0
 10
26.28908219495274
 20
-5.76606967839062
 30
0.0
 10
26.37739487398134
 20
-5.813139134373579
 30
0.0
 10
26.45105654579088
 20
-5.883743953977904
 30
0.0
  0
SPLINE
  5
109
330
1F
100
AcDbEntity
  8
0
  6
Continuous
 62
     1
370
    15
100
AcDbSpline
210
0.0
220
0.0
230
1.0
 70
     8
 71
     3
 72
     8
 73
     4
 74
     0
 42
0.000000001
 43
0.00000001
 40
0.0
 40
0.0
 40
0.0
 40
0.0
 40
1.0
 40
1.0
 40
1.0
 40
1.0
 10
25.6796144997126
 20
-5.809779334627022
 30
0.0
 10
25.76822459890152
 20
-5.829195499865666
 30
0.0
 10
25.85794763591691
 20
-5.821801217160077
 30
0.0
 10
25.93340437449767
 20
-5.77937220680527
 30
0.0
  0
SPLINE
  5
10A
330
1F
100
AcDbEntity
  8
0
  6
Continuous
 62
     1
370
    15
100
AcDbSpline
210
0.0
220
0.0
230
1.0
 70
     8
 71
     3
 72
     8
 73
     4
 74
     0
 42
0.000000001
 43
0.00000001
 40
0.0
 40
0.0
 40
0.0
 40
0.0
 40
1.0
 40
1.0
 40
1.0
 40
1.0
 10
25.42461987874844
 20
-5.66232030459053
 30
0.0
 10
25.49819992473219
 20
-5.736166226674762
 30
0.0
 10
25.58760217035637
 20
-5.78718846098015
 30
0.0
 10
25.67961449971158
 20
-5.809779334626787
 30
0.0
  0
SPLINE
  5
10B
330
1F
100
AcDbEntity
  8
0
  6
Continuous
 62
     1
370
    15
100
AcDbSpline
210
0.0
220
0.0
230
1.0
 70
     8
 71
     3
 72
    10
 73
     6
 74
     0
 42
0.000000001
 43
0.00000001
 40
0.0
 40
0.0
 40
0.0
 40
0.0
 40
0.5
 40
0.5
 40
1.0
 40
1.0
 40
1.0
 40
1.0
 10
24.90727679786569
 20
-5.529022415998437
 30
0.0
 10
24.98585504807915
 20
-5.491303039607352
 30
0.0
 10
25.07948007141111
 20
-5.488360848099012
 30
0.0
 10
25.26338910160262
 20
-5.537667526621492
 30
0.0
 10
25.35146704427075
 20
-5.588903137709643
 30
0.0
 10
25.42461987874809
 20
-5.662320304590276
 30
0.0
  0
SPLINE
  5
10C
330
1F
100
AcDbEntity
  8
0
  6
Continuous
 62
     1
370
    15
100
AcDbSpline
210
0.0
220
0.0
230
1.0
 70
     8
 71
     3
 72
    10
 73
     6
 74
     0
 42
0.000000001
 43
0.00000001
 40
0.0
 40
0.0
 40
0.0
 40
0.0
 40
0.5
 40
0.5
 40
1.0
 40
1.0
 40
1.0
 40
1.0
 10
24.39265424980809
 20
-5.386526026058524
 30
0.0
 10
24.46631802656954
 20
-5.4610567728768
 30
0.0
 10
24.55449349788833
 20
-5.513873844472345
 30
0.0
 10
24.73516585410693
 20
-5.566781712928202
 30
0.0
 10
24.82865936433207
 20
-5.566760601288895
 30
0.0
 10
24.90727679786569
 20
-5.529022415998432
 30
0.0
  0
SPLINE
  5
10D
330
1F
100
AcDbEntity
  8
0
  6
Continuous
 62
     1
370
    15
100
AcDbSpline
210
0.0
220
0.0
230
1.0
 70
     8
 71
     3
 72
    10
 73
     6
 74
     0
 42
0.000000001
 43
0.00000001
 40
0.0
 40
0.0
 40
0.0
 40
0.0
 40
0.5
 40
0.5
 40
1.0
 40
1.0
 40
1.0
 40
1.0
 10
23.87495202615194
 20
-5.233050816133211
 30
0.0
 10
23.95308658009959
 20
-5.200436995918311
 30
0.0
 10
24.04657032526906
 20
-5.201960780070152
 30
0.0
 10
24.23065101895659
 20
-5.258289533469469
 30
0.0
 10
24.31899559917046
 20
-5.312000465694881
 30
0.0
 10
24.39265424980807
 20
-5.386526026058513
 30
0.0
  0
SPLINE
  5
10E
330
1F
100
AcDbEntity
  8
0
  6
Continuous
 62
     1
370
    15
100
AcDbSpline
210
0.0
220
0.0
230
1.0
 70
     8
 71
     3
 72
     8
 73
     4
 74
     0
 42
0.000000001
 43
0.00000001
 40
0.0
 40
0.0
 40
0.0
 40
0.0
 40
1.0
 40
1.0
 40
1.0
 40
1.0
 10
23.62101161542531
 20
-5.233437845457335
 30
0.0
 10
23.70966335907612
 20
-5.261328321853826
 30
0.0
 10
23.79942420650808
 20
-5.264576570189833
 30
0.0
 10
23.87495202615158
 20
-5.233050816133353
 30
0.0
  0
SPLINE
  5
10F
330
1F
100
AcDbEntity
  8
0
  6
Continuous
 62
     1
370
    15
100
AcDbSpline
210
0.0
220
0.0
230
1.0
 70
     8
 71
     3
 72
     8
 73
     4
 74
     0
 42
0.000000001
 43
0.00000001
 40
0.0
 40
0.0
 40
0.0
 40
0.0
 40
1.0
 40
1.0
 40
1.0
 40
1.0
 10
23.36575753791182
 20
-5.068529452321352
 30
0.0
 10
23.43944260659442
 20
-5.145003218426341
 30
0.0
 10
23.52892767614138
 20
-5.20221390623089
 30
0.0
 10
23.62101161542431
 20
-5.233437845457008
 30
0.0
  0
SPLINE
  5
110
330
1F
100
AcDbEntity
  8
0
  6
Continuous
 62
     1
370
    15
100
AcDbSpline
210
0.0
220
0.0
230
1.0
 70
     8
 71
     3
 72
    10
 73
     6
 74
     0
 42
0.000000001
 43
0.00000001
 40
0.0
 40
0.0
 40
0.0
 40
0.0
 40
0.5
 40
0.5
 40
1.0
 40
1.0
 40
1.0
 40
1.0
 10
22.84781020154745
 20
-4.888592073841568
 30
0.0
 10
22.92650131922288
 20
-4.862743198006278
 30
0.0
 10
23.02023781339155
 20
-4.870091762794225
 30
0.0
 10
23.20433173058964
 20
-4.93555084721708
 30
0.0
 10
23.29250227408902
 20
-4.992501757542586
 30
0.0
 10
23.36575753791146
 20
-5.068529452321107
 30
0.0
  0
SPLINE
  5
111
330
1F
100
AcDbEntity
  8
0
  6
Continuous
 62
     1
370
    15
100
AcDbSpline
210
0.0
220
0.0
230
1.0
 70
     8
 71
     3
 72
    10
 73
     6
 74
     0
 42
0.000000001
 43
0.00000001
 40
0.0
 40
0.0
 40
0.0
 40
0.0
 40
0.5
 40
0.5
 40
1.0
 40
1.0
 40
1.0
 40
1.0
 10
22.33271913101648
 20
-4.701144072820027
 30
0.0
 10
22.40647073147013
 20
-4.77702319530637
 30
0.0
 10
22.49473479827464
 20
-4.834986969643362
 30
0.0
 10
22.675558611346
 20
-4.903689436660947
 30
0.0
 10
22.76911722139684
 20
-4.914441561472584
 30
0.0
 10
22.84781020154744
 20
-4.888592073841572
 30
0.0
  0
SPLINE
  5
112
330
1F
100
AcDbEntity
  8
0
  6
Continuous
 62
     1
370
    15
100
AcDbSpline
210
0.0
220
0.0
230
1.0
 70
     8
 71
     3
 72
    10
 73
     6
 74
     0
 42
0.000000001
 43
0.00000001
 40
0.0
 40
0.0
 40
0.0
 40
0.0
 40
0.5
 40
0.5
 40
1.0
 40
1.0
 40
1.0
 40
1.0
 10
21.81469755221571
 20
-4.503900631197478
 30
0.0
 10
21.89288236441777
 20
-4.48366973360217
 30
0.0
 10
21.98642869832442
 20
-4.495389325009533
 30
0.0
 10
22.17062172391716
 20
-4.56682343121135
 30
0.0
 10
22.2590077647032
 20
-4.62530634511354
 30
0.0
 10
22.33271913101646
 20
-4.701144072820016
 30
0.0
  0
SPLINE
  5
113
330
1F
100
AcDbEntity
  8
0
  6
Continuous
 62
     1
370
    15
100
AcDbSpline
210
0.0
220
0.0
230
1.0
 70
     8
 71
     3
 72
     8
 73
     4
 74
     0
 42
0.000000001
 43
0.00000001
 40
0.0
 40
0.0
 40
0.0
 40
0.0
 40
1.0
 40
1.0
 40
1.0
 40
1.0
 10
21.56065642766643
 20
-4.474429982188836
 30
0.0
 10
21.64930310918491
 20
-4.509810071843448
 30
0.0
 10
21.73912863041811
 20
-4.523454647830711
 30
0.0
 10
21.81469755221535
 20
-4.503900631197563
 30
0.0
  0
SPLINE
  5
114
330
1F
100
AcDbEntity
  8
0
  6
Continuous
 62
     1
370
    15
100
AcDbSpline
210
0.0
220
0.0
230
1.0
 70
     8
 71
     3
 72
     8
 73
     4
 74
     0
 42
0.000000001
 43
0.00000001
 40
0.0
 40
0.0
 40
0.0
 40
0.0
 40
1.0
 40
1.0
 40
1.0
 40
1.0
 10
21.30529551416613
 20
-4.297747133469022
 30
0.0
 10
21.37902340623088
 20
-4.374201660620416
 30
0.0
 10
21.46852149393576
 20
-4.435658196957329
 30
0.0
 10
21.56065642766543
 20
-4.474429982188429
 30
0.0
  0
SPLINE
  5
115
330
1F
100
AcDbEntity
  8
0
  6
Continuous
 62
     1
370
    15
100
AcDbSpline
210
0.0
220
0.0
230
1.0
 70
     8
 71
     3
 72
    10
 73
     6
 74
     0
 42
0.000000001
 43
0.00000001
 40
0.0
 40
0.0
 40
0.0
 40
0.0
 40
0.5
 40
0.5
 40
1.0
 40
1.0
 40
1.0
 40
1.0
 10
20.78726210600825
 20
-4.077391323876032
 30
0.0
 10
20.86597833044639
 20
-4.064343329307109
 30
0.0
 10
20.95973835246031
 20
-4.08171917761417
 30
0.0
 10
21.14385534961191
 20
-4.161065030031029
 30
0.0
 10
21.23202541088874
 20
-4.221767325237298
 30
0.0
 10
21.30529551416579
 20
-4.297747133468842
 30
0.0
  0
SPLINE
  5
116
330
1F
100
AcDbEntity
  8
0
  6
Continuous
 62
     1
370
    15
100
AcDbSpline
210
0.0
220
0.0
230
1.0
 70
     8
 71
     3
 72
    10
 73
     6
 74
     0
 42
0.000000001
 43
0.00000001
 40
0.0
 40
0.0
 40
0.0
 40
0.0
 40
0.5
 40
0.5
 40
1.0
 40
1.0
 40
1.0
 40
1.0
 10
20.27223860405434
 20
-3.851612652185274
 30
0.0
 10
20.34598102725651
 20
-3.926155580131408
 30
0.0
 10
20.43424150924566
 20
-3.9872282627612
 30
0.0
 10
20.61504606730856
 20
-4.069303181935446
 30
0.0
 10
20.7085839948221
 20
-4.090433000795581
 30
0.0
 10
20.78726210600825
 20
-4.07739132387602
 30
0.0
  0
SPLINE
  5
117
330
1F
100
AcDbEntity
  8
0
  6
Continuous
 62
     1
370
    15
100
AcDbSpline
210
0.0
220
0.0
230
1.0
 70
     8
 71
     3
 72
    10
 73
     6
 74
     0
 42
0.000000001
 43
0.00000001
 40
0.0
 40
0.0
 40
0.0
 40
0.0
 40
0.5
 40
0.5
 40
1.0
 40
1.0
 40
1.0
 40
1.0
 10
19.75443826613614
 20
-3.617683129930835
 30
0.0
 10
19.83258261207299
 20
-3.610524383795941
 30
0.0
 10
19.92609936940243
 20
-3.631983370223703
 30
0.0
 10
20.11023588414725
 20
-3.715961195105351
 30
0.0
 10
20.19857191028132
 20
-3.777146275742804
 30
0.0
 10
20.27223860405433
 20
-3.851612652185264
 30
0.0
  0
SPLINE
  5
118
330
1F
100
AcDbEntity
  8
0
  6
Continuous
 62
     1
370
    15
100
AcDbSpline
210
0.0
220
0.0
230
1.0
 70
     8
 71
     3
 72
     8
 73
     4
 74
     0
 42
0.000000001
 43
0.00000001
 40
0.0
 40
0.0
 40
0.0
 40
0.0
 40
1.0
 40
1.0
 40
1.0
 40
1.0
 10
19.50054790267404
 20
-3.559602137088616
 30
0.0
 10
19.5891592245447
 20
-3.60111074634854
 30
0.0
 10
19.67893270746744
 20
-3.624600138702118
 30
0.0
 10
19.75443826613577
 20
-3.617683129930828
 30
0.0
  0
SPLINE
  5
119
330
1F
100
AcDbEntity
  8
0
  6
Continuous
 62
     1
370
    15
100
AcDbSpline
210
0.0
220
0.0
230
1.0
 70
     8
 71
     3
 72
     8
 73
     4
 74
     0
 42
0.000000001
 43
0.00000001
 40
0.0
 40
0.0
 40
0.0
 40
0.0
 40
1.0
 40
1.0
 40
1.0
 40
1.0
 10
19.24539481150797
 20
-3.37772083581666
 30
0.0
 10
19.31901687489294
 20
-3.451384569711421
 30
0.0
 10
19.40845290076452
 20
-3.514786060217233
 30
0.0
 10
19.50054790267303
 20
-3.559602137088133
 30
0.0
  0
SPLINE
  5
11A
330
1F
100
AcDbEntity
  8
0
  6
Continuous
 62
     1
370
    15
100
AcDbSpline
210
0.0
220
0.0
230
1.0
 70
     8
 71
     3
 72
    10
 73
     6
 74
     0
 42
0.000000001
 43
0.00000001
 40
0.0
 40
0.0
 40
0.0
 40
0.0
 40
0.5
 40
0.5
 40
1.0
 40
1.0
 40
1.0
 40
1.0
 10
18.72781722702031
 20
-3.124728806041914
 30
0.0
 10
18.80646673335766
 20
-3.124932169451835
 30
0.0
 10
18.90015699235095
 20
-3.151700492330186
 30
0.0
 10
19.08412531431288
 20
-3.242136503844792
 30
0.0
 10
19.1721939005416
 20
-3.304478492715202
 30
0.0
 10
19.2453948115076
 20
-3.377720835816496
 30
0.0
  0
SPLINE
  5
11B
330
1F
100
AcDbEntity
  8
0
  6
Continuous
 62
     1
370
    15
100
AcDbSpline
210
0.0
220
0.0
230
1.0
 70
     8
 71
     3
 72
    10
 73
     6
 74
     0
 42
0.000000001
 43
0.00000001
 40
0.0
 40
0.0
 40
0.0
 40
0.0
 40
0.5
 40
0.5
 40
1.0
 40
1.0
 40
1.0
 40
1.0
 10
18.21337417294379
 20
-2.868670587594514
 30
0.0
 10
18.28702055093476
 20
-2.93922979297726
 30
0.0
 10
18.37518667918624
 20
-3.001256273830769
 30
0.0
 10
18.55580538304892
 20
-3.093788531709945
 30
0.0
 10
18.64924122741782
 20
-3.124525632697758
 30
0.0
 10
18.7278172270203
 20
-3.124728806041893
 30
0.0
  0
SPLINE
  5
11C
330
1F
100
AcDbEntity
  8
0
  6
Continuous
 62
     1
370
    15
100
AcDbSpline
210
0.0
220
0.0
230
1.0
 70
     8
 71
     3
 72
    10
 73
     6
 74
     0
 42
0.000000001
 43
0.00000001
 40
0.0
 40
0.0
 40
0.0
 40
0.0
 40
0.5
 40
0.5
 40
1.0
 40
1.0
 40
1.0
 40
1.0
 10
17.69596366460307
 20
-2.606303105536255
 30
0.0
 10
17.77405000317242
 20
-2.612459562158219
 30
0.0
 10
17.86750607313809
 20
-2.642889243444586
 30
0.0
 10
18.05152560860943
 20
-2.736435689915961
 30
0.0
 10
18.13979404907041
 20
-2.798174859031926
 30
0.0
 10
18.21337417294377
 20
-2.868670587594512
 30
0.0
  0
SPLINE
  5
11D
330
1F
100
AcDbEntity
  8
0
  6
Continuous
 62
     1
370
    15
100
AcDbSpline
210
0.0
220
0.0
230
1.0
 70
     8
 71
     3
 72
     8
 73
     4
 74
     0
 42
0.000000001
 43
0.00000001
 40
0.0
 40
0.0
 40
0.0
 40
0.0
 40
1.0
 40
1.0
 40
1.0
 40
1.0
 10
17.4421501559631
 20
-2.521626574000664
 30
0.0
 10
17.53074774655251
 20
-2.567819736406212
 30
0.0
 10
17.62049626270877
 20
-2.600353130231296
 30
0.0
 10
17.6959636646027
 20
-2.606303105536208
 30
0.0
  0
SPLINE
  5
11E
330
1F
100
AcDbEntity
  8
0
  6
Continuous
 62
     1
370
    15
100
AcDbSpline
210
0.0
220
0.0
230
1.0
 70
     8
 71
     3
 72
     8
 73
     4
 74
     0
 42
0.000000001
 43
0.00000001
 40
0.0
 40
0.0
 40
0.0
 40
0.0
 40
1.0
 40
1.0
 40
1.0
 40
1.0
 10
17.18700607094251
 20
-2.340956986806681
 30
0.0
 10
17.26062760357539
 20
-2.409211482475235
 30
0.0
 10
17.3500610560585
 20
-2.472320024247979
 30
0.0
 10
17.44215015596207
 20
-2.521626574000113
 30
0.0
  0
SPLINE
  5
11F
330
1F
100
AcDbEntity
  8
0
  6
Continuous
 62
     1
370
    15
100
AcDbSpline
210
0.0
220
0.0
230
1.0
 70
     8
 71
     3
 72
    10
 73
     6
 74
     0
 42
0.000000001
 43
0.00000001
 40
0.0
 40
0.0
 40
0.0
 40
0.0
 40
0.5
 40
0.5
 40
1.0
 40
1.0
 40
1.0
 40
1.0
 10
16.66916340412088
 20
-2.064051692124954
 30
0.0
 10
16.74785551723867
 20
-2.07757699731074
 30
0.0
 10
16.84154394876387
 20
-2.112908911078514
 30
0.0
 10
17.02554879921458
 20
-2.211309547015231
 30
0.0
 10
17.11373261866066
 20
-2.273025196302867
 30
0.0
 10
17.18700607094215
 20
-2.34095698680655
 30
0.0
  0
SPLINE
  5
120
330
1F
100
AcDbEntity
  8
0
  6
Continuous
 62
     1
370
    15
100
AcDbSpline
210
0.0
220
0.0
230
1.0
 70
     8
 71
     3
 72
    10
 73
     6
 74
     0
 42
0.000000001
 43
0.00000001
 40
0.0
 40
0.0
 40
0.0
 40
0.0
 40
0.5
 40
0.5
 40
1.0
 40
1.0
 40
1.0
 40
1.0
 10
16.15414958107802
 20
-1.785935758074232
 30
0.0
 10
16.22791207461904
 20
-1.850176206495339
 30
0.0
 10
16.31618212196462
 20
-1.911101336107472
 30
0.0
 10
16.49697490253302
 20
-2.011107675988868
 30
0.0
 10
16.5904913495043
 20
-2.050529834519099
 30
0.0
 10
16.66916340412088
 20
-2.064051692124947
 30
0.0
  0
SPLINE
  5
121
330
1F
100
AcDbEntity
  8
0
  6
Continuous
 62
     1
370
    15
100
AcDbSpline
210
0.0
220
0.0
230
1.0
 70
     8
 71
     3
 72
    10
 73
     6
 74
     0
 42
0.000000001
 43
0.00000001
 40
0.0
 40
0.0
 40
0.0
 40
0.0
 40
0.5
 40
0.5
 40
1.0
 40
1.0
 40
1.0
 40
1.0
 10
15.63620561250194
 20
-1.503703480942376
 30
0.0
 10
15.71438794348589
 20
-1.523035202632643
 30
0.0
 10
15.80794367512883
 20
-1.561495436280523
 30
0.0
 10
15.99213090330551
 20
-1.661548615922628
 30
0.0
 10
16.08047537819656
 20
-1.721772202817787
 30
0.0
 10
16.15414958107799
 20
-1.785935758074207
 30
0.0
  0
SPLINE
  5
122
330
1F
100
AcDbEntity
  8
0
  6
Continuous
 62
     1
370
    15
100
AcDbSpline
210
0.0
220
0.0
230
1.0
 70
     8
 71
     3
 72
     8
 73
     4
 74
     0
 42
0.000000001
 43
0.00000001
 40
0.0
 40
0.0
 40
0.0
 40
0.0
 40
1.0
 40
1.0
 40
1.0
 40
1.0
 10
15.38220227637622
 20
-1.395185105657681
 30
0.0
 10
15.47086657068709
 20
-1.444509993891052
 30
0.0
 10
15.56067773172347
 20
-1.485028110782716
 30
0.0
 10
15.63620561250159
 20
-1.50370348094228
 30
0.0
  0
SPLINE
  5
123
330
1F
100
AcDbEntity
  8
0
  6
Continuous
 62
     1
370
    15
100
AcDbSpline
210
0.0
220
0.0
230
1.0
 70
     8
 71
     3
 72
     8
 73
     4
 74
     0
 42
0.000000001
 43
0.00000001
 40
0.0
 40
0.0
 40
0.0
 40
0.0
 40
1.0
 40
1.0
 40
1.0
 40
1.0
 10
15.12687039547892
 20
-1.221898898233193
 30
0.0
 10
15.20055694635796
 20
-1.282407931377955
 30
0.0
 10
15.29005781115906
 20
-1.343059699951842
 30
0.0
 10
15.38220227637521
 20
-1.395185105657098
 30
0.0
  0
SPLINE
  5
124
330
1F
100
AcDbEntity
  8
0
  6
Continuous
 62
     1
370
    15
100
AcDbSpline
210
0.0
220
0.0
230
1.0
 70
     8
 71
     3
 72
    10
 73
     6
 74
     0
 42
0.000000001
 43
0.00000001
 40
0.0
 40
0.0
 40
0.0
 40
0.0
 40
0.5
 40
0.5
 40
1.0
 40
1.0
 40
1.0
 40
1.0
 10
14.60878179853428
 20
-0.9312002799994401
 30
0.0
 10
14.68747631608867
 20
-0.9575697232290101
 30
0.0
 10
14.78119541052058
 20
-1.000070036485536
 30
0.0
 10
14.96530093345898
 20
-1.102760748894563
 30
0.0
 10
15.05354757878095
 20
-1.161688551936499
 30
0.0
 10
15.12687039547857
 20
-1.221898898233119
 30
0.0
  0
SPLINE
  5
125
330
1F
100
AcDbEntity
  8
0
  6
Continuous
 62
     1
370
    15
100
AcDbSpline
210
0.0
220
0.0
230
1.0
 70
     8
 71
     3
 72
    10
 73
     6
 74
     0
 42
0.000000001
 43
0.00000001
 40
0.0
 40
0.0
 40
0.0
 40
0.0
 40
0.5
 40
0.5
 40
1.0
 40
1.0
 40
1.0
 40
1.0
 10
14.09361863792882
 20
-0.6407663359888087
 30
0.0
 10
14.16741475101938
 20
-0.6964187468556436
 30
0.0
 10
14.25571618683992
 20
-0.7541105704772791
 30
0.0
 10
14.43655022444563
 20
-0.8580882336839398
 30
0.0
 10
14.53007188274198
 20
-0.90482567703354
 30
0.0
 10
14.60878179853428
 20
-0.9312002799994282
 30
0.0
  0
SPLINE
  5
126
330
1F
100
AcDbEntity
  8
0
  6
Continuous
 62
     1
370
    15
100
AcDbSpline
210
0.0
220
0.0
230
1.0
 70
     8
 71
     3
 72
    10
 73
     6
 74
     0
 42
0.000000001
 43
0.00000001
 40
0.0
 40
0.0
 40
0.0
 40
0.0
 40
0.5
 40
0.5
 40
1.0
 40
1.0
 40
1.0
 40
1.0
 10
13.57567842452445
 20
-0.3486666747288941
 30
0.0
 10
13.65386661033115
 20
-0.3804913767373487
 30
0.0
 10
13.74743047249887
 20
-0.4256069880403613
 30
0.0
 10
13.931617690421
 20
-0.5286252527888078
 30
0.0
 10
14.01994716238017
 20
-0.5852079189571718
 30
0.0
 10
14.09361863792881
 20
-0.6407663359888013
 30
0.0
  0
SPLINE
  5
127
330
1F
100
AcDbEntity
  8
0
  6
Continuous
 62
     1
370
    15
100
AcDbSpline
210
0.0
220
0.0
230
1.0
 70
     8
 71
     3
 72
     8
 73
     4
 74
     0
 42
0.000000001
 43
0.00000001
 40
0.0
 40
0.0
 40
0.0
 40
0.0
 40
1.0
 40
1.0
 40
1.0
 40
1.0
 10
13.32172704156098
 20
-0.2201625015821875
 30
0.0
 10
13.41038095702641
 20
-0.2708735985809533
 30
0.0
 10
13.50017169240504
 20
-0.3179333967465095
 30
0.0
 10
13.57567842452409
 20
-0.3486666747287373
 30
0.0
  0
SPLINE
  5
128
330
1F
100
AcDbEntity
  8
0
  6
Continuous
 62
     1
370
    15
100
AcDbSpline
210
0.0
220
0.0
230
1.0
 70
     8
 71
     3
 72
     8
 73
     4
 74
     0
 42
0.000000001
 43
0.00000001
 40
0.0
 40
0.0
 40
0.0
 40
0.0
 40
1.0
 40
1.0
 40
1.0
 40
1.0
 10
13.06649700835327
 20
-0.0604251833020013
 30
0.0
 10
13.14014661432343
 20
-0.1110261414216584
 30
0.0
 10
13.22961861999565
 20
-0.1670696859738785
 30
0.0
 10
13.32172704155997
 20
-0.2201625015816177
 30
0.0
  0
SPLINE
  5
129
330
1F
100
AcDbEntity
  8
0
  6
Continuous
 62
     1
370
    15
100
AcDbSpline
210
0.0
220
0.0
230
1.0
 70
     8
 71
     3
 72
    10
 73
     6
 74
     0
 42
0.000000001
 43
0.00000001
 40
0.0
 40
0.0
 40
0.0
 40
0.0
 40
0.5000000000000009
 40
0.5000000000000009
 40
1.0
 40
1.0
 40
1.0
 40
1.0
 10
12.54871832206026
 20
0.2334669899470014
 30
0.0
 10
12.62735386246786
 20
0.1953775851042248
 30
0.0
 10
12.72102856799217
 20
0.1472705075860763
 30
0.0
 10
12.90505437611183
 20
0.043934912582101
 30
0.0
 10
12.99323619566334
 20
-0.0100913455863955
 30
0.0
 10
13.06649700835291
 20
-0.0604251833020062
 30
0.0
  0
SPLINE
  5
12A
330
1F
100
AcDbEntity
  8
0
  6
Continuous
 62
     1
370
    15
100
AcDbSpline
210
0.0
220
0.0
230
1.0
 70
     8
 71
     3
 72
    10
 73
     6
 74
     0
 42
0.000000001
 43
0.00000001
 40
0.0
 40
0.0
 40
0.0
 40
0.0
 40
0.5
 40
0.5
 40
1.0
 40
1.0
 40
1.0
 40
1.0
 10
12.03396506648625
 20
0.5255215237529892
 30
0.0
 10
12.10767585940774
 20
0.4804496234914015
 30
0.0
 10
12.19588255087206
 20
0.428037767905323
 30
0.0
 10
12.37653680837207
 20
0.3238041351998867
 30
0.0
 10
12.47003884461849
 20
0.2715776769666946
 30
0.0
 10
12.54871832206027
 20
0.233466989947007
 30
0.0
  0
SPLINE
  5
12B
330
1F
100
AcDbEntity
  8
0
  6
Continuous
 62
     1
370
    15
100
AcDbSpline
210
0.0
220
0.0
230
1.0
 70
     8
 71
     3
 72
    10
 73
     6
 74
     0
 42
0.000000001
 43
0.00000001
 40
0.0
 40
0.0
 40
0.0
 40
0.0
 40
0.5
 40
0.5
 40
1.0
 40
1.0
 40
1.0
 40
1.0
 10
11.5165660222676
 20
0.8171133609145289
 30
0.0
 10
11.59467010656963
 20
0.7739416320105115
 30
0.0
 10
11.68815056147536
 20
0.7237795988496135
 30
0.0
 10
11.87216990649238
 20
0.621447835346266
 30
0.0
 10
11.96039333998072
 20
0.5705083891454336
 30
0.0
 10
12.03396506648624
 20
0.52552152375299
 30
0.0
  0
SPLINE
  5
12C
330
1F
100
AcDbEntity
  8
0
  6
Continuous
 62
     1
370
    15
100
AcDbSpline
210
0.0
220
0.0
230
1.0
 70
     8
 71
     3
 72
    10
 73
     6
 74
     0
 42
0.000000001
 43
0.00000001
 40
0.0
 40
0.0
 40
0.0
 40
0.0
 40
0.5
 40
0.5
 40
1.0
 40
1.0
 40
1.0
 40
1.0
 10
10.49032967857718
 20
1.388657798222493
 30
0.0
 10
10.56893390634043
 20
1.340151259093506
 30
0.0
 10
10.66257766406529
 20
1.288083096961689
 30
0.0
 10
10.84654373037675
 20
1.187655328179941
 30
0.0
 10
10.93468744813553
 20
1.14038161147703
 30
0.0
 10
11.00789188880786
 20
1.101647563295369
 30
0.0
  0
SPLINE
  5
12D
330
1F
100
AcDbEntity
  8
0
  6
Continuous
 62
     4
370
    15
100
AcDbSpline
210
0.0
220
0.0
230
1.0
 70
     8
 71
     3
 72
    10
 73
     6
 74
     0
 42
0.000000001
 43
0.00000001
 40
0.0
 40
0.0
 40
0.0
 40
0.0
 40
0.5
 40
0.5
 40
1.0
 40
1.0
 40
1.0
 40
1.0
 10
9.457603877080903
 20
1.953513824494347
 30
0.0
 10
9.53581022737784
 20
1.9003814284483
 30
0.0
 10
9.629377414420563
 20
1.846814478703872
 30
0.0
 10
9.813528528328533
 20
1.748536917698164
 30
0.0
 10
9.90182565378247
 20
1.704896119092746
 30
0.0
 10
9.97547011720945
 20
1.671928763962893
 30
0.0
  0
SPLINE
  5
12E
330
1F
100
AcDbEntity
  8
0
  6
Continuous
 62
     4
370
    15
100
AcDbSpline
210
0.0
220
0.0
230
1.0
 70
     8
 71
     3
 72
     8
 73
     4
 74
     0
 42
0.000000001
 43
0.00000001
 40
0.0
 40
0.0
 40
0.0
 40
0.0
 40
1.0
 40
1.0
 40
1.0
 40
1.0
 10
9.203635253536582
 20
2.108207809620726
 30
0.0
 10
9.292301179503433
 20
2.05994297233528
 30
0.0
 10
9.382092803243584
 20
2.004815084120346
 30
0.0
 10
9.45760387708054
 20
1.95351382449459
 30
0.0
  0
SPLINE
  5
12F
330
1F
100
AcDbEntity
  8
0
  6
Continuous
 62
     1
370
    15
100
AcDbSpline
210
0.0
220
0.0
230
1.0
 70
    24
 71
     3
 72
     9
 73
     5
 74
     0
 42
0.000000001
 43
0.00000001
 40
0.0
 40
0.0
 40
0.0
 40
0.0
 40
0.5
 40
1.0
 40
1.0
 40
1.0
 40
1.0
 10
9.912157015402233
 20
6.355507773690022
 30
0.0
 10
9.912157015402233
 20
6.339420516198192
 30
0.0
 10
9.912157015402233
 20
6.307159127128287
 30
0.0
 10
9.912157015402233
 20
6.274725843464184
 30
0.0
 10
9.912157015402233
 20
6.258466721042472
 30
0.0
  0
SPLINE
  5
132
330
1F
100
AcDbEntity
  8
0
  6
Continuous
 62
     1
370
    15
100
AcDbSpline
210
0.0
220
0.0
230
1.0
 70
     8
 71
     3
 72
     8
 73
     4
 74
     0
 42
0.000000001
 43
0.00000001
 40
0.0
 40
0.0
 40
0.0
 40
0.0
 40
1.0
 40
1.0
 40
1.0
 40
1.0
 10
11.04484670199143
 20
6.215167168643472
 30
0.0
 10
10.97116404759182
 20
6.270724705727194
 30
0.0
 10
10.45594331886579
 20
6.332028115770479
 30
0.0
 10
9.912157015402233
 20
6.258466721042472
 30
0.0
  0
SPLINE
  5
133
330
1F
100
AcDbEntity
  8
0
  6
Continuous
 62
     1
370
    15
100
AcDbSpline
210
0.0
220
0.0
230
1.0
 70
     8
 71
     3
 72
    10
 73
     6
 74
     0
 42
0.000000001
 43
0.00000001
 40
0.0
 40
0.0
 40
0.0
 40
0.0
 40
0.5
 40
0.5
 40
1.0
 40
1.0
 40
1.0
 40
1.0
 10
11.56278317006787
 20
6.219778259093481
 30
0.0
 10
11.48411706055015
 20
6.15826076260598
 30
0.0
 10
11.39040213455409
 20
6.130110653234231
 30
0.0
 10
11.20631287233961
 20
6.131184640889606
 30
0.0
 10
11.11812038034864
 20
6.159918004022746
 30
0.0
 10
11.04484670199186
 20
6.215167168643122
 30
0.0
  0
SPLINE
  5
134
330
1F
100
AcDbEntity
  8
0
  6
Continuous
 62
     1
370
    15
100
AcDbSpline
210
0.0
220
0.0
230
1.0
 70
     8
 71
     3
 72
    10
 73
     6
 74
     0
 42
0.000000001
 43
0.00000001
 40
0.0
 40
0.0
 40
0.0
 40
0.0
 40
0.5
 40
0.5
 40
1.0
 40
1.0
 40
1.0
 40
1.0
 10
12.0777357600486
 20
6.212908745584468
 30
0.0
 10
12.00402710336647
 20
6.272166775352645
 30
0.0
 10
11.91580773832711
 20
6.303570492715599
 30
0.0
 10
11.73503776609644
 20
6.308335402027868
 30
0.0
 10
11.64148367300136
 20
6.281322651493921
 30
0.0
 10
11.56278317006789
 20
6.219778259093497
 30
0.0
  0
SPLINE
  5
135
330
1F
100
AcDbEntity
  8
0
  6
Continuous
 62
     1
370
    15
100
AcDbSpline
210
0.0
220
0.0
230
1.0
 70
     8
 71
     3
 72
    10
 73
     6
 74
     0
 42
0.000000001
 43
0.00000001
 40
0.0
 40
0.0
 40
0.0
 40
0.0
 40
0.4999999999999999
 40
0.4999999999999999
 40
1.0
 40
1.0
 40
1.0
 40
1.0
 10
12.59546079267473
 20
6.19445812397557
 30
0.0
 10
12.51728221080674
 20
6.13574096001855
 30
0.0
 10
12.42374800209716
 20
6.111341391637998
 30
0.0
 10
12.23967729123016
 20
6.120632097204517
 30
0.0
 10
12.15139779544458
 20
6.153688196970965
 30
0.0
 10
12.07773576004859
 20
6.212908745584469
 30
0.0
  0
SPLINE
  5
136
330
1F
100
AcDbEntity
  8
0
  6
Continuous
 62
     1
370
    15
100
AcDbSpline
210
0.0
220
0.0
230
1.0
 70
     8
 71
     3
 72
     8
 73
     4
 74
     0
 42
0.000000001
 43
0.00000001
 40
0.0
 40
0.0
 40
0.0
 40
0.0
 40
1.0
 40
1.0
 40
1.0
 40
1.0
 10
12.84928023777987
 20
6.270086223464926
 30
0.0
 10
12.76066051320305
 20
6.274725895486158
 30
0.0
 10
12.67092445415736
 20
6.251136207386519
 30
0.0
 10
12.59546079267504
 20
6.194458123975799
 30
0.0
  0
SPLINE
  5
137
330
1F
100
AcDbEntity
  8
0
  6
Continuous
 62
     1
370
    15
100
AcDbSpline
210
0.0
220
0.0
230
1.0
 70
     8
 71
     3
 72
     8
 73
     4
 74
     0
 42
0.000000001
 43
0.00000001
 40
0.0
 40
0.0
 40
0.0
 40
0.0
 40
1.0
 40
1.0
 40
1.0
 40
1.0
 10
13.10431785426312
 20
6.160716090765737
 30
0.0
 10
13.03072649293329
 20
6.225142271987263
 30
0.0
 10
12.94131102812657
 20
6.262735660522504
 30
0.0
 10
12.84928023778089
 20
6.270086223464858
 30
0.0
  0
SPLINE
  5
138
330
1F
100
AcDbEntity
  8
0
  6
Continuous
 62
     1
370
    15
100
AcDbSpline
210
0.0
220
0.0
230
1.0
 70
     8
 71
     3
 72
    10
 73
     6
 74
     0
 42
0.000000001
 43
0.00000001
 40
0.0
 40
0.0
 40
0.0
 40
0.0
 40
0.5
 40
0.5
 40
1.0
 40
1.0
 40
1.0
 40
1.0
 10
13.62165919451429
 20
6.110648307520806
 30
0.0
 10
13.54308969306655
 20
6.056830470471512
 30
0.0
 10
13.44946923002606
 20
6.037872680030434
 30
0.0
 10
13.26556009938633
 20
6.058153003874798
 30
0.0
 10
13.17747904858161
 20
6.096666502901172
 30
0.0
 10
13.10431785426354
 20
6.160716090765398
 30
0.0
  0
SPLINE
  5
139
330
1F
100
AcDbEntity
  8
0
  6
Continuous
 62
     1
370
    15
100
AcDbSpline
210
0.0
220
0.0
230
1.0
 70
     8
 71
     3
 72
    10
 73
     6
 74
     0
 42
0.000000001
 43
0.00000001
 40
0.0
 40
0.0
 40
0.0
 40
0.0
 40
0.5
 40
0.5
 40
1.0
 40
1.0
 40
1.0
 40
1.0
 10
14.13620288016354
 20
6.049675951063575
 30
0.0
 10
14.062556255078
 20
6.116699315356767
 30
0.0
 10
13.97439961825539
 20
6.157526554850094
 30
0.0
 10
13.79375516199057
 20
6.181567930806107
 30
0.0
 10
13.70026954147105
 20
6.164494122562928
 30
0.0
 10
13.6216591945143
 20
6.110648307520812
 30
0.0
  0
SPLINE
  5
13A
330
1F
100
AcDbEntity
  8
0
  6
Continuous
 62
     1
370
    15
100
AcDbSpline
210
0.0
220
0.0
230
1.0
 70
     8
 71
     3
 72
    10
 73
     6
 74
     0
 42
0.000000001
 43
0.00000001
 40
0.0
 40
0.0
 40
0.0
 40
0.0
 40
0.5
 40
0.5
 40
1.0
 40
1.0
 40
1.0
 40
1.0
 10
14.65384932683022
 20
5.976996522241887
 30
0.0
 10
14.57570672908931
 20
5.92698776578111
 30
0.0
 10
14.48224737814455
 20
5.912203264047665
 30
0.0
 10
14.29818887511484
 20
5.940428129469597
 30
0.0
 10
14.20985589947673
 20
5.982646767594703
 30
0.0
 10
14.13620288016354
 20
6.049675951063579
 30
0.0
  0
SPLINE
  5
13B
330
1F
100
AcDbEntity
  8
0
  6
Continuous
 62
     1
370
    15
100
AcDbSpline
210
0.0
220
0.0
230
1.0
 70
     8
 71
     3
 72
     8
 73
     4
 74
     0
 42
0.000000001
 43
0.00000001
 40
0.0
 40
0.0
 40
0.0
 40
0.0
 40
1.0
 40
1.0
 40
1.0
 40
1.0
 10
14.90775433866817
 20
6.024925116727823
 30
0.0
 10
14.81910858821828
 20
6.038929790789028
 30
0.0
 10
14.7293462792792
 20
6.025312150563595
 30
0.0
 10
14.65384932683051
 20
5.976996522242079
 30
0.0
  0
SPLINE
  5
13C
330
1F
100
AcDbEntity
  8
0
  6
Continuous
 62
     1
370
    15
100
AcDbSpline
210
0.0
220
0.0
230
1.0
 70
     8
 71
     3
 72
     8
 73
     4
 74
     0
 42
0.000000001
 43
0.00000001
 40
0.0
 40
0.0
 40
0.0
 40
0.0
 40
1.0
 40
1.0
 40
1.0
 40
1.0
 10
15.16297237446998
 20
5.890351517752025
 30
0.0
 10
15.08930520414712
 20
5.961417664909163
 30
0.0
 10
14.99983273971038
 20
6.007883530183294
 30
0.0
 10
14.90775433866918
 20
6.024925116727649
 30
0.0
  0
SPLINE
  5
13D
330
1F
100
AcDbEntity
  8
0
  6
Continuous
 62
     1
370
    15
100
AcDbSpline
210
0.0
220
0.0
230
1.0
 70
     8
 71
     3
 72
    10
 73
     6
 74
     0
 42
0.000000001
 43
0.00000001
 40
0.0
 40
0.0
 40
0.0
 40
0.0
 40
0.5
 40
0.5
 40
1.0
 40
1.0
 40
1.0
 40
1.0
 10
15.68087044073418
 20
5.787224216488077
 30
0.0
 10
15.60219415338777
 20
5.742960795921855
 30
0.0
 10
15.50847116128038
 20
5.733928078116012
 30
0.0
 10
15.32439115721404
 20
5.772747664768623
 30
0.0
 10
15.23622152579973
 20
5.819688630271228
 30
0.0
 10
15.1629723744704
 20
5.890351517751698
 30
0.0
  0
SPLINE
  5
13E
330
1F
100
AcDbEntity
  8
0
  6
Continuous
 62
     1
370
    15
100
AcDbSpline
210
0.0
220
0.0
230
1.0
 70
     8
 71
     3
 72
    10
 73
     6
 74
     0
 42
0.000000001
 43
0.00000001
 40
0.0
 40
0.0
 40
0.0
 40
0.0
 40
0.5
 40
0.5
 40
1.0
 40
1.0
 40
1.0
 40
1.0
 10
16.19593791532198
 20
5.674200334235735
 30
0.0
 10
16.12219399160273
 20
5.746688509913463
 30
0.0
 10
16.03393888323201
 20
5.795502339769582
 30
0.0
 10
15.85312410152539
 20
5.837991541785232
 30
0.0
 10
15.75956398731819
 20
5.831497347132364
 30
0.0
 10
15.6808704407342
 20
5.787224216488092
 30
0.0
  0
SPLINE
  5
13F
330
1F
100
AcDbEntity
  8
0
  6
Continuous
 62
     1
370
    15
100
AcDbSpline
210
0.0
220
0.0
230
1.0
 70
     8
 71
     3
 72
    10
 73
     6
 74
     0
 42
0.000000001
 43
0.00000001
 40
0.0
 40
0.0
 40
0.0
 40
0.0
 40
0.5
 40
0.5
 40
1.0
 40
1.0
 40
1.0
 40
1.0
 10
16.71396144815813
 20
5.549890904180987
 30
0.0
 10
16.63577481652569
 20
5.510286987289579
 30
0.0
 10
16.5422328803282
 20
5.505608120172159
 30
0.0
 10
16.35804721258838
 20
5.551834195749533
 30
0.0
 10
16.26965477341689
 20
5.601738763295497
 30
0.0
 10
16.19593791532198
 20
5.674200334235733
 30
0.0
  0
SPLINE
  5
140
330
1F
100
AcDbEntity
  8
0
  6
Continuous
 62
     1
370
    15
100
AcDbSpline
210
0.0
220
0.0
230
1.0
 70
     8
 71
     3
 72
     8
 73
     4
 74
     0
 42
0.000000001
 43
0.00000001
 40
0.0
 40
0.0
 40
0.0
 40
0.0
 40
1.0
 40
1.0
 40
1.0
 40
1.0
 10
16.9680108035818
 20
5.568345954732093
 30
0.0
 10
16.87933994737123
 20
5.591274980547514
 30
0.0
 10
16.78953707541144
 20
5.588172267609179
 30
0.0
 10
16.71396144815844
 20
5.549890904181147
 30
0.0
  0
SPLINE
  5
141
330
1F
100
AcDbEntity
  8
0
  6
Continuous
 62
     1
370
    15
100
AcDbSpline
210
0.0
220
0.0
230
1.0
 70
     8
 71
     3
 72
     8
 73
     4
 74
     0
 42
0.000000001
 43
0.00000001
 40
0.0
 40
0.0
 40
0.0
 40
0.0
 40
1.0
 40
1.0
 40
1.0
 40
1.0
 10
17.22336727197153
 20
5.413138270415747
 30
0.0
 10
17.1496439550588
 20
5.48840716662111
 30
0.0
 10
17.06012335195165
 20
5.542157841054999
 30
0.0
 10
16.96801080358282
 20
5.568345954731821
 30
0.0
  0
SPLINE
  5
142
330
1F
100
AcDbEntity
  8
0
  6
Continuous
 62
     1
370
    15
100
AcDbSpline
210
0.0
220
0.0
230
1.0
 70
     8
 71
     3
 72
    10
 73
     6
 74
     0
 42
0.000000001
 43
0.00000001
 40
0.0
 40
0.0
 40
0.0
 40
0.0
 40
0.5
 40
0.5
 40
1.0
 40
1.0
 40
1.0
 40
1.0
 10
17.74140789356865
 20
5.260422341640346
 30
0.0
 10
17.66269856993983
 20
5.227285411603193
 30
0.0
 10
17.56894258793129
 20
5.228499658650955
 30
0.0
 10
17.38482012012813
 20
5.284562181283849
 30
0.0
 10
17.29664104107962
 20
5.338328346601362
 30
0.0
 10
17.22336727197195
 20
5.413138270415448
 30
0.0
  0
SPLINE
  5
143
330
1F
100
AcDbEntity
  8
0
  6
Continuous
 62
     1
370
    15
100
AcDbSpline
210
0.0
220
0.0
230
1.0
 70
     8
 71
     3
 72
    10
 73
     6
 74
     0
 42
0.000000001
 43
0.00000001
 40
0.0
 40
0.0
 40
0.0
 40
0.0
 40
0.5
 40
0.5
 40
1.0
 40
1.0
 40
1.0
 40
1.0
 10
18.25646403161138
 20
5.099326326277389
 30
0.0
 10
18.18271966130664
 20
5.174722769869476
 30
0.0
 10
18.09445811580763
 20
5.229812011467557
 30
0.0
 10
17.91364342497827
 20
5.289252930102952
 30
0.0
 10
17.82009443642347
 20
5.293549680883427
 30
0.0
 10
17.74140789356865
 20
5.260422341640343
 30
0.0
  0
SPLINE
  5
144
330
1F
100
AcDbEntity
  8
0
  6
Continuous
 62
     1
370
    15
100
AcDbSpline
210
0.0
220
0.0
230
1.0
 70
     8
 71
     3
 72
    10
 73
     6
 74
     0
 42
0.000000001
 43
0.00000001
 40
0.0
 40
0.0
 40
0.0
 40
0.0
 40
0.5
 40
0.5
 40
1.0
 40
1.0
 40
1.0
 40
1.0
 10
18.77432250798016
 20
4.927914201098353
 30
0.0
 10
18.69616842710555
 20
4.900055170254912
 30
0.0
 10
18.60264654438538
 20
4.905616857992896
 30
0.0
 10
18.41849805655046
 20
4.968170107212247
 30
0.0
 10
18.33014589207891
 20
5.023993792911886
 30
0.0
 10
18.25646403161138
 20
5.099326326277389
 30
0.0
  0
SPLINE
  5
145
330
1F
100
AcDbEntity
  8
0
  6
Continuous
 62
     1
370
    15
100
AcDbSpline
210
0.0
220
0.0
230
1.0
 70
     8
 71
     3
 72
     8
 73
     4
 74
     0
 42
0.000000001
 43
0.00000001
 40
0.0
 40
0.0
 40
0.0
 40
0.0
 40
1.0
 40
1.0
 40
1.0
 40
1.0
 10
19.02824795964599
 20
4.916515863422182
 30
0.0
 10
18.93963286264456
 20
4.94749184055439
 30
0.0
 10
18.84984732311333
 20
4.954835996232859
 30
0.0
 10
18.77432250798047
 20
4.92791420109846
 30
0.0
  0
SPLINE
  5
146
330
1F
100
AcDbEntity
  8
0
  6
Continuous
 62
     1
370
    15
100
AcDbSpline
210
0.0
220
0.0
230
1.0
 70
     8
 71
     3
 72
     8
 73
     4
 74
     0
 42
0.000000001
 43
0.00000001
 40
0.0
 40
0.0
 40
0.0
 40
0.0
 40
1.0
 40
1.0
 40
1.0
 40
1.0
 10
19.28344530885329
 20
4.746152231785286
 30
0.0
 10
19.20978632883213
 20
4.822967983192823
 30
0.0
 10
19.12035125102919
 20
4.882158241671375
 30
0.0
 10
19.02824795964702
 20
4.916515863421811
 30
0.0
  0
SPLINE
  5
147
330
1F
100
AcDbEntity
  8
0
  6
Continuous
 62
     1
370
    15
100
AcDbSpline
210
0.0
220
0.0
230
1.0
 70
     8
 71
     3
 72
    10
 73
     6
 74
     0
 42
0.000000001
 43
0.00000001
 40
0.0
 40
0.0
 40
0.0
 40
0.0
 40
0.5
 40
0.5
 40
1.0
 40
1.0
 40
1.0
 40
1.0
 10
19.80108718195846
 20
4.549209819218738
 30
0.0
 10
19.72243556267998
 20
4.528363631371791
 30
0.0
 10
19.6287383735841
 20
4.539760149839585
 30
0.0
 10
19.44474237842644
 20
4.611096693146552
 30
0.0
 10
19.35664593759853
 20
4.669814475018068
 30
0.0
 10
19.28344530885371
 20
4.746152231785024
 30
0.0
  0
SPLINE
  5
148
330
1F
100
AcDbEntity
  8
0
  6
Continuous
 62
     1
370
    15
100
AcDbSpline
210
0.0
220
0.0
230
1.0
 70
     8
 71
     3
 72
    10
 73
     6
 74
     0
 42
0.000000001
 43
0.00000001
 40
0.0
 40
0.0
 40
0.0
 40
0.0
 40
0.5
 40
0.5
 40
1.0
 40
1.0
 40
1.0
 40
1.0
 10
20.31559746763459
 20
4.3458321005964
 30
0.0
 10
20.24194918252634
 20
4.421459967552741
 30
0.0
 10
20.15377311403534
 20
4.480873246299256
 30
0.0
 10
19.97312878427908
 20
4.555137590819834
 30
0.0
 10
19.87967647100534
 20
4.570039486773691
 30
0.0
 10
19.80108718195847
 20
4.549209819218747
 30
0.0
  0
SPLINE
  5
149
330
1F
100
AcDbEntity
  8
0
  6
Continuous
 62
     1
370
    15
100
AcDbSpline
210
0.0
220
0.0
230
1.0
 70
     8
 71
     3
 72
    10
 73
     6
 74
     0
 42
0.000000001
 43
0.00000001
 40
0.0
 40
0.0
 40
0.0
 40
0.0
 40
0.5
 40
0.5
 40
1.0
 40
1.0
 40
1.0
 40
1.0
 10
20.83292336368331
 20
4.133522228777151
 30
0.0
 10
20.75485407857497
 20
4.118361069386403
 30
0.0
 10
20.66141740808382
 20
4.133917622894867
 30
0.0
 10
20.47742750909074
 20
4.210520513079935
 30
0.0
 10
20.38916941769855
 20
4.270282620483217
 30
0.0
 10
20.31559746763459
 20
4.345832100596397
 30
0.0
  0
SPLINE
  5
14A
330
1F
100
AcDbEntity
  8
0
  6
Continuous
 62
     1
370
    15
100
AcDbSpline
210
0.0
220
0.0
230
1.0
 70
     8
 71
     3
 72
     8
 73
     4
 74
     0
 42
0.000000001
 43
0.00000001
 40
0.0
 40
0.0
 40
0.0
 40
0.0
 40
1.0
 40
1.0
 40
1.0
 40
1.0
 10
21.08670525822773
 20
4.092766680762042
 30
0.0
 10
20.99812340123244
 20
4.130649693956002
 30
0.0
 10
20.90838512227927
 20
4.148177003038045
 30
0.0
 10
20.83292336368362
 20
4.133522228777213
 30
0.0
  0
SPLINE
  5
14B
330
1F
100
AcDbEntity
  8
0
  6
Continuous
 62
     1
370
    15
100
AcDbSpline
210
0.0
220
0.0
230
1.0
 70
     8
 71
     3
 72
     8
 73
     4
 74
     0
 42
0.000000001
 43
0.00000001
 40
0.0
 40
0.0
 40
0.0
 40
0.0
 40
1.0
 40
1.0
 40
1.0
 40
1.0
 10
21.34181706293965
 20
3.913475689174084
 30
0.0
 10
21.26820597346174
 20
3.989081660181093
 30
0.0
 10
21.17878599607991
 20
4.051507819147309
 30
0.0
 10
21.08670525822874
 20
4.092766680761589
 30
0.0
  0
SPLINE
  5
14C
330
1F
100
AcDbEntity
  8
0
  6
Continuous
 62
     1
370
    15
100
AcDbSpline
210
0.0
220
0.0
230
1.0
 70
     8
 71
     3
 72
    10
 73
     6
 74
     0
 42
0.000000001
 43
0.00000001
 40
0.0
 40
0.0
 40
0.0
 40
0.0
 40
0.5
 40
0.5
 40
1.0
 40
1.0
 40
1.0
 40
1.0
 10
21.85959423502011
 20
3.678911043706982
 30
0.0
 10
21.78090312198599
 20
3.671136969283392
 30
0.0
 10
21.68718582971048
 20
3.692384804893826
 30
0.0
 10
21.50317934999755
 20
3.776589280883463
 30
0.0
 10
21.41506145631674
 20
3.838246351836853
 30
0.0
 10
21.34181706294008
 20
3.913475689173867
 30
0.0
  0
SPLINE
  5
14D
330
1F
100
AcDbEntity
  8
0
  6
Continuous
 62
     1
370
    15
100
AcDbSpline
210
0.0
220
0.0
230
1.0
 70
     8
 71
     3
 72
    10
 73
     6
 74
     0
 42
0.000000001
 43
0.00000001
 40
0.0
 40
0.0
 40
0.0
 40
0.0
 40
0.5
 40
0.5
 40
1.0
 40
1.0
 40
1.0
 40
1.0
 10
22.37454856646305
 20
3.439856138271551
 30
0.0
 10
22.30080235139117
 20
3.513154357497322
 30
0.0
 10
22.21254618199271
 20
3.574897074200184
 30
0.0
 10
22.03176917236194
 20
3.661574365754733
 30
0.0
 10
21.93825477760705
 20
3.686682098006415
 30
0.0
 10
21.85959423502013
 20
3.678911043706992
 30
0.0
  0
SPLINE
  5
14E
330
1F
100
AcDbEntity
  8
0
  6
Continuous
 62
     1
370
    15
100
AcDbSpline
210
0.0
220
0.0
230
1.0
 70
     8
 71
     3
 72
    10
 73
     6
 74
     0
 42
0.000000001
 43
0.00000001
 40
0.0
 40
0.0
 40
0.0
 40
0.0
 40
0.5
 40
0.5
 40
1.0
 40
1.0
 40
1.0
 40
1.0
 10
22.89245819056668
 20
3.193534902469028
 30
0.0
 10
22.81428578045215
 20
3.191645633280702
 30
0.0
 10
22.72074094854806
 20
3.216779588948155
 30
0.0
 10
22.53656579870601
 20
3.304950964989665
 30
0.0
 10
22.44822009464786
 20
3.36663215222257
 30
0.0
 10
22.37454856646303
 20
3.439856138271572
 30
0.0
  0
SPLINE
  5
14F
330
1F
100
AcDbEntity
  8
0
  6
Continuous
 62
     1
370
    15
100
AcDbSpline
210
0.0
220
0.0
230
1.0
 70
     8
 71
     3
 72
     8
 73
     4
 74
     0
 42
0.000000001
 43
0.00000001
 40
0.0
 40
0.0
 40
0.0
 40
0.0
 40
1.0
 40
1.0
 40
1.0
 40
1.0
 10
23.14645476742804
 20
3.124660707094028
 30
0.0
 10
23.05779727426327
 20
3.168182679191383
 30
0.0
 10
22.96798744792723
 20
3.195360291996249
 30
0.0
 10
22.892458190567
 20
3.19353490246902
 30
0.0
  0
SPLINE
  5
150
330
1F
100
AcDbEntity
  8
0
  6
Continuous
 62
     1
370
    15
100
AcDbSpline
210
0.0
220
0.0
230
1.0
 70
     8
 71
     3
 72
     8
 73
     4
 74
     0
 42
0.000000001
 43
0.00000001
 40
0.0
 40
0.0
 40
0.0
 40
0.0
 40
1.0
 40
1.0
 40
1.0
 40
1.0
 10
23.40178459853964
 20
2.942598060261864
 30
0.0
 10
23.32809862463344
 20
3.014384146174055
 30
0.0
 10
23.23860089495343
 20
3.07789613545023
 30
0.0
 10
23.14645476742907
 20
3.124660707093509
 30
0.0
  0
SPLINE
  5
151
330
1F
100
AcDbEntity
  8
0
  6
Continuous
 62
     1
370
    15
100
AcDbSpline
210
0.0
220
0.0
230
1.0
 70
     8
 71
     3
 72
    10
 73
     6
 74
     0
 42
0.000000001
 43
0.00000001
 40
0.0
 40
0.0
 40
0.0
 40
0.0
 40
0.5
 40
0.5
 40
1.0
 40
1.0
 40
1.0
 40
1.0
 10
23.91988538224194
 20
2.678773651887257
 30
0.0
 10
23.84116338780025
 20
2.684389679565663
 30
0.0
 10
23.7474548575965
 20
2.714809093447842
 30
0.0
 10
23.56335067858837
 20
2.808832600235111
 30
0.0
 10
23.47511217704875
 20
2.871161129031443
 30
0.0
 10
23.40178459854007
 20
2.942598060261699
 30
0.0
  0
SPLINE
  5
152
330
1F
100
AcDbEntity
  8
0
  6
Continuous
 62
     1
370
    15
100
AcDbSpline
210
0.0
220
0.0
230
1.0
 70
     8
 71
     3
 72
    10
 73
     6
 74
     0
 42
0.000000001
 43
0.00000001
 40
0.0
 40
0.0
 40
0.0
 40
0.0
 40
0.5
 40
0.5
 40
1.0
 40
1.0
 40
1.0
 40
1.0
 10
24.43504520021963
 20
2.412267962092316
 30
0.0
 10
24.3612556718899
 20
2.480685575613606
 30
0.0
 10
24.27295793753633
 20
2.542613547017805
 30
0.0
 10
24.09212008553292
 20
2.638707421692422
 30
0.0
 10
23.99858595180497
 20
2.673159152659845
 30
0.0
 10
23.91988538224195
 20
2.67877365188725
 30
0.0
  0
SPLINE
  5
153
330
1F
100
AcDbEntity
  8
0
  6
Continuous
 62
     1
370
    15
100
AcDbSpline
210
0.0
220
0.0
230
1.0
 70
     8
 71
     3
 72
    10
 73
     6
 74
     0
 42
0.000000001
 43
0.00000001
 40
0.0
 40
0.0
 40
0.0
 40
0.0
 40
0.5
 40
0.5
 40
1.0
 40
1.0
 40
1.0
 40
1.0
 10
24.95300754098308
 20
2.140628848699154
 30
0.0
 10
24.87482134855066
 20
2.152081928773357
 30
0.0
 10
24.78125889255053
 20
2.185887496701888
 30
0.0
 10
24.59706436628306
 20
2.282515737528691
 30
0.0
 10
24.5087237889779
 20
2.343953211685849
 30
0.0
 10
24.43504520021963
 20
2.41226796209232
 30
0.0
  0
SPLINE
  5
154
330
1F
100
AcDbEntity
  8
0
  6
Continuous
 62
     1
370
    15
100
AcDbSpline
210
0.0
220
0.0
230
1.0
 70
     8
 71
     3
 72
     8
 73
     4
 74
     0
 42
0.000000001
 43
0.00000001
 40
0.0
 40
0.0
 40
0.0
 40
0.0
 40
1.0
 40
1.0
 40
1.0
 40
1.0
 10
25.20697730145158
 20
2.046098886121483
 30
0.0
 10
25.11832119556864
 20
2.093717466953758
 30
0.0
 10
25.02852279886423
 20
2.129567019641679
 30
0.0
 10
24.9530075409834
 20
2.140628848699102
 30
0.0
  0
SPLINE
  5
155
330
1F
100
AcDbEntity
  8
0
  6
Continuous
 62
     1
370
    15
100
AcDbSpline
210
0.0
220
0.0
230
1.0
 70
     8
 71
     3
 72
     8
 73
     4
 74
     0
 42
0.000000001
 43
0.00000001
 40
0.0
 40
0.0
 40
0.0
 40
0.0
 40
1.0
 40
1.0
 40
1.0
 40
1.0
 10
25.46223563459059
 20
1.867739833266391
 30
0.0
 10
25.38857669409042
 20
1.933146083787732
 30
0.0
 10
25.29909744836659
 20
1.995492716193763
 30
0.0
 10
25.20697730145259
 20
2.046098886120934
 30
0.0
  0
SPLINE
  5
156
330
1F
100
AcDbEntity
  8
0
  6
Continuous
 62
     1
370
    15
100
AcDbSpline
210
0.0
220
0.0
230
1.0
 70
     8
 71
     3
 72
    10
 73
     6
 74
     0
 42
0.000000001
 43
0.00000001
 40
0.0
 40
0.0
 40
0.0
 40
0.0
 40
0.5
 40
0.5
 40
1.0
 40
1.0
 40
1.0
 40
1.0
 10
25.98008705953127
 20
1.584570947180521
 30
0.0
 10
25.90143724872884
 20
1.603269936348013
 30
0.0
 10
25.80775500160855
 20
1.641526812943452
 30
0.0
 10
25.62371525191248
 20
1.741876574722307
 30
0.0
 10
25.53551502227695
 20
1.802670610759136
 30
0.0
 10
25.46223563459102
 20
1.867739833266289
 30
0.0
  0
SPLINE
  5
157
330
1F
100
AcDbEntity
  8
0
  6
Continuous
 62
     1
370
    15
100
AcDbSpline
210
0.0
220
0.0
230
1.0
 70
     8
 71
     3
 72
    10
 73
     6
 74
     0
 42
0.000000001
 43
0.00000001
 40
0.0
 40
0.0
 40
0.0
 40
0.0
 40
0.5
 40
0.5
 40
1.0
 40
1.0
 40
1.0
 40
1.0
 10
26.49490978453229
 20
1.300098870257939
 30
0.0
 10
26.42117810324943
 20
1.361209341806967
 30
0.0
 10
26.33293674925582
 20
1.421142211933672
 30
0.0
 10
26.15221989977416
 20
1.523267645607503
 30
0.0
 10
26.05875870031829
 20
1.565866767935117
 30
0.0
 10
25.98008705953128
 20
1.584570947180518
 30
0.0
  0
SPLINE
  5
158
330
1F
100
AcDbEntity
  8
0
  6
Continuous
 62
     1
370
    15
100
AcDbSpline
210
0.0
220
0.0
230
1.0
 70
     8
 71
     3
 72
    10
 73
     6
 74
     0
 42
0.000000001
 43
0.00000001
 40
0.0
 40
0.0
 40
0.0
 40
0.0
 40
0.5
 40
0.5
 40
1.0
 40
1.0
 40
1.0
 40
1.0
 10
27.01238650067767
 20
1.012800111016496
 30
0.0
 10
26.9342766963481
 20
1.037168773805113
 30
0.0
 10
26.84078832871616
 20
1.078427613760712
 30
0.0
 10
26.65674254171227
 20
1.180083201223706
 30
0.0
 10
26.56849826477773
 20
1.239107086941308
 30
0.0
 10
26.49490978453229
 20
1.30009887025794
 30
0.0
  0
SPLINE
  5
159
330
1F
100
AcDbEntity
  8
0
  6
Continuous
 62
     1
370
    15
100
AcDbSpline
210
0.0
220
0.0
230
1.0
 70
     8
 71
     3
 72
     8
 73
     4
 74
     0
 42
0.000000001
 43
0.00000001
 40
0.0
 40
0.0
 40
0.0
 40
0.0
 40
1.0
 40
1.0
 40
1.0
 40
1.0
 10
27.26608929405035
 20
0.8960125510043544
 30
0.0
 10
27.17751110145543
 20
0.9460360712430215
 30
0.0
 10
27.087806634433
 20
0.9892705704839854
 30
0.0
 10
27.01238650067798
 20
1.012800111016401
 30
0.0
  0
SPLINE
  5
15A
330
1F
100
AcDbEntity
  8
0
  6
Continuous
 62
     1
370
    15
100
AcDbSpline
210
0.0
220
0.0
230
1.0
 70
     8
 71
     3
 72
     8
 73
     4
 74
     0
 42
0.000000001
 43
0.00000001
 40
0.0
 40
0.0
 40
0.0
 40
0.0
 40
1.0
 40
1.0
 40
1.0
 40
1.0
 10
27.52103064496387
 20
0.7276819323260358
 30
0.0
 10
27.44747900058667
 20
0.7843882311181469
 30
0.0
 10
27.35810519053785
 20
0.8433626145809066
 30
0.0
 10
27.26608929405137
 20
0.8960125510037817
 30
0.0
  0
SPLINE
  5
15B
330
1F
100
AcDbEntity
  8
0
  6
Continuous
 62
     1
370
    15
100
AcDbSpline
210
0.0
220
0.0
230
1.0
 70
     8
 71
     3
 72
    10
 73
     6
 74
     0
 42
0.000000001
 43
0.00000001
 40
0.0
 40
0.0
 40
0.0
 40
0.0
 40
0.5
 40
0.5
 40
1.0
 40
1.0
 40
1.0
 40
1.0
 10
28.0385172592935
 20
0.4351442768791042
 30
0.0
 10
27.95992621868689
 20
0.4661723244348361
 30
0.0
 10
27.8663001339211
 20
0.5109553239594189
 30
0.0
 10
27.68236332647351
 20
0.6141216773181615
 30
0.0
 10
27.59422605253306
 20
0.6712502823342469
 30
0.0
 10
27.5210306449643
 20
0.7276819323259915
 30
0.0
  0
SPLINE
  5
15C
330
1F
100
AcDbEntity
  8
0
  6
Continuous
 62
     1
370
    15
100
AcDbSpline
210
0.0
220
0.0
230
1.0
 70
     8
 71
     3
 72
    10
 73
     6
 74
     0
 42
0.000000001
 43
0.00000001
 40
0.0
 40
0.0
 40
0.0
 40
0.0
 40
0.5
 40
0.5
 40
1.0
 40
1.0
 40
1.0
 40
1.0
 10
28.55332013299715
 20
0.1428674419294384
 30
0.0
 10
28.47960283568709
 20
0.1945794297384427
 30
0.0
 10
28.39142680704539
 20
0.2504979941627599
 30
0.0
 10
28.21073279278518
 20
0.3550185389269419
 30
0.0
 10
28.11720457506963
 20
0.4040782195131581
 30
0.0
 10
28.03851725929351
 20
0.4351442768791019
 30
0.0
  0
SPLINE
  5
15D
330
1F
100
AcDbEntity
  8
0
  6
Continuous
 62
     1
370
    15
100
AcDbSpline
210
0.0
220
0.0
230
1.0
 70
     8
 71
     3
 72
    10
 73
     6
 74
     0
 42
0.000000001
 43
0.00000001
 40
0.0
 40
0.0
 40
0.0
 40
0.0
 40
0.5
 40
0.5
 40
1.0
 40
1.0
 40
1.0
 40
1.0
 10
29.07111598249998
 20
-0.1506421347083987
 30
0.0
 10
28.99293147761383
 20
-0.1141142487922404
 30
0.0
 10
28.89938187667417
 20
-0.0667408072693505
 30
0.0
 10
28.71524750008478
 20
0.0365661320396234
 30
0.0
 10
28.62695345149497
 20
0.0912143644640332
 30
0.0
 10
28.55332013299714
 20
0.1428674419294363
 30
0.0
  0
SPLINE
  5
15E
330
1F
100
AcDbEntity
  8
0
  6
Continuous
 62
     1
370
    15
100
AcDbSpline
210
0.0
220
0.0
230
1.0
 70
     8
 71
     3
 72
     8
 73
     4
 74
     0
 42
0.000000001
 43
0.00000001
 40
0.0
 40
0.0
 40
0.0
 40
0.0
 40
1.0
 40
1.0
 40
1.0
 40
1.0
 10
29.3250610373167
 20
-0.2859528538369397
 30
0.0
 10
29.23640366060738
 20
-0.2351610510773432
 30
0.0
 10
29.14661777547664
 20
-0.1859166546958892
 30
0.0
 10
29.0711159825003
 20
-0.1506421347085435
 30
0.0
  0
SPLINE
  5
15F
330
1F
100
AcDbEntity
  8
0
  6
Continuous
 62
     1
370
    15
100
AcDbSpline
210
0.0
220
0.0
230
1.0
 70
     8
 71
     3
 72
     8
 73
     4
 74
     0
 42
0.000000001
 43
0.00000001
 40
0.0
 40
0.0
 40
0.0
 40
0.0
 40
1.0
 40
1.0
 40
1.0
 40
1.0
 10
29.58033044370702
 20
-0.4387952069678096
 30
0.0
 10
29.50665990122286
 20
-0.3926219650771253
 30
0.0
 10
29.41717381047582
 20
-0.3389432388150657
 30
0.0
 10
29.32506103731771
 20
-0.2859528538375235
 30
0.0
  0
SPLINE
  5
160
330
1F
100
AcDbEntity
  8
0
  6
Continuous
 62
     1
370
    15
100
AcDbSpline
210
0.0
220
0.0
230
1.0
 70
     8
 71
     3
 72
    10
 73
     6
 74
     0
 42
0.000000001
 43
0.00000001
 40
0.0
 40
0.0
 40
0.0
 40
0.0
 40
0.5
 40
0.5
 40
1.0
 40
1.0
 40
1.0
 40
1.0
 10
30.09832129419235
 20
-0.731096173301841
 30
0.0
 10
30.01964438664191
 20
-0.688722988531692
 30
0.0
 10
29.92592436915178
 20
-0.6388619030371593
 30
0.0
 10
29.74182297969938
 20
-0.5362829529431332
 30
0.0
 10
29.65361331482164
 20
-0.4847254746202736
 30
0.0
 10
29.58033044370744
 20
-0.4387952069677858
 30
0.0
  0
SPLINE
  5
161
330
1F
100
AcDbEntity
  8
0
  6
Continuous
 62
     1
370
    15
100
AcDbSpline
210
0.0
220
0.0
230
1.0
 70
     8
 71
     3
 72
    10
 73
     6
 74
     0
 42
0.000000001
 43
0.00000001
 40
0.0
 40
0.0
 40
0.0
 40
0.0
 40
0.5
 40
0.5
 40
1.0
 40
1.0
 40
1.0
 40
1.0
 10
30.61348123757216
 20
-1.02072905183513
 30
0.0
 10
30.53973236646438
 20
-0.9802429450074428
 30
0.0
 10
30.45148276106679
 20
-0.9304663420251271
 30
0.0
 10
30.27065312696527
 20
-0.8273633674791719
 30
0.0
 10
30.17706268302106
 20
-0.773504085887349
 30
0.0
 10
30.09832129419237
 20
-0.7310961733018525
 30
0.0
  0
SPLINE
  5
162
330
1F
100
AcDbEntity
  8
0
  6
Continuous
 62
     1
370
    15
100
AcDbSpline
210
0.0
220
0.0
230
1.0
 70
     8
 71
     3
 72
    10
 73
     6
 74
     0
 42
0.000000001
 43
0.00000001
 40
0.0
 40
0.0
 40
0.0
 40
0.0
 40
0.5
 40
0.5
 40
1.0
 40
1.0
 40
1.0
 40
1.0
 10
31.1315456118752
 20
-1.310259845877157
 30
0.0
 10
31.05330353019976
 20
-1.262824876291712
 30
0.0
 10
30.9597021448376
 20
-1.210976672198248
 30
0.0
 10
30.77549895339989
 20
-1.109590134240015
 30
0.0
 10
30.68718410358229
 20
-1.061189903126436
 30
0.0
 10
30.61348123757216
 20
-1.020729051835128
 30
0.0
  0
SPLINE
  5
163
330
1F
100
AcDbEntity
  8
0
  6
Continuous
 62
     1
370
    15
100
AcDbSpline
210
0.0
220
0.0
230
1.0
 70
     8
 71
     3
 72
     8
 73
     4
 74
     0
 42
0.000000001
 43
0.00000001
 40
0.0
 40
0.0
 40
0.0
 40
0.0
 40
1.0
 40
1.0
 40
1.0
 40
1.0
 10
31.38556248010885
 20
-1.459343752274446
 30
0.0
 10
31.29688129654738
 20
-1.409568327223219
 30
0.0
 10
31.2070753436773
 20
-1.356050428823182
 30
0.0
 10
31.13154561187551
 20
-1.310259845877342
 30
0.0
  0
SPLINE
  5
164
330
1F
100
AcDbEntity
  8
0
  6
Continuous
 62
     1
370
    15
100
AcDbSpline
210
0.0
220
0.0
230
1.0
 70
     8
 71
     3
 72
     8
 73
     4
 74
     0
 42
0.000000001
 43
0.00000001
 40
0.0
 40
0.0
 40
0.0
 40
0.0
 40
1.0
 40
1.0
 40
1.0
 40
1.0
 10
31.64087594832862
 20
-1.591246849183252
 30
0.0
 10
31.5671867422634
 20
-1.557270820658055
 30
0.0
 10
31.47768250618481
 20
-1.510794452171882
 30
0.0
 10
31.38556248010986
 20
-1.45934375227501
 30
0.0
  0
SPLINE
  5
165
330
1F
100
AcDbEntity
  8
0
  6
Continuous
 62
     1
370
    15
100
AcDbSpline
210
0.0
220
0.0
230
1.0
 70
     8
 71
     3
 72
    10
 73
     6
 74
     0
 42
0.000000001
 43
0.00000001
 40
0.0
 40
0.0
 40
0.0
 40
0.0
 40
0.5
 40
0.5
 40
1.0
 40
1.0
 40
1.0
 40
1.0
 10
32.15883170982804
 20
-1.872924448799055
 30
0.0
 10
32.08015954818412
 20
-1.820704141237326
 30
0.0
 10
31.98643712193238
 20
-1.76753519179133
 30
0.0
 10
31.80233942949065
 20
-1.669183219397487
 30
0.0
 10
31.71414907347593
 20
-1.625031034453313
 30
0.0
 10
31.64087594832904
 20
-1.59124684918316
 30
0.0
  0
SPLINE
  5
166
330
1F
100
AcDbEntity
  8
0
  6
Continuous
 62
     1
370
    15
100
AcDbSpline
210
0.0
220
0.0
230
1.0
 70
     8
 71
     3
 72
    10
 73
     6
 74
     0
 42
0.000000001
 43
0.00000001
 40
0.0
 40
0.0
 40
0.0
 40
0.0
 40
0.5
 40
0.5
 40
1.0
 40
1.0
 40
1.0
 40
1.0
 10
33.19156738598049
 20
-2.424254108855412
 30
0.0
 10
33.11339379638228
 20
-2.367629518477098
 30
0.0
 10
33.01989868114618
 20
-2.313144919777252
 30
0.0
 10
32.83581335557663
 20
-2.21743084726253
 30
0.0
 10
32.74748404744422
 20
-2.177216098584656
 30
0.0
 10
32.67380354848424
 20
-2.149517936668978
 30
0.0
  0
SPLINE
  5
167
330
1F
100
AcDbEntity
  8
0
  6
Continuous
 62
     1
370
    15
100
AcDbSpline
210
0.0
220
0.0
230
1.0
 70
     8
 71
     3
 72
    10
 73
     6
 74
     0
 42
0.000000001
 43
0.00000001
 40
0.0
 40
0.0
 40
0.0
 40
0.0
 40
0.5
 40
0.5
 40
1.0
 40
1.0
 40
1.0
 40
1.0
 10
34.21786554331996
 20
-2.949157352040309
 30
0.0
 10
34.13928812121862
 20
-2.88894794588055
 30
0.0
 10
34.04565460814475
 20
-2.834346187084945
 30
0.0
 10
33.86172845385789
 20
-2.743697409807139
 30
0.0
 10
33.77364867882464
 20
-2.708518385993253
 30
0.0
 10
33.70048240552052
 20
-2.688081529727937
 30
0.0
  0
SPLINE
  5
168
330
1F
100
AcDbEntity
  8
0
  6
Continuous
 62
     1
370
    15
100
AcDbSpline
210
0.0
220
0.0
230
1.0
 70
     8
 71
     3
 72
     8
 73
     4
 74
     0
 42
0.000000001
 43
0.00000001
 40
0.0
 40
0.0
 40
0.0
 40
0.0
 40
1.0
 40
1.0
 40
1.0
 40
1.0
 10
35.00199791388771
 20
-3.298485019132122
 30
0.0
 10
34.90489986850326
 20
-3.251455905785976
 30
0.0
 10
34.81016792336178
 20
-3.217873704205966
 30
0.0
 10
34.73234913636654
 20
-3.203087855713078
 30
0.0
  0
SPLINE
  5
169
330
1F
100
AcDbEntity
  8
0
  6
Continuous
 62
     1
370
    15
100
AcDbSpline
210
0.0
220
0.0
230
1.0
 70
     8
 71
     3
 72
     8
 73
     4
 74
     0
 42
0.000000001
 43
0.00000001
 40
0.0
 40
0.0
 40
0.0
 40
0.0
 40
1.0
 40
1.0
 40
1.0
 40
1.0
 10
35.31215701540224
 20
-3.319926771193425
 30
0.0
 10
35.20930841358727
 20
-3.313761103023648
 30
0.0
 10
35.10589355588449
 20
-3.306602155732421
 30
0.0
 10
35.00199791388782
 20
-3.298485019132137
 30
0.0
  0
LINE
  5
16A
330
1F
100
AcDbEntity
  8
0
  6
Continuous
 62
     1
370
    15
100
AcDbLine
 10
35.31215687235108
 20
4.093678592375181
 30
0.0
 11
35.31215687235108
 21
5.804578697911165
 31
0.0
  0
SPLINE
  5
16B
330
1F
100
AcDbEntity
  8
0
  6
Continuous
 62
     1
370
    15
100
AcDbSpline
210
0.0
220
0.0
230
1.0
 70
     8
 71
     3
 72
    14
 73
    10
 74
     0
 42
0.000000001
 43
0.00000001
 40
0.0
 40
0.0
 40
0.0
 40
0.0
 40
0.25
 40
0.25
 40
0.5
 40
0.5
 40
0.75
 40
0.75
 40
1.0
 40
1.0
 40
1.0
 40
1.0
 10
35.31215701540224
 20
4.093678367700456
 30
0.0
 10
35.20751683543952
 20
3.854736268233806
 30
0.0
 10
35.08416753305092
 20
3.633362306659862
 30
0.0
 10
34.79804653921806
 20
3.227632579834808
 30
0.0
 10
34.63315682736593
 20
3.042078649189841
 30
0.0
 10
34.27876380632387
 20
2.726686201380355
 30
0.0
 10
34.0881261518252
 20
2.59430913041099
 30
0.0
 10
33.68112412001814
 20
2.37801655025822
 30
0.0
 10
33.47153748715764
 20
2.297603856028358
 30
0.0
 10
33.25671579784132
 20
2.241175296723878
 30
0.0
  0
SPLINE
  5
16C
330
1F
100
AcDbEntity
  8
0
  6
Continuous
 62
     1
370
    15
100
AcDbSpline
210
0.0
220
0.0
230
1.0
 70
     8
 71
     3
 72
     8
 73
     4
 74
     0
 42
0.000000001
 43
0.00000001
 40
0.0
 40
0.0
 40
0.0
 40
0.0
 40
1.0
 40
1.0
 40
1.0
 40
1.0
 10
35.31215701540224
 20
1.206945810040301
 30
0.0
 10
34.60960661047698
 20
1.588935892709139
 30
0.0
 10
33.92504650642022
 20
1.932422814628907
 30
0.0
 10
33.25671579784132
 20
2.241175296723879
 30
0.0
  0
LINE
  5
16D
330
1F
100
AcDbEntity
  8
0
  6
Continuous
 62
     1
370
    15
100
AcDbLine
 10
35.31215687235108
 20
0.4331463539476309
 30
0.0
 11
35.31215687235108
 21
1.206945784992239
 31
0.0
  0
SPLINE
  5
16E
330
1F
100
AcDbEntity
  8
0
  6
Continuous
 62
     1
370
    15
100
AcDbSpline
210
0.0
220
0.0
230
1.0
 70
     8
 71
     3
 72
     8
 73
     4
 74
     0
 42
0.000000001
 43
0.00000001
 40
0.0
 40
0.0
 40
0.0
 40
0.0
 40
1.0
 40
1.0
 40
1.0
 40
1.0
 10
34.95975071666852
 20
0.5897979129229053
 30
0.0
 10
35.0761260075408
 20
0.5310860150692219
 30
0.0
 10
35.19350548401944
 20
0.4787101742185251
 30
0.0
 10
35.31215701540224
 20
0.4331463639292803
 30
0.0
  0
SPLINE
  5
16F
330
1F
100
AcDbEntity
  8
0
  6
Continuous
 62
     1
370
    15
100
AcDbSpline
210
0.0
220
0.0
230
1.0
 70
     8
 71
     3
 72
     8
 73
     4
 74
     0
 42
0.000000001
 43
0.00000001
 40
0.0
 40
0.0
 40
0.0
 40
0.0
 40
1.0
 40
1.0
 40
1.0
 40
1.0
 10
34.5184238298758
 20
0.835880386048678
 30
0.0
 10
34.64996548557849
 20
0.7629376201340065
 30
0.0
 10
34.82234303191969
 20
0.6706000674163858
 30
0.0
 10
34.95975071666848
 20
0.5897979129229215
 30
0.0
  0
SPLINE
  5
170
330
1F
100
AcDbEntity
  8
0
  6
Continuous
 62
     1
370
    15
100
AcDbSpline
210
0.0
220
0.0
230
1.0
 70
     8
 71
     3
 72
    10
 73
     6
 74
     0
 42
0.000000001
 43
0.00000001
 40
0.0
 40
0.0
 40
0.0
 40
0.0
 40
0.5
 40
0.5
 40
1.0
 40
1.0
 40
1.0
 40
1.0
 10
33.48641440898911
 20
1.410484917137838
 30
0.0
 10
33.56451951549183
 20
1.361956833598884
 30
0.0
 10
33.65798802868648
 20
1.309853668032892
 30
0.0
 10
33.84203918780458
 20
1.209382544054657
 30
0.0
 10
33.93034287519981
 20
1.162149743771755
 30
0.0
 10
34.00395785072218
 20
1.123385064655754
 30
0.0
  0
SPLINE
  5
171
330
1F
100
AcDbEntity
  8
0
  6
Continuous
 62
     1
370
    15
100
AcDbSpline
210
0.0
220
0.0
230
1.0
 70
     8
 71
     3
 72
    10
 73
     6
 74
     0
 42
0.000000001
 43
0.00000001
 40
0.0
 40
0.0
 40
0.0
 40
0.0
 40
0.5
 40
0.5
 40
1.0
 40
1.0
 40
1.0
 40
1.0
 10
32.45942034557891
 20
1.971089554688014
 30
0.0
 10
32.538127106064
 20
1.917723396326189
 30
0.0
 10
32.63186969453461
 20
1.864171413873229
 30
0.0
 10
32.81594068036955
 20
1.766272832267545
 30
0.0
 10
32.90408539969214
 20
1.722942797635615
 30
0.0
 10
32.97732523871533
 20
1.690519594803096
 30
0.0
  0
SPLINE
  5
172
330
1F
100
AcDbEntity
  8
0
  6
Continuous
 62
     1
370
    15
100
AcDbSpline
210
0.0
220
0.0
230
1.0
 70
     8
 71
     3
 72
    10
 73
     6
 74
     0
 42
0.000000001
 43
0.00000001
 40
0.0
 40
0.0
 40
0.0
 40
0.0
 40
0.5
 40
0.5
 40
1.0
 40
1.0
 40
1.0
 40
1.0
 10
31.4263917920142
 20
2.516650727454263
 30
0.0
 10
31.50457202013034
 20
2.459187825058439
 30
0.0
 10
31.59812325472559
 20
2.404741050342037
 30
0.0
 10
31.78231688004854
 20
2.31032380962779
 30
0.0
 10
31.87068091160695
 20
2.271325458423743
 30
0.0
 10
31.94437117458813
 20
2.245327059355009
 30
0.0
  0
SPLINE
  5
173
330
1F
100
AcDbEntity
  8
0
  6
Continuous
 62
     1
370
    15
100
AcDbSpline
210
0.0
220
0.0
230
1.0
 70
     8
 71
     3
 72
     8
 73
     4
 74
     0
 42
0.000000001
 43
0.00000001
 40
0.0
 40
0.0
 40
0.0
 40
0.0
 40
1.0
 40
1.0
 40
1.0
 40
1.0
 10
31.17237160344018
 20
2.674720159802141
 30
0.0
 10
31.26102988290108
 20
2.628164114612713
 30
0.0
 10
31.35084823077593
 20
2.57217566503336
 30
0.0
 10
31.42639179201412
 20
2.516650727454323
 30
0.0
  0
SPLINE
  5
174
330
1F
100
AcDbEntity
  8
0
  6
Continuous
 62
     1
370
    15
100
AcDbSpline
210
0.0
220
0.0
230
1.0
 70
     8
 71
     3
 72
     8
 73
     4
 74
     0
 42
0.000000001
 43
0.00000001
 40
0.0
 40
0.0
 40
0.0
 40
0.0
 40
1.0
 40
1.0
 40
1.0
 40
1.0
 10
30.91702157476637
 20
2.777967504301115
 30
0.0
 10
30.99071493281137
 20
2.758918512316159
 30
0.0
 10
31.08021683687434
 20
2.722338261818312
 30
0.0
 10
31.17237160343918
 20
2.674720159802668
 30
0.0
  0
SPLINE
  5
175
330
1F
100
AcDbEntity
  8
0
  6
Continuous
 62
     1
370
    15
100
AcDbSpline
210
0.0
220
0.0
230
1.0
 70
     8
 71
     3
 72
    10
 73
     6
 74
     0
 42
0.000000001
 43
0.00000001
 40
0.0
 40
0.0
 40
0.0
 40
0.0
 40
0.5
 40
0.5
 40
1.0
 40
1.0
 40
1.0
 40
1.0
 10
30.39892436936719
 20
3.037369859126933
 30
0.0
 10
30.47766504455625
 20
2.976108304548361
 30
0.0
 10
30.5714297875475
 20
2.921238084738432
 30
0.0
 10
30.75551477276931
 20
2.831204483851133
 30
0.0
 10
30.84370564527335
 20
2.79691893480064
 30
0.0
 10
30.91702157476612
 20
2.777967504301022
 30
0.0
  0
SPLINE
  5
176
330
1F
100
AcDbEntity
  8
0
  6
Continuous
 62
     1
370
    15
100
AcDbSpline
210
0.0
220
0.0
230
1.0
 70
     8
 71
     3
 72
    10
 73
     6
 74
     0
 42
0.000000001
 43
0.00000001
 40
0.0
 40
0.0
 40
0.0
 40
0.0
 40
0.5
 40
0.5
 40
1.0
 40
1.0
 40
1.0
 40
1.0
 10
29.88382508728234
 20
3.28854141081817
 30
0.0
 10
29.95759546817115
 20
3.276237643120363
 30
0.0
 10
30.04587896832934
 20
3.244894838545935
 30
0.0
 10
30.22670244097124
 20
3.156372521990759
 30
0.0
 10
30.32023550895267
 20
3.098591100949355
 30
0.0
 10
30.39892436936718
 20
3.037369859126935
 30
0.0
  0
SPLINE
  5
177
330
1F
100
AcDbEntity
  8
0
  6
Continuous
 62
     1
370
    15
100
AcDbSpline
210
0.0
220
0.0
230
1.0
 70
     8
 71
     3
 72
    10
 73
     6
 74
     0
 42
0.000000001
 43
0.00000001
 40
0.0
 40
0.0
 40
0.0
 40
0.0
 40
0.5
 40
0.5
 40
1.0
 40
1.0
 40
1.0
 40
1.0
 10
29.36594882545163
 20
3.534440795913203
 30
0.0
 10
29.4441137114817
 20
3.470074681624907
 30
0.0
 10
29.53765579674505
 20
3.415208359010973
 30
0.0
 10
29.72182358125722
 20
3.330195765658309
 30
0.0
 10
29.81015667042794
 20
3.30082817247945
 30
0.0
 10
29.88382508728234
 20
3.288541410818181
 30
0.0
  0
SPLINE
  5
178
330
1F
100
AcDbEntity
  8
0
  6
Continuous
 62
     1
370
    15
100
AcDbSpline
210
0.0
220
0.0
230
1.0
 70
     8
 71
     3
 72
     8
 73
     4
 74
     0
 42
0.000000001
 43
0.00000001
 40
0.0
 40
0.0
 40
0.0
 40
0.0
 40
1.0
 40
1.0
 40
1.0
 40
1.0
 10
29.11202563575654
 20
3.69456161155813
 30
0.0
 10
29.20066210260371
 20
3.652703754491987
 30
0.0
 10
29.29044561579427
 20
3.596615110605713
 30
0.0
 10
29.36594882545157
 20
3.534440795913255
 30
0.0
  0
SPLINE
  5
179
330
1F
100
AcDbEntity
  8
0
  6
Continuous
 62
     1
370
    15
100
AcDbSpline
210
0.0
220
0.0
230
1.0
 70
     8
 71
     3
 72
     8
 73
     4
 74
     0
 42
0.000000001
 43
0.00000001
 40
0.0
 40
0.0
 40
0.0
 40
0.0
 40
1.0
 40
1.0
 40
1.0
 40
1.0
 10
28.85683031682017
 20
3.767808590643551
 30
0.0
 10
28.93046585522865
 20
3.763024941677077
 30
0.0
 10
29.01992217986082
 20
3.736847063754771
 30
0.0
 10
29.11202563575553
 20
3.694561611558604
 30
0.0
  0
SPLINE
  5
17A
330
1F
100
AcDbEntity
  8
0
  6
Continuous
 62
     1
370
    15
100
AcDbSpline
210
0.0
220
0.0
230
1.0
 70
     8
 71
     3
 72
    10
 73
     6
 74
     0
 42
0.000000001
 43
0.00000001
 40
0.0
 40
0.0
 40
0.0
 40
0.0
 40
0.5
 40
0.5
 40
1.0
 40
1.0
 40
1.0
 40
1.0
 10
28.33911723805349
 20
3.996258042273642
 30
0.0
 10
28.41775836045761
 20
3.929326740131777
 30
0.0
 10
28.5114017769628
 20
3.875114582950754
 30
0.0
 10
28.6953928336766
 20
3.796430613883304
 30
0.0
 10
28.78356879747451
 20
3.772567941887
 30
0.0
 10
28.85683031681995
 20
3.76780859064347
 30
0.0
  0
SPLINE
  5
17B
330
1F
100
AcDbEntity
  8
0
  6
Continuous
 62
     1
370
    15
100
AcDbSpline
210
0.0
220
0.0
230
1.0
 70
     8
 71
     3
 72
    10
 73
     6
 74
     0
 42
0.000000001
 43
0.00000001
 40
0.0
 40
0.0
 40
0.0
 40
0.0
 40
0.5
 40
0.5
 40
1.0
 40
1.0
 40
1.0
 40
1.0
 10
27.82450429356311
 20
4.215417880158759
 30
0.0
 10
27.89819194136763
 20
4.217286316072361
 30
0.0
 10
27.9863987320718
 20
4.196461290964999
 30
0.0
 10
28.16706508331268
 20
4.119700532213775
 30
0.0
 10
28.26050831681057
 20
4.063161938071559
 30
0.0
 10
28.33911723805349
 20
3.996258042273648
 30
0.0
  0
SPLINE
  5
17C
330
1F
100
AcDbEntity
  8
0
  6
Continuous
 62
     1
370
    15
100
AcDbSpline
210
0.0
220
0.0
230
1.0
 70
     8
 71
     3
 72
    10
 73
     6
 74
     0
 42
0.000000001
 43
0.00000001
 40
0.0
 40
0.0
 40
0.0
 40
0.0
 40
0.5
 40
0.5
 40
1.0
 40
1.0
 40
1.0
 40
1.0
 10
27.30720174871528
 20
4.427242012340264
 30
0.0
 10
27.38527935824125
 20
4.358250590885616
 30
0.0
 10
27.47872970869927
 20
4.304880016735567
 30
0.0
 10
27.66271914501277
 20
4.232250969391879
 30
0.0
 10
27.75094621055459
 20
4.213552729511077
 30
0.0
 10
27.82450429356313
 20
4.215417880158761
 30
0.0
  0
SPLINE
  5
17D
330
1F
100
AcDbEntity
  8
0
  6
Continuous
 62
     1
370
    15
100
AcDbSpline
210
0.0
220
0.0
230
1.0
 70
     8
 71
     3
 72
     8
 73
     4
 74
     0
 42
0.000000001
 43
0.00000001
 40
0.0
 40
0.0
 40
0.0
 40
0.0
 40
1.0
 40
1.0
 40
1.0
 40
1.0
 10
27.05345996313126
 20
4.583869715057677
 30
0.0
 10
27.14204705962461
 20
4.548148174572196
 30
0.0
 10
27.23176885758968
 20
4.493896491323222
 30
0.0
 10
27.30720174871521
 20
4.427242012340324
 30
0.0
  0
SPLINE
  5
17E
330
1F
100
AcDbEntity
  8
0
  6
Continuous
 62
     1
370
    15
100
AcDbSpline
210
0.0
220
0.0
230
1.0
 70
     8
 71
     3
 72
     8
 73
     4
 74
     0
 42
0.000000001
 43
0.00000001
 40
0.0
 40
0.0
 40
0.0
 40
0.0
 40
1.0
 40
1.0
 40
1.0
 40
1.0
 10
26.79839993137315
 20
4.624698291101691
 30
0.0
 10
26.87199223360645
 20
4.63428839536512
 30
0.0
 10
26.96140334901342
 20
4.619387304078169
 30
0.0
 10
27.05345996313024
 20
4.583869715058084
 30
0.0
  0
SPLINE
  5
17F
330
1F
100
AcDbEntity
  8
0
  6
Continuous
 62
     1
370
    15
100
AcDbSpline
210
0.0
220
0.0
230
1.0
 70
     8
 71
     3
 72
    10
 73
     6
 74
     0
 42
0.000000001
 43
0.00000001
 40
0.0
 40
0.0
 40
0.0
 40
0.0
 40
0.5
 40
0.5
 40
1.0
 40
1.0
 40
1.0
 40
1.0
 10
26.28070403780867
 20
4.814249683125412
 30
0.0
 10
26.35933160106549
 20
4.744053482425176
 30
0.0
 10
26.45298787777746
 20
4.692494469224476
 30
0.0
 10
26.63698036963786
 20
4.627845242199884
 30
0.0
 10
26.7251589573664
 20
4.615153969810164
 30
0.0
 10
26.7983999313729
 20
4.624698291101538
 30
0.0
  0
SPLINE
  5
180
330
1F
100
AcDbEntity
  8
0
  6
Continuous
 62
     1
370
    15
100
AcDbSpline
210
0.0
220
0.0
230
1.0
 70
     8
 71
     3
 72
    10
 73
     6
 74
     0
 42
0.000000001
 43
0.00000001
 40
0.0
 40
0.0
 40
0.0
 40
0.0
 40
0.5000000000000004
 40
0.5000000000000004
 40
1.0
 40
1.0
 40
1.0
 40
1.0
 10
25.76574203430669
 20
4.993997918959414
 30
0.0
 10
25.83950538498833
 20
5.009888778867198
 30
0.0
 10
25.92776356651205
 20
5.000243340294581
 30
0.0
 10
26.10850611935718
 20
4.937841125313357
 30
0.0
 10
26.20200268858489
 20
4.884511757602361
 30
0.0
 10
26.28070403780867
 20
4.814249683125411
 30
0.0
  0
SPLINE
  5
181
330
1F
100
AcDbEntity
  8
0
  6
Continuous
 62
     1
370
    15
100
AcDbSpline
210
0.0
220
0.0
230
1.0
 70
     8
 71
     3
 72
    10
 73
     6
 74
     0
 42
0.000000001
 43
0.00000001
 40
0.0
 40
0.0
 40
0.0
 40
0.0
 40
0.5
 40
0.5
 40
1.0
 40
1.0
 40
1.0
 40
1.0
 10
25.24784019720255
 20
5.164865852051316
 30
0.0
 10
25.32603221439259
 20
5.093531673369096
 30
0.0
 10
25.41959385900763
 20
5.043464686552159
 30
0.0
 10
25.60376526871767
 20
4.985610862683101
 30
0.0
 10
25.69208506975697
 20
4.978129977846717
 30
0.0
 10
25.76574203430669
 20
4.993997918959423
 30
0.0
  0
SPLINE
  5
182
330
1F
100
AcDbEntity
  8
0
  6
Continuous
 62
     1
370
    15
100
AcDbSpline
210
0.0
220
0.0
230
1.0
 70
     8
 71
     3
 72
     8
 73
     4
 74
     0
 42
0.000000001
 43
0.00000001
 40
0.0
 40
0.0
 40
0.0
 40
0.0
 40
1.0
 40
1.0
 40
1.0
 40
1.0
 10
24.99385606106967
 20
5.312736553165017
 30
0.0
 10
25.08252318090243
 20
5.284333698275663
 30
0.0
 10
25.17232439698362
 20
5.233758531633331
 30
0.0
 10
25.24784019720248
 20
5.164865852051381
 30
0.0
  0
SPLINE
  5
183
330
1F
100
AcDbEntity
  8
0
  6
Continuous
 62
     1
370
    15
100
AcDbSpline
210
0.0
220
0.0
230
1.0
 70
     8
 71
     3
 72
     8
 73
     4
 74
     0
 42
0.000000001
 43
0.00000001
 40
0.0
 40
0.0
 40
0.0
 40
0.0
 40
1.0
 40
1.0
 40
1.0
 40
1.0
 10
24.73854644672732
 20
5.319908992199723
 30
0.0
 10
24.81222824877994
 20
5.343494327733172
 30
0.0
 10
24.90172632132384
 20
5.34030865024201
 30
0.0
 10
24.99385606106865
 20
5.312736553165335
 30
0.0
  0
SPLINE
  5
184
330
1F
100
AcDbEntity
  8
0
  6
Continuous
 62
     1
370
    15
100
AcDbSpline
210
0.0
220
0.0
230
1.0
 70
     8
 71
     3
 72
    10
 73
     6
 74
     0
 42
0.000000001
 43
0.00000001
 40
0.0
 40
0.0
 40
0.0
 40
0.0
 40
0.5
 40
0.5
 40
1.0
 40
1.0
 40
1.0
 40
1.0
 10
24.22050025242752
 20
5.464204044064122
 30
0.0
 10
24.29918492738355
 20
5.393144155669642
 30
0.0
 10
24.39290893530739
 20
5.34598273410144
 30
0.0
 10
24.57702145552981
 20
5.297554962921145
 30
0.0
 10
24.6652466773428
 20
5.296445944237883
 30
0.0
 10
24.73854644672706
 20
5.319908992199549
 30
0.0
  0
SPLINE
  5
185
330
1F
100
AcDbEntity
  8
0
  6
Continuous
 62
     1
370
    15
100
AcDbSpline
210
0.0
220
0.0
230
1.0
 70
     8
 71
     3
 72
    10
 73
     6
 74
     0
 42
0.000000001
 43
0.00000001
 40
0.0
 40
0.0
 40
0.0
 40
0.0
 40
0.5
 40
0.5
 40
1.0
 40
1.0
 40
1.0
 40
1.0
 10
23.70531298821342
 20
5.597799344316304
 30
0.0
 10
23.77908511319979
 20
5.627193564378448
 30
0.0
 10
23.86732098326258
 20
5.629106964627402
 30
0.0
 10
24.04814910616605
 20
5.583466083501509
 30
0.0
 10
24.14174305087705
 20
5.535329431003374
 30
0.0
 10
24.22050025242752
 20
5.464204044064116
 30
0.0
  0
SPLINE
  5
186
330
1F
100
AcDbEntity
  8
0
  6
Continuous
 62
     1
370
    15
100
AcDbSpline
210
0.0
220
0.0
230
1.0
 70
     8
 71
     3
 72
    10
 73
     6
 74
     0
 42
0.000000001
 43
0.00000001
 40
0.0
 40
0.0
 40
0.0
 40
0.0
 40
0.5
 40
0.5
 40
1.0
 40
1.0
 40
1.0
 40
1.0
 10
23.18729641651293
 20
5.721474518252338
 30
0.0
 10
23.26551968010866
 20
5.650331848742224
 30
0.0
 10
23.35911016422738
 20
5.605351663134906
 30
0.0
 10
23.5433123699084
 20
5.564384549130319
 30
0.0
 10
23.63163603857602
 20
5.568443046506667
 30
0.0
 10
23.70531298821343
 20
5.597799344316307
 30
0.0
  0
SPLINE
  5
187
330
1F
100
AcDbEntity
  8
0
  6
Continuous
 62
     1
370
    15
100
AcDbSpline
210
0.0
220
0.0
230
1.0
 70
     8
 71
     3
 72
     8
 73
     4
 74
     0
 42
0.000000001
 43
0.00000001
 40
0.0
 40
0.0
 40
0.0
 40
0.0
 40
1.0
 40
1.0
 40
1.0
 40
1.0
 10
22.9333107148221
 20
5.855335306793547
 30
0.0
 10
23.02198112049808
 20
5.835267588257596
 30
0.0
 10
23.11177900657379
 20
5.790156261899902
 30
0.0
 10
23.18729641651286
 20
5.721474518252403
 30
0.0
  0
SPLINE
  5
188
330
1F
100
AcDbEntity
  8
0
  6
Continuous
 62
     1
370
    15
100
AcDbSpline
210
0.0
220
0.0
230
1.0
 70
     8
 71
     3
 72
     8
 73
     4
 74
     0
 42
0.000000001
 43
0.00000001
 40
0.0
 40
0.0
 40
0.0
 40
0.0
 40
1.0
 40
1.0
 40
1.0
 40
1.0
 10
22.67804025886814
 20
5.828526898485475
 30
0.0
 10
22.75170989876304
 20
5.865304064174872
 30
0.0
 10
22.84119898199926
 20
5.873972714841999
 30
0.0
 10
22.93331071482116
 20
5.855335306793748
 30
0.0
  0
SPLINE
  5
189
330
1F
100
AcDbEntity
  8
0
  6
Continuous
 62
     1
370
    15
100
AcDbSpline
210
0.0
220
0.0
230
1.0
 70
     8
 71
     3
 72
    10
 73
     6
 74
     0
 42
0.000000001
 43
0.00000001
 40
0.0
 40
0.0
 40
0.0
 40
0.0
 40
0.5
 40
0.5
 40
1.0
 40
1.0
 40
1.0
 40
1.0
 10
22.16018531168919
 20
5.92249781362977
 30
0.0
 10
22.2388361224259
 20
5.853068624369849
 30
0.0
 10
22.33253594486827
 20
5.811938383705106
 30
0.0
 10
22.51659950230997
 20
5.781426860067189
 30
0.0
 10
22.60477933484595
 20
5.791953770868949
 30
0.0
 10
22.67804025886811
 20
5.828526898485389
 30
0.0
  0
SPLINE
  5
18A
330
1F
100
AcDbEntity
  8
0
  6
Continuous
 62
     1
370
    15
100
AcDbSpline
210
0.0
220
0.0
230
1.0
 70
     8
 71
     3
 72
    10
 73
     6
 74
     0
 42
0.000000001
 43
0.00000001
 40
0.0
 40
0.0
 40
0.0
 40
0.0
 40
0.5
 40
0.5
 40
1.0
 40
1.0
 40
1.0
 40
1.0
 10
21.6453390697495
 20
6.005065188291088
 30
0.0
 10
21.71902689144747
 20
6.046999859133027
 30
0.0
 10
21.80722654901514
 20
6.060532452818512
 30
0.0
 10
21.98796196473517
 20
6.033264273447772
 30
0.0
 10
22.08150007172196
 20
5.991957395374376
 30
0.0
 10
22.1601853116892
 20
5.922497813629755
 30
0.0
  0
SPLINE
  5
18B
330
1F
100
AcDbEntity
  8
0
  6
Continuous
 62
     1
370
    15
100
AcDbSpline
210
0.0
220
0.0
230
1.0
 70
     8
 71
     3
 72
    10
 73
     6
 74
     0
 42
0.000000001
 43
0.00000001
 40
0.0
 40
0.0
 40
0.0
 40
0.0
 40
0.5
 40
0.5
 40
1.0
 40
1.0
 40
1.0
 40
1.0
 10
21.12775484202183
 20
6.077018042857697
 30
0.0
 10
21.20591019208277
 20
6.008603097547452
 30
0.0
 10
21.29942594262464
 20
5.970296992458428
 30
0.0
 10
21.48346898816674
 20
5.947690961863474
 30
0.0
 10
21.57170819371583
 20
5.963162924400976
 30
0.0
 10
21.64533906974954
 20
6.005065188291109
 30
0.0
  0
SPLINE
  5
18C
330
1F
100
AcDbEntity
  8
0
  6
Continuous
 62
     1
370
    15
100
AcDbSpline
210
0.0
220
0.0
230
1.0
 70
     8
 71
     3
 72
     8
 73
     4
 74
     0
 42
0.000000001
 43
0.00000001
 40
0.0
 40
0.0
 40
0.0
 40
0.0
 40
1.0
 40
1.0
 40
1.0
 40
1.0
 10
20.87400861920041
 20
6.192152847261241
 30
0.0
 10
20.96260551148443
 20
6.181126685192545
 30
0.0
 10
21.05231725223554
 20
6.143053938999671
 30
0.0
 10
21.12775484202176
 20
6.077018042857752
 30
0.0
  0
SPLINE
  5
18D
330
1F
100
AcDbEntity
  8
0
  6
Continuous
 62
     1
370
    15
100
AcDbSpline
210
0.0
220
0.0
230
1.0
 70
     8
 71
     3
 72
     8
 73
     4
 74
     0
 42
0.000000001
 43
0.00000001
 40
0.0
 40
0.0
 40
0.0
 40
0.0
 40
1.0
 40
1.0
 40
1.0
 40
1.0
 10
20.61906205536688
 20
6.132312068382086
 30
0.0
 10
20.69262155236782
 20
6.180976598411904
 30
0.0
 10
20.78200499468553
 20
6.201202005132506
 30
0.0
 10
20.8740086191994
 20
6.192152847261356
 30
0.0
  0
SPLINE
  5
18E
330
1F
100
AcDbEntity
  8
0
  6
Continuous
 62
     1
370
    15
100
AcDbSpline
210
0.0
220
0.0
230
1.0
 70
     8
 71
     3
 72
    10
 73
     6
 74
     0
 42
0.000000001
 43
0.00000001
 40
0.0
 40
0.0
 40
0.0
 40
0.0
 40
0.5
 40
0.5
 40
1.0
 40
1.0
 40
1.0
 40
1.0
 10
20.1016581131493
 20
6.172819760280261
 30
0.0
 10
20.18024159382596
 20
6.107443492020217
 30
0.0
 10
20.27387075305238
 20
6.073742790029323
 30
0.0
 10
20.45779734236674
 20
6.062142964744664
 30
0.0
 10
20.5458986885589
 20
6.083909604984601
 30
0.0
 10
20.61906205536663
 20
6.132312068381877
 30
0.0
  0
SPLINE
  5
18F
330
1F
100
AcDbEntity
  8
0
  6
Continuous
 62
     1
370
    15
100
AcDbSpline
210
0.0
220
0.0
230
1.0
 70
     8
 71
     3
 72
    10
 73
     6
 74
     0
 42
0.000000001
 43
0.00000001
 40
0.0
 40
0.0
 40
0.0
 40
0.0
 40
0.5
 40
0.5
 40
1.0
 40
1.0
 40
1.0
 40
1.0
 10
19.58695681543147
 20
6.201763969226995
 30
0.0
 10
19.66063067368697
 20
6.254741672437822
 30
0.0
 10
19.74881278836086
 20
6.279345603123144
 30
0.0
 10
19.92950601954737
 20
6.271315758450161
 30
0.0
 10
20.02301756941156
 20
6.238243501240104
 30
0.0
 10
20.1016581131493
 20
6.172819760280246
 30
0.0
  0
SPLINE
  5
190
330
1F
100
AcDbEntity
  8
0
  6
Continuous
 62
     1
370
    15
100
AcDbSpline
210
0.0
220
0.0
230
1.0
 70
     8
 71
     3
 72
    11
 73
     7
 74
     0
 42
0.000000001
 43
0.00000001
 40
0.0
 40
0.0
 40
0.0
 40
0.0
 40
0.1009782344419364
 40
0.4073629948991124
 40
0.7546233724599688
 40
1.0
 40
1.0
 40
1.0
 40
1.0
 10
19.15633373846523
 20
6.171310710391662
 30
0.0
 10
19.17037279129797
 20
6.162892692276161
 30
0.0
 10
19.22700866574261
 20
6.128933006908346
 30
0.0
 10
19.34557119508202
 20
6.118594294975834
 30
0.0
 10
19.48002628634884
 20
6.137118671189411
 30
0.0
 10
19.55564675546809
 20
6.18283538595697
 30
0.0
 10
19.58695680787078
 20
6.201764027259014
 30
0.0
  0
SPLINE
  5
191
330
1F
100
AcDbEntity
  8
0
  6
Continuous
 62
     1
370
    15
100
AcDbSpline
210
0.0
220
0.0
230
1.0
 70
     8
 71
     3
 72
     9
 73
     5
 74
     0
 42
0.000000001
 43
0.00000001
 40
0.0
 40
0.0
 40
0.0
 40
0.0
 40
0.6387576050884975
 40
1.0
 40
1.0
 40
1.0
 40
1.0
 10
18.81522753228656
 20
6.311838904997966
 30
0.0
 10
18.84061477557462
 20
6.31053773670082
 30
0.0
 10
18.88035949733733
 20
6.308500706868559
 30
0.0
 10
18.91912947374857
 20
6.295546861417007
 30
0.0
 10
18.93313483287803
 20
6.290867383262775
 30
0.0
  0
SPLINE
  5
192
330
1F
100
AcDbEntity
  8
0
  6
Continuous
 62
     1
370
    15
100
AcDbSpline
210
0.0
220
0.0
230
1.0
 70
     8
 71
     3
 72
     8
 73
     4
 74
     0
 42
0.000000001
 43
0.00000001
 40
0.0
 40
0.0
 40
0.0
 40
0.0
 40
1.0
 40
1.0
 40
1.0
 40
1.0
 10
18.55996146913739
 20
6.221098355726625
 30
0.0
 10
18.63364411014811
 20
6.279949477636329
 30
0.0
 10
18.72313271303298
 20
6.310994722967925
 30
0.0
 10
18.81522784388578
 20
6.311838750884641
 30
0.0
  0
SPLINE
  5
193
330
1F
100
AcDbEntity
  8
0
  6
Continuous
 62
     1
370
    15
100
AcDbSpline
210
0.0
220
0.0
230
1.0
 70
     8
 71
     3
 72
    10
 73
     6
 74
     0
 42
0.000000001
 43
0.00000001
 40
0.0
 40
0.0
 40
0.0
 40
0.0
 40
0.0337922492216561
 40
0.6021036286194351
 40
1.0
 40
1.0
 40
1.0
 40
1.0
 10
18.30297869582883
 20
6.127813289544246
 30
0.0
 10
18.30611322132696
 20
6.127441531438912
 30
0.0
 10
18.36196357813655
 20
6.120817618874737
 30
0.0
 10
18.45422465766562
 20
6.151564877169998
 30
0.0
 10
18.5291189333852
 20
6.200816041679332
 30
0.0
 10
18.5599613278102
 20
6.221098283908031
 30
0.0
  0
LINE
  5
194
330
1F
100
AcDbEntity
  8
0
  6
Continuous
 62
     1
370
    15
100
AcDbLine
 10
26.57972251017801
 20
4.695504362365863
 30
0.0
 11
26.52406667311898
 21
4.670258535674474
 31
0.0
  0
SPLINE
  5
195
330
1F
100
AcDbEntity
  8
0
  6
Continuous
 62
     1
370
    15
100
AcDbSpline
210
0.0
220
0.0
230
1.0
 70
     8
 71
     3
 72
     8
 73
     4
 74
     0
 42
0.000000001
 43
0.00000001
 40
0.0
 40
0.0
 40
0.0
 40
0.0
 40
1.0
 40
1.0
 40
1.0
 40
1.0
 10
26.83505058445917
 20
4.731877691177129
 30
0.0
 10
26.76135098487976
 20
4.743430643424137
 30
0.0
 10
26.67184090800466
 20
4.730066932256769
 30
0.0
 10
26.57972261245857
 20
4.69550444515458
 30
0.0
  0
SPLINE
  5
196
330
1F
100
AcDbEntity
  8
0
  6
Continuous
 62
     1
370
    15
100
AcDbSpline
210
0.0
220
0.0
230
1.0
 70
     8
 71
     3
 72
    10
 73
     6
 74
     0
 42
0.000000001
 43
0.00000001
 40
0.0
 40
0.0
 40
0.0
 40
0.0
 40
0.5
 40
0.5
 40
1.0
 40
1.0
 40
1.0
 40
1.0
 10
27.3530346029053
 20
4.91524330957961
 30
0.0
 10
27.27435198260525
 20
4.844842195776527
 30
0.0
 10
27.18061849310788
 20
4.793865505114848
 30
0.0
 10
26.99651032614121
 20
4.731457685593202
 30
0.0
 10
26.90832337508703
 20
4.72039164436052
 30
0.0
 10
26.83505058445925
 20
4.731877691177079
 30
0.0
  0
SPLINE
  5
197
330
1F
100
AcDbEntity
  8
0
  6
Continuous
 62
     1
370
    15
100
AcDbSpline
210
0.0
220
0.0
230
1.0
 70
     8
 71
     3
 72
    10
 73
     6
 74
     0
 42
0.000000001
 43
0.00000001
 40
0.0
 40
0.0
 40
0.0
 40
0.0
 40
0.5
 40
0.5
 40
1.0
 40
1.0
 40
1.0
 40
1.0
 10
27.86803457749068
 20
5.088319568167073
 30
0.0
 10
27.79431069976431
 20
5.106147982334665
 30
0.0
 10
27.70607123842688
 20
5.098186269285536
 30
0.0
 10
27.52527811578598
 20
5.038234402100978
 30
0.0
 10
27.43172520082108
 20
4.985651561338079
 30
0.0
 10
27.3530346029053
 20
4.915243309579614
 30
0.0
  0
SPLINE
  5
198
330
1F
100
AcDbEntity
  8
0
  6
Continuous
 62
     1
370
    15
100
AcDbSpline
210
0.0
220
0.0
230
1.0
 70
     8
 71
     3
 72
    10
 73
     6
 74
     0
 42
0.000000001
 43
0.00000001
 40
0.0
 40
0.0
 40
0.0
 40
0.0
 40
0.5
 40
0.5
 40
1.0
 40
1.0
 40
1.0
 40
1.0
 10
28.38583641436898
 20
5.253233904987244
 30
0.0
 10
28.30768896852975
 20
5.181694212399432
 30
0.0
 10
28.21418858953337
 20
5.132142674798114
 30
0.0
 10
28.03007795704187
 20
5.076409885560375
 30
0.0
 10
27.941721374211
 20
5.070500121182896
 30
0.0
 10
27.86803457749067
 20
5.088319568167071
 30
0.0
  0
SPLINE
  5
199
330
1F
100
AcDbEntity
  8
0
  6
Continuous
 62
     1
370
    15
100
AcDbSpline
210
0.0
220
0.0
230
1.0
 70
     8
 71
     3
 72
     8
 73
     4
 74
     0
 42
0.000000001
 43
0.00000001
 40
0.0
 40
0.0
 40
0.0
 40
0.0
 40
1.0
 40
1.0
 40
1.0
 40
1.0
 10
28.63972261006371
 20
5.39975979716597
 30
0.0
 10
28.5510840062042
 20
5.37237992125433
 30
0.0
 10
28.46133503615024
 20
5.322348744698589
 30
0.0
 10
28.3858364143692
 20
5.253233904987436
 30
0.0
  0
SPLINE
  5
19A
330
1F
100
AcDbEntity
  8
0
  6
Continuous
 62
     1
370
    15
100
AcDbSpline
210
0.0
220
0.0
230
1.0
 70
     8
 71
     3
 72
     8
 73
     4
 74
     0
 42
0.000000001
 43
0.00000001
 40
0.0
 40
0.0
 40
0.0
 40
0.0
 40
1.0
 40
1.0
 40
1.0
 40
1.0
 10
28.89483655391544
 20
5.402327277139037
 30
0.0
 10
28.82120765229925
 20
5.427802230800264
 30
0.0
 10
28.7317656758188
 20
5.426210373206461
 30
0.0
 10
28.63972261006473
 20
5.39975979716627
 30
0.0
  0
SPLINE
  5
19B
330
1F
100
AcDbEntity
  8
0
  6
Continuous
 62
     1
370
    15
100
AcDbSpline
210
0.0
220
0.0
230
1.0
 70
     8
 71
     3
 72
    10
 73
     6
 74
     0
 42
0.000000001
 43
0.00000001
 40
0.0
 40
0.0
 40
0.0
 40
0.0
 40
0.5
 40
0.5
 40
1.0
 40
1.0
 40
1.0
 40
1.0
 10
29.41230568379165
 20
5.539718936767066
 30
0.0
 10
29.33370562111408
 20
5.468796052515787
 30
0.0
 10
29.24005099553113
 20
5.422415569136385
 30
0.0
 10
29.05609932788032
 20
5.376461926511277
 30
0.0
 10
28.96801370941851
 20
5.377008623667555
 30
0.0
 10
28.89483655391554
 20
5.402327277138985
 30
0.0
  0
SPLINE
  5
19C
330
1F
100
AcDbEntity
  8
0
  6
Continuous
 62
     1
370
    15
100
AcDbSpline
210
0.0
220
0.0
230
1.0
 70
     8
 71
     3
 72
    10
 73
     6
 74
     0
 42
0.000000001
 43
0.00000001
 40
0.0
 40
0.0
 40
0.0
 40
0.0
 40
0.5
 40
0.5
 40
1.0
 40
1.0
 40
1.0
 40
1.0
 10
29.92673292088724
 20
5.665861406036031
 30
0.0
 10
29.85310174054828
 20
5.697137655414256
 30
0.0
 10
29.76495425254376
 20
5.700828895757926
 30
0.0
 10
29.58434158398269
 20
5.657852652277729
 30
0.0
 10
29.49088624063997
 20
5.610624220400448
 30
0.0
 10
29.41230568379165
 20
5.539718936767063
 30
0.0
  0
SPLINE
  5
19D
330
1F
100
AcDbEntity
  8
0
  6
Continuous
 62
     1
370
    15
100
AcDbSpline
210
0.0
220
0.0
230
1.0
 70
     8
 71
     3
 72
    10
 73
     6
 74
     0
 42
0.000000001
 43
0.00000001
 40
0.0
 40
0.0
 40
0.0
 40
0.0
 40
0.5
 40
0.5
 40
1.0
 40
1.0
 40
1.0
 40
1.0
 10
30.44423099340558
 20
5.782414591293245
 30
0.0
 10
30.36613313344015
 20
5.7115508392347
 30
0.0
 10
30.27267901251837
 20
5.667380508257953
 30
0.0
 10
30.08865131575692
 20
5.628890079752708
 30
0.0
 10
30.0003467836335
 20
5.63459251263588
 30
0.0
 10
29.92673292088724
 20
5.665861406036035
 30
0.0
  0
SPLINE
  5
19E
330
1F
100
AcDbEntity
  8
0
  6
Continuous
 62
     1
370
    15
100
AcDbSpline
210
0.0
220
0.0
230
1.0
 70
     8
 71
     3
 72
     8
 73
     4
 74
     0
 42
0.000000001
 43
0.00000001
 40
0.0
 40
0.0
 40
0.0
 40
0.0
 40
1.0
 40
1.0
 40
1.0
 40
1.0
 10
30.69809485884613
 20
5.914129961763665
 30
0.0
 10
30.60950642446898
 20
5.89519658319321
 30
0.0
 10
30.51974044631362
 20
5.850929697229761
 30
0.0
 10
30.4442309934058
 20
5.782414591293437
 30
0.0
  0
SPLINE
  5
19F
330
1F
100
AcDbEntity
  8
0
  6
Continuous
 62
     1
370
    15
100
AcDbSpline
210
0.0
220
0.0
230
1.0
 70
     8
 71
     3
 72
     8
 73
     4
 74
     0
 42
0.000000001
 43
0.00000001
 40
0.0
 40
0.0
 40
0.0
 40
0.0
 40
1.0
 40
1.0
 40
1.0
 40
1.0
 10
30.95328305401523
 20
5.882889710572536
 30
0.0
 10
30.87961408456786
 20
5.921359142966518
 30
0.0
 10
30.79015399602946
 20
5.931565234528312
 30
0.0
 10
30.69809485884712
 20
5.914129961763878
 30
0.0
  0
SPLINE
  5
1A0
330
1F
100
AcDbEntity
  8
0
  6
Continuous
 62
     1
370
    15
100
AcDbSpline
210
0.0
220
0.0
230
1.0
 70
     8
 71
     3
 72
    10
 73
     6
 74
     0
 42
0.000000001
 43
0.00000001
 40
0.0
 40
0.0
 40
0.0
 40
0.0
 40
0.5
 40
0.5
 40
1.0
 40
1.0
 40
1.0
 40
1.0
 10
31.47112894303265
 20
5.969769421914313
 30
0.0
 10
31.39244545147604
 20
5.900736733891096
 30
0.0
 10
31.29872036870649
 20
5.86055437202085
 30
0.0
 10
31.11466117942438
 20
5.832574708637932
 30
0.0
 10
31.02651542095158
 20
5.844648269026012
 30
0.0
 10
30.95328305401532
 20
5.882889710572474
 30
0.0
  0
SPLINE
  5
1A1
330
1F
100
AcDbEntity
  8
0
  6
Continuous
 62
     1
370
    15
100
AcDbSpline
210
0.0
220
0.0
230
1.0
 70
     8
 71
     3
 72
    10
 73
     6
 74
     0
 42
0.000000001
 43
0.00000001
 40
0.0
 40
0.0
 40
0.0
 40
0.0
 40
0.5
 40
0.5
 40
1.0
 40
1.0
 40
1.0
 40
1.0
 10
31.98614474894327
 20
6.044926386887974
 30
0.0
 10
31.91240095584681
 20
6.088520559489144
 30
0.0
 10
31.82414462642037
 20
6.103649955853706
 30
0.0
 10
31.6433444193172
 20
6.079033699331875
 30
0.0
 10
31.54980396909724
 20
6.038794682767501
 30
0.0
 10
31.47112894303265
 20
5.969769421914307
 30
0.0
  0
SPLINE
  5
1A2
330
1F
100
AcDbEntity
  8
0
  6
Continuous
 62
     1
370
    15
100
AcDbSpline
210
0.0
220
0.0
230
1.0
 70
     8
 71
     3
 72
    10
 73
     6
 74
     0
 42
0.000000001
 43
0.00000001
 40
0.0
 40
0.0
 40
0.0
 40
0.0
 40
0.5
 40
0.5
 40
1.0
 40
1.0
 40
1.0
 40
1.0
 10
32.50411612129253
 20
6.109349524308143
 30
0.0
 10
32.42593921903475
 20
6.041536529200835
 30
0.0
 10
32.33239613938427
 20
6.004262767514463
 30
0.0
 10
32.14821153026578
 20
5.984293198742556
 30
0.0
 10
32.05983992711084
 20
6.001360953350975
 30
0.0
 10
31.98614474894327
 20
6.044926386887974
 30
0.0
  0
SPLINE
  5
1A3
330
1F
100
AcDbEntity
  8
0
  6
Continuous
 62
     1
370
    15
100
AcDbSpline
210
0.0
220
0.0
230
1.0
 70
     8
 71
     3
 72
     8
 73
     4
 74
     0
 42
0.000000001
 43
0.00000001
 40
0.0
 40
0.0
 40
0.0
 40
0.0
 40
1.0
 40
1.0
 40
1.0
 40
1.0
 10
32.75814201895151
 20
6.221628663049811
 30
0.0
 10
32.66949115826035
 20
6.211858679543342
 30
0.0
 10
32.57967047203013
 20
6.174887639389818
 30
0.0
 10
32.50411612129272
 20
6.109349524308318
 30
0.0
  0
SPLINE
  5
1A4
330
1F
100
AcDbEntity
  8
0
  6
Continuous
 62
     1
370
    15
100
AcDbSpline
210
0.0
220
0.0
230
1.0
 70
     8
 71
     3
 72
     8
 73
     4
 74
     0
 42
0.000000001
 43
0.00000001
 40
0.0
 40
0.0
 40
0.0
 40
0.0
 40
1.0
 40
1.0
 40
1.0
 40
1.0
 10
33.01350368513301
 20
6.15750479582705
 30
0.0
 10
32.93980287372865
 20
6.20764310431783
 30
0.0
 10
32.85030247609115
 20
6.229363661439196
 30
0.0
 10
32.75814201895254
 20
6.221628663049909
 30
0.0
  0
SPLINE
  5
1A5
330
1F
100
AcDbEntity
  8
0
  6
Continuous
 62
     1
370
    15
100
AcDbSpline
210
0.0
220
0.0
230
1.0
 70
     8
 71
     3
 72
    10
 73
     6
 74
     0
 42
0.000000001
 43
0.00000001
 40
0.0
 40
0.0
 40
0.0
 40
0.0
 40
0.5
 40
0.5
 40
1.0
 40
1.0
 40
1.0
 40
1.0
 10
33.53159215699587
 20
6.19062284419285
 30
0.0
 10
33.45285421852932
 20
6.125908061151859
 30
0.0
 10
33.35907881848293
 20
6.093364377715039
 30
0.0
 10
33.17495117982376
 20
6.084427196746168
 30
0.0
 10
33.08677993086377
 20
6.107655317327547
 30
0.0
 10
33.0135036851331
 20
6.157504795826988
 30
0.0
  0
SPLINE
  5
1A6
330
1F
100
AcDbEntity
  8
0
  6
Continuous
 62
     1
370
    15
100
AcDbSpline
210
0.0
220
0.0
230
1.0
 70
     8
 71
     3
 72
    10
 73
     6
 74
     0
 42
0.000000001
 43
0.00000001
 40
0.0
 40
0.0
 40
0.0
 40
0.0
 40
0.5
 40
0.5
 40
1.0
 40
1.0
 40
1.0
 40
1.0
 10
34.04669556916429
 20
6.212000198094655
 30
0.0
 10
33.97293181589477
 20
6.266412140227542
 30
0.0
 10
33.88465306361017
 20
6.292480016130737
 30
0.0
 10
33.70382514422608
 20
6.287128485734369
 30
0.0
 10
33.61028167158377
 20
6.255297827604039
 30
0.0
 10
33.53159215699588
 20
6.190622844192845
 30
0.0
  0
SPLINE
  5
1A7
330
1F
100
AcDbEntity
  8
0
  6
Continuous
 62
     1
370
    15
100
AcDbSpline
210
0.0
220
0.0
230
1.0
 70
     8
 71
     3
 72
    10
 73
     6
 74
     0
 42
0.000000001
 43
0.00000001
 40
0.0
 40
0.0
 40
0.0
 40
0.0
 40
0.5
 40
0.5
 40
1.0
 40
1.0
 40
1.0
 40
1.0
 10
34.56460151487038
 20
6.222020094310034
 30
0.0
 10
34.4864359944968
 20
6.159640839970566
 30
0.0
 10
34.39289578567274
 20
6.130549399691624
 30
0.0
 10
34.20872250295369
 20
6.129799346245919
 30
0.0
 10
34.12037503932113
 20
6.157650427525006
 30
0.0
 10
34.0466955691643
 20
6.212000198094657
 30
0.0
  0
SPLINE
  5
1A8
330
1F
100
AcDbEntity
  8
0
  6
Continuous
 62
     1
370
    15
100
AcDbSpline
210
0.0
220
0.0
230
1.0
 70
     8
 71
     3
 72
     8
 73
     4
 74
     0
 42
0.000000001
 43
0.00000001
 40
0.0
 40
0.0
 40
0.0
 40
0.0
 40
1.0
 40
1.0
 40
1.0
 40
1.0
 10
34.81854690718014
 20
6.310989767252055
 30
0.0
 10
34.7299110236942
 20
6.31070225691851
 30
0.0
 10
34.64011894811155
 20
6.282286067755814
 30
0.0
 10
34.5646015148706
 20
6.22202009431021
 30
0.0
  0
SPLINE
  5
1A9
330
1F
100
AcDbEntity
  8
0
  6
Continuous
 62
     1
370
    15
100
AcDbSpline
210
0.0
220
0.0
230
1.0
 70
     8
 71
     3
 72
     8
 73
     4
 74
     0
 42
0.000000001
 43
0.00000001
 40
0.0
 40
0.0
 40
0.0
 40
0.0
 40
1.0
 40
1.0
 40
1.0
 40
1.0
 10
34.82222306848814
 20
6.310884893257072
 30
0.0
 10
34.82099863090572
 20
6.310925260116774
 30
0.0
 10
34.81977324590896
 20
6.310960225720706
 30
0.0
 10
34.81854690718117
 20
6.310989767252043
 30
0.0
  0
SPLINE
  5
1AA
330
1F
100
AcDbEntity
  8
0
  6
Continuous
 62
     1
370
    15
100
AcDbSpline
210
0.0
220
0.0
230
1.0
 70
     8
 71
     3
 72
     8
 73
     4
 74
     0
 42
0.000000001
 43
0.00000001
 40
0.0
 40
0.0
 40
0.0
 40
0.0
 40
1.0
 40
1.0
 40
1.0
 40
1.0
 10
35.31215701540224
 20
5.804578526807994
 30
0.0
 10
35.1501409529733
 20
5.975599130560704
 30
0.0
 10
34.98672604435947
 20
6.144269931129601
 30
0.0
 10
34.82222306848843
 20
6.310884893257299
 30
0.0
  0
SPLINE
  5
1AB
330
1F
100
AcDbEntity
  8
0
  6
Continuous
 62
     1
370
    15
100
AcDbSpline
210
0.0
220
0.0
230
1.0
 70
     8
 71
     3
 72
    10
 73
     6
 74
     0
 42
0.000000001
 43
0.00000001
 40
0.0
 40
0.0
 40
0.0
 40
0.0
 40
0.5
 40
0.5
 40
1.0
 40
1.0
 40
1.0
 40
1.0
 10
12.76299980659154
 20
-3.707831059757748
 30
0.0
 10
12.68924842577672
 20
-3.701081901811261
 30
0.0
 10
12.60099434417533
 20
-3.673747205176581
 30
0.0
 10
12.42024754682662
 20
-3.58941710556459
 30
0.0
 10
12.32676734402567
 20
-3.531802255222986
 30
0.0
 10
12.24810748321129
 20
-3.467995181923019
 30
0.0
  0
SPLINE
  5
1AC
330
1F
100
AcDbEntity
  8
0
  6
Continuous
 62
     1
370
    15
100
AcDbSpline
210
0.0
220
0.0
230
1.0
 70
     8
 71
     3
 72
    12
 73
     8
 74
     0
 42
0.000000001
 43
0.00000001
 40
0.0
 40
0.0
 40
0.0
 40
0.0
 40
0.2499999999999999
 40
0.2499999999999999
 40
0.4999999999999998
 40
0.4999999999999998
 40
1.0
 40
1.0
 40
1.0
 40
1.0
 10
12.24810748321129
 20
-3.467995181923043
 30
0.0
 10
12.23042989526899
 20
-3.177307086302664
 30
0.0
 10
12.21366980209553
 20
-2.875736959561058
 30
0.0
 10
12.1786617562357
 20
-2.240463511980106
 30
0.0
 10
12.16060706948307
 20
-1.907591664726021
 30
0.0
 10
12.10589992296129
 20
-0.8830862305999215
 30
0.0
 10
12.06874569003549
 20
-0.1659027784749566
 30
0.0
 10
12.03396506648627
 20
0.5255215237521812
 30
0.0
  0
SPLINE
  5
1AD
330
1F
100
AcDbEntity
  8
0
  6
Continuous
 62
     1
370
    15
100
AcDbSpline
210
0.0
220
0.0
230
1.0
 70
     8
 71
     3
 72
    12
 73
     8
 74
     0
 42
0.000000001
 43
0.00000001
 40
0.0
 40
0.0
 40
0.0
 40
0.0
 40
0.25
 40
0.25
 40
0.5
 40
0.5
 40
1.0
 40
1.0
 40
1.0
 40
1.0
 10
12.76299980659154
 20
-3.707831059757739
 30
0.0
 10
12.74508452785118
 20
-3.425333042207763
 30
0.0
 10
12.72785840114941
 20
-3.129123231840864
 30
0.0
 10
12.6935246593268
 20
-2.511841051394812
 30
0.0
 10
12.67571491884143
 20
-2.186402693050214
 30
0.0
 10
12.62141611801141
 20
-1.178237278292988
 30
0.0
 10
12.58408264802928
 20
-0.4636784911751284
 30
0.0
 10
12.54871832206033
 20
0.2334669899456366
 30
0.0
  0
SPLINE
  5
1AE
330
1F
100
AcDbEntity
  8
0
  6
Continuous
 62
     4
370
    15
100
AcDbSpline
210
0.0
220
0.0
230
1.0
 70
     8
 71
     3
 72
     8
 73
     4
 74
     0
 42
0.000000001
 43
0.00000001
 40
0.0
 40
0.0
 40
0.0
 40
0.0
 40
1.0
 40
1.0
 40
1.0
 40
1.0
 10
9.671946341191443
 20
-2.167796148324077
 30
0.0
 10
9.598297169756702
 20
-2.140538992077429
 30
0.0
 10
9.508831267135822
 20
-2.09838577405069
 30
0.0
 10
9.416714230999961
 20
-2.048438150120763
 30
0.0
  0
LINE
  5
1B0
330
1F
100
AcDbEntity
  8
0
  6
Continuous
 62
     1
370
    15
100
AcDbLine
 10
35.31215687235108
 20
-3.319926868521907
 30
0.0
 11
35.31215687235108
 21
0.4331463539476309
 31
0.0
  0
SPLINE
  5
1B1
330
1F
100
AcDbEntity
  8
0
  6
Continuous
 62
     1
370
    15
100
AcDbSpline
210
0.0
220
0.0
230
1.0
 70
     8
 71
     3
 72
    14
 73
    10
 74
     0
 42
0.000000001
 43
0.00000001
 40
0.0
 40
0.0
 40
0.0
 40
0.0
 40
0.25
 40
0.25
 40
0.5
 40
0.5
 40
0.75
 40
0.75
 40
1.0
 40
1.0
 40
1.0
 40
1.0
 10
35.00199791388776
 20
-3.298485019132167
 30
0.0
 10
35.00151910073311
 20
-3.009926319609851
 30
0.0
 10
35.0000495135392
 20
-2.705578241657366
 30
0.0
 10
34.99554951129218
 20
-2.082598928367146
 30
0.0
 10
34.99251004429846
 20
-1.762834086208255
 30
0.0
 10
34.9850854586626
 20
-1.106784155733108
 30
0.0
 10
34.98065616057605
 20
-0.7677668122060203
 30
0.0
 10
34.97085333065822
 20
-0.0897693589830628
 30
0.0
 10
34.965482738199
 20
0.2497497301767908
 30
0.0
 10
34.95975071666854
 20
0.5897979129230442
 30
0.0
  0
SPLINE
  5
1B2
330
1F
100
AcDbEntity
  8
0
  6
Continuous
 62
     1
370
    15
100
AcDbSpline
210
0.0
220
0.0
230
1.0
 70
     8
 71
     3
 72
    10
 73
     6
 74
     0
 42
0.000000001
 43
0.00000001
 40
0.0
 40
0.0
 40
0.0
 40
0.0
 40
0.5
 40
0.5
 40
1.0
 40
1.0
 40
1.0
 40
1.0
 10
11.22175183407235
 20
-2.969477909919974
 30
0.0
 10
11.14367927911193
 20
-2.909093563031052
 30
0.0
 10
11.05022707605017
 20
-2.854302032237984
 30
0.0
 10
10.86622421373946
 20
-2.763330294269799
 30
0.0
 10
10.77798850703149
 20
-2.728060729811269
 30
0.0
 10
10.70441795439407
 20
-2.707460040060602
 30
0.0
  0
SPLINE
  5
1B3
330
1F
100
AcDbEntity
  8
0
  6
Continuous
 62
     1
370
    15
100
AcDbSpline
210
0.0
220
0.0
230
1.0
 70
     8
 71
     3
 72
    10
 73
     6
 74
     0
 42
0.000000001
 43
0.00000001
 40
0.0
 40
0.0
 40
0.0
 40
0.0
 40
0.5
 40
0.5
 40
1.0
 40
1.0
 40
1.0
 40
1.0
 10
12.24810748321129
 20
-3.467995181923013
 30
0.0
 10
12.16948787654445
 20
-3.404220761863417
 30
0.0
 10
12.0758464946896
 20
-3.349415848758454
 30
0.0
 10
11.89188127249465
 20
-3.263685361016604
 30
0.0
 10
11.80370671671626
 20
-3.233506146490605
 30
0.0
 10
11.73047100320565
 20
-3.220220450416732
 30
0.0
  0
SPLINE
  5
1B4
330
1F
100
AcDbEntity
  8
0
  6
Continuous
 62
     1
370
    15
100
AcDbSpline
210
0.0
220
0.0
230
1.0
 70
     8
 71
     3
 72
    12
 73
     8
 74
     0
 42
0.000000001
 43
0.00000001
 40
0.0
 40
0.0
 40
0.0
 40
0.0
 40
0.4999999999999999
 40
0.4999999999999999
 40
0.7499999999999998
 40
0.7499999999999998
 40
1.0
 40
1.0
 40
1.0
 40
1.0
 10
31.38556248010882
 20
-1.45934375227425
 30
0.0
 10
31.3492753038372
 20
-0.7671305671608807
 30
0.0
 10
31.31251506062529
 20
-0.0445057146320437
 30
0.0
 10
31.26110774190785
 20
0.9960153491796815
 30
0.0
 10
31.2441702186194
 20
1.338575086539851
 30
0.0
 10
31.20870085052514
 20
2.018290711216671
 30
0.0
 10
31.19055388548431
 20
2.352810541818377
 30
0.0
 10
31.17237160343918
 20
2.674720159802497
 30
0.0
  0
SPLINE
  5
1B5
330
1F
100
AcDbEntity
  8
0
  6
Continuous
 62
     1
370
    15
100
AcDbSpline
210
0.0
220
0.0
230
1.0
 70
     8
 71
     3
 72
    12
 73
     8
 74
     0
 42
0.000000001
 43
0.00000001
 40
0.0
 40
0.0
 40
0.0
 40
0.0
 40
0.5
 40
0.5
 40
0.75
 40
0.75
 40
1.0
 40
1.0
 40
1.0
 40
1.0
 10
31.64087594832904
 20
-1.591246849183161
 30
0.0
 10
31.60446292530249
 20
-0.909588270337351
 30
0.0
 10
31.56732939369197
 20
-0.1930890388576625
 30
0.0
 10
31.51512649360077
 20
0.8442402196509853
 30
0.0
 10
31.4983169193719
 20
1.183817233152611
 30
0.0
 10
31.46286172624045
 20
1.860426493184037
 30
0.0
 10
31.44466945605884
 20
2.194388678500647
 30
0.0
 10
31.42639179201419
 20
2.516650727454656
 30
0.0
  0
SPLINE
  5
1B6
330
1F
100
AcDbEntity
  8
0
  6
Continuous
 62
     1
370
    15
100
AcDbSpline
210
0.0
220
0.0
230
1.0
 70
     8
 71
     3
 72
    12
 73
     8
 74
     0
 42
0.000000001
 43
0.00000001
 40
0.0
 40
0.0
 40
0.0
 40
0.0
 40
0.4999999999999999
 40
0.4999999999999999
 40
0.7499999999999998
 40
0.7499999999999998
 40
1.0
 40
1.0
 40
1.0
 40
1.0
 10
31.1315456118752
 20
-1.310259845877169
 30
0.0
 10
31.0949867427749
 20
-0.6201876027547767
 30
0.0
 10
31.05815426519612
 20
0.0963886784429641
 30
0.0
 10
31.00695666742399
 20
1.122172121219917
 30
0.0
 10
30.98953855080973
 20
1.46279847623039
 30
0.0
 10
30.95363268329794
 20
2.13359249112494
 30
0.0
 10
30.93531534604174
 20
2.462587091694266
 30
0.0
 10
30.91702157476621
 20
2.777967504299519
 30
0.0
  0
SPLINE
  5
1B7
330
1F
100
AcDbEntity
  8
0
  6
Continuous
 62
     1
370
    15
100
AcDbSpline
210
0.0
220
0.0
230
1.0
 70
     8
 71
     3
 72
    12
 73
     8
 74
     0
 42
0.000000001
 43
0.00000001
 40
0.0
 40
0.0
 40
0.0
 40
0.0
 40
0.2500000000000001
 40
0.2500000000000001
 40
0.5000000000000002
 40
0.5000000000000002
 40
1.0
 40
1.0
 40
1.0
 40
1.0
 10
30.09832129419235
 20
-0.7310961733018199
 30
0.0
 10
30.08007146120435
 20
-0.3809952945008329
 30
0.0
 10
30.06196426695896
 20
-0.0284001125848098
 30
0.0
 10
30.02678190528217
 20
0.6668614919945057
 30
0.0
 10
30.01006265265602
 20
1.007244411843546
 30
0.0
 10
29.95737467166366
 20
2.025814332833688
 30
0.0
 10
29.9201220975743
 20
2.691995767601528
 30
0.0
 10
29.88382508728234
 20
3.288541410818181
 30
0.0
  0
SPLINE
  5
1B8
330
1F
100
AcDbEntity
  8
0
  6
Continuous
 62
     1
370
    15
100
AcDbSpline
210
0.0
220
0.0
230
1.0
 70
     8
 71
     3
 72
    12
 73
     8
 74
     0
 42
0.000000001
 43
0.00000001
 40
0.0
 40
0.0
 40
0.0
 40
0.0
 40
0.25
 40
0.25
 40
0.5
 40
0.5
 40
1.0
 40
1.0
 40
1.0
 40
1.0
 10
30.61348123757216
 20
-1.020729051835143
 30
0.0
 10
30.59518444100009
 20
-0.6726025963870683
 30
0.0
 10
30.57692027512341
 20
-0.3198655954202356
 30
0.0
 10
30.54122568030207
 20
0.3797328857299982
 30
0.0
 10
30.52418831049722
 20
0.723988361254972
 30
0.0
 10
30.47244198712701
 20
1.745915481391674
 30
0.0
 10
30.4354301353602
 20
2.422851603898891
 30
0.0
 10
30.39892436936718
 20
3.037369859126903
 30
0.0
  0
SPLINE
  5
1B9
330
1F
100
AcDbEntity
  8
0
  6
Continuous
 62
     4
370
    15
100
AcDbSpline
210
0.0
220
0.0
230
1.0
 70
     8
 71
     3
 72
    10
 73
     6
 74
     0
 42
0.000000001
 43
0.00000001
 40
0.0
 40
0.0
 40
0.0
 40
0.0
 40
0.5
 40
0.5
 40
1.0
 40
1.0
 40
1.0
 40
1.0
 10
10.18973636711166
 20
-2.441195983117924
 30
0.0
 10
10.11105853741384
 20
-2.384411742885627
 30
0.0
 10
10.01737683475012
 20
-2.330023718590919
 30
0.0
 10
9.833385345220762
 20
-2.234778570519848
 30
0.0
 10
9.745217667719423
 20
-2.194913466233371
 30
0.0
 10
9.671946341191791
 20
-2.167796148323983
 30
0.0
  0
SPLINE
  5
1BA
330
1F
100
AcDbEntity
  8
0
  6
Continuous
 62
     1
370
    15
100
AcDbSpline
210
0.0
220
0.0
230
1.0
 70
     8
 71
     3
 72
    12
 73
     8
 74
     0
 42
0.000000001
 43
0.00000001
 40
0.0
 40
0.0
 40
0.0
 40
0.0
 40
0.25
 40
0.25
 40
0.4999999999999999
 40
0.4999999999999999
 40
1.0
 40
1.0
 40
1.0
 40
1.0
 10
29.3250610373167
 20
-0.2859528538369235
 30
0.0
 10
29.30710798999408
 20
0.0679950060922345
 30
0.0
 10
29.28946011146416
 20
0.4211697256325658
 30
0.0
 10
29.25546106159578
 20
1.111679131547524
 30
0.0
 10
29.23822334822884
 20
1.455016394342994
 30
0.0
 10
29.18473965834077
 20
2.470992852072987
 30
0.0
 10
29.14759642742976
 20
3.122471412871036
 30
0.0
 10
29.11202563575551
 20
3.694561611558623
 30
0.0
  0
SPLINE
  5
1BB
330
1F
100
AcDbEntity
  8
0
  6
Continuous
 62
     1
370
    15
100
AcDbSpline
210
0.0
220
0.0
230
1.0
 70
     8
 71
     3
 72
    12
 73
     8
 74
     0
 42
0.000000001
 43
0.00000001
 40
0.0
 40
0.0
 40
0.0
 40
0.0
 40
0.2499999999999999
 40
0.2499999999999999
 40
0.4999999999999998
 40
0.4999999999999998
 40
1.0
 40
1.0
 40
1.0
 40
1.0
 10
29.58033044370744
 20
-0.4387952069677914
 30
0.0
 10
29.56218863786144
 20
-0.0877595359821564
 30
0.0
 10
29.54429847621588
 20
0.2636383029501221
 30
0.0
 10
29.50973852391538
 20
0.9525763769001209
 30
0.0
 10
29.49275632504721
 20
1.292280134947639
 30
0.0
 10
29.43928160039954
 20
2.304392085926641
 30
0.0
 10
29.40191669668107
 20
2.957605645605412
 30
0.0
 10
29.36594882545163
 20
3.534440795913195
 30
0.0
  0
SPLINE
  5
1BC
330
1F
100
AcDbEntity
  8
0
  6
Continuous
 62
     1
370
    15
100
AcDbSpline
210
0.0
220
0.0
230
1.0
 70
     8
 71
     3
 72
    12
 73
     8
 74
     0
 42
0.000000001
 43
0.00000001
 40
0.0
 40
0.0
 40
0.0
 40
0.0
 40
0.2499999999999999
 40
0.2499999999999999
 40
0.4999999999999998
 40
0.4999999999999998
 40
1.0
 40
1.0
 40
1.0
 40
1.0
 10
28.0385172592935
 20
0.4351442768790984
 30
0.0
 10
28.02102550184742
 20
0.7819645641175975
 30
0.0
 10
28.00425279007593
 20
1.122024575470886
 30
0.0
 10
27.96886389186944
 20
1.800243598740663
 30
0.0
 10
27.95068225105881
 20
2.135450027367033
 30
0.0
 10
27.89581084571104
 20
3.107145446577134
 30
0.0
 10
27.8588459473485
 20
3.707734603068667
 30
0.0
 10
27.82450429356311
 20
4.215417880158748
 30
0.0
  0
SPLINE
  5
1BD
330
1F
100
AcDbEntity
  8
0
  6
Continuous
 62
     1
370
    15
100
AcDbSpline
210
0.0
220
0.0
230
1.0
 70
     8
 71
     3
 72
    12
 73
     8
 74
     0
 42
0.000000001
 43
0.00000001
 40
0.0
 40
0.0
 40
0.0
 40
0.0
 40
0.2500000000000001
 40
0.2500000000000001
 40
0.5000000000000001
 40
0.5000000000000001
 40
1.0
 40
1.0
 40
1.0
 40
1.0
 10
28.55332013299714
 20
0.142867441929527
 30
0.0
 10
28.53555205688462
 20
0.4922312273722684
 30
0.0
 10
28.51869474787003
 20
0.8348752785945586
 30
0.0
 10
28.48391103298994
 20
1.516090648816578
 30
0.0
 10
28.4659353327433
 20
1.854898892118144
 30
0.0
 10
28.41134942567496
 20
2.843579356573028
 30
0.0
 10
28.37411614298545
 20
3.463951130729334
 30
0.0
 10
28.33911723805354
 20
3.996258042272808
 30
0.0
  0
SPLINE
  5
1BE
330
1F
100
AcDbEntity
  8
0
  6
Continuous
 62
     1
370
    15
100
AcDbSpline
210
0.0
220
0.0
230
1.0
 70
     8
 71
     3
 72
    12
 73
     8
 74
     0
 42
0.000000001
 43
0.00000001
 40
0.0
 40
0.0
 40
0.0
 40
0.0
 40
0.25
 40
0.25
 40
0.5
 40
0.5
 40
1.0
 40
1.0
 40
1.0
 40
1.0
 10
29.07111598249998
 20
-0.1506421347084108
 30
0.0
 10
29.05313315165178
 20
0.2001490135138291
 30
0.0
 10
29.03560439807022
 20
0.5485794081187498
 30
0.0
 10
29.00153856805956
 20
1.230536363605517
 30
0.0
 10
28.98383197310865
 20
1.571775631002709
 30
0.0
 10
28.92972949050176
 20
2.574059432145144
 30
0.0
 10
28.89237018519863
 20
3.212168179872103
 30
0.0
 10
28.8568303168199
 20
3.767808590643526
 30
0.0
  0
LINE
  5
1BF
330
1F
100
AcDbEntity
  8
0
  6
Continuous
 62
     4
370
    15
100
AcDbLine
 10
-40.88784406940231
 20
5.832028033814094
 30
0.0
 11
-40.88784406940231
 21
-5.867971648791173
 31
0.0
  0
SPLINE
  5
1C0
330
1F
100
AcDbEntity
  8
0
  6
Continuous
 62
     1
370
    15
100
AcDbSpline
210
0.0
220
0.0
230
1.0
 70
     8
 71
     3
 72
    10
 73
     6
 74
     0
 42
0.000000001
 43
0.00000001
 40
0.0
 40
0.0
 40
0.0
 40
0.0
 40
0.5
 40
0.5
 40
1.0
 40
1.0
 40
1.0
 40
1.0
 10
14.82335133866361
 20
-4.579854895838192
 30
0.0
 10
14.74955512624335
 20
-4.587248194518693
 30
0.0
 10
14.66127428703719
 20
-4.570696417374608
 30
0.0
 10
14.48048333433003
 20
-4.499177107057825
 30
0.0
 10
14.38691008522061
 20
-4.44367045702681
 30
0.0
 10
14.30815630412931
 20
-4.375117212498308
 30
0.0
  0
SPLINE
  5
1C1
330
1F
100
AcDbEntity
  8
0
  6
Continuous
 62
     1
370
    15
100
AcDbSpline
210
0.0
220
0.0
230
1.0
 70
     8
 71
     3
 72
    12
 73
     8
 74
     0
 42
0.000000001
 43
0.00000001
 40
0.0
 40
0.0
 40
0.0
 40
0.0
 40
0.25
 40
0.25
 40
0.5
 40
0.5
 40
1.0
 40
1.0
 40
1.0
 40
1.0
 10
14.30815630412931
 20
-4.375117212498305
 30
0.0
 10
14.28986941498209
 20
-4.122764149344976
 30
0.0
 10
14.27165387117418
 20
-3.849724881449586
 30
0.0
 10
14.23612720063187
 20
-3.274924673381072
 30
0.0
 10
14.21926750639806
 20
-2.975992021443225
 30
0.0
 10
14.16717424903422
 20
-2.034090959366123
 30
0.0
 10
14.13006415608082
 20
-1.341714083980708
 30
0.0
 10
14.0936186379288
 20
-0.6407663359887702
 30
0.0
  0
SPLINE
  5
1C2
330
1F
100
AcDbEntity
  8
0
  6
Continuous
 62
     1
370
    15
100
AcDbSpline
210
0.0
220
0.0
230
1.0
 70
     8
 71
     3
 72
    10
 73
     6
 74
     0
 42
0.000000001
 43
0.00000001
 40
0.0
 40
0.0
 40
0.0
 40
0.0
 40
0.5
 40
0.5
 40
1.0
 40
1.0
 40
1.0
 40
1.0
 10
14.82335133866361
 20
-4.579854895838155
 30
0.0
 10
14.78676155231694
 20
-4.098758004899436
 30
0.0
 10
14.75021856955205
 20
-3.528737795193502
 30
0.0
 10
14.68214692223858
 20
-2.309321464397172
 30
0.0
 10
14.64535904263722
 20
-1.628921097945234
 30
0.0
 10
14.60878179853428
 20
-0.9312002799993948
 30
0.0
  0
SPLINE
  5
1C3
330
1F
100
AcDbEntity
  8
0
  6
Continuous
 62
     1
370
    15
100
AcDbSpline
210
0.0
220
0.0
230
1.0
 70
     8
 71
     3
 72
     8
 73
     4
 74
     0
 42
0.000000001
 43
0.00000001
 40
0.0
 40
0.0
 40
0.0
 40
0.0
 40
1.0
 40
1.0
 40
1.0
 40
1.0
 10
13.53481595563812
 20
-4.100802435475856
 30
0.0
 10
13.4461565728161
 20
-4.061218316752903
 30
0.0
 10
13.3563590960579
 20
-4.005622599949282
 30
0.0
 10
13.2808477219272
 20
-3.94138190146166
 30
0.0
  0
SPLINE
  5
1C4
330
1F
100
AcDbEntity
  8
0
  6
Continuous
 62
     1
370
    15
100
AcDbSpline
210
0.0
220
0.0
230
1.0
 70
     8
 71
     3
 72
    12
 73
     8
 74
     0
 42
0.000000001
 43
0.00000001
 40
0.0
 40
0.0
 40
0.0
 40
0.0
 40
0.2500000000000001
 40
0.2500000000000001
 40
0.5000000000000002
 40
0.5000000000000002
 40
1.0
 40
1.0
 40
1.0
 40
1.0
 10
13.2808477219272
 20
-3.94138190146166
 30
0.0
 10
13.26275428445217
 20
-3.668020047773342
 30
0.0
 10
13.24494874620253
 20
-3.377333617135199
 30
0.0
 10
13.21061907097618
 20
-2.775058168620271
 30
0.0
 10
13.19341468963205
 20
-2.459674009621026
 30
0.0
 10
13.13970691804192
 20
-1.470784126192949
 30
0.0
 10
13.1023301733829
 20
-0.7612031284361646
 30
0.0
 10
13.06649700835295
 20
-0.0604251833028053
 30
0.0
  0
SPLINE
  5
1C5
330
1F
100
AcDbEntity
  8
0
  6
Continuous
 62
     1
370
    15
100
AcDbSpline
210
0.0
220
0.0
230
1.0
 70
     8
 71
     3
 72
    12
 73
     8
 74
     0
 42
0.000000001
 43
0.00000001
 40
0.0
 40
0.0
 40
0.0
 40
0.0
 40
0.2500000000000001
 40
0.2500000000000001
 40
0.5000000000000002
 40
0.5000000000000002
 40
1.0
 40
1.0
 40
1.0
 40
1.0
 10
13.53481595563812
 20
-4.100802435475842
 30
0.0
 10
13.51676908319101
 20
-3.829632375995387
 30
0.0
 10
13.49895894558054
 20
-3.540300977292471
 30
0.0
 10
13.4645202446945
 20
-2.938809975139566
 30
0.0
 10
13.44771166036971
 20
-2.625876324303998
 30
0.0
 10
13.39467049382425
 20
-1.639466960227191
 30
0.0
 10
13.35755114047726
 20
-0.927731353383285
 30
0.0
 10
13.32172704156005
 20
-0.2201625015833151
 30
0.0
  0
SPLINE
  5
1C6
330
1F
100
AcDbEntity
  8
0
  6
Continuous
 62
     1
370
    15
100
AcDbSpline
210
0.0
220
0.0
230
1.0
 70
     8
 71
     3
 72
     8
 73
     4
 74
     0
 42
0.000000001
 43
0.00000001
 40
0.0
 40
0.0
 40
0.0
 40
0.0
 40
1.0
 40
1.0
 40
1.0
 40
1.0
 10
13.79011329252942
 20
-4.161407163325594
 30
0.0
 10
13.71643723141956
 20
-4.162347210869223
 30
0.0
 10
13.62694512364077
 20
-4.140564184971973
 30
0.0
 10
13.53481595563915
 20
-4.100802435476311
 30
0.0
  0
SPLINE
  5
1C7
330
1F
100
AcDbEntity
  8
0
  6
Continuous
 62
     1
370
    15
100
AcDbSpline
210
0.0
220
0.0
230
1.0
 70
     8
 71
     3
 72
    12
 73
     8
 74
     0
 42
0.000000001
 43
0.00000001
 40
0.0
 40
0.0
 40
0.0
 40
0.0
 40
0.2500000000000001
 40
0.2500000000000001
 40
0.5000000000000001
 40
0.5000000000000001
 40
1.0
 40
1.0
 40
1.0
 40
1.0
 10
13.79011329252977
 20
-4.16140716332532
 30
0.0
 10
13.77189711910142
 20
-3.897989837553905
 30
0.0
 10
13.75386248407523
 20
-3.615527383973537
 30
0.0
 10
13.71889310980655
 20
-3.025788832464993
 30
0.0
 10
13.70214956861249
 20
-2.719948996084901
 30
0.0
 10
13.64917069114745
 20
-1.752948904897584
 30
0.0
 10
13.61186820738428
 20
-1.050698922641822
 30
0.0
 10
13.57567842452445
 20
-0.3486666747289884
 30
0.0
  0
SPLINE
  5
1C8
330
1F
100
AcDbEntity
  8
0
  6
Continuous
 62
     1
370
    15
100
AcDbSpline
210
0.0
220
0.0
230
1.0
 70
     8
 71
     3
 72
    10
 73
     6
 74
     0
 42
0.000000001
 43
0.00000001
 40
0.0
 40
0.0
 40
0.0
 40
0.0
 40
0.5
 40
0.5
 40
1.0
 40
1.0
 40
1.0
 40
1.0
 10
13.2808477219272
 20
-3.941381901461667
 30
0.0
 10
13.2026720595055
 20
-3.874874580988195
 30
0.0
 10
13.10912492041222
 20
-3.820354678498852
 30
0.0
 10
12.92496813397789
 20
-3.739856609452771
 30
0.0
 10
12.83664977655342
 20
-3.714570937364577
 30
0.0
 10
12.76299980659154
 20
-3.707831059757746
 30
0.0
  0
SPLINE
  5
1C9
330
1F
100
AcDbEntity
  8
0
  6
Continuous
 62
     1
370
    15
100
AcDbSpline
210
0.0
220
0.0
230
1.0
 70
     8
 71
     3
 72
    12
 73
     8
 74
     0
 42
0.000000001
 43
0.00000001
 40
0.0
 40
0.0
 40
0.0
 40
0.0
 40
0.4999999999999998
 40
0.4999999999999998
 40
0.7499999999999999
 40
0.7499999999999999
 40
1.0
 40
1.0
 40
1.0
 40
1.0
 10
27.26608929405035
 20
0.8960125510043492
 30
0.0
 10
27.23222191562682
 20
1.584111898137754
 30
0.0
 10
27.19563324067869
 20
2.273264473792383
 30
0.0
 10
27.14104365100388
 20
3.220750017629134
 30
0.0
 10
27.12290991276286
 20
3.522223168758607
 30
0.0
 10
27.08751982762711
 20
4.084686287375712
 30
0.0
 10
27.07070124559808
 20
4.343710223264235
 30
0.0
 10
27.05345996313023
 20
4.583869715058075
 30
0.0
  0
SPLINE
  5
1CA
330
1F
100
AcDbEntity
  8
0
  6
Continuous
 62
     1
370
    15
100
AcDbSpline
210
0.0
220
0.0
230
1.0
 70
     8
 71
     3
 72
    14
 73
    10
 74
     0
 42
0.000000001
 43
0.00000001
 40
0.0
 40
0.0
 40
0.0
 40
0.0
 40
0.25
 40
0.25
 40
0.5
 40
0.5
 40
0.75
 40
0.75
 40
1.0
 40
1.0
 40
1.0
 40
1.0
 10
27.5210306449643
 20
0.7276819323259893
 30
0.0
 10
27.50387498019657
 20
1.07087516425515
 30
0.0
 10
27.48658913540807
 20
1.41155106296653
 30
0.0
 10
27.45070849338874
 20
2.084488425871915
 30
0.0
 10
27.43238410969111
 20
2.414913676911784
 30
0.0
 10
27.39574378311741
 20
3.049130338576548
 30
0.0
 10
27.37743159650321
 20
3.35285689399557
 30
0.0
 10
27.34159803860716
 20
3.921272518927164
 30
0.0
 10
27.32439626378352
 20
4.184469647689355
 30
0.0
 10
27.30720174871528
 20
4.42724201234026
 30
0.0
  0
SPLINE
  5
1CB
330
1F
100
AcDbEntity
  8
0
  6
Continuous
 62
     1
370
    15
100
AcDbSpline
210
0.0
220
0.0
230
1.0
 70
     8
 71
     3
 72
    12
 73
     8
 74
     0
 42
0.000000001
 43
0.00000001
 40
0.0
 40
0.0
 40
0.0
 40
0.0
 40
0.5
 40
0.5
 40
0.75
 40
0.75
 40
1.0
 40
1.0
 40
1.0
 40
1.0
 10
27.01238650067768
 20
1.012800111016488
 30
0.0
 10
26.97798744369601
 20
1.695066054574465
 30
0.0
 10
26.94100101829207
 20
2.374532391666856
 30
0.0
 10
26.88615983951106
 20
3.301930091888497
 30
0.0
 10
26.86799833617825
 20
3.595818871033013
 30
0.0
 10
26.83266711817961
 20
4.141793530443609
 30
0.0
 10
26.81591467171919
 20
4.392204776495719
 30
0.0
 10
26.79839993137291
 20
4.624698291101545
 30
0.0
  0
SPLINE
  5
1CC
330
1F
100
AcDbEntity
  8
0
  6
Continuous
 62
     1
370
    15
100
AcDbSpline
210
0.0
220
0.0
230
1.0
 70
     8
 71
     3
 72
    10
 73
     6
 74
     0
 42
0.000000001
 43
0.00000001
 40
0.0
 40
0.0
 40
0.0
 40
0.0
 40
0.3709370033589693
 40
0.7030667686590327
 40
1.0
 40
1.0
 40
1.0
 40
1.0
 10
14.78122894604913
 20
-4.843663965680935
 30
0.0
 10
14.83251628391752
 20
-4.845406272738009
 30
0.0
 10
14.92972530480715
 20
-4.848708607586069
 30
0.0
 10
15.09332737685879
 20
-4.793700161327193
 30
0.0
 10
15.18939109904164
 20
-4.729889958829235
 30
0.0
 10
15.23473554243556
 20
-4.699769971289971
 30
0.0
  0
SPLINE
  5
1CD
330
1F
100
AcDbEntity
  8
0
  6
Continuous
 62
     1
370
    15
100
AcDbSpline
210
0.0
220
0.0
230
1.0
 70
     8
 71
     3
 72
    10
 73
     6
 74
     0
 42
0.000000001
 43
0.00000001
 40
0.0
 40
0.0
 40
0.0
 40
0.0
 40
0.5
 40
0.5
 40
1.0
 40
1.0
 40
1.0
 40
1.0
 10
14.26339537559425
 20
-5.026396253137397
 30
0.0
 10
14.34159803439541
 20
-4.955331248895408
 30
0.0
 10
14.43514898650597
 20
-4.9041438942381
 30
0.0
 10
14.61924885609725
 20
-4.84199806987677
 30
0.0
 10
14.70755429286314
 20
-4.831430039929213
 30
0.0
 10
14.7812288189216
 20
-4.843664197388225
 30
0.0
  0
SPLINE
  5
1CE
330
1F
100
AcDbEntity
  8
0
  6
Continuous
 62
     1
370
    15
100
AcDbSpline
210
0.0
220
0.0
230
1.0
 70
     8
 71
     3
 72
     8
 73
     4
 74
     0
 42
0.000000001
 43
0.00000001
 40
0.0
 40
0.0
 40
0.0
 40
0.0
 40
1.0
 40
1.0
 40
1.0
 40
1.0
 10
14.00943571427786
 20
-5.17722816810344
 30
0.0
 10
14.09809939974261
 20
-5.146780754162803
 30
0.0
 10
14.18788476960029
 20
-5.095014911601607
 30
0.0
 10
14.26339537559395
 20
-5.026396253137674
 30
0.0
  0
SPLINE
  5
1CF
330
1F
100
AcDbEntity
  8
0
  6
Continuous
 62
     1
370
    15
100
AcDbSpline
210
0.0
220
0.0
230
1.0
 70
     8
 71
     3
 72
     8
 73
     4
 74
     0
 42
0.000000001
 43
0.00000001
 40
0.0
 40
0.0
 40
0.0
 40
0.0
 40
1.0
 40
1.0
 40
1.0
 40
1.0
 10
13.75415728945561
 20
-5.193243011210004
 30
0.0
 10
13.8278384556286
 20
-5.213269634442028
 30
0.0
 10
13.91733018090667
 20
-5.206998969470652
 30
0.0
 10
14.00943571427684
 20
-5.177228168103779
 30
0.0
  0
SPLINE
  5
1D0
330
1F
100
AcDbEntity
  8
0
  6
Continuous
 62
     1
370
    15
100
AcDbSpline
210
0.0
220
0.0
230
1.0
 70
     8
 71
     3
 72
    10
 73
     6
 74
     0
 42
0.000000001
 43
0.00000001
 40
0.0
 40
0.0
 40
0.0
 40
0.0
 40
0.5
 40
0.5
 40
1.0
 40
1.0
 40
1.0
 40
1.0
 10
13.2361677159993
 20
-5.349607238915086
 30
0.0
 10
13.31485098388424
 20
-5.278579226600073
 30
0.0
 10
13.4085818990391
 20
-5.230162971283992
 30
0.0
 10
13.59268974448763
 20
-5.177427161348822
 30
0.0
 10
13.68088452853719
 20
-5.17332739298217
 30
0.0
 10
13.75415728945562
 20
-5.193243011210013
 30
0.0
  0
SPLINE
  5
1D1
330
1F
100
AcDbEntity
  8
0
  6
Continuous
 62
     1
370
    15
100
AcDbSpline
210
0.0
220
0.0
230
1.0
 70
     8
 71
     3
 72
    10
 73
     6
 74
     0
 42
0.000000001
 43
0.00000001
 40
0.0
 40
0.0
 40
0.0
 40
0.0
 40
0.5
 40
0.5
 40
1.0
 40
1.0
 40
1.0
 40
1.0
 10
12.72103471402312
 20
-5.495225231186263
 30
0.0
 10
12.79478434267907
 20
-5.52122665246492
 30
0.0
 10
12.88304263601291
 20
-5.52023528639692
 30
0.0
 10
13.06387425077915
 20
-5.470240757831817
 30
0.0
 10
13.15745167590547
 20
-5.420664834963949
 30
0.0
 10
13.2361677159993
 20
-5.349607238915073
 30
0.0
  0
SPLINE
  5
1D2
330
1F
100
AcDbEntity
  8
0
  6
Continuous
 62
     1
370
    15
100
AcDbSpline
210
0.0
220
0.0
230
1.0
 70
     8
 71
     3
 72
    10
 73
     6
 74
     0
 42
0.000000001
 43
0.00000001
 40
0.0
 40
0.0
 40
0.0
 40
0.0
 40
0.5
 40
0.5
 40
1.0
 40
1.0
 40
1.0
 40
1.0
 10
12.20297226183695
 20
-5.631849784317954
 30
0.0
 10
12.2811835450143
 20
-5.560355373701698
 30
0.0
 10
12.37471482041664
 20
-5.513813988628279
 30
0.0
 10
12.55890281736592
 20
-5.468191394288707
 30
0.0
 10
12.64730136501772
 20
-5.469229549516871
 30
0.0
 10
12.72103471402312
 20
-5.495225231186261
 30
0.0
  0
SPLINE
  5
1D3
330
1F
100
AcDbEntity
  8
0
  6
Continuous
 62
     1
370
    15
100
AcDbSpline
210
0.0
220
0.0
230
1.0
 70
     8
 71
     3
 72
     8
 73
     4
 74
     0
 42
0.000000001
 43
0.00000001
 40
0.0
 40
0.0
 40
0.0
 40
0.0
 40
1.0
 40
1.0
 40
1.0
 40
1.0
 10
11.94893889893882
 20
-5.770020258531497
 30
0.0
 10
12.03762439391537
 20
-5.747658661967954
 30
0.0
 10
12.12742940176089
 20
-5.700904938996214
 30
0.0
 10
12.20297226183666
 20
-5.631849784318225
 30
0.0
  0
SPLINE
  5
1D4
330
1F
100
AcDbEntity
  8
0
  6
Continuous
 62
     1
370
    15
100
AcDbSpline
210
0.0
220
0.0
230
1.0
 70
     8
 71
     3
 72
     8
 73
     4
 74
     0
 42
0.000000001
 43
0.00000001
 40
0.0
 40
0.0
 40
0.0
 40
0.0
 40
1.0
 40
1.0
 40
1.0
 40
1.0
 10
11.69361540919041
 20
-5.752076198205014
 30
0.0
 10
11.76731779814626
 20
-5.785535115956002
 30
0.0
 10
11.85682728408784
 20
-5.791099618059398
 30
0.0
 10
11.9489388989378
 20
-5.770020258531744
 30
0.0
  0
SPLINE
  5
1D5
330
1F
100
AcDbEntity
  8
0
  6
Continuous
 62
     1
370
    15
100
AcDbSpline
210
0.0
220
0.0
230
1.0
 70
     8
 71
     3
 72
    10
 73
     6
 74
     0
 42
0.000000001
 43
0.00000001
 40
0.0
 40
0.0
 40
0.0
 40
0.0
 40
0.5
 40
0.5
 40
1.0
 40
1.0
 40
1.0
 40
1.0
 10
11.17565836259747
 20
-5.859438835494643
 30
0.0
 10
11.25434144596469
 20
-5.789355375763186
 30
0.0
 10
11.34807540611992
 20
-5.746536449384459
 30
0.0
 10
11.53217551012608
 20
-5.711282226622229
 30
0.0
 10
11.62035070212659
 20
-5.71881597635296
 30
0.0
 10
11.69361540919041
 20
-5.752076198205019
 30
0.0
  0
SPLINE
  5
1D6
330
1F
100
AcDbEntity
  8
0
  6
Continuous
 62
     1
370
    15
100
AcDbSpline
210
0.0
220
0.0
230
1.0
 70
     8
 71
     3
 72
    10
 73
     6
 74
     0
 42
0.000000001
 43
0.00000001
 40
0.0
 40
0.0
 40
0.0
 40
0.0
 40
0.5
 40
0.5
 40
1.0
 40
1.0
 40
1.0
 40
1.0
 10
10.6607104654044
 20
-5.955296088114611
 30
0.0
 10
10.73442779712984
 20
-5.99415594916678
 30
0.0
 10
10.82266358338684
 20
-6.004770811667987
 30
0.0
 10
11.0034429299086
 20
-5.972710359804569
 30
0.0
 10
11.09698279544854
 20
-5.929515600488655
 30
0.0
 10
11.17565836259747
 20
-5.859438835494618
 30
0.0
  0
SPLINE
  5
1D7
330
1F
100
AcDbEntity
  8
0
  6
Continuous
 62
     1
370
    15
100
AcDbSpline
210
0.0
220
0.0
230
1.0
 70
     8
 71
     3
 72
    10
 73
     6
 74
     0
 42
0.000000001
 43
0.00000001
 40
0.0
 40
0.0
 40
0.0
 40
0.0
 40
0.5
 40
0.5
 40
1.0
 40
1.0
 40
1.0
 40
1.0
 10
10.14298623924739
 20
-6.040848609079752
 30
0.0
 10
10.22111764297501
 20
-5.971514299633339
 30
0.0
 10
10.31460946673581
 20
-5.931320882466748
 30
0.0
 10
10.4987056810991
 20
-5.903862874559898
 30
0.0
 10
10.58704330075405
 20
-5.916462672479215
 30
0.0
 10
10.66071046540437
 20
-5.955296088114508
 30
0.0
  0
SPLINE
  5
1D8
330
1F
100
AcDbEntity
  8
0
  6
Continuous
 62
     1
370
    15
100
AcDbSpline
210
0.0
220
0.0
230
1.0
 70
     8
 71
     3
 72
     8
 73
     4
 74
     0
 42
0.000000001
 43
0.00000001
 40
0.0
 40
0.0
 40
0.0
 40
0.0
 40
1.0
 40
1.0
 40
1.0
 40
1.0
 10
9.889130103327211
 20
-6.161379176864905
 30
0.0
 10
9.977740684030362
 20
-6.147916942574742
 30
0.0
 10
10.06747671340229
 20
-6.107856247254436
 30
0.0
 10
10.14298623924703
 20
-6.040848609079724
 30
0.0
  0
SPLINE
  5
1D9
330
1F
100
AcDbEntity
  8
0
  6
Continuous
 62
     1
370
    15
100
AcDbSpline
210
0.0
220
0.0
230
1.0
 70
     8
 71
     3
 72
     8
 73
     4
 74
     0
 42
0.000000001
 43
0.00000001
 40
0.0001007258227002
 40
0.0001007258227002
 40
0.0001007258227002
 40
0.0001007258227002
 40
0.0001208982515424
 40
0.0001208982515424
 40
0.0001208982515424
 40
0.0001208982515424
 10
9.890143101021781
 20
-6.180030481340287
 30
0.0
 10
9.890099094465263
 20
-6.173768602305017
 30
0.0
 10
9.890054394655891
 20
-6.167510723109864
 30
0.0
 10
9.890008995465621
 20
-6.161256893734176
 30
0.0
  0
SPLINE
  5
1DA
330
1F
100
AcDbEntity
  8
0
  6
Continuous
 62
     1
370
    15
100
AcDbSpline
210
0.0
220
0.0
230
1.0
 70
     8
 71
     3
 72
    10
 73
     6
 74
     0
 42
0.000000001
 43
0.00000001
 40
0.0
 40
0.0
 40
0.0
 40
0.0
 40
0.5
 40
0.5
 40
1.0
 40
1.0
 40
1.0
 40
1.0
 10
14.30815630412931
 20
-4.375117212498306
 30
0.0
 10
14.22947161094287
 20
-4.306624107304964
 30
0.0
 10
14.13575297323611
 20
-4.253300469766028
 30
0.0
 10
13.95164836153446
 20
-4.179957365444901
 30
0.0
 10
13.86341741410023
 20
-4.160471861432315
 30
0.0
 10
13.79011329252978
 20
-4.161407163325398
 30
0.0
  0
SPLINE
  5
1DB
330
1F
100
AcDbEntity
  8
0
  6
Continuous
 62
     1
370
    15
100
AcDbSpline
210
0.0
220
0.0
230
1.0
 70
     8
 71
     3
 72
    10
 73
     6
 74
     0
 42
0.000000001
 43
0.00000001
 40
0.0
 40
0.0
 40
0.0
 40
0.0
 40
0.5
 40
0.5
 40
1.0
 40
1.0
 40
1.0
 40
1.0
 10
15.34137025650556
 20
-4.776610472101657
 30
0.0
 10
15.2631555062759
 20
-4.70632037434466
 30
0.0
 10
15.16957010648119
 20
-4.654001154993999
 30
0.0
 10
14.98536318898153
 20
-4.586850130446624
 30
0.0
 10
14.89703106595404
 20
-4.572473267260104
 30
0.0
 10
14.82335133866361
 20
-4.579854895838192
 30
0.0
  0
SPLINE
  5
1DC
330
1F
100
AcDbEntity
  8
0
  6
Continuous
 62
     1
370
    15
100
AcDbSpline
210
0.0
220
0.0
230
1.0
 70
     8
 71
     3
 72
     8
 73
     4
 74
     0
 42
0.000000001
 43
0.00000001
 40
0.0
 40
0.0
 40
0.0
 40
0.0
 40
1.0
 40
1.0
 40
1.0
 40
1.0
 10
15.59536521008813
 20
-4.930482882390987
 30
0.0
 10
15.50669357030705
 20
-4.897515596139195
 30
0.0
 10
15.416890410297
 20
-4.844478987657062
 30
0.0
 10
15.34137025650556
 20
-4.776610472101652
 30
0.0
  0
SPLINE
  5
1DD
330
1F
100
AcDbEntity
  8
0
  6
Continuous
 62
     1
370
    15
100
AcDbSpline
210
0.0
220
0.0
230
1.0
 70
     8
 71
     3
 72
     8
 73
     4
 74
     0
 42
0.000000001
 43
0.00000001
 40
0.0
 40
0.0
 40
0.0
 40
0.0
 40
1.0
 40
1.0
 40
1.0
 40
1.0
 10
15.85065384201346
 20
-4.958058040690227
 30
0.0
 10
15.77698000238872
 20
-4.973285710635194
 30
0.0
 10
15.68748649126033
 20
-4.962988635574311
 30
0.0
 10
15.59536521008914
 20
-4.930482882391352
 30
0.0
  0
SPLINE
  5
1DE
330
1F
100
AcDbEntity
  8
0
  6
Continuous
 62
     1
370
    15
100
AcDbSpline
210
0.0
220
0.0
230
1.0
 70
     8
 71
     3
 72
    10
 73
     6
 74
     0
 42
0.000000001
 43
0.00000001
 40
0.0
 40
0.0
 40
0.0
 40
0.0
 40
0.5
 40
0.5
 40
1.0
 40
1.0
 40
1.0
 40
1.0
 10
16.36856202534171
 20
-5.130168277421353
 30
0.0
 10
16.28990320362678
 20
-5.059361882995924
 30
0.0
 10
16.19619920606262
 20
-5.009378304518139
 30
0.0
 10
16.01212417810586
 20
-4.951002202240531
 30
0.0
 10
15.9239288188817
 20
-4.942912811818175
 30
0.0
 10
15.85065384201381
 20
-4.958058040690002
 30
0.0
  0
SPLINE
  5
1DF
330
1F
100
AcDbEntity
  8
0
  6
Continuous
 62
     1
370
    15
100
AcDbSpline
210
0.0
220
0.0
230
1.0
 70
     8
 71
     3
 72
    10
 73
     6
 74
     0
 42
0.000000001
 43
0.00000001
 40
0.0
 40
0.0
 40
0.0
 40
0.0
 40
0.5
 40
0.5
 40
1.0
 40
1.0
 40
1.0
 40
1.0
 10
16.8834863403113
 20
-5.29208579275663
 30
0.0
 10
16.80978589117414
 20
-5.313387531401508
 30
0.0
 10
16.72157918401627
 20
-5.308334741906565
 30
0.0
 10
16.54082518297008
 20
-5.252444755583278
 30
0.0
 10
16.4472712874624
 20
-5.201020076839974
 30
0.0
 10
16.36856202534171
 20
-5.130168277421353
 30
0.0
  0
SPLINE
  5
1E0
330
1F
100
AcDbEntity
  8
0
  6
Continuous
 62
     1
370
    15
100
AcDbSpline
210
0.0
220
0.0
230
1.0
 70
     8
 71
     3
 72
    10
 73
     6
 74
     0
 42
0.000000001
 43
0.00000001
 40
0.0
 40
0.0
 40
0.0
 40
0.0
 40
0.5
 40
0.5
 40
1.0
 40
1.0
 40
1.0
 40
1.0
 10
17.40113577978243
 20
-5.444982629193985
 30
0.0
 10
17.32297244552294
 20
-5.373408408140513
 30
0.0
 10
17.22944081819206
 20
-5.325139042107185
 30
0.0
 10
17.04535259285777
 20
-5.273738731154181
 30
0.0
 10
16.95709841955948
 20
-5.270809595778063
 30
0.0
 10
16.8834863403113
 20
-5.292085792756627
 30
0.0
  0
SPLINE
  5
1E1
330
1F
100
AcDbEntity
  8
0
  6
Continuous
 62
     1
370
    15
100
AcDbSpline
210
0.0
220
0.0
230
1.0
 70
     8
 71
     3
 72
     8
 73
     4
 74
     0
 42
0.000000001
 43
0.00000001
 40
0.0
 40
0.0
 40
0.0
 40
0.0
 40
1.0
 40
1.0
 40
1.0
 40
1.0
 10
17.65491602615373
 20
-5.587878006972666
 30
0.0
 10
17.5663090471842
 20
-5.562688960054412
 30
0.0
 10
17.47658314645109
 20
-5.514069836783134
 30
0.0
 10
17.40113577978243
 20
-5.444982629193982
 30
0.0
  0
SPLINE
  5
1E2
330
1F
100
AcDbEntity
  8
0
  6
Continuous
 62
     1
370
    15
100
AcDbSpline
210
0.0
220
0.0
230
1.0
 70
     8
 71
     3
 72
     8
 73
     4
 74
     0
 42
0.000000001
 43
0.00000001
 40
0.0
 40
0.0
 40
0.0
 40
0.0
 40
1.0
 40
1.0
 40
1.0
 40
1.0
 10
17.90990817782562
 20
-5.581444947561499
 30
0.0
 10
17.83633778801779
 20
-5.610425261260403
 30
0.0
 10
17.74693855375578
 20
-5.611982591698503
 30
0.0
 10
17.65491602615474
 20
-5.587878006972945
 30
0.0
  0
SPLINE
  5
1E3
330
1F
100
AcDbEntity
  8
0
  6
Continuous
 62
     1
370
    15
100
AcDbSpline
210
0.0
220
0.0
230
1.0
 70
     8
 71
     3
 72
    10
 73
     6
 74
     0
 42
0.000000001
 43
0.00000001
 40
0.0
 40
0.0
 40
0.0
 40
0.0
 40
0.5
 40
0.5
 40
1.0
 40
1.0
 40
1.0
 40
1.0
 10
18.42724455211729
 20
-5.706029862045954
 30
0.0
 10
18.34867698214744
 20
-5.635392322291505
 30
0.0
 10
18.2550642611167
 20
-5.590461191652064
 30
0.0
 10
18.07116097348546
 20
-5.549044296783716
 30
0.0
 10
17.98306982449659
 20
-5.552625642990519
 30
0.0
 10
17.90990817782598
 20
-5.581444947561243
 30
0.0
  0
SPLINE
  5
1E4
330
1F
100
AcDbEntity
  8
0
  6
Continuous
 62
     1
370
    15
100
AcDbSpline
210
0.0
220
0.0
230
1.0
 70
     8
 71
     3
 72
    10
 73
     6
 74
     0
 42
0.000000001
 43
0.00000001
 40
0.0
 40
0.0
 40
0.0
 40
0.0
 40
0.5
 40
0.5
 40
1.0
 40
1.0
 40
1.0
 40
1.0
 10
18.94187646983564
 20
-5.819563171594842
 30
0.0
 10
18.8682175207516
 20
-5.854090455092839
 30
0.0
 10
18.78005300707736
 20
-5.860721296778708
 30
0.0
 10
18.59938594828025
 20
-5.822315413993355
 30
0.0
 10
18.50588130229177
 20
-5.776729599466128
 30
0.0
 10
18.4272445521173
 20
-5.706029862045956
 30
0.0
  0
SPLINE
  5
1E5
330
1F
100
AcDbEntity
  8
0
  6
Continuous
 62
     1
370
    15
100
AcDbSpline
210
0.0
220
0.0
230
1.0
 70
     8
 71
     3
 72
    10
 73
     6
 74
     0
 42
0.000000001
 43
0.00000001
 40
0.0
 40
0.0
 40
0.0
 40
0.0
 40
0.5
 40
0.5
 40
1.0
 40
1.0
 40
1.0
 40
1.0
 10
19.45959293777783
 20
-5.923241862840031
 30
0.0
 10
19.38141294711062
 20
-5.852880469883715
 30
0.0
 10
19.28788947562405
 20
-5.810348388888269
 30
0.0
 10
19.10384444461161
 20
-5.776434339886126
 30
0.0
 10
19.01553414004171
 20
-5.785036487564845
 30
0.0
 10
18.94187646983563
 20
-5.819563171594851
 30
0.0
  0
SPLINE
  5
1E6
330
1F
100
AcDbEntity
  8
0
  6
Continuous
 62
     1
370
    15
100
AcDbSpline
210
0.0
220
0.0
230
1.0
 70
     8
 71
     3
 72
     8
 73
     4
 74
     0
 42
0.000000001
 43
0.00000001
 40
0.0
 40
0.0
 40
0.0
 40
0.0
 40
1.0
 40
1.0
 40
1.0
 40
1.0
 10
19.71351113286488
 20
-6.050263671930344
 30
0.0
 10
19.62486036384234
 20
-6.033699278098114
 30
0.0
 10
19.53508976392204
 20
-5.991188428271329
 30
0.0
 10
19.45959293777783
 20
-5.923241862840031
 30
0.0
  0
SPLINE
  5
1E7
330
1F
100
AcDbEntity
  8
0
  6
Continuous
 62
     1
370
    15
100
AcDbSpline
210
0.0
220
0.0
230
1.0
 70
     8
 71
     3
 72
     8
 73
     4
 74
     0
 42
0.000000001
 43
0.00000001
 40
0.0
 40
0.0
 40
0.0
 40
0.0
 40
1.0
 40
1.0
 40
1.0
 40
1.0
 10
19.96874653512881
 20
-6.010214158338034
 30
0.0
 10
19.89507917298632
 20
-6.051878976151892
 30
0.0
 10
19.80560175316391
 20
-6.065175844066562
 30
0.0
 10
19.7135111328659
 20
-6.050263671930521
 30
0.0
  0
SPLINE
  5
1E8
330
1F
100
AcDbEntity
  8
0
  6
Continuous
 62
     1
370
    15
100
AcDbSpline
210
0.0
220
0.0
230
1.0
 70
     8
 71
     3
 72
    10
 73
     6
 74
     0
 42
0.000000001
 43
0.00000001
 40
0.0
 40
0.0
 40
0.0
 40
0.0
 40
0.5
 40
0.5
 40
1.0
 40
1.0
 40
1.0
 40
1.0
 10
20.48667553655644
 20
-6.083278581959513
 30
0.0
 10
20.40800094279319
 20
-6.015163435946812
 30
0.0
 10
20.31427903581538
 20
-5.976833390556441
 30
0.0
 10
20.13018967460525
 20
-5.953736361694771
 30
0.0
 10
20.04200636596599
 20
-5.968779832251753
 30
0.0
 10
19.96874653512916
 20
-6.010214158337766
 30
0.0
  0
SPLINE
  5
1E9
330
1F
100
AcDbEntity
  8
0
  6
Continuous
 62
     1
370
    15
100
AcDbSpline
210
0.0
220
0.0
230
1.0
 70
     8
 71
     3
 72
    10
 73
     6
 74
     0
 42
0.000000001
 43
0.00000001
 40
0.0
 40
0.0
 40
0.0
 40
0.0
 40
0.5
 40
0.5
 40
1.0
 40
1.0
 40
1.0
 40
1.0
 10
21.00177375697662
 20
-6.144760847959182
 30
0.0
 10
20.92802884686433
 20
-6.191287189701328
 30
0.0
 10
20.83977508341431
 20
-6.209300144146942
 30
0.0
 10
20.6589537658556
 20
-6.189606388028997
 30
0.0
 10
20.56538288754524
 20
-6.151422088629642
 30
0.0
 10
20.48667553655643
 20
-6.083278581959512
 30
0.0
  0
SPLINE
  5
1EA
330
1F
100
AcDbEntity
  8
0
  6
Continuous
 62
     1
370
    15
100
AcDbSpline
210
0.0
220
0.0
230
1.0
 70
     8
 71
     3
 72
    10
 73
     6
 74
     0
 42
0.000000001
 43
0.00000001
 40
0.0
 40
0.0
 40
0.0
 40
0.0
 40
0.5
 40
0.5
 40
1.0
 40
1.0
 40
1.0
 40
1.0
 10
21.51982820021545
 20
-6.195389844599198
 30
0.0
 10
21.44162693992717
 20
-6.128730795811384
 30
0.0
 10
21.34809161214532
 20
-6.093447640906001
 30
0.0
 10
21.16390584881319
 20
-6.078349664928362
 30
0.0
 10
21.07550406983816
 20
-6.098243715756707
 30
0.0
 10
21.00177375697662
 20
-6.14476084795918
 30
0.0
  0
SPLINE
  5
1EB
330
1F
100
AcDbEntity
  8
0
  6
Continuous
 62
     1
370
    15
100
AcDbSpline
210
0.0
220
0.0
230
1.0
 70
     8
 71
     3
 72
     8
 73
     4
 74
     0
 42
0.000000001
 43
0.00000001
 40
0.0
 40
0.0
 40
0.0
 40
0.0
 40
1.0
 40
1.0
 40
1.0
 40
1.0
 10
21.77387206774233
 20
-6.302001145806239
 30
0.0
 10
21.68518364437752
 20
-6.294671373055175
 30
0.0
 10
21.59537584966966
 20
-6.259786945518131
 30
0.0
 10
21.51982820021545
 20
-6.195389844599195
 30
0.0
  0
SPLINE
  5
1EC
330
1F
100
AcDbEntity
  8
0
  6
Continuous
 62
     1
370
    15
100
AcDbSpline
210
0.0
220
0.0
230
1.0
 70
     8
 71
     3
 72
     8
 73
     4
 74
     0
 42
0.000000001
 43
0.00000001
 40
0.0
 40
0.0
 40
0.0
 40
0.0
 40
1.0
 40
1.0
 40
1.0
 40
1.0
 10
22.02921436877214
 20
-6.229623112956221
 30
0.0
 10
21.95550340784325
 20
-6.282560955500834
 30
0.0
 10
21.86598787756863
 20
-6.307160301578454
 30
0.0
 10
21.77387206774334
 20
-6.302001145806306
 30
0.0
  0
SPLINE
  5
1ED
330
1F
100
AcDbEntity
  8
0
  6
Continuous
 62
     1
370
    15
100
AcDbSpline
210
0.0
220
0.0
230
1.0
 70
     8
 71
     3
 72
    10
 73
     6
 74
     0
 42
0.000000001
 43
0.00000001
 40
0.0
 40
0.0
 40
0.0
 40
0.0
 40
0.5
 40
0.5
 40
1.0
 40
1.0
 40
1.0
 40
1.0
 10
22.54722666467454
 20
-6.248448530273572
 30
0.0
 10
22.46853166762763
 20
-6.1852682154486
 30
0.0
 10
22.37478700097745
 20
-6.154889029197639
 30
0.0
 10
22.19067057724447
 20
-6.150973004287241
 30
0.0
 10
22.10248737792125
 20
-6.176999799242147
 30
0.0
 10
22.0292143687725
 20
-6.229623112955931
 30
0.0
  0
SPLINE
  5
1EE
330
1F
100
AcDbEntity
  8
0
  6
Continuous
 62
     1
370
    15
100
AcDbSpline
210
0.0
220
0.0
230
1.0
 70
     8
 71
     3
 72
    10
 73
     6
 74
     0
 42
0.000000001
 43
0.00000001
 40
0.0
 40
0.0
 40
0.0
 40
0.0
 40
0.5
 40
0.5
 40
1.0
 40
1.0
 40
1.0
 40
1.0
 10
23.06225472987654
 20
-6.255714460630944
 30
0.0
 10
22.98852094080679
 20
-6.312608996582101
 30
0.0
 10
22.90027020466024
 20
-6.341377583688107
 30
0.0
 10
22.71946549864692
 20
-6.341082067625067
 30
0.0
 10
22.62591419786402
 20
-6.311622852737139
 30
0.0
 10
22.54722666467454
 20
-6.248448530273571
 30
0.0
  0
SPLINE
  5
1EF
330
1F
100
AcDbEntity
  8
0
  6
Continuous
 62
     1
370
    15
100
AcDbSpline
210
0.0
220
0.0
230
1.0
 70
     8
 71
     3
 72
    10
 73
     6
 74
     0
 42
0.000000001
 43
0.00000001
 40
0.0
 40
0.0
 40
0.0
 40
0.0
 40
0.5
 40
0.5
 40
1.0
 40
1.0
 40
1.0
 40
1.0
 10
23.58008492877838
 20
-6.251535988890319
 30
0.0
 10
23.5019351059429
 20
-6.190938239368807
 30
0.0
 10
23.4084240002365
 20
-6.164143008595978
 30
0.0
 10
23.22429328825304
 20
-6.168374664269839
 30
0.0
 10
23.13593876379425
 20
-6.198858316797182
 30
0.0
 10
23.06225472987653
 20
-6.25571446063095
 30
0.0
  0
SPLINE
  5
1F0
330
1F
100
AcDbEntity
  8
0
  6
Continuous
 62
     1
370
    15
100
AcDbSpline
210
0.0
220
0.0
230
1.0
 70
     8
 71
     3
 72
    12
 73
     8
 74
     0
 42
0.000000001
 43
0.00000001
 40
0.0
 40
0.0
 40
0.0
 40
0.0
 40
0.4999999999999998
 40
0.4999999999999998
 40
0.7499999999999999
 40
0.7499999999999999
 40
1.0
 40
1.0
 40
1.0
 40
1.0
 10
25.98008705953126
 20
1.584570947180546
 30
0.0
 10
25.94449643707334
 20
2.260250555564183
 30
0.0
 10
25.90712259110787
 20
2.915760207927578
 30
0.0
 10
25.85305803628496
 20
3.785894189018058
 30
0.0
 10
25.83537367776463
 20
4.057299065540958
 30
0.0
 10
25.80136846117877
 20
4.553750066559109
 30
0.0
 10
25.78374605835329
 20
4.785084280042494
 30
0.0
 10
25.76574203430668
 20
4.993997918959412
 30
0.0
  0
SPLINE
  5
1F1
330
1F
100
AcDbEntity
  8
0
  6
Continuous
 62
     1
370
    15
100
AcDbSpline
210
0.0
220
0.0
230
1.0
 70
     8
 71
     3
 72
    12
 73
     8
 74
     0
 42
0.000000001
 43
0.00000001
 40
0.0
 40
0.0
 40
0.0
 40
0.0
 40
0.5000000000000002
 40
0.5000000000000002
 40
0.7500000000000001
 40
0.7500000000000001
 40
1.0
 40
1.0
 40
1.0
 40
1.0
 10
26.49490978453229
 20
1.300098870257933
 30
0.0
 10
26.45985649488773
 20
1.980154648441846
 30
0.0
 10
26.42260701604336
 20
2.648747078144274
 30
0.0
 10
26.36806054081746
 20
3.54872168597839
 30
0.0
 10
26.35010822488984
 20
3.831697890746281
 30
0.0
 10
26.31538859316198
 20
4.353382007657139
 30
0.0
 10
26.29849401955132
 20
4.593174621629686
 30
0.0
 10
26.28070403780867
 20
4.814249683125411
 30
0.0
  0
SPLINE
  5
1F2
330
1F
100
AcDbEntity
  8
0
  6
Continuous
 62
     1
370
    15
100
AcDbSpline
210
0.0
220
0.0
230
1.0
 70
     8
 71
     3
 72
    12
 73
     8
 74
     0
 42
0.000000001
 43
0.00000001
 40
0.0
 40
0.0
 40
0.0
 40
0.0
 40
0.4999999999999997
 40
0.4999999999999997
 40
0.7499999999999998
 40
0.7499999999999998
 40
1.0
 40
1.0
 40
1.0
 40
1.0
 10
15.34137025650555
 20
-4.776610472101664
 30
0.0
 10
15.3048945700011
 20
-4.320686262711666
 30
0.0
 10
15.26785117484066
 20
-3.769227469124184
 30
0.0
 10
15.21597767586611
 20
-2.872926492924099
 30
0.0
 10
15.19902286500378
 20
-2.561655010574305
 30
0.0
 10
15.16340142683307
 20
-1.907983980679078
 30
0.0
 10
15.14515994579273
 20
-1.568011640006879
 30
0.0
 10
15.12687039547856
 20
-1.221898898233094
 30
0.0
  0
SPLINE
  5
1F3
330
1F
100
AcDbEntity
  8
0
  6
Continuous
 62
     1
370
    15
100
AcDbSpline
210
0.0
220
0.0
230
1.0
 70
     8
 71
     3
 72
    12
 73
     8
 74
     0
 42
0.000000001
 43
0.00000001
 40
0.0
 40
0.0
 40
0.0
 40
0.0
 40
0.5000000000000003
 40
0.5000000000000003
 40
0.7500000000000001
 40
0.7500000000000001
 40
1.0
 40
1.0
 40
1.0
 40
1.0
 10
15.59536521008812
 20
-4.930482882390915
 30
0.0
 10
15.55919399253284
 20
-4.482636712495673
 30
0.0
 10
15.52226088406243
 20
-3.93671695722977
 30
0.0
 10
15.47022741779901
 20
-3.042539801147611
 30
0.0
 10
15.45356387604813
 20
-2.733342856062894
 30
0.0
 10
15.41841229253332
 20
-2.081966231701813
 30
0.0
 10
15.40036020174934
 20
-1.742207993520087
 30
0.0
 10
15.3822022763752
 20
-1.395185105657124
 30
0.0
  0
SPLINE
  5
1F4
330
1F
100
AcDbEntity
  8
0
  6
Continuous
 62
     1
370
    15
100
AcDbSpline
210
0.0
220
0.0
230
1.0
 70
     8
 71
     3
 72
    12
 73
     8
 74
     0
 42
0.000000001
 43
0.00000001
 40
0.0
 40
0.0
 40
0.0
 40
0.0
 40
0.5000000000000003
 40
0.5000000000000003
 40
0.7500000000000001
 40
0.7500000000000001
 40
1.0
 40
1.0
 40
1.0
 40
1.0
 10
15.8506538420138
 20
-4.958058040689975
 30
0.0
 10
15.81439719639294
 20
-4.528303412973996
 30
0.0
 10
15.77713004861264
 20
-3.998069898324863
 30
0.0
 10
15.7243437240339
 20
-3.121551874728715
 30
0.0
 10
15.70762633369244
 20
-2.818644756518671
 30
0.0
 10
15.67252216733868
 20
-2.180094543713326
 30
0.0
 10
15.65444211062857
 20
-1.845982461381199
 30
0.0
 10
15.63620561250194
 20
-1.503703480942349
 30
0.0
  0
SPLINE
  5
1F5
330
1F
100
AcDbEntity
  8
0
  6
Continuous
 62
     1
370
    15
100
AcDbSpline
210
0.0
220
0.0
230
1.0
 70
     8
 71
     3
 72
    12
 73
     8
 74
     0
 42
0.000000001
 43
0.00000001
 40
0.0
 40
0.0
 40
0.0
 40
0.0
 40
0.4999999999999996
 40
0.4999999999999996
 40
0.7499999999999998
 40
0.7499999999999998
 40
1.0
 40
1.0
 40
1.0
 40
1.0
 10
16.36856202534171
 20
-5.130168277421362
 30
0.0
 10
16.33263620683392
 20
-4.728378603806229
 30
0.0
 10
16.29525766444597
 20
-4.221765500292616
 30
0.0
 10
16.24168398759927
 20
-3.36867199735855
 30
0.0
 10
16.22462420250394
 20
-3.071580023309706
 30
0.0
 10
16.19014119456097
 20
-2.450277640263723
 30
0.0
 10
16.17227792765254
 20
-2.123188251611147
 30
0.0
 10
16.15414958107799
 20
-1.785935758074154
 30
0.0
  0
SPLINE
  5
1F6
330
1F
100
AcDbEntity
  8
0
  6
Continuous
 62
     1
370
    15
100
AcDbSpline
210
0.0
220
0.0
230
1.0
 70
     8
 71
     3
 72
    12
 73
     8
 74
     0
 42
0.000000001
 43
0.00000001
 40
0.0
 40
0.0
 40
0.0
 40
0.0
 40
0.4999999999999999
 40
0.4999999999999999
 40
0.7499999999999999
 40
0.7499999999999999
 40
1.0
 40
1.0
 40
1.0
 40
1.0
 10
16.8834863403113
 20
-5.292085792756637
 30
0.0
 10
16.84800758997034
 20
-4.919142844770541
 30
0.0
 10
16.81064951410237
 20
-4.437775420571951
 30
0.0
 10
16.75645816376658
 20
-3.610960133892377
 30
0.0
 10
16.73870741007989
 20
-3.318444701401331
 30
0.0
 10
16.70453002850339
 20
-2.713442097819127
 30
0.0
 10
16.6871242062764
 20
-2.395318416461751
 30
0.0
 10
16.66916340412084
 20
-2.064051692124289
 30
0.0
  0
SPLINE
  5
1F7
330
1F
100
AcDbEntity
  8
0
  6
Continuous
 62
     1
370
    15
100
AcDbSpline
210
0.0
220
0.0
230
1.0
 70
     8
 71
     3
 72
    12
 73
     8
 74
     0
 42
0.000000001
 43
0.00000001
 40
0.0
 40
0.0
 40
0.0
 40
0.0
 40
0.5000000000000002
 40
0.5000000000000002
 40
0.7500000000000001
 40
0.7500000000000001
 40
1.0
 40
1.0
 40
1.0
 40
1.0
 10
25.20697730145156
 20
2.046098886121856
 30
0.0
 10
25.17100597049101
 20
2.71621999767214
 30
0.0
 10
25.13393348543062
 20
3.352803464636682
 30
0.0
 10
25.08123572519489
 20
4.180801841194267
 30
0.0
 10
25.06458042879986
 20
4.434212254550165
 30
0.0
 10
25.02986241552043
 20
4.905020103210378
 30
0.0
 10
25.01195372620549
 20
5.121206982178103
 30
0.0
 10
24.99385606106865
 20
5.312736553165314
 30
0.0
  0
SPLINE
  5
1F8
330
1F
100
AcDbEntity
  8
0
  6
Continuous
 62
     1
370
    15
100
AcDbSpline
210
0.0
220
0.0
230
1.0
 70
     8
 71
     3
 72
    12
 73
     8
 74
     0
 42
0.000000001
 43
0.00000001
 40
0.0
 40
0.0
 40
0.0
 40
0.0
 40
0.4999999999999999
 40
0.4999999999999999
 40
0.7499999999999999
 40
0.7499999999999999
 40
1.0
 40
1.0
 40
1.0
 40
1.0
 10
25.46223563459101
 20
1.867739833266276
 30
0.0
 10
25.42622685749423
 20
2.536820010874072
 30
0.0
 10
25.38886793624321
 20
3.177016332551461
 30
0.0
 10
25.33547017609942
 20
4.014889799764266
 30
0.0
 10
25.3185443943905
 20
4.27216213868112
 30
0.0
 10
25.28391264782536
 20
4.74887592303191
 30
0.0
 10
25.26599643615274
 20
4.968876617062891
 30
0.0
 10
25.24784019720254
 20
5.164865852051319
 30
0.0
  0
SPLINE
  5
1F9
330
1F
100
AcDbEntity
  8
0
  6
Continuous
 62
     1
370
    15
100
AcDbSpline
210
0.0
220
0.0
230
1.0
 70
     8
 71
     3
 72
    12
 73
     8
 74
     0
 42
0.000000001
 43
0.00000001
 40
0.0
 40
0.0
 40
0.0
 40
0.0
 40
0.5000000000000004
 40
0.5000000000000004
 40
0.7500000000000002
 40
0.7500000000000002
 40
1.0
 40
1.0
 40
1.0
 40
1.0
 10
24.95300754098309
 20
2.140628848699157
 30
0.0
 10
24.91669332675583
 20
2.800970350763763
 30
0.0
 10
24.87946512459697
 20
3.424005584133898
 30
0.0
 10
24.82686682736143
 20
4.227989409641101
 30
0.0
 10
24.81014578934619
 20
4.473702053318494
 30
0.0
 10
24.77491956075724
 20
4.929488566071365
 30
0.0
 10
24.75679938587862
 20
5.137333763361495
 30
0.0
 10
24.73854644672707
 20
5.319908992199553
 30
0.0
  0
SPLINE
  5
1FA
330
1F
100
AcDbEntity
  8
0
  6
Continuous
 62
     1
370
    15
100
AcDbSpline
210
0.0
220
0.0
230
1.0
 70
     8
 71
     3
 72
    12
 73
     8
 74
     0
 42
0.000000001
 43
0.00000001
 40
0.0
 40
0.0
 40
0.0
 40
0.0
 40
0.4999999999999998
 40
0.4999999999999998
 40
0.7499999999999999
 40
0.7499999999999999
 40
1.0
 40
1.0
 40
1.0
 40
1.0
 10
17.40113577978243
 20
-5.444982629193984
 30
0.0
 10
17.36622926039221
 20
-5.101954331529345
 30
0.0
 10
17.32903441145612
 20
-4.647697437169867
 30
0.0
 10
17.27441051026545
 20
-3.85044173405895
 30
0.0
 10
17.25640674970318
 20
-3.565968852300253
 30
0.0
 10
17.2215400178483
 20
-2.972996814759668
 30
0.0
 10
17.20473437123149
 20
-2.665152602316072
 30
0.0
 10
17.18700607094207
 20
-2.340956986805307
 30
0.0
  0
SPLINE
  5
1FB
330
1F
100
AcDbEntity
  8
0
  6
Continuous
 62
     1
370
    15
100
AcDbSpline
210
0.0
220
0.0
230
1.0
 70
     8
 71
     3
 72
    12
 73
     8
 74
     0
 42
0.000000001
 43
0.00000001
 40
0.0
 40
0.0
 40
0.0
 40
0.0
 40
0.4999999999999998
 40
0.4999999999999998
 40
0.7499999999999999
 40
0.7499999999999999
 40
1.0
 40
1.0
 40
1.0
 40
1.0
 10
17.65491602615373
 20
-5.587878006972657
 30
0.0
 10
17.62050874903232
 20
-5.255823191465721
 30
0.0
 10
17.58366690914832
 20
-4.81133976647936
 30
0.0
 10
17.52922499586051
 20
-4.023335459747038
 30
0.0
 10
17.511225546552
 20
-3.741053991370566
 30
0.0
 10
17.47625586568011
 20
-3.15035063072772
 30
0.0
 10
17.45962574855777
 20
-2.84424009128031
 30
0.0
 10
17.44215015596203
 20
-2.521626573999356
 30
0.0
  0
SPLINE
  5
1FC
330
1F
100
AcDbEntity
  8
0
  6
Continuous
 62
     1
370
    15
100
AcDbSpline
210
0.0
220
0.0
230
1.0
 70
     8
 71
     3
 72
    12
 73
     8
 74
     0
 42
0.000000001
 43
0.00000001
 40
0.0
 40
0.0
 40
0.0
 40
0.0
 40
0.2499999999999998
 40
0.2499999999999998
 40
0.4999999999999996
 40
0.4999999999999996
 40
1.0
 40
1.0
 40
1.0
 40
1.0
 10
23.91988538224193
 20
2.678773651887264
 30
0.0
 10
23.90158649534616
 20
2.996838100778876
 30
0.0
 10
23.88327363193251
 20
3.301936481615245
 30
0.0
 10
23.84739520750569
 20
3.873799183416105
 30
0.0
 10
23.83005040565453
 20
4.139507196071152
 30
0.0
 10
23.7787451716499
 20
4.872674406621115
 30
0.0
 10
23.74187172464351
 20
5.290823703378761
 30
0.0
 10
23.70531298821341
 20
5.597799344316307
 30
0.0
  0
SPLINE
  5
1FD
330
1F
100
AcDbEntity
  8
0
  6
Continuous
 62
     1
370
    15
100
AcDbSpline
210
0.0
220
0.0
230
1.0
 70
     8
 71
     3
 72
    12
 73
     8
 74
     0
 42
0.000000001
 43
0.00000001
 40
0.0
 40
0.0
 40
0.0
 40
0.0
 40
0.4999999999999999
 40
0.4999999999999999
 40
0.7499999999999998
 40
0.7499999999999998
 40
1.0
 40
1.0
 40
1.0
 40
1.0
 10
24.43504520021962
 20
2.4122679620924
 30
0.0
 10
24.39852824701576
 20
3.06147133463635
 30
0.0
 10
24.36154858732614
 20
3.665013168489138
 30
0.0
 10
24.30990324799498
 20
4.432501377534255
 30
0.0
 10
24.29280679897549
 20
4.668637064784846
 30
0.0
 10
24.2570717752597
 20
5.101293162271705
 30
0.0
 10
24.23879710438895
 20
5.29594597252976
 30
0.0
 10
24.22050025242752
 20
5.464204044064124
 30
0.0
  0
SPLINE
  5
1FE
330
1F
100
AcDbEntity
  8
0
  6
Continuous
 62
     1
370
    15
100
AcDbSpline
210
0.0
220
0.0
230
1.0
 70
     8
 71
     3
 72
    12
 73
     8
 74
     0
 42
0.000000001
 43
0.00000001
 40
0.0
 40
0.0
 40
0.0
 40
0.0
 40
0.5
 40
0.5
 40
0.75
 40
0.75
 40
1.0
 40
1.0
 40
1.0
 40
1.0
 10
17.90990817782598
 20
-5.581444947561225
 30
0.0
 10
17.87566257727789
 20
-5.26861035527981
 30
0.0
 10
17.83874814847153
 20
-4.842577619140132
 30
0.0
 10
17.78386477710811
 20
-4.077415560205692
 30
0.0
 10
17.7656649965178
 20
-3.801963138084297
 30
0.0
 10
17.73021407560085
 20
-3.223096810568236
 30
0.0
 10
17.71341276851065
 20
-2.922541483328434
 30
0.0
 10
17.69596366460301
 20
-2.606303105535326
 30
0.0
  0
SPLINE
  5
1FF
330
1F
100
AcDbEntity
  8
0
  6
Continuous
 62
     1
370
    15
100
AcDbSpline
210
0.0
220
0.0
230
1.0
 70
     8
 71
     3
 72
    14
 73
    10
 74
     0
 42
0.000000001
 43
0.00000001
 40
0.0
 40
0.0
 40
0.0
 40
0.0
 40
0.2499999999999999
 40
0.2499999999999999
 40
0.4999999999999999
 40
0.4999999999999999
 40
0.7499999999999998
 40
0.7499999999999998
 40
1.0
 40
1.0
 40
1.0
 40
1.0
 10
18.4272445521173
 20
-5.706029862045963
 30
0.0
 10
18.41000261484867
 20
-5.563947095831129
 30
0.0
 10
18.39288752814188
 20
-5.396150991977082
 30
0.0
 10
18.3571048523835
 20
-5.00625557624147
 30
0.0
 10
18.33880483127352
 20
-4.785119766231224
 30
0.0
 10
18.30216054387771
 20
-4.298801012684683
 30
0.0
 10
18.2838200355041
 20
-4.033667054431215
 30
0.0
 10
18.24788106908538
 20
-3.47153619452985
 30
0.0
 10
18.23048719015251
 20
-3.17580098963349
 30
0.0
 10
18.21337417294377
 20
-2.868670587594331
 30
0.0
  0
SPLINE
  5
200
330
1F
100
AcDbEntity
  8
0
  6
Continuous
 62
     1
370
    15
100
AcDbSpline
210
0.0
220
0.0
230
1.0
 70
     8
 71
     3
 72
    12
 73
     8
 74
     0
 42
0.000000001
 43
0.00000001
 40
0.0
 40
0.0
 40
0.0
 40
0.0
 40
0.2499999999999999
 40
0.2499999999999999
 40
0.4999999999999998
 40
0.4999999999999998
 40
1.0
 40
1.0
 40
1.0
 40
1.0
 10
18.94187646983564
 20
-5.819563171594822
 30
0.0
 10
18.92431690792577
 20
-5.691659303495296
 30
0.0
 10
18.90757734589753
 20
-5.53913312369467
 30
0.0
 10
18.87231735189334
 20
-5.178957370999857
 30
0.0
 10
18.85417758165236
 20
-4.971939777012704
 30
0.0
 10
18.79935538638806
 20
-4.280666431380471
 30
0.0
 10
18.76231794657555
 20
-3.725026831286324
 30
0.0
 10
18.7278172270203
 20
-3.124728806041921
 30
0.0
  0
SPLINE
  5
201
330
1F
100
AcDbEntity
  8
0
  6
Continuous
 62
     1
370
    15
100
AcDbSpline
210
0.0
220
0.0
230
1.0
 70
     8
 71
     3
 72
    12
 73
     8
 74
     0
 42
0.000000001
 43
0.00000001
 40
0.0
 40
0.0
 40
0.0
 40
0.0
 40
0.2500000000000002
 40
0.2500000000000002
 40
0.5000000000000001
 40
0.5000000000000001
 40
1.0
 40
1.0
 40
1.0
 40
1.0
 10
23.40178459854007
 20
2.942598060261702
 30
0.0
 10
23.38351128130696
 20
3.253029039786241
 30
0.0
 10
23.36533514391759
 20
3.548602256969861
 30
0.0
 10
23.329933542538
 20
4.098557409497827
 30
0.0
 10
23.31315538088749
 20
4.35106027322254
 30
0.0
 10
23.26084925024575
 20
5.054252158347463
 30
0.0
 10
23.22368833277735
 20
5.445082408800557
 30
0.0
 10
23.18729641651293
 20
5.721474518252307
 30
0.0
  0
SPLINE
  5
202
330
1F
100
AcDbEntity
  8
0
  6
Continuous
 62
     1
370
    15
100
AcDbSpline
210
0.0
220
0.0
230
1.0
 70
     8
 71
     3
 72
    12
 73
     8
 74
     0
 42
0.000000001
 43
0.00000001
 40
0.0
 40
0.0
 40
0.0
 40
0.0
 40
0.2500000000000004
 40
0.2500000000000004
 40
0.5000000000000007
 40
0.5000000000000007
 40
1.0
 40
1.0
 40
1.0
 40
1.0
 10
23.14645476742804
 20
3.124660707094019
 30
0.0
 10
23.12832729777576
 20
3.433128391797684
 30
0.0
 10
23.11035397743384
 20
3.7257377292294
 30
0.0
 10
23.07544581864205
 20
4.268332421551229
 30
0.0
 10
23.05882879165936
 20
4.517174425722082
 30
0.0
 10
23.00639834186917
 20
5.210270812699079
 30
0.0
 10
22.96937485484655
 20
5.590743567439214
 30
0.0
 10
22.93331071482112
 20
5.855335306793519
 30
0.0
  0
SPLINE
  5
203
330
1F
100
AcDbEntity
  8
0
  6
Continuous
 62
     1
370
    15
100
AcDbSpline
210
0.0
220
0.0
230
1.0
 70
     8
 71
     3
 72
    12
 73
     8
 74
     0
 42
0.000000001
 43
0.00000001
 40
0.0
 40
0.0
 40
0.0
 40
0.0
 40
0.2499999999999998
 40
0.2499999999999998
 40
0.4999999999999996
 40
0.4999999999999996
 40
1.0
 40
1.0
 40
1.0
 40
1.0
 10
22.89245819056668
 20
3.19353490246903
 30
0.0
 10
22.87426420325787
 20
3.495470740392222
 30
0.0
 10
22.85627527847995
 20
3.780796699502
 30
0.0
 10
22.82143810991699
 20
4.307765390761759
 30
0.0
 10
22.804642052696
 20
4.549632757317228
 30
0.0
 10
22.75149027154275
 20
5.220531158276753
 30
0.0
 10
22.71416114269892
 20
5.582971634273669
 30
0.0
 10
22.67804025886813
 20
5.82852689848368
 30
0.0
  0
SPLINE
  5
204
330
1F
100
AcDbEntity
  8
0
  6
Continuous
 62
     1
370
    15
100
AcDbSpline
210
0.0
220
0.0
230
1.0
 70
     8
 71
     3
 72
    12
 73
     8
 74
     0
 42
0.000000001
 43
0.00000001
 40
0.0
 40
0.0
 40
0.0
 40
0.0
 40
0.2500000000000001
 40
0.2500000000000001
 40
0.5000000000000001
 40
0.5000000000000001
 40
1.0
 40
1.0
 40
1.0
 40
1.0
 10
19.45959293777784
 20
-5.923241862840035
 30
0.0
 10
19.44177228241432
 20
-5.810182536969315
 30
0.0
 10
19.42481366455018
 20
-5.671461526366986
 30
0.0
 10
19.39019274578719
 20
-5.341726409627368
 30
0.0
 10
19.37227708975587
 20
-5.149383255229555
 30
0.0
 10
19.31779509559537
 20
-4.498481372089993
 30
0.0
 10
19.28052565221753
 20
-3.964597734501091
 30
0.0
 10
19.24539481150764
 20
-3.377720835817113
 30
0.0
  0
SPLINE
  5
205
330
1F
100
AcDbEntity
  8
0
  6
Continuous
 62
     1
370
    15
100
AcDbSpline
210
0.0
220
0.0
230
1.0
 70
     8
 71
     3
 72
    12
 73
     8
 74
     0
 42
0.000000001
 43
0.00000001
 40
0.0
 40
0.0
 40
0.0
 40
0.0
 40
0.2499999999999999
 40
0.2499999999999999
 40
0.4999999999999999
 40
0.4999999999999999
 40
1.0
 40
1.0
 40
1.0
 40
1.0
 10
22.37454856646304
 20
3.439856138271579
 30
0.0
 10
22.35648908938384
 20
3.732196038512435
 30
0.0
 10
22.33874229183971
 20
4.006264865395956
 30
0.0
 10
22.30457167202652
 20
4.508514534067771
 30
0.0
 10
22.28717285253358
 20
4.741589840809853
 30
0.0
 10
22.23330638738233
 20
5.376846976903305
 30
0.0
 10
22.19592352338747
 20
5.708966134986193
 30
0.0
 10
22.16018531168919
 20
5.922497813629764
 30
0.0
  0
SPLINE
  5
206
330
1F
100
AcDbEntity
  8
0
  6
Continuous
 62
     1
370
    15
100
AcDbSpline
210
0.0
220
0.0
230
1.0
 70
     8
 71
     3
 72
    12
 73
     8
 74
     0
 42
0.000000001
 43
0.00000001
 40
0.0
 40
0.0
 40
0.0
 40
0.0
 40
0.2499999999999999
 40
0.2499999999999999
 40
0.4999999999999998
 40
0.4999999999999998
 40
1.0
 40
1.0
 40
1.0
 40
1.0
 10
19.71351113286488
 20
-6.050263671930347
 30
0.0
 10
19.69570029188013
 20
-5.943163658633177
 30
0.0
 10
19.67854189418344
 20
-5.809308060949792
 30
0.0
 10
19.64446231588416
 20
-5.491444000608839
 30
0.0
 10
19.62678274608928
 20
-5.304794555337283
 30
0.0
 10
19.57286047047169
 20
-4.669235337486842
 30
0.0
 10
19.53575709205768
 20
-4.143139101868375
 30
0.0
 10
19.50054790267302
 20
-3.559602137088143
 30
0.0
  0
SPLINE
  5
207
330
1F
100
AcDbEntity
  8
0
  6
Continuous
 62
     1
370
    15
100
AcDbSpline
210
0.0
220
0.0
230
1.0
 70
     8
 71
     3
 72
    12
 73
     8
 74
     0
 42
0.000000001
 43
0.00000001
 40
0.0
 40
0.0
 40
0.0
 40
0.0
 40
0.25
 40
0.25
 40
0.5
 40
0.5
 40
1.0
 40
1.0
 40
1.0
 40
1.0
 10
21.85959423502011
 20
3.678911043707008
 30
0.0
 10
21.84172797568118
 20
3.960880025918271
 30
0.0
 10
21.82465945963011
 20
4.221334796675738
 30
0.0
 10
21.79016321079208
 20
4.702880444886933
 30
0.0
 10
21.77229261238906
 20
4.925696917095875
 30
0.0
 10
21.71788473932813
 20
5.523007437730362
 30
0.0
 10
21.68058029069256
 20
5.823779822146376
 30
0.0
 10
21.6453390697495
 20
6.005065188291075
 30
0.0
  0
SPLINE
  5
208
330
1F
100
AcDbEntity
  8
0
  6
Continuous
 62
     1
370
    15
100
AcDbSpline
210
0.0
220
0.0
230
1.0
 70
     8
 71
     3
 72
    12
 73
     8
 74
     0
 42
0.000000001
 43
0.00000001
 40
0.0
 40
0.0
 40
0.0
 40
0.0
 40
0.2500000000000002
 40
0.2500000000000002
 40
0.5000000000000004
 40
0.5000000000000004
 40
1.0
 40
1.0
 40
1.0
 40
1.0
 10
19.96874653512917
 20
-6.010214158337764
 30
0.0
 10
19.95072411353742
 20
-5.912255631863983
 30
0.0
 10
19.93303533289513
 20
-5.786267960916826
 30
0.0
 10
19.89901491606191
 20
-5.486507930027964
 30
0.0
 10
19.88143048598397
 20
-5.309154979715702
 30
0.0
 10
19.82745233164664
 20
-4.699697939317808
 30
0.0
 10
19.7900813177979
 20
-4.189151003542493
 30
0.0
 10
19.75443826613613
 20
-3.617683129930759
 30
0.0
  0
SPLINE
  5
209
330
1F
100
AcDbEntity
  8
0
  6
Continuous
 62
     1
370
    15
100
AcDbSpline
210
0.0
220
0.0
230
1.0
 70
     8
 71
     3
 72
    12
 73
     8
 74
     0
 42
0.000000001
 43
0.00000001
 40
0.0
 40
0.0
 40
0.0
 40
0.0
 40
0.2500000000000001
 40
0.2500000000000001
 40
0.5000000000000002
 40
0.5000000000000002
 40
1.0
 40
1.0
 40
1.0
 40
1.0
 10
20.48667553655643
 20
-6.083278581959517
 30
0.0
 10
20.46850110378922
 20
-6.001096122992481
 30
0.0
 10
20.45055312603369
 20
-5.890104985869066
 30
0.0
 10
20.41583499118841
 20
-5.617662876668431
 30
0.0
 10
20.39896436627351
 20
-5.456522477961824
 30
0.0
 10
20.3456520277946
 20
-4.890550630630289
 30
0.0
 10
20.308297243426
 20
-4.405400677574455
 30
0.0
 10
20.27223860405433
 20
-3.851612652185373
 30
0.0
  0
SPLINE
  5
20A
330
1F
100
AcDbEntity
  8
0
  6
Continuous
 62
     1
370
    15
100
AcDbSpline
210
0.0
220
0.0
230
1.0
 70
     8
 71
     3
 72
    12
 73
     8
 74
     0
 42
0.000000001
 43
0.00000001
 40
0.0
 40
0.0
 40
0.0
 40
0.0
 40
0.2499999999999999
 40
0.2499999999999999
 40
0.4999999999999999
 40
0.4999999999999999
 40
1.0
 40
1.0
 40
1.0
 40
1.0
 10
21.34181706294008
 20
3.913475689173857
 30
0.0
 10
21.32420708121778
 20
4.184165793637753
 30
0.0
 10
21.30747421839168
 20
4.432343712784936
 30
0.0
 10
21.27232948082159
 20
4.893054901693917
 30
0.0
 10
21.25422925428518
 20
5.103668128386973
 30
0.0
 10
21.19946334783181
 20
5.660286448263626
 30
0.0
 10
21.16237737529338
 20
5.928428888166051
 30
0.0
 10
21.12775484202183
 20
6.077018042857699
 30
0.0
  0
SPLINE
  5
20B
330
1F
100
AcDbEntity
  8
0
  6
Continuous
 62
     1
370
    15
100
AcDbSpline
210
0.0
220
0.0
230
1.0
 70
     8
 71
     3
 72
    12
 73
     8
 74
     0
 42
0.000000001
 43
0.00000001
 40
0.0
 40
0.0
 40
0.0
 40
0.0
 40
0.2499999999999999
 40
0.2499999999999999
 40
0.4999999999999998
 40
0.4999999999999998
 40
1.0
 40
1.0
 40
1.0
 40
1.0
 10
21.00177375697661
 20
-6.144760847959176
 30
0.0
 10
20.98350814216765
 20
-6.078566930947808
 30
0.0
 10
20.96536018020398
 20
-5.982967979785563
 30
0.0
 10
20.93005193596665
 20
-5.738911536769482
 30
0.0
 10
20.91331122516936
 20
-5.592122617875612
 30
0.0
 10
20.86082511115239
 20
-5.07032802512555
 30
0.0
 10
20.82361675197992
 20
-4.611825035320143
 30
0.0
 10
20.78726210600828
 20
-4.07739132387661
 30
0.0
  0
SPLINE
  5
20C
330
1F
100
AcDbEntity
  8
0
  6
Continuous
 62
     1
370
    15
100
AcDbSpline
210
0.0
220
0.0
230
1.0
 70
     8
 71
     3
 72
    12
 73
     8
 74
     0
 42
0.000000001
 43
0.00000001
 40
0.0
 40
0.0
 40
0.0
 40
0.0
 40
0.25
 40
0.25
 40
0.5
 40
0.5
 40
1.0
 40
1.0
 40
1.0
 40
1.0
 10
21.08670525822773
 20
4.092766680762043
 30
0.0
 10
21.06936082376068
 20
4.359245756485524
 30
0.0
 10
21.0526642278277
 20
4.60389313481072
 30
0.0
 10
21.01744214075726
 20
5.056768910268575
 30
0.0
 10
20.99935999732335
 20
5.262541782871304
 30
0.0
 10
20.9448173930372
 20
5.802653919707579
 30
0.0
 10
20.90811161462217
 20
6.057161871622528
 30
0.0
 10
20.87400861919939
 20
6.192152847261363
 30
0.0
  0
SPLINE
  5
20D
330
1F
100
AcDbEntity
  8
0
  6
Continuous
 62
     1
370
    15
100
AcDbSpline
210
0.0
220
0.0
230
1.0
 70
     8
 71
     3
 72
    12
 73
     8
 74
     0
 42
0.000000001
 43
0.00000001
 40
0.0
 40
0.0
 40
0.0
 40
0.0
 40
0.2500000000000002
 40
0.2500000000000002
 40
0.5000000000000001
 40
0.5000000000000001
 40
1.0
 40
1.0
 40
1.0
 40
1.0
 10
20.83292336368331
 20
4.133522228777153
 30
0.0
 10
20.81561704053029
 20
4.392325245972209
 30
0.0
 10
20.79862590808225
 20
4.63062857570597
 30
0.0
 10
20.76294305329142
 20
5.068804859087908
 30
0.0
 10
20.74467263061144
 20
5.266483225096129
 30
0.0
 10
20.68972795137797
 20
5.780754866106751
 30
0.0
 10
20.65313192891292
 20
6.01576290131692
 30
0.0
 10
20.61906205536663
 20
6.132312068381875
 30
0.0
  0
SPLINE
  5
20E
330
1F
100
AcDbEntity
  8
0
  6
Continuous
 62
     1
370
    15
100
AcDbSpline
210
0.0
220
0.0
230
1.0
 70
     8
 71
     3
 72
    12
 73
     8
 74
     0
 42
0.000000001
 43
0.00000001
 40
0.0
 40
0.0
 40
0.0
 40
0.0
 40
0.2499999999999999
 40
0.2499999999999999
 40
0.5
 40
0.5
 40
1.0
 40
1.0
 40
1.0
 40
1.0
 10
21.51982820021545
 20
-6.195389844599195
 30
0.0
 10
21.50153174238949
 20
-6.145540508714337
 30
0.0
 10
21.48324216437163
 20
-6.065871545097915
 30
0.0
 10
21.44744881944838
 20
-5.85154956459181
 30
0.0
 10
21.43025614925398
 20
-5.71790802391423
 30
0.0
 10
21.37875944949479
 20
-5.24135339831078
 30
0.0
 10
21.34182782003829
 20
-4.810961944210085
 30
0.0
 10
21.3052955141658
 20
-4.297747133469413
 30
0.0
  0
SPLINE
  5
20F
330
1F
100
AcDbEntity
  8
0
  6
Continuous
 62
     1
370
    15
100
AcDbSpline
210
0.0
220
0.0
230
1.0
 70
     8
 71
     3
 72
    12
 73
     8
 74
     0
 42
0.000000001
 43
0.00000001
 40
0.0
 40
0.0
 40
0.0
 40
0.0
 40
0.4999999999999997
 40
0.4999999999999997
 40
0.7499999999999998
 40
0.7499999999999998
 40
1.0
 40
1.0
 40
1.0
 40
1.0
 10
20.31559746763459
 20
4.345832100596418
 30
0.0
 10
20.28149167629588
 20
4.838678828425786
 30
0.0
 10
20.24464219878225
 20
5.262132147793444
 30
0.0
 10
20.18971849556135
 20
5.731166136182008
 30
0.0
 10
20.17148306070693
 20
5.860229374402044
 30
0.0
 10
20.13592129286199
 20
6.059909782241562
 30
0.0
 10
20.11904826420633
 20
6.130310692845086
 30
0.0
 10
20.1016581131493
 20
6.172819760280246
 30
0.0
  0
SPLINE
  5
210
330
1F
100
AcDbEntity
  8
0
  6
Continuous
 62
     1
370
    15
100
AcDbSpline
210
0.0
220
0.0
230
1.0
 70
     8
 71
     3
 72
    10
 73
     6
 74
     0
 42
0.000000001
 43
0.00000001
 40
0.0
 40
0.0
 40
0.0
 40
0.0
 40
0.5
 40
0.5
 40
1.0
 40
1.0
 40
1.0
 40
1.0
 10
21.77387206774232
 20
-6.302001145806235
 30
0.0
 10
21.73750960336846
 20
-6.216419279109893
 30
0.0
 10
21.70106352642509
 20
-6.00874396149959
 30
0.0
 10
21.63352862095729
 20
-5.398415460588959
 30
0.0
 10
21.59701583252155
 20
-4.979641691211441
 30
0.0
 10
21.56065642766541
 20
-4.4744299821886
 30
0.0
  0
SPLINE
  5
211
330
1F
100
AcDbEntity
  8
0
  6
Continuous
 62
     1
370
    15
100
AcDbSpline
210
0.0
220
0.0
230
1.0
 70
     8
 71
     3
 72
    12
 73
     8
 74
     0
 42
0.000000001
 43
0.00000001
 40
0.0
 40
0.0
 40
0.0
 40
0.0
 40
0.5
 40
0.5
 40
0.75
 40
0.75
 40
1.0
 40
1.0
 40
1.0
 40
1.0
 10
19.80108718195846
 20
4.549209819218735
 30
0.0
 10
19.76629333402184
 20
5.021973615129838
 30
0.0
 10
19.72913603821433
 20
5.417911384834238
 30
0.0
 10
19.67444085422605
 20
5.840623054410635
 30
0.0
 10
19.65639281396269
 20
5.953467025721434
 30
0.0
 10
19.62140249136384
 20
6.120566181270423
 30
0.0
 10
19.6046393759234
 20
6.175264938422931
 30
0.0
 10
19.58695681543147
 20
6.201763969226992
 30
0.0
  0
SPLINE
  5
212
330
1F
100
AcDbEntity
  8
0
  6
Continuous
 62
     1
370
    15
100
AcDbSpline
210
0.0
220
0.0
230
1.0
 70
     8
 71
     3
 72
    12
 73
     8
 74
     0
 42
0.000000001
 43
0.00000001
 40
0.0
 40
0.0
 40
0.0
 40
0.0
 40
0.5
 40
0.5
 40
0.75
 40
0.75
 40
1.0
 40
1.0
 40
1.0
 40
1.0
 10
22.0292143687725
 20
-6.229623112955933
 30
0.0
 10
21.99267791475633
 20
-6.162454646898412
 30
0.0
 10
21.95576936614183
 20
-5.972885456913618
 30
0.0
 10
21.90433932430232
 20
-5.538751964568693
 30
0.0
 10
21.88710309822735
 20
-5.367873922009698
 30
0.0
 10
21.85128730681794
 20
-4.972669242645471
 30
0.0
 10
21.83299262616377
 20
-4.749123246836001
 30
0.0
 10
21.81469755221571
 20
-4.50390063119748
 30
0.0
  0
SPLINE
  5
213
330
1F
100
AcDbEntity
  8
0
  6
Continuous
 62
     1
370
    15
100
AcDbSpline
210
0.0
220
0.0
230
1.0
 70
     8
 71
     3
 72
    12
 73
     8
 74
     0
 42
0.000000001
 43
0.00000001
 40
0.0
 40
0.0
 40
0.0
 40
0.0
 40
0.5
 40
0.5
 40
0.75
 40
0.75
 40
1.0
 40
1.0
 40
1.0
 40
1.0
 10
22.54722666467454
 20
-6.248448530273572
 30
0.0
 10
22.5108588220684
 20
-6.214463739099511
 30
0.0
 10
22.4736648890809
 20
-6.057914035634118
 30
0.0
 10
22.42123628062685
 20
-5.665334812401847
 30
0.0
 10
22.40448527876479
 20
-5.509873329762732
 30
0.0
 10
22.36914549068436
 20
-5.143779268928439
 30
0.0
 10
22.35098778433197
 20
-4.934002793677159
 30
0.0
 10
22.33271913101646
 20
-4.701144072820018
 30
0.0
  0
LINE
  5
214
330
1F
100
AcDbEntity
  8
0
  6
Continuous
 62
     1
370
    15
100
AcDbLine
 10
19.07221668352596
 20
6.21331848078098
 30
0.0
 11
19.06917870928756
 21
6.219444255015514
 31
0.0
  0
SPLINE
  5
215
330
1F
100
AcDbEntity
  8
0
  6
Continuous
 62
     1
370
    15
100
AcDbSpline
210
0.0
220
0.0
230
1.0
 70
     8
 71
     3
 72
    12
 73
     8
 74
     0
 42
0.000000001
 43
0.00000001
 40
0.0
 40
0.0
 40
0.0
 40
0.0
 40
0.5000000000000002
 40
0.5000000000000002
 40
0.7500000000000001
 40
0.7500000000000001
 40
1.0
 40
1.0
 40
1.0
 40
1.0
 10
23.06225472987653
 20
-6.255714460630944
 30
0.0
 10
23.0261741787475
 20
-6.254629466381175
 30
0.0
 10
22.98882443095006
 20
-6.13161510034268
 30
0.0
 10
22.93555809673002
 20
-5.782252876235876
 30
0.0
 10
22.91871213175646
 20
-5.640573472610088
 30
0.0
 10
22.88395426960498
 20
-5.304077348797257
 30
0.0
 10
22.86599212967072
 20
-5.108499254936145
 30
0.0
 10
22.84781020154745
 20
-4.888592073841565
 30
0.0
  0
SPLINE
  5
216
330
1F
100
AcDbEntity
  8
0
  6
Continuous
 62
     1
370
    15
100
AcDbSpline
210
0.0
220
0.0
230
1.0
 70
     8
 71
     3
 72
    12
 73
     8
 74
     0
 42
0.000000001
 43
0.00000001
 40
0.0
 40
0.0
 40
0.0
 40
0.0
 40
0.4999999999999999
 40
0.4999999999999999
 40
0.7499999999999999
 40
0.7499999999999999
 40
1.0
 40
1.0
 40
1.0
 40
1.0
 10
19.02824795964597
 20
4.916515863422374
 30
0.0
 10
18.99281963293586
 20
5.358382705333003
 30
0.0
 10
18.95568160920767
 20
5.712565369140593
 30
0.0
 10
18.90199762219544
 20
6.067023483259495
 30
0.0
 10
18.88445145986895
 20
6.156246052346114
 30
0.0
 10
18.85068552123716
 20
6.27650326874274
 30
0.0
 10
18.8331262094609
 20
6.309100453825833
 30
0.0
 10
18.81522784388511
 20
6.311838750884739
 30
0.0
  0
SPLINE
  5
217
330
1F
100
AcDbEntity
  8
0
  6
Continuous
 62
     1
370
    15
100
AcDbSpline
210
0.0
220
0.0
230
1.0
 70
     8
 71
     3
 72
    12
 73
     8
 74
     0
 42
0.000000001
 43
0.00000001
 40
0.0
 40
0.0
 40
0.0
 40
0.0
 40
0.5
 40
0.5
 40
0.75
 40
0.75
 40
1.0
 40
1.0
 40
1.0
 40
1.0
 10
18.77432250798016
 20
4.927914201098337
 30
0.0
 10
18.73848188295101
 20
5.355251332128416
 30
0.0
 10
18.70110374339209
 20
5.692172032206011
 30
0.0
 10
18.6474034723076
 20
6.01997562987439
 30
0.0
 10
18.63020947938287
 20
6.099944656994028
 30
0.0
 10
18.59586806998584
 20
6.203427294325174
 30
0.0
 10
18.57805793282111
 20
6.227231440628657
 30
0.0
 10
18.55996146913702
 20
6.221098355726383
 30
0.0
  0
LINE
  5
218
330
1F
100
AcDbEntity
  8
0
  6
Continuous
 62
     1
370
    15
100
AcDbLine
 10
23.54385864873639
 20
-6.225666572668889
 30
0.0
 11
23.53930075605623
 21
-6.222412531593182
 31
0.0
  0
SPLINE
  5
219
330
1F
100
AcDbEntity
  8
0
  6
Continuous
 62
     1
370
    15
100
AcDbSpline
210
0.0
220
0.0
230
1.0
 70
     8
 71
     3
 72
     9
 73
     5
 74
     0
 42
0.000000001
 43
0.00000001
 40
0.0
 40
0.0
 40
0.0
 40
0.0
 40
0.7882499910263054
 40
1.0
 40
1.0
 40
1.0
 40
1.0
 10
18.08540404726974
 20
6.198931409648321
 30
0.0
 10
18.08379127964239
 20
6.204180758228471
 30
0.0
 10
18.08174526930848
 20
6.210840255392966
 30
0.0
 10
18.07962444620244
 20
6.210138909549286
 30
0.0
 10
18.07917536189071
 20
6.209990399560592
 30
0.0
  0
SPLINE
  5
21A
330
1F
100
AcDbEntity
  8
0
  6
Continuous
 62
     1
370
    15
100
AcDbSpline
210
0.0
220
0.0
230
1.0
 70
     8
 71
     3
 72
    11
 73
     7
 74
     0
 42
0.000000001
 43
0.00000001
 40
0.0
 40
0.0
 40
0.0
 40
0.0
 40
0.0956765886671478
 40
0.3996985764185003
 40
0.7004173151853411
 40
1.0
 40
1.0
 40
1.0
 40
1.0
 10
23.79712902893535
 20
-6.321333424517253
 30
0.0
 10
23.79146741413142
 20
-6.321395375729653
 30
0.0
 10
23.76781544859959
 20
-6.32165418315317
 30
0.0
 10
23.72555222964221
 20
-6.138977741846031
 30
0.0
 10
23.67311793715529
 20
-5.790101942825142
 30
0.0
 10
23.63835823409919
 20
-5.418758281702766
 30
0.0
 10
23.62101127346269
 20
-5.233437829979994
 30
0.0
  0
LINE
  5
21B
330
1F
100
AcDbEntity
  8
0
  6
Continuous
 62
     1
370
    15
100
AcDbLine
 10
17.56576144089214
 20
6.210856995216272
 30
0.0
 11
17.557790250976
 21
6.204774993142745
 31
0.0
  0
LINE
  5
21C
330
1F
100
AcDbEntity
  8
0
  6
Continuous
 62
     1
370
    15
100
AcDbLine
 10
24.0891573293995
 20
-6.231663824388125
 30
0.0
 11
24.06183325638286
 21
-6.23567922166858
 31
0.0
  0
LINE
  5
21D
330
1F
100
AcDbEntity
  8
0
  6
Continuous
 62
     1
370
    15
100
AcDbLine
 10
25.07679698010198
 20
-6.235557684072592
 30
0.0
 11
25.0711643411707
 21
-6.245828775086739
 31
0.0
  0
SPLINE
  5
21E
330
1F
100
AcDbEntity
  8
0
  6
Continuous
 62
     1
370
    15
100
AcDbSpline
210
0.0
220
0.0
230
1.0
 70
     8
 71
     3
 72
    11
 73
     7
 74
     0
 42
0.000000001
 43
0.00000001
 40
0.0
 40
0.0
 40
0.0
 40
0.0
 40
0.3226864269323361
 40
0.6413798679743116
 40
0.999453310571756
 40
0.9999999999999999
 40
0.9999999999999999
 40
0.9999999999999999
 40
0.9999999999999999
 10
16.96801067282668
 20
5.568345932892225
 30
0.0
 10
16.95087963263313
 20
5.713207947655718
 30
0.0
 10
16.91682953513738
 20
6.001139425861293
 30
0.0
 10
16.86564425656216
 20
6.236237943429925
 30
0.0
 10
16.83116950380398
 20
6.345465347650135
 30
0.0
 10
16.81223020894713
 20
6.311919379964632
 30
0.0
 10
16.81220133741609
 20
6.311868241659067
 30
0.0
  0
LINE
  5
21F
330
1F
100
AcDbEntity
  8
0
  6
Continuous
 62
     1
370
    15
100
AcDbLine
 10
16.07750982930175
 20
6.207980605444572
 30
0.0
 11
16.07574730132929
 21
6.211617420098445
 31
0.0
  0
SPLINE
  5
220
330
1F
100
AcDbEntity
  8
0
  6
Continuous
 62
     1
370
    15
100
AcDbSpline
210
0.0
220
0.0
230
1.0
 70
     8
 71
     3
 72
    10
 73
     6
 74
     0
 42
0.000000001
 43
0.00000001
 40
0.0
 40
0.0
 40
0.0
 40
0.0
 40
0.2925052925535372
 40
0.6479386610166503
 40
1.0
 40
1.0
 40
1.0
 40
1.0
 10
25.81337441642991
 20
-6.337897927829363
 30
0.0
 10
25.80029622696007
 20
-6.333032353801547
 30
0.0
 10
25.77132627397345
 20
-6.32225445131254
 30
0.0
 10
25.72606376798239
 20
-6.147788192625464
 30
0.0
 10
25.69504807611077
 20
-5.922090397111914
 30
0.0
 10
25.67961414297334
 20
-5.809779354700186
 30
0.0
  0
LINE
  5
221
330
1F
100
AcDbEntity
  8
0
  6
Continuous
 62
     1
370
    15
100
AcDbLine
 10
35.31215687235108
 20
1.206945784992239
 30
0.0
 11
35.31215687235108
 21
4.093678592375181
 31
0.0
  0
LINE
  5
222
330
1F
100
AcDbEntity
  8
0
  6
Continuous
 62
     1
370
    15
100
AcDbLine
 10
26.07492891093007
 20
-6.245667656281331
 30
0.0
 11
26.07161153991929
 21
-6.252512877204754
 31
0.0
  0
SPLINE
  5
223
330
1F
100
AcDbEntity
  8
0
  6
Continuous
 62
     1
370
    15
100
AcDbSpline
210
0.0
220
0.0
230
1.0
 70
     8
 71
     3
 72
     9
 73
     5
 74
     0
 42
0.000000001
 43
0.00000001
 40
0.0
 40
0.0
 40
0.0
 40
0.0
 40
0.4240738739954342
 40
1.0
 40
1.0
 40
1.0
 40
1.0
 10
14.9077542400848
 20
6.024924962452314
 30
0.0
 10
14.89442339690389
 20
6.097225121918408
 30
0.0
 10
14.86298820601295
 20
6.267714661358589
 30
0.0
 10
14.83125861688389
 20
6.293905522428316
 30
0.0
 10
14.81298471753708
 20
6.30898952358093
 30
0.0
  0
LINE
  5
224
330
1F
100
AcDbEntity
  8
0
  6
Continuous
 62
     1
370
    15
100
AcDbLine
 10
14.07871323590389
 20
6.200957036248109
 30
0.0
 11
14.07603195821157
 21
6.206178496262691
 31
0.0
  0
SPLINE
  5
225
330
1F
100
AcDbEntity
  8
0
  6
Continuous
 62
     1
370
    15
100
AcDbSpline
210
0.0
220
0.0
230
1.0
 70
     8
 71
     3
 72
     9
 73
     5
 74
     0
 42
0.000000001
 43
0.00000001
 40
0.0
 40
0.0
 40
0.0
 40
0.0
 40
0.3904616065103115
 40
1.0
 40
1.0
 40
1.0
 40
1.0
 10
27.81056401272527
 20
-6.334673689076045
 30
0.0
 10
27.80131318655
 20
-6.334751745803889
 30
0.0
 10
27.77762116146733
 20
-6.334951654646508
 30
0.0
 10
27.75370309840566
 20
-6.24118601809819
 30
0.0
 10
27.73912412067167
 20
-6.184032262631991
 30
0.0
  0
LINE
  5
226
330
1F
100
AcDbEntity
  8
0
  6
Continuous
 62
     1
370
    15
100
AcDbLine
 10
12.84928035875073
 20
6.270086316994092
 30
0.0
 11
12.80909891193024
 21
6.295197101912162
 31
0.0
  0
LINE
  5
227
330
1F
100
AcDbEntity
  8
0
  6
Continuous
 62
     1
370
    15
100
AcDbLine
 10
35.31215687235108
 20
-3.319926868521907
 30
0.0
 11
35.31215687235108
 21
-3.730233601623514
 31
0.0
  0
LINE
  5
228
330
1F
100
AcDbEntity
  8
0
  6
Continuous
 62
     1
370
    15
100
AcDbLine
 10
34.82222345610371
 20
6.310884765020273
 30
0.0
 11
34.82257363339177
 21
6.308176478973291
 31
0.0
  0
LINE
  5
229
330
1F
100
AcDbEntity
  8
0
  6
Continuous
 62
     1
370
    15
100
AcDbLine
 10
35.31215687235108
 20
5.804578697911165
 30
0.0
 11
35.31215687235108
 21
5.822028423330448
 31
0.0
  0
LINE
  5
22A
330
1F
100
AcDbEntity
  8
0
  6
Continuous
 62
     1
370
    15
100
AcDbLine
 10
34.81854659457913
 20
6.310989538809917
 30
0.0
 11
34.81242780526392
 21
6.303685641518495
 31
0.0
  0
SPLINE
  5
22D
330
1F
100
AcDbEntity
  8
0
  6
Continuous
 62
     1
370
    15
100
AcDbSpline
210
0.0
220
0.0
230
1.0
 70
     8
 71
     3
 72
    11
 73
     7
 74
     0
 42
0.000000001
 43
0.00000001
 40
0.0
 40
0.0
 40
0.0
 40
0.0
 40
0.2655180883599373
 40
0.5319103318117819
 40
0.7950514861616561
 40
1.0
 40
1.0
 40
1.0
 40
1.0
 10
19.28344530006162
 20
4.746152012279889
 30
0.0
 10
19.26467793123026
 20
4.96877606098311
 30
0.0
 10
19.22708140647375
 20
5.414757095068016
 30
0.0
 10
19.16971192840024
 20
5.87004445297049
 30
0.0
 10
19.11898019318221
 20
6.146273787240274
 30
0.0
 10
19.0864567549838
 20
6.192902536085926
 30
0.0
 10
19.07221668352596
 20
6.21331848078098
 30
0.0
  0
SPLINE
  5
22E
330
1F
100
AcDbEntity
  8
0
  6
Continuous
 62
     1
370
    15
100
AcDbSpline
210
0.0
220
0.0
230
1.0
 70
     8
 71
     3
 72
    12
 73
     8
 74
     0
 42
0.000000001
 43
0.00000001
 40
0.0
 40
0.0
 40
0.0
 40
0.0
 40
0.0692444281130692
 40
0.3711561423328689
 40
0.6695033793204048
 40
0.967393829763173
 40
1.0
 40
1.0
 40
1.0
 40
1.0
 10
23.53930075605623
 20
-6.222412531593184
 30
0.0
 10
23.53524989291808
 20
-6.220583794471123
 30
0.0
 10
23.51353691504469
 20
-6.210781604835651
 30
0.0
 10
23.47377877852424
 20
-6.027223653678451
 30
0.0
 10
23.42253014506747
 20
-5.671860269417174
 30
0.0
 10
23.3869167828095
 20
-5.308615114092957
 30
0.0
 10
23.36765728202633
 20
-5.090088859173344
 30
0.0
 10
23.3657571761798
 20
-5.068529473015406
 30
0.0
  0
SPLINE
  5
22F
330
1F
100
AcDbEntity
  8
0
  6
Continuous
 62
     1
370
    15
100
AcDbSpline
210
0.0
220
0.0
230
1.0
 70
     8
 71
     3
 72
    11
 73
     7
 74
     0
 42
0.000000001
 43
0.00000001
 40
0.0
 40
0.0
 40
0.0
 40
0.0
 40
0.2707437503049868
 40
0.540986038510979
 40
0.8079055588382678
 40
1.0
 40
1.0
 40
1.0
 40
1.0
 10
18.25646378983966
 20
5.099326296380422
 30
0.0
 10
18.2408109757696
 20
5.262048893106368
 30
0.0
 10
18.2095343392239
 20
5.587192697459464
 30
0.0
 10
18.1626218726351
 20
5.923333250009437
 30
0.0
 10
18.12193063491972
 20
6.132112625499921
 30
0.0
 10
18.09618037025006
 20
6.179218076280424
 30
0.0
 10
18.08540404726974
 20
6.198931409648321
 30
0.0
  0
SPLINE
  5
230
330
1F
100
AcDbEntity
  8
0
  6
Continuous
 62
     1
370
    15
100
AcDbSpline
210
0.0
220
0.0
230
1.0
 70
     8
 71
     3
 72
    12
 73
     8
 74
     0
 42
0.000000001
 43
0.00000001
 40
0.0
 40
0.0
 40
0.0
 40
0.0
 40
0.2353242139979177
 40
0.4697822286047933
 40
0.7014322353405357
 40
0.958498527418252
 40
1.0
 40
1.0
 40
1.0
 40
1.0
 10
17.74140794714204
 20
5.260422284385822
 30
0.0
 10
17.72739096268603
 20
5.395704935028357
 30
0.0
 10
17.69940858856402
 20
5.665772277571261
 30
0.0
 10
17.65773264133966
 20
5.952752282904505
 30
0.0
 10
17.6162143883778
 20
6.142413366883767
 30
0.0
 10
17.58594389457268
 20
6.229697244361322
 30
0.0
 10
17.56822447328769
 20
6.213156227248167
 30
0.0
 10
17.56576144089214
 20
6.210856995216272
 30
0.0
  0
SPLINE
  5
231
330
1F
100
AcDbEntity
  8
0
  6
Continuous
 62
     1
370
    15
100
AcDbSpline
210
0.0
220
0.0
230
1.0
 70
     8
 71
     3
 72
    11
 73
     7
 74
     0
 42
0.000000001
 43
0.00000001
 40
0.0
 40
0.0
 40
0.0
 40
0.0
 40
0.1416438108966186
 40
0.4302250018811214
 40
0.7162125719647429
 40
1.0
 40
1.0
 40
1.0
 40
1.0
 10
24.06183325638286
 20
-6.23567922166858
 30
0.0
 10
24.05298404609357
 20
-6.241203562610561
 30
0.0
 10
24.02610569899703
 20
-6.257983043317219
 30
0.0
 10
23.98029180264114
 20
-6.09145107583309
 30
0.0
 10
23.92706544945891
 20
-5.765383580361604
 30
0.0
 10
23.89227851140708
 20
-5.410037723581272
 30
0.0
 10
23.87495220591537
 20
-5.233050865450242
 30
0.0
  0
SPLINE
  5
232
330
1F
100
AcDbEntity
  8
0
  6
Continuous
 62
     1
370
    15
100
AcDbSpline
210
0.0
220
0.0
230
1.0
 70
     8
 71
     3
 72
    10
 73
     6
 74
     0
 42
0.000000001
 43
0.00000001
 40
0.0
 40
0.0
 40
0.0
 40
0.0
 40
0.320903611671876
 40
0.6626667484862289
 40
0.9999999999999999
 40
0.9999999999999999
 40
0.9999999999999999
 40
0.9999999999999999
 10
24.54980251332036
 20
-6.245181040236096
 30
0.0
 10
24.53271417051125
 20
-6.218525277599875
 30
0.0
 10
24.49742670052194
 20
-6.163481062103088
 30
0.0
 10
24.44447208404916
 20
-5.872459716616897
 30
0.0
 10
24.40985137270974
 20
-5.547797854074052
 30
0.0
 10
24.39265393604747
 20
-5.386525840827563
 30
0.0
  0
SPLINE
  5
233
330
1F
100
AcDbEntity
  8
0
  6
Continuous
 62
     1
370
    15
100
AcDbSpline
210
0.0
220
0.0
230
1.0
 70
     8
 71
     3
 72
    10
 73
     6
 74
     0
 42
0.000000001
 43
0.00000001
 40
0.0
 40
0.0
 40
0.0
 40
0.0
 40
0.3567890939736277
 40
0.7091927929745896
 40
1.0
 40
1.0
 40
1.0
 40
1.0
 10
17.22336721559278
 20
5.413138231864831
 30
0.0
 10
17.20483273563808
 20
5.572201525935549
 30
0.0
 10
17.16799158822797
 20
5.888373022450208
 30
0.0
 10
17.11806574602044
 20
6.149812313357444
 30
0.0
 10
17.08565078023041
 20
6.189199329870497
 30
0.0
 10
17.07099539180509
 20
6.207006907692811
 30
0.0
  0
SPLINE
  5
234
330
1F
100
AcDbEntity
  8
0
  6
Continuous
 62
     1
370
    15
100
AcDbSpline
210
0.0
220
0.0
230
1.0
 70
     8
 71
     3
 72
    11
 73
     7
 74
     0
 42
0.000000001
 43
0.00000001
 40
0.0
 40
0.0
 40
0.0
 40
0.0
 40
0.0325261677870931
 40
0.3568431049036875
 40
0.680694390072858
 40
1.0
 40
1.0
 40
1.0
 40
1.0
 10
25.0711643411707
 20
-6.245828775086739
 30
0.0
 10
25.06941316393585
 20
-6.249263725775819
 30
0.0
 10
25.05020107827568
 20
-6.286948413289748
 30
0.0
 10
25.01204282895085
 20
-6.194881189583505
 30
0.0
 10
24.95849279527791
 20
-5.970458853829451
 30
0.0
 10
24.92426873271196
 20
-5.675472912303851
 30
0.0
 10
24.90727764507047
 20
-5.529022385695317
 30
0.0
  0
SPLINE
  5
235
330
1F
100
AcDbEntity
  8
0
  6
Continuous
 62
     1
370
    15
100
AcDbSpline
210
0.0
220
0.0
230
1.0
 70
     8
 71
     3
 72
    11
 73
     7
 74
     0
 42
0.000000001
 43
0.00000001
 40
0.0
 40
0.0
 40
0.0
 40
0.0
 40
0.2926620211641792
 40
0.5817169288004563
 40
0.8297142824932641
 40
0.9999999999999999
 40
0.9999999999999999
 40
0.9999999999999999
 40
0.9999999999999999
 10
16.71396124129406
 20
5.549890844753644
 30
0.0
 10
16.69800357405139
 20
5.677272771679796
 30
0.0
 10
16.66628492076561
 20
5.93046661972814
 30
0.0
 10
16.62262758651351
 20
6.134579924434977
 30
0.0
 10
16.58563763786507
 20
6.229392619938968
 30
0.0
 10
16.56292913035486
 20
6.213407795623974
 30
0.0
 10
16.55368435149304
 20
6.206900271258018
 30
0.0
  0
SPLINE
  5
236
330
1F
100
AcDbEntity
  8
0
  6
Continuous
 62
     1
370
    15
100
AcDbSpline
210
0.0
220
0.0
230
1.0
 70
     8
 71
     3
 72
    10
 73
     6
 74
     0
 42
0.000000001
 43
0.00000001
 40
0.0
 40
0.0
 40
0.0
 40
0.0
 40
0.2277112595594275
 40
0.6160587877629865
 40
1.0
 40
1.0
 40
1.0
 40
1.0
 10
25.55194471915475
 20
-6.234402378418782
 30
0.0
 10
25.54221689411221
 20
-6.228335602636166
 30
0.0
 10
25.51589886260656
 20
-6.211922314415377
 30
0.0
 10
25.47270879505983
 20
-6.028725562917641
 30
0.0
 10
25.44058843359227
 20
-5.783989910497134
 30
0.0
 10
25.42461988468877
 20
-5.662320257493594
 30
0.0
  0
SPLINE
  5
237
330
1F
100
AcDbEntity
  8
0
  6
Continuous
 62
     1
370
    15
100
AcDbSpline
210
0.0
220
0.0
230
1.0
 70
     8
 71
     3
 72
    10
 73
     6
 74
     0
 42
0.000000001
 43
0.00000001
 40
0.0
 40
0.0
 40
0.0
 40
0.0
 40
0.3311418305960301
 40
0.6583719002348809
 40
1.0
 40
1.0
 40
1.0
 40
1.0
 10
16.19593773921243
 20
5.674200522384307
 30
0.0
 10
16.18258105222845
 20
5.770852806629764
 30
0.0
 10
16.15602546009847
 20
5.96301562679111
 30
0.0
 10
16.11723296473674
 20
6.147702577380819
 30
0.0
 10
16.09093954100533
 20
6.187601636612129
 30
0.0
 10
16.07750982930175
 20
6.207980605444572
 30
0.0
  0
SPLINE
  5
238
330
1F
100
AcDbEntity
  8
0
  6
Continuous
 62
     1
370
    15
100
AcDbSpline
210
0.0
220
0.0
230
1.0
 70
     8
 71
     3
 72
    11
 73
     7
 74
     0
 42
0.000000001
 43
0.00000001
 40
0.0
 40
0.0
 40
0.0
 40
0.0
 40
0.2403514811059889
 40
0.4781173671632479
 40
0.8516929970725717
 40
1.0
 40
1.0
 40
1.0
 40
1.0
 10
15.68087025498262
 20
5.78722443305578
 30
0.0
 10
15.67011198855839
 20
5.858332536688037
 30
0.0
 10
15.64871118838722
 20
5.999783794388563
 30
0.0
 10
15.61185793012342
 20
6.156631518829517
 30
0.0
 10
15.57877329613197
 20
6.242355786088421
 30
0.0
 10
15.55522204056662
 20
6.205582265333454
 30
0.0
 10
15.54852931712976
 20
6.195132079205177
 30
0.0
  0
SPLINE
  5
239
330
1F
100
AcDbEntity
  8
0
  6
Continuous
 62
     1
370
    15
100
AcDbSpline
210
0.0
220
0.0
230
1.0
 70
     8
 71
     3
 72
    11
 73
     7
 74
     0
 42
0.000000001
 43
0.00000001
 40
0.0
 40
0.0
 40
0.0
 40
0.0
 40
0.0070810153120732
 40
0.3384601955736352
 40
0.6705614226481726
 40
1.0
 40
1.0
 40
1.0
 40
1.0
 10
26.07161153991929
 20
-6.252512877204754
 30
0.0
 10
26.07129249339059
 20
-6.253179792023996
 30
0.0
 10
26.05604262515297
 20
-6.285057158503745
 30
0.0
 10
26.02465243895786
 20
-6.23109207613893
 30
0.0
 10
25.97847191121759
 20
-6.089083212051026
 30
0.0
 10
25.94838702891059
 20
-5.882331776373785
 30
0.0
 10
25.93340513249151
 20
-5.779372138300278
 30
0.0
  0
SPLINE
  5
23A
330
1F
100
AcDbEntity
  8
0
  6
Continuous
 62
     1
370
    15
100
AcDbSpline
210
0.0
220
0.0
230
1.0
 70
     8
 71
     3
 72
     9
 73
     5
 74
     0
 42
0.000000001
 43
0.00000001
 40
0.0
 40
0.0
 40
0.0
 40
0.0
 40
0.4324720575077992
 40
1.0
 40
1.0
 40
1.0
 40
1.0
 10
26.54981587966195
 20
-6.233390030780175
 30
0.0
 10
26.53551477731793
 20
-6.220088452040917
 30
0.0
 10
26.50244650829164
 20
-6.189331369569715
 30
0.0
 10
26.46966244384597
 20
-5.99438281456642
 30
0.0
 10
26.45105657120458
 20
-5.883744062253573
 30
0.0
  0
SPLINE
  5
23B
330
1F
100
AcDbEntity
  8
0
  6
Continuous
 62
     1
370
    15
100
AcDbSpline
210
0.0
220
0.0
230
1.0
 70
     8
 71
     3
 72
     9
 73
     5
 74
     0
 42
0.000000001
 43
0.00000001
 40
0.0
 40
0.0
 40
0.0
 40
0.0
 40
0.5245580323197586
 40
1.0
 40
1.0
 40
1.0
 40
1.0
 10
15.16297248144856
 20
5.890351644388101
 30
0.0
 10
15.14695783299304
 20
5.982667624931528
 30
0.0
 10
15.11642803939765
 20
6.15865574227133
 30
0.0
 10
15.08579431532081
 20
6.189136006791795
 30
0.0
 10
15.07122975726834
 20
6.203627603730819
 30
0.0
  0
SPLINE
  5
23C
330
1F
100
AcDbEntity
  8
0
  6
Continuous
 62
     1
370
    15
100
AcDbSpline
210
0.0
220
0.0
230
1.0
 70
     8
 71
     3
 72
    10
 73
     6
 74
     0
 42
0.000000001
 43
0.00000001
 40
0.0
 40
0.0
 40
0.0
 40
0.0
 40
0.0611385234686524
 40
0.5306018823398109
 40
1.0
 40
1.0
 40
1.0
 40
1.0
 10
27.07487133284322
 20
-6.242394057431559
 30
0.0
 10
27.07270615547421
 20
-6.246846495917632
 30
0.0
 10
27.05391526680994
 20
-6.285487799431014
 30
0.0
 10
27.01698388878397
 20
-6.217807515469335
 30
0.0
 10
26.98295392083439
 20
-6.056977170659573
 30
0.0
 10
26.9659401192259
 20
-5.976567586281638
 30
0.0
  0
SPLINE
  5
23D
330
1F
100
AcDbEntity
  8
0
  6
Continuous
 62
     1
370
    15
100
AcDbSpline
210
0.0
220
0.0
230
1.0
 70
     8
 71
     3
 72
    10
 73
     6
 74
     0
 42
0.000000001
 43
0.00000001
 40
0.0
 40
0.0
 40
0.0
 40
0.0
 40
0.3324581738584667
 40
0.7701201756911068
 40
1.0
 40
1.0
 40
1.0
 40
1.0
 10
14.65384916355124
 20
5.976996308794877
 30
0.0
 10
14.64272819900834
 20
6.031070521943281
 30
0.0
 10
14.61696712636501
 20
6.156330316421778
 30
0.0
 10
14.5837314201839
 20
6.235664897918362
 30
0.0
 10
14.56066314253876
 20
6.210176372841051
 30
0.0
 10
14.55271917348019
 20
6.201398948809764
 30
0.0
  0
SPLINE
  5
23E
330
1F
100
AcDbEntity
  8
0
  6
Continuous
 62
     1
370
    15
100
AcDbSpline
210
0.0
220
0.0
230
1.0
 70
     8
 71
     3
 72
     9
 73
     5
 74
     0
 42
0.000000001
 43
0.00000001
 40
0.0
 40
0.0
 40
0.0
 40
0.0
 40
0.3029234198093705
 40
1.0
 40
1.0
 40
1.0
 40
1.0
 10
27.55019229789487
 20
-6.235255004235844
 30
0.0
 10
27.54351592083952
 20
-6.233082069237568
 30
0.0
 10
27.5214761027906
 20
-6.225908853645178
 30
0.0
 10
27.49929537068833
 20
-6.127539589572693
 30
0.0
 10
27.48383370180837
 20
-6.058968679377177
 30
0.0
  0
SPLINE
  5
23F
330
1F
100
AcDbEntity
  8
0
  6
Continuous
 62
     1
370
    15
100
AcDbSpline
210
0.0
220
0.0
230
1.0
 70
     8
 71
     3
 72
     9
 73
     5
 74
     0
 42
0.000000001
 43
0.00000001
 40
0.0
 40
0.0
 40
0.0
 40
0.0
 40
0.3244052972186796
 40
1.0
 40
1.0
 40
1.0
 40
1.0
 10
14.13620284711233
 20
6.049675791195295
 30
0.0
 10
14.13005057561207
 20
6.076895332740555
 30
0.0
 10
14.11108580668565
 20
6.160801304001291
 30
0.0
 10
14.09176575827059
 20
6.184766366781783
 30
0.0
 10
14.07871323590389
 20
6.200957036248109
 30
0.0
  0
SPLINE
  5
240
330
1F
100
AcDbEntity
  8
0
  6
Continuous
 62
     1
370
    15
100
AcDbSpline
210
0.0
220
0.0
230
1.0
 70
     8
 71
     3
 72
    10
 73
     6
 74
     0
 42
0.000000001
 43
0.00000001
 40
0.0
 40
0.0
 40
0.0
 40
0.0
 40
0.0567206799536236
 40
0.783240377623755
 40
1.0
 40
1.0
 40
1.0
 40
1.0
 10
13.62165923183075
 20
6.110648083171508
 30
0.0
 10
13.62034299211047
 20
6.115469139148935
 30
0.0
 10
13.60216739731154
 20
6.182041784388584
 30
0.0
 10
13.57848673412927
 20
6.24635840501697
 30
0.0
 10
13.55551223789634
 20
6.206398456845843
 30
0.0
 10
13.55023284395448
 20
6.197215913465879
 30
0.0
  0
SPLINE
  5
241
330
1F
100
AcDbEntity
  8
0
  6
Continuous
 62
     1
370
    15
100
AcDbSpline
210
0.0
220
0.0
230
1.0
 70
     8
 71
     3
 72
     9
 73
     5
 74
     0
 42
0.000000001
 43
0.00000001
 40
0.0
 40
0.0
 40
0.0
 40
0.0
 40
0.4774990480294709
 40
1.0
 40
1.0
 40
1.0
 40
1.0
 10
28.07205517729036
 20
-6.249645334997513
 30
0.0
 10
28.05956630342604
 20
-6.253332217195878
 30
0.0
 10
28.03341154161897
 20
-6.261053451852952
 30
0.0
 10
28.00695238582666
 20
-6.171571073109529
 30
0.0
 10
27.99312745173684
 20
-6.124816445031502
 30
0.0
  0
LINE
  5
242
330
1F
100
AcDbEntity
  8
0
  6
Continuous
 62
     1
370
    15
100
AcDbLine
 10
28.5512802465748
 20
-6.234820542254784
 30
0.0
 11
28.511179359157
 21
-6.176229176440575
 31
0.0
  0
LINE
  5
243
330
1F
100
AcDbEntity
  8
0
  6
Continuous
 62
     1
370
    15
100
AcDbLine
 10
13.10431792353502
 20
6.160715984782836
 30
0.0
 11
13.06899332394114
 21
6.199790554723403
 31
0.0
  0
SPLINE
  5
244
330
1F
100
AcDbEntity
  8
0
  6
Continuous
 62
     1
370
    15
100
AcDbSpline
210
0.0
220
0.0
230
1.0
 70
     8
 71
     3
 72
     9
 73
     5
 74
     0
 42
0.000000001
 43
0.00000001
 40
0.0
 40
0.0
 40
0.0
 40
0.0
 40
0.009915099093639
 40
1.0
 40
1.0
 40
1.0
 40
1.0
 10
29.07333125313035
 20
-6.251663976677992
 30
0.0
 10
29.07317977695091
 20
-6.251975782505095
 30
0.0
 10
29.05790245314239
 20
-6.283423357981341
 30
0.0
 10
29.04204656616899
 20
-6.249534080163226
 30
0.0
 10
29.02634789188615
 20
-6.215980817892888
 30
0.0
  0
LINE
  5
245
330
1F
100
AcDbEntity
  8
0
  6
Continuous
 62
     1
370
    15
100
AcDbLine
 10
12.5954607310634
 20
6.194458267322442
 30
0.0
 11
12.55077377845755
 21
6.202936096719167
 31
0.0
  0
LINE
  5
246
330
1F
100
AcDbEntity
  8
0
  6
Continuous
 62
     1
370
    15
100
AcDbLine
 10
11.56278325197509
 20
6.219778134158513
 30
0.0
 11
11.5497950273495
 21
6.200563552460334
 31
0.0
  0
LINE
  5
247
330
1F
100
AcDbEntity
  8
0
  6
Continuous
 62
     8
370
    15
100
AcDbLine
 10
34.56460100551358
 20
6.2220202932569
 30
0.0
 11
34.55283840139618
 21
6.204000132760665
 31
0.0
  0
LINE
  5
248
330
1F
100
AcDbEntity
  8
중심선
100
AcDbLine
 10
-47.88784406940231
 20
-0.0179717307475601
 30
0.0
 11
42.3121568723511
 21
-0.01797173074756
 31
0.0
  0
CIRCLE
  5
249
330
1F
100
AcDbEntity
  8
외형선
100
AcDbCircle
 10
0.0
 20
0.0
 30
0.0
 40
3.000000000000004
  0
INSERT
  5
24A
330
1F
100
AcDbEntity
  8
0
  6
Continuous
 62
     7
100
AcDbBlockReference
 66
     1
  2
블럭10
 10
-16.63945112874702
 20
-52.04717430164393
 30
0.0
  0
ATTRIB
  5
24B
330
24A
100
AcDbEntity
  8
FORMAT
 62
     2
100
AcDbText
 10
-25.70707290932103
 20
-49.97180738881174
 30
0.0
 40
4.233333333333333
  1
E5E44032 [ 3 FLUTE ]
 41
0.75
  7
SLDTEXTSTYLE0
 11
-25.70707290932103
 21
-52.08847405547841
 31
0.0
100
AcDbAttribute
  2
AUTOATTR0
 70
     0
 74
     1
  0
SEQEND
  5
24C
330
24A
100
AcDbEntity
  8
0
  6
Continuous
 62
     7
  0
HATCH
  5
24D
330
1F
100
AcDbEntity
  8
중심선
100
AcDbHatch
 10
0.0
 20
0.0
 30
0.0
210
0.0
220
0.0
230
1.0
  2
SOLID
 70
     1
 71
     0
 91
        1
 92
        0
 93
        4
 72
     1
 10
-10.92454182436617
 20
-35.8
 11
-14.37081706820345
 21
-35.8
 72
     1
 10
-14.37081706820345
 20
-35.8
 11
-16.49904692740747
 21
-38.33632558057259
 72
     1
 10
-16.49904692740747
 20
-38.33632558057259
 11
-13.05273859845704
 21
-38.3362861512701
 72
     1
 10
-13.05273859845704
 20
-38.3362861512701
 11
-10.92454182436617
 21
-35.8
 97
        0
 75
     0
 76
     1
 98
        1
 10
0.0
 20
0.0
  0
HATCH
  5
24E
330
1F
100
AcDbEntity
  8
중심선
100
AcDbHatch
 10
0.0
 20
0.0
 30
0.0
210
0.0
220
0.0
230
1.0
  2
SOLID
 70
     1
 71
     0
 91
        1
 92
        0
 93
        4
 72
     1
 10
-5.911777833330217
 20
-35.8
 11
-9.358053077167499
 21
-35.8
 72
     1
 10
-9.358053077167499
 20
-35.8
 11
-13.88919108552489
 21
-41.20000000000002
 72
     1
 10
-13.88919108552489
 20
-41.20000000000002
 11
-10.44291584168761
 21
-41.20000000000002
 72
     1
 10
-10.44291584168761
 20
-41.20000000000002
 11
-5.911777833330217
 21
-35.8
 97
        0
 75
     0
 76
     1
 98
        1
 10
0.0
 20
0.0
  0
HATCH
  5
24F
330
1F
100
AcDbEntity
  8
중심선
100
AcDbHatch
 10
0.0
 20
0.0
 30
0.0
210
0.0
220
0.0
230
1.0
  2
SOLID
 70
     1
 71
     0
 91
        1
 92
        0
 93
        4
 72
     1
 10
-0.8990138422943217
 20
-35.80000000000003
 11
-4.345289086131437
 21
-35.8
 72
     1
 10
-4.345289086131437
 20
-35.8
 11
-11.39372598802069
 21
-44.20000000000002
 72
     1
 10
-11.39372598802069
 20
-44.20000000000002
 11
-7.947450744183405
 21
-44.20000000000002
 72
     1
 10
-7.947450744183405
 20
-44.20000000000002
 11
-0.8990138422943215
 21
-35.80000000000003
 97
        0
 75
     0
 76
     1
 98
        1
 10
0.0
 20
0.0
  0
HATCH
  5
250
330
1F
100
AcDbEntity
  8
중심선
100
AcDbHatch
 10
0.0
 20
0.0
 30
0.0
210
0.0
220
0.0
230
1.0
  2
SOLID
 70
     1
 71
     0
 91
        1
 92
        0
 93
        6
 72
     3
 10
3.900876588717877
 20
-40.00000000005127
 11
3.960054785062284
 21
1.540850780301639E-10
 40
0.3939339440162633
 50
17.09539180608433
 51
320.0019657685079
 73
     0
 72
     1
 10
5.583876244418473
 20
-38.5878940046383
 11
7.889178118119511
 21
-36.65356729459038
 72
     3
 10
3.900876588665031
 20
-40.00000000000015
 11
6.600054785286829
 21
-1.249000902703301E-13
 40
0.6363583540795982
 50
39.99873849337408
 51
368.4976242363724
 73
     1
 72
     1
 10
10.32620908056564
 20
-39.03999999993002
 11
2.580943895500953
 21
-39.03999999992999
 72
     1
 10
2.580943895500953
 20
-39.03999999992999
 11
2.58091885105502
 21
-40.95999999992991
 72
     1
 10
2.58091885105502
 20
-40.95999999992991
 11
7.022298620527057
 21
-40.95999999992988
 97
        0
 75
     0
 76
     1
 98
        1
 10
0.0
 20
0.0
  0
POINT
  5
251
330
1F
100
AcDbEntity
  8
치수문자_일반주서
100
AcDbPoint
 10
-2.074618910014559
 20
-0.000000000000004
 30
0.0
  0
DIMENSION
  5
252
330
1F
100
AcDbEntity
  8
치수문자_일반주서
100
AcDbDimension
  2
_D
 10
9.912157015402233
 20
14.660156696272
 30
0.0
 11
22.61215701540223
 21
14.660156696272
 31
0.0
 70
   160
  1
<>
 71
     2
 42
25.4
  3
SLDDIMSTYLE0
100
AcDbAlignedDimension
 13
35.31215701540224
 23
6.332028115770479
 33
0.0
 14
9.912157015402233
 24
-6.155963319389517
 34
0.0
 50
-0.000000000000004
100
AcDbRotatedDimension
1001
ACAD
1000
DSTYLE
1002
{
1070
   171
1070
     6
1070
   273
1070
     7
1002
}
  0
DIMENSION
  5
268
330
1F
100
AcDbEntity
  8
치수문자_일반주서
100
AcDbDimension
  2
_D_1
 10
-40.88784298459777
 20
27.20511009518712
 30
0.0
 11
-0.776290270593152
 21
27.20511009518712
 31
0.0
 70
   160
  1
<>
 71
     2
 42
76.20000000000002
  3
SLDDIMSTYLE1
100
AcDbAlignedDimension
 13
35.31215701540224
 23
6.332028115770479
 33
0.0
 14
-40.88784298459777
 24
5.832028192511455
 34
0.0
 50
0.0000000000000053
100
AcDbRotatedDimension
1001
ACAD
1000
DSTYLE
1002
{
1070
   171
1070
     6
1070
   273
1070
     7
1002
}
  0
DIMENSION
  5
27C
330
1F
100
AcDbEntity
  8
치수문자_일반주서
100
AcDbDimension
  2
_D_2
 10
-54.65984065240867
 20
-6.367971807488601
 30
0.0
 11
-54.65984065240877
 21
26.2797781925114
 31
0.0
 70
   160
  1
%%c<>
 71
     2
 42
12.7
 52
-270.0
  3
SLDDIMSTYLE0
100
AcDbAlignedDimension
 13
-40.38784298459777
 23
6.332028192511455
 33
0.0
 14
-40.38784298459777
 24
-6.367971807488544
 34
0.0
 50
90.0000000000002
100
AcDbRotatedDimension
1001
ACAD
1000
DSTYLE
1002
{
1070
   171
1070
     6
1070
   273
1070
     7
1002
}
  0
INSERT
  5
296
330
1F
100
AcDbEntity
  8
외형선
100
AcDbBlockReference
  2
SW_DOWELSYMBOL_0
 10
0.0
 20
0.0
 30
0.0
  0
DIMENSION
  5
2C0
330
1F
100
AcDbEntity
  8
치수문자_일반주서
100
AcDbDimension
  2
*D6
 10
52.51505577425223
 20
-6.367971730747559
 30
0.0
 11
52.51505577425223
 21
26.27977811577048
 31
0.0
 70
   160
  1
{%%c<>[]}
 71
     5
 42
12.69999984651804
  3
SLDDIMSTYLE0
100
AcDbAlignedDimension
 13
35.31215701540224
 23
6.332028115770479
 33
0.0
 14
35.31215701540224
 24
-6.367971730747559
 34
0.0
 50
90.0
100
AcDbRotatedDimension
1001
ACAD
1000
DSTYLE
1002
{
1070
   283
1070
     1
1070
   170
1070
     1
1070
   171
1070
     6
1070
   273
1070
     7
1002
}
  0
ENDSEC
  0
SECTION
  2
OBJECTS
  0
DICTIONARY
  5
C
330
0
100
AcDbDictionary
281
     1
  3
ACAD_GROUP
350
D
  3
ACAD_IMAGE_VARS
350
2BA
  3
ACAD_LAYOUT
350
1A
  3
ACAD_MLINESTYLE
350
17
  3
ACAD_PLOTSETTINGS
350
19
  3
ACAD_PLOTSTYLENAME
350
E
  3
ACAD_SCALELIST
350
47
  3
APPDATA
350
2B8
  3
DWGPROPS
350
2FC
  0
DICTIONARY
  5
2FA
330
1F
100
AcDbDictionary
280
     1
281
     1
  3
DIM_BOUNDING_BOXES_V1
360
2FB
  0
DICTIONARY
  5
D
102
{ACAD_REACTORS
330
C
102
}
330
C
100
AcDbDictionary
281
     1
  0
RASTERVARIABLES
  5
2BA
102
{ACAD_REACTORS
330
C
102
}
330
C
100
AcDbRasterVariables
 90
        0
 70
     1
 71
     1
 72
     1
  0
DICTIONARY
  5
1A
102
{ACAD_REACTORS
330
C
102
}
330
C
100
AcDbDictionary
281
     1
  3
Layout1
350
1E
  3
Layout2
350
26
  3
Model
350
22
  0
DICTIONARY
  5
17
102
{ACAD_REACTORS
330
C
102
}
330
C
100
AcDbDictionary
281
     1
  3
Standard
350
18
  0
DICTIONARY
  5
19
102
{ACAD_REACTORS
330
C
102
}
330
C
100
AcDbDictionary
281
     1
  0
ACDBDICTIONARYWDFLT
  5
E
102
{ACAD_REACTORS
330
C
102
}
330
C
100
AcDbDictionary
281
     1
  3
Normal
350
F
100
AcDbDictionaryWithDefault
340
F
  0
DICTIONARY
  5
47
102
{ACAD_REACTORS
330
C
102
}
330
C
100
AcDbDictionary
281
     1
  3
A0
350
48
  3
A1
350
49
  3
A2
350
4A
  3
A3
350
4B
  3
A4
350
4C
  3
A5
350
4D
  3
A6
350
4E
  3
A7
350
4F
  3
A8
350
50
  3
A9
350
51
  3
B0
350
52
  3
B1
350
53
  3
B2
350
54
  3
B3
350
55
  3
B4
350
56
  3
B5
350
57
  3
B6
350
58
  3
B7
350
59
  3
B8
350
5A
  3
B9
350
5B
  3
C0
350
5C
  3
C1
350
5D
  3
C2
350
5E
  3
C3
350
5F
  3
C4
350
60
  3
C5
350
61
  3
C6
350
62
  3
C7
350
63
  3
C8
350
64
  3
C9
350
65
  3
D0
350
66
  3
D1
350
67
  3
D2
350
68
  0
DICTIONARY
  5
2B8
102
{ACAD_REACTORS
330
C
102
}
330
C
100
AcDbDictionary
281
     1
  0
XRECORD
  5
2FC
102
{ACAD_REACTORS
330
C
102
}
330
C
100
AcDbXrecord
280
     1
  1
DWGPROPS COOKIE
  2

  3

  4

  6

  7

  8
12014102
  9

300
=
301
=
302
=
303
=
304
=
305
=
306
=
307
=
308
=
309
=
 40
0.0
 41
2458270.406788044
 42
2459720.373734722
  1

 90
        0
  0
DICTIONARY
  5
2FB
102
{ACAD_REACTORS
330
2FA
102
}
330
2FA
100
AcDbDictionary
281
     1
  0
LAYOUT
  5
1E
102
{ACAD_REACTORS
330
1A
102
}
330
1A
100
AcDbPlotSettings
  1

  2
none_device
  4

  6

 40
0.0
 41
0.0
 42
0.0
 43
0.0
 44
0.0
 45
0.0
 46
0.0
 47
0.0
 48
0.0
 49
0.0
140
0.0
141
0.0
142
1.0
143
1.0
 70
   688
 72
     1
 73
     0
 74
     5
  7

 75
    16
147
1.0
148
0.0
149
0.0
100
AcDbLayout
  1
Layout1
 70
     1
 71
     1
 10
0.0
 20
0.0
 11
420.0
 21
297.0
 12
0.0
 22
0.0
 32
0.0
 14
1.000000000000000E+20
 24
1.000000000000000E+20
 34
1.000000000000000E+20
 15
-1.000000000000000E+20
 25
-1.000000000000000E+20
 35
-1.000000000000000E+20
146
0.0
 13
0.0
 23
0.0
 33
0.0
 16
1.0
 26
0.0
 36
0.0
 17
0.0
 27
1.0
 37
0.0
 76
     0
330
1B
  0
LAYOUT
  5
26
102
{ACAD_REACTORS
330
1A
102
}
330
1A
100
AcDbPlotSettings
  1

  2
none_device
  4

  6

 40
0.0
 41
0.0
 42
0.0
 43
0.0
 44
0.0
 45
0.0
 46
0.0
 47
0.0
 48
0.0
 49
0.0
140
0.0
141
0.0
142
1.0
143
1.0
 70
   688
 72
     1
 73
     0
 74
     5
  7

 75
    16
147
1.0
148
0.0
149
0.0
100
AcDbLayout
  1
Layout2
 70
     1
 71
     2
 10
0.0
 20
0.0
 11
0.0
 21
0.0
 12
0.0
 22
0.0
 32
0.0
 14
0.0
 24
0.0
 34
0.0
 15
0.0
 25
0.0
 35
0.0
146
0.0
 13
0.0
 23
0.0
 33
0.0
 16
1.0
 26
0.0
 36
0.0
 17
0.0
 27
1.0
 37
0.0
 76
     0
330
23
  0
LAYOUT
  5
22
102
{ACAD_REACTORS
330
1A
102
}
330
1A
100
AcDbPlotSettings
  1

  2
none_device
  4
ANSI_A_(11.00_x_8.50_Inches)
  6

 40
6.35
 41
19.05
 42
6.35000508
 43
19.05000254
 44
279.4
 45
215.9
 46
154.1920544397954
 47
101.8331407099376
 48
0.0
 49
0.0
140
0.0
141
0.0
142
0.0800735294117647
143
1.0
 70
  1696
 72
     0
 73
     0
 74
     0
  7

 75
     0
147
0.0235690232323232
148
0.0
149
0.0
100
AcDbLayout
  1
Model
 70
     1
 71
     0
 10
0.0
 20
0.0
 11
420.0
 21
297.0
 12
0.0
 22
0.0
 32
0.0
 14
-59.03484065240882
 24
-49.97180738881174
 34
0.0
 15
53.06538910758555
 25
39.6235281925114
 35
0.0
146
0.0
 13
0.0
 23
0.0
 33
0.0
 16
1.0
 26
0.0
 36
0.0
 17
0.0
 27
1.0
 37
0.0
 76
     0
330
1F
331
29
  0
MLINESTYLE
  5
18
102
{ACAD_REACTORS
330
17
102
}
330
17
100
AcDbMlineStyle
  2
Standard
 70
     0
  3

 62
   256
 51
90.0
 52
90.0
 71
     2
 49
0.5
 62
   256
  6
BYLAYER
 49
-0.5
 62
   256
  6
BYLAYER
  0
ACDBPLACEHOLDER
  5
F
102
{ACAD_REACTORS
330
E
102
}
330
E
  0
SCALE
  5
48
102
{ACAD_REACTORS
330
47
102
}
330
47
100
AcDbScale
 70
     0
300
1:1
140
1.0
141
1.0
290
     1
  0
SCALE
  5
49
102
{ACAD_REACTORS
330
47
102
}
330
47
100
AcDbScale
 70
     0
300
1:2
140
1.0
141
2.0
290
     0
  0
SCALE
  5
4A
102
{ACAD_REACTORS
330
47
102
}
330
47
100
AcDbScale
 70
     0
300
1:4
140
1.0
141
4.0
290
     0
  0
SCALE
  5
4B
102
{ACAD_REACTORS
330
47
102
}
330
47
100
AcDbScale
 70
     0
300
1:5
140
1.0
141
5.0
290
     0
  0
SCALE
  5
4C
102
{ACAD_REACTORS
330
47
102
}
330
47
100
AcDbScale
 70
     0
300
1:8
140
1.0
141
8.0
290
     0
  0
SCALE
  5
4D
102
{ACAD_REACTORS
330
47
102
}
330
47
100
AcDbScale
 70
     0
300
1:10
140
1.0
141
10.0
290
     0
  0
SCALE
  5
4E
102
{ACAD_REACTORS
330
47
102
}
330
47
100
AcDbScale
 70
     0
300
1:16
140
1.0
141
16.0
290
     0
  0
SCALE
  5
4F
102
{ACAD_REACTORS
330
47
102
}
330
47
100
AcDbScale
 70
     0
300
1:20
140
1.0
141
20.0
290
     0
  0
SCALE
  5
50
102
{ACAD_REACTORS
330
47
102
}
330
47
100
AcDbScale
 70
     0
300
1:30
140
1.0
141
30.0
290
     0
  0
SCALE
  5
51
102
{ACAD_REACTORS
330
47
102
}
330
47
100
AcDbScale
 70
     0
300
1:40
140
1.0
141
40.0
290
     0
  0
SCALE
  5
52
102
{ACAD_REACTORS
330
47
102
}
330
47
100
AcDbScale
 70
     0
300
1:50
140
1.0
141
50.0
290
     0
  0
SCALE
  5
53
102
{ACAD_REACTORS
330
47
102
}
330
47
100
AcDbScale
 70
     0
300
1:100
140
1.0
141
100.0
290
     0
  0
SCALE
  5
54
102
{ACAD_REACTORS
330
47
102
}
330
47
100
AcDbScale
 70
     0
300
2:1
140
2.0
141
1.0
290
     0
  0
SCALE
  5
55
102
{ACAD_REACTORS
330
47
102
}
330
47
100
AcDbScale
 70
     0
300
4:1
140
4.0
141
1.0
290
     0
  0
SCALE
  5
56
102
{ACAD_REACTORS
330
47
102
}
330
47
100
AcDbScale
 70
     0
300
8:1
140
8.0
141
1.0
290
     0
  0
SCALE
  5
57
102
{ACAD_REACTORS
330
47
102
}
330
47
100
AcDbScale
 70
     0
300
10:1
140
10.0
141
1.0
290
     0
  0
SCALE
  5
58
102
{ACAD_REACTORS
330
47
102
}
330
47
100
AcDbScale
 70
     0
300
100:1
140
100.0
141
1.0
290
     0
  0
SCALE
  5
59
102
{ACAD_REACTORS
330
47
102
}
330
47
100
AcDbScale
 70
     0
300
1/128" = 1'-0"
140
0.0078125
141
12.0
290
     0
  0
SCALE
  5
5A
102
{ACAD_REACTORS
330
47
102
}
330
47
100
AcDbScale
 70
     0
300
1/64" = 1'-0"
140
0.015625
141
12.0
290
     0
  0
SCALE
  5
5B
102
{ACAD_REACTORS
330
47
102
}
330
47
100
AcDbScale
 70
     0
300
1/32" = 1'-0"
140
0.03125
141
12.0
290
     0
  0
SCALE
  5
5C
102
{ACAD_REACTORS
330
47
102
}
330
47
100
AcDbScale
 70
     0
300
1/16" = 1'-0"
140
0.0625
141
12.0
290
     0
  0
SCALE
  5
5D
102
{ACAD_REACTORS
330
47
102
}
330
47
100
AcDbScale
 70
     0
300
3/32" = 1'-0"
140
0.09375
141
12.0
290
     0
  0
SCALE
  5
5E
102
{ACAD_REACTORS
330
47
102
}
330
47
100
AcDbScale
 70
     0
300
1/8" = 1'-0"
140
0.125
141
12.0
290
     0
  0
SCALE
  5
5F
102
{ACAD_REACTORS
330
47
102
}
330
47
100
AcDbScale
 70
     0
300
3/16" = 1'-0"
140
0.1875
141
12.0
290
     0
  0
SCALE
  5
60
102
{ACAD_REACTORS
330
47
102
}
330
47
100
AcDbScale
 70
     0
300
1/4" = 1'-0"
140
0.25
141
12.0
290
     0
  0
SCALE
  5
61
102
{ACAD_REACTORS
330
47
102
}
330
47
100
AcDbScale
 70
     0
300
3/8" = 1'-0"
140
0.375
141
12.0
290
     0
  0
SCALE
  5
62
102
{ACAD_REACTORS
330
47
102
}
330
47
100
AcDbScale
 70
     0
300
1/2" = 1'-0"
140
0.5
141
12.0
290
     0
  0
SCALE
  5
63
102
{ACAD_REACTORS
330
47
102
}
330
47
100
AcDbScale
 70
     0
300
3/4" = 1'-0"
140
0.75
141
12.0
290
     0
  0
SCALE
  5
64
102
{ACAD_REACTORS
330
47
102
}
330
47
100
AcDbScale
 70
     0
300
1" = 1'-0"
140
1.0
141
12.0
290
     0
  0
SCALE
  5
65
102
{ACAD_REACTORS
330
47
102
}
330
47
100
AcDbScale
 70
     0
300
1-1/2" = 1'-0"
140
1.5
141
12.0
290
     0
  0
SCALE
  5
66
102
{ACAD_REACTORS
330
47
102
}
330
47
100
AcDbScale
 70
     0
300
3" = 1'-0"
140
3.0
141
12.0
290
     0
  0
SCALE
  5
67
102
{ACAD_REACTORS
330
47
102
}
330
47
100
AcDbScale
 70
     0
300
6" = 1'-0"
140
6.0
141
12.0
290
     0
  0
SCALE
  5
68
102
{ACAD_REACTORS
330
47
102
}
330
47
100
AcDbScale
 70
     0
300
1'-0" = 1'-0"
140
12.0
141
12.0
290
     0
  0
ENDSEC
  0
EOF
