  0
SECTION
  2
HEADER
  9
$ACADVER
  1
AC1015
  9
$ACADMAINTVER
 70
     6
  9
$DWGCODEPAGE
  3
ANSI_949
  9
$INSBASE
 10
0.0
 20
0.0
 30
0.0
  9
$EXTMIN
 10
-101.376002323091
 20
-49.97180738881174
 30
0.0
  9
$EXTMAX
 10
99.98013069755135
 20
63.75174999999988
 30
0.0
  9
$LIMMIN
 10
0.0
 20
0.0
  9
$LIMMAX
 10
420.0
 20
297.0
  9
$ORTHOMODE
 70
     1
  9
$REGENMODE
 70
     1
  9
$FILLMODE
 70
     1
  9
$QTEXTMODE
 70
     0
  9
$MIRRTEXT
 70
     1
  9
$LTSCALE
 40
1.0
  9
$ATTMODE
 70
     1
  9
$TEXTSIZE
 40
3.5
  9
$TRACEWID
 40
1.0
  9
$TEXTSTYLE
  7
Standard
  9
$CLAYER
  8
0
  9
$CELTYPE
  6
ByLayer
  9
$CECOLOR
 62
   256
  9
$CELTSCALE
 40
1.0
  9
$DISPSILH
 70
     0
  9
$DIMSCALE
 40
1.0
  9
$DIMASZ
 40
3.302
  9
$DIMEXO
 40
1.0
  9
$DIMDLI
 40
3.75
  9
$DIMRND
 40
0.0
  9
$DIMDLE
 40
0.0
  9
$DIMEXE
 40
1.0
  9
$DIMTP
 40
0.0
  9
$DIMTM
 40
0.0
  9
$DIMTXT
 40
3.5
  9
$DIMCEN
 40
2.5
  9
$DIMTSZ
 40
0.0
  9
$DIMTOL
 70
     0
  9
$DIMLIM
 70
     0
  9
$DIMTIH
 70
     1
  9
$DIMTOH
 70
     1
  9
$DIMSE1
 70
     0
  9
$DIMSE2
 70
     0
  9
$DIMTAD
 70
     1
  9
$DIMZIN
 70
     0
  9
$DIMBLK
  1

  9
$DIMASO
 70
     1
  9
$DIMSHO
 70
     1
  9
$DIMPOST
  1

  9
$DIMAPOST
  1

  9
$DIMALT
 70
     0
  9
$DIMALTD
 70
     3
  9
$DIMALTF
 40
0.0393700787401575
  9
$DIMLFAC
 40
1.0
  9
$DIMTOFL
 70
     1
  9
$DIMTVP
 40
0.0
  9
$DIMTIX
 70
     0
  9
$DIMSOXD
 70
     0
  9
$DIMSAH
 70
     0
  9
$DIMBLK1
  1

  9
$DIMBLK2
  1

  9
$DIMSTYLE
  2
ISO-25
  9
$DIMCLRD
 70
     0
  9
$DIMCLRE
 70
     0
  9
$DIMCLRT
 70
     0
  9
$DIMTFAC
 40
1.0
  9
$DIMGAP
 40
1.524
  9
$DIMJUST
 70
     0
  9
$DIMSD1
 70
     0
  9
$DIMSD2
 70
     0
  9
$DIMTOLJ
 70
     0
  9
$DIMTZIN
 70
     0
  9
$DIMALTZ
 70
     0
  9
$DIMALTTZ
 70
     0
  9
$DIMUPT
 70
     0
  9
$DIMDEC
 70
     2
  9
$DIMTDEC
 70
     2
  9
$DIMALTU
 70
     2
  9
$DIMALTTD
 70
     3
  9
$DIMTXSTY
  7
Standard
  9
$DIMAUNIT
 70
     0
  9
$DIMADEC
 70
     2
  9
$DIMALTRND
 40
0.0
  9
$DIMAZIN
 70
     0
  9
$DIMDSEP
 70
    44
  9
$DIMATFIT
 70
     3
  9
$DIMFRAC
 70
     0
  9
$DIMLDRBLK
  1

  9
$DIMLUNIT
 70
     2
  9
$DIMLWD
 70
    -2
  9
$DIMLWE
 70
    -2
  9
$DIMTMOVE
 70
     0
  9
$LUNITS
 70
     2
  9
$LUPREC
 70
     2
  9
$SKETCHINC
 40
1.0
  9
$FILLETRAD
 40
10.0
  9
$AUNITS
 70
     0
  9
$AUPREC
 70
     2
  9
$MENU
  1
.
  9
$ELEVATION
 40
0.0
  9
$PELEVATION
 40
0.0
  9
$THICKNESS
 40
0.0
  9
$LIMCHECK
 70
     0
  9
$CHAMFERA
 40
0.0
  9
$CHAMFERB
 40
0.0
  9
$CHAMFERC
 40
0.0
  9
$CHAMFERD
 40
0.0
  9
$SKPOLY
 70
     0
  9
$TDCREATE
 40
2458270.781788044
  9
$TDUCREATE
 40
2458270.406788044
  9
$TDUPDATE
 40
2459720.746677187
  9
$TDUUPDATE
 40
2459720.371677187
  9
$TDINDWG
 40
0.0099974884
  9
$TDUSRTIMER
 40
0.0016869792
  9
$USRTIMER
 70
     1
  9
$ANGBASE
 50
0.0
  9
$ANGDIR
 70
     0
  9
$PDMODE
 70
     0
  9
$PDSIZE
 40
-1.0
  9
$PLINEWID
 40
0.0
  9
$SPLFRAME
 70
     0
  9
$SPLINETYPE
 70
     6
  9
$SPLINESEGS
 70
     8
  9
$HANDSEED
  5
347
  9
$SURFTAB1
 70
     6
  9
$SURFTAB2
 70
     6
  9
$SURFTYPE
 70
     6
  9
$SURFU
 70
     6
  9
$SURFV
 70
     6
  9
$UCSBASE
  2

  9
$UCSNAME
  2

  9
$UCSORG
 10
0.0
 20
0.0
 30
0.0
  9
$UCSXDIR
 10
1.0
 20
0.0
 30
0.0
  9
$UCSYDIR
 10
0.0
 20
1.0
 30
0.0
  9
$UCSORTHOREF
  2

  9
$UCSORTHOVIEW
 70
     0
  9
$UCSORGTOP
 10
0.0
 20
0.0
 30
0.0
  9
$UCSORGBOTTOM
 10
0.0
 20
0.0
 30
0.0
  9
$UCSORGLEFT
 10
0.0
 20
0.0
 30
0.0
  9
$UCSORGRIGHT
 10
0.0
 20
0.0
 30
0.0
  9
$UCSORGFRONT
 10
0.0
 20
0.0
 30
0.0
  9
$UCSORGBACK
 10
0.0
 20
0.0
 30
0.0
  9
$PUCSBASE
  2

  9
$PUCSNAME
  2

  9
$PUCSORG
 10
0.0
 20
0.0
 30
0.0
  9
$PUCSXDIR
 10
1.0
 20
0.0
 30
0.0
  9
$PUCSYDIR
 10
0.0
 20
1.0
 30
0.0
  9
$PUCSORTHOREF
  2

  9
$PUCSORTHOVIEW
 70
     0
  9
$PUCSORGTOP
 10
0.0
 20
0.0
 30
0.0
  9
$PUCSORGBOTTOM
 10
0.0
 20
0.0
 30
0.0
  9
$PUCSORGLEFT
 10
0.0
 20
0.0
 30
0.0
  9
$PUCSORGRIGHT
 10
0.0
 20
0.0
 30
0.0
  9
$PUCSORGFRONT
 10
0.0
 20
0.0
 30
0.0
  9
$PUCSORGBACK
 10
0.0
 20
0.0
 30
0.0
  9
$USERI1
 70
     0
  9
$USERI2
 70
     0
  9
$USERI3
 70
     0
  9
$USERI4
 70
     0
  9
$USERI5
 70
     0
  9
$USERR1
 40
0.0
  9
$USERR2
 40
0.0
  9
$USERR3
 40
0.0
  9
$USERR4
 40
0.0
  9
$USERR5
 40
0.0
  9
$WORLDVIEW
 70
     1
  9
$SHADEDGE
 70
     3
  9
$SHADEDIF
 70
    70
  9
$TILEMODE
 70
     1
  9
$MAXACTVP
 70
    64
  9
$PINSBASE
 10
0.0
 20
0.0
 30
0.0
  9
$PLIMCHECK
 70
     0
  9
$PEXTMIN
 10
1.000000000000000E+20
 20
1.000000000000000E+20
 30
1.000000000000000E+20
  9
$PEXTMAX
 10
-1.000000000000000E+20
 20
-1.000000000000000E+20
 30
-1.000000000000000E+20
  9
$PLIMMIN
 10
0.0
 20
0.0
  9
$PLIMMAX
 10
0.0
 20
0.0
  9
$UNITMODE
 70
     0
  9
$VISRETAIN
 70
     1
  9
$PLINEGEN
 70
     0
  9
$PSLTSCALE
 70
     1
  9
$TREEDEPTH
 70
  3020
  9
$CMLSTYLE
  2
Standard
  9
$CMLJUST
 70
     0
  9
$CMLSCALE
 40
20.0
  9
$PROXYGRAPHICS
 70
     1
  9
$MEASUREMENT
 70
     1
  9
$CELWEIGHT
370
    -1
  9
$ENDCAPS
280
     0
  9
$JOINSTYLE
280
     0
  9
$LWDISPLAY
290
     1
  9
$INSUNITS
 70
     4
  9
$HYPERLINKBASE
  1

  9
$STYLESHEET
  1

  9
$XEDIT
290
     1
  9
$CEPSNTYPE
380
     0
  9
$PSTYLEMODE
290
     1
  9
$FINGERPRINTGUID
  2
{2ADF4CC2-F3B5-4AD1-8104-725347E6FC45}
  9
$VERSIONGUID
  2
{FAEB1C32-E019-11D5-929B-00C0DF256EC4}
  9
$EXTNAMES
290
     1
  9
$PSVPSCALE
 40
0.0
  9
$OLESTARTUP
290
     0
  0
ENDSEC
  0
SECTION
  2
CLASSES
  0
CLASS
  1
ACDBDICTIONARYWDFLT
  2
AcDbDictionaryWithDefault
  3
ObjectDBX Classes
 90
        0
280
     0
281
     0
  0
CLASS
  1
VISUALSTYLE
  2
AcDbVisualStyle
  3
ObjectDBX Classes
 90
     4095
280
     0
281
     0
  0
CLASS
  1
MATERIAL
  2
AcDbMaterial
  3
ObjectDBX Classes
 90
     1153
280
     0
281
     0
  0
CLASS
  1
SCALE
  2
AcDbScale
  3
ObjectDBX Classes
 90
     1153
280
     0
281
     0
  0
CLASS
  1
SUN
  2
AcDbSun
  3
SCENEOE
 90
     1153
280
     0
281
     0
  0
CLASS
  1
ACDBPLACEHOLDER
  2
AcDbPlaceHolder
  3
ObjectDBX Classes
 90
        0
280
     0
281
     0
  0
CLASS
  1
LAYOUT
  2
AcDbLayout
  3
ObjectDBX Classes
 90
        0
280
     0
281
     0
  0
CLASS
  1
TABLESTYLE
  2
AcDbTableStyle
  3
ObjectDBX Classes
 90
     4095
280
     0
281
     0
  0
CLASS
  1
MLEADERSTYLE
  2
AcDbMLeaderStyle
  3
ACDB_MLEADERSTYLE_CLASS
 90
     4095
280
     0
281
     0
  0
CLASS
  1
RASTERVARIABLES
  2
AcDbRasterVariables
  3
ISM
 90
        0
280
     0
281
     0
  0
CLASS
  1
DICTIONARYVAR
  2
AcDbDictionaryVar
  3
ObjectDBX Classes
 90
        0
280
     0
281
     0
  0
CLASS
  1
BREAKDATA
  2
AcDbBreakData
  3
ObjectDBX Classes
 90
     1024
280
     0
281
     0
  0
ENDSEC
  0
SECTION
  2
TABLES
  0
TABLE
  2
VPORT
  5
8
330
0
100
AcDbSymbolTable
 70
     1
  0
VPORT
  5
29
330
8
100
AcDbSymbolTableRecord
100
AcDbViewportTableRecord
  2
*Active
 70
     0
 10
0.0
 20
0.0
 11
1.0
 21
1.0
 12
-0.6979358127698276
 22
6.889971305594074
 13
0.0
 23
0.0
 14
10.0
 24
10.0
 15
10.0
 25
10.0
 16
0.0
 26
0.0
 36
1.0
 17
0.0
 27
0.0
 37
0.0
 40
115.9980285365879
 41
1.913499344692005
 42
50.0
 43
0.0
 44
0.0
 50
0.0
 51
0.0
 71
    16
 72
  2000
 73
     1
 74
     3
 75
     0
 76
     0
 77
     0
 78
     0
281
     0
 65
     1
110
0.0
120
0.0
130
0.0
111
1.0
121
0.0
131
0.0
112
0.0
122
1.0
132
0.0
 79
     0
146
0.0
  0
ENDTAB
  0
TABLE
  2
LTYPE
  5
5
330
0
100
AcDbSymbolTable
 70
     6
  0
LTYPE
  5
14
330
5
100
AcDbSymbolTableRecord
100
AcDbLinetypeTableRecord
  2
ByBlock
 70
     0
  3

 72
    65
 73
     0
 40
0.0
  0
LTYPE
  5
15
330
5
100
AcDbSymbolTableRecord
100
AcDbLinetypeTableRecord
  2
ByLayer
 70
     0
  3

 72
    65
 73
     0
 40
0.0
  0
LTYPE
  5
16
330
5
100
AcDbSymbolTableRecord
100
AcDbLinetypeTableRecord
  2
Continuous
 70
     0
  3
Solid line
 72
    65
 73
     0
 40
0.0
  0
LTYPE
  5
6A
330
5
100
AcDbSymbolTableRecord
100
AcDbLinetypeTableRecord
  2
HIDDEN
 70
     0
  3
Hidden __ __ __ __ __ __ __ __ __ __ __ __ __ __
 72
    65
 73
     2
 40
1.905
 49
1.27
 74
     0
 49
-0.635
 74
     0
  0
LTYPE
  5
6B
330
5
100
AcDbSymbolTableRecord
100
AcDbLinetypeTableRecord
  2
PHANTOM
 70
     0
  3
Phantom ______  __  __  ______  __  __  ______
 72
    65
 73
     6
 40
12.7
 49
6.35
 74
     0
 49
-1.27
 74
     0
 49
1.27
 74
     0
 49
-1.27
 74
     0
 49
1.27
 74
     0
 49
-1.27
 74
     0
  0
LTYPE
  5
6C
330
5
100
AcDbSymbolTableRecord
100
AcDbLinetypeTableRecord
  2
CENTER
 70
     0
  3
Center ____ _ ____ _ ____ _ ____ _ ____ _ ____
 72
    65
 73
     4
 40
10.16
 49
6.35
 74
     0
 49
-1.27
 74
     0
 49
1.27
 74
     0
 49
-1.27
 74
     0
  0
LTYPE
  5
6D
330
5
100
AcDbSymbolTableRecord
100
AcDbLinetypeTableRecord
  2
CENTERX2
 70
     0
  3
Center (2x) ________  __  ________  __  _____
 72
    65
 73
     4
 40
20.32
 49
12.7
 74
     0
 49
-2.54
 74
     0
 49
2.54
 74
     0
 49
-2.54
 74
     0
  0
LTYPE
  5
6E
330
5
100
AcDbSymbolTableRecord
100
AcDbLinetypeTableRecord
  2
DOT2
 70
     0
  3
Dot (.5x) ........................................
 72
    65
 73
     2
 40
0.635
 49
0.0
 74
     0
 49
-0.635
 74
     0
  0
ENDTAB
  0
TABLE
  2
LAYER
  5
2
330
0
100
AcDbSymbolTable
 70
    17
  0
LAYER
  5
10
330
2
100
AcDbSymbolTableRecord
100
AcDbLayerTableRecord
  2
0
 70
     0
 62
     7
  6
Continuous
370
    -3
390
F
  0
LAYER
  5
6F
330
2
100
AcDbSymbolTableRecord
100
AcDbLayerTableRecord
  2
FORMAT
 70
     0
 62
     2
  6
Continuous
370
    -3
390
F
  0
LAYER
  5
70
330
2
100
AcDbSymbolTableRecord
100
AcDbLayerTableRecord
  2
외형선
 70
     0
 62
   100
  6
Continuous
370
    30
390
F
  0
LAYER
  5
71
330
2
100
AcDbSymbolTableRecord
100
AcDbLayerTableRecord
  2
숨은선
 70
     0
 62
     2
  6
HIDDEN
370
    15
390
F
  0
LAYER
  5
72
330
2
100
AcDbSymbolTableRecord
100
AcDbLayerTableRecord
  2
중심선
 70
     0
 62
     1
  6
CENTERX2
370
    -3
390
F
  0
LAYER
  5
73
330
2
100
AcDbSymbolTableRecord
100
AcDbLayerTableRecord
  2
파단선
 70
     0
 62
     4
  6
Continuous
370
    -3
390
F
  0
LAYER
  5
74
330
2
100
AcDbSymbolTableRecord
100
AcDbLayerTableRecord
  2
해칭선
 70
     0
 62
     4
  6
Continuous
370
    -3
390
F
  0
LAYER
  5
75
330
2
100
AcDbSymbolTableRecord
100
AcDbLayerTableRecord
  2
가는실선
 70
     0
 62
     4
  6
Continuous
370
    -3
390
F
  0
LAYER
  5
76
330
2
100
AcDbSymbolTableRecord
100
AcDbLayerTableRecord
  2
치수_보조선
 70
     0
 62
     4
  6
Continuous
370
    -3
390
F
  0
LAYER
  5
77
330
2
100
AcDbSymbolTableRecord
100
AcDbLayerTableRecord
  2
치수문자_일반주서
 70
     0
 62
     7
  6
Continuous
370
    15
390
F
  0
LAYER
  5
78
330
2
100
AcDbSymbolTableRecord
100
AcDbLayerTableRecord
  2
개별주서
 70
     0
 62
   100
  6
Continuous
370
    30
390
F
  0
LAYER
  5
79
330
2
100
AcDbSymbolTableRecord
100
AcDbLayerTableRecord
  2
중간선
 70
     0
 62
     2
  6
Continuous
370
    15
390
F
  0
LAYER
  5
7A
330
2
100
AcDbSymbolTableRecord
100
AcDbLayerTableRecord
  2
윤곽선
 70
     0
 62
     3
  6
Continuous
370
    40
390
F
  0
LAYER
  5
7B
330
2
100
AcDbSymbolTableRecord
100
AcDbLayerTableRecord
  2
중심마크
 70
     0
 62
   100
  6
Continuous
370
    30
390
F
  0
LAYER
  5
7C
330
2
100
AcDbSymbolTableRecord
100
AcDbLayerTableRecord
  2
가상선
 70
     0
 62
     4
  6
PHANTOM
370
    -3
390
F
  0
LAYER
  5
7D
330
2
100
AcDbSymbolTableRecord
100
AcDbLayerTableRecord
  2
특수지정선
 70
     0
 62
     5
  6
CENTERX2
370
    60
390
F
  0
LAYER
  5
2BF
330
2
100
AcDbSymbolTableRecord
100
AcDbLayerTableRecord
  2
Defpoints
 70
     0
 62
     7
  6
Continuous
290
     0
370
    -3
390
F
  0
ENDTAB
  0
TABLE
  2
STYLE
  5
3
330
0
100
AcDbSymbolTable
 70
     2
  0
STYLE
  5
11
330
3
100
AcDbSymbolTableRecord
100
AcDbTextStyleTableRecord
  2
Standard
 70
     0
 40
0.0
 41
1.0
 50
0.0
 71
     0
 42
3.5
  3
txt
  4

  0
STYLE
  5
93
330
3
100
AcDbSymbolTableRecord
100
AcDbTextStyleTableRecord
  2
SLDTEXTSTYLE0
 70
     0
 40
0.0
 41
0.75
 50
0.0
 71
     0
 42
3.5
  3
TXT
  4

  0
ENDTAB
  0
TABLE
  2
VIEW
  5
6
330
0
100
AcDbSymbolTable
 70
     0
  0
ENDTAB
  0
TABLE
  2
UCS
  5
7
330
0
100
AcDbSymbolTable
 70
     0
  0
ENDTAB
  0
TABLE
  2
APPID
  5
9
330
0
100
AcDbSymbolTable
 70
     3
  0
APPID
  5
12
330
9
100
AcDbSymbolTableRecord
100
AcDbRegAppTableRecord
  2
ACAD
 70
     0
  0
APPID
  5
2CF
330
9
100
AcDbSymbolTableRecord
100
AcDbRegAppTableRecord
  2
PE_DIMMEASUREMENT
 70
     0
  0
APPID
  5
343
330
9
100
AcDbSymbolTableRecord
100
AcDbRegAppTableRecord
  2
ENABLE_CUSTOM_SPLIT
 70
     0
  0
ENDTAB
  0
TABLE
  2
DIMSTYLE
  5
A
330
0
100
AcDbSymbolTable
 70
     3
100
AcDbDimStyleTable
  0
DIMSTYLE
105
27
330
A
100
AcDbSymbolTableRecord
100
AcDbDimStyleTableRecord
  2
ISO-25
 70
     0
 41
2.5
 42
0.625
 43
3.75
 44
1.25
 73
     0
 74
     0
 77
     1
 78
     8
140
2.5
141
2.5
143
0.03937007874016
147
0.625
171
     3
172
     1
178
     0
271
     2
272
     2
274
     3
278
    44
283
     0
284
     8
340
11
  0
DIMSTYLE
105
253
102
{ACAD_REACTORS
330
252
330
27C
330
2C0
102
}
330
A
100
AcDbSymbolTableRecord
100
AcDbDimStyleTableRecord
  2
SLDDIMSTYLE0
 70
     0
 41
3.302
 44
0.0
 45
0.000000001
 73
     0
 74
     0
 77
     1
 78
     4
 79
     1
140
3.5
143
0.0393700787401575
147
0.875
148
0.000000001
170
     1
172
     1
173
     1
178
     0
271
     2
272
     2
276
     2
284
    12
289
     0
340
93
  0
DIMSTYLE
105
269
102
{ACAD_REACTORS
330
268
102
}
330
A
100
AcDbSymbolTableRecord
100
AcDbDimStyleTableRecord
  2
SLDDIMSTYLE1
 70
     0
 41
3.302
 44
0.0
 45
0.000000001
 73
     0
 74
     0
 77
     1
 78
     4
 79
     1
140
3.5
143
0.0393700787401575
147
0.875
148
0.000000001
170
     1
173
     1
178
     0
271
     2
272
     2
276
     2
284
    12
340
93
  0
ENDTAB
  0
TABLE
  2
BLOCK_RECORD
  5
1
330
0
100
AcDbSymbolTable
 70
     7
  0
BLOCK_RECORD
  5
1F
102
{ACAD_XDICTIONARY
360
344
102
}
330
1
100
AcDbSymbolTableRecord
100
AcDbBlockTableRecord
  2
*Model_Space
340
22
  0
BLOCK_RECORD
  5
1B
330
1
100
AcDbSymbolTableRecord
100
AcDbBlockTableRecord
  2
*Paper_Space
340
1E
  0
BLOCK_RECORD
  5
23
330
1
100
AcDbSymbolTableRecord
100
AcDbBlockTableRecord
  2
*Paper_Space0
340
26
  0
BLOCK_RECORD
  5
7E
330
1
100
AcDbSymbolTableRecord
100
AcDbBlockTableRecord
  2
블럭10
340
0
102
{BLKREFS
331
24A
102
}
  0
BLOCK_RECORD
  5
254
330
1
100
AcDbSymbolTableRecord
100
AcDbBlockTableRecord
  2
_D
340
0
  0
BLOCK_RECORD
  5
26A
330
1
100
AcDbSymbolTableRecord
100
AcDbBlockTableRecord
  2
_D_1
340
0
  0
BLOCK_RECORD
  5
27D
330
1
100
AcDbSymbolTableRecord
100
AcDbBlockTableRecord
  2
_D_2
340
0
  0
BLOCK_RECORD
  5
290
330
1
100
AcDbSymbolTableRecord
100
AcDbBlockTableRecord
  2
SW_DOWELSYMBOL_0
340
0
102
{BLKREFS
331
296
102
}
  0
BLOCK_RECORD
  5
2C1
330
1
100
AcDbSymbolTableRecord
100
AcDbBlockTableRecord
  2
*D6
340
0
  0
ENDTAB
  0
ENDSEC
  0
SECTION
  2
BLOCKS
  0
BLOCK
  5
20
330
1F
100
AcDbEntity
  8
0
100
AcDbBlockBegin
  2
*Model_Space
 70
     0
 10
0.0
 20
0.0
 30
0.0
  3
*Model_Space
  1
*Model_Space
  0
ENDBLK
  5
21
330
1F
100
AcDbEntity
  8
0
100
AcDbBlockEnd
  0
BLOCK
  5
1C
330
1B
100
AcDbEntity
 67
     1
  8
0
100
AcDbBlockBegin
  2
*Paper_Space
 70
     0
 10
0.0
 20
0.0
 30
0.0
  3
*Paper_Space
  1
*Paper_Space
  0
ENDBLK
  5
1D
330
1B
100
AcDbEntity
 67
     1
  8
0
100
AcDbBlockEnd
  0
BLOCK
  5
24
330
23
100
AcDbEntity
  8
0
100
AcDbBlockBegin
  2
*Paper_Space0
 70
     0
 10
0.0
 20
0.0
 30
0.0
  3
*Paper_Space0
  1
*Paper_Space0
  0
ENDBLK
  5
25
330
23
100
AcDbEntity
  8
0
100
AcDbBlockEnd
  0
BLOCK
  5
7F
330
7E
100
AcDbEntity
  8
0
100
AcDbBlockBegin
  2
블럭10
 70
     2
 10
0.0
 20
0.0
 30
0.0
  3
블럭10
  1
블럭10
  0
ELLIPSE
  5
81
330
7E
100
AcDbEntity
  8
중심선
100
AcDbEllipse
 10
20.54032771741204
 20
12.0471743016438
 30
0.0
 11
6.600054785286829
 21
-1.261213355974178E-13
 31
0.0
210
0.0
220
0.0
230
1.0
 40
0.636358354079598
 41
0.9219305317359503
 42
6.513795318482858
  0
ELLIPSE
  5
82
330
7E
100
AcDbEntity
  8
중심선
100
AcDbEllipse
 10
20.54032771746488
 20
12.04717430159265
 30
0.0
 11
3.960054785062283
 21
1.540847449632565E-10
 31
0.0
210
0.0
220
0.0
230
1.0
 40
0.3939339440162632
 41
1.131841032648279
 42
5.62031148352944
  0
LINE
  5
83
330
7E
100
AcDbEntity
  8
중심선
100
AcDbLine
 10
2.268634060543552
 20
16.24717430164393
 30
0.0
 11
5.714909304380834
 21
16.24717430164393
 31
0.0
  0
LINE
  5
84
330
7E
100
AcDbEntity
  8
중심선
100
AcDbLine
 10
5.245725140726316
 20
7.84717430164391
 30
0.0
 11
8.692000384563599
 21
7.84717430164391
 31
0.0
  0
LINE
  5
85
330
7E
100
AcDbEntity
  8
중심선
100
AcDbLine
 10
15.74043728645272
 20
16.24717430164393
 30
0.0
 11
8.692000384563599
 21
7.84717430164391
 31
0.0
  0
LINE
  5
86
330
7E
100
AcDbEntity
  8
중심선
100
AcDbLine
 10
0.1404042013395286
 20
13.71084872107135
 30
0.0
 11
3.58671253028996
 21
13.71088815037384
 31
0.0
  0
LINE
  5
87
330
7E
100
AcDbEntity
  8
중심선
100
AcDbLine
 10
2.750260043222114
 20
10.84717430164391
 30
0.0
 11
6.196535287059397
 21
10.84717430164391
 31
0.0
  0
LINE
  5
88
330
7E
100
AcDbEntity
  8
중심선
100
AcDbLine
 10
12.29416204261559
 20
16.24717430164393
 30
0.0
 11
5.245725140726316
 21
7.84717430164391
 31
0.0
  0
LINE
  5
89
330
7E
100
AcDbEntity
  8
중심선
100
AcDbLine
 10
10.72767329541681
 20
16.24717430164393
 30
0.0
 11
6.196535287059397
 21
10.84717430164391
 31
0.0
  0
LINE
  5
8A
330
7E
100
AcDbEntity
  8
중심선
100
AcDbLine
 10
7.28139805157953
 20
16.24717430164393
 30
0.0
 11
2.750260043222114
 21
10.84717430164391
 31
0.0
  0
LINE
  5
8B
330
7E
100
AcDbEntity
  8
중심선
100
AcDbLine
 10
5.714909304380834
 20
16.24717430164393
 30
0.0
 11
3.58671253028996
 21
13.71088815037384
 31
0.0
  0
LINE
  5
8C
330
7E
100
AcDbEntity
  8
중심선
100
AcDbLine
 10
2.268634060543552
 20
16.24717430164393
 30
0.0
 11
0.1404042013395286
 21
13.71084872107135
 31
0.0
  0
LINE
  5
8D
330
7E
100
AcDbEntity
  8
중심선
100
AcDbLine
 10
7.28139805157953
 20
16.24717430164393
 30
0.0
 11
10.72767329541681
 21
16.24717430164393
 31
0.0
  0
LINE
  5
8E
330
7E
100
AcDbEntity
  8
중심선
100
AcDbLine
 10
12.29416204261559
 20
16.24717430164393
 30
0.0
 11
15.74043728645272
 21
16.24717430164393
 31
0.0
  0
LINE
  5
8F
330
7E
100
AcDbEntity
  8
중심선
100
AcDbLine
 10
19.22036997980202
 20
11.08717430171403
 30
0.0
 11
23.66174974927406
 21
11.08717430171406
 31
0.0
  0
LINE
  5
90
330
7E
100
AcDbEntity
  8
중심선
100
AcDbLine
 10
19.22039502424796
 20
13.00717430171391
 30
0.0
 11
19.22036997980202
 21
11.08717430171403
 31
0.0
  0
LINE
  5
91
330
7E
100
AcDbEntity
  8
중심선
100
AcDbLine
 10
19.22039502424796
 20
13.00717430171391
 30
0.0
 11
26.96566020931264
 21
13.00717430171391
 31
0.0
  0
LINE
  5
92
330
7E
100
AcDbEntity
  8
중심선
100
AcDbLine
 10
22.22332737316547
 20
13.45928029700563
 30
0.0
 11
24.52862924686651
 21
15.39360700705356
 31
0.0
  0
ATTDEF
  5
94
330
7E
100
AcDbEntity
  8
FORMAT
 62
     2
100
AcDbText
 10
-9.067621780574013
 20
2.075366912832191
 30
0.0
 40
4.233333333333333
  1
E5E44032 [ 3 FLUTE ]
 41
0.75
  7
SLDTEXTSTYLE0
 11
-9.067621780574013
 21
-0.0412997538344756
 31
0.0
100
AcDbAttributeDefinition
  3

  2
AUTOATTR0
 70
     0
 74
     1
  0
ENDBLK
  5
80
330
7E
100
AcDbEntity
  8
0
100
AcDbBlockEnd
  0
BLOCK
  5
255
330
254
100
AcDbEntity
  8
0
100
AcDbBlockBegin
  2
_D
 70
     0
 10
0.0
 20
0.0
 30
0.0
  3
_D
  1
_D
  0
LINE
  5
257
330
254
100
AcDbEntity
  8
치수문자_일반주서
 62
     0
370
    -2
100
AcDbLine
 10
65.02399984651804
 20
12.76249984651803
 30
0.0
 11
65.02399984651804
 21
39.39076919947174
 31
0.0
  0
LINE
  5
258
330
254
100
AcDbEntity
  8
치수문자_일반주서
 62
     0
370
    -2
100
AcDbLine
 10
20.60832166278361
 20
2.448871086543615
 30
0.0
 11
20.60832166278361
 21
39.39076919947174
 31
0.0
  0
LINE
  5
259
330
254
100
AcDbEntity
  8
치수문자_일반주서
 62
     0
370
    -2
100
AcDbLine
 10
61.72199984651804
 20
39.39076919947174
 30
0.0
 11
23.91032166278361
 21
39.39076919947174
 31
0.0
  0
SOLID
  5
25A
330
254
100
AcDbEntity
  8
치수문자_일반주서
 62
     0
100
AcDbTrace
 10
61.72199984651804
 20
38.84043586613841
 30
0.0
 11
61.72199984651804
 21
39.94110253280508
 31
0.0
 12
65.02399984651804
 22
39.39076919947174
 32
0.0
 13
65.02399984651804
 23
39.39076919947174
 33
0.0
  0
SOLID
  5
25B
330
254
100
AcDbEntity
  8
치수문자_일반주서
 62
     0
100
AcDbTrace
 10
23.91032166278361
 20
39.94110253280508
 30
0.0
 11
23.91032166278361
 21
38.84043586613841
 31
0.0
 12
20.60832166278361
 22
39.39076919947174
 32
0.0
 13
20.60832166278361
 23
39.39076919947174
 33
0.0
  0
MTEXT
  5
25C
330
254
100
AcDbEntity
  8
치수문자_일반주서
 62
     0
100
AcDbMText
 10
39.62399984651803
 20
43.76576919947174
 30
0.0
 40
3.5
 41
0.0
 71
     2
 72
     1
  1
\A1;44.42 [1 3/4]
  7
SLDTEXTSTYLE0
 73
     1
 44
1.0
  0
POINT
  5
25D
330
254
100
AcDbEntity
  8
Defpoints
 62
     0
100
AcDbPoint
 10
65.02399984651804
 20
12.69999984651803
 30
0.0
  0
POINT
  5
25E
330
254
100
AcDbEntity
  8
Defpoints
 62
     0
100
AcDbPoint
 10
20.60832166278361
 20
2.386371086543615
 30
0.0
  0
POINT
  5
25F
330
254
100
AcDbEntity
  8
Defpoints
 62
     0
100
AcDbPoint
 10
20.60832166278361
 20
39.39076919947174
 30
0.0
  0
ENDBLK
  5
256
330
254
100
AcDbEntity
  8
0
100
AcDbBlockEnd
  0
BLOCK
  5
26B
330
26A
100
AcDbEntity
  8
0
100
AcDbBlockBegin
  2
_D_1
 70
     0
 10
0.0
 20
0.0
 30
0.0
  3
_D_1
  1
_D_1
  0
LINE
  5
26D
330
26A
100
AcDbEntity
  8
치수문자_일반주서
 62
     0
370
    -2
100
AcDbLine
 10
65.02399984651804
 20
12.76249984651803
 30
0.0
 11
65.02399984651804
 21
54.44616380535132
 31
0.0
  0
LINE
  5
26E
330
26A
100
AcDbEntity
  8
치수문자_일반주서
 62
     0
370
    -2
100
AcDbLine
 10
-36.57600043958426
 20
11.76249968260526
 30
0.0
 11
-36.57600043958426
 21
54.44616380535132
 31
0.0
  0
LINE
  5
26F
330
26A
100
AcDbEntity
  8
치수문자_일반주서
 62
     0
370
    -2
100
AcDbLine
 10
61.72199984651804
 20
54.44616380535132
 30
0.0
 11
-33.27400043958426
 21
54.44616380535132
 31
0.0
  0
SOLID
  5
270
330
26A
100
AcDbEntity
  8
치수문자_일반주서
 62
     0
100
AcDbTrace
 10
61.72199984651804
 20
53.89583047201798
 30
0.0
 11
61.72199984651804
 21
54.99649713868465
 31
0.0
 12
65.02399984651804
 22
54.44616380535132
 32
0.0
 13
65.02399984651804
 23
54.44616380535132
 33
0.0
  0
SOLID
  5
271
330
26A
100
AcDbEntity
  8
치수문자_일반주서
 62
     0
100
AcDbTrace
 10
-33.27400043958426
 20
54.99649713868465
 30
0.0
 11
-33.27400043958426
 21
53.89583047201798
 31
0.0
 12
-36.57600043958426
 22
54.44616380535132
 32
0.0
 13
-36.57600043958426
 23
54.44616380535132
 33
0.0
  0
MTEXT
  5
272
330
26A
100
AcDbEntity
  8
치수문자_일반주서
 62
     0
100
AcDbMText
 10
-7.152894725472734
 20
58.82116380535132
 30
0.0
 40
3.5
 41
0.0
 71
     2
 72
     1
  1
\A1;101.60 [4]
  7
SLDTEXTSTYLE0
 73
     1
 44
1.0
  0
POINT
  5
273
330
26A
100
AcDbEntity
  8
Defpoints
 62
     0
100
AcDbPoint
 10
65.02399984651804
 20
12.69999984651803
 30
0.0
  0
POINT
  5
274
330
26A
100
AcDbEntity
  8
Defpoints
 62
     0
100
AcDbPoint
 10
-36.57600043958426
 20
11.69999968260526
 30
0.0
  0
POINT
  5
275
330
26A
100
AcDbEntity
  8
Defpoints
 62
     0
100
AcDbPoint
 10
-36.57600043958426
 20
54.44616380535132
 30
0.0
  0
ENDBLK
  5
26C
330
26A
100
AcDbEntity
  8
0
100
AcDbBlockEnd
  0
BLOCK
  5
27E
330
27D
100
AcDbEntity
  8
0
100
AcDbBlockBegin
  2
_D_2
 70
     0
 10
0.0
 20
0.0
 30
0.0
  3
_D_2
  1
_D_2
  0
LINE
  5
280
330
27D
100
AcDbEntity
  8
치수문자_일반주서
 62
     0
370
    -2
100
AcDbLine
 10
-35.6384982699752
 20
12.69999984651804
 30
0.0
 11
-64.11999360559709
 21
12.69999984651793
 31
0.0
  0
LINE
  5
281
330
27D
100
AcDbEntity
  8
치수문자_일반주서
 62
     0
370
    -2
100
AcDbLine
 10
-35.6384982699752
 20
-12.69999984651803
 30
0.0
 11
-64.119993605597
 21
-12.69999984651815
 31
0.0
  0
LINE
  5
282
330
27D
100
AcDbEntity
  8
치수문자_일반주서
 62
     0
370
    -2
100
AcDbLine
 10
-64.11999360559709
 20
12.69999984651793
 30
0.0
 11
-64.11999360559726
 21
63.75174999999988
 31
0.0
  0
LINE
  5
283
330
27D
100
AcDbEntity
  8
치수문자_일반주서
 62
     0
370
    -2
100
AcDbLine
 10
-64.11999360559709
 20
12.69999984651793
 30
0.0
 11
-64.119993605597
 21
-12.69999984651815
 31
0.0
  0
LINE
  5
284
330
27D
100
AcDbEntity
  8
치수문자_일반주서
 62
     0
370
    -2
100
AcDbLine
 10
-64.1199936055971
 20
16.00199984651793
 30
0.0
 11
-64.11999360559712
 21
19.30399984651793
 31
0.0
  0
LINE
  5
285
330
27D
100
AcDbEntity
  8
치수문자_일반주서
 62
     0
370
    -2
100
AcDbLine
 10
-64.11999360559699
 20
-16.00199984651815
 30
0.0
 11
-64.11999360559697
 21
-19.30399984651815
 31
0.0
  0
SOLID
  5
286
330
27D
100
AcDbEntity
  8
치수문자_일반주서
 62
     0
100
AcDbTrace
 10
-64.67032693893043
 20
16.00199984651793
 30
0.0
 11
-63.56966027226377
 21
16.00199984651794
 31
0.0
 12
-64.11999360559709
 22
12.69999984651793
 32
0.0
 13
-64.11999360559709
 23
12.69999984651793
 33
0.0
  0
SOLID
  5
287
330
27D
100
AcDbEntity
  8
치수문자_일반주서
 62
     0
100
AcDbTrace
 10
-63.56966027226365
 20
-16.00199984651814
 30
0.0
 11
-64.67032693893032
 21
-16.00199984651815
 31
0.0
 12
-64.119993605597
 22
-12.69999984651815
 32
0.0
 13
-64.119993605597
 23
-12.69999984651815
 33
0.0
  0
MTEXT
  5
288
330
27D
100
AcDbEntity
  8
치수문자_일반주서
 62
     0
100
AcDbMText
 10
-68.49499360559722
 20
52.59549999999987
 30
0.0
 40
3.5
 41
0.0
 71
     2
 72
     1
  1
\A1;%%c25.40 [1]
  7
SLDTEXTSTYLE0
 11
-3.356894855183372E-15
 21
1.0
 31
0.0
 73
     1
 44
1.0
  0
POINT
  5
2D1
330
27D
100
AcDbEntity
  8
Defpoints
 62
     0
100
AcDbPoint
 10
-35.5759982699752
 20
12.69999984651804
 30
0.0
  0
POINT
  5
2D2
330
27D
100
AcDbEntity
  8
Defpoints
 62
     0
100
AcDbPoint
 10
-35.5759982699752
 20
-12.69999984651803
 30
0.0
  0
POINT
  5
2D3
330
27D
100
AcDbEntity
  8
Defpoints
 62
     0
100
AcDbPoint
 10
-64.119993605597
 20
-12.69999984651814
 30
0.0
  0
ENDBLK
  5
27F
330
27D
100
AcDbEntity
  8
0
100
AcDbBlockEnd
  0
BLOCK
  5
291
330
290
100
AcDbEntity
  8
0
100
AcDbBlockBegin
  2
SW_DOWELSYMBOL_0
 70
     0
 10
0.0
 20
0.0
 30
0.0
  3
SW_DOWELSYMBOL_0
  1
SW_DOWELSYMBOL_0
  0
CIRCLE
  5
293
330
290
100
AcDbEntity
  8
외형선
 62
     0
100
AcDbCircle
 10
0.0
 20
0.0
 30
0.0
 40
3.000000000000004
  0
HATCH
  5
294
330
290
100
AcDbEntity
  8
0
  6
Continuous
 62
     0
370
    30
100
AcDbHatch
 10
0.0
 20
0.0
 30
0.0
210
0.0
220
0.0
230
1.0
  2
SOLID
 70
     1
 71
     0
 91
        1
 92
        0
 93
        3
 72
     2
 10
-0.0000000000000013
 20
-0.0000000000000039
 40
3.000000000000004
 50
0.0
 51
90.0
 73
     1
 72
     1
 10
-0.0000000000000013
 20
3.0
 11
-0.0000000000000013
 21
-0.000000000000004
 72
     1
 10
-0.0000000000000013
 20
-0.0000000000000039
 11
3.000000000000003
 21
-0.0000000000000039
 97
        0
 75
     0
 76
     1
 98
        1
 10
0.0
 20
0.0
  0
HATCH
  5
295
330
290
100
AcDbEntity
  8
0
  6
Continuous
 62
     0
370
    30
100
AcDbHatch
 10
0.0
 20
0.0
 30
0.0
210
0.0
220
0.0
230
1.0
  2
SOLID
 70
     1
 71
     0
 91
        1
 92
        0
 93
        3
 72
     2
 10
-0.0000000000000013
 20
-0.0000000000000039
 40
3.000000000000004
 50
180.0
 51
270.0000000000007
 73
     1
 72
     1
 10
-0.0000000000000013
 20
-3.000000000000008
 11
-0.0000000000000013
 21
-0.000000000000004
 72
     1
 10
-0.0000000000000013
 20
-0.0000000000000039
 11
-3.000000000000006
 21
-0.0000000000000039
 97
        0
 75
     0
 76
     1
 98
        1
 10
0.0
 20
0.0
  0
ENDBLK
  5
292
330
290
100
AcDbEntity
  8
0
100
AcDbBlockEnd
  0
BLOCK
  5
2C2
330
2C1
100
AcDbEntity
  8
0
100
AcDbBlockBegin
  2
*D6
 70
     1
 10
0.0
 20
0.0
 30
0.0
  3
*D6
  1
*D6
  0
LINE
  5
2C4
330
2C1
100
AcDbEntity
  8
치수문자_일반주서
 62
     0
370
    -2
100
AcDbLine
 10
65.08649984651804
 20
12.69999984651803
 30
0.0
 11
99.42979736421802
 21
12.69999984651803
 31
0.0
  0
LINE
  5
2C5
330
2C1
100
AcDbEntity
  8
치수문자_일반주서
 62
     0
370
    -2
100
AcDbLine
 10
65.08649984651804
 20
-12.69999984651804
 30
0.0
 11
99.42979736421802
 21
-12.69999984651804
 31
0.0
  0
LINE
  5
2C6
330
2C1
100
AcDbEntity
  8
치수문자_일반주서
 62
     0
370
    -2
100
AcDbLine
 10
99.42979736421802
 20
12.69999984651803
 30
0.0
 11
99.42979736421802
 21
63.75174984651804
 31
0.0
  0
LINE
  5
2C7
330
2C1
100
AcDbEntity
  8
치수문자_일반주서
 62
     0
370
    -2
100
AcDbLine
 10
99.42979736421802
 20
12.69999984651803
 30
0.0
 11
99.42979736421802
 21
-12.69999984651804
 31
0.0
  0
LINE
  5
2C8
330
2C1
100
AcDbEntity
  8
치수문자_일반주서
 62
     0
370
    -2
100
AcDbLine
 10
99.42979736421802
 20
16.00199984651803
 30
0.0
 11
99.42979736421802
 21
19.30399984651803
 31
0.0
  0
LINE
  5
2C9
330
2C1
100
AcDbEntity
  8
치수문자_일반주서
 62
     0
370
    -2
100
AcDbLine
 10
99.42979736421802
 20
-16.00199984651804
 30
0.0
 11
99.42979736421802
 21
-19.30399984651804
 31
0.0
  0
SOLID
  5
2CA
330
2C1
100
AcDbEntity
  8
치수문자_일반주서
 62
     0
100
AcDbTrace
 10
98.87946403088469
 20
16.00199984651803
 30
0.0
 11
99.98013069755135
 21
16.00199984651803
 31
0.0
 12
99.42979736421802
 22
12.69999984651803
 32
0.0
 13
99.42979736421802
 23
12.69999984651803
 33
0.0
  0
SOLID
  5
2CB
330
2C1
100
AcDbEntity
  8
치수문자_일반주서
 62
     0
100
AcDbTrace
 10
99.98013069755135
 20
-16.00199984651804
 30
0.0
 11
98.87946403088469
 21
-16.00199984651804
 31
0.0
 12
99.42979736421802
 22
-12.69999984651804
 32
0.0
 13
99.42979736421802
 23
-12.69999984651804
 33
0.0
  0
MTEXT
  5
2CC
330
2C1
100
AcDbEntity
  8
치수문자_일반주서
 62
     0
100
AcDbMText
 10
96.80479736421802
 20
52.59549984651804
 30
0.0
 40
3.5
 41
0.0
 71
     5
 72
     1
  1
\A1;{%%c25.40 [1]}
  7
SLDTEXTSTYLE0
 11
0.0
 21
1.0
 31
0.0
 73
     1
 44
1.0
  0
POINT
  5
2CD
330
2C1
100
AcDbEntity
  8
Defpoints
 62
     0
100
AcDbPoint
 10
65.02399984651804
 20
12.69999984651803
 30
0.0
  0
POINT
  5
2CE
330
2C1
100
AcDbEntity
  8
Defpoints
 62
     0
100
AcDbPoint
 10
65.02399984651804
 20
-12.69999984651804
 30
0.0
  0
POINT
  5
2D0
330
2C1
100
AcDbEntity
  8
Defpoints
 62
     0
100
AcDbPoint
 10
99.42979736421802
 20
-12.69999984651804
 30
0.0
  0
ENDBLK
  5
2C3
330
2C1
100
AcDbEntity
  8
0
100
AcDbBlockEnd
  0
ENDSEC
  0
SECTION
  2
ENTITIES
  0
LINE
  5
95
330
1F
100
AcDbEntity
  8
0
  6
Continuous
 62
     1
370
    15
100
AcDbLine
 10
13.02467037856205
 20
0.0101790019471063
 30
0.0
 11
13.02467037856205
 21
0.0102111471278459
 31
0.0
  0
LINE
  5
96
102
{ACAD_REACTORS
330
342
102
}
330
1F
100
AcDbEntity
  8
0
  6
Continuous
 62
     4
370
    15
100
AcDbLine
 10
0.0000001534819596
 20
12.69999984651804
 30
0.0
 11
-64.11999360559709
 21
12.69999984651804
 31
0.0
  0
LINE
  5
97
330
1F
100
AcDbEntity
  8
0
  6
Continuous
 62
     4
370
    15
100
AcDbLine
 10
-64.119993605597
 20
-12.69999984651804
 30
0.0
 11
20.57399984651806
 21
-12.69999984651804
 31
0.0
  0
LINE
  5
98
330
1F
100
AcDbEntity
  8
0
  6
Continuous
 62
     4
370
    15
100
AcDbLine
 10
-35.57599841302634
 20
12.69999984651804
 30
0.0
 11
-36.57600043958426
 21
11.69999968260526
 31
0.0
  0
LINE
  5
99
330
1F
100
AcDbEntity
  8
0
  6
Continuous
 62
     4
370
    15
100
AcDbLine
 10
-36.57600043958426
 20
-11.69999968260527
 30
0.0
 11
-35.57599841302634
 21
-12.69999984651804
 31
0.0
  0
LINE
  5
9A
330
1F
100
AcDbEntity
  8
0
  6
Continuous
 62
     1
370
    15
100
AcDbLine
 10
32.60642466300725
 20
12.38632760941982
 30
0.0
 11
32.59712633842229
 21
12.38671969622373
 31
0.0
  0
SPLINE
  5
9B
330
1F
100
AcDbEntity
  8
0
  6
Continuous
 62
     1
370
    15
100
AcDbSpline
210
0.0
220
0.0
230
1.0
 70
     8
 71
     3
 72
     9
 73
     5
 74
     0
 42
0.000000001
 43
0.00000001
 40
0.0
 40
0.0
 40
0.0
 40
0.0
 40
0.5553084060777725
 40
1.0
 40
1.0
 40
1.0
 40
1.0
 10
32.70641517990828
 20
12.36758660525083
 30
0.0
 10
32.68816478731427
 20
12.37454326887419
 30
0.0
 10
32.65529945987773
 20
12.38707083652347
 30
0.0
 10
32.62997438221069
 20
12.38619795648427
 30
0.0
 10
32.61871253305674
 20
12.38580979406833
 30
0.0
  0
SPLINE
  5
9C
330
1F
100
AcDbEntity
  8
0
  6
Continuous
 62
     1
370
    15
100
AcDbSpline
210
0.0
220
0.0
230
1.0
 70
     8
 71
     3
 72
     9
 73
     5
 74
     0
 42
0.000000001
 43
0.00000001
 40
0.0
 40
0.0
 40
0.0
 40
0.0
 40
0.8083389251638733
 40
0.9999999999999999
 40
0.9999999999999999
 40
0.9999999999999999
 40
0.9999999999999999
 10
32.54613083952665
 20
12.46925350278616
 30
0.0
 10
32.47548149740577
 20
12.52296346714507
 30
0.0
 10
32.3880808540351
 20
12.58940832423026
 30
0.0
 10
32.28439085590566
 20
12.61001636959528
 30
0.0
 10
32.26451751941443
 20
12.61396612972021
 30
0.0
  0
SPLINE
  5
9D
330
1F
100
AcDbEntity
  8
0
  6
Continuous
 62
     1
370
    15
100
AcDbSpline
210
0.0
220
0.0
230
1.0
 70
     8
 71
     3
 72
    11
 73
     7
 74
     0
 42
0.000000001
 43
0.00000001
 40
0.0
 40
0.0
 40
0.0
 40
0.0
 40
0.2440313139645251
 40
0.4999597615911862
 40
0.7559067002223138
 40
1.0
 40
1.0
 40
1.0
 40
1.0
 10
40.49615738147497
 20
-12.46277801692486
 30
0.0
 10
40.56789071338341
 20
-12.41264456100008
 30
0.0
 10
40.71485455559056
 20
-12.30993351845112
 30
0.0
 10
40.98804142827899
 20
-12.26038391021435
 30
0.0
 10
41.26082539833819
 20
-12.29858769150253
 30
0.0
 10
41.40685456875941
 20
-12.39248176050219
 30
0.0
 10
41.47813831621409
 20
-12.43831589818001
 30
0.0
  0
SPLINE
  5
9E
330
1F
100
AcDbEntity
  8
0
  6
Continuous
 62
     1
370
    15
100
AcDbSpline
210
0.0
220
0.0
230
1.0
 70
     8
 71
     3
 72
    11
 73
     7
 74
     0
 42
0.000000001
 43
0.00000001
 40
0.0
 40
0.0
 40
0.0
 40
0.0
 40
0.2441924621878237
 40
0.5000740722927246
 40
0.7559210665979175
 40
1.0
 40
1.0
 40
1.0
 40
1.0
 10
31.55230348163843
 20
12.47298158705234
 30
0.0
 10
31.48107394448078
 20
12.42255360164008
 30
0.0
 10
31.33520521292854
 20
12.31928371445071
 30
0.0
 10
31.06243571932048
 20
12.2681457797261
 30
0.0
 10
30.78926112017547
 20
12.30487990122803
 30
0.0
 10
30.64241432824405
 20
12.39812905113628
 30
0.0
 10
30.57071929031611
 20
12.44365610182285
 30
0.0
  0
SPLINE
  5
9F
330
1F
100
AcDbEntity
  8
0
  6
Continuous
 62
     1
370
    15
100
AcDbSpline
210
0.0
220
0.0
230
1.0
 70
     8
 71
     3
 72
     9
 73
     5
 74
     0
 42
0.000000001
 43
0.00000001
 40
0.0
 40
0.0
 40
0.0
 40
0.0
 40
0.4991539270650749
 40
1.0
 40
1.0
 40
1.0
 40
1.0
 10
41.48692068809272
 20
-12.45103031396866
 30
0.0
 10
41.56397267588552
 20
-12.50460557577367
 30
0.0
 10
41.71833785987963
 20
-12.61193772102999
 30
0.0
 10
41.90227072026001
 20
-12.63428430092554
 30
0.0
 10
41.99439277106524
 20
-12.64547649770975
 30
0.0
  0
SPLINE
  5
A0
330
1F
100
AcDbEntity
  8
0
  6
Continuous
 62
     1
370
    15
100
AcDbSpline
210
0.0
220
0.0
230
1.0
 70
     8
 71
     3
 72
    11
 73
     7
 74
     0
 42
0.000000001
 43
0.00000001
 40
0.0
 40
0.0
 40
0.0
 40
0.0
 40
0.2437399093296849
 40
0.4998886752920928
 40
0.7560920865990091
 40
1.0
 40
1.0
 40
1.0
 40
1.0
 10
30.55743676775693
 20
12.45958171784878
 30
0.0
 10
30.48186416171851
 20
12.50975916548866
 30
0.0
 10
30.32687153033201
 20
12.61266860653679
 30
0.0
 10
30.04385859722554
 20
12.6605032135698
 30
0.0
 10
29.76082897193035
 20
12.6203053782804
 30
0.0
 10
29.60584912813575
 20
12.52270715601123
 30
0.0
 10
29.53026433640719
 20
12.47510779649019
 30
0.0
  0
SPLINE
  5
A1
330
1F
100
AcDbEntity
  8
0
  6
Continuous
 62
     1
370
    15
100
AcDbSpline
210
0.0
220
0.0
230
1.0
 70
     8
 71
     3
 72
     9
 73
     5
 74
     0
 42
0.000000001
 43
0.00000001
 40
0.0
 40
0.0
 40
0.0
 40
0.0
 40
0.5008543541626994
 40
1.0
 40
1.0
 40
1.0
 40
1.0
 10
42.00337258332967
 20
-12.65270076692105
 30
0.0
 10
42.09537476127367
 20
-12.64494222995571
 30
0.0
 10
42.27906524370501
 20
-12.62945162495076
 30
0.0
 10
42.43317468766321
 20
-12.52887953790534
 30
0.0
 10
42.51009774559737
 20
-12.47867941856385
 30
0.0
  0
SPLINE
  5
A2
330
1F
100
AcDbEntity
  8
0
  6
Continuous
 62
     1
370
    15
100
AcDbSpline
210
0.0
220
0.0
230
1.0
 70
     8
 71
     3
 72
    11
 73
     7
 74
     0
 42
0.000000001
 43
0.00000001
 40
0.0
 40
0.0
 40
0.0
 40
0.0
 40
0.2447637055266332
 40
0.4999620365980221
 40
0.7551752079120245
 40
1.0
 40
1.0
 40
1.0
 40
1.0
 10
42.52426874989271
 20
-12.47970294207335
 30
0.0
 10
42.59484274967643
 20
-12.43089900498414
 30
0.0
 10
42.73899941941967
 20
-12.33121054942402
 30
0.0
 10
43.01088927080895
 20
-12.28338650343963
 30
0.0
 10
43.28318109855388
 20
-12.32395225005865
 30
0.0
 10
43.42817140426483
 20
-12.41882121407736
 30
0.0
 10
43.49916045719385
 20
-12.46527023613453
 30
0.0
  0
SPLINE
  5
A3
330
1F
100
AcDbEntity
  8
0
  6
Continuous
 62
     1
370
    15
100
AcDbSpline
210
0.0
220
0.0
230
1.0
 70
     8
 71
     3
 72
    11
 73
     7
 74
     0
 42
0.000000001
 43
0.00000001
 40
0.0
 40
0.0
 40
0.0
 40
0.0
 40
0.2450826947380511
 40
0.5000699883144044
 40
0.7550259749395688
 40
1.0
 40
1.0
 40
1.0
 40
1.0
 10
29.51500554734469
 20
12.4739296734333
 30
0.0
 10
29.44424387648952
 20
12.42625741565519
 30
0.0
 10
29.29986082261671
 20
12.32898630716054
 30
0.0
 10
29.02782704536279
 20
12.28446608686228
 30
0.0
 10
28.75619660796855
 20
12.32846083849235
 30
0.0
 10
28.61261508178178
 20
12.42491351016133
 30
0.0
 10
28.54225774461031
 20
12.47217692434788
 30
0.0
  0
SPLINE
  5
A4
330
1F
100
AcDbEntity
  8
0
  6
Continuous
 62
     1
370
    15
100
AcDbSpline
210
0.0
220
0.0
230
1.0
 70
     8
 71
     3
 72
    11
 73
     7
 74
     0
 42
0.000000001
 43
0.00000001
 40
0.0
 40
0.0
 40
0.0
 40
0.0
 40
0.2447102839415449
 40
0.5001940922115562
 40
0.7555826862164073
 40
1.0
 40
1.0
 40
1.0
 40
1.0
 10
43.50560148411989
 20
-12.4696996062994
 30
0.0
 10
43.58196816128302
 20
-12.51939798486564
 30
0.0
 10
43.73806360665444
 20
-12.6209827444063
 30
0.0
 10
44.02462903218133
 20
-12.666243388149
 30
0.0
 10
44.31116944876548
 20
-12.62132014803043
 30
0.0
 10
44.46729381576736
 20
-12.51990127534508
 30
0.0
 10
44.54364244991541
 20
-12.4703049659729
 30
0.0
  0
SPLINE
  5
A5
330
1F
100
AcDbEntity
  8
0
  6
Continuous
 62
     1
370
    15
100
AcDbSpline
210
0.0
220
0.0
230
1.0
 70
     8
 71
     3
 72
     9
 73
     5
 74
     0
 42
0.000000001
 43
0.00000001
 40
0.0
 40
0.0
 40
0.0
 40
0.0
 40
0.4985521023836592
 40
1.0
 40
1.0
 40
1.0
 40
1.0
 10
28.53947867804765
 20
12.47398927807808
 30
0.0
 10
28.46106036746146
 20
12.5267265720094
 30
0.0
 10
28.30376826055576
 20
12.63250747972032
 30
0.0
 10
28.11749364316864
 20
12.65080544118146
 30
0.0
 10
28.02408662790059
 20
12.65998091548681
 30
0.0
  0
SPLINE
  5
A6
330
1F
100
AcDbEntity
  8
0
  6
Continuous
 62
     1
370
    15
100
AcDbSpline
210
0.0
220
0.0
230
1.0
 70
     8
 71
     3
 72
     9
 73
     5
 74
     0
 42
0.000000001
 43
0.00000001
 40
0.0
 40
0.0
 40
0.0
 40
0.0
 40
0.5011328403662169
 40
1.0
 40
1.0
 40
1.0
 40
1.0
 10
28.01939089947939
 20
12.65948358923197
 30
0.0
 10
27.9263085726075
 20
12.64966209158212
 30
0.0
 10
27.74056475505231
 20
12.63006350043279
 30
0.0
 10
27.5840665090704
 20
12.52376562089008
 30
0.0
 10
27.50599467360973
 20
12.47073709964752
 30
0.0
  0
SPLINE
  5
A7
330
1F
100
AcDbEntity
  8
0
  6
Continuous
 62
     1
370
    15
100
AcDbSpline
210
0.0
220
0.0
230
1.0
 70
     8
 71
     3
 72
    11
 73
     7
 74
     0
 42
0.000000001
 43
0.00000001
 40
0.0
 40
0.0
 40
0.0
 40
0.0
 40
0.2685555280686923
 40
0.5285593930581065
 40
0.7725957143517461
 40
1.0
 40
1.0
 40
1.0
 40
1.0
 10
44.55417757087945
 20
-12.46264856308699
 30
0.0
 10
44.63947306255079
 20
-12.40986268411559
 30
0.0
 10
44.80734796586263
 20
-12.30597179662648
 30
0.0
 10
45.09983143259537
 20
-12.2883143830029
 30
0.0
 10
45.34452447270377
 20
-12.35607689308461
 30
0.0
 10
45.45105109143503
 20
-12.4315028798381
 30
0.0
 10
45.50243531519175
 20
-12.46788538992405
 30
0.0
  0
SPLINE
  5
A8
330
1F
100
AcDbEntity
  8
0
  6
Continuous
 62
     1
370
    15
100
AcDbSpline
210
0.0
220
0.0
230
1.0
 70
     8
 71
     3
 72
    10
 73
     6
 74
     0
 42
0.000000001
 43
0.00000001
 40
0.0
 40
0.0
 40
0.0
 40
0.0
 40
0.278765784122893
 40
0.5423643355100827
 40
1.0
 40
1.0
 40
1.0
 40
1.0
 10
27.49843326562643
 20
12.46422436088323
 30
0.0
 10
27.41568250039075
 20
12.41193293766805
 30
0.0
 10
27.2546833162864
 20
12.31019518999499
 30
0.0
 10
26.87413526646937
 20
12.27869390815435
 30
0.0
 10
26.67894641951711
 20
12.3907293715964
 30
0.0
 10
26.55509569847583
 20
12.46181782335043
 30
0.0
  0
SPLINE
  5
A9
330
1F
100
AcDbEntity
  8
0
  6
Continuous
 62
     1
370
    15
100
AcDbSpline
210
0.0
220
0.0
230
1.0
 70
     8
 71
     3
 72
     9
 73
     5
 74
     0
 42
0.000000001
 43
0.00000001
 40
0.0
 40
0.0
 40
0.0
 40
0.0
 40
0.4986076178787625
 40
1.0
 40
1.0
 40
1.0
 40
1.0
 10
45.50396268421412
 20
-12.46915478259325
 30
0.0
 10
45.58362549511441
 20
-12.52336829704073
 30
0.0
 10
45.74339604021599
 20
-12.63209811283882
 30
0.0
 10
45.93208713925969
 20
-12.65065886384307
 30
0.0
 10
46.02669541889429
 20
-12.65996508300305
 30
0.0
  0
SPLINE
  5
AA
330
1F
100
AcDbEntity
  8
0
  6
Continuous
 62
     1
370
    15
100
AcDbSpline
210
0.0
220
0.0
230
1.0
 70
     8
 71
     3
 72
    11
 73
     7
 74
     0
 42
0.000000001
 43
0.00000001
 40
0.0
 40
0.0
 40
0.0
 40
0.0
 40
0.2700920372673367
 40
0.5328076972480724
 40
0.7773570843335044
 40
0.9999999999999999
 40
0.9999999999999999
 40
0.9999999999999999
 40
0.9999999999999999
 10
26.55408893877267
 20
12.46272679418325
 30
0.0
 10
26.45947085244443
 20
12.52265129696178
 30
0.0
 10
26.27281875708973
 20
12.6408637280175
 30
0.0
 10
25.95599097342703
 20
12.66436645824364
 30
0.0
 10
25.68521532292142
 20
12.5950974539131
 30
0.0
 10
25.55556728789205
 20
12.5040211601637
 30
0.0
 10
25.49378284418582
 20
12.46061827987432
 30
0.0
  0
SPLINE
  5
AB
330
1F
100
AcDbEntity
  8
0
  6
Continuous
 62
     1
370
    15
100
AcDbSpline
210
0.0
220
0.0
230
1.0
 70
     8
 71
     3
 72
     9
 73
     5
 74
     0
 42
0.000000001
 43
0.00000001
 40
0.0
 40
0.0
 40
0.0
 40
0.0
 40
0.5019965059485195
 40
0.9999999999999999
 40
0.9999999999999999
 40
0.9999999999999999
 40
0.9999999999999999
 10
46.02581252509356
 20
-12.65999395400286
 30
0.0
 10
46.1209952880083
 20
-12.65025342767162
 30
0.0
 10
46.31060370517223
 20
-12.63084985371083
 30
0.0
 10
46.47178045038066
 20
-12.51939494836857
 30
0.0
 10
46.55204703265429
 20
-12.46389001607895
 30
0.0
  0
SPLINE
  5
AC
330
1F
100
AcDbEntity
  8
0
  6
Continuous
 62
     1
370
    15
100
AcDbSpline
210
0.0
220
0.0
230
1.0
 70
     8
 71
     3
 72
    11
 73
     7
 74
     0
 42
0.000000001
 43
0.00000001
 40
0.0
 40
0.0
 40
0.0
 40
0.0
 40
0.246503825391548
 40
0.4997736886052496
 40
0.7531462455833954
 40
1.0
 40
1.0
 40
1.0
 40
1.0
 10
46.54300202780961
 20
-12.47165258973837
 30
0.0
 10
46.61164426455306
 20
-12.4252551883579
 30
0.0
 10
46.75081283038315
 20
-12.331186869569
 30
0.0
 10
47.02009545841205
 20
-12.28506494473502
 30
0.0
 10
47.28977065927759
 20
-12.32762139997424
 30
0.0
 10
47.42960415605084
 20
-12.41949394079384
 30
0.0
 10
47.49860976988077
 20
-12.46483158320189
 30
0.0
  0
SPLINE
  5
AD
330
1F
100
AcDbEntity
  8
0
  6
Continuous
 62
     1
370
    15
100
AcDbSpline
210
0.0
220
0.0
230
1.0
 70
     8
 71
     3
 72
    11
 73
     7
 74
     0
 42
0.000000001
 43
0.00000001
 40
0.0
 40
0.0
 40
0.0
 40
0.0
 40
0.2464100545866016
 40
0.5001805026421126
 40
0.753868533766952
 40
1.0
 40
1.0
 40
1.0
 40
1.0
 10
25.50327581518887
 20
12.4682430177927
 30
0.0
 10
25.43380589168333
 20
12.42211918574514
 30
0.0
 10
25.2927909427771
 20
12.32849377936296
 30
0.0
 10
25.02243622960474
 20
12.28505306362617
 30
0.0
 10
24.75248177788738
 20
12.33039523566858
 30
0.0
 10
24.61216876612883
 20
12.42500884371511
 30
0.0
 10
24.54307292753457
 20
12.47160043567419
 30
0.0
  0
SPLINE
  5
AE
330
1F
100
AcDbEntity
  8
0
  6
Continuous
 62
     1
370
    15
100
AcDbSpline
210
0.0
220
0.0
230
1.0
 70
     8
 71
     3
 72
    11
 73
     7
 74
     0
 42
0.000000001
 43
0.00000001
 40
0.0
 40
0.0
 40
0.0
 40
0.0
 40
0.2454632428457372
 40
0.5003265155399763
 40
0.7550262283478926
 40
0.9999999999999999
 40
0.9999999999999999
 40
0.9999999999999999
 40
0.9999999999999999
 10
47.50329991036654
 20
-12.4682579189539
 30
0.0
 10
47.58039338740586
 20
-12.51855618973764
 30
0.0
 10
47.73753264088752
 20
-12.62107890665105
 30
0.0
 10
48.02736103927558
 20
-12.66652585619356
 30
0.0
 10
48.31714615953481
 20
-12.61951670007859
 30
0.0
 10
48.4743396962979
 20
-12.51582982304569
 30
0.0
 10
48.55140661054849
 20
-12.46499549597502
 30
0.0
  0
SPLINE
  5
AF
330
1F
100
AcDbEntity
  8
0
  6
Continuous
 62
     1
370
    15
100
AcDbSpline
210
0.0
220
0.0
230
1.0
 70
     8
 71
     3
 72
     9
 73
     5
 74
     0
 42
0.000000001
 43
0.00000001
 40
0.0
 40
0.0
 40
0.0
 40
0.0
 40
0.4982631230203343
 40
1.0
 40
1.0
 40
1.0
 40
1.0
 10
24.54629996025562
 20
12.46911566704511
 30
0.0
 10
24.46698953044661
 20
12.5231312076528
 30
0.0
 10
24.30781574024466
 20
12.63153887041591
 30
0.0
 10
24.11995111437135
 20
12.65048822610419
 30
0.0
 10
24.02569250369071
 20
12.659995816648
 30
0.0
  0
SPLINE
  5
B0
330
1F
100
AcDbEntity
  8
0
  6
Continuous
 62
     1
370
    15
100
AcDbSpline
210
0.0
220
0.0
230
1.0
 70
     8
 71
     3
 72
     9
 73
     5
 74
     0
 42
0.000000001
 43
0.00000001
 40
0.0
 40
0.0
 40
0.0
 40
0.0
 40
0.5013643065746453
 40
1.0
 40
1.0
 40
1.0
 40
1.0
 10
24.02485151940584
 20
12.65999861061573
 30
0.0
 10
23.93051447981576
 20
12.65048384742741
 30
0.0
 10
23.74235381829083
 20
12.63150610397111
 30
0.0
 10
23.58315501786233
 20
12.52307081825385
 30
0.0
 10
23.50377281361818
 20
12.46900111436844
 30
0.0
  0
SPLINE
  5
B1
330
1F
100
AcDbEntity
  8
0
  6
Continuous
 62
     1
370
    15
100
AcDbSpline
210
0.0
220
0.0
230
1.0
 70
     8
 71
     3
 72
    11
 73
     7
 74
     0
 42
0.000000001
 43
0.00000001
 40
0.0
 40
0.0
 40
0.0
 40
0.0
 40
0.2715286108180431
 40
0.5323625646584788
 40
0.7755102226326969
 40
1.0
 40
1.0
 40
1.0
 40
1.0
 10
48.55393235737085
 20
-12.4628646299243
 30
0.0
 10
48.63862023578749
 20
-12.41030967657803
 30
0.0
 10
48.80466040375927
 20
-12.30726974401022
 30
0.0
 10
49.09652481352457
 20
-12.28829356228609
 30
0.0
 10
49.34047481392889
 20
-12.35431735401777
 30
0.0
 10
49.44766161538359
 20
-12.42902117063778
 30
0.0
 10
49.49911673718692
 20
-12.46488280594349
 30
0.0
  0
SPLINE
  5
B2
330
1F
100
AcDbEntity
  8
0
  6
Continuous
 62
     1
370
    15
100
AcDbSpline
210
0.0
220
0.0
230
1.0
 70
     8
 71
     3
 72
    10
 73
     6
 74
     0
 42
0.000000001
 43
0.00000001
 40
0.0
 40
0.0
 40
0.0
 40
0.0
 40
0.2810530865479599
 40
0.5452785854526364
 40
1.0
 40
1.0
 40
1.0
 40
1.0
 10
23.49981469267605
 20
12.46554218232632
 30
0.0
 10
23.41744350010863
 20
12.4131941153921
 30
0.0
 10
23.25763295357847
 20
12.31163223525172
 30
0.0
 10
22.87863674145167
 20
12.27804380846524
 30
0.0
 10
22.68218847890587
 20
12.38894103268984
 30
0.0
 10
22.55793837064503
 20
12.45908159762621
 30
0.0
  0
SPLINE
  5
B3
330
1F
100
AcDbEntity
  8
0
  6
Continuous
 62
     1
370
    15
100
AcDbSpline
210
0.0
220
0.0
230
1.0
 70
     8
 71
     3
 72
     9
 73
     5
 74
     0
 42
0.000000001
 43
0.00000001
 40
0.0
 40
0.0
 40
0.0
 40
0.0
 40
0.4985787314616935
 40
0.9999999999999999
 40
0.9999999999999999
 40
0.9999999999999999
 40
0.9999999999999999
 10
49.49764524751901
 20
-12.46344856917858
 30
0.0
 10
49.57745384231161
 20
-12.51865592045756
 30
0.0
 10
49.73752604306242
 20
-12.62938537559723
 30
0.0
 10
49.92648617160889
 20
-12.64961546408292
 30
0.0
 10
50.02123479896783
 20
-12.65975926071406
 30
0.0
  0
SPLINE
  5
B4
330
1F
100
AcDbEntity
  8
0
  6
Continuous
 62
     1
370
    15
100
AcDbSpline
210
0.0
220
0.0
230
1.0
 70
     8
 71
     3
 72
    11
 73
     7
 74
     0
 42
0.000000001
 43
0.00000001
 40
0.0
 40
0.0
 40
0.0
 40
0.0
 40
0.2671361965627622
 40
0.5289276222995243
 40
0.7743990146065225
 40
1.0
 40
1.0
 40
1.0
 40
1.0
 10
22.5544291471839
 20
12.46242318302393
 30
0.0
 10
22.46004361412849
 20
12.52215439835617
 30
0.0
 10
22.2731609818951
 20
12.64042174703171
 30
0.0
 10
21.95738193068597
 20
12.6641576863403
 30
0.0
 10
21.68714398072311
 20
12.59579998654949
 30
0.0
 10
21.55866797299871
 20
12.50642516691679
 30
0.0
 10
21.49713960641621
 20
12.46362272650003
 30
0.0
  0
SPLINE
  5
B5
330
1F
100
AcDbEntity
  8
0
  6
Continuous
 62
     1
370
    15
100
AcDbSpline
210
0.0
220
0.0
230
1.0
 70
     8
 71
     3
 72
     9
 73
     5
 74
     0
 42
0.000000001
 43
0.00000001
 40
0.0
 40
0.0
 40
0.0
 40
0.0
 40
0.502018783045335
 40
1.0
 40
1.0
 40
1.0
 40
1.0
 10
50.01881336027383
 20
-12.65937462449074
 30
0.0
 10
50.11418025178352
 20
-12.65077687445125
 30
0.0
 10
50.30414703137527
 20
-12.63365052314755
 30
0.0
 10
50.46571008758023
 20
-12.5238855344413
 30
0.0
 10
50.54616545492411
 20
-12.46922463178635
 30
0.0
  0
SPLINE
  5
B6
330
1F
100
AcDbEntity
  8
0
  6
Continuous
 62
     1
370
    15
100
AcDbSpline
210
0.0
220
0.0
230
1.0
 70
     8
 71
     3
 72
    11
 73
     7
 74
     0
 42
0.000000001
 43
0.00000001
 40
0.0
 40
0.0
 40
0.0
 40
0.0
 40
0.245994381978096
 40
0.499842328515655
 40
0.7537634569347129
 40
1.0
 40
1.0
 40
1.0
 40
1.0
 10
50.53984363728761
 20
-12.47376576066017
 30
0.0
 10
50.60910162107389
 20
-12.4267303828479
 30
0.0
 10
50.74982870437415
 20
-12.33115798570919
 30
0.0
 10
51.02001001735741
 20
-12.28502135633111
 30
0.0
 10
51.29059597729109
 20
-12.32767549579434
 30
0.0
 10
51.43204561186651
 20
-12.42113879147451
 30
0.0
 10
51.5016837900281
 20
-12.46715243905783
 30
0.0
  0
SPLINE
  5
B7
330
1F
100
AcDbEntity
  8
0
  6
Continuous
 62
     1
370
    15
100
AcDbSpline
210
0.0
220
0.0
230
1.0
 70
     8
 71
     3
 72
    11
 73
     7
 74
     0
 42
0.000000001
 43
0.00000001
 40
0.0
 40
0.0
 40
0.0
 40
0.0
 40
0.2457048765699821
 40
0.5001101554574195
 40
0.7544663668797643
 40
0.958677398051953
 40
0.958677398051953
 40
0.958677398051953
 40
0.958677398051953
 10
21.50566493326425
 20
12.46973685920238
 30
0.0
 10
21.43550306062127
 20
12.42308517235532
 30
0.0
 10
21.29269488552725
 20
12.32812986382774
 30
0.0
 10
21.02141729894611
 20
12.28504703291704
 30
0.0
 10
20.76538232805267
 20
12.32819756374279
 30
0.0
 10
20.63223924590744
 20
12.41160648714271
 30
0.0
 10
20.57399984651804
 20
12.45060802423552
 30
0.0
  0
SPLINE
  5
B8
330
1F
100
AcDbEntity
  8
0
  6
Continuous
 62
     1
370
    15
100
AcDbSpline
210
0.0
220
0.0
230
1.0
 70
     8
 71
     3
 72
    11
 73
     7
 74
     0
 42
0.000000001
 43
0.00000001
 40
0.0
 40
0.0
 40
0.0
 40
0.0
 40
0.2443153972793922
 40
0.5001497668585612
 40
0.7559123720572383
 40
1.0
 40
1.0
 40
1.0
 40
1.0
 10
51.51455094271899
 20
-12.47378718107939
 30
0.0
 10
51.59053727418105
 20
-12.52256420206471
 30
0.0
 10
51.74609253753489
 20
-12.62241798101408
 30
0.0
 10
52.03092729000857
 20
-12.66556283261955
 30
0.0
 10
52.31574268921803
 20
-12.61960994479922
 30
0.0
 10
52.47131687267035
 20
-12.51777292401607
 30
0.0
 10
52.54728709512951
 20
-12.46804371476174
 30
0.0
  0
SPLINE
  5
BB
330
1F
100
AcDbEntity
  8
0
  6
Continuous
 62
     1
370
    15
100
AcDbSpline
210
0.0
220
0.0
230
1.0
 70
     8
 71
     3
 72
    11
 73
     7
 74
     0
 42
0.000000001
 43
0.00000001
 40
0.0
 40
0.0
 40
0.0
 40
0.0
 40
0.2662403635285137
 40
0.5445530665516424
 40
0.8229155383357645
 40
1.0
 40
1.0
 40
1.0
 40
1.0
 10
52.55703245455027
 20
-12.45998032391071
 30
0.0
 10
52.62841398703481
 20
-12.41371482437075
 30
0.0
 10
52.77441375917473
 20
-12.31908597352286
 30
0.0
 10
53.04648025140347
 20
-12.28118464954047
 30
0.0
 10
53.29143342955808
 20
-12.32062545156889
 30
0.0
 10
53.41352804250327
 20
-12.4033593591435
 30
0.0
 10
53.46100022250413
 20
-12.43552751839161
 30
0.0
  0
LINE
  5
BC
330
1F
100
AcDbEntity
  8
0
  6
Continuous
 62
     1
370
    15
100
AcDbLine
 10
65.02399956041573
 20
11.68000046163797
 30
0.0
 11
64.04826780015229
 21
12.65573129057884
 31
0.0
  0
SPLINE
  5
BD
330
1F
100
AcDbEntity
  8
0
  6
Continuous
 62
     1
370
    15
100
AcDbSpline
210
0.0
220
0.0
230
1.0
 70
     8
 71
     3
 72
     9
 73
     5
 74
     0
 42
0.000000001
 43
0.00000001
 40
0.0
 40
0.0
 40
0.0
 40
0.0
 40
0.5008425318802439
 40
1.0
 40
1.0
 40
1.0
 40
1.0
 10
54.06485860401391
 20
-12.63550575822592
 30
0.0
 10
54.15676334574884
 20
-12.62395276415594
 30
0.0
 10
54.34026361955725
 20
-12.60088564558154
 30
0.0
 10
54.49415867682238
 20
-12.49314440984258
 30
0.0
 10
54.57097654396297
 20
-12.43936456739903
 30
0.0
  0
LINE
  5
BE
330
1F
100
AcDbEntity
  8
0
  6
Continuous
 62
     1
370
    15
100
AcDbLine
 10
54.98025928789377
 20
-12.30944972485304
 30
0.0
 11
55.12009178453684
 21
-12.32997514307499
 31
0.0
  0
LINE
  5
BF
330
1F
100
AcDbEntity
  8
0
  6
Continuous
 62
     1
370
    15
100
AcDbLine
 10
64.02473141604662
 20
12.65999674797058
 30
0.0
 11
63.98867060595749
 21
12.65331823378801
 31
0.0
  0
SPLINE
  5
C0
330
1F
100
AcDbEntity
  8
0
  6
Continuous
 62
     1
370
    15
100
AcDbSpline
210
0.0
220
0.0
230
1.0
 70
     8
 71
     3
 72
     9
 73
     5
 74
     0
 42
0.000000001
 43
0.00000001
 40
0.0
 40
0.0
 40
0.0
 40
0.0
 40
0.1381055278028705
 40
1.0
 40
1.0
 40
1.0
 40
1.0
 10
63.79298855715989
 20
12.617077678442
 30
0.0
 10
63.77823790037718
 20
12.61469454037968
 30
0.0
 10
63.6714307579158
 20
12.59743861948906
 30
0.0
 10
63.58138131302984
 20
12.52845445721301
 30
0.0
 10
63.50376819425821
 20
12.46899738907814
 30
0.0
  0
LINE
  5
C2
330
1F
100
AcDbEntity
  8
0
  6
Continuous
 62
     1
370
    15
100
AcDbLine
 10
63.5037681942582
 20
12.46899738907814
 30
0.0
 11
63.37405731135605
 21
12.39636074751615
 31
0.0
  0
LINE
  5
C3
330
1F
100
AcDbEntity
  8
0
  6
Continuous
 62
     1
370
    15
100
AcDbLine
 10
63.27487518244982
 20
12.34279479831457
 30
0.0
 11
63.22755281978843
 21
12.33532559126615
 31
0.0
  0
SPLINE
  5
C4
330
1F
100
AcDbEntity
  8
0
  6
Continuous
 62
     1
370
    15
100
AcDbSpline
210
0.0
220
0.0
230
1.0
 70
     8
 71
     3
 72
     9
 73
     5
 74
     0
 42
0.000000001
 43
0.00000001
 40
0.0
 40
0.0
 40
0.0
 40
0.0
 40
0.7258236547578284
 40
0.9999999999999999
 40
0.9999999999999999
 40
0.9999999999999999
 40
0.9999999999999999
 10
56.4775279646516
 20
-12.50747125595808
 30
0.0
 10
56.47896885157735
 20
-12.50678139855563
 30
0.0
 10
56.48095402651117
 20
-12.50583095088433
 30
0.0
 10
56.4827033360332
 20
-12.50396510199927
 30
0.0
 10
56.48318295532465
 20
-12.50345353037119
 30
0.0
  0
SPLINE
  5
C5
330
1F
100
AcDbEntity
  8
0
  6
Continuous
 62
     1
370
    15
100
AcDbSpline
210
0.0
220
0.0
230
1.0
 70
     8
 71
     3
 72
    10
 73
     6
 74
     0
 42
0.000000001
 43
0.00000001
 40
0.0
 40
0.0
 40
0.0
 40
0.0
 40
0.5
 40
0.5
 40
1.0
 40
1.0
 40
1.0
 40
1.0
 10
63.86438408844667
 20
-6.370232096449089
 30
0.0
 10
63.71710686968561
 20
-6.342248896926995
 30
0.0
 10
63.54080488190978
 20
-6.277275673568949
 30
0.0
 10
63.17954858779676
 20
-6.098164849684943
 30
0.0
 10
62.99260403653429
 20
-5.982814643395469
 30
0.0
 10
62.83541690235351
 20
-5.862371089103563
 30
0.0
  0
SPLINE
  5
C6
330
1F
100
AcDbEntity
  8
0
  6
Continuous
 62
     1
370
    15
100
AcDbSpline
210
0.0
220
0.0
230
1.0
 70
     8
 71
     3
 72
    12
 73
     8
 74
     0
 42
0.000000001
 43
0.00000001
 40
0.0
 40
0.0
 40
0.0
 40
0.0
 40
0.5
 40
0.5
 40
0.75
 40
0.75
 40
1.0
 40
1.0
 40
1.0
 40
1.0
 10
62.83541690235349
 20
-5.862371089103539
 30
0.0
 10
62.76740701423795
 20
-4.645837330704513
 30
0.0
 10
62.69386135858092
 20
-3.286549618102163
 30
0.0
 10
62.5839742685519
 20
-1.192331353819109
 30
0.0
 10
62.54745474824007
 20
-0.4858574322578717
 30
0.0
 10
62.47616979679026
 20
0.9136356848264479
 30
0.0
 10
62.44228014847076
 20
1.600880570017523
 30
0.0
 10
62.40760151715793
 20
2.282713744288581
 30
0.0
  0
SPLINE
  5
C7
330
1F
100
AcDbEntity
  8
0
  6
Continuous
 62
     1
370
    15
100
AcDbSpline
210
0.0
220
0.0
230
1.0
 70
     8
 71
     3
 72
    10
 73
     6
 74
     0
 42
0.000000001
 43
0.00000001
 40
0.0
 40
0.0
 40
0.0
 40
0.0
 40
0.5000000000000001
 40
0.5000000000000001
 40
1.0
 40
1.0
 40
1.0
 40
1.0
 10
62.40760151715793
 20
2.282713744288587
 30
0.0
 10
62.55489299601365
 20
2.205151986319565
 30
0.0
 10
62.73121480394663
 20
2.107795027735283
 30
0.0
 10
63.09246698652754
 20
1.903172053504323
 30
0.0
 10
63.27937664436975
 20
1.794851335934439
 30
0.0
 10
63.43653347546517
 20
1.70770438707443
 30
0.0
  0
SPLINE
  5
C8
330
1F
100
AcDbEntity
  8
0
  6
Continuous
 62
     1
370
    15
100
AcDbSpline
210
0.0
220
0.0
230
1.0
 70
     8
 71
     3
 72
    12
 73
     8
 74
     0
 42
0.000000001
 43
0.00000001
 40
0.0
 40
0.0
 40
0.0
 40
0.0
 40
0.2499999999999999
 40
0.2499999999999999
 40
0.5
 40
0.5
 40
1.0
 40
1.0
 40
1.0
 40
1.0
 10
63.86438408844666
 20
-6.370232096449091
 30
0.0
 10
63.82966488373782
 20
-5.773690299358543
 30
0.0
 10
63.79583345864866
 20
-5.152977941208375
 30
0.0
 10
63.72460843567639
 20
-3.847890330898291
 30
0.0
 10
63.68810640708267
 20
-3.168556376218583
 30
0.0
 10
63.57823072319816
 20
-1.092105447654052
 30
0.0
 10
63.50460271143059
 20
0.3421123160729399
 30
0.0
 10
63.43653347546517
 20
1.707704387074253
 30
0.0
  0
SPLINE
  5
CF
330
1F
100
AcDbEntity
  8
0
  6
Continuous
 62
     4
370
    15
100
AcDbSpline
210
0.0
220
0.0
230
1.0
 70
     8
 71
     3
 72
     8
 73
     4
 74
     0
 42
0.000000001
 43
0.00000001
 40
0.0
 40
0.0
 40
0.0
 40
0.0
 40
1.0
 40
1.0
 40
1.0
 40
1.0
 10
16.92544747928837
 20
1.958029911160596
 30
0.0
 10
17.10259848221735
 20
1.857412493413178
 30
0.0
 10
17.28199432117113
 20
1.753537461580666
 30
0.0
 10
17.43281786024805
 20
1.670170336806556
 30
0.0
  0
SPLINE
  5
D3
330
1F
100
AcDbEntity
  8
0
  6
Continuous
 62
     4
370
    15
100
AcDbSpline
210
0.0
220
0.0
230
1.0
 70
     8
 71
     3
 72
     8
 73
     4
 74
     0
 42
0.000000001
 43
0.00000001
 40
0.0
 40
0.0
 40
0.0
 40
0.0
 40
1.0
 40
1.0
 40
1.0
 40
1.0
 10
16.41546959332927
 20
2.239238741567777
 30
0.0
 10
16.56261078771517
 20
2.161383162582309
 30
0.0
 10
16.74139297588872
 20
2.062434698845677
 30
0.0
 10
16.92544747928635
 20
1.958029911161721
 30
0.0
  0
LINE
  5
D9
330
1F
100
AcDbEntity
  8
0
  6
Continuous
 62
     4
370
    15
100
AcDbLine
 10
15.31640688643471
 20
12.69999984651804
 30
0.0
 11
15.31640688643471
 21
3.601525337144279
 31
0.0
  0
SPLINE
  5
DA
330
1F
100
AcDbEntity
  8
0
  6
Continuous
 62
     4
370
    15
100
AcDbSpline
210
0.0
220
0.0
230
1.0
 70
     8
 71
     3
 72
    10
 73
     6
 74
     0
 42
0.000000001
 43
0.00000001
 40
0.0
 40
0.0
 40
0.0
 40
0.0
 40
0.5
 40
0.5
 40
1.0
 40
1.0
 40
1.0
 40
1.0
 10
16.0832177179752
 20
2.407362354841656
 30
0.0
 10
15.84668544384223
 20
2.531575747924817
 30
0.0
 10
15.65176009960577
 20
2.711568393820679
 30
0.0
 10
15.38649460691401
 20
3.129111836751767
 30
0.0
 10
15.31640690570559
 20
3.366498405596685
 30
0.0
 10
15.31640690570558
 20
3.601525432830291
 30
0.0
  0
SPLINE
  5
DB
330
1F
100
AcDbEntity
  8
0
  6
Continuous
 62
     4
370
    15
100
AcDbSpline
210
0.0
220
0.0
230
1.0
 70
     8
 71
     3
 72
     8
 73
     4
 74
     0
 42
0.000000001
 43
0.00000001
 40
0.0
 40
0.0
 40
0.0
 40
0.0
 40
1.0
 40
1.0
 40
1.0
 40
1.0
 10
17.95759388720752
 20
1.406119521048716
 30
0.0
 10
17.33304988249277
 20
1.745370675312517
 30
0.0
 10
16.7071273487786
 20
2.079720249748678
 30
0.0
 10
16.0832177179752
 20
2.407362354841656
 30
0.0
  0
SPLINE
  5
DC
330
1F
100
AcDbEntity
  8
0
  6
Continuous
 62
     4
370
    15
100
AcDbSpline
210
0.0
220
0.0
230
1.0
 70
     8
 71
     3
 72
     8
 73
     4
 74
     0
 42
0.000000001
 43
0.00000001
 40
0.0
 40
0.0
 40
0.0
 40
0.0
 40
1.0
 40
1.0
 40
1.0
 40
1.0
 10
19.92568542889665
 20
-7.379718504538415
 30
0.0
 10
18.2413371619134
 20
-6.536368003325833
 30
0.0
 10
17.97923940809094
 20
-6.392344439378594
 30
0.0
 10
17.71701364232738
 20
-6.247524666233101
 30
0.0
  0
SPLINE
  5
DD
330
1F
100
AcDbEntity
  8
0
  6
Continuous
 62
     4
370
    15
100
AcDbSpline
210
0.0
220
0.0
230
1.0
 70
     8
 71
     3
 72
    14
 73
    10
 74
     0
 42
0.000000001
 43
0.00000001
 40
0.0
 40
0.0
 40
0.0
 40
0.0
 40
0.25
 40
0.25
 40
0.5
 40
0.5
 40
0.75
 40
0.75
 40
1.0
 40
1.0
 40
1.0
 40
1.0
 10
15.43645728439619
 20
-7.515828413576125
 30
0.0
 10
15.43645728439619
 20
-7.266972511652743
 30
0.0
 10
15.50462107591848
 20
-7.018005603639551
 30
0.0
 10
15.7632739549852
 20
-6.579324546475569
 30
0.0
 10
15.95476480810584
 20
-6.389281143540197
 30
0.0
 10
16.41750112101394
 20
-6.125700592232842
 30
0.0
 10
16.68301562604166
 20
-6.055042040091041
 30
0.0
 10
17.21564774187568
 20
-6.051277305609901
 30
0.0
 10
17.48314020101894
 20
-6.118363069101639
 30
0.0
 10
17.71701364232738
 20
-6.247524666233103
 30
0.0
  0
LINE
  5
DE
330
1F
100
AcDbEntity
  8
0
  6
Continuous
 62
     4
370
    15
100
AcDbLine
 10
15.43645726512531
 20
-7.515828448589277
 30
0.0
 11
15.43645726512531
 21
-12.69999984651804
 31
0.0
  0
LINE
  5
E3
330
1F
100
AcDbEntity
  8
0
  6
Continuous
 62
     4
370
    15
100
AcDbLine
 10
-35.57599841302634
 20
12.69999984651804
 30
0.0
 11
-35.57599841302634
 21
-12.69999984651804
 31
0.0
  0
SPLINE
  5
E4
330
1F
100
AcDbEntity
  8
0
  6
Continuous
 62
     1
370
    15
100
AcDbSpline
210
0.0
220
0.0
230
1.0
 70
     8
 71
     3
 72
     8
 73
     4
 74
     0
 42
0.000000001
 43
0.00000001
 40
0.0
 40
0.0
 40
0.0
 40
0.0
 40
1.0
 40
1.0
 40
1.0
 40
1.0
 10
61.80065062675378
 20
-5.340219444479095
 30
0.0
 10
61.65343813681972
 20
-5.29909994554342
 30
0.0
 10
61.47458545929493
 20
-5.223855466350227
 30
0.0
 10
61.29051342165684
 20
-5.127687045525136
 30
0.0
  0
SPLINE
  5
E5
330
1F
100
AcDbEntity
  8
0
  6
Continuous
 62
     1
370
    15
100
AcDbSpline
210
0.0
220
0.0
230
1.0
 70
     8
 71
     3
 72
    12
 73
     8
 74
     0
 42
0.000000001
 43
0.00000001
 40
0.0
 40
0.0
 40
0.0
 40
0.0
 40
0.4999999999999998
 40
0.4999999999999998
 40
0.7499999999999999
 40
0.7499999999999999
 40
1.0
 40
1.0
 40
1.0
 40
1.0
 10
61.29051342165474
 20
-5.127687045524056
 30
0.0
 10
61.2208832173762
 20
-3.844854845346885
 30
0.0
 10
61.14688832972901
 20
-2.438695959005857
 30
0.0
 10
61.03841464621948
 20
-0.3144887266582469
 30
0.0
 10
61.00269362976525
 20
0.3955226327045923
 30
0.0
 10
60.93355478788607
 20
1.790096167655268
 30
0.0
 10
60.90006250960005
 20
2.475358929133669
 30
0.0
 10
60.86476502004814
 20
3.157817393146431
 30
0.0
  0
SPLINE
  5
E6
330
1F
100
AcDbEntity
  8
0
  6
Continuous
 62
     1
370
    15
100
AcDbSpline
210
0.0
220
0.0
230
1.0
 70
     8
 71
     3
 72
     8
 73
     4
 74
     0
 42
0.000000001
 43
0.00000001
 40
0.0
 40
0.0
 40
0.0
 40
0.0
 40
1.0
 40
1.0
 40
1.0
 40
1.0
 10
60.8647650200502
 20
3.157817393145331
 30
0.0
 10
61.04197058925953
 20
3.058583069215407
 30
0.0
 10
61.22151042528674
 20
2.950735033632191
 30
0.0
 10
61.37251463369161
 20
2.856913449252835
 30
0.0
  0
SPLINE
  5
E7
330
1F
100
AcDbEntity
  8
0
  6
Continuous
 62
     1
370
    15
100
AcDbSpline
210
0.0
220
0.0
230
1.0
 70
     8
 71
     3
 72
    12
 73
     8
 74
     0
 42
0.000000001
 43
0.00000001
 40
0.0
 40
0.0
 40
0.0
 40
0.0
 40
0.5
 40
0.5
 40
0.75
 40
0.75
 40
1.0
 40
1.0
 40
1.0
 40
1.0
 10
61.80065062675463
 20
-5.340219444478787
 30
0.0
 10
61.73126904155659
 20
-4.086379559123325
 30
0.0
 10
61.65704429388464
 20
-2.702162570776263
 30
0.0
 10
61.54757966820603
 20
-0.5976666489589271
 30
0.0
 10
61.51142517099966
 20
0.1078956010640979
 30
0.0
 10
61.44126846029455
 20
1.49736243151974
 30
0.0
 10
61.40779111347952
 20
2.177963332659465
 30
0.0
 10
61.37251463369178
 20
2.856913449252749
 30
0.0
  0
SPLINE
  5
E8
330
1F
100
AcDbEntity
  8
0
  6
Continuous
 62
     1
370
    15
100
AcDbSpline
210
0.0
220
0.0
230
1.0
 70
     8
 71
     3
 72
     8
 73
     4
 74
     0
 42
0.000000001
 43
0.00000001
 40
0.0
 40
0.0
 40
0.0
 40
0.0
 40
1.0
 40
1.0
 40
1.0
 40
1.0
 10
61.29051342165475
 20
-5.127687045524051
 30
0.0
 10
61.11325780395839
 20
-5.033694057521555
 30
0.0
 10
60.93377223933059
 20
-4.921905564123427
 30
0.0
 10
60.78282058767515
 20
-4.812564602734187
 30
0.0
  0
SPLINE
  5
E9
330
1F
100
AcDbEntity
  8
0
  6
Continuous
 62
     1
370
    15
100
AcDbSpline
210
0.0
220
0.0
230
1.0
 70
     8
 71
     3
 72
    12
 73
     8
 74
     0
 42
0.000000001
 43
0.00000001
 40
0.0
 40
0.0
 40
0.0
 40
0.0
 40
0.5000000000000001
 40
0.5000000000000001
 40
0.7500000000000002
 40
0.7500000000000002
 40
1.0
 40
1.0
 40
1.0
 40
1.0
 10
60.78282058767454
 20
-4.812564602733727
 30
0.0
 10
60.7122483118862
 20
-3.525586313980855
 30
0.0
 10
60.63762375617701
 20
-2.121887009784377
 30
0.0
 10
60.5289023111648
 20
-0.0144862708779137
 30
0.0
 10
60.49321144832605
 20
0.6877999483066869
 30
0.0
 10
60.42435068804916
 20
2.062988884182121
 30
0.0
 10
60.39010319549169
 20
2.743190678112517
 30
0.0
 10
60.35433629314423
 20
3.416982804583297
 30
0.0
  0
SPLINE
  5
EA
330
1F
100
AcDbEntity
  8
0
  6
Continuous
 62
     1
370
    15
100
AcDbSpline
210
0.0
220
0.0
230
1.0
 70
     8
 71
     3
 72
     8
 73
     4
 74
     0
 42
0.000000001
 43
0.00000001
 40
0.0
 40
0.0
 40
0.0
 40
0.0
 40
1.0
 40
1.0
 40
1.0
 40
1.0
 10
60.35433629314475
 20
3.416982804583371
 30
0.0
 10
60.50164932561893
 20
3.351767473754001
 30
0.0
 10
60.6805373988865
 20
3.260361358424829
 30
0.0
 10
60.86476502004814
 20
3.157817393146483
 30
0.0
  0
SPLINE
  5
EB
330
1F
100
AcDbEntity
  8
0
  6
Continuous
 62
     1
370
    15
100
AcDbSpline
210
0.0
220
0.0
230
1.0
 70
     8
 71
     3
 72
    10
 73
     6
 74
     0
 42
0.000000001
 43
0.00000001
 40
0.0
 40
0.0
 40
0.0
 40
0.0
 40
0.5
 40
0.5
 40
1.0
 40
1.0
 40
1.0
 40
1.0
 10
59.74729291268206
 20
-4.263092258360877
 30
0.0
 10
59.59986368092817
 20
-4.207670283891879
 30
0.0
 10
59.42340829137231
 20
-4.123950680576273
 30
0.0
 10
59.06184844526418
 20
-3.927880667467015
 30
0.0
 10
58.87474075492581
 20
-3.814377225263627
 30
0.0
 10
58.71734923536967
 20
-3.709905282621065
 30
0.0
  0
SPLINE
  5
EC
330
1F
100
AcDbEntity
  8
0
  6
Continuous
 62
     1
370
    15
100
AcDbSpline
210
0.0
220
0.0
230
1.0
 70
     8
 71
     3
 72
    12
 73
     8
 74
     0
 42
0.000000001
 43
0.00000001
 40
0.0
 40
0.0
 40
0.0
 40
0.0
 40
0.5
 40
0.5
 40
0.75
 40
0.75
 40
1.0
 40
1.0
 40
1.0
 40
1.0
 10
58.71734923536964
 20
-3.709905282621045
 30
0.0
 10
58.64503712158404
 20
-2.368218382044257
 30
0.0
 10
58.57038715514888
 20
-0.9404177375673975
 30
0.0
 10
58.46421033242993
 20
1.151213222016266
 30
0.0
 10
58.4306639186224
 20
1.834234475404805
 30
0.0
 10
58.3608649523094
 20
3.194629365630325
 30
0.0
 10
58.32484165578275
 20
3.870303420745009
 30
0.0
 10
58.28842816488971
 20
4.526597733688979
 30
0.0
  0
SPLINE
  5
ED
330
1F
100
AcDbEntity
  8
0
  6
Continuous
 62
     1
370
    15
100
AcDbSpline
210
0.0
220
0.0
230
1.0
 70
     8
 71
     3
 72
    10
 73
     6
 74
     0
 42
0.000000001
 43
0.00000001
 40
0.0
 40
0.0
 40
0.0
 40
0.0
 40
0.5
 40
0.5
 40
1.0
 40
1.0
 40
1.0
 40
1.0
 10
58.28842816488984
 20
4.526597733687095
 30
0.0
 10
58.43594078159805
 20
4.474554333084323
 30
0.0
 10
58.61247683371877
 20
4.393072853685055
 30
0.0
 10
58.97409614177589
 20
4.198782220391051
 30
0.0
 10
59.16117010650656
 20
4.084816311147473
 30
0.0
 10
59.31852650687139
 20
3.978122724353099
 30
0.0
  0
SPLINE
  5
EE
330
1F
100
AcDbEntity
  8
0
  6
Continuous
 62
     1
370
    15
100
AcDbSpline
210
0.0
220
0.0
230
1.0
 70
     8
 71
     3
 72
    12
 73
     8
 74
     0
 42
0.000000001
 43
0.00000001
 40
0.0
 40
0.0
 40
0.0
 40
0.0
 40
0.5
 40
0.5
 40
0.75
 40
0.75
 40
1.0
 40
1.0
 40
1.0
 40
1.0
 10
59.74729291268203
 20
-4.263092258360805
 30
0.0
 10
59.67572931404216
 20
-2.946764327465713
 30
0.0
 10
59.60095796686288
 20
-1.528656777239751
 30
0.0
 10
59.49334108183142
 20
0.5739595207102217
 30
0.0
 10
59.45870765873971
 20
1.267281966240533
 30
0.0
 10
59.39022574131326
 20
2.630776951580061
 30
0.0
 10
59.35467860602742
 20
3.312087546329383
 30
0.0
 10
59.31852650687138
 20
3.978122724353447
 30
0.0
  0
SPLINE
  5
EF
330
1F
100
AcDbEntity
  8
0
  6
Continuous
 62
     1
370
    15
100
AcDbSpline
210
0.0
220
0.0
230
1.0
 70
     8
 71
     3
 72
     9
 73
     5
 74
     0
 42
0.000000001
 43
0.00000001
 40
0.0
 40
0.0
 40
0.0
 40
0.0
 40
0.2992292604261273
 40
1.0
 40
1.0
 40
1.0
 40
1.0
 10
62.66387914472817
 20
-5.747181829065087
 30
0.0
 10
62.50062633502289
 20
-5.789190231673613
 30
0.0
 10
61.95504864160881
 20
-5.929578917421463
 30
0.0
 10
61.34242462454762
 20
-6.207203362412689
 30
0.0
 10
60.91311563903092
 20
-6.401754450052979
 30
0.0
  0
SPLINE
  5
F0
330
1F
100
AcDbEntity
  8
0
  6
Continuous
 62
     1
370
    15
100
AcDbSpline
210
0.0
220
0.0
230
1.0
 70
     8
 71
     3
 72
     8
 73
     4
 74
     0
 42
0.000000001
 43
0.00000001
 40
0.0
 40
0.0
 40
0.0
 40
0.0
 40
1.0
 40
1.0
 40
1.0
 40
1.0
 10
65.02399984651804
 20
-7.424523816498305
 30
0.0
 10
63.61889903666753
 20
-7.209254721625389
 30
0.0
 10
62.249778828554
 20
-6.864093602086867
 30
0.0
 10
60.9131174113962
 20
-6.401754395692795
 30
0.0
  0
LINE
  5
F1
330
1F
100
AcDbEntity
  8
0
  6
Continuous
 62
     1
370
    15
100
AcDbLine
 10
65.02399956041573
 20
-10.5360709130764
 30
0.0
 11
65.02399956041573
 21
-7.424523588269951
 31
0.0
  0
SPLINE
  5
F2
330
1F
100
AcDbEntity
  8
0
  6
Continuous
 62
     1
370
    15
100
AcDbSpline
210
0.0
220
0.0
230
1.0
 70
     8
 71
     3
 72
     8
 73
     4
 74
     0
 42
0.000000001
 43
0.00000001
 40
0.0
 40
0.0
 40
0.0
 40
0.0
 40
1.0
 40
1.0
 40
1.0
 40
1.0
 10
64.08058911391477
 20
-11.54071566159806
 30
0.0
 10
64.39132689040603
 20
-11.20111042290222
 30
0.0
 10
64.70537408663469
 20
-10.86580461718477
 30
0.0
 10
65.02399984651804
 20
-10.53607118004654
 30
0.0
  0
SPLINE
  5
F3
330
1F
100
AcDbEntity
  8
0
  6
Continuous
 62
     1
370
    15
100
AcDbSpline
210
0.0
220
0.0
230
1.0
 70
     8
 71
     3
 72
     8
 73
     4
 74
     0
 42
0.000000001
 43
0.00000001
 40
0.0
 40
0.0
 40
0.0
 40
0.0
 40
1.0
 40
1.0
 40
1.0
 40
1.0
 10
63.77896627744974
 20
-11.48176464709288
 30
0.0
 10
63.87058974852822
 20
-11.52253697610674
 30
0.0
 10
63.97142077873663
 20
-11.54156377647022
 30
0.0
 10
64.08058911391463
 20
-11.54071566159795
 30
0.0
  0
SPLINE
  5
F4
330
1F
100
AcDbEntity
  8
0
  6
Continuous
 62
     1
370
    15
100
AcDbSpline
210
0.0
220
0.0
230
1.0
 70
     8
 71
     3
 72
    10
 73
     6
 74
     0
 42
0.000000001
 43
0.00000001
 40
0.0
 40
0.0
 40
0.0
 40
0.0
 40
0.5
 40
0.5
 40
1.0
 40
1.0
 40
1.0
 40
1.0
 10
62.74313778461844
 20
-11.70244669156959
 30
0.0
 10
62.89949390390892
 20
-11.56119984858857
 30
0.0
 10
63.08660383661547
 20
-11.47446050104382
 30
0.0
 10
63.45496400965988
 20
-11.40197883615056
 30
0.0
 10
63.63162615448903
 20
-11.41619847829805
 30
0.0
 10
63.77896627744994
 20
-11.48176464709297
 30
0.0
  0
SPLINE
  5
F5
330
1F
100
AcDbEntity
  8
0
  6
Continuous
 62
     1
370
    15
100
AcDbSpline
210
0.0
220
0.0
230
1.0
 70
     8
 71
     3
 72
     8
 73
     4
 74
     0
 42
0.000000001
 43
0.00000001
 40
0.0
 40
0.0
 40
0.0
 40
0.0
 40
1.0
 40
1.0
 40
1.0
 40
1.0
 10
62.23525803458712
 20
-11.96125299958885
 30
0.0
 10
62.41255250704933
 20
-11.92569338021675
 30
0.0
 10
62.59212838350928
 20
-11.83886348973443
 30
0.0
 10
62.74313778461782
 20
-11.70244669157013
 30
0.0
  0
SPLINE
  5
F6
330
1F
100
AcDbEntity
  8
0
  6
Continuous
 62
     1
370
    15
100
AcDbSpline
210
0.0
220
0.0
230
1.0
 70
     8
 71
     3
 72
     8
 73
     4
 74
     0
 42
0.000000001
 43
0.00000001
 40
0.0
 40
0.0
 40
0.0
 40
0.0
 40
1.0
 40
1.0
 40
1.0
 40
1.0
 10
61.72482597004901
 20
-11.89031973057972
 30
0.0
 10
61.87211316028679
 20
-11.97027065811529
 30
0.0
 10
62.05104474494021
 20
-11.9936667128644
 30
0.0
 10
62.2352580345853
 20
-11.9612529995892
 30
0.0
  0
SPLINE
  5
F7
330
1F
100
AcDbEntity
  8
0
  6
Continuous
 62
     1
370
    15
100
AcDbSpline
210
0.0
220
0.0
230
1.0
 70
     8
 71
     3
 72
    10
 73
     6
 74
     0
 42
0.000000001
 43
0.00000001
 40
0.0
 40
0.0
 40
0.0
 40
0.0
 40
0.5
 40
0.5
 40
1.0
 40
1.0
 40
1.0
 40
1.0
 10
60.68932083957203
 20
-12.05142445542884
 30
0.0
 10
60.84658487248808
 20
-11.91413260602802
 30
0.0
 10
61.03391717341525
 20
-11.83539892448629
 30
0.0
 10
61.40193882665645
 20
-11.78387527743621
 30
0.0
 10
61.57830330254421
 20
-11.81078380384245
 30
0.0
 10
61.72482597004884
 20
-11.89031973057945
 30
0.0
  0
SPLINE
  5
F8
330
1F
100
AcDbEntity
  8
0
  6
Continuous
 62
     1
370
    15
100
AcDbSpline
210
0.0
220
0.0
230
1.0
 70
     8
 71
     3
 72
    10
 73
     6
 74
     0
 42
0.000000001
 43
0.00000001
 40
0.0
 40
0.0
 40
0.0
 40
0.0
 40
0.5
 40
0.5
 40
1.0
 40
1.0
 40
1.0
 40
1.0
 10
59.65991405046691
 20
-12.18939004942276
 30
0.0
 10
59.80733213050719
 20
-12.27941601171865
 30
0.0
 10
59.98377198869021
 20
-12.31230404872539
 30
0.0
 10
60.34512404798021
 20
-12.2674387356888
 30
0.0
 10
60.53201206590427
 20
-12.18875536360507
 30
0.0
 10
60.68932083957212
 20
-12.05142445542876
 30
0.0
  0
SPLINE
  5
F9
330
1F
100
AcDbEntity
  8
0
  6
Continuous
 62
     1
370
    15
100
AcDbSpline
210
0.0
220
0.0
230
1.0
 70
     8
 71
     3
 72
    10
 73
     6
 74
     0
 42
0.000000001
 43
0.00000001
 40
0.0
 40
0.0
 40
0.0
 40
0.0
 40
0.5
 40
0.5
 40
1.0
 40
1.0
 40
1.0
 40
1.0
 10
58.62523648137267
 20
-12.30511683374231
 30
0.0
 10
58.78141336265914
 20
-12.1706004703515
 30
0.0
 10
58.96834201794623
 20
-12.09791046206809
 30
0.0
 10
59.33634531231853
 20
-12.06266618349827
 30
0.0
 10
59.51278737953139
 20
-12.09954204620129
 30
0.0
 10
59.65991405046691
 20
-12.18939004942277
 30
0.0
  0
SPLINE
  5
FA
330
1F
100
AcDbEntity
  8
0
  6
Continuous
 62
     1
370
    15
100
AcDbSpline
210
0.0
220
0.0
230
1.0
 70
     8
 71
     3
 72
     8
 73
     4
 74
     0
 42
0.000000001
 43
0.00000001
 40
0.0
 40
0.0
 40
0.0
 40
0.0
 40
1.0
 40
1.0
 40
1.0
 40
1.0
 10
58.11782389112157
 20
-12.52425355199922
 30
0.0
 10
58.29498410725698
 20
-12.50704294452558
 30
0.0
 10
58.47439987437831
 20
-12.4350335773212
 30
0.0
 10
58.62523648137193
 20
-12.30511683374292
 30
0.0
  0
SPLINE
  5
FB
330
1F
100
AcDbEntity
  8
0
  6
Continuous
 62
     1
370
    15
100
AcDbSpline
210
0.0
220
0.0
230
1.0
 70
     8
 71
     3
 72
     8
 73
     4
 74
     0
 42
0.000000001
 43
0.00000001
 40
0.0
 40
0.0
 40
0.0
 40
0.0
 40
1.0
 40
1.0
 40
1.0
 40
1.0
 10
57.60778821375142
 20
-12.38810941230196
 30
0.0
 10
57.75494638984611
 20
-12.49102095209096
 30
0.0
 10
57.93374509779963
 20
-12.5372602807361
 30
0.0
 10
58.11782389111956
 20
-12.5242535519994
 30
0.0
  0
SPLINE
  5
FC
330
1F
100
AcDbEntity
  8
0
  6
Continuous
 62
     1
370
    15
100
AcDbSpline
210
0.0
220
0.0
230
1.0
 70
     8
 71
     3
 72
    10
 73
     6
 74
     0
 42
0.000000001
 43
0.00000001
 40
0.0
 40
0.0
 40
0.0
 40
0.0
 40
0.5
 40
0.5
 40
1.0
 40
1.0
 40
1.0
 40
1.0
 10
56.57255548137863
 20
-12.44101880053135
 30
0.0
 10
56.72978157266994
 20
-12.31307734251395
 30
0.0
 10
56.91707920065214
 20
-12.24991748296328
 30
0.0
 10
57.28503426659492
 20
-12.23661791961668
 30
0.0
 10
57.46135014716249
 20
-12.2857014638181
 30
0.0
 10
57.60778821375069
 20
-12.38810941230136
 30
0.0
  0
SPLINE
  5
FD
330
1F
100
AcDbEntity
  8
0
  6
Continuous
 62
     1
370
    15
100
AcDbSpline
210
0.0
220
0.0
230
1.0
 70
     8
 71
     3
 72
    10
 73
     6
 74
     0
 42
0.000000001
 43
0.00000001
 40
0.0
 40
0.0
 40
0.0
 40
0.0
 40
0.5
 40
0.5
 40
1.0
 40
1.0
 40
1.0
 40
1.0
 10
55.54273793453598
 20
-12.470802877019
 30
0.0
 10
55.69020430239516
 20
-12.58195025318709
 30
0.0
 10
55.86658590393901
 20
-12.63656256978234
 30
0.0
 10
56.22804866943318
 20
-12.63056827463107
 30
0.0
 10
56.41514265570966
 20
-12.56911221213577
 30
0.0
 10
56.57255548137863
 20
-12.44101880053135
 30
0.0
  0
SPLINE
  5
FE
330
1F
100
AcDbEntity
  8
0
  6
Continuous
 62
     1
370
    15
100
AcDbSpline
210
0.0
220
0.0
230
1.0
 70
     8
 71
     3
 72
    10
 73
     6
 74
     0
 42
0.000000001
 43
0.00000001
 40
0.0
 40
0.0
 40
0.0
 40
0.0
 40
0.5
 40
0.5
 40
1.0
 40
1.0
 40
1.0
 40
1.0
 10
54.50697652114454
 20
-12.47763723420058
 30
0.0
 10
54.6633762086843
 20
-12.35444746290213
 30
0.0
 10
54.85050595144931
 20
-12.2984169442577
 30
0.0
 10
55.21882620485096
 20
-12.30161042123296
 30
0.0
 10
55.39543982801763
 20
-12.35978232167664
 30
0.0
 10
55.54273793453598
 20
-12.47080287701898
 30
0.0
  0
SPLINE
  5
FF
330
1F
100
AcDbEntity
  8
0
  6
Continuous
 62
     1
370
    15
100
AcDbSpline
210
0.0
220
0.0
230
1.0
 70
     8
 71
     3
 72
     8
 73
     4
 74
     0
 42
0.000000001
 43
0.00000001
 40
0.0
 40
0.0
 40
0.0
 40
0.0
 40
1.0
 40
1.0
 40
1.0
 40
1.0
 10
53.99902682103335
 20
-12.64951080902653
 30
0.0
 10
54.17636042282885
 20
-12.65122922001971
 30
0.0
 10
54.35595173075109
 20
-12.59659341423895
 30
0.0
 10
54.50697652114383
 20
-12.47763723420116
 30
0.0
  0
SPLINE
  5
100
330
1F
100
AcDbEntity
  8
0
  6
Continuous
 62
     1
370
    15
100
AcDbSpline
210
0.0
220
0.0
230
1.0
 70
     8
 71
     3
 72
     8
 73
     4
 74
     0
 42
0.000000001
 43
0.00000001
 40
0.0
 40
0.0
 40
0.0
 40
0.0
 40
1.0
 40
1.0
 40
1.0
 40
1.0
 10
53.48843047321645
 20
-12.45298640308627
 30
0.0
 10
53.63579205617099
 20
-12.57529024034652
 30
0.0
 10
53.81478416190831
 20
-12.64267910000092
 30
0.0
 10
53.99902682103137
 20
-12.64951080902649
 30
0.0
  0
SPLINE
  5
101
330
1F
100
AcDbEntity
  8
0
  6
Continuous
 62
     1
370
    15
100
AcDbSpline
210
0.0
220
0.0
230
1.0
 70
     8
 71
     3
 72
    10
 73
     6
 74
     0
 42
0.000000001
 43
0.00000001
 40
0.0
 40
0.0
 40
0.0
 40
0.0
 40
0.5
 40
0.5
 40
1.0
 40
1.0
 40
1.0
 40
1.0
 10
52.45238032997926
 20
-12.39601844784422
 30
0.0
 10
52.60974546187845
 20
-12.28178164206742
 30
0.0
 10
52.79719850951879
 20
-12.23641579593528
 30
0.0
 10
53.16542381602125
 20
-12.2618120893584
 30
0.0
 10
53.3418520674031
 20
-12.33133256949471
 30
0.0
 10
53.48843047321581
 20
-12.45298640308577
 30
0.0
  0
SPLINE
  5
102
330
1F
100
AcDbEntity
  8
0
  6
Continuous
 62
     1
370
    15
100
AcDbSpline
210
0.0
220
0.0
230
1.0
 70
     8
 71
     3
 72
    10
 73
     6
 74
     0
 42
0.000000001
 43
0.00000001
 40
0.0
 40
0.0
 40
0.0
 40
0.0
 40
0.5
 40
0.5
 40
1.0
 40
1.0
 40
1.0
 40
1.0
 10
51.42204347674135
 20
-12.31651514349065
 30
0.0
 10
51.56954350951533
 20
-12.44498744172948
 30
0.0
 10
51.74604735150042
 20
-12.51949648137709
 30
0.0
 10
52.10771384179564
 20
-12.55248750544795
 30
0.0
 10
52.29489624397434
 20
-12.51034160653103
 30
0.0
 10
52.45238032997927
 20
-12.39601844784421
 30
0.0
  0
SPLINE
  5
103
330
1F
100
AcDbEntity
  8
0
  6
Continuous
 62
     1
370
    15
100
AcDbSpline
210
0.0
220
0.0
230
1.0
 70
     8
 71
     3
 72
    10
 73
     6
 74
     0
 42
0.000000001
 43
0.00000001
 40
0.0
 40
0.0
 40
0.0
 40
0.0
 40
0.5
 40
0.5
 40
1.0
 40
1.0
 40
1.0
 40
1.0
 10
50.38594052415689
 20
-12.21368958598238
 30
0.0
 10
50.54241963706954
 20
-12.10621692859313
 30
0.0
 10
50.72961641660059
 20
-12.06887052053861
 30
0.0
 10
51.09800817726479
 20
-12.11059276150566
 30
0.0
 10
51.27463463059897
 20
-12.18812226866549
 30
0.0
 10
51.42204347674135
 20
-12.31651514349063
 30
0.0
  0
SPLINE
  5
104
330
1F
100
AcDbEntity
  8
0
  6
Continuous
 62
     1
370
    15
100
AcDbSpline
210
0.0
220
0.0
230
1.0
 70
     8
 71
     3
 72
     8
 73
     4
 74
     0
 42
0.000000001
 43
0.00000001
 40
0.0
 40
0.0
 40
0.0
 40
0.0
 40
1.0
 40
1.0
 40
1.0
 40
1.0
 10
49.87793405660911
 20
-12.33212106066219
 30
0.0
 10
50.05528797884038
 20
-12.35275516665071
 30
0.0
 10
50.23488972880563
 20
-12.31743397764552
 30
0.0
 10
50.38594052415618
 20
-12.21368958598285
 30
0.0
  0
SPLINE
  5
105
330
1F
100
AcDbEntity
  8
0
  6
Continuous
 62
     1
370
    15
100
AcDbSpline
210
0.0
220
0.0
230
1.0
 70
     8
 71
     3
 72
     8
 73
     4
 74
     0
 42
0.000000001
 43
0.00000001
 40
0.0
 40
0.0
 40
0.0
 40
0.0
 40
1.0
 40
1.0
 40
1.0
 40
1.0
 10
49.36735331915774
 20
-12.08199374456655
 30
0.0
 10
49.51471540432954
 20
-12.21941954549383
 30
0.0
 10
49.69370943468029
 20
-12.30564720098478
 30
0.0
 10
49.87793405660705
 20
-12.33212106066192
 30
0.0
  0
SPLINE
  5
106
330
1F
100
AcDbEntity
  8
0
  6
Continuous
 62
     1
370
    15
100
AcDbSpline
210
0.0
220
0.0
230
1.0
 70
     8
 71
     3
 72
    10
 73
     6
 74
     0
 42
0.000000001
 43
0.00000001
 40
0.0
 40
0.0
 40
0.0
 40
0.0
 40
0.5
 40
0.5
 40
1.0
 40
1.0
 40
1.0
 40
1.0
 10
48.33156731875511
 20
-11.91719198375465
 30
0.0
 10
48.48888980273421
 20
-11.82066938183266
 30
0.0
 10
48.67631473196059
 20
-11.79463330967132
 30
0.0
 10
49.04447283373558
 20
-11.85781026522891
 30
0.0
 10
49.22082959864135
 20
-11.94534977930632
 30
0.0
 10
49.36735331915699
 20
-12.08199374456588
 30
0.0
  0
SPLINE
  5
107
330
1F
100
AcDbEntity
  8
0
  6
Continuous
 62
     1
370
    15
100
AcDbSpline
210
0.0
220
0.0
230
1.0
 70
     8
 71
     3
 72
    10
 73
     6
 74
     0
 42
0.000000001
 43
0.00000001
 40
0.0
 40
0.0
 40
0.0
 40
0.0
 40
0.5
 40
0.5
 40
1.0
 40
1.0
 40
1.0
 40
1.0
 10
47.30179890729531
 20
-11.73154429297874
 30
0.0
 10
47.44919548392372
 20
-11.87282412613334
 30
0.0
 10
47.62562259657712
 20
-11.96452092044203
 30
0.0
 10
47.98712893424877
 20
-12.03519203763397
 30
0.0
 10
48.17420760251753
 20
-12.01373742891148
 30
0.0
 10
48.33156731875506
 20
-11.91719198375461
 30
0.0
  0
SPLINE
  5
108
330
1F
100
AcDbEntity
  8
0
  6
Continuous
 62
     1
370
    15
100
AcDbSpline
210
0.0
220
0.0
230
1.0
 70
     8
 71
     3
 72
    10
 73
     6
 74
     0
 42
0.000000001
 43
0.00000001
 40
0.0
 40
0.0
 40
0.0
 40
0.0
 40
0.5
 40
0.5
 40
1.0
 40
1.0
 40
1.0
 40
1.0
 10
46.26649456470965
 20
-11.52280079863307
 30
0.0
 10
46.42279713509365
 20
-11.43491251321201
 30
0.0
 10
46.60973894065449
 20
-11.41755236777896
 30
0.0
 10
46.97785020561906
 20
-11.49619574180416
 30
0.0
 10
47.15447556367625
 20
-11.59033465377008
 30
0.0
 10
47.30179890729534
 20
-11.73154429297873
 30
0.0
  0
SPLINE
  5
109
330
1F
100
AcDbEntity
  8
0
  6
Continuous
 62
     1
370
    15
100
AcDbSpline
210
0.0
220
0.0
230
1.0
 70
     8
 71
     3
 72
     8
 73
     4
 74
     0
 42
0.000000001
 43
0.00000001
 40
0.0
 40
0.0
 40
0.0
 40
0.0
 40
1.0
 40
1.0
 40
1.0
 40
1.0
 10
45.75891481513877
 20
-11.58361505427697
 30
0.0
 10
45.93613501351661
 20
-11.62244738475425
 30
0.0
 10
46.11558108754739
 20
-11.60765881934308
 30
0.0
 10
46.26649456470891
 20
-11.52280079863346
 30
0.0
  0
SPLINE
  5
10A
330
1F
100
AcDbEntity
  8
0
  6
Continuous
 62
     1
370
    15
100
AcDbSpline
210
0.0
220
0.0
230
1.0
 70
     8
 71
     3
 72
     8
 73
     4
 74
     0
 42
0.000000001
 43
0.00000001
 40
0.0
 40
0.0
 40
0.0
 40
0.0
 40
1.0
 40
1.0
 40
1.0
 40
1.0
 10
45.24892557321046
 20
-11.28869699420398
 30
0.0
 10
45.39608566517796
 20
-11.43638883837245
 30
0.0
 10
45.57489015642631
 20
-11.53843330698322
 30
0.0
 10
45.75891481513673
 20
-11.5836150542765
 30
0.0
  0
SPLINE
  5
10B
330
1F
100
AcDbEntity
  8
0
  6
Continuous
 62
     1
370
    15
100
AcDbSpline
210
0.0
220
0.0
230
1.0
 70
     8
 71
     3
 72
    10
 73
     6
 74
     0
 42
0.000000001
 43
0.00000001
 40
0.0
 40
0.0
 40
0.0
 40
0.0
 40
0.5
 40
0.5
 40
1.0
 40
1.0
 40
1.0
 40
1.0
 10
44.21423941144495
 20
-11.0221012170198
 30
0.0
 10
44.37139591187187
 20
-10.94666246423763
 30
0.0
 10
44.55864595853579
 20
-10.94077808122095
 30
0.0
 10
44.92646401891881
 20
-11.03939143826591
 30
0.0
 10
45.10261990425507
 20
-11.14186266044221
 30
0.0
 10
45.24892557320975
 20
-11.28869699420347
 30
0.0
  0
SPLINE
  5
10C
330
1F
100
AcDbEntity
  8
0
  6
Continuous
 62
     1
370
    15
100
AcDbSpline
210
0.0
220
0.0
230
1.0
 70
     8
 71
     3
 72
    10
 73
     6
 74
     0
 42
0.000000001
 43
0.00000001
 40
0.0
 40
0.0
 40
0.0
 40
0.0
 40
0.5
 40
0.5
 40
1.0
 40
1.0
 40
1.0
 40
1.0
 10
43.18499431532975
 20
-10.73710843713997
 30
0.0
 10
43.33232186885265
 20
-10.88616993077652
 30
0.0
 10
43.50867281149024
 20
-10.99180407396761
 30
0.0
 10
43.87001752392743
 20
-11.09761981087933
 30
0.0
 10
44.05700454437771
 20
-11.09757758760071
 30
0.0
 10
44.21423941144495
 20
-11.02210121701979
 30
0.0
  0
SPLINE
  5
10D
330
1F
100
AcDbEntity
  8
0
  6
Continuous
 62
     1
370
    15
100
AcDbSpline
210
0.0
220
0.0
230
1.0
 70
     8
 71
     3
 72
    10
 73
     6
 74
     0
 42
0.000000001
 43
0.00000001
 40
0.0
 40
0.0
 40
0.0
 40
0.0
 40
0.5
 40
0.5
 40
1.0
 40
1.0
 40
1.0
 40
1.0
 10
42.14958986801745
 20
-10.43015801728935
 30
0.0
 10
42.30585897591276
 20
-10.36493037685955
 30
0.0
 10
42.49282646625169
 20
-10.36797794516323
 30
0.0
 10
42.86098785362675
 20
-10.48063545196186
 30
0.0
 10
43.03767701405449
 20
-10.58805731641269
 30
0.0
 10
43.18499431532971
 20
-10.73710843713995
 30
0.0
  0
SPLINE
  5
10E
330
1F
100
AcDbEntity
  8
0
  6
Continuous
 62
     1
370
    15
100
AcDbSpline
210
0.0
220
0.0
230
1.0
 70
     8
 71
     3
 72
     8
 73
     4
 74
     0
 42
0.000000001
 43
0.00000001
 40
0.0
 40
0.0
 40
0.0
 40
0.0
 40
1.0
 40
1.0
 40
1.0
 40
1.0
 10
41.64170904656419
 20
-10.43093207593759
 30
0.0
 10
41.81901253386582
 20
-10.48671302873058
 30
0.0
 10
41.99853422872973
 20
-10.49320952540259
 30
0.0
 10
42.14958986801673
 20
-10.43015801728963
 30
0.0
  0
SPLINE
  5
10F
330
1F
100
AcDbEntity
  8
0
  6
Continuous
 62
     1
370
    15
100
AcDbSpline
210
0.0
220
0.0
230
1.0
 70
     8
 71
     3
 72
     8
 73
     4
 74
     0
 42
0.000000001
 43
0.00000001
 40
0.0
 40
0.0
 40
0.0
 40
0.0
 40
1.0
 40
1.0
 40
1.0
 40
1.0
 10
41.13120089153721
 20
-10.10111528966563
 30
0.0
 10
41.27857102890241
 20
-10.25406282187561
 30
0.0
 10
41.45754116799633
 20
-10.3684841974847
 30
0.0
 10
41.64170904656219
 20
-10.43093207593694
 30
0.0
  0
SPLINE
  5
110
330
1F
100
AcDbEntity
  8
0
  6
Continuous
 62
     1
370
    15
100
AcDbSpline
210
0.0
220
0.0
230
1.0
 70
     8
 71
     3
 72
    10
 73
     6
 74
     0
 42
0.000000001
 43
0.00000001
 40
0.0
 40
0.0
 40
0.0
 40
0.0
 40
0.5
 40
0.5
 40
1.0
 40
1.0
 40
1.0
 40
1.0
 10
40.09530621880847
 20
-9.741240532706058
 30
0.0
 10
40.25268845415933
 20
-9.68954278103548
 30
0.0
 10
40.44016144249667
 20
-9.704239910611372
 30
0.0
 10
40.80834927689286
 20
-9.835158079457083
 30
0.0
 10
40.98469036389162
 20
-9.949059900108095
 30
0.0
 10
41.13120089153649
 20
-10.10111528966514
 30
0.0
  0
SPLINE
  5
111
330
1F
100
AcDbEntity
  8
0
  6
Continuous
 62
     1
370
    15
100
AcDbSpline
210
0.0
220
0.0
230
1.0
 70
     8
 71
     3
 72
    10
 73
     6
 74
     0
 42
0.000000001
 43
0.00000001
 40
0.0
 40
0.0
 40
0.0
 40
0.0
 40
0.5
 40
0.5
 40
1.0
 40
1.0
 40
1.0
 40
1.0
 10
39.06512407774653
 20
-9.366344530662976
 30
0.0
 10
39.21262727865383
 20
-9.518102775635663
 30
0.0
 10
39.38915541226285
 20
-9.634030324309647
 30
0.0
 10
39.75080303840557
 20
-9.771435258344818
 30
0.0
 10
39.93792025850725
 20
-9.792939507968091
 30
0.0
 10
40.09530621880845
 20
-9.741240532706067
 30
0.0
  0
SPLINE
  5
112
330
1F
100
AcDbEntity
  8
0
  6
Continuous
 62
     1
370
    15
100
AcDbSpline
210
0.0
220
0.0
230
1.0
 70
     8
 71
     3
 72
    10
 73
     6
 74
     0
 42
0.000000001
 43
0.00000001
 40
0.0
 40
0.0
 40
0.0
 40
0.0
 40
0.5
 40
0.5
 40
1.0
 40
1.0
 40
1.0
 40
1.0
 10
38.02908092014499
 20
-8.97185764741788
 30
0.0
 10
38.18545054454911
 20
-8.931395852227263
 30
0.0
 10
38.37254321236242
 20
-8.95483503504199
 30
0.0
 10
38.74092926354789
 20
-9.097703247445622
 30
0.0
 10
38.91770134511997
 20
-9.214669075250002
 30
0.0
 10
39.0651240777465
 20
-9.366344530662955
 30
0.0
  0
SPLINE
  5
113
330
1F
100
AcDbEntity
  8
0
  6
Continuous
 62
     1
370
    15
100
AcDbSpline
210
0.0
220
0.0
230
1.0
 70
     8
 71
     3
 72
     8
 73
     4
 74
     0
 42
0.000000001
 43
0.00000001
 40
0.0
 40
0.0
 40
0.0
 40
0.0
 40
1.0
 40
1.0
 40
1.0
 40
1.0
 10
37.52099867104643
 20
-8.912916349400595
 30
0.0
 10
37.69829203408339
 20
-8.98367652870982
 30
0.0
 10
37.87794307654979
 20
-9.010965680684345
 30
0.0
 10
38.02908092014427
 20
-8.97185764741805
 30
0.0
  0
SPLINE
  5
114
330
1F
100
AcDbEntity
  8
0
  6
Continuous
 62
     1
370
    15
100
AcDbSpline
210
0.0
220
0.0
230
1.0
 70
     8
 71
     3
 72
     8
 73
     4
 74
     0
 42
0.000000001
 43
0.00000001
 40
0.0
 40
0.0
 40
0.0
 40
0.0
 40
1.0
 40
1.0
 40
1.0
 40
1.0
 10
37.01027684404583
 20
-8.559550651960967
 30
0.0
 10
37.15773262817533
 20
-8.712459706263756
 30
0.0
 10
37.3367288035851
 20
-8.83537277893758
 30
0.0
 10
37.52099867104443
 20
-8.912916349399781
 30
0.0
  0
SPLINE
  5
115
330
1F
100
AcDbEntity
  8
0
  6
Continuous
 62
     1
370
    15
100
AcDbSpline
210
0.0
220
0.0
230
1.0
 70
     8
 71
     3
 72
    10
 73
     6
 74
     0
 42
0.000000001
 43
0.00000001
 40
0.0
 40
0.0
 40
0.0
 40
0.0
 40
0.5
 40
0.5
 40
1.0
 40
1.0
 40
1.0
 40
1.0
 10
35.97421002773007
 20
-8.118839032774988
 30
0.0
 10
36.13164247660635
 20
-8.09274304363714
 30
0.0
 10
36.31916252063419
 20
-8.127494740251263
 30
0.0
 10
36.68739651493739
 20
-8.286186445084981
 30
0.0
 10
36.86373663749105
 20
-8.40759103549752
 30
0.0
 10
37.01027684404515
 20
-8.559550651960608
 30
0.0
  0
SPLINE
  5
116
330
1F
100
AcDbEntity
  8
0
  6
Continuous
 62
     1
370
    15
100
AcDbSpline
210
0.0
220
0.0
230
1.0
 70
     8
 71
     3
 72
    10
 73
     6
 74
     0
 42
0.000000001
 43
0.00000001
 40
0.0
 40
0.0
 40
0.0
 40
0.0
 40
0.5
 40
0.5
 40
1.0
 40
1.0
 40
1.0
 40
1.0
 10
34.94416302382226
 20
-7.667281689393471
 30
0.0
 10
35.09164787022659
 20
-7.816367545285739
 30
0.0
 10
35.26816883420489
 20
-7.938512910545323
 30
0.0
 10
35.62977795033069
 20
-8.102662748893815
 30
0.0
 10
35.81685380535777
 20
-8.144922386614086
 30
0.0
 10
35.97421002773007
 20
-8.118839032774963
 30
0.0
  0
SPLINE
  5
117
330
1F
100
AcDbEntity
  8
0
  6
Continuous
 62
     1
370
    15
100
AcDbSpline
210
0.0
220
0.0
230
1.0
 70
     8
 71
     3
 72
    10
 73
     6
 74
     0
 42
0.000000001
 43
0.00000001
 40
0.0
 40
0.0
 40
0.0
 40
0.0
 40
0.5
 40
0.5
 40
1.0
 40
1.0
 40
1.0
 40
1.0
 10
33.90856234798586
 20
-7.199422644884593
 30
0.0
 10
34.06485103985955
 20
-7.185105152614805
 30
0.0
 10
34.25188455451843
 20
-7.22802312547033
 30
0.0
 10
34.62015758400808
 20
-7.395978775233625
 30
0.0
 10
34.79682963627621
 20
-7.518348936508531
 30
0.0
 10
34.94416302382223
 20
-7.667281689393451
 30
0.0
  0
SPLINE
  5
118
330
1F
100
AcDbEntity
  8
0
  6
Continuous
 62
     1
370
    15
100
AcDbSpline
210
0.0
220
0.0
230
1.0
 70
     8
 71
     3
 72
     8
 73
     4
 74
     0
 42
0.000000001
 43
0.00000001
 40
0.0
 40
0.0
 40
0.0
 40
0.0
 40
1.0
 40
1.0
 40
1.0
 40
1.0
 10
33.40078162106165
 20
-7.083260659200155
 30
0.0
 10
33.57800426480297
 20
-7.166277877720003
 30
0.0
 10
33.75755123064845
 20
-7.213256662427159
 30
0.0
 10
33.90856234798511
 20
-7.199422644884579
 30
0.0
  0
SPLINE
  5
119
330
1F
100
AcDbEntity
  8
0
  6
Continuous
 62
     1
370
    15
100
AcDbSpline
210
0.0
220
0.0
230
1.0
 70
     8
 71
     3
 72
     8
 73
     4
 74
     0
 42
0.000000001
 43
0.00000001
 40
0.0
 40
0.0
 40
0.0
 40
0.0
 40
1.0
 40
1.0
 40
1.0
 40
1.0
 10
32.89047543872951
 20
-6.719498056656243
 30
0.0
 10
33.03771956549945
 20
-6.866825524445765
 30
0.0
 10
33.21659161724261
 20
-6.993628505457389
 30
0.0
 10
33.40078162105964
 20
-7.083260659199189
 30
0.0
  0
SPLINE
  5
11A
330
1F
100
AcDbEntity
  8
0
  6
Continuous
 62
     1
370
    15
100
AcDbSpline
210
0.0
220
0.0
230
1.0
 70
     8
 71
     3
 72
    10
 73
     6
 74
     0
 42
0.000000001
 43
0.00000001
 40
0.0
 40
0.0
 40
0.0
 40
0.0
 40
0.5
 40
0.5
 40
1.0
 40
1.0
 40
1.0
 40
1.0
 10
31.85532026975419
 20
-6.213513997106751
 30
0.0
 10
32.01261928242889
 20
-6.213920723926593
 30
0.0
 10
32.19999980041548
 20
-6.267457369683295
 30
0.0
 10
32.56793644433933
 20
-6.448329392712507
 30
0.0
 10
32.74407361679678
 20
-6.573013370453327
 30
0.0
 10
32.89047543872877
 20
-6.719498056655915
 30
0.0
  0
SPLINE
  5
11B
330
1F
100
AcDbEntity
  8
0
  6
Continuous
 62
     1
370
    15
100
AcDbSpline
210
0.0
220
0.0
230
1.0
 70
     8
 71
     3
 72
    10
 73
     6
 74
     0
 42
0.000000001
 43
0.00000001
 40
0.0
 40
0.0
 40
0.0
 40
0.0
 40
0.5
 40
0.5
 40
1.0
 40
1.0
 40
1.0
 40
1.0
 10
30.82643416160116
 20
-5.701397560211952
 30
0.0
 10
30.97372691758309
 20
-5.842515970977443
 30
0.0
 10
31.15005917408605
 20
-5.966568932684461
 30
0.0
 10
31.51129658181141
 20
-6.151633448442813
 30
0.0
 10
31.69816827054921
 20
-6.213107650418439
 30
0.0
 10
31.85532026975417
 20
-6.213513997106709
 30
0.0
  0
SPLINE
  5
11C
330
1F
100
AcDbEntity
  8
0
  6
Continuous
 62
     1
370
    15
100
AcDbSpline
210
0.0
220
0.0
230
1.0
 70
     8
 71
     3
 72
    10
 73
     6
 74
     0
 42
0.000000001
 43
0.00000001
 40
0.0
 40
0.0
 40
0.0
 40
0.0
 40
0.5
 40
0.5
 40
1.0
 40
1.0
 40
1.0
 40
1.0
 10
29.79161314491972
 20
-5.176662596095433
 30
0.0
 10
29.94778582205841
 20
-5.188975509339361
 30
0.0
 10
30.13469796198975
 20
-5.249834871912095
 30
0.0
 10
30.50273703293243
 20
-5.436927764854845
 30
0.0
 10
30.6792739138544
 20
-5.560406103086775
 30
0.0
 10
30.82643416160111
 20
-5.701397560211947
 30
0.0
  0
SPLINE
  5
11D
330
1F
100
AcDbEntity
  8
0
  6
Continuous
 62
     1
370
    15
100
AcDbSpline
210
0.0
220
0.0
230
1.0
 70
     8
 71
     3
 72
     8
 73
     4
 74
     0
 42
0.000000001
 43
0.00000001
 40
0.0
 40
0.0
 40
0.0
 40
0.0
 40
1.0
 40
1.0
 40
1.0
 40
1.0
 10
29.28398612763977
 20
-5.007309533024251
 30
0.0
 10
29.4611813088186
 20
-5.099695857835347
 30
0.0
 10
29.64067834113111
 20
-5.164762645485515
 30
0.0
 10
29.79161314491898
 20
-5.176662596095339
 30
0.0
  0
SPLINE
  5
11E
330
1F
100
AcDbEntity
  8
0
  6
Continuous
 62
     1
370
    15
100
AcDbSpline
210
0.0
220
0.0
230
1.0
 70
     8
 71
     3
 72
     8
 73
     4
 74
     0
 42
0.000000001
 43
0.00000001
 40
0.0
 40
0.0
 40
0.0
 40
0.0
 40
1.0
 40
1.0
 40
1.0
 40
1.0
 10
28.77369795759859
 20
-4.645970358636285
 30
0.0
 10
28.92094102286435
 20
-4.782479349973393
 30
0.0
 10
29.09980792783058
 20
-4.908696433518881
 30
0.0
 10
29.28398612763771
 20
-5.007309533023149
 30
0.0
  0
SPLINE
  5
11F
330
1F
100
AcDbEntity
  8
0
  6
Continuous
 62
     1
370
    15
100
AcDbSpline
210
0.0
220
0.0
230
1.0
 70
     8
 71
     3
 72
    10
 73
     6
 74
     0
 42
0.000000001
 43
0.00000001
 40
0.0
 40
0.0
 40
0.0
 40
0.0
 40
0.5
 40
0.5
 40
1.0
 40
1.0
 40
1.0
 40
1.0
 10
27.73801262395533
 20
-4.092159769272831
 30
0.0
 10
27.89539685019091
 20
-4.119210379644403
 30
0.0
 10
28.08277371324132
 20
-4.189874207179951
 30
0.0
 10
28.45078341414273
 20
-4.386675479053385
 30
0.0
 10
28.62715105303489
 20
-4.510106777628657
 30
0.0
 10
28.77369795759788
 20
-4.645970358636023
 30
0.0
  0
SPLINE
  5
120
330
1F
100
AcDbEntity
  8
0
  6
Continuous
 62
     1
370
    15
100
AcDbSpline
210
0.0
220
0.0
230
1.0
 70
     8
 71
     3
 72
    10
 73
     6
 74
     0
 42
0.000000001
 43
0.00000001
 40
0.0
 40
0.0
 40
0.0
 40
0.0
 40
0.5
 40
0.5
 40
1.0
 40
1.0
 40
1.0
 40
1.0
 10
26.70798497786961
 20
-3.535927901171387
 30
0.0
 10
26.85550996495165
 20
-3.664408798013601
 30
0.0
 10
27.03205005964281
 20
-3.786259057237867
 30
0.0
 10
27.39363562077961
 20
-3.986271737000659
 30
0.0
 10
27.58066851472217
 20
-4.065116054061122
 30
0.0
 10
27.73801262395533
 20
-4.092159769272818
 30
0.0
  0
SPLINE
  5
121
330
1F
100
AcDbEntity
  8
0
  6
Continuous
 62
     1
370
    15
100
AcDbSpline
210
0.0
220
0.0
230
1.0
 70
     8
 71
     3
 72
    10
 73
     6
 74
     0
 42
0.000000001
 43
0.00000001
 40
0.0
 40
0.0
 40
0.0
 40
0.0
 40
0.5
 40
0.5
 40
1.0
 40
1.0
 40
1.0
 40
1.0
 10
25.67209704071745
 20
-2.971463346907675
 30
0.0
 10
25.82846170268535
 20
-3.010126790288209
 30
0.0
 10
26.01557316597123
 20
-3.087047257583969
 30
0.0
 10
26.38394762232459
 20
-3.287153616868179
 30
0.0
 10
26.5606365721067
 20
-3.407600790658497
 30
0.0
 10
26.70798497786955
 20
-3.535927901171337
 30
0.0
  0
SPLINE
  5
122
330
1F
100
AcDbEntity
  8
0
  6
Continuous
 62
     1
370
    15
100
AcDbSpline
210
0.0
220
0.0
230
1.0
 70
     8
 71
     3
 72
     8
 73
     4
 74
     0
 42
0.000000001
 43
0.00000001
 40
0.0
 40
0.0
 40
0.0
 40
0.0
 40
1.0
 40
1.0
 40
1.0
 40
1.0
 10
25.16409036846601
 20
-2.754426596338285
 30
0.0
 10
25.34141895708775
 20
-2.853076372805027
 30
0.0
 10
25.52104127916051
 20
-2.934112606588355
 30
0.0
 10
25.67209704071675
 20
-2.971463346907483
 30
0.0
  0
SPLINE
  5
123
330
1F
100
AcDbEntity
  8
0
  6
Continuous
 62
     1
370
    15
100
AcDbSpline
210
0.0
220
0.0
230
1.0
 70
     8
 71
     3
 72
     8
 73
     4
 74
     0
 42
0.000000001
 43
0.00000001
 40
0.0
 40
0.0
 40
0.0
 40
0.0
 40
1.0
 40
1.0
 40
1.0
 40
1.0
 10
24.65342660667142
 20
-2.407854181489309
 30
0.0
 10
24.80079970842949
 20
-2.528872247778833
 30
0.0
 10
24.97980143803169
 20
-2.650175784926607
 30
0.0
 10
25.164090368464
 20
-2.754426596337119
 30
0.0
  0
SPLINE
  5
124
330
1F
100
AcDbEntity
  8
0
  6
Continuous
 62
     1
370
    15
100
AcDbSpline
210
0.0
220
0.0
230
1.0
 70
     8
 71
     3
 72
    10
 73
     6
 74
     0
 42
0.000000001
 43
0.00000001
 40
0.0
 40
0.0
 40
0.0
 40
0.0
 40
0.5
 40
0.5
 40
1.0
 40
1.0
 40
1.0
 40
1.0
 10
23.61724941278214
 20
-1.826456945021803
 30
0.0
 10
23.77463844789091
 20
-1.879195831480943
 30
0.0
 10
23.96207663675473
 20
-1.964196457993995
 30
0.0
 10
24.33028768263154
 20
-2.169577882812049
 30
0.0
 10
24.50678097327548
 20
-2.287433488895921
 30
0.0
 10
24.65342660667071
 20
-2.407854181489161
 30
0.0
  0
SPLINE
  5
125
330
1F
100
AcDbEntity
  8
0
  6
Continuous
 62
     1
370
    15
100
AcDbSpline
210
0.0
220
0.0
230
1.0
 70
     8
 71
     3
 72
    10
 73
     6
 74
     0
 42
0.000000001
 43
0.00000001
 40
0.0
 40
0.0
 40
0.0
 40
0.0
 40
0.5
 40
0.5
 40
1.0
 40
1.0
 40
1.0
 40
1.0
 10
22.58692309157122
 20
-1.24558905700054
 30
0.0
 10
22.73451531775233
 20
-1.35689387873421
 30
0.0
 10
22.91111818939341
 20
-1.472277525977481
 30
0.0
 10
23.27278626460483
 20
-1.680232852390803
 30
0.0
 10
23.45982958119753
 20
-1.773707739090003
 30
0.0
 10
23.61724941278214
 20
-1.826456945021779
 30
0.0
  0
SPLINE
  5
126
330
1F
100
AcDbEntity
  8
0
  6
Continuous
 62
     1
370
    15
100
AcDbSpline
210
0.0
220
0.0
230
1.0
 70
     8
 71
     3
 72
    10
 73
     6
 74
     0
 42
0.000000001
 43
0.00000001
 40
0.0
 40
0.0
 40
0.0
 40
0.0
 40
0.5
 40
0.5
 40
1.0
 40
1.0
 40
1.0
 40
1.0
 10
21.55104266476247
 20
-0.6613897344807111
 30
0.0
 10
21.70741903637587
 20
-0.7250391384976204
 30
0.0
 10
21.89454676071131
 20
-0.8152703611036455
 30
0.0
 10
22.26292119655557
 20
-1.021306890600538
 30
0.0
 10
22.43958014047391
 20
-1.134472222937267
 30
0.0
 10
22.58692309157119
 20
-1.245589057000525
 30
0.0
  0
SPLINE
  5
127
330
1F
100
AcDbEntity
  8
0
  6
Continuous
 62
     1
370
    15
100
AcDbSpline
210
0.0
220
0.0
230
1.0
 70
     8
 71
     3
 72
     8
 73
     4
 74
     0
 42
0.000000001
 43
0.00000001
 40
0.0
 40
0.0
 40
0.0
 40
0.0
 40
1.0
 40
1.0
 40
1.0
 40
1.0
 10
21.04313989883553
 20
-0.4043813881872979
 30
0.0
 10
21.22044772976639
 20
-0.5058035821848296
 30
0.0
 10
21.40002920052365
 20
-0.5999231785159419
 30
0.0
 10
21.55104266476175
 20
-0.6613897344803975
 30
0.0
  0
SPLINE
  5
128
330
1F
100
AcDbEntity
  8
0
  6
Continuous
 62
     1
370
    15
100
AcDbSpline
210
0.0
220
0.0
230
1.0
 70
     8
 71
     3
 72
     8
 73
     4
 74
     0
 42
0.000000001
 43
0.00000001
 40
0.0
 40
0.0
 40
0.0
 40
0.0
 40
1.0
 40
1.0
 40
1.0
 40
1.0
 10
20.53267983242011
 20
-0.0849067516269255
 30
0.0
 10
20.67997904436043
 20
-0.1861086678662397
 30
0.0
 10
20.85892305570487
 20
-0.2981957569706799
 30
0.0
 10
21.04313989883351
 20
-0.4043813881861583
 30
0.0
  0
SPLINE
  5
129
330
1F
100
AcDbEntity
  8
0
  6
Continuous
 62
     4
370
    15
100
AcDbSpline
210
0.0
220
0.0
230
1.0
 70
     8
 71
     3
 72
    10
 73
     6
 74
     0
 42
0.000000001
 43
0.00000001
 40
0.0
 40
0.0
 40
0.0
 40
0.0
 40
0.5000000000000009
 40
0.5000000000000009
 40
1.0
 40
1.0
 40
1.0
 40
1.0
 10
19.49712245983409
 20
0.5028775948710799
 30
0.0
 10
19.65439354064929
 20
0.4266987851855267
 30
0.0
 10
19.84174295169791
 20
0.3304846301492297
 30
0.0
 10
20.20979456793723
 20
0.1238134401412791
 30
0.0
 10
20.38615820704025
 20
0.0157609238042861
 30
0.0
 10
20.53267983241939
 20
-0.0849067516269353
 30
0.0
  0
SPLINE
  5
12A
330
1F
100
AcDbEntity
  8
0
  6
Continuous
 62
     4
370
    15
100
AcDbSpline
210
0.0
220
0.0
230
1.0
 70
     8
 71
     3
 72
    10
 73
     6
 74
     0
 42
0.000000001
 43
0.00000001
 40
0.0
 40
0.0
 40
0.0
 40
0.0
 40
0.5
 40
0.5
 40
1.0
 40
1.0
 40
1.0
 40
1.0
 10
18.46761594868607
 20
1.086986662483056
 30
0.0
 10
18.61503753452905
 20
0.99684286195988
 30
0.0
 10
18.79145091745769
 20
0.8920191507877231
 30
0.0
 10
19.15275943245771
 20
0.6835518853768505
 30
0.0
 10
19.33976350495055
 20
0.5790989689104663
 30
0.0
 10
19.49712245983411
 20
0.5028775948710911
 30
0.0
  0
SPLINE
  5
12B
330
1F
100
AcDbEntity
  8
0
  6
Continuous
 62
     4
370
    15
100
AcDbSpline
210
0.0
220
0.0
230
1.0
 70
     8
 71
     3
 72
    10
 73
     6
 74
     0
 42
0.000000001
 43
0.00000001
 40
0.0
 40
0.0
 40
0.0
 40
0.0
 40
0.5
 40
0.5
 40
1.0
 40
1.0
 40
1.0
 40
1.0
 10
17.43281786024877
 20
1.670170336806135
 30
0.0
 10
17.58902602885283
 20
1.5838268789981
 30
0.0
 10
17.77598693866429
 20
1.483502812676304
 30
0.0
 10
18.14402562869833
 20
1.278839285669609
 30
0.0
 10
18.32047249567501
 20
1.176960393267944
 30
0.0
 10
18.46761594868605
 20
1.086986662483057
 30
0.0
  0
SPLINE
  5
12C
330
1F
100
AcDbEntity
  8
0
  6
Continuous
 62
     4
370
    15
100
AcDbSpline
210
0.0
220
0.0
230
1.0
 70
     8
 71
     3
 72
     8
 73
     4
 74
     0
 42
0.000000001
 43
0.00000001
 40
0.5148704355473679
 40
0.5148704355473679
 40
0.5148704355473679
 40
0.5148704355473679
 40
1.0
 40
1.0
 40
1.0
 40
1.0
 10
15.92520018365395
 20
2.50273751055926
 30
0.0
 10
16.10323273209656
 20
2.405645532283621
 30
0.0
 10
16.27341503965183
 20
2.314402869263241
 30
0.0
 10
16.41546959332929
 20
2.239238741567815
 30
0.0
  0
SPLINE
  5
137
330
1F
100
AcDbEntity
  8
0
  6
Continuous
 62
     1
370
    15
100
AcDbSpline
210
0.0
220
0.0
230
1.0
 70
     8
 71
     3
 72
     8
 73
     4
 74
     0
 42
0.000000001
 43
0.00000001
 40
0.0
 40
0.0
 40
0.0
 40
0.0
 40
0.0764987495417824
 40
0.0764987495417824
 40
0.0764987495417824
 40
0.0764987495417824
 10
20.60832152423981
 20
12.35737579650855
 30
0.0
 10
20.59706223000219
 20
12.36723284111095
 30
0.0
 10
20.58561772860032
 20
12.37677583155857
 30
0.0
 10
20.57399984651805
 20
12.38600171467729
 30
0.0
  0
SPLINE
  5
138
330
1F
100
AcDbEntity
  8
0
  6
Continuous
 62
     1
370
    15
100
AcDbSpline
210
0.0
220
0.0
230
1.0
 70
     8
 71
     3
 72
    10
 73
     6
 74
     0
 42
0.000000001
 43
0.00000001
 40
0.0
 40
0.0
 40
0.0
 40
0.0
 40
0.5
 40
0.5
 40
1.0
 40
1.0
 40
1.0
 40
1.0
 10
21.64300420474216
 20
12.25724023001869
 30
0.0
 10
21.48586520184667
 20
12.1496045559201
 30
0.0
 10
21.29862427576569
 20
12.11168897503794
 30
0.0
 10
20.93080601448623
 20
12.15224962272667
 30
0.0
 10
20.75464391287679
 20
12.22927662077942
 30
0.0
 10
20.60832152424065
 20
12.35737579650787
 30
0.0
  0
SPLINE
  5
139
330
1F
100
AcDbEntity
  8
0
  6
Continuous
 62
     1
370
    15
100
AcDbSpline
210
0.0
220
0.0
230
1.0
 70
     8
 71
     3
 72
    10
 73
     6
 74
     0
 42
0.000000001
 43
0.00000001
 40
0.0
 40
0.0
 40
0.0
 40
0.0
 40
0.5
 40
0.5
 40
1.0
 40
1.0
 40
1.0
 40
1.0
 10
22.67209157604066
 20
12.13529551710423
 30
0.0
 10
22.52479832586958
 20
12.26934224569061
 30
0.0
 10
22.34848505222435
 20
12.35099672467726
 30
0.0
 10
21.98719613969471
 20
12.39907947658929
 30
0.0
 10
21.80022489865567
 20
12.36493186010293
 30
0.0
 10
21.64300420474217
 20
12.2572402300187
 30
0.0
  0
SPLINE
  5
13A
330
1F
100
AcDbEntity
  8
0
  6
Continuous
 62
     1
370
    15
100
AcDbSpline
210
0.0
220
0.0
230
1.0
 70
     8
 71
     3
 72
    10
 73
     6
 74
     0
 42
0.000000001
 43
0.00000001
 40
0.0
 40
0.0
 40
0.0
 40
0.0
 40
0.5
 40
0.5
 40
1.0
 40
1.0
 40
1.0
 40
1.0
 10
23.70738446937401
 20
11.98993665946085
 30
0.0
 10
23.55109927389219
 20
11.8899191465393
 30
0.0
 10
23.36418057200267
 20
11.86035014307241
 30
0.0
 10
22.99606356594325
 20
11.91679987391627
 30
0.0
 10
22.81939761466703
 20
12.00123715016648
 30
0.0
 10
22.67209157604066
 20
12.13529551710423
 30
0.0
  0
SPLINE
  5
13B
330
1F
100
AcDbEntity
  8
0
  6
Continuous
 62
     1
370
    15
100
AcDbSpline
210
0.0
220
0.0
230
1.0
 70
     8
 71
     3
 72
     8
 73
     4
 74
     0
 42
0.000000001
 43
0.00000001
 40
0.0
 40
0.0
 40
0.0
 40
0.0
 40
1.0
 40
1.0
 40
1.0
 40
1.0
 10
24.21519449304991
 20
12.08579384843272
 30
0.0
 10
24.03790299215013
 20
12.11380319655513
 30
0.0
 10
23.85837837427197
 20
12.08656791610427
 30
0.0
 10
23.7073844693746
 20
11.98993665946123
 30
0.0
  0
SPLINE
  5
13C
330
1F
100
AcDbEntity
  8
0
  6
Continuous
 62
     1
370
    15
100
AcDbSpline
210
0.0
220
0.0
230
1.0
 70
     8
 71
     3
 72
     8
 73
     4
 74
     0
 42
0.000000001
 43
0.00000001
 40
0.0
 40
0.0
 40
0.0
 40
0.0
 40
1.0
 40
1.0
 40
1.0
 40
1.0
 10
24.72563056465354
 20
11.81664665048113
 30
0.0
 10
24.57829622400781
 20
11.9587789447954
 30
0.0
 10
24.39935129513433
 20
12.05171067534367
 30
0.0
 10
24.21519449305193
 20
12.08579384843238
 30
0.0
  0
SPLINE
  5
13D
330
1F
100
AcDbEntity
  8
0
  6
Continuous
 62
     1
370
    15
100
AcDbSpline
210
0.0
220
0.0
230
1.0
 70
     8
 71
     3
 72
    10
 73
     6
 74
     0
 42
0.000000001
 43
0.00000001
 40
0.0
 40
0.0
 40
0.0
 40
0.0
 40
0.5
 40
0.5
 40
1.0
 40
1.0
 40
1.0
 40
1.0
 10
25.76142669718193
 20
11.61039204795323
 30
0.0
 10
25.60407412248912
 20
11.52186520682079
 30
0.0
 10
25.41662813827433
 20
11.5037997712091
 30
0.0
 10
25.04846813014165
 20
11.58143894451432
 30
0.0
 10
24.87212886731303
 20
11.67532087551953
 30
0.0
 10
24.72563056465437
 20
11.81664665048047
 30
0.0
  0
SPLINE
  5
13E
330
1F
100
AcDbEntity
  8
0
  6
Continuous
 62
     1
370
    15
100
AcDbSpline
210
0.0
220
0.0
230
1.0
 70
     8
 71
     3
 72
    10
 73
     6
 74
     0
 42
0.000000001
 43
0.00000001
 40
0.0
 40
0.0
 40
0.0
 40
0.0
 40
0.5
 40
0.5
 40
1.0
 40
1.0
 40
1.0
 40
1.0
 10
26.79156164635754
 20
11.38434428344855
 30
0.0
 10
26.64407379891903
 20
11.529320634804
 30
0.0
 10
26.46756358217759
 20
11.62694829451624
 30
0.0
 10
26.10593401876435
 20
11.71192669854754
 30
0.0
 10
25.91881379034995
 20
11.69893830924181
 30
0.0
 10
25.76142669718197
 20
11.61039204795326
 30
0.0
  0
SPLINE
  5
13F
330
1F
100
AcDbEntity
  8
0
  6
Continuous
 62
     1
370
    15
100
AcDbSpline
210
0.0
220
0.0
230
1.0
 70
     8
 71
     3
 72
    10
 73
     6
 74
     0
 42
0.000000001
 43
0.00000001
 40
0.0
 40
0.0
 40
0.0
 40
0.0
 40
0.5
 40
0.5
 40
1.0
 40
1.0
 40
1.0
 40
1.0
 10
27.82760871202984
 20
11.13572542333905
 30
0.0
 10
27.67123544876495
 20
11.05651758955623
 30
0.0
 10
27.48415157636997
 20
11.04715985532139
 30
0.0
 10
27.11578024089033
 20
11.13961200647614
 30
0.0
 10
26.93899536254735
 20
11.23942114156807
 30
0.0
 10
26.79156164635754
 20
11.38434428344854
 30
0.0
  0
SPLINE
  5
140
330
1F
100
AcDbEntity
  8
0
  6
Continuous
 62
     1
370
    15
100
AcDbSpline
210
0.0
220
0.0
230
1.0
 70
     8
 71
     3
 72
     8
 73
     4
 74
     0
 42
0.000000001
 43
0.00000001
 40
0.0
 40
0.0
 40
0.0
 40
0.0
 40
1.0
 40
1.0
 40
1.0
 40
1.0
 10
28.33570742287717
 20
11.17263552444126
 30
0.0
 10
28.15836571045603
 20
11.2184935760721
 30
0.0
 10
27.97875996653645
 20
11.21228815019544
 30
0.0
 10
27.82760871203045
 20
11.13572542333937
 30
0.0
  0
SPLINE
  5
141
330
1F
100
AcDbEntity
  8
0
  6
Continuous
 62
     1
370
    15
100
AcDbSpline
210
0.0
220
0.0
230
1.0
 70
     8
 71
     3
 72
     8
 73
     4
 74
     0
 42
0.000000001
 43
0.00000001
 40
0.0
 40
0.0
 40
0.0
 40
0.0
 40
1.0
 40
1.0
 40
1.0
 40
1.0
 10
28.84642035965663
 20
10.86222015580857
 30
0.0
 10
28.69897372583117
 20
11.0127579482193
 30
0.0
 10
28.51993251961687
 20
11.12025929708708
 30
0.0
 10
28.33570742287921
 20
11.17263552444072
 30
0.0
  0
SPLINE
  5
142
330
1F
100
AcDbEntity
  8
0
  6
Continuous
 62
     1
370
    15
100
AcDbSpline
210
0.0
220
0.0
230
1.0
 70
     8
 71
     3
 72
    10
 73
     6
 74
     0
 42
0.000000001
 43
0.00000001
 40
0.0
 40
0.0
 40
0.0
 40
0.0
 40
0.5
 40
0.5
 40
1.0
 40
1.0
 40
1.0
 40
1.0
 10
29.88250160285087
 20
10.55678829825777
 30
0.0
 10
29.72508295559323
 20
10.49051443818346
 30
0.0
 10
29.53757099157615
 20
10.49294293227899
 30
0.0
 10
29.16932605596983
 20
10.60506797754477
 30
0.0
 10
28.99296789787282
 20
10.7126003081798
 30
0.0
 10
28.84642035965747
 20
10.86222015580797
 30
0.0
  0
SPLINE
  5
143
330
1F
100
AcDbEntity
  8
0
  6
Continuous
 62
     1
370
    15
100
AcDbSpline
210
0.0
220
0.0
230
1.0
 70
     8
 71
     3
 72
    10
 73
     6
 74
     0
 42
0.000000001
 43
0.00000001
 40
0.0
 40
0.0
 40
0.0
 40
0.0
 40
0.5
 40
0.5
 40
1.0
 40
1.0
 40
1.0
 40
1.0
 10
30.91261387893633
 20
10.23459626753185
 30
0.0
 10
30.76512513832685
 20
10.38538915471603
 30
0.0
 10
30.58860204732883
 20
10.49556763791219
 30
0.0
 10
30.22697266567011
 20
10.61444947518298
 30
0.0
 10
30.03987468856052
 20
10.62304297674393
 30
0.0
 10
29.88250160285087
 20
10.55678829825776
 30
0.0
  0
SPLINE
  5
144
330
1F
100
AcDbEntity
  8
0
  6
Continuous
 62
     1
370
    15
100
AcDbSpline
210
0.0
220
0.0
230
1.0
 70
     8
 71
     3
 72
    10
 73
     6
 74
     0
 42
0.000000001
 43
0.00000001
 40
0.0
 40
0.0
 40
0.0
 40
0.0
 40
0.5
 40
0.5
 40
1.0
 40
1.0
 40
1.0
 40
1.0
 10
31.94833083167389
 20
9.891772017173784
 30
0.0
 10
31.79202266992468
 20
9.836053955486902
 30
0.0
 10
31.60497890448433
 20
9.847177330962868
 30
0.0
 10
31.23668192881449
 20
9.97228382940157
 30
0.0
 10
31.0599775998714
 20
10.08393120080085
 30
0.0
 10
30.91261387893633
 20
10.23459626753185
 30
0.0
  0
SPLINE
  5
145
330
1F
100
AcDbEntity
  8
0
  6
Continuous
 62
     1
370
    15
100
AcDbSpline
210
0.0
220
0.0
230
1.0
 70
     8
 71
     3
 72
     8
 73
     4
 74
     0
 42
0.000000001
 43
0.00000001
 40
0.0
 40
0.0
 40
0.0
 40
0.0
 40
1.0
 40
1.0
 40
1.0
 40
1.0
 10
32.45618173500555
 20
9.868975341821441
 30
0.0
 10
32.27895154100269
 20
9.930927296085857
 30
0.0
 10
32.09938046194024
 20
9.945615607442795
 30
0.0
 10
31.94833083167451
 20
9.891772017173997
 30
0.0
  0
SPLINE
  5
146
330
1F
100
AcDbEntity
  8
0
  6
Continuous
 62
     1
370
    15
100
AcDbSpline
210
0.0
220
0.0
230
1.0
 70
     8
 71
     3
 72
     8
 73
     4
 74
     0
 42
0.000000001
 43
0.00000001
 40
0.0
 40
0.0
 40
0.0
 40
0.0
 40
1.0
 40
1.0
 40
1.0
 40
1.0
 10
32.96657643342015
 20
9.528248078547648
 30
0.0
 10
32.81925847337784
 20
9.681879581362724
 30
0.0
 10
32.64038831777195
 20
9.800260098319827
 30
0.0
 10
32.45618173500761
 20
9.868975341820699
 30
0.0
  0
SPLINE
  5
147
330
1F
100
AcDbEntity
  8
0
  6
Continuous
 62
     1
370
    15
100
AcDbSpline
210
0.0
220
0.0
230
1.0
 70
     8
 71
     3
 72
    10
 73
     6
 74
     0
 42
0.000000001
 43
0.00000001
 40
0.0
 40
0.0
 40
0.0
 40
0.0
 40
0.5
 40
0.5
 40
1.0
 40
1.0
 40
1.0
 40
1.0
 10
34.00186017963049
 20
9.134363253414552
 30
0.0
 10
33.84455694107353
 20
9.092670877720659
 30
0.0
 10
33.65716256288177
 20
9.115463914656248
 30
0.0
 10
33.28917057256646
 20
9.25813700127018
 30
0.0
 10
33.11297769091063
 20
9.375572565013213
 30
0.0
 10
32.966576433421
 20
9.528248078547126
 30
0.0
  0
SPLINE
  5
148
330
1F
100
AcDbEntity
  8
0
  6
Continuous
 62
     1
370
    15
100
AcDbSpline
210
0.0
220
0.0
230
1.0
 70
     8
 71
     3
 72
    10
 73
     6
 74
     0
 42
0.000000001
 43
0.00000001
 40
0.0
 40
0.0
 40
0.0
 40
0.0
 40
0.5
 40
0.5
 40
1.0
 40
1.0
 40
1.0
 40
1.0
 10
35.03088075098275
 20
8.727607816169877
 30
0.0
 10
34.88358418076626
 20
8.878863550082558
 30
0.0
 10
34.70723204378425
 20
8.99769010757559
 30
0.0
 10
34.34594338427173
 20
9.146218796616745
 30
0.0
 10
34.15903875772425
 20
9.176022588524459
 30
0.0
 10
34.00186017963051
 20
9.134363253414572
 30
0.0
  0
SPLINE
  5
149
330
1F
100
AcDbEntity
  8
0
  6
Continuous
 62
     1
370
    15
100
AcDbSpline
210
0.0
220
0.0
230
1.0
 70
     8
 71
     3
 72
    10
 73
     6
 74
     0
 42
0.000000001
 43
0.00000001
 40
0.0
 40
0.0
 40
0.0
 40
0.0
 40
0.5
 40
0.5
 40
1.0
 40
1.0
 40
1.0
 40
1.0
 10
36.0655325430802
 20
8.30298807253138
 30
0.0
 10
35.90939397286351
 20
8.272665753749882
 30
0.0
 10
35.72252063188122
 20
8.30377886076681
 30
0.0
 10
35.35454083389505
 20
8.456984641136946
 30
0.0
 10
35.17802465111068
 20
8.57650885594351
 30
0.0
 10
35.03088075098275
 20
8.72760781616987
 30
0.0
  0
SPLINE
  5
14A
330
1F
100
AcDbEntity
  8
0
  6
Continuous
 62
     1
370
    15
100
AcDbSpline
210
0.0
220
0.0
230
1.0
 70
     8
 71
     3
 72
     8
 73
     4
 74
     0
 42
0.000000001
 43
0.00000001
 40
0.0
 40
0.0
 40
0.0
 40
0.0
 40
1.0
 40
1.0
 40
1.0
 40
1.0
 10
36.57309633216904
 20
8.221476976501162
 30
0.0
 10
36.39593261817846
 20
8.297243002889081
 30
0.0
 10
36.21645606027212
 20
8.332297621053167
 30
0.0
 10
36.06553254308081
 20
8.302988072531504
 30
0.0
  0
SPLINE
  5
14B
330
1F
100
AcDbEntity
  8
0
  6
Continuous
 62
     1
370
    15
100
AcDbSpline
210
0.0
220
0.0
230
1.0
 70
     8
 71
     3
 72
     8
 73
     4
 74
     0
 42
0.000000001
 43
0.00000001
 40
0.0
 40
0.0
 40
0.0
 40
0.0
 40
1.0
 40
1.0
 40
1.0
 40
1.0
 10
37.08331994159288
 20
7.862894993325245
 30
0.0
 10
36.93609776263705
 20
8.014106935339264
 30
0.0
 10
36.75725780787339
 20
8.138959253271695
 30
0.0
 10
36.57309633217105
 20
8.221476976500254
 30
0.0
  0
SPLINE
  5
14C
330
1F
100
AcDbEntity
  8
0
  6
Continuous
 62
     1
370
    15
100
AcDbSpline
210
0.0
220
0.0
230
1.0
 70
     8
 71
     3
 72
    10
 73
     6
 74
     0
 42
0.000000001
 43
0.00000001
 40
0.0
 40
0.0
 40
0.0
 40
0.0
 40
0.5
 40
0.5
 40
1.0
 40
1.0
 40
1.0
 40
1.0
 10
38.11887428575379
 20
7.393765702391041
 30
0.0
 10
37.96149205968555
 20
7.378217553543861
 30
0.0
 10
37.77405747513453
 20
7.420713224764729
 30
0.0
 10
37.40604451570867
 20
7.589122176744003
 30
0.0
 10
37.22980872834705
 20
7.712436318650782
 30
0.0
 10
37.08331994159374
 20
7.862894993324811
 30
0.0
  0
SPLINE
  5
14D
330
1F
100
AcDbEntity
  8
0
  6
Continuous
 62
     1
370
    15
100
AcDbSpline
210
0.0
220
0.0
230
1.0
 70
     8
 71
     3
 72
    10
 73
     6
 74
     0
 42
0.000000001
 43
0.00000001
 40
0.0
 40
0.0
 40
0.0
 40
0.0
 40
0.5
 40
0.5
 40
1.0
 40
1.0
 40
1.0
 40
1.0
 10
39.14878294863967
 20
6.915655891520179
 30
0.0
 10
39.00129051849591
 20
7.062252329971721
 30
0.0
 10
38.824778179699
 20
7.185737763377445
 30
0.0
 10
38.46322416043746
 20
7.359092346486543
 30
0.0
 10
38.27619537092767
 20
7.409307810989907
 30
0.0
 10
38.11887428575383
 20
7.393765702391061
 30
0.0
  0
SPLINE
  5
14E
330
1F
100
AcDbEntity
  8
0
  6
Continuous
 62
     1
370
    15
100
AcDbSpline
210
0.0
220
0.0
230
1.0
 70
     8
 71
     3
 72
    10
 73
     6
 74
     0
 42
0.000000001
 43
0.00000001
 40
0.0
 40
0.0
 40
0.0
 40
0.0
 40
0.5
 40
0.5
 40
1.0
 40
1.0
 40
1.0
 40
1.0
 10
40.18460219684693
 20
6.423013419915133
 30
0.0
 10
40.02825737661787
 20
6.419234881538481
 30
0.0
 10
39.84116771280969
 20
6.469502792873387
 30
0.0
 10
39.4728174131256
 20
6.645845544956407
 30
0.0
 10
39.29612600500929
 20
6.769207919422217
 30
0.0
 10
39.14878294863964
 20
6.915655891520221
 30
0.0
  0
SPLINE
  5
14F
330
1F
100
AcDbEntity
  8
0
  6
Continuous
 62
     1
370
    15
100
AcDbSpline
210
0.0
220
0.0
230
1.0
 70
     8
 71
     3
 72
     8
 73
     4
 74
     0
 42
0.000000001
 43
0.00000001
 40
0.0
 40
0.0
 40
0.0
 40
0.0
 40
1.0
 40
1.0
 40
1.0
 40
1.0
 10
40.69259535056965
 20
6.285265029165133
 30
0.0
 10
40.51528036424011
 20
6.372308973359843
 30
0.0
 10
40.33566071156803
 20
6.426664198969575
 30
0.0
 10
40.18460219684757
 20
6.423013419915117
 30
0.0
  0
SPLINE
  5
150
330
1F
100
AcDbEntity
  8
0
  6
Continuous
 62
     1
370
    15
100
AcDbSpline
210
0.0
220
0.0
230
1.0
 70
     8
 71
     3
 72
     8
 73
     4
 74
     0
 42
0.000000001
 43
0.00000001
 40
0.0
 40
0.0
 40
0.0
 40
0.0
 40
1.0
 40
1.0
 40
1.0
 40
1.0
 10
41.20325501279285
 20
5.921139735500805
 30
0.0
 10
41.05588306498046
 20
6.064711907325187
 30
0.0
 10
40.87688760562043
 20
6.191735885877537
 30
0.0
 10
40.69259535057171
 20
6.285265029164095
 30
0.0
  0
SPLINE
  5
151
330
1F
100
AcDbEntity
  8
0
  6
Continuous
 62
     1
370
    15
100
AcDbSpline
210
0.0
220
0.0
230
1.0
 70
     8
 71
     3
 72
    10
 73
     6
 74
     0
 42
0.000000001
 43
0.00000001
 40
0.0
 40
0.0
 40
0.0
 40
0.0
 40
0.5
 40
0.5
 40
1.0
 40
1.0
 40
1.0
 40
1.0
 10
42.23945658019746
 20
5.393490918751591
 30
0.0
 10
42.08201259131408
 20
5.404722974108403
 30
0.0
 10
41.89459553090657
 20
5.465561801872761
 30
0.0
 10
41.52638717289032
 20
5.653608815447299
 30
0.0
 10
41.34991016981107
 20
5.778265873039963
 30
0.0
 10
41.20325501279371
 20
5.921139735500475
 30
0.0
  0
SPLINE
  5
152
330
1F
100
AcDbEntity
  8
0
  6
Continuous
 62
     1
370
    15
100
AcDbSpline
210
0.0
220
0.0
230
1.0
 70
     8
 71
     3
 72
    10
 73
     6
 74
     0
 42
0.000000001
 43
0.00000001
 40
0.0
 40
0.0
 40
0.0
 40
0.0
 40
0.5
 40
0.5
 40
1.0
 40
1.0
 40
1.0
 40
1.0
 10
43.26977621615283
 20
4.860479539161709
 30
0.0
 10
43.12219715949337
 20
4.997314766204289
 30
0.0
 10
42.94560169078623
 20
5.121170709012687
 30
0.0
 10
42.58392598677941
 20
5.313358458361921
 30
0.0
 10
42.39685771932351
 20
5.382261920296767
 30
0.0
 10
42.23945658019748
 20
5.393490918751577
 30
0.0
  0
SPLINE
  5
153
330
1F
100
AcDbEntity
  8
0
  6
Continuous
 62
     1
370
    15
100
AcDbSpline
210
0.0
220
0.0
230
1.0
 70
     8
 71
     3
 72
    10
 73
     6
 74
     0
 42
0.000000001
 43
0.00000001
 40
0.0
 40
0.0
 40
0.0
 40
0.0
 40
0.5
 40
0.5
 40
1.0
 40
1.0
 40
1.0
 40
1.0
 10
44.30570089767973
 20
4.317201312375385
 30
0.0
 10
44.1493285128149
 20
4.34010747252379
 30
0.0
 10
43.96220360081463
 20
4.407718608380853
 30
0.0
 10
43.5938145482797
 20
4.600975090034459
 30
0.0
 10
43.41713339366937
 20
4.723850038348774
 30
0.0
 10
43.26977621615283
 20
4.860479539161717
 30
0.0
  0
SPLINE
  5
154
330
1F
100
AcDbEntity
  8
0
  6
Continuous
 62
     1
370
    15
100
AcDbSpline
210
0.0
220
0.0
230
1.0
 70
     8
 71
     3
 72
     8
 73
     4
 74
     0
 42
0.000000001
 43
0.00000001
 40
0.0
 40
0.0
 40
0.0
 40
0.0
 40
1.0
 40
1.0
 40
1.0
 40
1.0
 10
44.81364041861674
 20
4.128141387220043
 30
0.0
 10
44.63632820685086
 20
4.223378548884593
 30
0.0
 10
44.45673141344204
 20
4.295077654260435
 30
0.0
 10
44.30570089768037
 20
4.317201312375281
 30
0.0
  0
SPLINE
  5
155
330
1F
100
AcDbEntity
  8
0
  6
Continuous
 62
     1
370
    15
100
AcDbSpline
210
0.0
220
0.0
230
1.0
 70
     8
 71
     3
 72
     8
 73
     4
 74
     0
 42
0.000000001
 43
0.00000001
 40
0.0
 40
0.0
 40
0.0
 40
0.0
 40
1.0
 40
1.0
 40
1.0
 40
1.0
 10
45.32415708489475
 20
3.771423281509859
 30
0.0
 10
45.17683920389441
 20
3.902235782552541
 30
0.0
 10
44.99788071244675
 20
4.026929047364603
 30
0.0
 10
44.81364041861875
 20
4.128141387218945
 30
0.0
  0
SPLINE
  5
156
330
1F
100
AcDbEntity
  8
0
  6
Continuous
 62
     1
370
    15
100
AcDbSpline
210
0.0
220
0.0
230
1.0
 70
     8
 71
     3
 72
    10
 73
     6
 74
     0
 42
0.000000001
 43
0.00000001
 40
0.0
 40
0.0
 40
0.0
 40
0.0
 40
0.5
 40
0.5
 40
1.0
 40
1.0
 40
1.0
 40
1.0
 10
46.35985993477611
 20
3.205085509338119
 30
0.0
 10
46.20256031317125
 20
3.242483487673103
 30
0.0
 10
46.01519581893067
 20
3.318997240863981
 30
0.0
 10
45.64711631953853
 20
3.519696764421691
 30
0.0
 10
45.47071586026748
 20
3.641284836495349
 30
0.0
 10
45.32415708489561
 20
3.771423281509655
 30
0.0
  0
SPLINE
  5
157
330
1F
100
AcDbEntity
  8
0
  6
Continuous
 62
     1
370
    15
100
AcDbSpline
210
0.0
220
0.0
230
1.0
 70
     8
 71
     3
 72
    10
 73
     6
 74
     0
 42
0.000000001
 43
0.00000001
 40
0.0
 40
0.0
 40
0.0
 40
0.0
 40
0.5
 40
0.5
 40
1.0
 40
1.0
 40
1.0
 40
1.0
 10
47.38950538477815
 20
2.636141355492955
 30
0.0
 10
47.24204202221243
 20
2.758362298591011
 30
0.0
 10
47.06555931422521
 20
2.878228038844421
 30
0.0
 10
46.70412561526189
 20
3.082478906192083
 30
0.0
 10
46.51720321635015
 20
3.167677150847311
 30
0.0
 10
46.35985993477613
 20
3.205085509338113
 30
0.0
  0
SPLINE
  5
158
330
1F
100
AcDbEntity
  8
0
  6
Continuous
 62
     1
370
    15
100
AcDbSpline
210
0.0
220
0.0
230
1.0
 70
     8
 71
     3
 72
    10
 73
     6
 74
     0
 42
0.000000001
 43
0.00000001
 40
0.0
 40
0.0
 40
0.0
 40
0.0
 40
0.5
 40
0.5
 40
1.0
 40
1.0
 40
1.0
 40
1.0
 10
48.42445881706891
 20
2.061543837010069
 30
0.0
 10
48.26823920840977
 20
2.110281162587303
 30
0.0
 10
48.08126247314589
 20
2.192798842498501
 30
0.0
 10
47.71317089913811
 20
2.396110017424489
 30
0.0
 10
47.53668234526904
 20
2.514157788859693
 30
0.0
 10
47.38950538477815
 20
2.636141355492957
 30
0.0
  0
SPLINE
  5
159
330
1F
100
AcDbEntity
  8
0
  6
Continuous
 62
     1
370
    15
100
AcDbSpline
210
0.0
220
0.0
230
1.0
 70
     8
 71
     3
 72
     8
 73
     4
 74
     0
 42
0.000000001
 43
0.00000001
 40
0.0
 40
0.0
 40
0.0
 40
0.0
 40
1.0
 40
1.0
 40
1.0
 40
1.0
 10
48.93186440381427
 20
1.827968716985786
 30
0.0
 10
48.75470801862443
 20
1.92801575746312
 30
0.0
 10
48.57529908457958
 20
2.014484755945048
 30
0.0
 10
48.42445881706954
 20
2.061543837009879
 30
0.0
  0
SPLINE
  5
15A
330
1F
100
AcDbEntity
  8
0
  6
Continuous
 62
     1
370
    15
100
AcDbSpline
210
0.0
220
0.0
230
1.0
 70
     8
 71
     3
 72
     8
 73
     4
 74
     0
 42
0.000000001
 43
0.00000001
 40
0.0
 40
0.0
 40
0.0
 40
0.0
 40
1.0
 40
1.0
 40
1.0
 40
1.0
 10
49.44174710564131
 20
1.491307479629149
 30
0.0
 10
49.29464381688691
 20
1.604720077213371
 30
0.0
 10
49.11589619678927
 20
1.72266884413889
 30
0.0
 10
48.93186440381631
 20
1.827968716984641
 30
0.0
  0
SPLINE
  5
15B
330
1F
100
AcDbEntity
  8
0
  6
Continuous
 62
     1
370
    15
100
AcDbSpline
210
0.0
220
0.0
230
1.0
 70
     8
 71
     3
 72
    10
 73
     6
 74
     0
 42
0.000000001
 43
0.00000001
 40
0.0
 40
0.0
 40
0.0
 40
0.0
 40
0.5
 40
0.5
 40
1.0
 40
1.0
 40
1.0
 40
1.0
 10
50.47672033430057
 20
0.9062321687352854
 30
0.0
 10
50.31953825308735
 20
0.9682882638467493
 30
0.0
 10
50.13228608355578
 20
1.057854262895915
 30
0.0
 10
49.76441246866059
 20
1.2641869696134
 30
0.0
 10
49.58813792077969
 20
1.378444179645571
 30
0.0
 10
49.44174710564217
 20
1.49130747962906
 30
0.0
  0
SPLINE
  5
15C
330
1F
100
AcDbEntity
  8
0
  6
Continuous
 62
     1
370
    15
100
AcDbSpline
210
0.0
220
0.0
230
1.0
 70
     8
 71
     3
 72
    10
 73
     6
 74
     0
 42
0.000000001
 43
0.00000001
 40
0.0
 40
0.0
 40
0.0
 40
0.0
 40
0.5
 40
0.5
 40
1.0
 40
1.0
 40
1.0
 40
1.0
 10
51.50632608170788
 20
0.3216784988359539
 30
0.0
 10
51.35889148708775
 20
0.4251024744539625
 30
0.0
 10
51.18253942980435
 20
0.5369396033025968
 30
0.0
 10
50.82115140128393
 20
0.7459806928309609
 30
0.0
 10
50.63409496585283
 20
0.8441000540033933
 30
0.0
 10
50.47672033430059
 20
0.9062321687352809
 30
0.0
  0
SPLINE
  5
15D
330
1F
100
AcDbEntity
  8
0
  6
Continuous
 62
     1
370
    15
100
AcDbSpline
210
0.0
220
0.0
230
1.0
 70
     8
 71
     3
 72
    10
 73
     6
 74
     0
 42
0.000000001
 43
0.00000001
 40
0.0
 40
0.0
 40
0.0
 40
0.0
 40
0.5
 40
0.5
 40
1.0
 40
1.0
 40
1.0
 40
1.0
 10
52.54191778071353
 20
-0.2653406544397203
 30
0.0
 10
52.38554877094123
 20
-0.1922848826074037
 30
0.0
 10
52.19844956906191
 20
-0.0975379995616239
 30
0.0
 10
51.83018081588313
 20
0.1090758790563239
 30
0.0
 10
51.65359271870351
 20
0.2183723439051435
 30
0.0
 10
51.50632608170785
 20
0.3216784988359497
 30
0.0
  0
SPLINE
  5
15E
330
1F
100
AcDbEntity
  8
0
  6
Continuous
 62
     1
370
    15
100
AcDbSpline
210
0.0
220
0.0
230
1.0
 70
     8
 71
     3
 72
     8
 73
     4
 74
     0
 42
0.000000001
 43
0.00000001
 40
0.0
 40
0.0
 40
0.0
 40
0.0
 40
1.0
 40
1.0
 40
1.0
 40
1.0
 10
53.04980789034698
 20
-0.5359620926968023
 30
0.0
 10
52.87249313692833
 20
-0.4343784871776093
 30
0.0
 10
52.69292136666685
 20
-0.3358896944147013
 30
0.0
 10
52.54191778071417
 20
-0.2653406544400099
 30
0.0
  0
SPLINE
  5
15F
330
1F
100
AcDbEntity
  8
0
  6
Continuous
 62
     1
370
    15
100
AcDbSpline
210
0.0
220
0.0
230
1.0
 70
     8
 71
     3
 72
     8
 73
     4
 74
     0
 42
0.000000001
 43
0.00000001
 40
0.0
 40
0.0
 40
0.0
 40
0.0
 40
1.0
 40
1.0
 40
1.0
 40
1.0
 10
53.56034670312761
 20
-0.8416467989585421
 30
0.0
 10
53.4130056181593
 20
-0.7493003151771735
 30
0.0
 10
53.23403343666521
 20
-0.6419428626530543
 30
0.0
 10
53.04980789034899
 20
-0.5359620926979699
 30
0.0
  0
SPLINE
  5
160
330
1F
100
AcDbEntity
  8
0
  6
Continuous
 62
     1
370
    15
100
AcDbSpline
210
0.0
220
0.0
230
1.0
 70
     8
 71
     3
 72
    10
 73
     6
 74
     0
 42
0.000000001
 43
0.00000001
 40
0.0
 40
0.0
 40
0.0
 40
0.0
 40
0.5
 40
0.5
 40
1.0
 40
1.0
 40
1.0
 40
1.0
 10
54.59632840409827
 20
-1.426248731626605
 30
0.0
 10
54.4389745889974
 20
-1.341502362086307
 30
0.0
 10
54.25153455401713
 20
-1.241780191097241
 30
0.0
 10
53.88333177511233
 20
-1.036622290909189
 30
0.0
 10
53.70691244535686
 20
-0.9335073342634701
 30
0.0
 10
53.56034670312845
 20
-0.8416467989584945
 30
0.0
  0
SPLINE
  5
161
330
1F
100
AcDbEntity
  8
0
  6
Continuous
 62
     1
370
    15
100
AcDbSpline
210
0.0
220
0.0
230
1.0
 70
     8
 71
     3
 72
    10
 73
     6
 74
     0
 42
0.000000001
 43
0.00000001
 40
0.0
 40
0.0
 40
0.0
 40
0.0
 40
0.5
 40
0.5
 40
1.0
 40
1.0
 40
1.0
 40
1.0
 10
55.62664829085789
 20
-2.005514488693183
 30
0.0
 10
55.47915054864234
 20
-1.924542275037809
 30
0.0
 10
55.30265133784715
 20
-1.824989069073177
 30
0.0
 10
54.94099206964411
 20
-1.618783119981267
 30
0.0
 10
54.75381118175568
 20
-1.511064556797621
 30
0.0
 10
54.59632840409832
 20
-1.426248731626628
 30
0.0
  0
SPLINE
  5
162
330
1F
100
AcDbEntity
  8
0
  6
Continuous
 62
     1
370
    15
100
AcDbSpline
210
0.0
220
0.0
230
1.0
 70
     8
 71
     3
 72
    10
 73
     6
 74
     0
 42
0.000000001
 43
0.00000001
 40
0.0
 40
0.0
 40
0.0
 40
0.0
 40
0.5
 40
0.5
 40
1.0
 40
1.0
 40
1.0
 40
1.0
 10
56.66277703946398
 20
-2.584576076777237
 30
0.0
 10
56.50629287611309
 20
-2.489706137606347
 30
0.0
 10
56.31909010538877
 20
-2.386009729419419
 30
0.0
 10
55.95068372251335
 20
-2.183236653502953
 30
0.0
 10
55.77405402287815
 20
-2.086436191275795
 30
0.0
 10
55.62664829085789
 20
-2.005514488693179
 30
0.0
  0
SPLINE
  5
163
330
1F
100
AcDbEntity
  8
0
  6
Continuous
 62
     1
370
    15
100
AcDbSpline
210
0.0
220
0.0
230
1.0
 70
     8
 71
     3
 72
     8
 73
     4
 74
     0
 42
0.000000001
 43
0.00000001
 40
0.0
 40
0.0
 40
0.0
 40
0.0
 40
1.0
 40
1.0
 40
1.0
 40
1.0
 10
57.17081077593126
 20
-2.882743889571815
 30
0.0
 10
56.99344840880832
 20
-2.783193039469361
 30
0.0
 10
56.81383650306817
 20
-2.676157242669287
 30
0.0
 10
56.66277703946459
 20
-2.584576076777607
 30
0.0
  0
SPLINE
  5
164
330
1F
100
AcDbEntity
  8
0
  6
Continuous
 62
     1
370
    15
100
AcDbSpline
210
0.0
220
0.0
230
1.0
 70
     8
 71
     3
 72
     8
 73
     4
 74
     0
 42
0.000000001
 43
0.00000001
 40
0.0
 40
0.0
 40
0.0
 40
0.0
 40
1.0
 40
1.0
 40
1.0
 40
1.0
 10
57.68143771237081
 20
-3.146550083389427
 30
0.0
 10
57.53405930024036
 20
-3.078598026339033
 30
0.0
 10
57.35505082808318
 20
-2.985645289366687
 30
0.0
 10
57.17081077593329
 20
-2.882743889572943
 30
0.0
  0
SPLINE
  5
165
330
1F
100
AcDbEntity
  8
0
  6
Continuous
 62
     1
370
    15
100
AcDbSpline
210
0.0
220
0.0
230
1.0
 70
     8
 71
     3
 72
    10
 73
     6
 74
     0
 42
0.000000001
 43
0.00000001
 40
0.0
 40
0.0
 40
0.0
 40
0.0
 40
0.5
 40
0.5
 40
1.0
 40
1.0
 40
1.0
 40
1.0
 10
58.71734923536964
 20
-3.709905282621033
 30
0.0
 10
58.56000491208181
 20
-3.605464667497575
 30
0.0
 10
58.37256005957832
 20
-3.499126768605583
 30
0.0
 10
58.00436467469487
 20
-3.302422823817897
 30
0.0
 10
57.82798396266543
 20
-3.214118453929549
 30
0.0
 10
57.68143771237165
 20
-3.146550083389243
 30
0.0
  0
SPLINE
  5
166
330
1F
100
AcDbEntity
  8
0
  6
Continuous
 62
     1
370
    15
100
AcDbSpline
210
0.0
220
0.0
230
1.0
 70
     8
 71
     3
 72
    10
 73
     6
 74
     0
 42
0.000000001
 43
0.00000001
 40
0.0
 40
0.0
 40
0.0
 40
0.0
 40
0.5
 40
0.5
 40
1.0
 40
1.0
 40
1.0
 40
1.0
 10
60.78282058767455
 20
-4.812564602733747
 30
0.0
 10
60.62647340847813
 20
-4.699315421977119
 30
0.0
 10
60.43948317800593
 20
-4.590346224577427
 30
0.0
 10
60.07131252686682
 20
-4.398918079547983
 30
0.0
 10
59.89465391060202
 20
-4.318488582192235
 30
0.0
 10
59.74729291268206
 20
-4.263092258360879
 30
0.0
  0
SPLINE
  5
167
330
1F
100
AcDbEntity
  8
0
  6
Continuous
 62
     1
370
    15
100
AcDbSpline
210
0.0
220
0.0
230
1.0
 70
     8
 71
     3
 72
    10
 73
     6
 74
     0
 42
0.000000001
 43
0.00000001
 40
0.0
 40
0.0
 40
0.0
 40
0.0
 40
0.5
 40
0.5
 40
1.0
 40
1.0
 40
1.0
 40
1.0
 10
62.83541690235349
 20
-5.862371089103541
 30
0.0
 10
62.67826205815081
 20
-5.741952276784023
 30
0.0
 10
62.49099503200307
 20
-5.632748759192813
 30
0.0
 10
62.12314272342935
 20
-5.451451204637201
 30
0.0
 10
61.94698317336285
 20
-5.381093157009429
 30
0.0
 10
61.80065062675462
 20
-5.340219444478797
 30
0.0
  0
SPLINE
  5
168
330
1F
100
AcDbEntity
  8
0
  6
Continuous
 62
     1
370
    15
100
AcDbSpline
210
0.0
220
0.0
230
1.0
 70
     8
 71
     3
 72
     8
 73
     4
 74
     0
 42
0.000000001
 43
0.00000001
 40
0.0
 40
0.0
 40
0.0
 40
0.0
 40
1.0
 40
1.0
 40
1.0
 40
1.0
 10
64.403681643489
 20
-6.561026423287167
 30
0.0
 10
64.2094855527201
 20
-6.466968196594875
 30
0.0
 10
64.02002166243713
 20
-6.399803793434855
 30
0.0
 10
63.86438408844666
 20
-6.37023209644908
 30
0.0
  0
SPLINE
  5
169
330
1F
100
AcDbEntity
  8
0
  6
Continuous
 62
     1
370
    15
100
AcDbSpline
210
0.0
220
0.0
230
1.0
 70
     8
 71
     3
 72
     8
 73
     4
 74
     0
 42
0.000000001
 43
0.00000001
 40
0.0
 40
0.0
 40
0.0
 40
0.0
 40
1.0
 40
1.0
 40
1.0
 40
1.0
 10
65.02399984651804
 20
-6.603909927409773
 30
0.0
 10
64.8183026428881
 20
-6.591578591070219
 30
0.0
 10
64.61147292748254
 20
-6.577260696487765
 30
0.0
 10
64.40368164348921
 20
-6.561026423287197
 30
0.0
  0
LINE
  5
16A
330
1F
100
AcDbEntity
  8
0
  6
Continuous
 62
     1
370
    15
100
AcDbLine
 10
65.02399956041573
 20
8.223300799727438
 30
0.0
 11
65.02399956041573
 21
11.64510101079941
 31
0.0
  0
SPLINE
  5
16B
330
1F
100
AcDbEntity
  8
0
  6
Continuous
 62
     1
370
    15
100
AcDbSpline
210
0.0
220
0.0
230
1.0
 70
     8
 71
     3
 72
    14
 73
    10
 74
     0
 42
0.000000001
 43
0.00000001
 40
0.0
 40
0.0
 40
0.0
 40
0.0
 40
0.25
 40
0.25
 40
0.5
 40
0.5
 40
0.75
 40
0.75
 40
1.0
 40
1.0
 40
1.0
 40
1.0
 10
65.02399984651804
 20
8.223300350377988
 30
0.0
 10
64.81471948659261
 20
7.745416151444689
 30
0.0
 10
64.56802088181541
 20
7.302668228296801
 30
0.0
 10
63.99577889414968
 20
6.491208774646693
 30
0.0
 10
63.66599947044543
 20
6.120100913356759
 30
0.0
 10
62.9572134283613
 20
5.489316017737787
 30
0.0
 10
62.57593811936397
 20
5.224561875799057
 30
0.0
 10
61.76193405574985
 20
4.791976715493517
 30
0.0
 10
61.34276079002885
 20
4.631151327033793
 30
0.0
 10
60.9131174113962
 20
4.518294208424833
 30
0.0
  0
SPLINE
  5
16C
330
1F
100
AcDbEntity
  8
0
  6
Continuous
 62
     1
370
    15
100
AcDbSpline
210
0.0
220
0.0
230
1.0
 70
     8
 71
     3
 72
     8
 73
     4
 74
     0
 42
0.000000001
 43
0.00000001
 40
0.0
 40
0.0
 40
0.0
 40
0.0
 40
1.0
 40
1.0
 40
1.0
 40
1.0
 10
65.02399984651804
 20
2.449835235057679
 30
0.0
 10
63.61889903666753
 20
3.213815400395355
 30
0.0
 10
62.249778828554
 20
3.900789244234891
 30
0.0
 10
60.9131174113962
 20
4.518294208424835
 30
0.0
  0
LINE
  5
16D
330
1F
100
AcDbEntity
  8
0
  6
Continuous
 62
     1
370
    15
100
AcDbLine
 10
65.02399956041573
 20
0.9022363228723389
 30
0.0
 11
65.02399956041573
 21
2.449835184961555
 31
0.0
  0
SPLINE
  5
16E
330
1F
100
AcDbEntity
  8
0
  6
Continuous
 62
     1
370
    15
100
AcDbSpline
210
0.0
220
0.0
230
1.0
 70
     8
 71
     3
 72
     8
 73
     4
 74
     0
 42
0.000000001
 43
0.00000001
 40
0.0
 40
0.0
 40
0.0
 40
0.0
 40
1.0
 40
1.0
 40
1.0
 40
1.0
 10
64.3191872490506
 20
1.215539440822888
 30
0.0
 10
64.55193783079517
 20
1.098115645115521
 30
0.0
 10
64.78669678375245
 20
0.9933639634141272
 30
0.0
 10
65.02399984651804
 20
0.9022363428356377
 30
0.0
  0
SPLINE
  5
16F
330
1F
100
AcDbEntity
  8
0
  6
Continuous
 62
     1
370
    15
100
AcDbSpline
210
0.0
220
0.0
230
1.0
 70
     8
 71
     3
 72
     8
 73
     4
 74
     0
 42
0.000000001
 43
0.00000001
 40
0.0
 40
0.0
 40
0.0
 40
0.0
 40
1.0
 40
1.0
 40
1.0
 40
1.0
 10
63.43653347546517
 20
1.707704387074433
 30
0.0
 10
63.69961678687055
 20
1.56181885524509
 30
0.0
 10
64.04437187955295
 20
1.377143749809849
 30
0.0
 10
64.31918724905053
 20
1.21553944082292
 30
0.0
  0
SPLINE
  5
170
330
1F
100
AcDbEntity
  8
0
  6
Continuous
 62
     1
370
    15
100
AcDbSpline
210
0.0
220
0.0
230
1.0
 70
     8
 71
     3
 72
    10
 73
     6
 74
     0
 42
0.000000001
 43
0.00000001
 40
0.0
 40
0.0
 40
0.0
 40
0.0
 40
0.5
 40
0.5
 40
1.0
 40
1.0
 40
1.0
 40
1.0
 10
61.37251463369178
 20
2.856913449252753
 30
0.0
 10
61.52872484669723
 20
2.759857282174845
 30
0.0
 10
61.71566187308653
 20
2.655650951042861
 30
0.0
 10
62.08376419132273
 20
2.454708703086391
 30
0.0
 10
62.26037156611319
 20
2.360243102520587
 30
0.0
 10
62.40760151715793
 20
2.282713744288585
 30
0.0
  0
SPLINE
  5
171
330
1F
100
AcDbEntity
  8
0
  6
Continuous
 62
     1
370
    15
100
AcDbSpline
210
0.0
220
0.0
230
1.0
 70
     8
 71
     3
 72
    10
 73
     6
 74
     0
 42
0.000000001
 43
0.00000001
 40
0.0
 40
0.0
 40
0.0
 40
0.0
 40
0.5
 40
0.5
 40
1.0
 40
1.0
 40
1.0
 40
1.0
 10
59.31852650687139
 20
3.978122724353105
 30
0.0
 10
59.47594002784156
 20
3.871390407629455
 30
0.0
 10
59.6634252047828
 20
3.764286442723535
 30
0.0
 10
60.03156717645267
 20
3.568489279512167
 30
0.0
 10
60.20785661509784
 20
3.481829210248307
 30
0.0
 10
60.35433629314423
 20
3.416982804583269
 30
0.0
  0
SPLINE
  5
172
330
1F
100
AcDbEntity
  8
0
  6
Continuous
 62
     1
370
    15
100
AcDbSpline
210
0.0
220
0.0
230
1.0
 70
     8
 71
     3
 72
    10
 73
     6
 74
     0
 42
0.000000001
 43
0.00000001
 40
0.0
 40
0.0
 40
0.0
 40
0.0
 40
0.5
 40
0.5
 40
1.0
 40
1.0
 40
1.0
 40
1.0
 10
57.25246939974197
 20
5.069245069885603
 30
0.0
 10
57.40882985597425
 20
4.954319265093955
 30
0.0
 10
57.59593232516475
 20
4.84542571566115
 30
0.0
 10
57.96431957581065
 20
4.656591234232657
 30
0.0
 10
58.14104763892747
 20
4.578594531824563
 30
0.0
 10
58.28842816488984
 20
4.526597733687095
 30
0.0
  0
SPLINE
  5
173
330
1F
100
AcDbEntity
  8
0
  6
Continuous
 62
     1
370
    15
100
AcDbSpline
210
0.0
220
0.0
230
1.0
 70
     8
 71
     3
 72
     8
 73
     4
 74
     0
 42
0.000000001
 43
0.00000001
 40
0.0
 40
0.0
 40
0.0
 40
0.0
 40
1.0
 40
1.0
 40
1.0
 40
1.0
 10
56.74442902259393
 20
5.385383934581359
 30
0.0
 10
56.92174558151574
 20
5.292271844202503
 30
0.0
 10
57.10138227726543
 20
5.180294945043797
 30
0.0
 10
57.25246939974181
 20
5.069245069885723
 30
0.0
  0
SPLINE
  5
174
330
1F
100
AcDbEntity
  8
0
  6
Continuous
 62
     1
370
    15
100
AcDbSpline
210
0.0
220
0.0
230
1.0
 70
     8
 71
     3
 72
     8
 73
     4
 74
     0
 42
0.000000001
 43
0.00000001
 40
0.0
 40
0.0
 40
0.0
 40
0.0
 40
1.0
 40
1.0
 40
1.0
 40
1.0
 10
56.23372896524631
 20
5.591878623579307
 30
0.0
 10
56.38111568133631
 20
5.553780639609394
 30
0.0
 10
56.56011948946224
 20
5.480620138613701
 30
0.0
 10
56.74442902259193
 20
5.385383934582413
 30
0.0
  0
SPLINE
  5
175
330
1F
100
AcDbEntity
  8
0
  6
Continuous
 62
     1
370
    15
100
AcDbSpline
210
0.0
220
0.0
230
1.0
 70
     8
 71
     3
 72
    10
 73
     6
 74
     0
 42
0.000000001
 43
0.00000001
 40
0.0
 40
0.0
 40
0.0
 40
0.0
 40
0.5
 40
0.5
 40
1.0
 40
1.0
 40
1.0
 40
1.0
 10
55.19753455444796
 20
6.110683333230943
 30
0.0
 10
55.35501590482608
 20
5.988160224073799
 30
0.0
 10
55.54254539080857
 20
5.878419784453941
 30
0.0
 10
55.91071536125219
 20
5.698352582679343
 30
0.0
 10
56.08709710626027
 20
5.629781484578356
 30
0.0
 10
56.23372896524582
 20
5.591878623579121
 30
0.0
  0
SPLINE
  5
176
330
1F
100
AcDbEntity
  8
0
  6
Continuous
 62
     1
370
    15
100
AcDbSpline
210
0.0
220
0.0
230
1.0
 70
     8
 71
     3
 72
    10
 73
     6
 74
     0
 42
0.000000001
 43
0.00000001
 40
0.0
 40
0.0
 40
0.0
 40
0.0
 40
0.5
 40
0.5
 40
1.0
 40
1.0
 40
1.0
 40
1.0
 10
54.16733599027825
 20
6.613026436613417
 30
0.0
 10
54.31487675205587
 20
6.588418901217802
 30
0.0
 10
54.49144375237225
 20
6.525733292068947
 30
0.0
 10
54.85309069765606
 20
6.348688658958594
 30
0.0
 10
55.04015683361891
 20
6.233125816875787
 30
0.0
 10
55.19753455444793
 20
6.110683333230947
 30
0.0
  0
SPLINE
  5
177
330
1F
100
AcDbEntity
  8
0
  6
Continuous
 62
     1
370
    15
100
AcDbSpline
210
0.0
220
0.0
230
1.0
 70
     8
 71
     3
 72
    10
 73
     6
 74
     0
 42
0.000000001
 43
0.00000001
 40
0.0
 40
0.0
 40
0.0
 40
0.0
 40
0.5
 40
0.5
 40
1.0
 40
1.0
 40
1.0
 40
1.0
 10
53.13158346661683
 20
7.104825206803483
 30
0.0
 10
53.28791323867697
 20
6.976092978226891
 30
0.0
 10
53.47499740920367
 20
6.866360332999023
 30
0.0
 10
53.84333297822801
 20
6.696335146293695
 30
0.0
 10
54.01999915656945
 20
6.637599959935977
 30
0.0
 10
54.16733599027825
 20
6.613026436613439
 30
0.0
  0
SPLINE
  5
178
330
1F
100
AcDbEntity
  8
0
  6
Continuous
 62
     1
370
    15
100
AcDbSpline
210
0.0
220
0.0
230
1.0
 70
     8
 71
     3
 72
     8
 73
     4
 74
     0
 42
0.000000001
 43
0.00000001
 40
0.0
 40
0.0
 40
0.0
 40
0.0
 40
1.0
 40
1.0
 40
1.0
 40
1.0
 10
52.62373708722665
 20
7.425066838093337
 30
0.0
 10
52.80101002092099
 20
7.341351123961051
 30
0.0
 10
52.98057704730211
 20
7.229173836188503
 30
0.0
 10
53.13158346661671
 20
7.104825206803587
 30
0.0
  0
SPLINE
  5
179
330
1F
100
AcDbEntity
  8
0
  6
Continuous
 62
     1
370
    15
100
AcDbSpline
210
0.0
220
0.0
230
1.0
 70
     8
 71
     3
 72
     8
 73
     4
 74
     0
 42
0.000000001
 43
0.00000001
 40
0.0
 40
0.0
 40
0.0
 40
0.0
 40
1.0
 40
1.0
 40
1.0
 40
1.0
 10
52.11334644935391
 20
7.571560796264179
 30
0.0
 10
52.26061752617088
 20
7.561993498331231
 30
0.0
 10
52.43953017543522
 20
7.509637742486619
 30
0.0
 10
52.62373708722463
 20
7.425066838094285
 30
0.0
  0
SPLINE
  5
17A
330
1F
100
AcDbEntity
  8
0
  6
Continuous
 62
     1
370
    15
100
AcDbSpline
210
0.0
220
0.0
230
1.0
 70
     8
 71
     3
 72
    10
 73
     6
 74
     0
 42
0.000000001
 43
0.00000001
 40
0.0
 40
0.0
 40
0.0
 40
0.0
 40
0.5
 40
0.5
 40
1.0
 40
1.0
 40
1.0
 40
1.0
 10
51.07792029182055
 20
8.028459699524362
 30
0.0
 10
51.23520253662879
 20
7.894597095240631
 30
0.0
 10
51.42248936963917
 20
7.786172780878585
 30
0.0
 10
51.79047148306677
 20
7.628804842743685
 30
0.0
 10
51.96682341066259
 20
7.581079498751077
 30
0.0
 10
52.11334644935347
 20
7.571560796264017
 30
0.0
  0
SPLINE
  5
17B
330
1F
100
AcDbEntity
  8
0
  6
Continuous
 62
     1
370
    15
100
AcDbSpline
210
0.0
220
0.0
230
1.0
 70
     8
 71
     3
 72
    10
 73
     6
 74
     0
 42
0.000000001
 43
0.00000001
 40
0.0
 40
0.0
 40
0.0
 40
0.0
 40
0.5
 40
0.5
 40
1.0
 40
1.0
 40
1.0
 40
1.0
 10
50.04869440283979
 20
8.466779375294594
 30
0.0
 10
50.19606969844883
 20
8.470516247121799
 30
0.0
 10
50.37248327985717
 20
8.428866196907075
 30
0.0
 10
50.73381598233893
 20
8.275344679404627
 30
0.0
 10
50.92070244933471
 20
8.162267491120195
 30
0.0
 10
51.07792029182055
 20
8.028459699524372
 30
0.0
  0
SPLINE
  5
17C
330
1F
100
AcDbEntity
  8
0
  6
Continuous
 62
     1
370
    15
100
AcDbSpline
210
0.0
220
0.0
230
1.0
 70
     8
 71
     3
 72
    10
 73
     6
 74
     0
 42
0.000000001
 43
0.00000001
 40
0.0
 40
0.0
 40
0.0
 40
0.0
 40
0.5
 40
0.5
 40
1.0
 40
1.0
 40
1.0
 40
1.0
 10
49.01408931314413
 20
8.890427639657604
 30
0.0
 10
49.17024453219607
 20
8.752444796748309
 30
0.0
 10
49.35714523311211
 20
8.645703648448212
 30
0.0
 10
49.72512410573911
 20
8.500445553760835
 30
0.0
 10
49.90157823682275
 20
8.463049073999231
 30
0.0
 10
50.04869440283984
 20
8.4667793752946
 30
0.0
  0
SPLINE
  5
17D
330
1F
100
AcDbEntity
  8
0
  6
Continuous
 62
     1
370
    15
100
AcDbSpline
210
0.0
220
0.0
230
1.0
 70
     8
 71
     3
 72
     8
 73
     4
 74
     0
 42
0.000000001
 43
0.00000001
 40
0.0
 40
0.0
 40
0.0
 40
0.0
 40
1.0
 40
1.0
 40
1.0
 40
1.0
 10
48.5066057419761
 20
9.203683045092431
 30
0.0
 10
48.68377993496279
 20
9.132239964121469
 30
0.0
 10
48.86322353089293
 20
9.023736597623522
 30
0.0
 10
49.01408931314399
 20
8.890427639657725
 30
0.0
  0
SPLINE
  5
17E
330
1F
100
AcDbEntity
  8
0
  6
Continuous
 62
     1
370
    15
100
AcDbSpline
210
0.0
220
0.0
230
1.0
 70
     8
 71
     3
 72
     8
 73
     4
 74
     0
 42
0.000000001
 43
0.00000001
 40
0.0
 40
0.0
 40
0.0
 40
0.0
 40
1.0
 40
1.0
 40
1.0
 40
1.0
 10
47.99648567845988
 20
9.285340197180458
 30
0.0
 10
48.14367028292647
 20
9.304520405707317
 30
0.0
 10
48.32249251374041
 20
9.274718223133416
 30
0.0
 10
48.50660574197406
 20
9.203683045093245
 30
0.0
  0
SPLINE
  5
17F
330
1F
100
AcDbEntity
  8
0
  6
Continuous
 62
     1
370
    15
100
AcDbSpline
210
0.0
220
0.0
230
1.0
 70
     8
 71
     3
 72
    10
 73
     6
 74
     0
 42
0.000000001
 43
0.00000001
 40
0.0
 40
0.0
 40
0.0
 40
0.0
 40
0.5
 40
0.5
 40
1.0
 40
1.0
 40
1.0
 40
1.0
 10
46.96109389133091
 20
9.6644429812279
 30
0.0
 10
47.11834901784455
 20
9.52405057982743
 30
0.0
 10
47.30566157126849
 20
9.420932553426029
 30
0.0
 10
47.6736465549893
 20
9.291634099376845
 30
0.0
 10
47.85000373044637
 20
9.266251554597405
 30
0.0
 10
47.99648567845937
 20
9.285340197180153
 30
0.0
  0
SPLINE
  5
180
330
1F
100
AcDbEntity
  8
0
  6
Continuous
 62
     1
370
    15
100
AcDbSpline
210
0.0
220
0.0
230
1.0
 70
     8
 71
     3
 72
    10
 73
     6
 74
     0
 42
0.000000001
 43
0.00000001
 40
0.0
 40
0.0
 40
0.0
 40
0.0
 40
0.5000000000000004
 40
0.5000000000000004
 40
1.0
 40
1.0
 40
1.0
 40
1.0
 10
45.93116988432696
 20
10.0239394528959
 30
0.0
 10
46.07869658569023
 20
10.05572117271147
 30
0.0
 10
46.25521294873767
 20
10.03643029556624
 30
0.0
 10
46.61669805442794
 20
9.91162586560379
 30
0.0
 10
46.80369119288336
 20
9.804967130181799
 30
0.0
 10
46.96109389133091
 20
9.664442981227898
 30
0.0
  0
SPLINE
  5
181
330
1F
100
AcDbEntity
  8
0
  6
Continuous
 62
     1
370
    15
100
AcDbSpline
210
0.0
220
0.0
230
1.0
 70
     8
 71
     3
 72
    10
 73
     6
 74
     0
 42
0.000000001
 43
0.00000001
 40
0.0
 40
0.0
 40
0.0
 40
0.0
 40
0.5
 40
0.5
 40
1.0
 40
1.0
 40
1.0
 40
1.0
 10
44.89536621011867
 20
10.36567531907971
 30
0.0
 10
45.05175024449876
 20
10.22300696171527
 30
0.0
 10
45.23887353372884
 20
10.1228729880814
 30
0.0
 10
45.60721635314891
 20
10.00716534034328
 30
0.0
 10
45.78385595522752
 20
9.992203570670512
 30
0.0
 10
45.93116988432696
 20
10.02393945289592
 30
0.0
  0
SPLINE
  5
182
330
1F
100
AcDbEntity
  8
0
  6
Continuous
 62
     1
370
    15
100
AcDbSpline
210
0.0
220
0.0
230
1.0
 70
     8
 71
     3
 72
     8
 73
     4
 74
     0
 42
0.000000001
 43
0.00000001
 40
0.0
 40
0.0
 40
0.0
 40
0.0
 40
1.0
 40
1.0
 40
1.0
 40
1.0
 10
44.38739793785291
 20
10.66141672130711
 30
0.0
 10
44.56473217751844
 20
10.6046110115284
 30
0.0
 10
44.74433460968081
 20
10.50346067824374
 30
0.0
 10
44.89536621011853
 20
10.36567531907984
 30
0.0
  0
SPLINE
  5
183
330
1F
100
AcDbEntity
  8
0
  6
Continuous
 62
     1
370
    15
100
AcDbSpline
210
0.0
220
0.0
230
1.0
 70
     8
 71
     3
 72
     8
 73
     4
 74
     0
 42
0.000000001
 43
0.00000001
 40
0.0
 40
0.0
 40
0.0
 40
0.0
 40
1.0
 40
1.0
 40
1.0
 40
1.0
 10
43.87677870916821
 20
10.67576159937652
 30
0.0
 10
44.02414231327345
 20
10.72293227044342
 30
0.0
 10
44.20313845836125
 20
10.7165609154611
 30
0.0
 10
44.38739793785087
 20
10.66141672130775
 30
0.0
  0
SPLINE
  5
184
330
1F
100
AcDbEntity
  8
0
  6
Continuous
 62
     1
370
    15
100
AcDbSpline
210
0.0
220
0.0
230
1.0
 70
     8
 71
     3
 72
    10
 73
     6
 74
     0
 42
0.000000001
 43
0.00000001
 40
0.0
 40
0.0
 40
0.0
 40
0.0
 40
0.5
 40
0.5
 40
1.0
 40
1.0
 40
1.0
 40
1.0
 10
42.84068632056862
 20
10.96435170310532
 30
0.0
 10
42.99805567048067
 20
10.82223192631636
 30
0.0
 10
43.18550368632835
 20
10.72790908317996
 30
0.0
 10
43.55372872677319
 20
10.63105354081937
 30
0.0
 10
43.73017917039918
 20
10.62883550345284
 30
0.0
 10
43.8767787091677
 20
10.67576159937617
 30
0.0
  0
SPLINE
  5
185
330
1F
100
AcDbEntity
  8
0
  6
Continuous
 62
     1
370
    15
100
AcDbSpline
210
0.0
220
0.0
230
1.0
 70
     8
 71
     3
 72
    10
 73
     6
 74
     0
 42
0.000000001
 43
0.00000001
 40
0.0
 40
0.0
 40
0.0
 40
0.0
 40
0.5
 40
0.5
 40
1.0
 40
1.0
 40
1.0
 40
1.0
 10
41.81031179214041
 20
11.23154230360968
 30
0.0
 10
41.95785604211315
 20
11.29033074373397
 30
0.0
 10
42.13432778223873
 20
11.29415754423188
 30
0.0
 10
42.49598402804568
 20
11.2028757819801
 30
0.0
 10
42.68317191746767
 20
11.10660247698383
 30
0.0
 10
42.84068632056862
 20
10.96435170310531
 30
0.0
  0
SPLINE
  5
186
330
1F
100
AcDbEntity
  8
0
  6
Continuous
 62
     1
370
    15
100
AcDbSpline
210
0.0
220
0.0
230
1.0
 70
     8
 71
     3
 72
    10
 73
     6
 74
     0
 42
0.000000001
 43
0.00000001
 40
0.0
 40
0.0
 40
0.0
 40
0.0
 40
0.5
 40
0.5
 40
1.0
 40
1.0
 40
1.0
 40
1.0
 10
40.77427864873943
 20
11.47889265148175
 30
0.0
 10
40.9307251759309
 20
11.33660731246152
 30
0.0
 10
41.11790614416833
 20
11.24664694124689
 30
0.0
 10
41.48631055553037
 20
11.16471271323772
 30
0.0
 10
41.66295789286561
 20
11.17282970799041
 30
0.0
 10
41.81031179214043
 20
11.23154230360969
 30
0.0
  0
SPLINE
  5
187
330
1F
100
AcDbEntity
  8
0
  6
Continuous
 62
     1
370
    15
100
AcDbSpline
210
0.0
220
0.0
230
1.0
 70
     8
 71
     3
 72
     8
 73
     4
 74
     0
 42
0.000000001
 43
0.00000001
 40
0.0
 40
0.0
 40
0.0
 40
0.0
 40
1.0
 40
1.0
 40
1.0
 40
1.0
 10
40.26630724535777
 20
11.74661422856417
 30
0.0
 10
40.44364805670973
 20
11.70647879149227
 30
0.0
 10
40.62324382886116
 20
11.61625613877688
 30
0.0
 10
40.77427864873929
 20
11.47889265148188
 30
0.0
  0
SPLINE
  5
188
330
1F
100
AcDbEntity
  8
0
  6
Continuous
 62
     1
370
    15
100
AcDbSpline
210
0.0
220
0.0
230
1.0
 70
     8
 71
     3
 72
     8
 73
     4
 74
     0
 42
0.000000001
 43
0.00000001
 40
0.0
 40
0.0
 40
0.0
 40
0.0
 40
1.0
 40
1.0
 40
1.0
 40
1.0
 10
39.75576633344986
 20
11.69299741194803
 30
0.0
 10
39.90310561323965
 20
11.76655174332682
 30
0.0
 10
40.08208377971209
 20
11.78388904466108
 30
0.0
 10
40.2663072453559
 20
11.74661422856457
 30
0.0
  0
SPLINE
  5
189
330
1F
100
AcDbEntity
  8
0
  6
Continuous
 62
     1
370
    15
100
AcDbSpline
210
0.0
220
0.0
230
1.0
 70
     8
 71
     3
 72
    10
 73
     6
 74
     0
 42
0.000000001
 43
0.00000001
 40
0.0
 40
0.0
 40
0.0
 40
0.0
 40
0.5
 40
0.5
 40
1.0
 40
1.0
 40
1.0
 40
1.0
 10
38.72005643909196
 20
11.88093924223662
 30
0.0
 10
38.87735806056537
 20
11.74208086371677
 30
0.0
 10
39.06475770545011
 20
11.65982038238729
 30
0.0
 10
39.43288482033351
 20
11.59879733511145
 30
0.0
 10
39.60924448540548
 20
11.61985115671497
 30
0.0
 10
39.75576633344979
 20
11.69299741194786
 30
0.0
  0
SPLINE
  5
18A
330
1F
100
AcDbEntity
  8
0
  6
Continuous
 62
     1
370
    15
100
AcDbSpline
210
0.0
220
0.0
230
1.0
 70
     8
 71
     3
 72
    10
 73
     6
 74
     0
 42
0.000000001
 43
0.00000001
 40
0.0
 40
0.0
 40
0.0
 40
0.0
 40
0.5
 40
0.5
 40
1.0
 40
1.0
 40
1.0
 40
1.0
 10
37.69036395521258
 20
12.04607399155925
 30
0.0
 10
37.83773959860851
 20
12.12994333324313
 30
0.0
 10
38.01413891374386
 20
12.1570085206141
 30
0.0
 10
38.37560974518392
 20
12.10247216187262
 30
0.0
 10
38.56268595915749
 20
12.01985840572583
 30
0.0
 10
38.72005643909198
 20
11.88093924223659
 30
0.0
  0
SPLINE
  5
18B
330
1F
100
AcDbEntity
  8
0
  6
Continuous
 62
     1
370
    15
100
AcDbSpline
210
0.0
220
0.0
230
1.0
 70
     8
 71
     3
 72
    10
 73
     6
 74
     0
 42
0.000000001
 43
0.00000001
 40
0.0
 40
0.0
 40
0.0
 40
0.0
 40
0.5
 40
0.5
 40
1.0
 40
1.0
 40
1.0
 40
1.0
 10
36.65519549975723
 20
12.18997970069247
 30
0.0
 10
36.81150619987911
 20
12.05314981007198
 30
0.0
 10
36.99853770096286
 20
11.97653759989393
 30
0.0
 10
37.36662379204705
 20
11.93132553870402
 30
0.0
 10
37.54310220314523
 20
11.96226946377903
 30
0.0
 10
37.69036395521265
 20
12.04607399155929
 30
0.0
  0
SPLINE
  5
18C
330
1F
100
AcDbEntity
  8
0
  6
Continuous
 62
     1
370
    15
100
AcDbSpline
210
0.0
220
0.0
230
1.0
 70
     8
 71
     3
 72
     8
 73
     4
 74
     0
 42
0.000000001
 43
0.00000001
 40
0.0
 40
0.0
 40
0.0
 40
0.0
 40
1.0
 40
1.0
 40
1.0
 40
1.0
 10
36.14770305411439
 20
12.42024930949956
 30
0.0
 10
36.32489683868243
 20
12.39819698536217
 30
0.0
 10
36.50432032018465
 20
12.32205149297642
 30
0.0
 10
36.65519549975709
 20
12.18997970069258
 30
0.0
  0
SPLINE
  5
18D
330
1F
100
AcDbEntity
  8
0
  6
Continuous
 62
     1
370
    15
100
AcDbSpline
210
0.0
220
0.0
230
1.0
 70
     8
 71
     3
 72
     8
 73
     4
 74
     0
 42
0.000000001
 43
0.00000001
 40
0.0
 40
0.0
 40
0.0
 40
0.0
 40
1.0
 40
1.0
 40
1.0
 40
1.0
 10
35.63780992644733
 20
12.30056775174125
 30
0.0
 10
35.78492892044921
 20
12.39789681180089
 30
0.0
 10
35.96369580508463
 20
12.43834762524209
 30
0.0
 10
36.14770305411238
 20
12.42024930949979
 30
0.0
  0
SPLINE
  5
18E
330
1F
100
AcDbEntity
  8
0
  6
Continuous
 62
     1
370
    15
100
AcDbSpline
210
0.0
220
0.0
230
1.0
 70
     8
 71
     3
 72
    10
 73
     6
 74
     0
 42
0.000000001
 43
0.00000001
 40
0.0
 40
0.0
 40
0.0
 40
0.0
 40
0.5
 40
0.5
 40
1.0
 40
1.0
 40
1.0
 40
1.0
 10
34.60300204201217
 20
12.3815831355376
 30
0.0
 10
34.76016900336549
 20
12.25083059901751
 30
0.0
 10
34.94742732181833
 20
12.18342919503572
 30
0.0
 10
35.31528050044705
 20
12.16022954446641
 30
0.0
 10
35.49148319283137
 20
12.20376282494628
 30
0.0
 10
35.63780992644683
 20
12.30056775174083
 30
0.0
  0
SPLINE
  5
18F
330
1F
100
AcDbEntity
  8
0
  6
Continuous
 62
     1
370
    15
100
AcDbSpline
210
0.0
220
0.0
230
1.0
 70
     8
 71
     3
 72
    10
 73
     6
 74
     0
 42
0.000000001
 43
0.00000001
 40
0.0
 40
0.0
 40
0.0
 40
0.0
 40
0.5
 40
0.5
 40
1.0
 40
1.0
 40
1.0
 40
1.0
 10
33.57359944657652
 20
12.43947155343107
 30
0.0
 10
33.72094716308752
 20
12.54542695985272
 30
0.0
 10
33.89731139243529
 20
12.59463482122336
 30
0.0
 10
34.25869785480831
 20
12.5785751318774
 30
0.0
 10
34.4457209545367
 20
12.51243061745729
 30
0.0
 10
34.60300204201217
 20
12.38158313553757
 30
0.0
  0
SPLINE
  5
190
330
1F
100
AcDbEntity
  8
0
  6
Continuous
 62
     1
370
    15
100
AcDbSpline
210
0.0
220
0.0
230
1.0
 70
     8
 71
     3
 72
    11
 73
     7
 74
     0
 42
0.000000001
 43
0.00000001
 40
0.0
 40
0.0
 40
0.0
 40
0.0
 40
0.1009782344419364
 40
0.4073629948991124
 40
0.7546233724599688
 40
1.0
 40
1.0
 40
1.0
 40
1.0
 10
32.71235329264403
 20
12.3785650357604
 30
0.0
 10
32.74043139830951
 20
12.3617289995294
 30
0.0
 10
32.85370314719879
 20
12.29380962879377
 30
0.0
 10
33.09082820587761
 20
12.27313220492874
 30
0.0
 10
33.35973838841125
 20
12.3101809573559
 30
0.0
 10
33.51097932664975
 20
12.40161438689102
 30
0.0
 10
33.57359943145514
 20
12.43947166949511
 30
0.0
  0
SPLINE
  5
191
330
1F
100
AcDbEntity
  8
0
  6
Continuous
 62
     1
370
    15
100
AcDbSpline
210
0.0
220
0.0
230
1.0
 70
     8
 71
     3
 72
     9
 73
     5
 74
     0
 42
0.000000001
 43
0.00000001
 40
0.0
 40
0.0
 40
0.0
 40
0.0
 40
0.6387576050884975
 40
1.0
 40
1.0
 40
1.0
 40
1.0
 10
32.03014088028669
 20
12.65962142497301
 30
0.0
 10
32.08091536686281
 20
12.65701908837872
 30
0.0
 10
32.16040481038824
 20
12.65294502871419
 30
0.0
 10
32.23794476321071
 20
12.62703733781109
 30
0.0
 10
32.26595548146963
 20
12.61767838150263
 30
0.0
  0
SPLINE
  5
192
330
1F
100
AcDbEntity
  8
0
  6
Continuous
 62
     1
370
    15
100
AcDbSpline
210
0.0
220
0.0
230
1.0
 70
     8
 71
     3
 72
     8
 73
     4
 74
     0
 42
0.000000001
 43
0.00000001
 40
0.0
 40
0.0
 40
0.0
 40
0.0
 40
1.0
 40
1.0
 40
1.0
 40
1.0
 10
31.51960875398835
 20
12.47814032643033
 30
0.0
 10
31.66697403600979
 20
12.59584257024973
 30
0.0
 10
31.84595124177953
 20
12.65793306091293
 30
0.0
 10
32.03014150348513
 20
12.65962111674636
 30
0.0
  0
SPLINE
  5
193
330
1F
100
AcDbEntity
  8
0
  6
Continuous
 62
     1
370
    15
100
AcDbSpline
210
0.0
220
0.0
230
1.0
 70
     8
 71
     3
 72
    10
 73
     6
 74
     0
 42
0.000000001
 43
0.00000001
 40
0.0
 40
0.0
 40
0.0
 40
0.0
 40
0.0337922492216561
 40
0.6021036286194351
 40
1.0
 40
1.0
 40
1.0
 40
1.0
 10
31.00564320737124
 20
12.29157019406557
 30
0.0
 10
31.0119122583675
 20
12.2908266778549
 30
0.0
 10
31.12361297198667
 20
12.27757885272655
 30
0.0
 10
31.30813513104481
 20
12.33907336931707
 30
0.0
 10
31.45792368248397
 20
12.43757569833574
 30
0.0
 10
31.51960847133397
 20
12.47814018279314
 30
0.0
  0
LINE
  5
194
330
1F
100
AcDbEntity
  8
0
  6
Continuous
 62
     1
370
    15
100
AcDbLine
 10
47.55913083606959
 20
9.426952339708803
 30
0.0
 11
47.44781916195154
 21
9.376460686326025
 31
0.0
  0
SPLINE
  5
195
330
1F
100
AcDbEntity
  8
0
  6
Continuous
 62
     1
370
    15
100
AcDbSpline
210
0.0
220
0.0
230
1.0
 70
     8
 71
     3
 72
     8
 73
     4
 74
     0
 42
0.000000001
 43
0.00000001
 40
0.0
 40
0.0
 40
0.0
 40
0.0
 40
1.0
 40
1.0
 40
1.0
 40
1.0
 10
48.06978698463191
 20
9.499698997331334
 30
0.0
 10
47.92238778547309
 20
9.522804901825351
 30
0.0
 10
47.74336763172289
 20
9.496077479490616
 30
0.0
 10
47.55913104063071
 20
9.426952505286238
 30
0.0
  0
SPLINE
  5
196
330
1F
100
AcDbEntity
  8
0
  6
Continuous
 62
     1
370
    15
100
AcDbSpline
210
0.0
220
0.0
230
1.0
 70
     8
 71
     3
 72
    10
 73
     6
 74
     0
 42
0.000000001
 43
0.00000001
 40
0.0
 40
0.0
 40
0.0
 40
0.0
 40
0.5
 40
0.5
 40
1.0
 40
1.0
 40
1.0
 40
1.0
 10
49.10575502152417
 20
9.866430234136297
 30
0.0
 10
48.94838978092407
 20
9.725628006530131
 30
0.0
 10
48.76092280192933
 20
9.623674625206773
 30
0.0
 10
48.39270646799599
 20
9.49885898616348
 30
0.0
 10
48.21633256588763
 20
9.476726903698117
 30
0.0
 10
48.06978698463207
 20
9.499698997331235
 30
0.0
  0
SPLINE
  5
197
330
1F
100
AcDbEntity
  8
0
  6
Continuous
 62
     1
370
    15
100
AcDbSpline
210
0.0
220
0.0
230
1.0
 70
     8
 71
     3
 72
    10
 73
     6
 74
     0
 42
0.000000001
 43
0.00000001
 40
0.0
 40
0.0
 40
0.0
 40
0.0
 40
0.5
 40
0.5
 40
1.0
 40
1.0
 40
1.0
 40
1.0
 10
50.13575497069493
 20
10.21258275131122
 30
0.0
 10
49.98830721524219
 20
10.24823957964641
 30
0.0
 10
49.81182829256733
 20
10.23231615354815
 30
0.0
 10
49.45024204728553
 20
10.11241241917903
 30
0.0
 10
49.26313621735574
 20
10.00724673765323
 30
0.0
 10
49.10575502152417
 20
9.866430234136304
 30
0.0
  0
SPLINE
  5
198
330
1F
100
AcDbEntity
  8
0
  6
Continuous
 62
     1
370
    15
100
AcDbSpline
210
0.0
220
0.0
230
1.0
 70
     8
 71
     3
 72
    10
 73
     6
 74
     0
 42
0.000000001
 43
0.00000001
 40
0.0
 40
0.0
 40
0.0
 40
0.0
 40
0.5
 40
0.5
 40
1.0
 40
1.0
 40
1.0
 40
1.0
 10
51.17135864445153
 20
10.54241142495157
 30
0.0
 10
51.01506375277307
 20
10.39933203977594
 30
0.0
 10
50.82806299478031
 20
10.30022896457331
 30
0.0
 10
50.45984172979731
 20
10.18876338609783
 30
0.0
 10
50.28312856413557
 20
10.17694385734287
 30
0.0
 10
50.13575497069491
 20
10.21258275131122
 30
0.0
  0
SPLINE
  5
199
330
1F
100
AcDbEntity
  8
0
  6
Continuous
 62
     1
370
    15
100
AcDbSpline
210
0.0
220
0.0
230
1.0
 70
     8
 71
     3
 72
     8
 73
     4
 74
     0
 42
0.000000001
 43
0.00000001
 40
0.0
 40
0.0
 40
0.0
 40
0.0
 40
1.0
 40
1.0
 40
1.0
 40
1.0
 10
51.679131035841
 20
10.83546320930902
 30
0.0
 10
51.50185382812197
 20
10.78070345748574
 30
0.0
 10
51.32235588801405
 20
10.68064110437425
 30
0.0
 10
51.17135864445197
 20
10.54241142495195
 30
0.0
  0
SPLINE
  5
19A
330
1F
100
AcDbEntity
  8
0
  6
Continuous
 62
     1
370
    15
100
AcDbSpline
210
0.0
220
0.0
230
1.0
 70
     8
 71
     3
 72
     8
 73
     4
 74
     0
 42
0.000000001
 43
0.00000001
 40
0.0
 40
0.0
 40
0.0
 40
0.0
 40
1.0
 40
1.0
 40
1.0
 40
1.0
 10
52.18935892354445
 20
10.84059816925515
 30
0.0
 10
52.04210112031208
 20
10.8915480765776
 30
0.0
 10
51.86321716735117
 20
10.88836436139
 30
0.0
 10
51.67913103584304
 20
10.83546320930962
 30
0.0
  0
SPLINE
  5
19B
330
1F
100
AcDbEntity
  8
0
  6
Continuous
 62
     1
370
    15
100
AcDbSpline
210
0.0
220
0.0
230
1.0
 70
     8
 71
     3
 72
    10
 73
     6
 74
     0
 42
0.000000001
 43
0.00000001
 40
0.0
 40
0.0
 40
0.0
 40
0.0
 40
0.5
 40
0.5
 40
1.0
 40
1.0
 40
1.0
 40
1.0
 10
53.22429718329688
 20
11.11538148851121
 30
0.0
 10
53.06709705794173
 20
10.97353572000865
 30
0.0
 10
52.87978780677583
 20
10.88077475324985
 30
0.0
 10
52.51188447147421
 20
10.78886746799963
 30
0.0
 10
52.3357132345506
 20
10.78996086231219
 30
0.0
 10
52.18935892354465
 20
10.84059816925505
 30
0.0
  0
SPLINE
  5
19C
330
1F
100
AcDbEntity
  8
0
  6
Continuous
 62
     1
370
    15
100
AcDbSpline
210
0.0
220
0.0
230
1.0
 70
     8
 71
     3
 72
    10
 73
     6
 74
     0
 42
0.000000001
 43
0.00000001
 40
0.0
 40
0.0
 40
0.0
 40
0.0
 40
0.5
 40
0.5
 40
1.0
 40
1.0
 40
1.0
 40
1.0
 10
54.25315165748805
 20
11.36766642704914
 30
0.0
 10
54.10588929681013
 20
11.43021892580559
 30
0.0
 10
53.92959432080109
 20
11.43760140649293
 30
0.0
 10
53.56836898367895
 20
11.35164891953253
 30
0.0
 10
53.38145829699351
 20
11.25719205577797
 30
0.0
 10
53.22429718329688
 20
11.1153814885112
 30
0.0
  0
SPLINE
  5
19D
330
1F
100
AcDbEntity
  8
0
  6
Continuous
 62
     1
370
    15
100
AcDbSpline
210
0.0
220
0.0
230
1.0
 70
     8
 71
     3
 72
    10
 73
     6
 74
     0
 42
0.000000001
 43
0.00000001
 40
0.0
 40
0.0
 40
0.0
 40
0.0
 40
0.5
 40
0.5
 40
1.0
 40
1.0
 40
1.0
 40
1.0
 10
55.28814780252472
 20
11.60077279756357
 30
0.0
 10
55.13195208259387
 20
11.45904529344648
 30
0.0
 10
54.94504384075032
 20
11.37070463149298
 30
0.0
 10
54.57698844722741
 20
11.29372377448249
 30
0.0
 10
54.40037938298056
 20
11.30512864024884
 30
0.0
 10
54.25315165748805
 20
11.36766642704915
 30
0.0
  0
SPLINE
  5
19E
330
1F
100
AcDbEntity
  8
0
  6
Continuous
 62
     1
370
    15
100
AcDbSpline
210
0.0
220
0.0
230
1.0
 70
     8
 71
     3
 72
     8
 73
     4
 74
     0
 42
0.000000001
 43
0.00000001
 40
0.0
 40
0.0
 40
0.0
 40
0.0
 40
1.0
 40
1.0
 40
1.0
 40
1.0
 10
55.79587553340582
 20
11.86420353850441
 30
0.0
 10
55.61869866465152
 20
11.8263367813635
 30
0.0
 10
55.43916670834081
 20
11.7378030094366
 30
0.0
 10
55.28814780252516
 20
11.60077279756395
 30
0.0
  0
SPLINE
  5
19F
330
1F
100
AcDbEntity
  8
0
  6
Continuous
 62
     1
370
    15
100
AcDbSpline
210
0.0
220
0.0
230
1.0
 70
     8
 71
     3
 72
     8
 73
     4
 74
     0
 42
0.000000001
 43
0.00000001
 40
0.0
 40
0.0
 40
0.0
 40
0.0
 40
1.0
 40
1.0
 40
1.0
 40
1.0
 10
56.30625192374403
 20
11.80172303612215
 30
0.0
 10
56.15891398484928
 20
11.87866190091011
 30
0.0
 10
55.97999380777249
 20
11.8990740840337
 30
0.0
 10
55.79587553340781
 20
11.86420353850483
 30
0.0
  0
SPLINE
  5
1A0
330
1F
100
AcDbEntity
  8
0
  6
Continuous
 62
     1
370
    15
100
AcDbSpline
210
0.0
220
0.0
230
1.0
 70
     8
 71
     3
 72
    10
 73
     6
 74
     0
 42
0.000000001
 43
0.00000001
 40
0.0
 40
0.0
 40
0.0
 40
0.0
 40
0.5
 40
0.5
 40
1.0
 40
1.0
 40
1.0
 40
1.0
 10
57.34194370177886
 20
11.9754824588057
 30
0.0
 10
57.18457671866564
 20
11.83741708275927
 30
0.0
 10
56.99712655312655
 20
11.75705235901878
 30
0.0
 10
56.62900817456233
 20
11.70109303225294
 30
0.0
 10
56.45271665761673
 20
11.7252401530291
 30
0.0
 10
56.30625192374421
 20
11.80172303612203
 30
0.0
  0
SPLINE
  5
1A1
330
1F
100
AcDbEntity
  8
0
  6
Continuous
 62
     1
370
    15
100
AcDbSpline
210
0.0
220
0.0
230
1.0
 70
     8
 71
     3
 72
    10
 73
     6
 74
     0
 42
0.000000001
 43
0.00000001
 40
0.0
 40
0.0
 40
0.0
 40
0.0
 40
0.5
 40
0.5
 40
1.0
 40
1.0
 40
1.0
 40
1.0
 10
58.37197531360012
 20
12.12579638875303
 30
0.0
 10
58.22448772740718
 20
12.21298473395536
 30
0.0
 10
58.04797506855431
 20
12.24324352668449
 30
0.0
 10
57.68637465434796
 20
12.19401101364083
 30
0.0
 10
57.49929375390805
 20
12.11353298051208
 30
0.0
 10
57.34194370177886
 20
11.97548245880569
 30
0.0
  0
SPLINE
  5
1A2
330
1F
100
AcDbEntity
  8
0
  6
Continuous
 62
     1
370
    15
100
AcDbSpline
210
0.0
220
0.0
230
1.0
 70
     8
 71
     3
 72
    10
 73
     6
 74
     0
 42
0.000000001
 43
0.00000001
 40
0.0
 40
0.0
 40
0.0
 40
0.0
 40
0.5
 40
0.5
 40
1.0
 40
1.0
 40
1.0
 40
1.0
 10
59.40791805829862
 20
12.25464266359336
 30
0.0
 10
59.25156425378306
 20
12.11901667337875
 30
0.0
 10
59.06447809448211
 20
12.044469150006
 30
0.0
 10
58.69610887624512
 20
12.00453001246219
 30
0.0
 10
58.51936566993524
 20
12.03866552167903
 30
0.0
 10
58.37197531360012
 20
12.12579638875303
 30
0.0
  0
SPLINE
  5
1A3
330
1F
100
AcDbEntity
  8
0
  6
Continuous
 62
     1
370
    15
100
AcDbSpline
210
0.0
220
0.0
230
1.0
 70
     8
 71
     3
 72
     8
 73
     4
 74
     0
 42
0.000000001
 43
0.00000001
 40
0.0
 40
0.0
 40
0.0
 40
0.0
 40
1.0
 40
1.0
 40
1.0
 40
1.0
 10
59.91596985361659
 20
12.4792009410767
 30
0.0
 10
59.73866813223427
 20
12.45966097406376
 30
0.0
 10
59.55902675977383
 20
12.38571889375671
 30
0.0
 10
59.40791805829902
 20
12.25464266359371
 30
0.0
  0
SPLINE
  5
1A4
330
1F
100
AcDbEntity
  8
0
  6
Continuous
 62
     1
370
    15
100
AcDbSpline
210
0.0
220
0.0
230
1.0
 70
     8
 71
     3
 72
     8
 73
     4
 74
     0
 42
0.000000001
 43
0.00000001
 40
0.0
 40
0.0
 40
0.0
 40
0.0
 40
1.0
 40
1.0
 40
1.0
 40
1.0
 10
60.42669318597959
 20
12.35095320663118
 30
0.0
 10
60.27929156317086
 20
12.45122982361274
 30
0.0
 10
60.10029076789587
 20
12.49467093785547
 30
0.0
 10
59.91596985361865
 20
12.4792009410769
 30
0.0
  0
SPLINE
  5
1A5
330
1F
100
AcDbEntity
  8
0
  6
Continuous
 62
     1
370
    15
100
AcDbSpline
210
0.0
220
0.0
230
1.0
 70
     8
 71
     3
 72
    10
 73
     6
 74
     0
 42
0.000000001
 43
0.00000001
 40
0.0
 40
0.0
 40
0.0
 40
0.0
 40
0.5
 40
0.5
 40
1.0
 40
1.0
 40
1.0
 40
1.0
 10
61.46287012970531
 20
12.41718930336278
 30
0.0
 10
61.30539425277222
 20
12.28775973728079
 30
0.0
 10
61.11784345267944
 20
12.22267237040715
 30
0.0
 10
60.7495881753611
 20
12.20479800846941
 30
0.0
 10
60.57324567744111
 20
12.25125424963217
 30
0.0
 10
60.42669318597977
 20
12.35095320663105
 30
0.0
  0
SPLINE
  5
1A6
330
1F
100
AcDbEntity
  8
0
  6
Continuous
 62
     1
370
    15
100
AcDbSpline
210
0.0
220
0.0
230
1.0
 70
     8
 71
     3
 72
    10
 73
     6
 74
     0
 42
0.000000001
 43
0.00000001
 40
0.0
 40
0.0
 40
0.0
 40
0.0
 40
0.5
 40
0.5
 40
1.0
 40
1.0
 40
1.0
 40
1.0
 10
62.49307695404215
 20
12.45994401116639
 30
0.0
 10
62.34554944750312
 20
12.56876789543216
 30
0.0
 10
62.16899194293391
 20
12.62090364723855
 30
0.0
 10
61.80733610416573
 20
12.61020058644582
 30
0.0
 10
61.62024915888111
 20
12.54653927018516
 30
0.0
 10
61.46287012970534
 20
12.41718930336277
 30
0.0
  0
SPLINE
  5
1A7
330
1F
100
AcDbEntity
  8
0
  6
Continuous
 62
     1
370
    15
100
AcDbSpline
210
0.0
220
0.0
230
1.0
 70
     8
 71
     3
 72
    10
 73
     6
 74
     0
 42
0.000000001
 43
0.00000001
 40
0.0
 40
0.0
 40
0.0
 40
0.0
 40
0.5
 40
0.5
 40
1.0
 40
1.0
 40
1.0
 40
1.0
 10
63.52888884545432
 20
12.47998380359715
 30
0.0
 10
63.37255780470717
 20
12.35522529491821
 30
0.0
 10
63.18547738705904
 20
12.29704241436032
 30
0.0
 10
62.81713082162095
 20
12.29554230746892
 30
0.0
 10
62.64043589435582
 20
12.35124447002709
 30
0.0
 10
62.49307695404217
 20
12.45994401116639
 30
0.0
  0
SPLINE
  5
1A8
330
1F
100
AcDbEntity
  8
0
  6
Continuous
 62
     1
370
    15
100
AcDbSpline
210
0.0
220
0.0
230
1.0
 70
     8
 71
     3
 72
     8
 73
     4
 74
     0
 42
0.000000001
 43
0.00000001
 40
0.0
 40
0.0
 40
0.0
 40
0.0
 40
1.0
 40
1.0
 40
1.0
 40
1.0
 10
64.03677963007384
 20
12.65792314948119
 30
0.0
 10
63.85950786310197
 20
12.6573481288141
 30
0.0
 10
63.67992371193667
 20
12.60051575048871
 30
0.0
 10
63.52888884545476
 20
12.4799838035975
 30
0.0
  0
SPLINE
  5
1A9
330
1F
100
AcDbEntity
  8
0
  6
Continuous
 62
     1
370
    15
100
AcDbSpline
210
0.0
220
0.0
230
1.0
 70
     8
 71
     3
 72
     8
 73
     4
 74
     0
 42
0.000000001
 43
0.00000001
 40
0.0
 40
0.0
 40
0.0
 40
0.0
 40
1.0
 40
1.0
 40
1.0
 40
1.0
 10
64.04413195268985
 20
12.65771340149122
 30
0.0
 10
64.04168307752501
 20
12.65779413521062
 30
0.0
 10
64.03923230753148
 20
12.65786406641849
 30
0.0
 10
64.0367796300759
 20
12.65792314948116
 30
0.0
  0
SPLINE
  5
1AA
330
1F
100
AcDbEntity
  8
0
  6
Continuous
 62
     1
370
    15
100
AcDbSpline
210
0.0
220
0.0
230
1.0
 70
     8
 71
     3
 72
     8
 73
     4
 74
     0
 42
0.000000001
 43
0.00000001
 40
0.0
 40
0.0
 40
0.0
 40
0.0
 40
1.0
 40
1.0
 40
1.0
 40
1.0
 10
65.02399984651804
 20
11.64510066859306
 30
0.0
 10
64.69996772166017
 20
11.98714187609849
 30
0.0
 10
64.37313790443251
 20
12.32448347723628
 30
0.0
 10
64.04413195269044
 20
12.65771340149167
 30
0.0
  0
LINE
  5
1B0
330
1F
100
AcDbEntity
  8
0
  6
Continuous
 62
     1
370
    15
100
AcDbLine
 10
65.02399956041573
 20
-6.603910122066737
 30
0.0
 11
65.02399956041573
 21
0.9022363228723389
 31
0.0
  0
SPLINE
  5
1B1
330
1F
100
AcDbEntity
  8
0
  6
Continuous
 62
     1
370
    15
100
AcDbSpline
210
0.0
220
0.0
230
1.0
 70
     8
 71
     3
 72
    14
 73
    10
 74
     0
 42
0.000000001
 43
0.00000001
 40
0.0
 40
0.0
 40
0.0
 40
0.0
 40
0.25
 40
0.25
 40
0.5
 40
0.5
 40
0.75
 40
0.75
 40
1.0
 40
1.0
 40
1.0
 40
1.0
 10
64.40368164348908
 20
-6.561026423287257
 30
0.0
 10
64.40272401717978
 20
-5.983909024242625
 30
0.0
 10
64.39978484279197
 20
-5.375212868337655
 30
0.0
 10
64.39078483829792
 20
-4.129254241757216
 30
0.0
 10
64.3847059043105
 20
-3.489724557439433
 30
0.0
 10
64.36985673303876
 20
-2.177624696489139
 30
0.0
 10
64.36099813686567
 20
-1.499590009434963
 30
0.0
 10
64.34139247703001
 20
-0.1435951029890485
 30
0.0
 10
64.33065129211157
 20
0.5354430753306587
 30
0.0
 10
64.31918724905066
 20
1.215539440823165
 30
0.0
  0
SPLINE
  5
1B4
330
1F
100
AcDbEntity
  8
0
  6
Continuous
 62
     1
370
    15
100
AcDbSpline
210
0.0
220
0.0
230
1.0
 70
     8
 71
     3
 72
    12
 73
     8
 74
     0
 42
0.000000001
 43
0.00000001
 40
0.0
 40
0.0
 40
0.0
 40
0.0
 40
0.4999999999999999
 40
0.4999999999999999
 40
0.7499999999999998
 40
0.7499999999999998
 40
1.0
 40
1.0
 40
1.0
 40
1.0
 10
57.17081077593122
 20
-2.882743889571423
 30
0.0
 10
57.09823642338797
 20
-1.498317519344684
 30
0.0
 10
57.02471593696416
 20
-0.0530678142870103
 30
0.0
 10
56.92190129952927
 20
2.02797431333644
 30
0.0
 10
56.88802625295236
 20
2.713093788056779
 30
0.0
 10
56.81708751676385
 20
4.072525037410418
 30
0.0
 10
56.78079358668218
 20
4.741564698613831
 30
0.0
 10
56.74442902259193
 20
5.385383934582071
 30
0.0
  0
SPLINE
  5
1B5
330
1F
100
AcDbEntity
  8
0
  6
Continuous
 62
     1
370
    15
100
AcDbSpline
210
0.0
220
0.0
230
1.0
 70
     8
 71
     3
 72
    12
 73
     8
 74
     0
 42
0.000000001
 43
0.00000001
 40
0.0
 40
0.0
 40
0.0
 40
0.0
 40
0.5
 40
0.5
 40
0.75
 40
0.75
 40
1.0
 40
1.0
 40
1.0
 40
1.0
 10
57.68143771237165
 20
-3.146550083389245
 30
0.0
 10
57.60861166631855
 20
-1.783232925697625
 30
0.0
 10
57.53434460309751
 20
-0.3502344627382479
 30
0.0
 10
57.42993880291512
 20
1.724424054279048
 30
0.0
 10
57.39631965445737
 20
2.403578081282299
 30
0.0
 10
57.32540926819448
 20
3.756796601345151
 30
0.0
 10
57.28902472783125
 20
4.42472097197837
 30
0.0
 10
57.25246939974194
 20
5.069245069886389
 30
0.0
  0
SPLINE
  5
1B6
330
1F
100
AcDbEntity
  8
0
  6
Continuous
 62
     1
370
    15
100
AcDbSpline
210
0.0
220
0.0
230
1.0
 70
     8
 71
     3
 72
    12
 73
     8
 74
     0
 42
0.000000001
 43
0.00000001
 40
0.0
 40
0.0
 40
0.0
 40
0.0
 40
0.4999999999999999
 40
0.4999999999999999
 40
0.7499999999999998
 40
0.7499999999999998
 40
1.0
 40
1.0
 40
1.0
 40
1.0
 10
56.66277703946398
 20
-2.584576076777261
 30
0.0
 10
56.58965930126337
 20
-1.204431590532476
 30
0.0
 10
56.5159943461058
 20
0.2287209718630053
 30
0.0
 10
56.41359915056154
 20
2.280287857416911
 30
0.0
 10
56.37876291733303
 20
2.961540567437857
 30
0.0
 10
56.30695118230945
 20
4.303128597226957
 30
0.0
 10
56.27031650779705
 20
4.961117798365609
 30
0.0
 10
56.23372896524599
 20
5.591878623576115
 30
0.0
  0
SPLINE
  5
1B7
330
1F
100
AcDbEntity
  8
0
  6
Continuous
 62
     1
370
    15
100
AcDbSpline
210
0.0
220
0.0
230
1.0
 70
     8
 71
     3
 72
    12
 73
     8
 74
     0
 42
0.000000001
 43
0.00000001
 40
0.0
 40
0.0
 40
0.0
 40
0.0
 40
0.2500000000000001
 40
0.2500000000000001
 40
0.5000000000000002
 40
0.5000000000000002
 40
1.0
 40
1.0
 40
1.0
 40
1.0
 10
54.59632840409827
 20
-1.426248731626563
 30
0.0
 10
54.55982873812228
 20
-0.7260469740245887
 30
0.0
 10
54.52361434963149
 20
-0.0208566101925425
 30
0.0
 10
54.45324962627791
 20
1.369666598966089
 30
0.0
 10
54.41981112102562
 20
2.050432438664169
 30
0.0
 10
54.3144351590409
 20
4.087572280644453
 30
0.0
 10
54.23993001086217
 20
5.419935150180133
 30
0.0
 10
54.16733599027825
 20
6.613026436613439
 30
0.0
  0
SPLINE
  5
1B8
330
1F
100
AcDbEntity
  8
0
  6
Continuous
 62
     1
370
    15
100
AcDbSpline
210
0.0
220
0.0
230
1.0
 70
     8
 71
     3
 72
    12
 73
     8
 74
     0
 42
0.000000001
 43
0.00000001
 40
0.0
 40
0.0
 40
0.0
 40
0.0
 40
0.25
 40
0.25
 40
0.5
 40
0.5
 40
1.0
 40
1.0
 40
1.0
 40
1.0
 10
55.62664829085789
 20
-2.005514488693209
 30
0.0
 10
55.59005469771374
 20
-1.30926157779706
 30
0.0
 10
55.55352636596038
 20
-0.6037875758633942
 30
0.0
 10
55.48213717631771
 20
0.7954093864370735
 30
0.0
 10
55.448062436708
 20
1.483920337487021
 30
0.0
 10
55.34456978996758
 20
3.527774577760425
 30
0.0
 10
55.27054608643397
 20
4.881646822774859
 30
0.0
 10
55.19753455444793
 20
6.110683333230883
 30
0.0
  0
SPLINE
  5
1BA
330
1F
100
AcDbEntity
  8
0
  6
Continuous
 62
     1
370
    15
100
AcDbSpline
210
0.0
220
0.0
230
1.0
 70
     8
 71
     3
 72
    12
 73
     8
 74
     0
 42
0.000000001
 43
0.00000001
 40
0.0
 40
0.0
 40
0.0
 40
0.0
 40
0.25
 40
0.25
 40
0.4999999999999999
 40
0.4999999999999999
 40
1.0
 40
1.0
 40
1.0
 40
1.0
 10
53.04980789034698
 20
-0.53596209269677
 30
0.0
 10
53.01390179570173
 20
0.1719336271615461
 30
0.0
 10
52.97860603864189
 20
0.8782830662422086
 30
0.0
 10
52.91060793890513
 20
2.259301878072125
 30
0.0
 10
52.87613251217125
 20
2.945976403663065
 30
0.0
 10
52.76916513239512
 20
4.977929319123051
 30
0.0
 10
52.6948786705731
 20
6.280886440719149
 30
0.0
 10
52.62373708722459
 20
7.425066838094323
 30
0.0
  0
SPLINE
  5
1BB
330
1F
100
AcDbEntity
  8
0
  6
Continuous
 62
     1
370
    15
100
AcDbSpline
210
0.0
220
0.0
230
1.0
 70
     8
 71
     3
 72
    12
 73
     8
 74
     0
 42
0.000000001
 43
0.00000001
 40
0.0
 40
0.0
 40
0.0
 40
0.0
 40
0.2499999999999999
 40
0.2499999999999999
 40
0.4999999999999998
 40
0.4999999999999998
 40
1.0
 40
1.0
 40
1.0
 40
1.0
 10
53.56034670312845
 20
-0.8416467989585057
 30
0.0
 10
53.52406309143645
 20
-0.1395754569872357
 30
0.0
 10
53.48828276814533
 20
0.5632202208773213
 30
0.0
 10
53.41916286354434
 20
1.941096368777319
 30
0.0
 10
53.385198465808
 20
2.620503884872355
 30
0.0
 10
53.27824901651265
 20
4.644727786830359
 30
0.0
 10
53.20351920907571
 20
5.951154906187901
 30
0.0
 10
53.13158346661683
 20
7.104825206803467
 30
0.0
  0
SPLINE
  5
1BC
330
1F
100
AcDbEntity
  8
0
  6
Continuous
 62
     1
370
    15
100
AcDbSpline
210
0.0
220
0.0
230
1.0
 70
     8
 71
     3
 72
    12
 73
     8
 74
     0
 42
0.000000001
 43
0.00000001
 40
0.0
 40
0.0
 40
0.0
 40
0.0
 40
0.2499999999999999
 40
0.2499999999999999
 40
0.4999999999999998
 40
0.4999999999999998
 40
1.0
 40
1.0
 40
1.0
 40
1.0
 10
50.47672033430057
 20
0.9062321687352739
 30
0.0
 10
50.44173681940841
 20
1.599872743212272
 30
0.0
 10
50.40819139586544
 20
2.279992765918849
 30
0.0
 10
50.33741359945245
 20
3.636430812458403
 30
0.0
 10
50.30105031783119
 20
4.306843669711143
 30
0.0
 10
50.19130750713565
 20
6.250234508131345
 30
0.0
 10
50.11737771041057
 20
7.451412821114411
 30
0.0
 10
50.04869440283979
 20
8.466779375294573
 30
0.0
  0
SPLINE
  5
1BD
330
1F
100
AcDbEntity
  8
0
  6
Continuous
 62
     1
370
    15
100
AcDbSpline
210
0.0
220
0.0
230
1.0
 70
     8
 71
     3
 72
    12
 73
     8
 74
     0
 42
0.000000001
 43
0.00000001
 40
0.0
 40
0.0
 40
0.0
 40
0.0
 40
0.2500000000000001
 40
0.2500000000000001
 40
0.5000000000000001
 40
0.5000000000000001
 40
1.0
 40
1.0
 40
1.0
 40
1.0
 10
51.50632608170785
 20
0.3216784988361311
 30
0.0
 10
51.47078992948281
 20
1.020406069721614
 30
0.0
 10
51.43707531145363
 20
1.705694172166194
 30
0.0
 10
51.36750788169346
 20
3.068124912610233
 30
0.0
 10
51.33155648120017
 20
3.745741399213365
 30
0.0
 10
51.22238466706349
 20
5.723102328123133
 30
0.0
 10
51.14791810168447
 20
6.963845876435744
 30
0.0
 10
51.07792029182065
 20
8.028459699522692
 30
0.0
  0
SPLINE
  5
1BE
330
1F
100
AcDbEntity
  8
0
  6
Continuous
 62
     1
370
    15
100
AcDbSpline
210
0.0
220
0.0
230
1.0
 70
     8
 71
     3
 72
    12
 73
     8
 74
     0
 42
0.000000001
 43
0.00000001
 40
0.0
 40
0.0
 40
0.0
 40
0.0
 40
0.25
 40
0.25
 40
0.5
 40
0.5
 40
1.0
 40
1.0
 40
1.0
 40
1.0
 10
52.54191778071353
 20
-0.2653406544397445
 30
0.0
 10
52.50595211901713
 20
0.4362416420047353
 30
0.0
 10
52.47089461185401
 20
1.133102431214577
 30
0.0
 10
52.40276295183269
 20
2.497016342188111
 30
0.0
 10
52.36734976193087
 20
3.179494876982495
 30
0.0
 10
52.2591447967171
 20
5.184062479267365
 30
0.0
 10
52.18442618611083
 20
6.460279974721283
 30
0.0
 10
52.11334644935337
 20
7.571560796264129
 30
0.0
  0
LINE
  5
1BF
330
1F
100
AcDbEntity
  8
0
  6
Continuous
 62
     4
370
    15
100
AcDbLine
 10
-36.57600043958426
 20
11.69999968260526
 30
0.0
 11
-36.57600043958426
 21
-11.69999968260527
 31
0.0
  0
SPLINE
  5
1C0
330
1F
100
AcDbEntity
  8
0
  6
Continuous
 62
     1
370
    15
100
AcDbSpline
210
0.0
220
0.0
230
1.0
 70
     8
 71
     3
 72
    10
 73
     6
 74
     0
 42
0.000000001
 43
0.00000001
 40
0.0
 40
0.0
 40
0.0
 40
0.0
 40
0.5
 40
0.5
 40
1.0
 40
1.0
 40
1.0
 40
1.0
 10
24.04638849304079
 20
-9.123766176699307
 30
0.0
 10
23.89879606820028
 20
-9.13855277406031
 30
0.0
 10
23.72223438978796
 20
-9.105449219772138
 30
0.0
 10
23.36065248437363
 20
-8.962410599138574
 30
0.0
 10
23.17350598615479
 20
-8.851397299076543
 30
0.0
 10
23.01599842397219
 20
-8.71429081001954
 30
0.0
  0
SPLINE
  5
1C1
330
1F
100
AcDbEntity
  8
0
  6
Continuous
 62
     1
370
    15
100
AcDbSpline
210
0.0
220
0.0
230
1.0
 70
     8
 71
     3
 72
    12
 73
     8
 74
     0
 42
0.000000001
 43
0.00000001
 40
0.0
 40
0.0
 40
0.0
 40
0.0
 40
0.25
 40
0.25
 40
0.5
 40
0.5
 40
1.0
 40
1.0
 40
1.0
 40
1.0
 10
23.01599842397219
 20
-8.714290810019532
 30
0.0
 10
22.97942464567775
 20
-8.209584683712874
 30
0.0
 10
22.94299355806194
 20
-7.663506147922095
 30
0.0
 10
22.87194021697731
 20
-6.513905731785067
 30
0.0
 10
22.83822082850969
 20
-5.916040427909373
 30
0.0
 10
22.73403431378201
 20
-4.032238303755169
 30
0.0
 10
22.65981412787522
 20
-2.647484552984339
 30
0.0
 10
22.58692309157117
 20
-1.245589057000463
 30
0.0
  0
SPLINE
  5
1C2
330
1F
100
AcDbEntity
  8
0
  6
Continuous
 62
     1
370
    15
100
AcDbSpline
210
0.0
220
0.0
230
1.0
 70
     8
 71
     3
 72
    10
 73
     6
 74
     0
 42
0.000000001
 43
0.00000001
 40
0.0
 40
0.0
 40
0.0
 40
0.0
 40
0.5
 40
0.5
 40
1.0
 40
1.0
 40
1.0
 40
1.0
 10
24.04638849304079
 20
-9.123766176699233
 30
0.0
 10
23.97320892034745
 20
-8.161572394821794
 30
0.0
 10
23.90012295481768
 20
-7.021531975409927
 30
0.0
 10
23.76397966019073
 20
-4.582699313817267
 30
0.0
 10
23.69040390098802
 20
-3.221898580913391
 30
0.0
 10
23.61724941278214
 20
-1.826456945021713
 30
0.0
  0
SPLINE
  5
1C3
330
1F
100
AcDbEntity
  8
0
  6
Continuous
 62
     1
370
    15
100
AcDbSpline
210
0.0
220
0.0
230
1.0
 70
     8
 71
     3
 72
     8
 73
     4
 74
     0
 42
0.000000001
 43
0.00000001
 40
0.0
 40
0.0
 40
0.0
 40
0.0
 40
1.0
 40
1.0
 40
1.0
 40
1.0
 10
21.46931772698981
 20
-8.165661255974635
 30
0.0
 10
21.29199896134577
 20
-8.08649301852873
 30
0.0
 10
21.11240400782937
 20
-7.975301584921487
 30
0.0
 10
20.96138125956797
 20
-7.846820187946243
 30
0.0
  0
SPLINE
  5
1C4
330
1F
100
AcDbEntity
  8
0
  6
Continuous
 62
     4
370
    15
100
AcDbSpline
210
0.0
220
0.0
230
1.0
 70
     8
 71
     3
 72
    12
 73
     8
 74
     0
 42
0.000000001
 43
0.00000001
 40
0.0
 40
0.0
 40
0.0
 40
0.0
 40
0.2500000000000001
 40
0.2500000000000001
 40
0.5000000000000002
 40
0.5000000000000002
 40
1.0
 40
1.0
 40
1.0
 40
1.0
 10
20.96138125956797
 20
-7.846820187946243
 30
0.0
 10
20.92519438461791
 20
-7.300096480569607
 30
0.0
 10
20.88958330811863
 20
-6.718723619293321
 30
0.0
 10
20.82092395766593
 20
-5.514172722263465
 30
0.0
 10
20.78651519497767
 20
-4.883404404264975
 30
0.0
 10
20.67909965179742
 20
-2.905624637408821
 30
0.0
 10
20.60434616247937
 20
-1.486462641895252
 30
0.0
 10
20.53267983241947
 20
-0.0849067516285335
 30
0.0
  0
SPLINE
  5
1C5
330
1F
100
AcDbEntity
  8
0
  6
Continuous
 62
     1
370
    15
100
AcDbSpline
210
0.0
220
0.0
230
1.0
 70
     8
 71
     3
 72
    12
 73
     8
 74
     0
 42
0.000000001
 43
0.00000001
 40
0.0
 40
0.0
 40
0.0
 40
0.0
 40
0.2500000000000001
 40
0.2500000000000001
 40
0.5000000000000002
 40
0.5000000000000002
 40
1.0
 40
1.0
 40
1.0
 40
1.0
 10
21.46931772698981
 20
-8.165661255974607
 30
0.0
 10
21.43322398209559
 20
-7.623321137013697
 30
0.0
 10
21.39760370687465
 20
-7.044658339607865
 30
0.0
 10
21.32872630510257
 20
-5.841676335302055
 30
0.0
 10
21.29510913645299
 20
-5.21580903363092
 30
0.0
 10
21.18902680336207
 20
-3.242990305477305
 30
0.0
 10
21.11478809666809
 20
-1.819519091789493
 30
0.0
 10
21.04313989883367
 20
-0.4043813881895531
 30
0.0
  0
SPLINE
  5
1C6
330
1F
100
AcDbEntity
  8
0
  6
Continuous
 62
     1
370
    15
100
AcDbSpline
210
0.0
220
0.0
230
1.0
 70
     8
 71
     3
 72
     8
 73
     4
 74
     0
 42
0.000000001
 43
0.00000001
 40
0.0
 40
0.0
 40
0.0
 40
0.0
 40
1.0
 40
1.0
 40
1.0
 40
1.0
 10
21.97991240077241
 20
-8.28687071167411
 30
0.0
 10
21.83256027855269
 20
-8.288750806761369
 30
0.0
 10
21.65357606299511
 20
-8.24518475496687
 30
0.0
 10
21.46931772699187
 20
-8.165661255975545
 30
0.0
  0
SPLINE
  5
1C7
330
1F
100
AcDbEntity
  8
0
  6
Continuous
 62
     1
370
    15
100
AcDbSpline
210
0.0
220
0.0
230
1.0
 70
     8
 71
     3
 72
    12
 73
     8
 74
     0
 42
0.000000001
 43
0.00000001
 40
0.0
 40
0.0
 40
0.0
 40
0.0
 40
0.2500000000000001
 40
0.2500000000000001
 40
0.5000000000000001
 40
0.5000000000000001
 40
1.0
 40
1.0
 40
1.0
 40
1.0
 10
21.97991240077311
 20
-8.286870711673563
 30
0.0
 10
21.94348005391641
 20
-7.760036060130733
 30
0.0
 10
21.90741078386403
 20
-7.195111152969997
 30
0.0
 10
21.83747203532667
 20
-6.015634049952909
 30
0.0
 10
21.80398495293855
 20
-5.403954377192725
 30
0.0
 10
21.69802719800848
 20
-3.469954194818091
 30
0.0
 10
21.62342223048213
 20
-2.065454230306567
 30
0.0
 10
21.55104266476247
 20
-0.6613897344808998
 30
0.0
  0
SPLINE
  5
1C8
330
1F
100
AcDbEntity
  8
0
  6
Continuous
 62
     4
370
    15
100
AcDbSpline
210
0.0
220
0.0
230
1.0
 70
     8
 71
     3
 72
    10
 73
     6
 74
     0
 42
0.000000001
 43
0.00000001
 40
0.0
 40
0.0
 40
0.0
 40
0.0
 40
0.5
 40
0.5
 40
1.0
 40
1.0
 40
1.0
 40
1.0
 10
20.96138125956797
 20
-7.846820187946257
 30
0.0
 10
20.80502993472457
 20
-7.713805546999313
 30
0.0
 10
20.61793565653801
 20
-7.604765742020627
 30
0.0
 10
20.24962208366935
 20
-7.443769603928465
 30
0.0
 10
20.07298536882042
 20
-7.393198259752078
 30
0.0
 10
19.92568542889665
 20
-7.379718504538415
 30
0.0
  0
SPLINE
  5
1C9
330
1F
100
AcDbEntity
  8
0
  6
Continuous
 62
     1
370
    15
100
AcDbSpline
210
0.0
220
0.0
230
1.0
 70
     8
 71
     3
 72
    12
 73
     8
 74
     0
 42
0.000000001
 43
0.00000001
 40
0.0
 40
0.0
 40
0.0
 40
0.0
 40
0.4999999999999998
 40
0.4999999999999998
 40
0.7499999999999999
 40
0.7499999999999999
 40
1.0
 40
1.0
 40
1.0
 40
1.0
 10
48.93186440381427
 20
1.827968716985775
 30
0.0
 10
48.86412964696721
 20
3.204167411252585
 30
0.0
 10
48.79095229707095
 20
4.582472562561843
 30
0.0
 10
48.68177311772133
 20
6.477443650235345
 30
0.0
 10
48.6455056412393
 20
7.080389952494291
 30
0.0
 10
48.57472547096779
 20
8.205316189728501
 30
0.0
 10
48.54108830690974
 20
8.723364061505547
 30
0.0
 10
48.50660574197403
 20
9.203683045093227
 30
0.0
  0
SPLINE
  5
1CA
330
1F
100
AcDbEntity
  8
0
  6
Continuous
 62
     1
370
    15
100
AcDbSpline
210
0.0
220
0.0
230
1.0
 70
     8
 71
     3
 72
    14
 73
    10
 74
     0
 42
0.000000001
 43
0.00000001
 40
0.0
 40
0.0
 40
0.0
 40
0.0
 40
0.25
 40
0.25
 40
0.5
 40
0.5
 40
0.75
 40
0.75
 40
1.0
 40
1.0
 40
1.0
 40
1.0
 10
49.44174710564217
 20
1.491307479629056
 30
0.0
 10
49.40743577610672
 20
2.177693943487377
 30
0.0
 10
49.37286408652972
 20
2.859045740910137
 30
0.0
 10
49.30110280249105
 20
4.204920466720907
 30
0.0
 10
49.2644540350958
 20
4.865770968800645
 30
0.0
 10
49.1911733819484
 20
6.134204292130173
 30
0.0
 10
49.15454900872
 20
6.741657402968217
 30
0.0
 10
49.08288189292789
 20
7.878488652831405
 30
0.0
 10
49.04847834328061
 20
8.404882910355786
 30
0.0
 10
49.01408931314413
 20
8.890427639657597
 30
0.0
  0
SPLINE
  5
1CB
330
1F
100
AcDbEntity
  8
0
  6
Continuous
 62
     1
370
    15
100
AcDbSpline
210
0.0
220
0.0
230
1.0
 70
     8
 71
     3
 72
    12
 73
     8
 74
     0
 42
0.000000001
 43
0.00000001
 40
0.0
 40
0.0
 40
0.0
 40
0.0
 40
0.5
 40
0.5
 40
0.75
 40
0.75
 40
1.0
 40
1.0
 40
1.0
 40
1.0
 10
48.42445881706893
 20
2.061543837010053
 30
0.0
 10
48.35566070310559
 20
3.426075724126007
 30
0.0
 10
48.28168785229771
 20
4.785008398310789
 30
0.0
 10
48.17200549473569
 20
6.639803798754071
 30
0.0
 10
48.13568248807007
 20
7.227581357043102
 30
0.0
 10
48.0650200520728
 20
8.319530675864295
 30
0.0
 10
48.03151515915195
 20
8.820353167968515
 30
0.0
 10
47.99648567845939
 20
9.285340197180167
 30
0.0
  0
SPLINE
  5
1CC
330
1F
100
AcDbEntity
  8
0
  6
Continuous
 62
     1
370
    15
100
AcDbSpline
210
0.0
220
0.0
230
1.0
 70
     8
 71
     3
 72
    10
 73
     6
 74
     0
 42
0.000000001
 43
0.00000001
 40
0.0
 40
0.0
 40
0.0
 40
0.0
 40
0.3709370033589693
 40
0.7030667686590327
 40
1.0
 40
1.0
 40
1.0
 40
1.0
 10
23.96214370781183
 20
-11.4848355840615
 30
0.0
 10
24.06471838354862
 20
-11.48832019817565
 30
0.0
 10
24.25913642532787
 20
-11.49492486787177
 30
0.0
 10
24.58634056943115
 20
-11.38490797535402
 30
0.0
 10
24.77846801379685
 20
-11.2572875703581
 30
0.0
 10
26.60800919988205
 20
-9.924436891781593
 30
0.0
  0
SPLINE
  5
1CD
330
1F
100
AcDbEntity
  8
0
  6
Continuous
 62
     1
370
    15
100
AcDbSpline
210
0.0
220
0.0
230
1.0
 70
     8
 71
     3
 72
    10
 73
     6
 74
     0
 42
0.000000001
 43
0.00000001
 40
0.0
 40
0.0
 40
0.0
 40
0.0
 40
0.5
 40
0.5
 40
1.0
 40
1.0
 40
1.0
 40
1.0
 10
22.92647656690207
 20
-11.85030015897443
 30
0.0
 10
23.0828818845044
 20
-11.70817015049045
 30
0.0
 10
23.26998378872551
 20
-11.60579544117583
 30
0.0
 10
23.63818352790808
 20
-11.48150379245317
 30
0.0
 10
23.81479440143985
 20
-11.46036773255806
 30
0.0
 10
23.96214345355677
 20
-11.48483604747608
 30
0.0
  0
SPLINE
  5
1CE
330
1F
100
AcDbEntity
  8
0
  6
Continuous
 62
     1
370
    15
100
AcDbSpline
210
0.0
220
0.0
230
1.0
 70
     8
 71
     3
 72
     8
 73
     4
 74
     0
 42
0.000000001
 43
0.00000001
 40
0.0
 40
0.0
 40
0.0
 40
0.0
 40
1.0
 40
1.0
 40
1.0
 40
1.0
 10
22.41855724426929
 20
-12.15196398890651
 30
0.0
 10
22.59588461519879
 20
-12.09106916102524
 30
0.0
 10
22.77545535491415
 20
-11.98753747590284
 30
0.0
 10
22.92647656690147
 20
-11.85030015897498
 30
0.0
  0
SPLINE
  5
1CF
330
1F
100
AcDbEntity
  8
0
  6
Continuous
 62
     1
370
    15
100
AcDbSpline
210
0.0
220
0.0
230
1.0
 70
     8
 71
     3
 72
     8
 73
     4
 74
     0
 42
0.000000001
 43
0.00000001
 40
0.0
 40
0.0
 40
0.0
 40
0.0
 40
1.0
 40
1.0
 40
1.0
 40
1.0
 10
21.90800039462479
 20
-12.18399367511964
 30
0.0
 10
22.05536272697077
 20
-12.22404692158369
 30
0.0
 10
22.23434617752691
 20
-12.21150559164093
 30
0.0
 10
22.41855724426726
 20
-12.15196398890719
 30
0.0
  0
SPLINE
  5
1D0
330
1F
100
AcDbEntity
  8
0
  6
Continuous
 62
     1
370
    15
100
AcDbSpline
210
0.0
220
0.0
230
1.0
 70
     8
 71
     3
 72
    10
 73
     6
 74
     0
 42
0.000000001
 43
0.00000001
 40
0.0
 40
0.0
 40
0.0
 40
0.0
 40
0.5
 40
0.5
 40
1.0
 40
1.0
 40
1.0
 40
1.0
 10
20.57399984651804
 20
-12.69999984651805
 30
0.0
 10
21.02938778348205
 20
-12.35466610589978
 30
0.0
 10
21.21684961379177
 20
-12.25783359526761
 30
0.0
 10
21.58506530468883
 20
-12.15236197539727
 30
0.0
 10
21.76145487278795
 20
-12.14416243866397
 30
0.0
 10
21.90800039462481
 20
-12.18399367511966
 30
0.0
  0
SPLINE
  5
1DA
330
1F
100
AcDbEntity
  8
0
  6
Continuous
 62
     1
370
    15
100
AcDbSpline
210
0.0
220
0.0
230
1.0
 70
     8
 71
     3
 72
    10
 73
     6
 74
     0
 42
0.000000001
 43
0.00000001
 40
0.0
 40
0.0
 40
0.0
 40
0.0
 40
0.5
 40
0.5
 40
1.0
 40
1.0
 40
1.0
 40
1.0
 10
23.01599842397219
 20
-8.714290810019536
 30
0.0
 10
22.85862903759931
 20
-8.577304599632852
 30
0.0
 10
22.67119176218579
 20
-8.47065732455498
 30
0.0
 10
22.30298253878249
 20
-8.323971115912725
 30
0.0
 10
22.12652064391403
 20
-8.285000107887553
 30
0.0
 10
21.97991240077313
 20
-8.28687071167372
 30
0.0
  0
SPLINE
  5
1DB
330
1F
100
AcDbEntity
  8
0
  6
Continuous
 62
     1
370
    15
100
AcDbSpline
210
0.0
220
0.0
230
1.0
 70
     8
 71
     3
 72
    10
 73
     6
 74
     0
 42
0.000000001
 43
0.00000001
 40
0.0
 40
0.0
 40
0.0
 40
0.0
 40
0.5
 40
0.5
 40
1.0
 40
1.0
 40
1.0
 40
1.0
 10
25.08242632872469
 20
-9.517277329226237
 30
0.0
 10
24.92599682826538
 20
-9.376697133712243
 30
0.0
 10
24.73882602867595
 20
-9.272058695010921
 30
0.0
 10
24.37041219367664
 20
-9.137756645916172
 30
0.0
 10
24.19374794762165
 20
-9.109002919543132
 30
0.0
 10
24.04638849304079
 20
-9.123766176699307
 30
0.0
  0
SPLINE
  5
1DC
330
1F
100
AcDbEntity
  8
0
  6
Continuous
 62
     1
370
    15
100
AcDbSpline
210
0.0
220
0.0
230
1.0
 70
     8
 71
     3
 72
     8
 73
     4
 74
     0
 42
0.000000001
 43
0.00000001
 40
0.0
 40
0.0
 40
0.0
 40
0.0
 40
1.0
 40
1.0
 40
1.0
 40
1.0
 10
25.59041623588983
 20
-9.825022149804898
 30
0.0
 10
25.41307295632767
 20
-9.759087577301313
 30
0.0
 10
25.23346663630758
 20
-9.653014360337048
 30
0.0
 10
25.08242632872469
 20
-9.517277329226227
 30
0.0
  0
SPLINE
  5
1DD
330
1F
100
AcDbEntity
  8
0
  6
Continuous
 62
     1
370
    15
100
AcDbSpline
210
0.0
220
0.0
230
1.0
 70
     8
 71
     3
 72
     8
 73
     4
 74
     0
 42
0.000000001
 43
0.00000001
 40
0.0
 40
0.0
 40
0.0
 40
0.0
 40
1.0
 40
1.0
 40
1.0
 40
1.0
 10
26.1009934997405
 20
-9.880172466403376
 30
0.0
 10
25.95364582049101
 20
-9.910627806293311
 30
0.0
 10
25.77465879823423
 20
-9.890033656171545
 30
0.0
 10
25.59041623589185
 20
-9.825022149805626
 30
0.0
  0
SPLINE
  5
1DE
330
1F
100
AcDbEntity
  8
0
  6
Continuous
 62
     1
370
    15
100
AcDbSpline
210
0.0
220
0.0
230
1.0
 70
     8
 71
     3
 72
    10
 73
     6
 74
     0
 42
0.000000001
 43
0.00000001
 40
0.0
 40
0.0
 40
0.0
 40
0.0
 40
0.5
 40
0.5
 40
1.0
 40
1.0
 40
1.0
 40
1.0
 10
27.13680986639699
 20
-10.22439293986563
 30
0.0
 10
26.97949222296713
 20
-10.08278015101477
 30
0.0
 10
26.79208422783881
 20
-9.9828129940592
 30
0.0
 10
26.4239341719253
 20
-9.866060789503985
 30
0.0
 10
26.24754345347697
 20
-9.849882008659273
 30
0.0
 10
26.10099349974119
 20
-9.880172466402927
 30
0.0
  0
SPLINE
  5
1DF
330
1F
100
AcDbEntity
  8
0
  6
Continuous
 62
     1
370
    15
100
AcDbSpline
210
0.0
220
0.0
230
1.0
 70
     8
 71
     3
 72
    10
 73
     6
 74
     0
 42
0.000000001
 43
0.00000001
 40
0.0
 40
0.0
 40
0.0
 40
0.0
 40
0.5
 40
0.5
 40
1.0
 40
1.0
 40
1.0
 40
1.0
 10
28.16665849633618
 20
-10.54822797053618
 30
0.0
 10
28.01925759806186
 20
-10.59083144782594
 30
0.0
 10
27.84284418374612
 20
-10.58072586883605
 30
0.0
 10
27.48133618165373
 20
-10.46894589618948
 30
0.0
 10
27.29422839063837
 20
-10.36609653870287
 30
0.0
 10
27.13680986639699
 20
-10.22439293986563
 30
0.0
  0
SPLINE
  5
1E0
330
1F
100
AcDbEntity
  8
0
  6
Continuous
 62
     1
370
    15
100
AcDbSpline
210
0.0
220
0.0
230
1.0
 70
     8
 71
     3
 72
    10
 73
     6
 74
     0
 42
0.000000001
 43
0.00000001
 40
0.0
 40
0.0
 40
0.0
 40
0.0
 40
0.5
 40
0.5
 40
1.0
 40
1.0
 40
1.0
 40
1.0
 10
29.20195737527843
 20
-10.85402164341089
 30
0.0
 10
29.04563070675945
 20
-10.71087320130395
 30
0.0
 10
28.8585674520977
 20
-10.61433446923729
 30
0.0
 10
28.49039100142911
 20
-10.51153384733128
 30
0.0
 10
28.31388265483253
 20
-10.50567557657905
 30
0.0
 10
28.16665849633618
 20
-10.54822797053618
 30
0.0
  0
SPLINE
  5
1E1
330
1F
100
AcDbEntity
  8
0
  6
Continuous
 62
     1
370
    15
100
AcDbSpline
210
0.0
220
0.0
230
1.0
 70
     8
 71
     3
 72
     8
 73
     4
 74
     0
 42
0.000000001
 43
0.00000001
 40
0.0
 40
0.0
 40
0.0
 40
0.0
 40
1.0
 40
1.0
 40
1.0
 40
1.0
 10
29.70951786802103
 20
-11.13981239896825
 30
0.0
 10
29.53230391008197
 20
-11.08943430513175
 30
0.0
 10
29.35285210861576
 20
-10.99219605858919
 30
0.0
 10
29.20195737527843
 20
-10.85402164341089
 30
0.0
  0
SPLINE
  5
1E2
330
1F
100
AcDbEntity
  8
0
  6
Continuous
 62
     1
370
    15
100
AcDbSpline
210
0.0
220
0.0
230
1.0
 70
     8
 71
     3
 72
     8
 73
     4
 74
     0
 42
0.000000001
 43
0.00000001
 40
0.0
 40
0.0
 40
0.0
 40
0.0
 40
1.0
 40
1.0
 40
1.0
 40
1.0
 10
30.21950217136482
 20
-11.12694628014592
 30
0.0
 10
30.07236139174915
 20
-11.18490690754373
 30
0.0
 10
29.89356292322513
 20
-11.18802156841993
 30
0.0
 10
29.70951786802306
 20
-11.13981239896881
 30
0.0
  0
SPLINE
  5
1E3
330
1F
100
AcDbEntity
  8
0
  6
Continuous
 62
     1
370
    15
100
AcDbSpline
210
0.0
220
0.0
230
1.0
 70
     8
 71
     3
 72
    10
 73
     6
 74
     0
 42
0.000000001
 43
0.00000001
 40
0.0
 40
0.0
 40
0.0
 40
0.0
 40
0.5
 40
0.5
 40
1.0
 40
1.0
 40
1.0
 40
1.0
 10
31.25417491994816
 20
-11.37611610911483
 30
0.0
 10
31.09703978000845
 20
-11.23484102960593
 30
0.0
 10
30.90981433794698
 20
-11.14497876832705
 30
0.0
 10
30.54200776268449
 20
-11.06214497859036
 30
0.0
 10
30.36582546470675
 20
-11.06930767100396
 30
0.0
 10
30.21950217136553
 20
-11.12694628014541
 30
0.0
  0
SPLINE
  5
1E4
330
1F
100
AcDbEntity
  8
0
  6
Continuous
 62
     1
370
    15
100
AcDbSpline
210
0.0
220
0.0
230
1.0
 70
     8
 71
     3
 72
    10
 73
     6
 74
     0
 42
0.000000001
 43
0.00000001
 40
0.0
 40
0.0
 40
0.0
 40
0.0
 40
0.5
 40
0.5
 40
1.0
 40
1.0
 40
1.0
 40
1.0
 10
32.28343875538485
 20
-11.60318272821261
 30
0.0
 10
32.13612085721677
 20
-11.6722372952086
 30
0.0
 10
31.95979182986829
 20
-11.68549897858034
 30
0.0
 10
31.59845771227408
 20
-11.60868721300963
 30
0.0
 10
31.41144842029711
 20
-11.51751558395518
 30
0.0
 10
31.25417491994817
 20
-11.37611610911484
 30
0.0
  0
SPLINE
  5
1E5
330
1F
100
AcDbEntity
  8
0
  6
Continuous
 62
     1
370
    15
100
AcDbSpline
210
0.0
220
0.0
230
1.0
 70
     8
 71
     3
 72
    10
 73
     6
 74
     0
 42
0.000000001
 43
0.00000001
 40
0.0
 40
0.0
 40
0.0
 40
0.0
 40
0.5
 40
0.5
 40
1.0
 40
1.0
 40
1.0
 40
1.0
 10
33.31887169126923
 20
-11.81054011070299
 30
0.0
 10
33.16251170993481
 20
-11.66981732479035
 30
0.0
 10
32.97546476696167
 20
-11.58475316279946
 30
0.0
 10
32.6073747049368
 20
-11.51692506479518
 30
0.0
 10
32.43075409579699
 20
-11.53412936015261
 30
0.0
 10
32.28343875538484
 20
-11.60318272821262
 30
0.0
  0
SPLINE
  5
1E6
330
1F
100
AcDbEntity
  8
0
  6
Continuous
 62
     1
370
    15
100
AcDbSpline
210
0.0
220
0.0
230
1.0
 70
     8
 71
     3
 72
     8
 73
     4
 74
     0
 42
0.000000001
 43
0.00000001
 40
0.0
 40
0.0
 40
0.0
 40
0.0
 40
1.0
 40
1.0
 40
1.0
 40
1.0
 10
33.82670808144334
 20
-12.06458372888361
 30
0.0
 10
33.64940654339825
 20
-12.03145494121915
 30
0.0
 10
33.46986534355765
 20
-11.94643324156558
 30
0.0
 10
33.31887169126923
 20
-11.81054011070299
 30
0.0
  0
SPLINE
  5
1E7
330
1F
100
AcDbEntity
  8
0
  6
Continuous
 62
     1
370
    15
100
AcDbSpline
210
0.0
220
0.0
230
1.0
 70
     8
 71
     3
 72
     8
 73
     4
 74
     0
 42
0.000000001
 43
0.00000001
 40
0.0
 40
0.0
 40
0.0
 40
0.0
 40
1.0
 40
1.0
 40
1.0
 40
1.0
 10
34.33717888597119
 20
-11.98448470169899
 30
0.0
 10
34.18984416168621
 20
-12.06781433732671
 30
0.0
 10
34.01088932204139
 20
-12.09440807315605
 30
0.0
 10
33.82670808144537
 20
-12.06458372888397
 30
0.0
  0
SPLINE
  5
1E8
330
1F
100
AcDbEntity
  8
0
  6
Continuous
 62
     1
370
    15
100
AcDbSpline
210
0.0
220
0.0
230
1.0
 70
     8
 71
     3
 72
    10
 73
     6
 74
     0
 42
0.000000001
 43
0.00000001
 40
0.0
 40
0.0
 40
0.0
 40
0.0
 40
0.5
 40
0.5
 40
1.0
 40
1.0
 40
1.0
 40
1.0
 10
35.37303688882646
 20
-12.13061354894195
 30
0.0
 10
35.21568770129996
 20
-11.99438325691655
 30
0.0
 10
35.02824388734433
 20
-11.9177231661358
 30
0.0
 10
34.66006516492407
 20
-11.87152910841247
 30
0.0
 10
34.48369854764555
 20
-11.90161604952643
 30
0.0
 10
34.33717888597189
 20
-11.98448470169846
 30
0.0
  0
SPLINE
  5
1E9
330
1F
100
AcDbEntity
  8
0
  6
Continuous
 62
     1
370
    15
100
AcDbSpline
210
0.0
220
0.0
230
1.0
 70
     8
 71
     3
 72
    10
 73
     6
 74
     0
 42
0.000000001
 43
0.00000001
 40
0.0
 40
0.0
 40
0.0
 40
0.0
 40
0.5
 40
0.5
 40
1.0
 40
1.0
 40
1.0
 40
1.0
 10
36.40323332966681
 20
-12.25357808094129
 30
0.0
 10
36.25574350944223
 20
-12.34663076442558
 30
0.0
 10
36.07923598254219
 20
-12.38265667331681
 30
0.0
 10
35.71759334742477
 20
-12.34326916108092
 30
0.0
 10
35.53045159080406
 20
-12.26690056228221
 30
0.0
 10
35.37303688882643
 20
-12.13061354894195
 30
0.0
  0
SPLINE
  5
1EA
330
1F
100
AcDbEntity
  8
0
  6
Continuous
 62
     1
370
    15
100
AcDbSpline
210
0.0
220
0.0
230
1.0
 70
     8
 71
     3
 72
    10
 73
     6
 74
     0
 42
0.000000001
 43
0.00000001
 40
0.0
 40
0.0
 40
0.0
 40
0.0
 40
0.5
 40
0.5
 40
1.0
 40
1.0
 40
1.0
 40
1.0
 10
37.43934221614447
 20
-12.35483607422132
 30
0.0
 10
37.28293969556791
 20
-12.22151797664569
 30
0.0
 10
37.09586904000421
 20
-12.15095166683493
 30
0.0
 10
36.72749751333996
 20
-12.12075571487965
 30
0.0
 10
36.5506939553899
 20
-12.16054381653634
 30
0.0
 10
36.40323332966681
 20
-12.25357808094128
 30
0.0
  0
SPLINE
  5
1EB
330
1F
100
AcDbEntity
  8
0
  6
Continuous
 62
     1
370
    15
100
AcDbSpline
210
0.0
220
0.0
230
1.0
 70
     8
 71
     3
 72
     8
 73
     4
 74
     0
 42
0.000000001
 43
0.00000001
 40
0.0
 40
0.0
 40
0.0
 40
0.0
 40
1.0
 40
1.0
 40
1.0
 40
1.0
 10
37.94742995119823
 20
-12.5680586766354
 30
0.0
 10
37.77005310446862
 20
-12.55339913113327
 30
0.0
 10
37.59043751505289
 20
-12.48363027605919
 30
0.0
 10
37.43934221614447
 20
-12.35483607422131
 30
0.0
  0
SPLINE
  5
1EC
330
1F
100
AcDbEntity
  8
0
  6
Continuous
 62
     1
370
    15
100
AcDbSpline
210
0.0
220
0.0
230
1.0
 70
     8
 71
     3
 72
     8
 73
     4
 74
     0
 42
0.000000001
 43
0.00000001
 40
0.0
 40
0.0
 40
0.0
 40
0.0
 40
1.0
 40
1.0
 40
1.0
 40
1.0
 10
38.45811455325785
 20
-12.42330261093537
 30
0.0
 10
38.31069263140007
 20
-12.52917829602459
 30
0.0
 10
38.13166157085083
 20
-12.57837698817983
 30
0.0
 10
37.94742995120026
 20
-12.56805867663554
 30
0.0
  0
SPLINE
  5
1ED
330
1F
100
AcDbEntity
  8
0
  6
Continuous
 62
     1
370
    15
100
AcDbSpline
210
0.0
220
0.0
230
1.0
 70
     8
 71
     3
 72
    10
 73
     6
 74
     0
 42
0.000000001
 43
0.00000001
 40
0.0
 40
0.0
 40
0.0
 40
0.0
 40
0.5
 40
0.5
 40
1.0
 40
1.0
 40
1.0
 40
1.0
 10
39.49413914506265
 20
-12.46095344557007
 30
0.0
 10
39.33674915096883
 20
-12.33459281592012
 30
0.0
 10
39.14925981766847
 20
-12.2738344434182
 30
0.0
 10
38.78102697020251
 20
-12.26600239359741
 30
0.0
 10
38.60466057155607
 20
-12.31805598350722
 30
0.0
 10
38.45811455325858
 20
-12.42330261093479
 30
0.0
  0
SPLINE
  5
1EE
330
1F
100
AcDbEntity
  8
0
  6
Continuous
 62
     1
370
    15
100
AcDbSpline
210
0.0
220
0.0
230
1.0
 70
     8
 71
     3
 72
    10
 73
     6
 74
     0
 42
0.000000001
 43
0.00000001
 40
0.0
 40
0.0
 40
0.0
 40
0.0
 40
0.5
 40
0.5
 40
1.0
 40
1.0
 40
1.0
 40
1.0
 10
40.52419527546665
 20
-12.47548530628481
 30
0.0
 10
40.37672769732715
 20
-12.58927437818713
 30
0.0
 10
40.20022622503405
 20
-12.64681155239914
 30
0.0
 10
39.83861681300741
 20
-12.64622052027306
 30
0.0
 10
39.65151421144162
 20
-12.5873020904972
 30
0.0
 10
39.49413914506265
 20
-12.46095344557006
 30
0.0
  0
SPLINE
  5
1EF
330
1F
100
AcDbEntity
  8
0
  6
Continuous
 62
     1
370
    15
100
AcDbSpline
210
0.0
220
0.0
230
1.0
 70
     8
 71
     3
 72
    10
 73
     6
 74
     0
 42
0.000000001
 43
0.00000001
 40
0.0
 40
0.0
 40
0.0
 40
0.0
 40
0.5
 40
0.5
 40
1.0
 40
1.0
 40
1.0
 40
1.0
 10
41.55985567327033
 20
-12.46712836280356
 30
0.0
 10
41.40355602759937
 20
-12.34593286376054
 30
0.0
 10
41.21653381618658
 20
-12.29234240221488
 30
0.0
 10
40.84827239221966
 20
-12.3008057135626
 30
0.0
 10
40.67156334330208
 20
-12.36177301861729
 30
0.0
 10
40.52419527546663
 20
-12.47548530628482
 30
0.0
  0
SPLINE
  5
1F0
330
1F
100
AcDbEntity
  8
0
  6
Continuous
 62
     1
370
    15
100
AcDbSpline
210
0.0
220
0.0
230
1.0
 70
     8
 71
     3
 72
    12
 73
     8
 74
     0
 42
0.000000001
 43
0.00000001
 40
0.0
 40
0.0
 40
0.0
 40
0.0
 40
0.4999999999999998
 40
0.4999999999999998
 40
0.7499999999999999
 40
0.7499999999999999
 40
1.0
 40
1.0
 40
1.0
 40
1.0
 10
46.3598599347761
 20
3.205085509338169
 30
0.0
 10
46.28867868986026
 20
4.556444726105443
 30
0.0
 10
46.21393099792931
 20
5.867464030832233
 30
0.0
 10
46.10580188828349
 20
7.607731993013193
 30
0.0
 10
46.07043317124283
 20
8.150541746058993
 30
0.0
 10
46.00242273807111
 20
9.143443748095295
 30
0.0
 10
45.96717793242016
 20
9.606112175062066
 30
0.0
 10
45.93116988432693
 20
10.0239394528959
 30
0.0
  0
SPLINE
  5
1F1
330
1F
100
AcDbEntity
  8
0
  6
Continuous
 62
     1
370
    15
100
AcDbSpline
210
0.0
220
0.0
230
1.0
 70
     8
 71
     3
 72
    12
 73
     8
 74
     0
 42
0.000000001
 43
0.00000001
 40
0.0
 40
0.0
 40
0.0
 40
0.0
 40
0.5000000000000002
 40
0.5000000000000002
 40
0.7500000000000001
 40
0.7500000000000001
 40
1.0
 40
1.0
 40
1.0
 40
1.0
 10
47.38950538477815
 20
2.636141355492943
 30
0.0
 10
47.31939880548904
 20
3.996252911860769
 30
0.0
 10
47.24489984780029
 20
5.333437771265625
 30
0.0
 10
47.13580689734849
 20
7.133386986933857
 30
0.0
 10
47.09990226549326
 20
7.699339396469639
 30
0.0
 10
47.03046300203754
 20
8.742707630291354
 30
0.0
 10
46.99667385481622
 20
9.222292858236449
 30
0.0
 10
46.96109389133091
 20
9.664442981227898
 30
0.0
  0
SPLINE
  5
1F2
330
1F
100
AcDbEntity
  8
0
  6
Continuous
 62
     1
370
    15
100
AcDbSpline
210
0.0
220
0.0
230
1.0
 70
     8
 71
     3
 72
    12
 73
     8
 74
     0
 42
0.000000001
 43
0.00000001
 40
0.0
 40
0.0
 40
0.0
 40
0.0
 40
0.4999999999999997
 40
0.4999999999999997
 40
0.7499999999999998
 40
0.7499999999999998
 40
1.0
 40
1.0
 40
1.0
 40
1.0
 10
25.08242632872467
 20
-9.517277329226252
 30
0.0
 10
25.00947495571577
 20
-8.605428910446255
 30
0.0
 10
24.93538816539489
 20
-7.502511323271291
 30
0.0
 10
24.8316411674458
 20
-5.709909370871121
 30
0.0
 10
24.79773154572113
 20
-5.087366406171533
 30
0.0
 10
24.72648866937971
 20
-3.780024346381079
 30
0.0
 10
24.69000570729904
 20
-3.100079665036681
 30
0.0
 10
24.65342660667069
 20
-2.407854181489111
 30
0.0
  0
SPLINE
  5
1F3
330
1F
100
AcDbEntity
  8
0
  6
Continuous
 62
     1
370
    15
100
AcDbSpline
210
0.0
220
0.0
230
1.0
 70
     8
 71
     3
 72
    12
 73
     8
 74
     0
 42
0.000000001
 43
0.00000001
 40
0.0
 40
0.0
 40
0.0
 40
0.0
 40
0.5000000000000003
 40
0.5000000000000003
 40
0.7500000000000001
 40
0.7500000000000001
 40
1.0
 40
1.0
 40
1.0
 40
1.0
 10
25.59041623588981
 20
-9.825022149804752
 30
0.0
 10
25.51807380077926
 20
-8.92932981001427
 30
0.0
 10
25.44420758383843
 20
-7.837490299482464
 30
0.0
 10
25.34014065131159
 20
-6.049135987318145
 30
0.0
 10
25.30681356780983
 20
-5.430742097148711
 30
0.0
 10
25.23651040078021
 20
-4.127988848426549
 30
0.0
 10
25.20040621921225
 20
-3.448472372063097
 30
0.0
 10
25.16409036846397
 20
-2.754426596337171
 30
0.0
  0
SPLINE
  5
1F4
330
1F
100
AcDbEntity
  8
0
  6
Continuous
 62
     1
370
    15
100
AcDbSpline
210
0.0
220
0.0
230
1.0
 70
     8
 71
     3
 72
    12
 73
     8
 74
     0
 42
0.000000001
 43
0.00000001
 40
0.0
 40
0.0
 40
0.0
 40
0.0
 40
0.5000000000000003
 40
0.5000000000000003
 40
0.7500000000000001
 40
0.7500000000000001
 40
1.0
 40
1.0
 40
1.0
 40
1.0
 10
26.10099349974117
 20
-9.880172466402874
 30
0.0
 10
26.02848020849945
 20
-9.020663210970914
 30
0.0
 10
25.95394591293886
 20
-7.960196181672649
 30
0.0
 10
25.84837326378138
 20
-6.207160134480353
 30
0.0
 10
25.81493848309845
 20
-5.601345898060266
 30
0.0
 10
25.74473015039094
 20
-4.324245472449575
 30
0.0
 10
25.70857003697071
 20
-3.656021307785321
 30
0.0
 10
25.67209704071745
 20
-2.971463346907621
 30
0.0
  0
SPLINE
  5
1F5
330
1F
100
AcDbEntity
  8
0
  6
Continuous
 62
     1
370
    15
100
AcDbSpline
210
0.0
220
0.0
230
1.0
 70
     8
 71
     3
 72
    12
 73
     8
 74
     0
 42
0.000000001
 43
0.00000001
 40
0.0
 40
0.0
 40
0.0
 40
0.0
 40
0.4999999999999996
 40
0.4999999999999996
 40
0.7499999999999998
 40
0.7499999999999998
 40
1.0
 40
1.0
 40
1.0
 40
1.0
 10
27.13680986639699
 20
-10.22439293986565
 30
0.0
 10
27.06495822938141
 20
-9.420813592635382
 30
0.0
 10
26.99020114460551
 20
-8.407587385608155
 30
0.0
 10
26.88305379091211
 20
-6.701400379740023
 30
0.0
 10
26.84893422072145
 20
-6.107216431642335
 30
0.0
 10
26.77996820483551
 20
-4.86461166555037
 30
0.0
 10
26.74424167101866
 20
-4.210432888245217
 30
0.0
 10
26.70798497786955
 20
-3.535927901171231
 30
0.0
  0
SPLINE
  5
1F6
330
1F
100
AcDbEntity
  8
0
  6
Continuous
 62
     1
370
    15
100
AcDbSpline
210
0.0
220
0.0
230
1.0
 70
     8
 71
     3
 72
    12
 73
     8
 74
     0
 42
0.000000001
 43
0.00000001
 40
0.0
 40
0.0
 40
0.0
 40
0.0
 40
0.4999999999999999
 40
0.4999999999999999
 40
0.7499999999999999
 40
0.7499999999999999
 40
1.0
 40
1.0
 40
1.0
 40
1.0
 10
28.16665849633618
 20
-10.5482279705362
 30
0.0
 10
28.09570099565425
 20
-9.802342074564006
 30
0.0
 10
28.02098484391831
 20
-8.839607226166825
 30
0.0
 10
27.91260214324674
 20
-7.185976652807677
 30
0.0
 10
27.87710063587335
 20
-6.600945787825585
 30
0.0
 10
27.80874587272035
 20
-5.390940580661177
 30
0.0
 10
27.77393422826637
 20
-4.754693217946425
 30
0.0
 10
27.73801262395526
 20
-4.092159769271501
 30
0.0
  0
SPLINE
  5
1F7
330
1F
100
AcDbEntity
  8
0
  6
Continuous
 62
     1
370
    15
100
AcDbSpline
210
0.0
220
0.0
230
1.0
 70
     8
 71
     3
 72
    12
 73
     8
 74
     0
 42
0.000000001
 43
0.00000001
 40
0.0
 40
0.0
 40
0.0
 40
0.0
 40
0.5000000000000002
 40
0.5000000000000002
 40
0.7500000000000001
 40
0.7500000000000001
 40
1.0
 40
1.0
 40
1.0
 40
1.0
 10
44.81364041861669
 20
4.128141387220789
 30
0.0
 10
44.74169775669559
 20
5.468383610321357
 30
0.0
 10
44.66755278657482
 20
6.741550544250441
 30
0.0
 10
44.56215726610336
 20
8.39754729736561
 30
0.0
 10
44.5288466733133
 20
8.904368124077408
 30
0.0
 10
44.45941064675443
 20
9.845983821397834
 30
0.0
 10
44.42359326812456
 20
10.27835757933328
 30
0.0
 10
44.38739793785087
 20
10.6614167213077
 30
0.0
  0
SPLINE
  5
1F8
330
1F
100
AcDbEntity
  8
0
  6
Continuous
 62
     1
370
    15
100
AcDbSpline
210
0.0
220
0.0
230
1.0
 70
     8
 71
     3
 72
    12
 73
     8
 74
     0
 42
0.000000001
 43
0.00000001
 40
0.0
 40
0.0
 40
0.0
 40
0.0
 40
0.4999999999999999
 40
0.4999999999999999
 40
0.7499999999999999
 40
0.7499999999999999
 40
1.0
 40
1.0
 40
1.0
 40
1.0
 10
45.3241570848956
 20
3.771423281509629
 30
0.0
 10
45.25213953070203
 20
5.109583636725221
 30
0.0
 10
45.17742168819999
 20
6.389976280079999
 30
0.0
 10
45.07062616791242
 20
8.065723214505608
 30
0.0
 10
45.03677460449457
 20
8.580267892339316
 30
0.0
 10
44.9675111113643
 20
9.533695461040898
 30
0.0
 10
44.93167868801905
 20
9.97369684910286
 30
0.0
 10
44.89536621011865
 20
10.36567531907972
 30
0.0
  0
SPLINE
  5
1F9
330
1F
100
AcDbEntity
  8
0
  6
Continuous
 62
     1
370
    15
100
AcDbSpline
210
0.0
220
0.0
230
1.0
 70
     8
 71
     3
 72
    12
 73
     8
 74
     0
 42
0.000000001
 43
0.00000001
 40
0.0
 40
0.0
 40
0.0
 40
0.0
 40
0.5000000000000004
 40
0.5000000000000004
 40
0.7500000000000002
 40
0.7500000000000002
 40
1.0
 40
1.0
 40
1.0
 40
1.0
 10
44.30570089767976
 20
4.317201312375391
 30
0.0
 10
44.23307246922523
 20
5.637884316504603
 30
0.0
 10
44.15861606490751
 20
6.883954783244873
 30
0.0
 10
44.05341947043643
 20
8.491922434259278
 30
0.0
 10
44.01997739440596
 20
8.983347721614065
 30
0.0
 10
43.94952493722806
 20
9.894920747119807
 30
0.0
 10
43.91328458747081
 20
10.31061114170007
 30
0.0
 10
43.87677870916772
 20
10.67576159937618
 30
0.0
  0
SPLINE
  5
1FA
330
1F
100
AcDbEntity
  8
0
  6
Continuous
 62
     1
370
    15
100
AcDbSpline
210
0.0
220
0.0
230
1.0
 70
     8
 71
     3
 72
    12
 73
     8
 74
     0
 42
0.000000001
 43
0.00000001
 40
0.0
 40
0.0
 40
0.0
 40
0.0
 40
0.4999999999999998
 40
0.4999999999999998
 40
0.7499999999999999
 40
0.7499999999999999
 40
1.0
 40
1.0
 40
1.0
 40
1.0
 10
29.20195737527843
 20
-10.85402164341089
 30
0.0
 10
29.13214433649799
 20
-10.16796504808161
 30
0.0
 10
29.05775463862582
 20
-9.259451259362658
 30
0.0
 10
28.94850683624448
 20
-7.664939853140823
 30
0.0
 10
28.91249931511993
 20
-7.095994089623429
 30
0.0
 10
28.84276585141017
 20
-5.910050014542259
 30
0.0
 10
28.80915455817655
 20
-5.294361589655067
 30
0.0
 10
28.77369795759771
 20
-4.645970358633537
 30
0.0
  0
SPLINE
  5
1FB
330
1F
100
AcDbEntity
  8
0
  6
Continuous
 62
     1
370
    15
100
AcDbSpline
210
0.0
220
0.0
230
1.0
 70
     8
 71
     3
 72
    12
 73
     8
 74
     0
 42
0.000000001
 43
0.00000001
 40
0.0
 40
0.0
 40
0.0
 40
0.0
 40
0.4999999999999998
 40
0.4999999999999998
 40
0.7499999999999999
 40
0.7499999999999999
 40
1.0
 40
1.0
 40
1.0
 40
1.0
 10
29.70951786802103
 20
-11.13981239896824
 30
0.0
 10
29.64070331377821
 20
-10.47570276795437
 30
0.0
 10
29.56701963401022
 20
-9.586735917981644
 30
0.0
 10
29.45813580743459
 20
-8.010727304517
 30
0.0
 10
29.42213690881757
 20
-7.446164367764055
 30
0.0
 10
29.35219754707379
 20
-6.264757646478363
 30
0.0
 10
29.31893731282911
 20
-5.652536567583543
 30
0.0
 10
29.28398612763763
 20
-5.007309533021635
 30
0.0
  0
SPLINE
  5
1FC
330
1F
100
AcDbEntity
  8
0
  6
Continuous
 62
     1
370
    15
100
AcDbSpline
210
0.0
220
0.0
230
1.0
 70
     8
 71
     3
 72
    12
 73
     8
 74
     0
 42
0.000000001
 43
0.00000001
 40
0.0
 40
0.0
 40
0.0
 40
0.0
 40
0.2499999999999998
 40
0.2499999999999998
 40
0.4999999999999996
 40
0.4999999999999996
 40
1.0
 40
1.0
 40
1.0
 40
1.0
 10
42.23945658019743
 20
5.393490918751604
 30
0.0
 10
42.20285880640589
 20
6.029619816534828
 30
0.0
 10
42.1662330795786
 20
6.639816578207567
 30
0.0
 10
42.09447623072495
 20
7.783541981809287
 30
0.0
 10
42.05978662702263
 20
8.314958007119381
 30
0.0
 10
41.95717615901337
 20
9.781292428219308
 30
0.0
 10
41.88342926500059
 20
10.6175910217346
 30
0.0
 10
41.8103117921404
 20
11.23154230360969
 30
0.0
  0
SPLINE
  5
1FD
330
1F
100
AcDbEntity
  8
0
  6
Continuous
 62
     1
370
    15
100
AcDbSpline
210
0.0
220
0.0
230
1.0
 70
     8
 71
     3
 72
    12
 73
     8
 74
     0
 42
0.000000001
 43
0.00000001
 40
0.0
 40
0.0
 40
0.0
 40
0.0
 40
0.4999999999999999
 40
0.4999999999999999
 40
0.7499999999999998
 40
0.7499999999999998
 40
1.0
 40
1.0
 40
1.0
 40
1.0
 10
43.26977621615281
 20
4.860479539161877
 30
0.0
 10
43.19674230974509
 20
6.158886284249776
 30
0.0
 10
43.12278299036586
 20
7.365969951955353
 30
0.0
 10
43.01949231170353
 20
8.900946370045586
 30
0.0
 10
42.98529941366456
 20
9.37321774454677
 30
0.0
 10
42.91382936623297
 20
10.23852993952049
 30
0.0
 10
42.87728002449148
 20
10.6278355600366
 30
0.0
 10
42.84068632056862
 20
10.96435170310533
 30
0.0
  0
SPLINE
  5
1FE
330
1F
100
AcDbEntity
  8
0
  6
Continuous
 62
     1
370
    15
100
AcDbSpline
210
0.0
220
0.0
230
1.0
 70
     8
 71
     3
 72
    12
 73
     8
 74
     0
 42
0.000000001
 43
0.00000001
 40
0.0
 40
0.0
 40
0.0
 40
0.0
 40
0.5
 40
0.5
 40
0.75
 40
0.75
 40
1.0
 40
1.0
 40
1.0
 40
1.0
 10
30.21950217136553
 20
-11.12694628014537
 30
0.0
 10
30.15101097026935
 20
-10.50127709558254
 30
0.0
 10
30.07718211265664
 20
-9.649211623303188
 30
0.0
 10
29.9674153699298
 20
-8.118887505434307
 30
0.0
 10
29.93101580874917
 20
-7.567982661191517
 30
0.0
 10
29.86011396691527
 20
-6.410250006159395
 30
0.0
 10
29.82651135273488
 20
-5.809139351679791
 30
0.0
 10
29.79161314491959
 20
-5.176662596093575
 30
0.0
  0
SPLINE
  5
1FF
330
1F
100
AcDbEntity
  8
0
  6
Continuous
 62
     1
370
    15
100
AcDbSpline
210
0.0
220
0.0
230
1.0
 70
     8
 71
     3
 72
    14
 73
    10
 74
     0
 42
0.000000001
 43
0.00000001
 40
0.0
 40
0.0
 40
0.0
 40
0.0
 40
0.2499999999999999
 40
0.2499999999999999
 40
0.4999999999999999
 40
0.4999999999999999
 40
0.7499999999999998
 40
0.7499999999999998
 40
1.0
 40
1.0
 40
1.0
 40
1.0
 10
31.25417491994817
 20
-11.37611610911485
 30
0.0
 10
31.21969104541091
 20
-11.09195057668518
 30
0.0
 10
31.18546087199734
 20
-10.75635836897709
 30
0.0
 10
31.11389552048058
 20
-9.976567537505863
 30
0.0
 10
31.07729547826062
 20
-9.534295917485371
 30
0.0
 10
31.00400690346899
 20
-8.561658410392289
 30
0.0
 10
30.96732588672177
 20
-8.031390493885354
 30
0.0
 10
30.89544795388434
 20
-6.907128774082623
 30
0.0
 10
30.86066019601859
 20
-6.315658364289903
 30
0.0
 10
30.82643416160111
 20
-5.701397560211585
 30
0.0
  0
SPLINE
  5
200
330
1F
100
AcDbEntity
  8
0
  6
Continuous
 62
     1
370
    15
100
AcDbSpline
210
0.0
220
0.0
230
1.0
 70
     8
 71
     3
 72
    12
 73
     8
 74
     0
 42
0.000000001
 43
0.00000001
 40
0.0
 40
0.0
 40
0.0
 40
0.0
 40
0.2499999999999999
 40
0.2499999999999999
 40
0.4999999999999998
 40
0.4999999999999998
 40
1.0
 40
1.0
 40
1.0
 40
1.0
 10
32.28343875538485
 20
-11.60318272821257
 30
0.0
 10
32.24831963156511
 20
-11.34737499201352
 30
0.0
 10
32.21484050750863
 20
-11.04232263241226
 30
0.0
 10
32.14432051950025
 20
-10.32197112702264
 30
0.0
 10
32.10804097901829
 20
-9.90793593904833
 30
0.0
 10
31.99839658848969
 20
-8.525389247783865
 30
0.0
 10
31.92432170886467
 20
-7.414110047595571
 30
0.0
 10
31.85532026975417
 20
-6.213513997106765
 30
0.0
  0
SPLINE
  5
201
330
1F
100
AcDbEntity
  8
0
  6
Continuous
 62
     1
370
    15
100
AcDbSpline
210
0.0
220
0.0
230
1.0
 70
     8
 71
     3
 72
    12
 73
     8
 74
     0
 42
0.000000001
 43
0.00000001
 40
0.0
 40
0.0
 40
0.0
 40
0.0
 40
0.2500000000000002
 40
0.2500000000000002
 40
0.5000000000000001
 40
0.5000000000000001
 40
1.0
 40
1.0
 40
1.0
 40
1.0
 10
41.20325501279371
 20
5.921139735500481
 30
0.0
 10
41.16670837832749
 20
6.542001694549559
 30
0.0
 10
41.13035610354876
 20
7.133148128916799
 30
0.0
 10
41.05955290078958
 20
8.233058433972731
 30
0.0
 10
41.02599657748856
 20
8.738064161422157
 30
0.0
 10
40.92138431620507
 20
10.144447931672
 30
0.0
 10
40.84706248126827
 20
10.92610843257819
 30
0.0
 10
40.77427864873943
 20
11.47889265148169
 30
0.0
  0
SPLINE
  5
202
330
1F
100
AcDbEntity
  8
0
  6
Continuous
 62
     1
370
    15
100
AcDbSpline
210
0.0
220
0.0
230
1.0
 70
     8
 71
     3
 72
    12
 73
     8
 74
     0
 42
0.000000001
 43
0.00000001
 40
0.0
 40
0.0
 40
0.0
 40
0.0
 40
0.2500000000000004
 40
0.2500000000000004
 40
0.5000000000000007
 40
0.5000000000000007
 40
1.0
 40
1.0
 40
1.0
 40
1.0
 10
40.69259535056965
 20
6.285265029165115
 30
0.0
 10
40.65634041126509
 20
6.902200398572445
 30
0.0
 10
40.62039377058125
 20
7.487419073435877
 30
0.0
 10
40.55057745299767
 20
8.572608458079534
 30
0.0
 10
40.51734339903229
 20
9.070292466421241
 30
0.0
 10
40.41248249945191
 20
10.45648524037524
 30
0.0
 10
40.33843552540667
 20
11.2174307498555
 30
0.0
 10
40.26630724535581
 20
11.74661422856411
 30
0.0
  0
SPLINE
  5
203
330
1F
100
AcDbEntity
  8
0
  6
Continuous
 62
     1
370
    15
100
AcDbSpline
210
0.0
220
0.0
230
1.0
 70
     8
 71
     3
 72
    12
 73
     8
 74
     0
 42
0.000000001
 43
0.00000001
 40
0.0
 40
0.0
 40
0.0
 40
0.0
 40
0.2499999999999998
 40
0.2499999999999998
 40
0.4999999999999996
 40
0.4999999999999996
 40
1.0
 40
1.0
 40
1.0
 40
1.0
 10
40.18460219684693
 20
6.423013419915137
 30
0.0
 10
40.14821422222931
 20
7.026885095761521
 30
0.0
 10
40.11223637267347
 20
7.597537013981077
 30
0.0
 10
40.04256203554755
 20
8.651474396500594
 30
0.0
 10
40.00896992110557
 20
9.135209129611534
 30
0.0
 10
39.90266635879907
 20
10.47700593153058
 30
0.0
 10
39.82800810111141
 20
11.20188688352441
 30
0.0
 10
39.75576633344983
 20
11.69299741194444
 30
0.0
  0
SPLINE
  5
204
330
1F
100
AcDbEntity
  8
0
  6
Continuous
 62
     1
370
    15
100
AcDbSpline
210
0.0
220
0.0
230
1.0
 70
     8
 71
     3
 72
    12
 73
     8
 74
     0
 42
0.000000001
 43
0.00000001
 40
0.0
 40
0.0
 40
0.0
 40
0.0
 40
0.2500000000000001
 40
0.2500000000000001
 40
0.5000000000000001
 40
0.5000000000000001
 40
1.0
 40
1.0
 40
1.0
 40
1.0
 10
33.31887169126925
 20
-11.81054011070299
 30
0.0
 10
33.28323038054221
 20
-11.58442145896155
 30
0.0
 10
33.24931314481393
 20
-11.3069794377569
 30
0.0
 10
33.18007130728795
 20
-10.64750920427766
 30
0.0
 10
33.14423999522531
 20
-10.26282289548203
 30
0.0
 10
33.03527600690431
 20
-8.96101912920291
 30
0.0
 10
32.96073712014864
 20
-7.893251854025105
 30
0.0
 10
32.89047543872886
 20
-6.719498056657149
 30
0.0
  0
SPLINE
  5
205
330
1F
100
AcDbEntity
  8
0
  6
Continuous
 62
     1
370
    15
100
AcDbSpline
210
0.0
220
0.0
230
1.0
 70
     8
 71
     3
 72
    12
 73
     8
 74
     0
 42
0.000000001
 43
0.00000001
 40
0.0
 40
0.0
 40
0.0
 40
0.0
 40
0.2499999999999999
 40
0.2499999999999999
 40
0.4999999999999999
 40
0.4999999999999999
 40
1.0
 40
1.0
 40
1.0
 40
1.0
 10
39.14878294863966
 20
6.915655891520235
 30
0.0
 10
39.11266399448125
 20
7.500335692001947
 30
0.0
 10
39.07717039939299
 20
8.048473345768988
 30
0.0
 10
39.00882915976661
 20
9.05297268311262
 30
0.0
 10
38.97403152078073
 20
9.519123296596783
 30
0.0
 10
38.86629859047823
 20
10.78963756878369
 30
0.0
 10
38.79153286248852
 20
11.45387588494946
 30
0.0
 10
38.72005643909196
 20
11.88093924223661
 30
0.0
  0
SPLINE
  5
206
330
1F
100
AcDbEntity
  8
0
  6
Continuous
 62
     1
370
    15
100
AcDbSpline
210
0.0
220
0.0
230
1.0
 70
     8
 71
     3
 72
    12
 73
     8
 74
     0
 42
0.000000001
 43
0.00000001
 40
0.0
 40
0.0
 40
0.0
 40
0.0
 40
0.2499999999999999
 40
0.2499999999999999
 40
0.4999999999999998
 40
0.4999999999999998
 40
1.0
 40
1.0
 40
1.0
 40
1.0
 10
33.82670808144334
 20
-12.06458372888362
 30
0.0
 10
33.79108639947383
 20
-11.85038370228928
 30
0.0
 10
33.75676960408045
 20
-11.58267250692251
 30
0.0
 10
33.68861044748189
 20
-10.9469443862406
 30
0.0
 10
33.65325130789213
 20
-10.57364549569749
 30
0.0
 10
33.54540675665695
 20
-9.302527059996606
 30
0.0
 10
33.47119999982893
 20
-8.250334588759673
 30
0.0
 10
33.40078162105961
 20
-7.083260659199209
 30
0.0
  0
SPLINE
  5
207
330
1F
100
AcDbEntity
  8
0
  6
Continuous
 62
     1
370
    15
100
AcDbSpline
210
0.0
220
0.0
230
1.0
 70
     8
 71
     3
 72
    12
 73
     8
 74
     0
 42
0.000000001
 43
0.00000001
 40
0.0
 40
0.0
 40
0.0
 40
0.0
 40
0.25
 40
0.25
 40
0.5
 40
0.5
 40
1.0
 40
1.0
 40
1.0
 40
1.0
 10
38.11887428575379
 20
7.393765702391093
 30
0.0
 10
38.08314176707594
 20
7.957703666813619
 30
0.0
 10
38.04900473497379
 20
8.478613208328554
 30
0.0
 10
37.98001223729774
 20
9.441704504750943
 30
0.0
 10
37.94427104049169
 20
9.887337449168827
 30
0.0
 10
37.83545529436984
 20
11.0819584904378
 30
0.0
 10
37.7608463970987
 20
11.68350325926983
 30
0.0
 10
37.69036395521258
 20
12.04607399155923
 30
0.0
  0
SPLINE
  5
208
330
1F
100
AcDbEntity
  8
0
  6
Continuous
 62
     1
370
    15
100
AcDbSpline
210
0.0
220
0.0
230
1.0
 70
     8
 71
     3
 72
    12
 73
     8
 74
     0
 42
0.000000001
 43
0.00000001
 40
0.0
 40
0.0
 40
0.0
 40
0.0
 40
0.2500000000000002
 40
0.2500000000000002
 40
0.5000000000000004
 40
0.5000000000000004
 40
1.0
 40
1.0
 40
1.0
 40
1.0
 10
34.33717888597192
 20
-11.98448470169845
 30
0.0
 10
34.30113404278841
 20
-11.78856764875089
 30
0.0
 10
34.26575648150384
 20
-11.53659230685657
 30
0.0
 10
34.19771564783739
 20
-10.93707224507885
 30
0.0
 10
34.16254678768151
 20
-10.58236634445433
 30
0.0
 10
34.05459047900685
 20
-9.363452263658539
 30
0.0
 10
33.97984845130937
 20
-8.34235839210791
 30
0.0
 10
33.90856234798584
 20
-7.199422644884441
 30
0.0
  0
SPLINE
  5
209
330
1F
100
AcDbEntity
  8
0
  6
Continuous
 62
     1
370
    15
100
AcDbSpline
210
0.0
220
0.0
230
1.0
 70
     8
 71
     3
 72
    12
 73
     8
 74
     0
 42
0.000000001
 43
0.00000001
 40
0.0
 40
0.0
 40
0.0
 40
0.0
 40
0.2500000000000001
 40
0.2500000000000001
 40
0.5000000000000002
 40
0.5000000000000002
 40
1.0
 40
1.0
 40
1.0
 40
1.0
 10
35.37303688882643
 20
-12.13061354894196
 30
0.0
 10
35.33668802329201
 20
-11.96624863100788
 30
0.0
 10
35.30079206778095
 20
-11.74426635676106
 30
0.0
 10
35.23135579809039
 20
-11.19938213835979
 30
0.0
 10
35.1976145482606
 20
-10.87710134094657
 30
0.0
 10
35.09098987130277
 20
-9.7451576462835
 30
0.0
 10
35.01628030256558
 20
-8.774857740171834
 30
0.0
 10
34.94416302382223
 20
-7.667281689393669
 30
0.0
  0
SPLINE
  5
20A
330
1F
100
AcDbEntity
  8
0
  6
Continuous
 62
     1
370
    15
100
AcDbSpline
210
0.0
220
0.0
230
1.0
 70
     8
 71
     3
 72
    12
 73
     8
 74
     0
 42
0.000000001
 43
0.00000001
 40
0.0
 40
0.0
 40
0.0
 40
0.0
 40
0.2499999999999999
 40
0.2499999999999999
 40
0.4999999999999999
 40
0.4999999999999999
 40
1.0
 40
1.0
 40
1.0
 40
1.0
 10
37.08331994159374
 20
7.862894993324791
 30
0.0
 10
37.04809997814913
 20
8.404275202252583
 30
0.0
 10
37.01463425249693
 20
8.90063104054695
 30
0.0
 10
36.94434477735675
 20
9.822053418364911
 30
0.0
 10
36.90814432428393
 20
10.24327987175102
 30
0.0
 10
36.79861251137719
 20
11.35651651150433
 30
0.0
 10
36.72444056630033
 20
11.89280139130918
 30
0.0
 10
36.65519549975723
 20
12.18997970069248
 30
0.0
  0
SPLINE
  5
20B
330
1F
100
AcDbEntity
  8
0
  6
Continuous
 62
     1
370
    15
100
AcDbSpline
210
0.0
220
0.0
230
1.0
 70
     8
 71
     3
 72
    12
 73
     8
 74
     0
 42
0.000000001
 43
0.00000001
 40
0.0
 40
0.0
 40
0.0
 40
0.0
 40
0.2499999999999999
 40
0.2499999999999999
 40
0.4999999999999998
 40
0.4999999999999998
 40
1.0
 40
1.0
 40
1.0
 40
1.0
 10
36.40323332966679
 20
-12.25357808094128
 30
0.0
 10
36.36670210004888
 20
-12.12119024691854
 30
0.0
 10
36.33040617612154
 20
-11.92999234459405
 30
0.0
 10
36.25978968764687
 20
-11.44187945856189
 30
0.0
 10
36.22630826605229
 20
-11.14830162077415
 30
0.0
 10
36.12133603801836
 20
-10.10471243527402
 30
0.0
 10
36.04691931967341
 20
-9.187706455663209
 30
0.0
 10
35.97421002773013
 20
-8.118839032776144
 30
0.0
  0
SPLINE
  5
20C
330
1F
100
AcDbEntity
  8
0
  6
Continuous
 62
     1
370
    15
100
AcDbSpline
210
0.0
220
0.0
230
1.0
 70
     8
 71
     3
 72
    12
 73
     8
 74
     0
 42
0.000000001
 43
0.00000001
 40
0.0
 40
0.0
 40
0.0
 40
0.0
 40
0.25
 40
0.25
 40
0.5
 40
0.5
 40
1.0
 40
1.0
 40
1.0
 40
1.0
 10
36.57309633216904
 20
8.221476976501163
 30
0.0
 10
36.53840746323493
 20
8.754435127948124
 30
0.0
 10
36.50501427136897
 20
9.243729884598517
 30
0.0
 10
36.4345700972281
 20
10.14948143551423
 30
0.0
 10
36.39840581036027
 20
10.56102718071969
 30
0.0
 10
36.28932060178797
 20
11.64125145439223
 30
0.0
 10
36.21590904495791
 20
12.15026735822213
 30
0.0
 10
36.14770305411236
 20
12.4202493094998
 30
0.0
  0
SPLINE
  5
20D
330
1F
100
AcDbEntity
  8
0
  6
Continuous
 62
     1
370
    15
100
AcDbSpline
210
0.0
220
0.0
230
1.0
 70
     8
 71
     3
 72
    12
 73
     8
 74
     0
 42
0.000000001
 43
0.00000001
 40
0.0
 40
0.0
 40
0.0
 40
0.0
 40
0.2500000000000002
 40
0.2500000000000002
 40
0.5000000000000001
 40
0.5000000000000001
 40
1.0
 40
1.0
 40
1.0
 40
1.0
 10
36.0655325430802
 20
8.302988072531383
 30
0.0
 10
36.03091989677415
 20
8.820594106921495
 30
0.0
 10
35.99693763187808
 20
9.297200766389016
 30
0.0
 10
35.92557192229641
 20
10.17355333315289
 30
0.0
 10
35.88903107693645
 20
10.56891006516934
 30
0.0
 10
35.77914171846951
 20
11.59745334719058
 30
0.0
 10
35.70594967353941
 20
12.06746941761092
 30
0.0
 10
35.63780992644683
 20
12.30056775174083
 30
0.0
  0
SPLINE
  5
20E
330
1F
100
AcDbEntity
  8
0
  6
Continuous
 62
     1
370
    15
100
AcDbSpline
210
0.0
220
0.0
230
1.0
 70
     8
 71
     3
 72
    12
 73
     8
 74
     0
 42
0.000000001
 43
0.00000001
 40
0.0
 40
0.0
 40
0.0
 40
0.0
 40
0.2499999999999999
 40
0.2499999999999999
 40
0.5
 40
0.5
 40
1.0
 40
1.0
 40
1.0
 40
1.0
 10
37.43934221614447
 20
-12.35483607422131
 30
0.0
 10
37.40274930049255
 20
-12.2551374024516
 30
0.0
 10
37.36617014445683
 20
-12.09579947521875
 30
0.0
 10
37.29458345461033
 20
-11.66715551420654
 30
0.0
 10
37.26019811422153
 20
-11.39987243285138
 30
0.0
 10
37.15720471470316
 20
-10.44676318164448
 30
0.0
 10
37.08334145579015
 20
-9.585980273443093
 30
0.0
 10
37.01027684404517
 20
-8.559550651961748
 30
0.0
  0
SPLINE
  5
20F
330
1F
100
AcDbEntity
  8
0
  6
Continuous
 62
     1
370
    15
100
AcDbSpline
210
0.0
220
0.0
230
1.0
 70
     8
 71
     3
 72
    12
 73
     8
 74
     0
 42
0.000000001
 43
0.00000001
 40
0.0
 40
0.0
 40
0.0
 40
0.0
 40
0.4999999999999997
 40
0.4999999999999997
 40
0.7499999999999998
 40
0.7499999999999998
 40
1.0
 40
1.0
 40
1.0
 40
1.0
 10
35.03088075098275
 20
8.727607816169913
 30
0.0
 10
34.96266916830533
 20
9.713301271828648
 30
0.0
 10
34.88897021327807
 20
10.56020791056397
 30
0.0
 10
34.77912280683627
 20
11.49827588734109
 30
0.0
 10
34.74265193712743
 20
11.75640236378116
 30
0.0
 10
34.67152840143756
 20
12.1557631794602
 30
0.0
 10
34.63778234412624
 20
12.29656500066725
 30
0.0
 10
34.60300204201217
 20
12.38158313553757
 30
0.0
  0
SPLINE
  5
210
330
1F
100
AcDbEntity
  8
0
  6
Continuous
 62
     1
370
    15
100
AcDbSpline
210
0.0
220
0.0
230
1.0
 70
     8
 71
     3
 72
    10
 73
     6
 74
     0
 42
0.000000001
 43
0.00000001
 40
0.0
 40
0.0
 40
0.0
 40
0.0
 40
0.5
 40
0.5
 40
1.0
 40
1.0
 40
1.0
 40
1.0
 10
37.94742995119822
 20
-12.56805867663539
 30
0.0
 10
37.87470502245049
 20
-12.39689494324271
 30
0.0
 10
37.80181286856375
 20
-11.9815443080221
 30
0.0
 10
37.66674305762815
 20
-10.76088730620084
 30
0.0
 10
37.59371748075667
 20
-9.923339767445805
 30
0.0
 10
37.5209986710444
 20
-8.912916349400124
 30
0.0
  0
SPLINE
  5
211
330
1F
100
AcDbEntity
  8
0
  6
Continuous
 62
     1
370
    15
100
AcDbSpline
210
0.0
220
0.0
230
1.0
 70
     8
 71
     3
 72
    12
 73
     8
 74
     0
 42
0.000000001
 43
0.00000001
 40
0.0
 40
0.0
 40
0.0
 40
0.0
 40
0.5
 40
0.5
 40
0.75
 40
0.75
 40
1.0
 40
1.0
 40
1.0
 40
1.0
 10
34.00186017963049
 20
9.134363253414547
 30
0.0
 10
33.93227248375725
 20
10.07989084523675
 30
0.0
 10
33.85795789214223
 20
10.87176638464555
 30
0.0
 10
33.74856752416567
 20
11.71718972379835
 30
0.0
 10
33.71247144363895
 20
11.94287766641994
 30
0.0
 10
33.64249079844125
 20
12.27707597751792
 30
0.0
 10
33.60896456756037
 20
12.38647349182294
 30
0.0
 10
33.57359944657652
 20
12.43947155343106
 30
0.0
  0
SPLINE
  5
212
330
1F
100
AcDbEntity
  8
0
  6
Continuous
 62
     1
370
    15
100
AcDbSpline
210
0.0
220
0.0
230
1.0
 70
     8
 71
     3
 72
    12
 73
     8
 74
     0
 42
0.000000001
 43
0.00000001
 40
0.0
 40
0.0
 40
0.0
 40
0.0
 40
0.5
 40
0.5
 40
0.75
 40
0.75
 40
1.0
 40
1.0
 40
1.0
 40
1.0
 10
38.45811455325858
 20
-12.42330261093479
 30
0.0
 10
38.38504164522623
 20
-12.28896567881975
 30
0.0
 10
38.31122454799723
 20
-11.90982729885016
 30
0.0
 10
38.20836446431822
 20
-11.04156031416031
 30
0.0
 10
38.17389201216827
 20
-10.69980422904232
 30
0.0
 10
38.10226042934946
 20
-9.909394870313864
 30
0.0
 10
38.06567106804111
 20
-9.462302878694926
 30
0.0
 10
38.02908092014499
 20
-8.971857647417883
 30
0.0
  0
SPLINE
  5
213
330
1F
100
AcDbEntity
  8
0
  6
Continuous
 62
     1
370
    15
100
AcDbSpline
210
0.0
220
0.0
230
1.0
 70
     8
 71
     3
 72
    12
 73
     8
 74
     0
 42
0.000000001
 43
0.00000001
 40
0.0
 40
0.0
 40
0.0
 40
0.0
 40
0.5
 40
0.5
 40
0.75
 40
0.75
 40
1.0
 40
1.0
 40
1.0
 40
1.0
 10
39.49413914506265
 20
-12.46095344557007
 30
0.0
 10
39.42140345985037
 20
-12.39298386322194
 30
0.0
 10
39.34701559387538
 20
-12.07988445629116
 30
0.0
 10
39.24215837696728
 20
-11.29472600982662
 30
0.0
 10
39.20865637324315
 20
-10.98380304454839
 30
0.0
 10
39.1379767970823
 20
-10.2516149228798
 30
0.0
 10
39.10166138437751
 20
-9.832061972377241
 30
0.0
 10
39.0651240777465
 20
-9.366344530662959
 30
0.0
  0
LINE
  5
214
330
1F
100
AcDbEntity
  8
0
  6
Continuous
 62
     1
370
    15
100
AcDbLine
 10
32.54411918276549
 20
12.46258057653904
 30
0.0
 11
32.53804323428869
 21
12.4748321250081
 31
0.0
  0
SPLINE
  5
215
330
1F
100
AcDbEntity
  8
0
  6
Continuous
 62
     1
370
    15
100
AcDbSpline
210
0.0
220
0.0
230
1.0
 70
     8
 71
     3
 72
    12
 73
     8
 74
     0
 42
0.000000001
 43
0.00000001
 40
0.0
 40
0.0
 40
0.0
 40
0.0
 40
0.5000000000000002
 40
0.5000000000000002
 40
0.7500000000000001
 40
0.7500000000000001
 40
1.0
 40
1.0
 40
1.0
 40
1.0
 10
40.52419527546663
 20
-12.47548530628481
 30
0.0
 10
40.45203417320857
 20
-12.47331531778527
 30
0.0
 10
40.3773346776137
 20
-12.22728658570828
 30
0.0
 10
40.27080200917361
 20
-11.52856213749467
 30
0.0
 10
40.2371100792265
 20
-11.2452033302431
 30
0.0
 10
40.16759435492353
 20
-10.57221108261744
 30
0.0
 10
40.13167007505501
 20
-10.18105489489521
 30
0.0
 10
40.09530621880847
 20
-9.741240532706053
 30
0.0
  0
SPLINE
  5
216
330
1F
100
AcDbEntity
  8
0
  6
Continuous
 62
     1
370
    15
100
AcDbSpline
210
0.0
220
0.0
230
1.0
 70
     8
 71
     3
 72
    12
 73
     8
 74
     0
 42
0.000000001
 43
0.00000001
 40
0.0
 40
0.0
 40
0.0
 40
0.0
 40
0.4999999999999999
 40
0.4999999999999999
 40
0.7499999999999999
 40
0.7499999999999999
 40
1.0
 40
1.0
 40
1.0
 40
1.0
 10
32.45618173500552
 20
9.868975341821825
 30
0.0
 10
32.38532508158529
 20
10.75270902564308
 30
0.0
 10
32.31104903412891
 20
11.46107435325826
 30
0.0
 10
32.20368106010445
 20
12.16999058149607
 30
0.0
 10
32.16858873545147
 20
12.34843571966931
 30
0.0
 10
32.1010568581879
 20
12.58895015246256
 30
0.0
 10
32.06593823463538
 20
12.65414452262874
 30
0.0
 10
32.03014150348379
 20
12.65962111674656
 30
0.0
  0
SPLINE
  5
217
330
1F
100
AcDbEntity
  8
0
  6
Continuous
 62
     1
370
    15
100
AcDbSpline
210
0.0
220
0.0
230
1.0
 70
     8
 71
     3
 72
    12
 73
     8
 74
     0
 42
0.000000001
 43
0.00000001
 40
0.0
 40
0.0
 40
0.0
 40
0.0
 40
0.5
 40
0.5
 40
0.75
 40
0.75
 40
1.0
 40
1.0
 40
1.0
 40
1.0
 10
31.94833083167389
 20
9.891772017173752
 30
0.0
 10
31.8766495816156
 20
10.74644627923391
 30
0.0
 10
31.80189330249775
 20
11.4202876793891
 30
0.0
 10
31.69449276032877
 20
12.07589487472586
 30
0.0
 10
31.66010477447931
 20
12.23583292896513
 30
0.0
 10
31.59142195568526
 20
12.44279820362742
 30
0.0
 10
31.5558016813558
 20
12.49040649623439
 30
0.0
 10
31.51960875398761
 20
12.47814032642984
 30
0.0
  0
LINE
  5
218
330
1F
100
AcDbEntity
  8
0
  6
Continuous
 62
     1
370
    15
100
AcDbLine
 10
41.48740311318635
 20
-12.4153895303607
 30
0.0
 11
41.47828732782603
 21
-12.40888144820929
 31
0.0
  0
SPLINE
  5
219
330
1F
100
AcDbEntity
  8
0
  6
Continuous
 62
     1
370
    15
100
AcDbSpline
210
0.0
220
0.0
230
1.0
 70
     8
 71
     3
 72
     9
 73
     5
 74
     0
 42
0.000000001
 43
0.00000001
 40
0.0
 40
0.0
 40
0.0
 40
0.0
 40
0.7882499910263054
 40
1.0
 40
1.0
 40
1.0
 40
1.0
 10
30.57049391025306
 20
12.43380643427372
 30
0.0
 10
30.56726837499836
 20
12.44430513143402
 30
0.0
 10
30.56317635433054
 20
12.45762412576301
 30
0.0
 10
30.55893470811845
 20
12.45622143407565
 30
0.0
 10
30.55803653949499
 20
12.45592441409826
 30
0.0
  0
SPLINE
  5
21A
330
1F
100
AcDbEntity
  8
0
  6
Continuous
 62
     1
370
    15
100
AcDbSpline
210
0.0
220
0.0
230
1.0
 70
     8
 71
     3
 72
    11
 73
     7
 74
     0
 42
0.000000001
 43
0.00000001
 40
0.0
 40
0.0
 40
0.0
 40
0.0
 40
0.0956765886671478
 40
0.3996985764185003
 40
0.7004173151853411
 40
1.0
 40
1.0
 40
1.0
 40
1.0
 10
41.99394387358427
 20
-12.60672323405743
 30
0.0
 10
41.98262064397641
 20
-12.60684713648223
 30
0.0
 10
41.93531671291275
 20
-12.60736475132926
 30
0.0
 10
41.85079027499799
 20
-12.24201186871499
 30
0.0
 10
41.74592169002415
 20
-11.54426027067321
 30
0.0
 10
41.67640228391195
 20
-10.80157294842846
 30
0.0
 10
41.64170836263895
 20
-10.43093204498291
 30
0.0
  0
LINE
  5
21B
330
1F
100
AcDbEntity
  8
0
  6
Continuous
 62
     1
370
    15
100
AcDbLine
 10
29.53120869749785
 20
12.45765760540962
 30
0.0
 11
29.51526631766557
 21
12.44549360126257
 31
0.0
  0
LINE
  5
21C
330
1F
100
AcDbEntity
  8
0
  6
Continuous
 62
     1
370
    15
100
AcDbLine
 10
42.57800047451257
 20
-12.42738403379917
 30
0.0
 11
42.52335232847929
 21
-12.43541482836008
 31
0.0
  0
LINE
  5
21D
330
1F
100
AcDbEntity
  8
0
  6
Continuous
 62
     1
370
    15
100
AcDbLine
 10
44.55327977591753
 20
-12.43517175316811
 30
0.0
 11
44.54201449805498
 21
-12.4557139351964
 31
0.0
  0
SPLINE
  5
21E
330
1F
100
AcDbEntity
  8
0
  6
Continuous
 62
     1
370
    15
100
AcDbSpline
210
0.0
220
0.0
230
1.0
 70
     8
 71
     3
 72
    11
 73
     7
 74
     0
 42
0.000000001
 43
0.00000001
 40
0.0
 40
0.0
 40
0.0
 40
0.0
 40
0.3226864269323361
 40
0.6413798679743116
 40
0.999453310571756
 40
0.9999999999999999
 40
0.9999999999999999
 40
0.9999999999999999
 40
0.9999999999999999
 10
28.33570716136693
 20
11.17263548076153
 30
0.0
 10
28.30144508097983
 20
11.46235951028851
 30
0.0
 10
28.23334488598833
 20
12.03822246669966
 30
0.0
 10
28.13097432883789
 20
12.50841950183693
 30
0.0
 10
28.06202482332154
 20
12.72687431027735
 30
0.0
 10
28.02414623360783
 20
12.65978237490634
 30
0.0
 10
28.02408849054575
 20
12.65968009829521
 30
0.0
  0
LINE
  5
21F
330
1F
100
AcDbEntity
  8
0
  6
Continuous
 62
     1
370
    15
100
AcDbLine
 10
26.55470547431707
 20
12.45190482586622
 30
0.0
 11
26.55118041837216
 21
12.45917845517397
 31
0.0
  0
SPLINE
  5
220
330
1F
100
AcDbEntity
  8
0
  6
Continuous
 62
     1
370
    15
100
AcDbSpline
210
0.0
220
0.0
230
1.0
 70
     8
 71
     3
 72
    10
 73
     6
 74
     0
 42
0.000000001
 43
0.00000001
 40
0.0
 40
0.0
 40
0.0
 40
0.0
 40
0.2925052925535372
 40
0.6479386610166503
 40
1.0
 40
1.0
 40
1.0
 40
1.0
 10
46.02643464857339
 20
-12.63985224068165
 30
0.0
 10
46.00027826963371
 20
-12.63012109262602
 30
0.0
 10
45.94233836366048
 20
-12.608565287648
 30
0.0
 10
45.85181335167835
 20
-12.25963277027385
 30
0.0
 10
45.78978196793511
 20
-11.80823717924675
 30
0.0
 10
45.75891410166025
 20
-11.5836150944233
 30
0.0
  0
LINE
  5
221
330
1F
100
AcDbEntity
  8
0
  6
Continuous
 62
     1
370
    15
100
AcDbLine
 10
65.02399956041573
 20
2.449835184961555
 30
0.0
 11
65.02399956041573
 21
8.223300799727438
 31
0.0
  0
LINE
  5
222
330
1F
100
AcDbEntity
  8
0
  6
Continuous
 62
     1
370
    15
100
AcDbLine
 10
46.54954363757371
 20
-12.45539169758558
 30
0.0
 11
46.54290889555215
 21
-12.46908213943243
 31
0.0
  0
SPLINE
  5
223
330
1F
100
AcDbEntity
  8
0
  6
Continuous
 62
     1
370
    15
100
AcDbSpline
210
0.0
220
0.0
230
1.0
 70
     8
 71
     3
 72
     9
 73
     5
 74
     0
 42
0.000000001
 43
0.00000001
 40
0.0
 40
0.0
 40
0.0
 40
0.0
 40
0.4240738739954342
 40
1.0
 40
1.0
 40
1.0
 40
1.0
 10
24.21519429588317
 20
12.0857935398817
 30
0.0
 10
24.18853260952135
 20
12.23039385881389
 30
0.0
 10
24.12566222773948
 20
12.57137293769425
 30
0.0
 10
24.06220304948135
 20
12.62375465983371
 30
0.0
 10
24.02565525078774
 20
12.65392266213894
 30
0.0
  0
LINE
  5
224
330
1F
100
AcDbEntity
  8
0
  6
Continuous
 62
     1
370
    15
100
AcDbLine
 10
22.55711228752136
 20
12.4378576874733
 30
0.0
 11
22.55174973213671
 21
12.44830060750246
 31
0.0
  0
SPLINE
  5
225
330
1F
100
AcDbEntity
  8
0
  6
Continuous
 62
     1
370
    15
100
AcDbSpline
210
0.0
220
0.0
230
1.0
 70
     8
 71
     3
 72
     9
 73
     5
 74
     0
 42
0.000000001
 43
0.00000001
 40
0.0
 40
0.0
 40
0.0
 40
0.0
 40
0.3904616065103115
 40
1.0
 40
1.0
 40
1.0
 40
1.0
 10
50.02081384116411
 20
-12.63340376317501
 30
0.0
 10
50.00231218881358
 20
-12.6335598766307
 30
0.0
 10
49.95492813864823
 20
-12.63395969431594
 30
0.0
 10
49.90709201252489
 20
-12.4464284212193
 30
0.0
 10
49.87793405705691
 20
-12.33212091028691
 30
0.0
  0
LINE
  5
227
330
1F
100
AcDbEntity
  8
0
  6
Continuous
 62
     1
370
    15
100
AcDbLine
 10
65.02399956041573
 20
-6.603910122066737
 30
0.0
 11
65.02399956041573
 21
-7.424523588269951
 31
0.0
  0
LINE
  5
228
330
1F
100
AcDbEntity
  8
0
  6
Continuous
 62
     1
370
    15
100
AcDbLine
 10
64.044132727921
 20
12.65771314501762
 30
0.0
 11
64.0448330824971
 21
12.65229657292366
 31
0.0
  0
LINE
  5
229
330
1F
100
AcDbEntity
  8
0
  6
Continuous
 62
     1
370
    15
100
AcDbLine
 10
65.02399956041573
 20
11.64510101079941
 30
0.0
 11
65.02399956041573
 21
11.68000046163797
 31
0.0
  0
LINE
  5
22A
330
1F
100
AcDbEntity
  8
0
  6
Continuous
 62
     1
370
    15
100
AcDbLine
 10
64.03677900487183
 20
12.65792269259691
 30
0.0
 11
64.0245414262414
 21
12.64331489801407
 31
0.0
  0
SPLINE
  5
22D
330
1F
100
AcDbEntity
  8
0
  6
Continuous
 62
     1
370
    15
100
AcDbSpline
210
0.0
220
0.0
230
1.0
 70
     8
 71
     3
 72
    11
 73
     7
 74
     0
 42
0.000000001
 43
0.00000001
 40
0.0
 40
0.0
 40
0.0
 40
0.0
 40
0.2655180883599373
 40
0.5319103318117819
 40
0.7950514861616561
 40
1.0
 40
1.0
 40
1.0
 40
1.0
 10
32.96657641583681
 20
9.528247639536854
 30
0.0
 10
32.92904167817409
 20
9.973495736943297
 30
0.0
 10
32.85384862866108
 20
10.86545780511311
 30
0.0
 10
32.73910967251405
 20
11.77603252091806
 30
0.0
 10
32.637646202078
 20
12.32849118945762
 30
0.0
 10
32.57259932568117
 20
12.42174868714893
 30
0.0
 10
32.54411918276549
 20
12.46258057653904
 30
0.0
  0
SPLINE
  5
22E
330
1F
100
AcDbEntity
  8
0
  6
Continuous
 62
     1
370
    15
100
AcDbSpline
210
0.0
220
0.0
230
1.0
 70
     8
 71
     3
 72
    12
 73
     8
 74
     0
 42
0.000000001
 43
0.00000001
 40
0.0
 40
0.0
 40
0.0
 40
0.0
 40
0.0692444281130692
 40
0.3711561423328689
 40
0.6695033793204048
 40
0.967393829763173
 40
1.0
 40
1.0
 40
1.0
 40
1.0
 10
41.47828732782603
 20
-12.40888144820929
 30
0.0
 10
41.47018560154973
 20
-12.40522397396517
 30
0.0
 10
41.42675964580295
 20
-12.38561959469422
 30
0.0
 10
41.34724337276205
 20
-12.01850369237983
 30
0.0
 10
41.24474610584851
 20
-11.30777692385727
 30
0.0
 10
41.17351938133258
 20
-10.58128661320884
 30
0.0
 10
41.13500037976623
 20
-10.14423410336961
 30
0.0
 10
41.13120016807317
 20
-10.10111533105374
 30
0.0
  0
SPLINE
  5
22F
330
1F
100
AcDbEntity
  8
0
  6
Continuous
 62
     1
370
    15
100
AcDbSpline
210
0.0
220
0.0
230
1.0
 70
     8
 71
     3
 72
    11
 73
     7
 74
     0
 42
0.000000001
 43
0.00000001
 40
0.0
 40
0.0
 40
0.0
 40
0.0
 40
0.2707437503049868
 40
0.540986038510979
 40
0.8079055588382678
 40
1.0
 40
1.0
 40
1.0
 40
1.0
 10
30.9126133953929
 20
10.23459620773792
 30
0.0
 10
30.88130776725277
 20
10.56004140118981
 30
0.0
 10
30.81875449416138
 20
11.21032900989601
 30
0.0
 10
30.72492956098377
 20
11.88261011499595
 30
0.0
 10
30.64354708555301
 20
12.30016886597692
 30
0.0
 10
30.5920465562137
 20
12.39437976753793
 30
0.0
 10
30.57049391025306
 20
12.43380643427372
 30
0.0
  0
SPLINE
  5
230
330
1F
100
AcDbEntity
  8
0
  6
Continuous
 62
     1
370
    15
100
AcDbSpline
210
0.0
220
0.0
230
1.0
 70
     8
 71
     3
 72
    12
 73
     8
 74
     0
 42
0.000000001
 43
0.00000001
 40
0.0
 40
0.0
 40
0.0
 40
0.0
 40
0.2353242139979177
 40
0.4697822286047933
 40
0.7014322353405357
 40
0.958498527418252
 40
1.0
 40
1.0
 40
1.0
 40
1.0
 10
29.88250170999765
 20
10.55678818374872
 30
0.0
 10
29.85446774108564
 20
10.82735348503379
 30
0.0
 10
29.79850299284161
 20
11.3674881701196
 30
0.0
 10
29.71515109839289
 20
11.94144818078609
 30
0.0
 10
29.63211459246917
 20
12.32077034874461
 30
0.0
 10
29.57157360485893
 20
12.49533810369972
 30
0.0
 10
29.53613476228895
 20
12.46225606947341
 30
0.0
 10
29.53120869749785
 20
12.45765760540962
 30
0.0
  0
SPLINE
  5
231
330
1F
100
AcDbEntity
  8
0
  6
Continuous
 62
     1
370
    15
100
AcDbSpline
210
0.0
220
0.0
230
1.0
 70
     8
 71
     3
 72
    11
 73
     7
 74
     0
 42
0.000000001
 43
0.00000001
 40
0.0
 40
0.0
 40
0.0
 40
0.0
 40
0.1416438108966186
 40
0.4302250018811214
 40
0.7162125719647429
 40
1.0
 40
1.0
 40
1.0
 40
1.0
 10
42.52335232847929
 20
-12.43541482836008
 30
0.0
 10
42.50565390790072
 20
-12.44646351024405
 30
0.0
 10
42.45189721370763
 20
-12.48002247165736
 30
0.0
 10
42.36026942099586
 20
-12.1469585366891
 30
0.0
 10
42.25381671463139
 20
-11.49482354574613
 30
0.0
 10
42.18424283852773
 20
-10.78413183218547
 30
0.0
 10
42.14959022754432
 20
-10.43015811592341
 30
0.0
  0
SPLINE
  5
232
330
1F
100
AcDbEntity
  8
0
  6
Continuous
 62
     1
370
    15
100
AcDbSpline
210
0.0
220
0.0
230
1.0
 70
     8
 71
     3
 72
    10
 73
     6
 74
     0
 42
0.000000001
 43
0.00000001
 40
0.0
 40
0.0
 40
0.0
 40
0.0
 40
0.320903611671876
 40
0.6626667484862289
 40
0.9999999999999999
 40
0.9999999999999999
 40
0.9999999999999999
 40
0.9999999999999999
 10
43.49929084235429
 20
-12.45441846549511
 30
0.0
 10
43.46511415673607
 20
-12.40110694022267
 30
0.0
 10
43.39453921675745
 20
-12.2910185092291
 30
0.0
 10
43.28862998381189
 20
-11.70897581825672
 30
0.0
 10
43.21938856113305
 20
-11.05965209317103
 30
0.0
 10
43.18499368780851
 20
-10.73710806667805
 30
0.0
  0
SPLINE
  5
233
330
1F
100
AcDbEntity
  8
0
  6
Continuous
 62
     1
370
    15
100
AcDbSpline
210
0.0
220
0.0
230
1.0
 70
     8
 71
     3
 72
    10
 73
     6
 74
     0
 42
0.000000001
 43
0.00000001
 40
0.0
 40
0.0
 40
0.0
 40
0.0
 40
0.3567890939736277
 40
0.7091927929745896
 40
1.0
 40
1.0
 40
1.0
 40
1.0
 10
28.84642024689914
 20
10.86222007870674
 30
0.0
 10
28.80935128698973
 20
11.18034666684818
 30
0.0
 10
28.73566899216951
 20
11.81268965987749
 30
0.0
 10
28.63581730775445
 20
12.33556824169196
 30
0.0
 10
28.57098737617439
 20
12.41434227471807
 30
0.0
 10
28.54167659932375
 20
12.4499574303627
 30
0.0
  0
SPLINE
  5
234
330
1F
100
AcDbEntity
  8
0
  6
Continuous
 62
     1
370
    15
100
AcDbSpline
210
0.0
220
0.0
230
1.0
 70
     8
 71
     3
 72
    11
 73
     7
 74
     0
 42
0.000000001
 43
0.00000001
 40
0.0
 40
0.0
 40
0.0
 40
0.0
 40
0.0325261677870931
 40
0.3568431049036875
 40
0.680694390072858
 40
1.0
 40
1.0
 40
1.0
 40
1.0
 10
44.54201449805498
 20
-12.4557139351964
 30
0.0
 10
44.53851214358527
 20
-12.46258383657456
 30
0.0
 10
44.50008797226494
 20
-12.53795321160242
 30
0.0
 10
44.42377147361528
 20
-12.35381876418993
 30
0.0
 10
44.31667140626939
 20
-11.90497409268183
 30
0.0
 10
44.24822328113749
 20
-11.31500220963063
 30
0.0
 10
44.21424110585451
 20
-11.02210115641356
 30
0.0
  0
SPLINE
  5
235
330
1F
100
AcDbEntity
  8
0
  6
Continuous
 62
     1
370
    15
100
AcDbSpline
210
0.0
220
0.0
230
1.0
 70
     8
 71
     3
 72
    11
 73
     7
 74
     0
 42
0.000000001
 43
0.00000001
 40
0.0
 40
0.0
 40
0.0
 40
0.0
 40
0.2926620211641792
 40
0.5817169288004563
 40
0.8297142824932641
 40
0.9999999999999999
 40
0.9999999999999999
 40
0.9999999999999999
 40
0.9999999999999999
 10
27.82760829830169
 20
11.13572530448437
 30
0.0
 10
27.79569296381635
 20
11.39048915833667
 30
0.0
 10
27.73225565724479
 20
11.89687685443336
 30
0.0
 10
27.64494098874059
 20
12.30510346384703
 30
0.0
 10
27.57096109144371
 20
12.49472885485501
 30
0.0
 10
27.52554407642329
 20
12.46275920622502
 30
0.0
 10
27.50705451869965
 20
12.44974415749311
 30
0.0
  0
SPLINE
  5
236
330
1F
100
AcDbEntity
  8
0
  6
Continuous
 62
     1
370
    15
100
AcDbSpline
210
0.0
220
0.0
230
1.0
 70
     8
 71
     3
 72
    10
 73
     6
 74
     0
 42
0.000000001
 43
0.00000001
 40
0.0
 40
0.0
 40
0.0
 40
0.0
 40
0.2277112595594275
 40
0.6160587877629865
 40
1.0
 40
1.0
 40
1.0
 40
1.0
 10
45.50357525402308
 20
-12.43286114186049
 30
0.0
 10
45.48411960393799
 20
-12.42072759029526
 30
0.0
 10
45.43148354092669
 20
-12.38790101385368
 30
0.0
 10
45.34510340583324
 20
-12.02150751085821
 30
0.0
 10
45.28086268289811
 20
-11.53203620601719
 30
0.0
 10
45.24892558509111
 20
-11.28869690001011
 30
0.0
  0
SPLINE
  5
237
330
1F
100
AcDbEntity
  8
0
  6
Continuous
 62
     1
370
    15
100
AcDbSpline
210
0.0
220
0.0
230
1.0
 70
     8
 71
     3
 72
    10
 73
     6
 74
     0
 42
0.000000001
 43
0.00000001
 40
0.0
 40
0.0
 40
0.0
 40
0.0
 40
0.3311418305960301
 40
0.6583719002348809
 40
1.0
 40
1.0
 40
1.0
 40
1.0
 10
26.79156129413843
 20
11.38434465974569
 30
0.0
 10
26.76484792017047
 20
11.57764922823661
 30
0.0
 10
26.71173673591051
 20
11.9619748685593
 30
0.0
 10
26.63415174518705
 20
12.33134876973872
 30
0.0
 10
26.58156489772423
 20
12.41114688820134
 30
0.0
 10
26.55470547431707
 20
12.45190482586622
 30
0.0
  0
SPLINE
  5
238
330
1F
100
AcDbEntity
  8
0
  6
Continuous
 62
     1
370
    15
100
AcDbSpline
210
0.0
220
0.0
230
1.0
 70
     8
 71
     3
 72
    11
 73
     7
 74
     0
 42
0.000000001
 43
0.00000001
 40
0.0
 40
0.0
 40
0.0
 40
0.0
 40
0.2403514811059889
 40
0.4781173671632479
 40
0.8516929970725717
 40
1.0
 40
1.0
 40
1.0
 40
1.0
 10
25.76142632567881
 20
11.61039248108864
 30
0.0
 10
25.73990979283035
 20
11.75260868835315
 30
0.0
 10
25.69710819248802
 20
12.0355112037542
 30
0.0
 10
25.62340167596042
 20
12.34920665263611
 30
0.0
 10
25.55723240797752
 20
12.52065518715392
 30
0.0
 10
25.51012989684681
 20
12.44710814564398
 30
0.0
 10
25.49674444997309
 20
12.42620777338743
 30
0.0
  0
SPLINE
  5
239
330
1F
100
AcDbEntity
  8
0
  6
Continuous
 62
     1
370
    15
100
AcDbSpline
210
0.0
220
0.0
230
1.0
 70
     8
 71
     3
 72
    11
 73
     7
 74
     0
 42
0.000000001
 43
0.00000001
 40
0.0
 40
0.0
 40
0.0
 40
0.0
 40
0.0070810153120732
 40
0.3384601955736352
 40
0.6705614226481726
 40
1.0
 40
1.0
 40
1.0
 40
1.0
 10
46.54290889555215
 20
-12.46908213943243
 30
0.0
 10
46.54227080249476
 20
-12.47041596907092
 30
0.0
 10
46.51177106601951
 20
-12.53417070203041
 30
0.0
 10
46.44899069362929
 20
-12.42624053730078
 30
0.0
 10
46.35662963814875
 20
-12.14222280912498
 30
0.0
 10
46.29645987353475
 20
-11.72871993777049
 30
0.0
 10
46.26649608069659
 20
-11.52280066162348
 30
0.0
  0
SPLINE
  5
23A
330
1F
100
AcDbEntity
  8
0
  6
Continuous
 62
     1
370
    15
100
AcDbSpline
210
0.0
220
0.0
230
1.0
 70
     8
 71
     3
 72
     9
 73
     5
 74
     0
 42
0.000000001
 43
0.00000001
 40
0.0
 40
0.0
 40
0.0
 40
0.0
 40
0.4324720575077992
 40
1.0
 40
1.0
 40
1.0
 40
1.0
 10
47.49931757503747
 20
-12.43083644658327
 30
0.0
 10
47.47071537034943
 20
-12.40423328910476
 30
0.0
 10
47.40457883229686
 20
-12.34271912416235
 30
0.0
 10
47.33901070340551
 20
-11.95282201415576
 30
0.0
 10
47.30179895812273
 20
-11.73154450953007
 30
0.0
  0
SPLINE
  5
23B
330
1F
100
AcDbEntity
  8
0
  6
Continuous
 62
     1
370
    15
100
AcDbSpline
210
0.0
220
0.0
230
1.0
 70
     8
 71
     3
 72
     9
 73
     5
 74
     0
 42
0.000000001
 43
0.00000001
 40
0.0
 40
0.0
 40
0.0
 40
0.0
 40
0.5245580323197586
 40
1.0
 40
1.0
 40
1.0
 40
1.0
 10
24.72563077861069
 20
11.81664690375328
 30
0.0
 10
24.69360148169965
 20
12.00127886484013
 30
0.0
 10
24.63254189450888
 20
12.35325509951974
 30
0.0
 10
24.57127444635519
 20
12.41421562856067
 30
0.0
 10
24.54214533025025
 20
12.44319882243872
 30
0.0
  0
SPLINE
  5
23C
330
1F
100
AcDbEntity
  8
0
  6
Continuous
 62
     1
370
    15
100
AcDbSpline
210
0.0
220
0.0
230
1.0
 70
     8
 71
     3
 72
    10
 73
     6
 74
     0
 42
0.000000001
 43
0.00000001
 40
0.0
 40
0.0
 40
0.0
 40
0.0
 40
0.0611385234686524
 40
0.5306018823398109
 40
1.0
 40
1.0
 40
1.0
 40
1.0
 10
48.54942848140001
 20
-12.44884449988604
 30
0.0
 10
48.54509812666199
 20
-12.45774937685819
 30
0.0
 10
48.50751634933345
 20
-12.53503198388495
 30
0.0
 10
48.43365359328151
 20
-12.39967141596159
 30
0.0
 10
48.36559365738236
 20
-12.07801072634207
 30
0.0
 10
48.33156605416537
 20
-11.9171915575862
 30
0.0
  0
SPLINE
  5
23D
330
1F
100
AcDbEntity
  8
0
  6
Continuous
 62
     1
370
    15
100
AcDbSpline
210
0.0
220
0.0
230
1.0
 70
     8
 71
     3
 72
    10
 73
     6
 74
     0
 42
0.000000001
 43
0.00000001
 40
0.0
 40
0.0
 40
0.0
 40
0.0
 40
0.3324581738584667
 40
0.7701201756911068
 40
1.0
 40
1.0
 40
1.0
 40
1.0
 10
23.70738414281605
 20
11.98993623256683
 30
0.0
 10
23.68514221373025
 20
12.09808465886364
 30
0.0
 10
23.63362006844359
 20
12.34860424782063
 30
0.0
 10
23.56714865608137
 20
12.5072734108138
 30
0.0
 10
23.52101210079109
 20
12.45629636065918
 30
0.0
 10
23.50512416267395
 20
12.43874151259661
 30
0.0
  0
SPLINE
  5
23E
330
1F
100
AcDbEntity
  8
0
  6
Continuous
 62
     1
370
    15
100
AcDbSpline
210
0.0
220
0.0
230
1.0
 70
     8
 71
     3
 72
     9
 73
     5
 74
     0
 42
0.000000001
 43
0.00000001
 40
0.0
 40
0.0
 40
0.0
 40
0.0
 40
0.3029234198093705
 40
1.0
 40
1.0
 40
1.0
 40
1.0
 10
49.50007041150332
 20
-12.43456639349461
 30
0.0
 10
49.48671765739261
 20
-12.43022052349806
 30
0.0
 10
49.44263802129478
 20
-12.41587409231328
 30
0.0
 10
49.39827655709023
 20
-12.21913556416831
 30
0.0
 10
49.36735321933031
 20
-12.08199374377728
 30
0.0
  0
SPLINE
  5
23F
330
1F
100
AcDbEntity
  8
0
  6
Continuous
 62
     1
370
    15
100
AcDbSpline
210
0.0
220
0.0
230
1.0
 70
     8
 71
     3
 72
     9
 73
     5
 74
     0
 42
0.000000001
 43
0.00000001
 40
0.0
 40
0.0
 40
0.0
 40
0.0
 40
0.3244052972186796
 40
1.0
 40
1.0
 40
1.0
 40
1.0
 10
22.67209150993823
 20
12.13529519736767
 30
0.0
 10
22.65978696693772
 20
12.18973428045819
 30
0.0
 10
22.62185742908488
 20
12.35754622297966
 30
0.0
 10
22.58321733225475
 20
12.40547634854064
 30
0.0
 10
22.55711228752136
 20
12.4378576874733
 30
0.0
  0
SPLINE
  5
240
330
1F
100
AcDbEntity
  8
0
  6
Continuous
 62
     1
370
    15
100
AcDbSpline
210
0.0
220
0.0
230
1.0
 70
     8
 71
     3
 72
    10
 73
     6
 74
     0
 42
0.000000001
 43
0.00000001
 40
0.0
 40
0.0
 40
0.0
 40
0.0
 40
0.0567206799536236
 40
0.783240377623755
 40
1.0
 40
1.0
 40
1.0
 40
1.0
 10
21.64300427937507
 20
12.25723978132009
 30
0.0
 10
21.64037179993451
 20
12.26688189327495
 30
0.0
 10
21.60402061033665
 20
12.40002718375425
 30
0.0
 10
21.55665928397211
 20
12.52866042501102
 30
0.0
 10
21.51071029150625
 20
12.44874052866876
 30
0.0
 10
21.50015150362253
 20
12.43037544190883
 30
0.0
  0
SPLINE
  5
241
330
1F
100
AcDbEntity
  8
0
  6
Continuous
 62
     1
370
    15
100
AcDbSpline
210
0.0
220
0.0
230
1.0
 70
     8
 71
     3
 72
     9
 73
     5
 74
     0
 42
0.000000001
 43
0.00000001
 40
0.0
 40
0.0
 40
0.0
 40
0.0
 40
0.4774990480294709
 40
1.0
 40
1.0
 40
1.0
 40
1.0
 10
50.54379617029429
 20
-12.46334705501795
 30
0.0
 10
50.51881842256565
 20
-12.47072081941468
 30
0.0
 10
50.46650889895152
 20
-12.48616328872883
 30
0.0
 10
50.41359058736689
 20
-12.30719853124198
 30
0.0
 10
50.38594071918725
 20
-12.21368927508593
 30
0.0
  0
LINE
  5
242
330
1F
100
AcDbEntity
  8
0
  6
Continuous
 62
     1
370
    15
100
AcDbLine
 10
51.50224630886317
 20
-12.43369746953249
 30
0.0
 11
51.42204453402757
 21
-12.31651473790407
 31
0.0
  0
LINE
  5
243
330
1F
100
AcDbEntity
  8
0
  6
Continuous
 62
     1
370
    15
100
AcDbLine
 10
20.60832166278361
 20
12.35737558454275
 30
0.0
 11
20.57399984651804
 21
12.39534091820753
 31
0.0
  0
SPLINE
  5
244
330
1F
100
AcDbEntity
  8
0
  6
Continuous
 62
     1
370
    15
100
AcDbSpline
210
0.0
220
0.0
230
1.0
 70
     8
 71
     3
 72
     9
 73
     5
 74
     0
 42
0.000000001
 43
0.00000001
 40
0.0
 40
0.0
 40
0.0
 40
0.0
 40
0.009915099093639
 40
1.0
 40
1.0
 40
1.0
 40
1.0
 10
52.54634832197427
 20
-12.46738433837891
 30
0.0
 10
52.54604536961539
 20
-12.46800795003311
 30
0.0
 10
52.51549072199835
 20
-12.53090310098561
 30
0.0
 10
52.48377894805155
 20
-12.46312454534938
 30
0.0
 10
52.45238159948588
 20
-12.3960180208087
 30
0.0
  0
LINE
  5
247
330
1F
100
AcDbEntity
  8
0
  6
Continuous
 62
     8
370
    15
100
AcDbLine
 10
63.52888782674073
 20
12.47998420149088
 30
0.0
 11
63.50536261850593
 21
12.44394388049841
 31
0.0
  0
LINE
  5
248
330
1F
100
AcDbEntity
  8
중심선
100
AcDbLine
 10
-101.376002323091
 20
0.0000001534819569
 30
0.0
 11
79.02399956041576
 21
0.0000001534819571
 31
0.0
  0
CIRCLE
  5
249
330
1F
100
AcDbEntity
  8
외형선
100
AcDbCircle
 10
0.0
 20
0.0
 30
0.0
 40
6.000000000000008
  0
INSERT
  5
24A
330
1F
100
AcDbEntity
  8
0
  6
Continuous
 62
     7
100
AcDbBlockReference
 66
     1
  2
블럭10
 10
-16.63945112874702
 20
-52.04717430164393
 30
0.0
  0
ATTRIB
  5
24B
330
24A
100
AcDbEntity
  8
FORMAT
 62
     2
100
AcDbText
 10
-25.70707290932103
 20
-49.97180738881174
 30
0.0
 40
4.233333333333333
  1
E5E44064 [ 3 FLUTE ]
 41
0.75
  7
SLDTEXTSTYLE0
 11
-25.70707290932103
 21
-52.08847405547841
 31
0.0
100
AcDbAttribute
  2
AUTOATTR0
 70
     0
 74
     1
  0
SEQEND
  5
24C
330
24A
100
AcDbEntity
  8
0
  6
Continuous
 62
     7
  0
HATCH
  5
24D
330
1F
100
AcDbEntity
  8
중심선
100
AcDbHatch
 10
0.0
 20
0.0
 30
0.0
210
0.0
220
0.0
230
1.0
  2
SOLID
 70
     1
 71
     0
 91
        1
 92
        0
 93
        4
 72
     1
 10
-10.92454182436617
 20
-35.8
 11
-14.37081706820345
 21
-35.8
 72
     1
 10
-14.37081706820345
 20
-35.8
 11
-16.49904692740747
 21
-38.33632558057259
 72
     1
 10
-16.49904692740747
 20
-38.33632558057259
 11
-13.05273859845704
 21
-38.3362861512701
 72
     1
 10
-13.05273859845704
 20
-38.3362861512701
 11
-10.92454182436617
 21
-35.8
 97
        0
 75
     0
 76
     1
 98
        1
 10
0.0
 20
0.0
  0
HATCH
  5
24E
330
1F
100
AcDbEntity
  8
중심선
100
AcDbHatch
 10
0.0
 20
0.0
 30
0.0
210
0.0
220
0.0
230
1.0
  2
SOLID
 70
     1
 71
     0
 91
        1
 92
        0
 93
        4
 72
     1
 10
-5.911777833330217
 20
-35.8
 11
-9.358053077167499
 21
-35.8
 72
     1
 10
-9.358053077167499
 20
-35.8
 11
-13.88919108552489
 21
-41.20000000000002
 72
     1
 10
-13.88919108552489
 20
-41.20000000000002
 11
-10.44291584168761
 21
-41.20000000000002
 72
     1
 10
-10.44291584168761
 20
-41.20000000000002
 11
-5.911777833330217
 21
-35.8
 97
        0
 75
     0
 76
     1
 98
        1
 10
0.0
 20
0.0
  0
HATCH
  5
24F
330
1F
100
AcDbEntity
  8
중심선
100
AcDbHatch
 10
0.0
 20
0.0
 30
0.0
210
0.0
220
0.0
230
1.0
  2
SOLID
 70
     1
 71
     0
 91
        1
 92
        0
 93
        4
 72
     1
 10
-0.8990138422943217
 20
-35.80000000000003
 11
-4.345289086131437
 21
-35.8
 72
     1
 10
-4.345289086131437
 20
-35.8
 11
-11.39372598802069
 21
-44.20000000000002
 72
     1
 10
-11.39372598802069
 20
-44.20000000000002
 11
-7.947450744183405
 21
-44.20000000000002
 72
     1
 10
-7.947450744183405
 20
-44.20000000000002
 11
-0.8990138422943215
 21
-35.80000000000003
 97
        0
 75
     0
 76
     1
 98
        1
 10
0.0
 20
0.0
  0
HATCH
  5
250
330
1F
100
AcDbEntity
  8
중심선
100
AcDbHatch
 10
0.0
 20
0.0
 30
0.0
210
0.0
220
0.0
230
1.0
  2
SOLID
 70
     1
 71
     0
 91
        1
 92
        0
 93
        6
 72
     3
 10
3.900876588717877
 20
-40.00000000005127
 11
3.960054785062284
 21
1.540850780301639E-10
 40
0.3939339440162633
 50
17.09539180608433
 51
320.0019657685079
 73
     0
 72
     1
 10
5.583876244418473
 20
-38.5878940046383
 11
7.889178118119511
 21
-36.65356729459038
 72
     3
 10
3.900876588665031
 20
-40.00000000000015
 11
6.600054785286829
 21
-1.249000902703301E-13
 40
0.6363583540795982
 50
39.99873849337408
 51
368.4976242363724
 73
     1
 72
     1
 10
10.32620908056564
 20
-39.03999999993002
 11
2.580943895500953
 21
-39.03999999992999
 72
     1
 10
2.580943895500953
 20
-39.03999999992999
 11
2.58091885105502
 21
-40.95999999992991
 72
     1
 10
2.58091885105502
 20
-40.95999999992991
 11
7.022298620527057
 21
-40.95999999992988
 97
        0
 75
     0
 76
     1
 98
        1
 10
0.0
 20
0.0
  0
POINT
  5
251
330
1F
100
AcDbEntity
  8
치수문자_일반주서
100
AcDbPoint
 10
-0.0000000000000026
 20
-0.0000000000000078
 30
0.0
  0
DIMENSION
  5
252
330
1F
100
AcDbEntity
  8
치수문자_일반주서
100
AcDbDimension
  2
_D
 10
20.60832166278361
 20
39.39076919947174
 30
0.0
 11
39.62399984651803
 21
39.39076919947174
 31
0.0
 70
   160
  1
<>
 71
     2
 42
44.41567818373443
  3
SLDDIMSTYLE0
100
AcDbAlignedDimension
 13
65.02399984651804
 23
12.69999984651803
 33
0.0
 14
20.60832166278361
 24
2.386371086543615
 34
0.0
 50
-0.000000000000004
100
AcDbRotatedDimension
1001
ACAD
1000
DSTYLE
1002
{
1070
   171
1070
     6
1070
   273
1070
     7
1002
}
  0
DIMENSION
  5
268
102
{ACAD_XDICTIONARY
360
341
102
}
330
1F
100
AcDbEntity
  8
치수문자_일반주서
100
AcDbDimension
  2
_D_1
 10
-36.57600043958426
 20
54.44616380535132
 30
0.0
 11
-7.152894725472734
 21
54.44616380535132
 31
0.0
 70
   160
  1
<>
 71
     2
 42
101.6000002861023
  3
SLDDIMSTYLE1
100
AcDbAlignedDimension
 13
65.02399984651804
 23
12.69999984651803
 33
0.0
 14
-36.57600043958426
 24
11.69999968260526
 34
0.0
 50
0.0000000000000053
100
AcDbRotatedDimension
1001
ACAD
1000
DSTYLE
1002
{
1070
   171
1070
     6
1070
   273
1070
     7
1002
}
1001
ENABLE_CUSTOM_SPLIT
1070
     1
  0
DIMENSION
  5
27C
330
1F
100
AcDbEntity
  8
치수문자_일반주서
100
AcDbDimension
  2
_D_2
 10
-64.119993605597
 20
-12.69999984651815
 30
0.0
 11
-64.11999360559722
 21
52.59549999999988
 31
0.0
 70
   160
  1
%%c<>
 71
     2
 42
25.39999969303607
 52
-270.0
  3
SLDDIMSTYLE0
100
AcDbAlignedDimension
 13
-35.5759982699752
 23
12.69999984651804
 33
0.0
 14
-35.5759982699752
 24
-12.69999984651803
 34
0.0
 50
90.0000000000002
100
AcDbRotatedDimension
1001
ACAD
1000
DSTYLE
1002
{
1070
   171
1070
     6
1070
   273
1070
     7
1002
}
  0
INSERT
  5
296
330
1F
100
AcDbEntity
  8
외형선
100
AcDbBlockReference
  2
SW_DOWELSYMBOL_0
 10
0.0
 20
0.0
 30
0.0
 41
2.0
 42
2.0
 43
2.0
  0
DIMENSION
  5
2C0
330
1F
100
AcDbEntity
  8
치수문자_일반주서
100
AcDbDimension
  2
*D6
 10
99.42979736421802
 20
-12.69999984651804
 30
0.0
 11
99.42979736421802
 21
52.59549984651804
 31
0.0
 70
   160
  1
{%%c<>[]}
 71
     5
 42
25.39999969303608
  3
SLDDIMSTYLE0
100
AcDbAlignedDimension
 13
65.02399984651804
 23
12.69999984651803
 33
0.0
 14
65.02399984651804
 24
-12.69999984651804
 34
0.0
 50
90.0
100
AcDbRotatedDimension
1001
ACAD
1000
DSTYLE
1002
{
1070
   283
1070
     1
1070
   170
1070
     1
1070
   171
1070
     6
1070
   273
1070
     7
1002
}
  0
LINE
  5
319
330
1F
100
AcDbEntity
  8
0
  6
Continuous
 62
     4
370
    15
100
AcDbLine
 10
0.0000001534819596
 20
12.69999984651804
 30
0.0
 11
15.31640688643471
 21
12.69999984651804
 31
0.0
  0
SPLINE
  5
31B
330
1F
100
AcDbEntity
  8
0
  6
Continuous
 62
     1
370
    15
100
AcDbSpline
210
0.0
220
0.0
230
1.0
 70
     8
 71
     3
 72
    10
 73
     6
 74
     0
 42
0.000000001
 43
0.00000001
 40
0.0
 40
0.0
 40
0.0
 40
0.0
 40
0.2810530865479599
 40
0.5452785854526364
 40
1.0
 40
1.0
 40
1.0
 40
1.0
 10
21.51695217892062
 20
12.46605916407297
 30
0.0
 10
21.4345809863532
 20
12.41371109713875
 30
0.0
 10
21.27477043982304
 20
12.31214921699837
 30
0.0
 10
20.89577422769624
 20
12.2785607902119
 30
0.0
 10
20.69932596515044
 20
12.3894580144365
 30
0.0
 10
20.5750758568896
 20
12.45959857937286
 30
0.0
  0
LINE
  5
31D
330
1F
100
AcDbEntity
  8
0
  6
Continuous
 62
     4
370
    15
100
AcDbLine
 10
15.31640688643471
 20
12.69999984651804
 30
0.0
 11
20.60832166278361
 21
12.69999984651804
 31
0.0
  0
ENDSEC
  0
SECTION
  2
OBJECTS
  0
DICTIONARY
  5
C
330
0
100
AcDbDictionary
281
     1
  3
ACAD_DETAILVIEWSTYLE
350
316
  3
ACAD_GROUP
350
D
  3
ACAD_IMAGE_VARS
350
2BA
  3
ACAD_LAYOUT
350
1A
  3
ACAD_MLINESTYLE
350
17
  3
ACAD_PLOTSETTINGS
350
19
  3
ACAD_PLOTSTYLENAME
350
E
  3
ACAD_SCALELIST
350
47
  3
ACAD_SECTIONVIEWSTYLE
350
317
  3
AcDbVariableDictionary
350
311
  3
APPDATA
350
2B8
  3
DWGPROPS
350
346
  0
DICTIONARY
  5
344
330
1F
100
AcDbDictionary
280
     1
281
     1
  3
DIM_BOUNDING_BOXES_V1
360
345
  0
DICTIONARY
  5
341
330
268
100
AcDbDictionary
280
     1
281
     1
  3
ACAD_CUSTOM_BREAKDATA
360
342
  0
DICTIONARY
  5
316
102
{ACAD_REACTORS
330
C
102
}
330
C
100
AcDbDictionary
281
     1
  0
DICTIONARY
  5
D
102
{ACAD_REACTORS
330
C
102
}
330
C
100
AcDbDictionary
281
     1
  0
RASTERVARIABLES
  5
2BA
102
{ACAD_REACTORS
330
C
102
}
330
C
100
AcDbRasterVariables
 90
        0
 70
     1
 71
     1
 72
     1
  0
DICTIONARY
  5
1A
102
{ACAD_REACTORS
330
C
102
}
330
C
100
AcDbDictionary
281
     1
  3
Layout1
350
1E
  3
Layout2
350
26
  3
Model
350
22
  0
DICTIONARY
  5
17
102
{ACAD_REACTORS
330
C
102
}
330
C
100
AcDbDictionary
281
     1
  3
Standard
350
18
  0
DICTIONARY
  5
19
102
{ACAD_REACTORS
330
C
102
}
330
C
100
AcDbDictionary
281
     1
  0
ACDBDICTIONARYWDFLT
  5
E
102
{ACAD_REACTORS
330
C
102
}
330
C
100
AcDbDictionary
281
     1
  3
Normal
350
F
100
AcDbDictionaryWithDefault
340
F
  0
DICTIONARY
  5
47
102
{ACAD_REACTORS
330
C
102
}
330
C
100
AcDbDictionary
281
     1
  3
A0
350
48
  3
A1
350
49
  3
A2
350
4A
  3
A3
350
4B
  3
A4
350
4C
  3
A5
350
4D
  3
A6
350
4E
  3
A7
350
4F
  3
A8
350
50
  3
A9
350
51
  3
B0
350
52
  3
B1
350
53
  3
B2
350
54
  3
B3
350
55
  3
B4
350
56
  3
B5
350
57
  3
B6
350
58
  3
B7
350
59
  3
B8
350
5A
  3
B9
350
5B
  3
C0
350
5C
  3
C1
350
5D
  3
C2
350
5E
  3
C3
350
5F
  3
C4
350
60
  3
C5
350
61
  3
C6
350
62
  3
C7
350
63
  3
C8
350
64
  3
C9
350
65
  3
D0
350
66
  3
D1
350
67
  3
D2
350
68
  0
DICTIONARY
  5
317
102
{ACAD_REACTORS
330
C
102
}
330
C
100
AcDbDictionary
281
     1
  0
DICTIONARY
  5
311
102
{ACAD_REACTORS
330
C
102
}
330
C
100
AcDbDictionary
281
     1
  0
DICTIONARY
  5
2B8
102
{ACAD_REACTORS
330
C
102
}
330
C
100
AcDbDictionary
281
     1
  0
XRECORD
  5
346
102
{ACAD_REACTORS
330
C
102
}
330
C
100
AcDbXrecord
280
     1
  1
DWGPROPS COOKIE
  2

  3

  4

  6

  7

  8
12014102
  9

300
=
301
=
302
=
303
=
304
=
305
=
306
=
307
=
308
=
309
=
 40
0.0
 41
2458270.406788044
 42
2459720.371677187
  1

 90
        0
  0
DICTIONARY
  5
345
102
{ACAD_REACTORS
330
344
102
}
330
344
100
AcDbDictionary
281
     1
  0
BREAKDATA
  5
342
102
{ACAD_REACTORS
330
341
102
}
330
341
100
AcDbBreakData
 70
     0
330
268
 90
        1
100
AcDbBreakPointRef
 71
     0
 72
     0
 91
       -1
 10
0.0
 20
0.0
 30
0.0
 11
0.0
 21
0.0
 31
0.0
331
96
 73
     2
 92
        0
  0
LAYOUT
  5
1E
102
{ACAD_REACTORS
330
1A
102
}
330
1A
100
AcDbPlotSettings
  1

  2
none_device
  4

  6

 40
0.0
 41
0.0
 42
0.0
 43
0.0
 44
0.0
 45
0.0
 46
0.0
 47
0.0
 48
0.0
 49
0.0
140
0.0
141
0.0
142
1.0
143
1.0
 70
   688
 72
     1
 73
     0
 74
     5
  7

 75
    16
147
1.0
148
0.0
149
0.0
100
AcDbLayout
  1
Layout1
 70
     1
 71
     1
 10
0.0
 20
0.0
 11
420.0
 21
297.0
 12
0.0
 22
0.0
 32
0.0
 14
1.000000000000000E+20
 24
1.000000000000000E+20
 34
1.000000000000000E+20
 15
-1.000000000000000E+20
 25
-1.000000000000000E+20
 35
-1.000000000000000E+20
146
0.0
 13
0.0
 23
0.0
 33
0.0
 16
1.0
 26
0.0
 36
0.0
 17
0.0
 27
1.0
 37
0.0
 76
     0
330
1B
  0
LAYOUT
  5
26
102
{ACAD_REACTORS
330
1A
102
}
330
1A
100
AcDbPlotSettings
  1

  2
none_device
  4

  6

 40
0.0
 41
0.0
 42
0.0
 43
0.0
 44
0.0
 45
0.0
 46
0.0
 47
0.0
 48
0.0
 49
0.0
140
0.0
141
0.0
142
1.0
143
1.0
 70
   688
 72
     1
 73
     0
 74
     5
  7

 75
    16
147
1.0
148
0.0
149
0.0
100
AcDbLayout
  1
Layout2
 70
     1
 71
     2
 10
0.0
 20
0.0
 11
0.0
 21
0.0
 12
0.0
 22
0.0
 32
0.0
 14
0.0
 24
0.0
 34
0.0
 15
0.0
 25
0.0
 35
0.0
146
0.0
 13
0.0
 23
0.0
 33
0.0
 16
1.0
 26
0.0
 36
0.0
 17
0.0
 27
1.0
 37
0.0
 76
     0
330
23
  0
LAYOUT
  5
22
102
{ACAD_REACTORS
330
1A
102
}
330
1A
100
AcDbPlotSettings
  1

  2
none_device
  4
ANSI_A_(11.00_x_8.50_Inches)
  6

 40
6.35
 41
19.05
 42
6.35000508
 43
19.05000254
 44
279.4
 45
215.9
 46
154.1920544397954
 47
101.8331407099376
 48
0.0
 49
0.0
140
0.0
141
0.0
142
0.0800735294117647
143
1.0
 70
  1696
 72
     0
 73
     0
 74
     0
  7

 75
     0
147
0.0235690232323232
148
0.0
149
0.0
100
AcDbLayout
  1
Model
 70
     1
 71
     0
 10
0.0
 20
0.0
 11
420.0
 21
297.0
 12
0.0
 22
0.0
 32
0.0
 14
-101.376002323091
 24
-49.97180738881174
 34
0.0
 15
99.98013069755135
 25
63.75174999999988
 35
0.0
146
0.0
 13
0.0
 23
0.0
 33
0.0
 16
1.0
 26
0.0
 36
0.0
 17
0.0
 27
1.0
 37
0.0
 76
     0
330
1F
331
29
  0
MLINESTYLE
  5
18
102
{ACAD_REACTORS
330
17
102
}
330
17
100
AcDbMlineStyle
  2
Standard
 70
     0
  3

 62
   256
 51
90.0
 52
90.0
 71
     2
 49
0.5
 62
   256
  6
BYLAYER
 49
-0.5
 62
   256
  6
BYLAYER
  0
ACDBPLACEHOLDER
  5
F
102
{ACAD_REACTORS
330
E
102
}
330
E
  0
SCALE
  5
48
102
{ACAD_REACTORS
330
47
102
}
330
47
100
AcDbScale
 70
     0
300
1:1
140
1.0
141
1.0
290
     1
  0
SCALE
  5
49
102
{ACAD_REACTORS
330
47
102
}
330
47
100
AcDbScale
 70
     0
300
1:2
140
1.0
141
2.0
290
     0
  0
SCALE
  5
4A
102
{ACAD_REACTORS
330
47
102
}
330
47
100
AcDbScale
 70
     0
300
1:4
140
1.0
141
4.0
290
     0
  0
SCALE
  5
4B
102
{ACAD_REACTORS
330
47
102
}
330
47
100
AcDbScale
 70
     0
300
1:5
140
1.0
141
5.0
290
     0
  0
SCALE
  5
4C
102
{ACAD_REACTORS
330
47
102
}
330
47
100
AcDbScale
 70
     0
300
1:8
140
1.0
141
8.0
290
     0
  0
SCALE
  5
4D
102
{ACAD_REACTORS
330
47
102
}
330
47
100
AcDbScale
 70
     0
300
1:10
140
1.0
141
10.0
290
     0
  0
SCALE
  5
4E
102
{ACAD_REACTORS
330
47
102
}
330
47
100
AcDbScale
 70
     0
300
1:16
140
1.0
141
16.0
290
     0
  0
SCALE
  5
4F
102
{ACAD_REACTORS
330
47
102
}
330
47
100
AcDbScale
 70
     0
300
1:20
140
1.0
141
20.0
290
     0
  0
SCALE
  5
50
102
{ACAD_REACTORS
330
47
102
}
330
47
100
AcDbScale
 70
     0
300
1:30
140
1.0
141
30.0
290
     0
  0
SCALE
  5
51
102
{ACAD_REACTORS
330
47
102
}
330
47
100
AcDbScale
 70
     0
300
1:40
140
1.0
141
40.0
290
     0
  0
SCALE
  5
52
102
{ACAD_REACTORS
330
47
102
}
330
47
100
AcDbScale
 70
     0
300
1:50
140
1.0
141
50.0
290
     0
  0
SCALE
  5
53
102
{ACAD_REACTORS
330
47
102
}
330
47
100
AcDbScale
 70
     0
300
1:100
140
1.0
141
100.0
290
     0
  0
SCALE
  5
54
102
{ACAD_REACTORS
330
47
102
}
330
47
100
AcDbScale
 70
     0
300
2:1
140
2.0
141
1.0
290
     0
  0
SCALE
  5
55
102
{ACAD_REACTORS
330
47
102
}
330
47
100
AcDbScale
 70
     0
300
4:1
140
4.0
141
1.0
290
     0
  0
SCALE
  5
56
102
{ACAD_REACTORS
330
47
102
}
330
47
100
AcDbScale
 70
     0
300
8:1
140
8.0
141
1.0
290
     0
  0
SCALE
  5
57
102
{ACAD_REACTORS
330
47
102
}
330
47
100
AcDbScale
 70
     0
300
10:1
140
10.0
141
1.0
290
     0
  0
SCALE
  5
58
102
{ACAD_REACTORS
330
47
102
}
330
47
100
AcDbScale
 70
     0
300
100:1
140
100.0
141
1.0
290
     0
  0
SCALE
  5
59
102
{ACAD_REACTORS
330
47
102
}
330
47
100
AcDbScale
 70
     0
300
1/128" = 1'-0"
140
0.0078125
141
12.0
290
     0
  0
SCALE
  5
5A
102
{ACAD_REACTORS
330
47
102
}
330
47
100
AcDbScale
 70
     0
300
1/64" = 1'-0"
140
0.015625
141
12.0
290
     0
  0
SCALE
  5
5B
102
{ACAD_REACTORS
330
47
102
}
330
47
100
AcDbScale
 70
     0
300
1/32" = 1'-0"
140
0.03125
141
12.0
290
     0
  0
SCALE
  5
5C
102
{ACAD_REACTORS
330
47
102
}
330
47
100
AcDbScale
 70
     0
300
1/16" = 1'-0"
140
0.0625
141
12.0
290
     0
  0
SCALE
  5
5D
102
{ACAD_REACTORS
330
47
102
}
330
47
100
AcDbScale
 70
     0
300
3/32" = 1'-0"
140
0.09375
141
12.0
290
     0
  0
SCALE
  5
5E
102
{ACAD_REACTORS
330
47
102
}
330
47
100
AcDbScale
 70
     0
300
1/8" = 1'-0"
140
0.125
141
12.0
290
     0
  0
SCALE
  5
5F
102
{ACAD_REACTORS
330
47
102
}
330
47
100
AcDbScale
 70
     0
300
3/16" = 1'-0"
140
0.1875
141
12.0
290
     0
  0
SCALE
  5
60
102
{ACAD_REACTORS
330
47
102
}
330
47
100
AcDbScale
 70
     0
300
1/4" = 1'-0"
140
0.25
141
12.0
290
     0
  0
SCALE
  5
61
102
{ACAD_REACTORS
330
47
102
}
330
47
100
AcDbScale
 70
     0
300
3/8" = 1'-0"
140
0.375
141
12.0
290
     0
  0
SCALE
  5
62
102
{ACAD_REACTORS
330
47
102
}
330
47
100
AcDbScale
 70
     0
300
1/2" = 1'-0"
140
0.5
141
12.0
290
     0
  0
SCALE
  5
63
102
{ACAD_REACTORS
330
47
102
}
330
47
100
AcDbScale
 70
     0
300
3/4" = 1'-0"
140
0.75
141
12.0
290
     0
  0
SCALE
  5
64
102
{ACAD_REACTORS
330
47
102
}
330
47
100
AcDbScale
 70
     0
300
1" = 1'-0"
140
1.0
141
12.0
290
     0
  0
SCALE
  5
65
102
{ACAD_REACTORS
330
47
102
}
330
47
100
AcDbScale
 70
     0
300
1-1/2" = 1'-0"
140
1.5
141
12.0
290
     0
  0
SCALE
  5
66
102
{ACAD_REACTORS
330
47
102
}
330
47
100
AcDbScale
 70
     0
300
3" = 1'-0"
140
3.0
141
12.0
290
     0
  0
SCALE
  5
67
102
{ACAD_REACTORS
330
47
102
}
330
47
100
AcDbScale
 70
     0
300
6" = 1'-0"
140
6.0
141
12.0
290
     0
  0
SCALE
  5
68
102
{ACAD_REACTORS
330
47
102
}
330
47
100
AcDbScale
 70
     0
300
1'-0" = 1'-0"
140
12.0
141
12.0
290
     0
  0
ENDSEC
  0
EOF
