  0
SECTION
  2
HEADER
  9
$ACADVER
  1
AC1015
  9
$ACADMAINTVER
 70
     6
  9
$DWGCODEPAGE
  3
ANSI_949
  9
$INSBASE
 10
0.0
 20
0.0
 30
0.0
  9
$EXTMIN
 10
-58.19250000000007
 20
-50.28867796974447
 30
0.0
  9
$EXTMAX
 10
89.65129082238856
 20
54.54119365413038
 30
0.0
  9
$LIMMIN
 10
0.0
 20
0.0
  9
$LIMMAX
 10
420.0
 20
297.0
  9
$ORTHOMODE
 70
     1
  9
$REGENMODE
 70
     1
  9
$FILLMODE
 70
     1
  9
$QTEXTMODE
 70
     0
  9
$MIRRTEXT
 70
     1
  9
$LTSCALE
 40
1.0
  9
$ATTMODE
 70
     1
  9
$TEXTSIZE
 40
3.5
  9
$TRACEWID
 40
1.0
  9
$TEXTSTYLE
  7
Standard
  9
$CLAYER
  8
0
  9
$CELTYPE
  6
ByLayer
  9
$CECOLOR
 62
   256
  9
$CELTSCALE
 40
1.0
  9
$DISPSILH
 70
     0
  9
$DIMSCALE
 40
1.0
  9
$DIMASZ
 40
3.302
  9
$DIMEXO
 40
1.0
  9
$DIMDLI
 40
3.75
  9
$DIMRND
 40
0.0
  9
$DIMDLE
 40
0.0
  9
$DIMEXE
 40
1.0
  9
$DIMTP
 40
0.0
  9
$DIMTM
 40
0.0
  9
$DIMTXT
 40
3.5
  9
$DIMCEN
 40
2.5
  9
$DIMTSZ
 40
0.0
  9
$DIMTOL
 70
     0
  9
$DIMLIM
 70
     0
  9
$DIMTIH
 70
     1
  9
$DIMTOH
 70
     1
  9
$DIMSE1
 70
     0
  9
$DIMSE2
 70
     0
  9
$DIMTAD
 70
     1
  9
$DIMZIN
 70
     0
  9
$DIMBLK
  1

  9
$DIMASO
 70
     1
  9
$DIMSHO
 70
     1
  9
$DIMPOST
  1

  9
$DIMAPOST
  1

  9
$DIMALT
 70
     0
  9
$DIMALTD
 70
     3
  9
$DIMALTF
 40
0.0393700787401575
  9
$DIMLFAC
 40
1.0
  9
$DIMTOFL
 70
     1
  9
$DIMTVP
 40
0.0
  9
$DIMTIX
 70
     0
  9
$DIMSOXD
 70
     0
  9
$DIMSAH
 70
     0
  9
$DIMBLK1
  1

  9
$DIMBLK2
  1

  9
$DIMSTYLE
  2
ISO-25
  9
$DIMCLRD
 70
     0
  9
$DIMCLRE
 70
     0
  9
$DIMCLRT
 70
     0
  9
$DIMTFAC
 40
1.0
  9
$DIMGAP
 40
1.524
  9
$DIMJUST
 70
     0
  9
$DIMSD1
 70
     0
  9
$DIMSD2
 70
     0
  9
$DIMTOLJ
 70
     0
  9
$DIMTZIN
 70
     0
  9
$DIMALTZ
 70
     0
  9
$DIMALTTZ
 70
     0
  9
$DIMUPT
 70
     0
  9
$DIMDEC
 70
     2
  9
$DIMTDEC
 70
     2
  9
$DIMALTU
 70
     2
  9
$DIMALTTD
 70
     3
  9
$DIMTXSTY
  7
Standard
  9
$DIMAUNIT
 70
     0
  9
$DIMADEC
 70
     2
  9
$DIMALTRND
 40
0.0
  9
$DIMAZIN
 70
     0
  9
$DIMDSEP
 70
    44
  9
$DIMATFIT
 70
     3
  9
$DIMFRAC
 70
     0
  9
$DIMLDRBLK
  1

  9
$DIMLUNIT
 70
     2
  9
$DIMLWD
 70
    -2
  9
$DIMLWE
 70
    -2
  9
$DIMTMOVE
 70
     0
  9
$LUNITS
 70
     2
  9
$LUPREC
 70
     2
  9
$SKETCHINC
 40
1.0
  9
$FILLETRAD
 40
10.0
  9
$AUNITS
 70
     0
  9
$AUPREC
 70
     2
  9
$MENU
  1
.
  9
$ELEVATION
 40
0.0
  9
$PELEVATION
 40
0.0
  9
$THICKNESS
 40
0.0
  9
$LIMCHECK
 70
     0
  9
$CHAMFERA
 40
0.0
  9
$CHAMFERB
 40
0.0
  9
$CHAMFERC
 40
0.0
  9
$CHAMFERD
 40
0.0
  9
$SKPOLY
 70
     0
  9
$TDCREATE
 40
2458299.350895243
  9
$TDUCREATE
 40
2458298.975895243
  9
$TDUPDATE
 40
2458311.692893981
  9
$TDUUPDATE
 40
2458311.317893981
  9
$TDINDWG
 40
0.016227338
  9
$TDUSRTIMER
 40
2458311.316041817
  9
$USRTIMER
 70
     1
  9
$ANGBASE
 50
0.0
  9
$ANGDIR
 70
     0
  9
$PDMODE
 70
     0
  9
$PDSIZE
 40
-1.0
  9
$PLINEWID
 40
0.0
  9
$SPLFRAME
 70
     0
  9
$SPLINETYPE
 70
     6
  9
$SPLINESEGS
 70
     8
  9
$HANDSEED
  5
2AC
  9
$SURFTAB1
 70
     6
  9
$SURFTAB2
 70
     6
  9
$SURFTYPE
 70
     6
  9
$SURFU
 70
     6
  9
$SURFV
 70
     6
  9
$UCSBASE
  2

  9
$UCSNAME
  2

  9
$UCSORG
 10
0.0
 20
0.0
 30
0.0
  9
$UCSXDIR
 10
1.0
 20
0.0
 30
0.0
  9
$UCSYDIR
 10
0.0
 20
1.0
 30
0.0
  9
$UCSORTHOREF
  2

  9
$UCSORTHOVIEW
 70
     0
  9
$UCSORGTOP
 10
0.0
 20
0.0
 30
0.0
  9
$UCSORGBOTTOM
 10
0.0
 20
0.0
 30
0.0
  9
$UCSORGLEFT
 10
0.0
 20
0.0
 30
0.0
  9
$UCSORGRIGHT
 10
0.0
 20
0.0
 30
0.0
  9
$UCSORGFRONT
 10
0.0
 20
0.0
 30
0.0
  9
$UCSORGBACK
 10
0.0
 20
0.0
 30
0.0
  9
$PUCSBASE
  2

  9
$PUCSNAME
  2

  9
$PUCSORG
 10
0.0
 20
0.0
 30
0.0
  9
$PUCSXDIR
 10
1.0
 20
0.0
 30
0.0
  9
$PUCSYDIR
 10
0.0
 20
1.0
 30
0.0
  9
$PUCSORTHOREF
  2

  9
$PUCSORTHOVIEW
 70
     0
  9
$PUCSORGTOP
 10
0.0
 20
0.0
 30
0.0
  9
$PUCSORGBOTTOM
 10
0.0
 20
0.0
 30
0.0
  9
$PUCSORGLEFT
 10
0.0
 20
0.0
 30
0.0
  9
$PUCSORGRIGHT
 10
0.0
 20
0.0
 30
0.0
  9
$PUCSORGFRONT
 10
0.0
 20
0.0
 30
0.0
  9
$PUCSORGBACK
 10
0.0
 20
0.0
 30
0.0
  9
$USERI1
 70
     0
  9
$USERI2
 70
     0
  9
$USERI3
 70
     0
  9
$USERI4
 70
     0
  9
$USERI5
 70
     0
  9
$USERR1
 40
0.0
  9
$USERR2
 40
0.0
  9
$USERR3
 40
0.0
  9
$USERR4
 40
0.0
  9
$USERR5
 40
0.0
  9
$WORLDVIEW
 70
     1
  9
$SHADEDGE
 70
     3
  9
$SHADEDIF
 70
    70
  9
$TILEMODE
 70
     1
  9
$MAXACTVP
 70
    64
  9
$PINSBASE
 10
0.0
 20
0.0
 30
0.0
  9
$PLIMCHECK
 70
     0
  9
$PEXTMIN
 10
1.000000000000000E+20
 20
1.000000000000000E+20
 30
1.000000000000000E+20
  9
$PEXTMAX
 10
-1.000000000000000E+20
 20
-1.000000000000000E+20
 30
-1.000000000000000E+20
  9
$PLIMMIN
 10
0.0
 20
0.0
  9
$PLIMMAX
 10
0.0
 20
0.0
  9
$UNITMODE
 70
     0
  9
$VISRETAIN
 70
     1
  9
$PLINEGEN
 70
     0
  9
$PSLTSCALE
 70
     1
  9
$TREEDEPTH
 70
  3020
  9
$CMLSTYLE
  2
Standard
  9
$CMLJUST
 70
     0
  9
$CMLSCALE
 40
20.0
  9
$PROXYGRAPHICS
 70
     1
  9
$MEASUREMENT
 70
     1
  9
$CELWEIGHT
370
    -1
  9
$ENDCAPS
280
     0
  9
$JOINSTYLE
280
     0
  9
$LWDISPLAY
290
     1
  9
$INSUNITS
 70
     4
  9
$HYPERLINKBASE
  1

  9
$STYLESHEET
  1

  9
$XEDIT
290
     1
  9
$CEPSNTYPE
380
     0
  9
$PSTYLEMODE
290
     1
  9
$FINGERPRINTGUID
  2
{5EF76DE8-C6DD-4A4F-9B81-46A72B4BA541}
  9
$VERSIONGUID
  2
{FAEB1C32-E019-11D5-929B-00C0DF256EC4}
  9
$EXTNAMES
290
     1
  9
$PSVPSCALE
 40
0.0
  9
$OLESTARTUP
290
     0
  0
ENDSEC
  0
SECTION
  2
CLASSES
  0
CLASS
  1
ACDBDICTIONARYWDFLT
  2
AcDbDictionaryWithDefault
  3
ObjectDBX Classes
 90
        0
280
     0
281
     0
  0
CLASS
  1
VISUALSTYLE
  2
AcDbVisualStyle
  3
ObjectDBX Classes
 90
     4095
280
     0
281
     0
  0
CLASS
  1
MATERIAL
  2
AcDbMaterial
  3
ObjectDBX Classes
 90
     1153
280
     0
281
     0
  0
CLASS
  1
SCALE
  2
AcDbScale
  3
ObjectDBX Classes
 90
     1153
280
     0
281
     0
  0
CLASS
  1
SUN
  2
AcDbSun
  3
SCENEOE
 90
     1153
280
     0
281
     0
  0
CLASS
  1
ACDBPLACEHOLDER
  2
AcDbPlaceHolder
  3
ObjectDBX Classes
 90
        0
280
     0
281
     0
  0
CLASS
  1
LAYOUT
  2
AcDbLayout
  3
ObjectDBX Classes
 90
        0
280
     0
281
     0
  0
CLASS
  1
TABLESTYLE
  2
AcDbTableStyle
  3
ObjectDBX Classes
 90
     4095
280
     0
281
     0
  0
CLASS
  1
MLEADERSTYLE
  2
AcDbMLeaderStyle
  3
ACDB_MLEADERSTYLE_CLASS
 90
     4095
280
     0
281
     0
  0
CLASS
  1
RASTERVARIABLES
  2
AcDbRasterVariables
  3
ISM
 90
        0
280
     0
281
     0
  0
CLASS
  1
DICTIONARYVAR
  2
AcDbDictionaryVar
  3
ObjectDBX Classes
 90
        0
280
     0
281
     0
  0
ENDSEC
  0
SECTION
  2
TABLES
  0
TABLE
  2
VPORT
  5
8
330
0
100
AcDbSymbolTable
 70
     1
  0
VPORT
  5
29
330
8
100
AcDbSymbolTableRecord
100
AcDbViewportTableRecord
  2
*Active
 70
     0
 10
0.0
 20
0.0
 11
1.0
 21
1.0
 12
3.787667075404869
 22
-21.60003948013257
 13
0.0
 23
0.0
 14
10.0
 24
10.0
 15
10.0
 25
10.0
 16
0.0
 26
0.0
 36
1.0
 17
0.0
 27
0.0
 37
0.0
 40
206.1543474813546
 41
1.387755102040816
 42
50.0
 43
0.0
 44
0.0
 50
0.0
 51
0.0
 71
    16
 72
  2000
 73
     1
 74
     3
 75
     0
 76
     0
 77
     0
 78
     0
281
     0
 65
     1
110
0.0
120
0.0
130
0.0
111
1.0
121
0.0
131
0.0
112
0.0
122
1.0
132
0.0
 79
     0
146
0.0
  0
ENDTAB
  0
TABLE
  2
LTYPE
  5
5
330
0
100
AcDbSymbolTable
 70
     6
  0
LTYPE
  5
14
330
5
100
AcDbSymbolTableRecord
100
AcDbLinetypeTableRecord
  2
ByBlock
 70
     0
  3

 72
    65
 73
     0
 40
0.0
  0
LTYPE
  5
15
330
5
100
AcDbSymbolTableRecord
100
AcDbLinetypeTableRecord
  2
ByLayer
 70
     0
  3

 72
    65
 73
     0
 40
0.0
  0
LTYPE
  5
16
330
5
100
AcDbSymbolTableRecord
100
AcDbLinetypeTableRecord
  2
Continuous
 70
     0
  3
Solid line
 72
    65
 73
     0
 40
0.0
  0
LTYPE
  5
6A
330
5
100
AcDbSymbolTableRecord
100
AcDbLinetypeTableRecord
  2
HIDDEN
 70
     0
  3
Hidden __ __ __ __ __ __ __ __ __ __ __ __ __ __
 72
    65
 73
     2
 40
1.905
 49
1.27
 74
     0
 49
-0.635
 74
     0
  0
LTYPE
  5
6B
330
5
100
AcDbSymbolTableRecord
100
AcDbLinetypeTableRecord
  2
PHANTOM
 70
     0
  3
Phantom ______  __  __  ______  __  __  ______
 72
    65
 73
     6
 40
12.7
 49
6.35
 74
     0
 49
-1.27
 74
     0
 49
1.27
 74
     0
 49
-1.27
 74
     0
 49
1.27
 74
     0
 49
-1.27
 74
     0
  0
LTYPE
  5
6C
330
5
100
AcDbSymbolTableRecord
100
AcDbLinetypeTableRecord
  2
CENTER
 70
     0
  3
Center ____ _ ____ _ ____ _ ____ _ ____ _ ____
 72
    65
 73
     4
 40
10.16
 49
6.35
 74
     0
 49
-1.27
 74
     0
 49
1.27
 74
     0
 49
-1.27
 74
     0
  0
LTYPE
  5
6D
330
5
100
AcDbSymbolTableRecord
100
AcDbLinetypeTableRecord
  2
CENTERX2
 70
     0
  3
Center (2x) ________  __  ________  __  _____
 72
    65
 73
     4
 40
20.32
 49
12.7
 74
     0
 49
-2.54
 74
     0
 49
2.54
 74
     0
 49
-2.54
 74
     0
  0
LTYPE
  5
6E
330
5
100
AcDbSymbolTableRecord
100
AcDbLinetypeTableRecord
  2
DOT2
 70
     0
  3
Dot (.5x) ........................................
 72
    65
 73
     2
 40
0.635
 49
0.0
 74
     0
 49
-0.635
 74
     0
  0
ENDTAB
  0
TABLE
  2
LAYER
  5
2
330
0
100
AcDbSymbolTable
 70
    18
  0
LAYER
  5
10
330
2
100
AcDbSymbolTableRecord
100
AcDbLayerTableRecord
  2
0
 70
     0
 62
     7
  6
Continuous
370
    -3
390
F
  0
LAYER
  5
6F
330
2
100
AcDbSymbolTableRecord
100
AcDbLayerTableRecord
  2
FORMAT
 70
     0
 62
     2
  6
Continuous
370
    -3
390
F
  0
LAYER
  5
70
330
2
100
AcDbSymbolTableRecord
100
AcDbLayerTableRecord
  2
외형선
 70
     0
 62
     4
  6
Continuous
370
    30
390
F
  0
LAYER
  5
71
330
2
100
AcDbSymbolTableRecord
100
AcDbLayerTableRecord
  2
숨은선
 70
     0
 62
     2
  6
HIDDEN
370
    15
390
F
  0
LAYER
  5
72
330
2
100
AcDbSymbolTableRecord
100
AcDbLayerTableRecord
  2
중심선
 70
     0
 62
     1
  6
CENTERX2
370
    -3
390
F
  0
LAYER
  5
73
330
2
100
AcDbSymbolTableRecord
100
AcDbLayerTableRecord
  2
파단선
 70
     0
 62
     4
  6
Continuous
370
    -3
390
F
  0
LAYER
  5
74
330
2
100
AcDbSymbolTableRecord
100
AcDbLayerTableRecord
  2
해칭선
 70
     0
 62
   100
  6
Continuous
370
    -3
390
F
  0
LAYER
  5
75
330
2
100
AcDbSymbolTableRecord
100
AcDbLayerTableRecord
  2
가는실선
 70
     0
 62
     4
  6
Continuous
370
    -3
390
F
  0
LAYER
  5
76
330
2
100
AcDbSymbolTableRecord
100
AcDbLayerTableRecord
  2
치수_보조선
 70
     0
 62
     4
  6
Continuous
370
    -3
390
F
  0
LAYER
  5
77
330
2
100
AcDbSymbolTableRecord
100
AcDbLayerTableRecord
  2
치수문자_일반주서
 70
     0
 62
     7
  6
Continuous
370
    15
390
F
  0
LAYER
  5
78
330
2
100
AcDbSymbolTableRecord
100
AcDbLayerTableRecord
  2
개별주서
 70
     0
 62
   100
  6
Continuous
370
    30
390
F
  0
LAYER
  5
79
330
2
100
AcDbSymbolTableRecord
100
AcDbLayerTableRecord
  2
중간선
 70
     0
 62
     2
  6
Continuous
370
    15
390
F
  0
LAYER
  5
7A
330
2
100
AcDbSymbolTableRecord
100
AcDbLayerTableRecord
  2
윤곽선
 70
     0
 62
     3
  6
Continuous
370
    40
390
F
  0
LAYER
  5
7B
330
2
100
AcDbSymbolTableRecord
100
AcDbLayerTableRecord
  2
중심마크
 70
     0
 62
   100
  6
Continuous
370
    30
390
F
  0
LAYER
  5
7C
330
2
100
AcDbSymbolTableRecord
100
AcDbLayerTableRecord
  2
가상선
 70
     0
 62
     4
  6
PHANTOM
370
    -3
390
F
  0
LAYER
  5
7D
330
2
100
AcDbSymbolTableRecord
100
AcDbLayerTableRecord
  2
특수지정선
 70
     0
 62
     5
  6
CENTERX2
370
    60
390
F
  0
LAYER
  5
7E
330
2
100
AcDbSymbolTableRecord
100
AcDbLayerTableRecord
  2
참조1
 70
     0
 62
    -4
  6
Continuous
370
    -3
390
F
  0
LAYER
  5
24B
330
2
100
AcDbSymbolTableRecord
100
AcDbLayerTableRecord
  2
Defpoints
 70
     0
 62
     7
  6
Continuous
290
     0
370
    -3
390
F
  0
ENDTAB
  0
TABLE
  2
STYLE
  5
3
330
0
100
AcDbSymbolTable
 70
     2
  0
STYLE
  5
11
330
3
100
AcDbSymbolTableRecord
100
AcDbTextStyleTableRecord
  2
Standard
 70
     0
 40
0.0
 41
1.0
 50
0.0
 71
     0
 42
3.5
  3
txt
  4

  0
STYLE
  5
94
330
3
100
AcDbSymbolTableRecord
100
AcDbTextStyleTableRecord
  2
SLDTEXTSTYLE0
 70
     0
 40
0.0
 41
0.75
 50
0.0
 71
     0
 42
3.5
  3
TXT
  4

  0
ENDTAB
  0
TABLE
  2
VIEW
  5
6
330
0
100
AcDbSymbolTable
 70
     0
  0
ENDTAB
  0
TABLE
  2
UCS
  5
7
330
0
100
AcDbSymbolTable
 70
     0
  0
ENDTAB
  0
TABLE
  2
APPID
  5
9
330
0
100
AcDbSymbolTable
 70
     1
  0
APPID
  5
12
330
9
100
AcDbSymbolTableRecord
100
AcDbRegAppTableRecord
  2
ACAD
 70
     0
  0
ENDTAB
  0
TABLE
  2
DIMSTYLE
  5
A
330
0
100
AcDbSymbolTable
 70
     4
100
AcDbDimStyleTable
  0
DIMSTYLE
105
27
330
A
100
AcDbSymbolTableRecord
100
AcDbDimStyleTableRecord
  2
ISO-25
 70
     0
 41
2.5
 42
0.625
 43
3.75
 44
1.25
 73
     0
 74
     0
 77
     1
 78
     8
140
2.5
141
2.5
143
0.03937007874016
147
0.625
171
     3
172
     1
178
     0
271
     2
272
     2
274
     3
278
    44
283
     0
284
     8
340
11
  0
DIMSTYLE
105
1CA
102
{ACAD_REACTORS
330
1C9
330
1F1
102
}
330
A
100
AcDbSymbolTableRecord
100
AcDbDimStyleTableRecord
  2
SLDDIMSTYLE0
 70
     0
 41
3.302
 44
0.0
 45
0.000000001
 73
     0
 74
     0
 77
     1
 78
    12
 79
     3
140
3.5
143
0.0393700787401575
147
0.875
148
0.000000001
170
     1
173
     1
178
     0
271
     2
272
     2
276
     2
284
    12
340
94
  0
DIMSTYLE
105
1DD
102
{ACAD_REACTORS
330
1DC
102
}
330
A
100
AcDbSymbolTableRecord
100
AcDbDimStyleTableRecord
  2
SLDDIMSTYLE1
 70
     0
 41
3.302
 44
0.0
 45
0.000000001
 73
     0
 74
     0
 77
     1
 78
    12
 79
     3
140
3.5
143
0.0393700787401575
147
0.875
148
0.000000001
170
     1
172
     1
173
     1
178
     0
271
     2
272
     2
276
     2
284
    12
289
     0
340
94
  0
DIMSTYLE
105
206
102
{ACAD_REACTORS
330
205
102
}
330
A
100
AcDbSymbolTableRecord
100
AcDbDimStyleTableRecord
  2
SLDDIMSTYLE2
 70
     0
 41
3.302
 44
0.0
 45
0.000000001
 73
     0
 74
     0
 77
     1
 78
     4
 79
     1
140
3.5
143
0.0393700787401575
147
0.875
148
0.000000001
170
     1
173
     1
178
     0
271
     2
272
     2
276
     2
284
    12
340
94
  0
ENDTAB
  0
TABLE
  2
BLOCK_RECORD
  5
1
330
0
100
AcDbSymbolTable
 70
     7
  0
BLOCK_RECORD
  5
1F
330
1
100
AcDbSymbolTableRecord
100
AcDbBlockTableRecord
  2
*Model_Space
340
22
  0
BLOCK_RECORD
  5
1B
330
1
100
AcDbSymbolTableRecord
100
AcDbBlockTableRecord
  2
*Paper_Space
340
1E
  0
BLOCK_RECORD
  5
23
330
1
100
AcDbSymbolTableRecord
100
AcDbBlockTableRecord
  2
*Paper_Space0
340
26
  0
BLOCK_RECORD
  5
7F
330
1
100
AcDbSymbolTableRecord
100
AcDbBlockTableRecord
  2
블럭10
340
0
102
{BLKREFS
331
1C1
102
}
  0
BLOCK_RECORD
  5
1CB
330
1
100
AcDbSymbolTableRecord
100
AcDbBlockTableRecord
  2
_D
340
0
  0
BLOCK_RECORD
  5
1DE
330
1
100
AcDbSymbolTableRecord
100
AcDbBlockTableRecord
  2
_D_1
340
0
  0
BLOCK_RECORD
  5
1F2
330
1
100
AcDbSymbolTableRecord
100
AcDbBlockTableRecord
  2
_D_2
340
0
  0
BLOCK_RECORD
  5
207
330
1
100
AcDbSymbolTableRecord
100
AcDbBlockTableRecord
  2
_D_3
340
0
  0
BLOCK_RECORD
  5
220
330
1
100
AcDbSymbolTableRecord
100
AcDbBlockTableRecord
  2
SW_DOWELSYMBOL_0
340
0
102
{BLKREFS
331
226
102
}
  0
ENDTAB
  0
ENDSEC
  0
SECTION
  2
BLOCKS
  0
BLOCK
  5
20
330
1F
100
AcDbEntity
  8
0
100
AcDbBlockBegin
  2
*Model_Space
 70
     0
 10
0.0
 20
0.0
 30
0.0
  3
*Model_Space
  1
*Model_Space
  0
ENDBLK
  5
21
330
1F
100
AcDbEntity
  8
0
100
AcDbBlockEnd
  0
BLOCK
  5
1C
330
1B
100
AcDbEntity
 67
     1
  8
0
100
AcDbBlockBegin
  2
*Paper_Space
 70
     0
 10
0.0
 20
0.0
 30
0.0
  3
*Paper_Space
  1
*Paper_Space
  0
ENDBLK
  5
1D
330
1B
100
AcDbEntity
 67
     1
  8
0
100
AcDbBlockEnd
  0
BLOCK
  5
24
330
23
100
AcDbEntity
  8
0
100
AcDbBlockBegin
  2
*Paper_Space0
 70
     0
 10
0.0
 20
0.0
 30
0.0
  3
*Paper_Space0
  1
*Paper_Space0
  0
ENDBLK
  5
25
330
23
100
AcDbEntity
  8
0
100
AcDbBlockEnd
  0
BLOCK
  5
80
330
7F
100
AcDbEntity
  8
0
100
AcDbBlockBegin
  2
블럭10
 70
     2
 10
0.0
 20
0.0
 30
0.0
  3
블럭10
  1
블럭10
  0
ELLIPSE
  5
82
330
7F
100
AcDbEntity
  8
중심선
100
AcDbEllipse
 10
20.54032771741204
 20
12.0471743016438
 30
0.0
 11
6.600054785286829
 21
-1.261213355974178E-13
 31
0.0
210
0.0
220
0.0
230
1.0
 40
0.636358354079598
 41
0.9219305317359503
 42
6.513795318482858
  0
ELLIPSE
  5
83
330
7F
100
AcDbEntity
  8
중심선
100
AcDbEllipse
 10
20.54032771746488
 20
12.04717430159265
 30
0.0
 11
3.960054785062283
 21
1.540847449632565E-10
 31
0.0
210
0.0
220
0.0
230
1.0
 40
0.3939339440162632
 41
1.131841032648279
 42
5.62031148352944
  0
LINE
  5
84
330
7F
100
AcDbEntity
  8
중심선
100
AcDbLine
 10
2.268634060543552
 20
16.24717430164393
 30
0.0
 11
5.714909304380834
 21
16.24717430164393
 31
0.0
  0
LINE
  5
85
330
7F
100
AcDbEntity
  8
중심선
100
AcDbLine
 10
5.245725140726316
 20
7.84717430164391
 30
0.0
 11
8.692000384563599
 21
7.84717430164391
 31
0.0
  0
LINE
  5
86
330
7F
100
AcDbEntity
  8
중심선
100
AcDbLine
 10
15.74043728645272
 20
16.24717430164393
 30
0.0
 11
8.692000384563599
 21
7.84717430164391
 31
0.0
  0
LINE
  5
87
330
7F
100
AcDbEntity
  8
중심선
100
AcDbLine
 10
0.1404042013395286
 20
13.71084872107135
 30
0.0
 11
3.58671253028996
 21
13.71088815037384
 31
0.0
  0
LINE
  5
88
330
7F
100
AcDbEntity
  8
중심선
100
AcDbLine
 10
2.750260043222114
 20
10.84717430164391
 30
0.0
 11
6.196535287059397
 21
10.84717430164391
 31
0.0
  0
LINE
  5
89
330
7F
100
AcDbEntity
  8
중심선
100
AcDbLine
 10
12.29416204261559
 20
16.24717430164393
 30
0.0
 11
5.245725140726316
 21
7.84717430164391
 31
0.0
  0
LINE
  5
8A
330
7F
100
AcDbEntity
  8
중심선
100
AcDbLine
 10
10.72767329541681
 20
16.24717430164393
 30
0.0
 11
6.196535287059397
 21
10.84717430164391
 31
0.0
  0
LINE
  5
8B
330
7F
100
AcDbEntity
  8
중심선
100
AcDbLine
 10
7.28139805157953
 20
16.24717430164393
 30
0.0
 11
2.750260043222114
 21
10.84717430164391
 31
0.0
  0
LINE
  5
8C
330
7F
100
AcDbEntity
  8
중심선
100
AcDbLine
 10
5.714909304380834
 20
16.24717430164393
 30
0.0
 11
3.58671253028996
 21
13.71088815037384
 31
0.0
  0
LINE
  5
8D
330
7F
100
AcDbEntity
  8
중심선
100
AcDbLine
 10
2.268634060543552
 20
16.24717430164393
 30
0.0
 11
0.1404042013395286
 21
13.71084872107135
 31
0.0
  0
LINE
  5
8E
330
7F
100
AcDbEntity
  8
중심선
100
AcDbLine
 10
7.28139805157953
 20
16.24717430164393
 30
0.0
 11
10.72767329541681
 21
16.24717430164393
 31
0.0
  0
LINE
  5
8F
330
7F
100
AcDbEntity
  8
중심선
100
AcDbLine
 10
12.29416204261559
 20
16.24717430164393
 30
0.0
 11
15.74043728645272
 21
16.24717430164393
 31
0.0
  0
LINE
  5
90
330
7F
100
AcDbEntity
  8
중심선
100
AcDbLine
 10
19.22036997980202
 20
11.08717430171403
 30
0.0
 11
23.66174974927406
 21
11.08717430171406
 31
0.0
  0
LINE
  5
91
330
7F
100
AcDbEntity
  8
중심선
100
AcDbLine
 10
19.22039502424796
 20
13.00717430171391
 30
0.0
 11
19.22036997980202
 21
11.08717430171403
 31
0.0
  0
LINE
  5
92
330
7F
100
AcDbEntity
  8
중심선
100
AcDbLine
 10
19.22039502424796
 20
13.00717430171391
 30
0.0
 11
26.96566020931264
 21
13.00717430171391
 31
0.0
  0
LINE
  5
93
330
7F
100
AcDbEntity
  8
중심선
100
AcDbLine
 10
22.22332737316547
 20
13.45928029700563
 30
0.0
 11
24.52862924686651
 21
15.39360700705356
 31
0.0
  0
ATTDEF
  5
95
330
7F
100
AcDbEntity
  8
FORMAT
 62
     2
100
AcDbText
 10
-10.14163601213663
 20
2.075366912832191
 30
0.0
 40
4.233333333333333
  1
EM156024 [ 3 FLUTE ]
 41
0.75
  7
SLDTEXTSTYLE0
 11
-10.14163601213663
 21
-0.0412997538344756
 31
0.0
100
AcDbAttributeDefinition
  3

  2
AUTOATTR0
 70
     0
 74
     1
  0
ENDBLK
  5
81
330
7F
100
AcDbEntity
  8
0
100
AcDbBlockEnd
  0
BLOCK
  5
1CC
330
1CB
100
AcDbEntity
  8
0
100
AcDbBlockBegin
  2
_D
 70
     0
 10
0.0
 20
0.0
 30
0.0
  3
_D
  1
_D
  0
LINE
  5
1CE
330
1CB
100
AcDbEntity
  8
치수문자_일반주서
 62
     0
370
    -2
100
AcDbLine
 10
35.46249999999998
 20
6.350000000000006
 30
0.0
 11
54.19334672766242
 21
6.350000000000076
 31
0.0
  0
LINE
  5
1CF
330
1CB
100
AcDbEntity
  8
치수문자_일반주서
 62
     0
370
    -2
100
AcDbLine
 10
35.46249999999999
 20
-6.349999999999993
 30
0.0
 11
54.19334672766246
 21
-6.34999999999992
 31
0.0
  0
LINE
  5
1D0
330
1CB
100
AcDbEntity
  8
치수문자_일반주서
 62
     0
370
    -2
100
AcDbLine
 10
54.19334672766242
 20
6.350000000000076
 30
0.0
 11
54.1933467276623
 21
40.79433333333348
 31
0.0
  0
LINE
  5
1D1
330
1CB
100
AcDbEntity
  8
치수문자_일반주서
 62
     0
370
    -2
100
AcDbLine
 10
54.19334672766243
 20
3.048000000000076
 30
0.0
 11
54.19334672766244
 21
-3.04799999999992
 31
0.0
  0
SOLID
  5
1D2
330
1CB
100
AcDbEntity
  8
치수문자_일반주서
 62
     0
100
AcDbTrace
 10
54.74368006099576
 20
3.048000000000078
 30
0.0
 11
53.6430133943291
 21
3.048000000000074
 31
0.0
 12
54.19334672766242
 22
6.350000000000076
 32
0.0
 13
54.19334672766242
 23
6.350000000000076
 33
0.0
  0
SOLID
  5
1D3
330
1CB
100
AcDbEntity
  8
치수문자_일반주서
 62
     0
100
AcDbTrace
 10
53.64301339432911
 20
-3.047999999999921
 30
0.0
 11
54.74368006099578
 21
-3.047999999999918
 31
0.0
 12
54.19334672766246
 22
-6.34999999999992
 32
0.0
 13
54.19334672766246
 23
-6.34999999999992
 33
0.0
  0
MTEXT
  5
1D4
330
1CB
100
AcDbEntity
  8
치수문자_일반주서
 62
     0
100
AcDbMText
 10
49.81834672766234
 20
28.54433333333347
 30
0.0
 40
3.5
 41
0.0
 71
     2
 72
     1
  1
\A1;%%c12.7 [1/2]
  7
SLDTEXTSTYLE0
 11
-3.356894814614647E-15
 21
1.0
 31
0.0
 73
     1
 44
1.0
  0
POINT
  5
1D5
330
1CB
100
AcDbEntity
  8
Defpoints
 62
     0
100
AcDbPoint
 10
35.39999999999998
 20
6.350000000000006
 30
0.0
  0
POINT
  5
1D6
330
1CB
100
AcDbEntity
  8
Defpoints
 62
     0
100
AcDbPoint
 10
35.39999999999999
 20
-6.349999999999993
 30
0.0
  0
POINT
  5
1D7
330
1CB
100
AcDbEntity
  8
Defpoints
 62
     0
100
AcDbPoint
 10
54.19334672766246
 20
-6.349999999999922
 30
0.0
  0
ENDBLK
  5
1CD
330
1CB
100
AcDbEntity
  8
0
100
AcDbBlockEnd
  0
BLOCK
  5
1DF
330
1DE
100
AcDbEntity
  8
0
100
AcDbBlockBegin
  2
_D_1
 70
     0
 10
0.0
 20
0.0
 30
0.0
  3
_D_1
  1
_D_1
  0
LINE
  5
1E1
330
1DE
100
AcDbEntity
  8
치수문자_일반주서
 62
     0
370
    -2
100
AcDbLine
 10
-39.46666666666668
 20
6.350000000000008
 30
0.0
 11
-53.81750000000006
 21
6.349999999999954
 31
0.0
  0
LINE
  5
1E2
330
1DE
100
AcDbEntity
  8
치수문자_일반주서
 62
     0
370
    -2
100
AcDbLine
 10
-39.46666666666668
 20
-6.349999999999982
 30
0.0
 11
-53.81750000000002
 21
-6.350000000000035
 31
0.0
  0
LINE
  5
1E3
330
1DE
100
AcDbEntity
  8
치수문자_일반주서
 62
     0
370
    -2
100
AcDbLine
 10
-53.81750000000005
 20
3.047999999999954
 30
0.0
 11
-53.81750000000003
 21
-3.048000000000035
 31
0.0
  0
SOLID
  5
1E4
330
1DE
100
AcDbEntity
  8
치수문자_일반주서
 62
     0
100
AcDbTrace
 10
-53.26716666666671
 20
3.047999999999956
 30
0.0
 11
-54.36783333333338
 21
3.047999999999953
 31
0.0
 12
-53.81750000000006
 22
6.349999999999954
 32
0.0
 13
-53.81750000000006
 23
6.349999999999954
 33
0.0
  0
SOLID
  5
1E5
330
1DE
100
AcDbEntity
  8
치수문자_일반주서
 62
     0
100
AcDbTrace
 10
-54.36783333333337
 20
-3.048000000000037
 30
0.0
 11
-53.2671666666667
 21
-3.048000000000033
 31
0.0
 12
-53.81750000000002
 22
-6.350000000000035
 32
0.0
 13
-53.81750000000002
 23
-6.350000000000035
 33
0.0
  0
MTEXT
  5
1E6
330
1DE
100
AcDbEntity
  8
치수문자_일반주서
 62
     0
100
AcDbMText
 10
-58.19250000000004
 20
-1.017344347620614
 30
0.0
 40
3.5
 41
0.0
 71
     2
 72
     1
  1
\A1;%%c12.7 [1/2]
  7
SLDTEXTSTYLE0
 11
-3.356894814614649E-15
 21
1.0
 31
0.0
 73
     1
 44
1.0
  0
POINT
  5
1E7
330
1DE
100
AcDbEntity
  8
Defpoints
 62
     0
100
AcDbPoint
 10
-39.40416666666668
 20
6.350000000000008
 30
0.0
  0
POINT
  5
1E8
330
1DE
100
AcDbEntity
  8
Defpoints
 62
     0
100
AcDbPoint
 10
-39.40416666666668
 20
-6.349999999999982
 30
0.0
  0
POINT
  5
1E9
330
1DE
100
AcDbEntity
  8
Defpoints
 62
     0
100
AcDbPoint
 10
-53.81750000000002
 20
-6.350000000000036
 30
0.0
  0
ENDBLK
  5
1E0
330
1DE
100
AcDbEntity
  8
0
100
AcDbBlockEnd
  0
BLOCK
  5
1F3
330
1F2
100
AcDbEntity
  8
0
100
AcDbBlockBegin
  2
_D_2
 70
     0
 10
0.0
 20
0.0
 30
0.0
  3
_D_2
  1
_D_2
  0
LINE
  5
1F5
330
1F2
100
AcDbEntity
  8
치수문자_일반주서
 62
     0
370
    -2
100
AcDbLine
 10
35.39999999999998
 20
4.174150175188986
 30
0.0
 11
35.39999999999998
 21
27.21527039202649
 31
0.0
  0
LINE
  5
1F6
330
1F2
100
AcDbEntity
  8
치수문자_일반주서
 62
     0
370
    -2
100
AcDbLine
 10
9.999999999999993
 20
6.412499999999991
 30
0.0
 11
9.999999999999993
 21
27.21527039202649
 31
0.0
  0
LINE
  5
1F7
330
1F2
100
AcDbEntity
  8
치수문자_일반주서
 62
     0
370
    -2
100
AcDbLine
 10
32.09799999999998
 20
27.21527039202649
 30
0.0
 11
13.30199999999999
 21
27.21527039202649
 31
0.0
  0
SOLID
  5
1F8
330
1F2
100
AcDbEntity
  8
치수문자_일반주서
 62
     0
100
AcDbTrace
 10
32.09799999999998
 20
26.66493705869316
 30
0.0
 11
32.09799999999998
 21
27.76560372535983
 31
0.0
 12
35.39999999999998
 22
27.21527039202649
 32
0.0
 13
35.39999999999998
 23
27.21527039202649
 33
0.0
  0
SOLID
  5
1F9
330
1F2
100
AcDbEntity
  8
치수문자_일반주서
 62
     0
100
AcDbTrace
 10
13.30199999999999
 20
27.76560372535983
 30
0.0
 11
13.30199999999999
 21
26.66493705869316
 31
0.0
 12
9.999999999999993
 22
27.21527039202649
 32
0.0
 13
9.999999999999993
 23
27.21527039202649
 33
0.0
  0
MTEXT
  5
1FA
330
1F2
100
AcDbEntity
  8
치수문자_일반주서
 62
     0
100
AcDbMText
 10
22.69999999999999
 20
31.59027039202649
 30
0.0
 40
3.5
 41
0.0
 71
     2
 72
     1
  1
\A1;25.4 [1]
  7
SLDTEXTSTYLE0
 73
     1
 44
1.0
  0
POINT
  5
1FB
330
1F2
100
AcDbEntity
  8
Defpoints
 62
     0
100
AcDbPoint
 10
35.39999999999998
 20
4.111650175188986
 30
0.0
  0
POINT
  5
1FC
330
1F2
100
AcDbEntity
  8
Defpoints
 62
     0
100
AcDbPoint
 10
9.999999999999993
 20
6.349999999999991
 30
0.0
  0
POINT
  5
1FD
330
1F2
100
AcDbEntity
  8
Defpoints
 62
     0
100
AcDbPoint
 10
9.999999999999993
 20
27.21527039202649
 30
0.0
  0
ENDBLK
  5
1F4
330
1F2
100
AcDbEntity
  8
0
100
AcDbBlockEnd
  0
BLOCK
  5
208
330
207
100
AcDbEntity
  8
0
100
AcDbBlockBegin
  2
_D_3
 70
     0
 10
0.0
 20
0.0
 30
0.0
  3
_D_3
  1
_D_3
  0
LINE
  5
20A
330
207
100
AcDbEntity
  8
치수문자_일반주서
 62
     0
370
    -2
100
AcDbLine
 10
35.39999999999998
 20
4.898853435965125
 30
0.0
 11
35.39999999999998
 21
50.16619365413038
 31
0.0
  0
LINE
  5
20B
330
207
100
AcDbEntity
  8
치수문자_일반주서
 62
     0
370
    -2
100
AcDbLine
 10
-40.80000000000002
 20
5.079166666666659
 30
0.0
 11
-40.80000000000002
 21
50.16619365413038
 31
0.0
  0
LINE
  5
20C
330
207
100
AcDbEntity
  8
치수문자_일반주서
 62
     0
370
    -2
100
AcDbLine
 10
32.09799999999998
 20
50.16619365413038
 30
0.0
 11
-37.49800000000002
 21
50.16619365413038
 31
0.0
  0
SOLID
  5
20D
330
207
100
AcDbEntity
  8
치수문자_일반주서
 62
     0
100
AcDbTrace
 10
32.09799999999998
 20
49.61586032079705
 30
0.0
 11
32.09799999999998
 21
50.71652698746372
 31
0.0
 12
35.39999999999998
 22
50.16619365413038
 32
0.0
 13
35.39999999999998
 23
50.16619365413038
 33
0.0
  0
SOLID
  5
20E
330
207
100
AcDbEntity
  8
치수문자_일반주서
 62
     0
100
AcDbTrace
 10
-37.49800000000002
 20
50.71652698746372
 30
0.0
 11
-37.49800000000002
 21
49.61586032079705
 31
0.0
 12
-40.80000000000002
 22
50.16619365413038
 32
0.0
 13
-40.80000000000002
 23
50.16619365413038
 33
0.0
  0
MTEXT
  5
20F
330
207
100
AcDbEntity
  8
치수문자_일반주서
 62
     0
100
AcDbMText
 10
-3.231617699069937
 20
54.54119365413038
 30
0.0
 40
3.5
 41
0.0
 71
     2
 72
     1
  1
\A1;76.20 [3]
  7
SLDTEXTSTYLE0
 73
     1
 44
1.0
  0
POINT
  5
210
330
207
100
AcDbEntity
  8
Defpoints
 62
     0
100
AcDbPoint
 10
35.39999999999998
 20
4.836353435965125
 30
0.0
  0
POINT
  5
211
330
207
100
AcDbEntity
  8
Defpoints
 62
     0
100
AcDbPoint
 10
-40.80000000000002
 20
5.016666666666659
 30
0.0
  0
POINT
  5
212
330
207
100
AcDbEntity
  8
Defpoints
 62
     0
100
AcDbPoint
 10
-40.80000000000002
 20
50.16619365413038
 30
0.0
  0
ENDBLK
  5
209
330
207
100
AcDbEntity
  8
0
100
AcDbBlockEnd
  0
BLOCK
  5
221
330
220
100
AcDbEntity
  8
0
100
AcDbBlockBegin
  2
SW_DOWELSYMBOL_0
 70
     0
 10
0.0
 20
0.0
 30
0.0
  3
SW_DOWELSYMBOL_0
  1
SW_DOWELSYMBOL_0
  0
CIRCLE
  5
223
330
220
100
AcDbEntity
  8
해칭선
 62
     0
100
AcDbCircle
 10
0.0
 20
0.0
 30
0.0
 40
3.000000000000004
  0
HATCH
  5
224
330
220
100
AcDbEntity
  8
0
  6
Continuous
 62
     0
370
     0
100
AcDbHatch
 10
0.0
 20
0.0
 30
0.0
210
0.0
220
0.0
230
1.0
  2
SOLID
 70
     1
 71
     0
 91
        1
 92
        0
 93
        3
 72
     2
 10
0.0000000000000104
 20
-0.0000000000000035
 40
3.000000000000004
 50
0.0
 51
90.0
 73
     1
 72
     1
 10
0.0000000000000104
 20
3.000000000000001
 11
0.0000000000000104
 21
-0.0000000000000036
 72
     1
 10
0.0000000000000104
 20
-0.0000000000000035
 11
3.000000000000015
 21
-0.0000000000000035
 97
        0
 75
     0
 76
     1
 98
        1
 10
0.0
 20
0.0
  0
HATCH
  5
225
330
220
100
AcDbEntity
  8
0
  6
Continuous
 62
     0
370
     0
100
AcDbHatch
 10
0.0
 20
0.0
 30
0.0
210
0.0
220
0.0
230
1.0
  2
SOLID
 70
     1
 71
     0
 91
        1
 92
        0
 93
        3
 72
     2
 10
0.0000000000000104
 20
-0.0000000000000035
 40
3.000000000000004
 50
180.0
 51
270.0000000000007
 73
     1
 72
     1
 10
0.0000000000000104
 20
-3.000000000000008
 11
0.0000000000000104
 21
-0.0000000000000036
 72
     1
 10
0.0000000000000104
 20
-0.0000000000000035
 11
-2.999999999999994
 21
-0.0000000000000035
 97
        0
 75
     0
 76
     1
 98
        1
 10
0.0
 20
0.0
  0
ENDBLK
  5
222
330
220
100
AcDbEntity
  8
0
100
AcDbBlockEnd
  0
ENDSEC
  0
SECTION
  2
ENTITIES
  0
LINE
  5
96
330
1F
100
AcDbEntity
  8
외형선
  6
Continuous
370
    15
100
AcDbLine
 10
9.999999999999993
 20
6.349999999999985
 30
0.0
 11
-39.46666666666668
 21
6.349999999999978
 31
0.0
  0
LINE
  5
97
330
1F
100
AcDbEntity
  8
외형선
  6
Continuous
370
    15
100
AcDbLine
 10
-39.46666666666667
 20
-6.350000000000004
 30
0.0
 11
9.999999999999993
 21
-6.349999999999997
 31
0.0
  0
LINE
  5
98
330
1F
100
AcDbEntity
  8
외형선
  6
Continuous
370
    15
100
AcDbLine
 10
-39.46666666666668
 20
6.349999999999987
 30
0.0
 11
-40.80000000000002
 21
5.016666666666659
 31
0.0
  0
LINE
  5
99
330
1F
100
AcDbEntity
  8
외형선
  6
Continuous
370
    15
100
AcDbLine
 10
-40.80000000000002
 20
-5.01666666666666
 30
0.0
 11
-39.46666666666668
 21
-6.349999999999993
 31
0.0
  0
SPLINE
  5
9A
330
1F
100
AcDbEntity
  8
외형선
  6
Continuous
 62
     1
370
    15
100
AcDbSpline
210
0.0
220
0.0
230
1.0
 70
     8
 71
     3
 72
     9
 73
     5
 74
     0
 42
0.000000001
 43
0.00000001
 40
0.0
 40
0.0
 40
0.0
 40
0.0
 40
0.2525306192613339
 40
0.9999999999999999
 40
0.9999999999999999
 40
0.9999999999999999
 40
0.9999999999999999
 10
15.58287970240185
 20
-6.169445469304457
 30
0.0
 10
15.60350942127021
 20
-6.17398291250908
 30
0.0
 10
15.68520137184917
 20
-6.191950805740782
 30
0.0
 10
15.74480908901409
 20
-6.236525920285426
 30
0.0
 10
15.7893640324506
 20
-6.26984445355047
 30
0.0
  0
LINE
  5
9B
330
1F
100
AcDbEntity
  8
외형선
  6
Continuous
 62
     1
370
    15
100
AcDbLine
 10
16.03606362310012
 20
-6.349999999999998
 30
0.0
 11
17.4498019673028
 21
-6.349999999999998
 31
0.0
  0
SPLINE
  5
9C
330
1F
100
AcDbEntity
  8
외형선
  6
Continuous
 62
     1
370
    15
100
AcDbSpline
210
0.0
220
0.0
230
1.0
 70
     8
 71
     3
 72
     9
 73
     5
 74
     0
 42
0.000000001
 43
0.00000001
 40
0.0
 40
0.0
 40
0.0
 40
0.0
 40
0.4985632956629031
 40
1.0
 40
1.0
 40
1.0
 40
1.0
 10
15.78936436485053
 20
-6.269844714044976
 30
0.0
 10
15.82458671189518
 20
-6.292965197268481
 30
0.0
 10
15.89523440568056
 20
-6.339339415797269
 30
0.0
 10
15.97711208577147
 20
-6.346439671287185
 30
0.0
 10
16.01816855983501
 20
-6.35
 30
0.0
  0
SPLINE
  5
A0
330
1F
100
AcDbEntity
  8
외형선
  6
Continuous
 62
     1
370
    15
100
AcDbSpline
210
0.0
220
0.0
230
1.0
 70
     8
 71
     3
 72
     9
 73
     5
 74
     0
 42
0.000000001
 43
0.00000001
 40
0.0
 40
0.0
 40
0.0
 40
0.0
 40
0.5016424317447656
 40
1.0
 40
1.0
 40
1.0
 40
1.0
 10
17.45179926898256
 20
-6.349948522128749
 30
0.0
 10
17.49134921513649
 20
-6.346493459678912
 30
0.0
 10
17.57019012581542
 20
-6.339605959277839
 30
0.0
 10
17.63778543713321
 20
-6.296275133118202
 30
0.0
 10
17.671472072107
 20
-6.274680887962793
 30
0.0
  0
SPLINE
  5
A1
330
1F
100
AcDbEntity
  8
외형선
  6
Continuous
 62
     1
370
    15
100
AcDbSpline
210
0.0
220
0.0
230
1.0
 70
     8
 71
     3
 72
    11
 73
     7
 74
     0
 42
0.000000001
 43
0.00000001
 40
0.0
 40
0.0
 40
0.0
 40
0.0
 40
0.2445955317804439
 40
0.4999465975032778
 40
0.7553203505911168
 40
1.0
 40
1.0
 40
1.0
 40
1.0
 10
17.66289522706399
 20
-6.278038631048358
 30
0.0
 10
17.72108754843521
 20
-6.239416646391151
 30
0.0
 10
17.84003106657142
 20
-6.160474362868468
 30
0.0
 10
18.06086023848436
 20
-6.124149418785636
 30
0.0
 10
18.28168383866613
 20
-6.157542653793089
 30
0.0
 10
18.40055542478101
 20
-6.234281203181971
 30
0.0
 10
18.45872012853075
 20
-6.271829915513235
 30
0.0
  0
SPLINE
  5
A3
330
1F
100
AcDbEntity
  8
외형선
  6
Continuous
 62
     1
370
    15
100
AcDbSpline
210
0.0
220
0.0
230
1.0
 70
     8
 71
     3
 72
     9
 73
     5
 74
     0
 42
0.000000001
 43
0.00000001
 40
0.0
 40
0.0
 40
0.0
 40
0.0
 40
0.4985632191734577
 40
1.0
 40
1.0
 40
1.0
 40
1.0
 10
18.456066669349
 20
-6.269872620983052
 30
0.0
 10
18.49128408756502
 20
-6.292985608088612
 30
0.0
 10
18.56192190612374
 20
-6.339344798290968
 30
0.0
 10
18.64378987122321
 20
-6.3464414680709
 30
0.0
 10
18.68484148009551
 20
-6.349999999319937
 30
0.0
  0
LINE
  5
A4
330
1F
100
AcDbEntity
  8
외형선
  6
Continuous
 62
     1
370
    15
100
AcDbLine
 10
18.68476320425301
 20
-6.349999999999998
 30
0.0
 11
20.11654955543831
 21
-6.349999999999998
 31
0.0
  0
SPLINE
  5
A6
330
1F
100
AcDbEntity
  8
외형선
  6
Continuous
 62
     1
370
    15
100
AcDbSpline
210
0.0
220
0.0
230
1.0
 70
     8
 71
     3
 72
     9
 73
     5
 74
     0
 42
0.000000001
 43
0.00000001
 40
0.0
 40
0.0
 40
0.0
 40
0.0
 40
0.5021242565836328
 40
1.0
 40
1.0
 40
1.0
 40
1.0
 10
20.11674546779167
 20
-6.349999999995836
 30
0.0
 10
20.15772600907629
 20
-6.346464904514018
 30
0.0
 10
20.23934035203485
 20
-6.339424624273683
 30
0.0
 10
20.30990998954949
 20
-6.293147403032834
 30
0.0
 10
20.34504490028971
 20
-6.2701070971043
 30
0.0
  0
SPLINE
  5
A7
330
1F
100
AcDbEntity
  8
외형선
  6
Continuous
 62
     1
370
    15
100
AcDbSpline
210
0.0
220
0.0
230
1.0
 70
     8
 71
     3
 72
    11
 73
     7
 74
     0
 42
0.000000001
 43
0.00000001
 40
0.0
 40
0.0
 40
0.0
 40
0.0
 40
0.2165312519261956
 40
0.4577969990583248
 40
0.7219531014986543
 40
1.0
 40
1.0
 40
1.0
 40
1.0
 10
20.34871949357761
 20
-6.266987858747858
 30
0.0
 10
20.39183250734295
 20
-6.238174656650162
 30
0.0
 10
20.48298336037949
 20
-6.177256903040715
 30
0.0
 10
20.68213253415276
 20
-6.126947913295973
 30
0.0
 10
20.91819139524742
 20
-6.143996713268068
 30
0.0
 10
21.05326531191862
 20
-6.227099100263255
 30
0.0
 10
21.12253251171947
 20
-6.269714801249678
 30
0.0
  0
SPLINE
  5
A8
330
1F
100
AcDbEntity
  8
외형선
  6
Continuous
 62
     1
370
    15
100
AcDbSpline
210
0.0
220
0.0
230
1.0
 70
     8
 71
     3
 72
     9
 73
     5
 74
     0
 42
0.000000001
 43
0.00000001
 40
0.0
 40
0.0
 40
0.0
 40
0.0
 40
0.4985634289951677
 40
1.0
 40
1.0
 40
1.0
 40
1.0
 10
21.12270551033517
 20
-6.269850835181489
 30
0.0
 10
21.15792927783717
 20
-6.292971154245356
 30
0.0
 10
21.22857980182965
 20
-6.339345031106848
 30
0.0
 10
21.31046029687158
 20
-6.346441544200154
 30
0.0
 10
21.35151817153758
 20
-6.349999995391753
 30
0.0
  0
LINE
  5
A9
330
1F
100
AcDbEntity
  8
외형선
  6
Continuous
 62
     1
370
    15
100
AcDbLine
 10
21.35150113602603
 20
-6.349999999999998
 30
0.0
 11
22.78306245828966
 21
-6.349999999999998
 31
0.0
  0
SPLINE
  5
AA
330
1F
100
AcDbEntity
  8
외형선
  6
Continuous
 62
     1
370
    15
100
AcDbSpline
210
0.0
220
0.0
230
1.0
 70
     8
 71
     3
 72
     9
 73
     5
 74
     0
 42
0.000000001
 43
0.00000001
 40
0.0
 40
0.0
 40
0.0
 40
0.0
 40
0.5021235492446573
 40
1.0
 40
1.0
 40
1.0
 40
1.0
 10
22.78342023875524
 20
-6.349999998991539
 30
0.0
 10
22.82439787900954
 20
-6.346464399882814
 30
0.0
 10
22.90600655941486
 20
-6.339423106730871
 30
0.0
 10
22.97657025382043
 20
-6.293151792255569
 30
0.0
 10
23.01170225554327
 20
-6.270114394432821
 30
0.0
  0
SPLINE
  5
AB
330
1F
100
AcDbEntity
  8
외형선
  6
Continuous
 62
     1
370
    15
100
AcDbSpline
210
0.0
220
0.0
230
1.0
 70
     8
 71
     3
 72
    11
 73
     7
 74
     0
 42
0.000000001
 43
0.00000001
 40
0.0
 40
0.0
 40
0.0
 40
0.0
 40
0.2075981081028182
 40
0.4465939248728411
 40
0.7134321827231339
 40
1.0
 40
1.0
 40
1.0
 40
1.0
 10
23.01460864304094
 20
-6.267687769055672
 30
0.0
 10
23.05998409816322
 20
-6.237668594711169
 30
0.0
 10
23.15759771700175
 20
-6.1730900635556
 30
0.0
 10
23.3577164291579
 20
-6.126466635562233
 30
0.0
 10
23.59105016212767
 20
-6.146904098035252
 30
0.0
 10
23.71961673693588
 20
-6.226152013930937
 30
0.0
 10
23.7861917970472
 20
-6.267188611291656
 30
0.0
  0
SPLINE
  5
AC
330
1F
100
AcDbEntity
  8
외형선
  6
Continuous
 62
     1
370
    15
100
AcDbSpline
210
0.0
220
0.0
230
1.0
 70
     8
 71
     3
 72
     9
 73
     5
 74
     0
 42
0.000000001
 43
0.00000001
 40
0.0
 40
0.0
 40
0.0
 40
0.0
 40
0.4985635771069233
 40
0.9999999999999999
 40
0.9999999999999999
 40
0.9999999999999999
 40
0.9999999999999999
 10
23.78936143763672
 20
-6.269842419923764
 30
0.0
 10
23.82458875321122
 20
-6.292966221090958
 30
0.0
 10
23.89524637280491
 20
-6.33934706844723
 30
0.0
 10
23.9771338740922
 20
-6.346442220131216
 30
0.0
 10
24.01819524981734
 20
-6.34999998761152
 30
0.0
  0
LINE
  5
AD
330
1F
100
AcDbEntity
  8
외형선
  6
Continuous
 62
     1
370
    15
100
AcDbLine
 10
24.01808746796856
 20
-6.349999999999998
 30
0.0
 11
25.45000212975748
 21
-6.349999999999998
 31
0.0
  0
SPLINE
  5
AE
330
1F
100
AcDbEntity
  8
외형선
  6
Continuous
 62
     1
370
    15
100
AcDbSpline
210
0.0
220
0.0
230
1.0
 70
     8
 71
     3
 72
     9
 73
     5
 74
     0
 42
0.000000001
 43
0.00000001
 40
0.0
 40
0.0
 40
0.0
 40
0.0
 40
0.5022015739434694
 40
0.9999999999999999
 40
0.9999999999999999
 40
0.9999999999999999
 40
0.9999999999999999
 10
25.44784066550175
 20
-6.34991290905651
 30
0.0
 10
25.48919322424132
 20
-6.346625113189868
 30
0.0
 10
25.57153577529078
 20
-6.340078347832629
 30
0.0
 10
25.642864672464
 20
-6.293365498711612
 30
0.0
 10
25.67837208520919
 20
-6.270111915942552
 30
0.0
  0
SPLINE
  5
AF
330
1F
100
AcDbEntity
  8
외형선
  6
Continuous
 62
     1
370
    15
100
AcDbSpline
210
0.0
220
0.0
230
1.0
 70
     8
 71
     3
 72
    11
 73
     7
 74
     0
 42
0.000000001
 43
0.00000001
 40
0.0
 40
0.0
 40
0.0
 40
0.0
 40
0.2442022635850489
 40
0.4999584286430276
 40
0.7557314892065103
 40
0.9999999999999999
 40
0.9999999999999999
 40
0.9999999999999999
 40
0.9999999999999999
 10
25.68192039483435
 20
-6.26710858817575
 30
0.0
 10
25.74054057419675
 20
-6.229765124481411
 30
0.0
 10
25.86055441981205
 20
-6.15331137194604
 30
0.0
 10
26.08208211979315
 20
-6.121285104508789
 30
0.0
 10
26.30360423615608
 20
-6.158835387949471
 30
0.0
 10
26.42355064687843
 20
-6.239378354656504
 30
0.0
 10
26.48214403750924
 20
-6.278723304475426
 30
0.0
  0
SPLINE
  5
B1
330
1F
100
AcDbEntity
  8
외형선
  6
Continuous
 62
     1
370
    15
100
AcDbSpline
210
0.0
220
0.0
230
1.0
 70
     8
 71
     3
 72
     9
 73
     5
 74
     0
 42
0.000000001
 43
0.00000001
 40
0.0
 40
0.0
 40
0.0
 40
0.0
 40
0.4988356904373358
 40
1.0
 40
1.0
 40
1.0
 40
1.0
 10
26.47362473149794
 20
-6.278385002430546
 30
0.0
 10
26.50673793700792
 20
-6.299122334967732
 30
0.0
 10
26.57311892406393
 20
-6.340693804160331
 30
0.0
 10
26.65092254724663
 20
-6.346593675599251
 30
0.0
 10
26.68991494634047
 20
-6.349550480595446
 30
0.0
  0
LINE
  5
B2
330
1F
100
AcDbEntity
  8
외형선
  6
Continuous
 62
     1
370
    15
100
AcDbLine
 10
26.68474618817144
 20
-6.349999999999998
 30
0.0
 11
27.35901971038328
 21
-6.349999999999998
 31
0.0
  0
LINE
  5
BA
330
1F
100
AcDbEntity
  8
외형선
  6
Continuous
370
    15
100
AcDbLine
 10
-39.46666666666668
 20
6.349999999999989
 30
0.0
 11
-39.46666666666668
 21
-6.349999999999982
 31
0.0
  0
LINE
  5
BC
330
1F
100
AcDbEntity
  8
외형선
  6
Continuous
370
    15
100
AcDbLine
 10
-40.80000000000002
 20
5.016666666666659
 30
0.0
 11
-40.80000000000002
 21
-5.01666666666666
 31
0.0
  0
SPLINE
  5
BE
330
1F
100
AcDbEntity
  8
외형선
  6
Continuous
 62
     1
370
    15
100
AcDbSpline
210
0.0
220
0.0
230
1.0
 70
     8
 71
     3
 72
     8
 73
     4
 74
     0
 42
0.000000001
 43
0.00000001
 40
0.0
 40
0.0
 40
0.0
 40
0.0
 40
1.0
 40
1.0
 40
1.0
 40
1.0
 10
33.18432525968748
 20
-2.791993462147122
 30
0.0
 10
33.12363077866234
 20
-2.787234098269763
 30
0.0
 10
33.04930420143299
 20
-2.771066168152708
 30
0.0
 10
32.97289270540234
 20
-2.746008917994154
 30
0.0
  0
SPLINE
  5
C0
330
1F
100
AcDbEntity
  8
외형선
  6
Continuous
 62
     1
370
    15
100
AcDbSpline
210
0.0
220
0.0
230
1.0
 70
     8
 71
     3
 72
     8
 73
     4
 74
     0
 42
0.000000001
 43
0.00000001
 40
0.0
 40
0.0
 40
0.0
 40
0.0
 40
1.0
 40
1.0
 40
1.0
 40
1.0
 10
32.69087322283898
 20
1.372650249875446
 30
0.0
 10
32.7650995804381
 20
1.346272257542116
 30
0.0
 10
32.83971129849552
 20
1.31741669640424
 30
0.0
 10
32.90108761267379
 20
1.292506836661116
 30
0.0
  0
SPLINE
  5
C2
330
1F
100
AcDbEntity
  8
외형선
  6
Continuous
 62
     1
370
    15
100
AcDbSpline
210
0.0
220
0.0
230
1.0
 70
     8
 71
     3
 72
     8
 73
     4
 74
     0
 42
0.000000001
 43
0.00000001
 40
0.0
 40
0.0
 40
0.0
 40
0.0
 40
1.0
 40
1.0
 40
1.0
 40
1.0
 10
33.74432590650272
 20
0.9945227073243103
 30
0.0
 10
33.7992379335258
 20
0.9759242553131905
 30
0.0
 10
33.86537091393259
 20
0.9528634781728941
 30
0.0
 10
33.9340077578053
 20
0.9282815075756988
 30
0.0
  0
SPLINE
  5
C5
330
1F
100
AcDbEntity
  8
외형선
  6
Continuous
 62
     1
370
    15
100
AcDbSpline
210
0.0
220
0.0
230
1.0
 70
     8
 71
     3
 72
     8
 73
     4
 74
     0
 42
0.000000001
 43
0.00000001
 40
0.0
 40
0.0
 40
0.0
 40
0.0
 40
1.0
 40
1.0
 40
1.0
 40
1.0
 10
31.50561946130302
 20
-2.254699562375868
 30
0.0
 10
31.43137654455073
 20
-2.229414537759236
 30
0.0
 10
31.35674365948397
 20
-2.198213457332392
 30
0.0
 10
31.29534373940876
 20
-2.167301517983604
 30
0.0
  0
SPLINE
  5
C7
330
1F
100
AcDbEntity
  8
외형선
  6
Continuous
 62
     1
370
    15
100
AcDbSpline
210
0.0
220
0.0
230
1.0
 70
     8
 71
     3
 72
     8
 73
     4
 74
     0
 42
0.000000001
 43
0.00000001
 40
0.0
 40
0.0
 40
0.0
 40
0.0
 40
1.0
 40
1.0
 40
1.0
 40
1.0
 10
31.01169997952063
 20
1.949726569961977
 30
0.0
 10
31.07245998621062
 20
1.937191694111063
 30
0.0
 10
31.14684221819814
 20
1.916007514856539
 30
0.0
 10
31.2233060557141
 20
1.889439896447167
 30
0.0
  0
SPLINE
  5
C9
330
1F
100
AcDbEntity
  8
외형선
  6
Continuous
 62
     1
370
    15
100
AcDbSpline
210
0.0
220
0.0
230
1.0
 70
     8
 71
     3
 72
    10
 73
     6
 74
     0
 42
0.000000001
 43
0.00000001
 40
0.0
 40
0.0
 40
0.0
 40
0.0
 40
0.5
 40
0.5
 40
1.0
 40
1.0
 40
1.0
 40
1.0
 10
34.01429011360865
 20
-3.052297778226718
 30
0.0
 10
33.89012771498091
 20
-2.98023453404838
 30
0.0
 10
33.74065983797754
 20
-2.920333246452086
 30
0.0
 10
33.44368528028711
 20
-2.8302675769259
 30
0.0
 10
33.3019746086349
 20
-2.801218947761585
 30
0.0
 10
33.1843252596875
 20
-2.791993462147123
 30
0.0
  0
SPLINE
  5
CA
330
1F
100
AcDbEntity
  8
외형선
  6
Continuous
 62
     1
370
    15
100
AcDbSpline
210
0.0
220
0.0
230
1.0
 70
     8
 71
     3
 72
    10
 73
     6
 74
     0
 42
0.000000001
 43
0.00000001
 40
0.0
 40
0.0
 40
0.0
 40
0.0
 40
0.5
 40
0.5
 40
1.0
 40
1.0
 40
1.0
 40
1.0
 10
32.90108761267285
 20
1.292506836661117
 30
0.0
 10
33.02583627930021
 20
1.241877015851006
 30
0.0
 10
33.17738856023907
 20
1.1890822378425
 30
0.0
 10
33.47960646340612
 20
1.084834932209704
 30
0.0
 10
33.62456943421545
 20
1.035083675906031
 30
0.0
 10
33.74432590650239
 20
0.9945227073241844
 30
0.0
  0
SPLINE
  5
CC
330
1F
100
AcDbEntity
  8
외형선
  6
Continuous
 62
     1
370
    15
100
AcDbSpline
210
0.0
220
0.0
230
1.0
 70
     8
 71
     3
 72
     8
 73
     4
 74
     0
 42
0.000000001
 43
0.00000001
 40
0.0
 40
0.0
 40
0.0
 40
0.0
 40
0.9756232341503304
 40
0.9756232341503304
 40
0.9756232341503304
 40
0.9756232341503304
 10
33.93367054401454
 20
0.928409976186776
 30
0.0
 10
34.40923246594604
 20
0.7472129983902296
 30
0.0
 10
34.88554072538432
 20
0.6544211621959021
 30
0.0
 10
35.36412242151729
 20
0.6740608623057466
 30
0.0
  0
SPLINE
  5
CE
330
1F
100
AcDbEntity
  8
외형선
  6
Continuous
 62
     1
370
    15
100
AcDbSpline
210
0.0
220
0.0
230
1.0
 70
     8
 71
     3
 72
     8
 73
     4
 74
     0
 42
0.000000001
 43
0.00000001
 40
0.5614439094920822
 40
0.5614439094920822
 40
0.5614439094920822
 40
0.5614439094920822
 40
1.0
 40
1.0
 40
1.0
 40
1.0
 10
34.63303369611836
 20
-3.025266062349983
 30
0.0
 10
34.42918988063239
 20
-3.03279642336985
 30
0.0
 10
34.22257612768231
 20
-3.041786078517729
 30
0.0
 10
34.01429011360865
 20
-3.052297778226714
 30
0.0
  0
SPLINE
  5
CF
330
1F
100
AcDbEntity
  8
외형선
  6
Continuous
 62
     1
370
    15
100
AcDbSpline
210
0.0
220
0.0
230
1.0
 70
     8
 71
     3
 72
     8
 73
     4
 74
     0
 42
0.000000001
 43
0.00000001
 40
0.0
 40
0.0
 40
0.0
 40
0.0
 40
1.0
 40
1.0
 40
1.0
 40
1.0
 10
30.45157207550692
 20
-1.880133001322671
 30
0.0
 10
30.39081192024285
 20
-1.867003830423151
 30
0.0
 10
30.31642559678305
 20
-1.845465684103979
 30
0.0
 10
30.23995458074648
 20
-1.818841498550277
 30
0.0
  0
SPLINE
  5
D1
330
1F
100
AcDbEntity
  8
외형선
  6
Continuous
 62
     1
370
    15
100
AcDbSpline
210
0.0
220
0.0
230
1.0
 70
     8
 71
     3
 72
     8
 73
     4
 74
     0
 42
0.000000001
 43
0.00000001
 40
0.0
 40
0.0
 40
0.0
 40
0.0
 40
1.0
 40
1.0
 40
1.0
 40
1.0
 10
29.95749770619473
 20
2.323413435830993
 30
0.0
 10
30.0317629899919
 20
2.298294025924332
 30
0.0
 10
30.1064134176891
 20
2.266980506506379
 30
0.0
 10
30.1678240101337
 20
2.235648446785463
 30
0.0
  0
SPLINE
  5
D3
330
1F
100
AcDbEntity
  8
외형선
  6
Continuous
 62
     1
370
    15
100
AcDbSpline
210
0.0
220
0.0
230
1.0
 70
     8
 71
     3
 72
     8
 73
     4
 74
     0
 42
0.000000001
 43
0.00000001
 40
0.0
 40
0.0
 40
0.0
 40
0.0
 40
1.0
 40
1.0
 40
1.0
 40
1.0
 10
28.77185919422666
 20
-1.301251108432139
 30
0.0
 10
28.6975855713258
 20
-1.274737371597968
 30
0.0
 10
28.62292650940859
 20
-1.245995129124412
 30
0.0
 10
28.56149592951429
 20
-1.221484034993328
 30
0.0
  0
SPLINE
  5
D4
330
1F
100
AcDbEntity
  8
외형선
  6
Continuous
 62
     1
370
    15
100
AcDbSpline
210
0.0
220
0.0
230
1.0
 70
     8
 71
     3
 72
    10
 73
     6
 74
     0
 42
0.000000001
 43
0.00000001
 40
0.0
 40
0.0
 40
0.0
 40
0.0
 40
0.5
 40
0.5
 40
1.0
 40
1.0
 40
1.0
 40
1.0
 10
28.56149592950856
 20
-1.221484034888259
 30
0.0
 10
28.51308322491434
 20
-0.5302796648018662
 30
0.0
 10
28.46447303546012
 20
0.1848904883066175
 30
0.0
 10
28.37455406495857
 20
1.547027604211309
 30
0.0
 10
28.32602890255556
 20
2.229759982680402
 30
0.0
 10
28.2776123902494
 20
2.857255715916766
 30
0.0
  0
SPLINE
  5
D5
330
1F
100
AcDbEntity
  8
외형선
  6
Continuous
 62
     1
370
    15
100
AcDbSpline
210
0.0
220
0.0
230
1.0
 70
     8
 71
     3
 72
     8
 73
     4
 74
     0
 42
0.000000001
 43
0.00000001
 40
0.0
 40
0.0
 40
0.0
 40
0.0
 40
1.0
 40
1.0
 40
1.0
 40
1.0
 10
28.27761239024163
 20
2.857255716024643
 30
0.0
 10
28.33840373391744
 20
2.853037540632887
 30
0.0
 10
28.41281159722841
 20
2.837175851272513
 30
0.0
 10
28.48929584164839
 20
2.812144318317772
 30
0.0
  0
SPLINE
  5
D6
330
1F
100
AcDbEntity
  8
외형선
  6
Continuous
 62
     1
370
    15
100
AcDbSpline
210
0.0
220
0.0
230
1.0
 70
     8
 71
     3
 72
    10
 73
     6
 74
     0
 42
0.000000001
 43
0.00000001
 40
0.0
 40
0.0
 40
0.0
 40
0.0
 40
0.5
 40
0.5
 40
1.0
 40
1.0
 40
1.0
 40
1.0
 10
28.77185905535497
 20
-1.301249107007994
 30
0.0
 10
28.72368637470113
 20
-0.6069876167369955
 30
0.0
 10
28.67518338483298
 20
0.1132252526461011
 30
0.0
 10
28.58517102664207
 20
1.48922208824133
 30
0.0
 10
28.53750426543323
 20
2.176022124049726
 30
0.0
 10
28.48929578483998
 20
2.812145067927496
 30
0.0
  0
SPLINE
  5
D7
330
1F
100
AcDbEntity
  8
외형선
  6
Continuous
 62
     1
370
    15
100
AcDbSpline
210
0.0
220
0.0
230
1.0
 70
     8
 71
     3
 72
    10
 73
     6
 74
     0
 42
0.000000001
 43
0.00000001
 40
0.0
 40
0.0
 40
0.0
 40
0.0
 40
0.5
 40
0.5
 40
1.0
 40
1.0
 40
1.0
 40
1.0
 10
31.29534373941036
 20
-2.167301517983368
 30
0.0
 10
31.170514477838
 20
-2.104455922126555
 30
0.0
 10
31.01887086341445
 20
-2.046716757977522
 30
0.0
 10
30.71648995578218
 20
-1.946777385648248
 30
0.0
 10
30.57144506661005
 20
-1.906035387180454
 30
0.0
 10
30.45157207550692
 20
-1.880133001322671
 30
0.0
  0
SPLINE
  5
D8
330
1F
100
AcDbEntity
  8
외형선
  6
Continuous
 62
     1
370
    15
100
AcDbSpline
210
0.0
220
0.0
230
1.0
 70
     8
 71
     3
 72
    10
 73
     6
 74
     0
 42
0.000000001
 43
0.00000001
 40
0.0
 40
0.0
 40
0.0
 40
0.0
 40
0.5
 40
0.5
 40
1.0
 40
1.0
 40
1.0
 40
1.0
 10
30.16782401013269
 20
2.235648446784775
 30
0.0
 10
30.29268212896607
 20
2.171945071190845
 30
0.0
 10
30.44435690963733
 20
2.113915113572307
 30
0.0
 10
30.74677886855305
 20
2.014450913345115
 30
0.0
 10
30.89182792466562
 20
1.974456345474435
 30
0.0
 10
31.01169997952012
 20
1.949726569961846
 30
0.0
  0
SPLINE
  5
D9
330
1F
100
AcDbEntity
  8
외형선
  6
Continuous
 62
     1
370
    15
100
AcDbSpline
210
0.0
220
0.0
230
1.0
 70
     8
 71
     3
 72
     8
 73
     4
 74
     0
 42
0.000000001
 43
0.00000001
 40
0.0
 40
0.0
 40
0.0
 40
0.0
 40
1.0
 40
1.0
 40
1.0
 40
1.0
 10
27.50576107250109
 20
-0.8466396323125178
 30
0.0
 10
27.01673415357309
 20
-0.6703912475635859
 30
0.0
 10
26.5265249737847
 20
-0.49300345358118
 30
0.0
 10
26.03772490095078
 20
-0.3154142958340098
 30
0.0
  0
SPLINE
  5
DA
330
1F
100
AcDbEntity
  8
외형선
  6
Continuous
 62
     1
370
    15
100
AcDbSpline
210
0.0
220
0.0
230
1.0
 70
     8
 71
     3
 72
    12
 73
     8
 74
     0
 42
0.000000001
 43
0.00000001
 40
0.0
 40
0.0
 40
0.0
 40
0.0
 40
0.2500000000000001
 40
0.2500000000000001
 40
0.5
 40
0.5
 40
1.0
 40
1.0
 40
1.0
 40
1.0
 10
26.03772597726536
 20
-0.3154129944242046
 30
0.0
 10
26.01389725429394
 20
0.0375865594291291
 30
0.0
 10
25.99044885106691
 20
0.3901492467473663
 30
0.0
 10
25.94521943893938
 20
1.080236977754511
 30
0.0
 10
25.92256536301137
 20
1.422243741671335
 30
0.0
 10
25.85184596892965
 20
2.437339818901431
 30
0.0
 10
25.80262870921795
 20
3.090189194817419
 30
0.0
 10
25.75534842517214
 20
3.665851560846839
 30
0.0
  0
SPLINE
  5
DB
330
1F
100
AcDbEntity
  8
외형선
  6
Continuous
 62
     1
370
    15
100
AcDbSpline
210
0.0
220
0.0
230
1.0
 70
     8
 71
     3
 72
     8
 73
     4
 74
     0
 42
0.000000001
 43
0.00000001
 40
0.0
 40
0.0
 40
0.0
 40
0.0
 40
1.0
 40
1.0
 40
1.0
 40
1.0
 10
27.22325100422804
 20
3.217660734589348
 30
0.0
 10
26.73376962918493
 20
3.371042738867394
 30
0.0
 10
26.24360529444153
 20
3.520700089950569
 30
0.0
 10
25.75534841377303
 20
3.665851699157438
 30
0.0
  0
SPLINE
  5
DC
330
1F
100
AcDbEntity
  8
외형선
  6
Continuous
 62
     1
370
    15
100
AcDbSpline
210
0.0
220
0.0
230
1.0
 70
     8
 71
     3
 72
    12
 73
     8
 74
     0
 42
0.000000001
 43
0.00000001
 40
0.0
 40
0.0
 40
0.0
 40
0.0
 40
0.25
 40
0.25
 40
0.5
 40
0.5
 40
1.0
 40
1.0
 40
1.0
 40
1.0
 10
27.50576107420299
 20
-0.8466392176796455
 30
0.0
 10
27.48168768552165
 20
-0.4952235142389024
 30
0.0
 10
27.45774145341173
 20
-0.1404678759659868
 30
0.0
 10
27.41107660277667
 20
0.5609859323559662
 30
0.0
 10
27.38894612006118
 20
0.9047486728029062
 30
0.0
 10
27.32013626223507
 20
1.931194500545644
 30
0.0
 10
27.27124176778018
 20
2.60695119592892
 30
0.0
 10
27.2232521074106
 20
3.217663374923892
 30
0.0
  0
SPLINE
  5
DD
330
1F
100
AcDbEntity
  8
외형선
  6
Continuous
 62
     1
370
    15
100
AcDbSpline
210
0.0
220
0.0
230
1.0
 70
     8
 71
     3
 72
     8
 73
     4
 74
     0
 42
0.000000001
 43
0.00000001
 40
0.0
 40
0.0
 40
0.0
 40
0.0
 40
1.0
 40
1.0
 40
1.0
 40
1.0
 10
32.97288559121527
 20
-2.746006585072099
 30
0.0
 10
32.48228302210909
 20
-2.585125637197878
 30
0.0
 10
31.99496973784741
 20
-2.421358340475972
 30
0.0
 10
31.50561946122028
 20
-2.254699562347347
 30
0.0
  0
SPLINE
  5
DE
330
1F
100
AcDbEntity
  8
외형선
  6
Continuous
 62
     1
370
    15
100
AcDbSpline
210
0.0
220
0.0
230
1.0
 70
     8
 71
     3
 72
     8
 73
     4
 74
     0
 42
0.000000001
 43
0.00000001
 40
0.0
 40
0.0
 40
0.0
 40
0.0
 40
1.0
 40
1.0
 40
1.0
 40
1.0
 10
32.69087322254402
 20
1.372650249980278
 30
0.0
 10
32.20064019423722
 20
1.546865494813187
 30
0.0
 10
31.71362071051322
 20
1.719078415540284
 30
0.0
 10
31.2233058576178
 20
1.889439965275797
 30
0.0
  0
SPLINE
  5
DF
330
1F
100
AcDbEntity
  8
외형선
  6
Continuous
 62
     1
370
    15
100
AcDbSpline
210
0.0
220
0.0
230
1.0
 70
     8
 71
     3
 72
     8
 73
     4
 74
     0
 42
0.000000001
 43
0.00000001
 40
0.0
 40
0.0
 40
0.0
 40
0.0
 40
1.0
 40
1.0
 40
1.0
 40
1.0
 10
30.23994941570841
 20
-1.818839700287518
 30
0.0
 10
29.74968070516736
 20
-1.648147496163479
 30
0.0
 10
29.25945349381767
 20
-1.475309497504421
 30
0.0
 10
28.77185822825975
 20
-1.301250763606901
 30
0.0
  0
SPLINE
  5
E0
330
1F
100
AcDbEntity
  8
외형선
  6
Continuous
 62
     1
370
    15
100
AcDbSpline
210
0.0
220
0.0
230
1.0
 70
     8
 71
     3
 72
     8
 73
     4
 74
     0
 42
0.000000001
 43
0.00000001
 40
0.0
 40
0.0
 40
0.0
 40
0.0
 40
1.0
 40
1.0
 40
1.0
 40
1.0
 10
29.95749767434132
 20
2.323413446605055
 30
0.0
 10
29.46669920080374
 20
2.489420595565524
 30
0.0
 10
28.97690732462369
 20
2.652560303102844
 30
0.0
 10
28.48929564777598
 20
2.812144381766606
 30
0.0
  0
SPLINE
  5
E1
330
1F
100
AcDbEntity
  8
외형선
  6
Continuous
 62
     1
370
    15
100
AcDbSpline
210
0.0
220
0.0
230
1.0
 70
     8
 71
     3
 72
     8
 73
     4
 74
     0
 42
0.000000001
 43
0.00000001
 40
0.0
 40
0.0
 40
0.0
 40
0.0
 40
1.0
 40
1.0
 40
1.0
 40
1.0
 10
24.77203475576722
 20
0.1457757333801708
 30
0.0
 10
24.28453320795956
 20
0.3234203535480371
 30
0.0
 10
23.79462981284619
 20
0.5011848414843026
 30
0.0
 10
23.30491028064871
 20
0.6781275441550154
 30
0.0
  0
SPLINE
  5
E2
330
1F
100
AcDbEntity
  8
외형선
  6
Continuous
 62
     1
370
    15
100
AcDbSpline
210
0.0
220
0.0
230
1.0
 70
     8
 71
     3
 72
    12
 73
     8
 74
     0
 42
0.000000001
 43
0.00000001
 40
0.0
 40
0.0
 40
0.0
 40
0.0
 40
0.2499999999999999
 40
0.2499999999999999
 40
0.4999999999999998
 40
0.4999999999999998
 40
1.0
 40
1.0
 40
1.0
 40
1.0
 10
23.30491074745863
 20
0.6781272397228395
 30
0.0
 10
23.28218620656189
 20
1.024276359558196
 30
0.0
 10
23.25968965170491
 20
1.366301848050963
 30
0.0
 10
23.21261561674413
 20
2.044820486433559
 30
0.0
 10
23.18853593893922
 20
2.3787489072322
 30
0.0
 10
23.11615543094639
 20
3.342970104705352
 30
0.0
 10
23.06796324302138
 20
3.933045107267441
 30
0.0
 10
23.02309911362144
 20
4.429799325726836
 30
0.0
  0
SPLINE
  5
E3
330
1F
100
AcDbEntity
  8
외형선
  6
Continuous
 62
     1
370
    15
100
AcDbSpline
210
0.0
220
0.0
230
1.0
 70
     8
 71
     3
 72
     8
 73
     4
 74
     0
 42
0.000000001
 43
0.00000001
 40
0.0
 40
0.0
 40
0.0
 40
0.0
 40
1.0
 40
1.0
 40
1.0
 40
1.0
 10
24.48986192456911
 20
4.032565327410929
 30
0.0
 10
24.00198192297796
 20
4.169777814066295
 30
0.0
 10
23.5121994349162
 20
4.302426915614154
 30
0.0
 10
23.02309884520494
 20
4.429800017303077
 30
0.0
  0
SPLINE
  5
E4
330
1F
100
AcDbEntity
  8
외형선
  6
Continuous
 62
     1
370
    15
100
AcDbSpline
210
0.0
220
0.0
230
1.0
 70
     8
 71
     3
 72
    12
 73
     8
 74
     0
 42
0.000000001
 43
0.00000001
 40
0.0
 40
0.0
 40
0.0
 40
0.0
 40
0.2499999999999999
 40
0.2499999999999999
 40
0.4999999999999999
 40
0.4999999999999999
 40
1.0
 40
1.0
 40
1.0
 40
1.0
 10
24.77203589306371
 20
0.1457779251745388
 30
0.0
 10
24.74861620478003
 20
0.4971829425590558
 30
0.0
 10
24.72636590323028
 20
0.8420687076084559
 30
0.0
 10
24.68064684821805
 20
1.527222562820813
 30
0.0
 10
24.65701535769275
 20
1.868227624897334
 30
0.0
 10
24.58520128864446
 20
2.864604354355089
 30
0.0
 10
24.53614043842968
 20
3.491682448970228
 30
0.0
 10
24.48986241915581
 20
4.032565244344393
 30
0.0
  0
SPLINE
  5
E5
330
1F
100
AcDbEntity
  8
외형선
  6
Continuous
 62
     1
370
    15
100
AcDbSpline
210
0.0
220
0.0
230
1.0
 70
     8
 71
     3
 72
     8
 73
     4
 74
     0
 42
0.000000001
 43
0.00000001
 40
0.0
 40
0.0
 40
0.0
 40
0.0
 40
1.0
 40
1.0
 40
1.0
 40
1.0
 10
27.71742564541753
 20
-0.9218133397511804
 30
0.0
 10
27.6566481648893
 20
-0.9006142544080074
 30
0.0
 10
27.582248226263
 20
-0.8742060847521057
 30
0.0
 10
27.50576110337277
 20
-0.8466396434388972
 30
0.0
  0
SPLINE
  5
E6
330
1F
100
AcDbEntity
  8
외형선
  6
Continuous
 62
     1
370
    15
100
AcDbSpline
210
0.0
220
0.0
230
1.0
 70
     8
 71
     3
 72
     8
 73
     4
 74
     0
 42
0.000000001
 43
0.00000001
 40
0.0
 40
0.0
 40
0.0
 40
0.0
 40
1.0
 40
1.0
 40
1.0
 40
1.0
 10
27.22325234797533
 20
3.217660313517843
 30
0.0
 10
27.29752081537372
 20
3.194387830642195
 30
0.0
 10
27.3721719796626
 20
3.161355568141871
 30
0.0
 10
27.43358486662692
 20
3.124346478170508
 30
0.0
  0
SPLINE
  5
E7
330
1F
100
AcDbEntity
  8
외형선
  6
Continuous
 62
     1
370
    15
100
AcDbSpline
210
0.0
220
0.0
230
1.0
 70
     8
 71
     3
 72
    12
 73
     8
 74
     0
 42
0.000000001
 43
0.00000001
 40
0.0
 40
0.0
 40
0.0
 40
0.0
 40
0.2500000000000001
 40
0.2500000000000001
 40
0.5000000000000001
 40
0.5000000000000001
 40
1.0
 40
1.0
 40
1.0
 40
1.0
 10
27.71742564539323
 20
-0.921813339401287
 30
0.0
 10
27.69322569462449
 20
-0.5733397927371284
 30
0.0
 10
27.66911212292578
 20
-0.2209246749512322
 30
0.0
 10
27.62205216990088
 20
0.4769700184084727
 30
0.0
 10
27.59968743018403
 20
0.8195587061702886
 30
0.0
 10
27.53089175134493
 20
1.839892630828634
 30
0.0
 10
27.4818488757568
 20
2.513755658524479
 30
0.0
 10
27.43358513752844
 20
3.124343050966061
 30
0.0
  0
SPLINE
  5
E8
330
1F
100
AcDbEntity
  8
외형선
  6
Continuous
 62
     1
370
    15
100
AcDbSpline
210
0.0
220
0.0
230
1.0
 70
     8
 71
     3
 72
     8
 73
     4
 74
     0
 42
0.000000001
 43
0.00000001
 40
0.0
 40
0.0
 40
0.0
 40
0.0
 40
1.0
 40
1.0
 40
1.0
 40
1.0
 10
26.03772609438327
 20
-0.3154147294281474
 30
0.0
 10
25.96346518916256
 20
-0.2884345134696209
 30
0.0
 10
25.888822559749
 20
-0.2630058956482877
 30
0.0
 10
25.82741585222336
 20
-0.2456470413705491
 30
0.0
  0
SPLINE
  5
E9
330
1F
100
AcDbEntity
  8
외형선
  6
Continuous
 62
     1
370
    15
100
AcDbSpline
210
0.0
220
0.0
230
1.0
 70
     8
 71
     3
 72
    12
 73
     8
 74
     0
 42
0.000000001
 43
0.00000001
 40
0.0
 40
0.0
 40
0.0
 40
0.0
 40
0.2500000000000001
 40
0.2500000000000001
 40
0.5000000000000001
 40
0.5000000000000001
 40
1.0
 40
1.0
 40
1.0
 40
1.0
 10
25.82741585221876
 20
-0.2456470412805424
 30
0.0
 10
25.80352567844732
 20
0.104947871159381
 30
0.0
 10
25.78005083461453
 20
0.4546347581353948
 30
0.0
 10
25.7348401356299
 20
1.138102810599706
 30
0.0
 10
25.71181465145372
 20
1.478365594887001
 30
0.0
 10
25.6405493905332
 20
2.484193678815922
 30
0.0
 10
25.59109458147844
 20
3.128681572917074
 30
0.0
 10
25.54375861259932
 20
3.694333153940016
 30
0.0
  0
SPLINE
  5
EA
330
1F
100
AcDbEntity
  8
외형선
  6
Continuous
 62
     1
370
    15
100
AcDbSpline
210
0.0
220
0.0
230
1.0
 70
     8
 71
     3
 72
     8
 73
     4
 74
     0
 42
0.000000001
 43
0.00000001
 40
0.0
 40
0.0
 40
0.0
 40
0.0
 40
1.0
 40
1.0
 40
1.0
 40
1.0
 10
25.5437586124503
 20
3.694333155727691
 30
0.0
 10
25.60450875233022
 20
3.69861206624092
 30
0.0
 10
25.67888367970891
 20
3.68858354306414
 30
0.0
 10
25.75534841381264
 20
3.665851699147282
 30
0.0
  0
SPLINE
  5
EB
330
1F
100
AcDbEntity
  8
외형선
  6
Continuous
 62
     1
370
    15
100
AcDbSpline
210
0.0
220
0.0
230
1.0
 70
     8
 71
     3
 72
    10
 73
     6
 74
     0
 42
0.000000001
 43
0.00000001
 40
0.0
 40
0.0
 40
0.0
 40
0.0
 40
0.5
 40
0.5
 40
1.0
 40
1.0
 40
1.0
 40
1.0
 10
28.56149592951596
 20
-1.221484034993702
 30
0.0
 10
28.43660749751704
 20
-1.171652955458468
 30
0.0
 10
28.28492027634476
 20
-1.119076462741921
 30
0.0
 10
27.98247055819033
 20
-1.014222709131654
 30
0.0
 10
27.83735913070457
 20
-0.9636459423534294
 30
0.0
 10
27.71742564541753
 20
-0.9218133397511747
 30
0.0
  0
SPLINE
  5
EC
330
1F
100
AcDbEntity
  8
외형선
  6
Continuous
 62
     1
370
    15
100
AcDbSpline
210
0.0
220
0.0
230
1.0
 70
     8
 71
     3
 72
    10
 73
     6
 74
     0
 42
0.000000001
 43
0.00000001
 40
0.0
 40
0.0
 40
0.0
 40
0.0
 40
0.5
 40
0.5
 40
1.0
 40
1.0
 40
1.0
 40
1.0
 10
27.43358486662594
 20
3.124346478169099
 30
0.0
 10
27.55848058081564
 20
3.049080895455193
 30
0.0
 10
27.7101963879537
 20
2.987193650851954
 30
0.0
 10
28.01266506479356
 20
2.894869113167868
 30
0.0
 10
28.15771597229026
 20
2.865575060344936
 30
0.0
 10
28.27761239024107
 20
2.857255716024448
 30
0.0
  0
SPLINE
  5
F4
330
1F
100
AcDbEntity
  8
외형선
  6
Continuous
 62
     1
370
    15
100
AcDbSpline
210
0.0
220
0.0
230
1.0
 70
     8
 71
     3
 72
    10
 73
     6
 74
     0
 42
0.000000001
 43
0.00000001
 40
0.0
 40
0.0
 40
0.0
 40
0.0
 40
0.4999999999999966
 40
0.4999999999999966
 40
1.0
 40
1.0
 40
1.0
 40
1.0
 10
24.70009526535398
 20
3.935933803958491
 30
0.0
 10
24.82493632450925
 20
3.850944251850188
 30
0.0
 10
24.97658309290123
 20
3.786687220074025
 30
0.0
 10
25.2788904069286
 20
3.703701017448581
 30
0.0
 10
25.42389924538504
 20
3.685890911695113
 30
0.0
 10
25.54375861244975
 20
3.694333155727442
 30
0.0
  0
SPLINE
  5
F5
330
1F
100
AcDbEntity
  8
외형선
  6
Continuous
 62
     1
370
    15
100
AcDbSpline
210
0.0
220
0.0
230
1.0
 70
     8
 71
     3
 72
     8
 73
     4
 74
     0
 42
0.000000001
 43
0.00000001
 40
0.0
 40
0.0
 40
0.0
 40
0.0
 40
1.0
 40
1.0
 40
1.0
 40
1.0
 10
24.48986242406814
 20
4.032565186930685
 30
0.0
 10
24.56409829639347
 20
4.011686920009624
 30
0.0
 10
24.6387121512271
 20
3.977722326198319
 30
0.0
 10
24.70009526535493
 20
3.935933803960555
 30
0.0
  0
SPLINE
  5
F6
330
1F
100
AcDbEntity
  8
외형선
  6
Continuous
 62
     1
370
    15
100
AcDbSpline
210
0.0
220
0.0
230
1.0
 70
     8
 71
     3
 72
     8
 73
     4
 74
     0
 42
0.000000001
 43
0.00000001
 40
0.0
 40
0.0
 40
0.0
 40
0.0
 40
1.0
 40
1.0
 40
1.0
 40
1.0
 10
22.81170863391454
 20
4.440941183926663
 30
0.0
 10
22.87238796779486
 20
4.453634158545682
 30
0.0
 10
22.94669737388498
 20
4.449696727086383
 30
0.0
 10
23.02309905612208
 20
4.429799962377417
 30
0.0
  0
SPLINE
  5
F7
330
1F
100
AcDbEntity
  8
외형선
  6
Continuous
 62
     1
370
    15
100
AcDbSpline
210
0.0
220
0.0
230
1.0
 70
     8
 71
     3
 72
    10
 73
     6
 74
     0
 42
0.000000001
 43
0.00000001
 40
0.0
 40
0.0
 40
0.0
 40
0.0
 40
0.5
 40
0.5
 40
1.0
 40
1.0
 40
1.0
 40
1.0
 10
21.96844939997332
 20
4.650254533496586
 30
0.0
 10
22.09320364962431
 20
4.557733185490629
 30
0.0
 10
22.24475216886625
 20
4.492813734340644
 30
0.0
 10
22.54696029064247
 20
4.421652302342181
 30
0.0
 10
22.6919395959419
 20
4.415887755321647
 30
0.0
 10
22.81170863391399
 20
4.440941183926365
 30
0.0
  0
SPLINE
  5
F8
330
1F
100
AcDbEntity
  8
외형선
  6
Continuous
 62
     1
370
    15
100
AcDbSpline
210
0.0
220
0.0
230
1.0
 70
     8
 71
     3
 72
     8
 73
     4
 74
     0
 42
0.000000001
 43
0.00000001
 40
0.0
 40
0.0
 40
0.0
 40
0.0
 40
1.0
 40
1.0
 40
1.0
 40
1.0
 10
21.75822322591027
 20
4.747823464752684
 30
0.0
 10
21.83244612505677
 20
4.729832432928381
 30
0.0
 10
21.90706220861891
 20
4.695781044302217
 30
0.0
 10
21.96844939997431
 20
4.650254533499275
 30
0.0
  0
SPLINE
  5
F9
330
1F
100
AcDbEntity
  8
외형선
  6
Continuous
 62
     1
370
    15
100
AcDbSpline
210
0.0
220
0.0
230
1.0
 70
     8
 71
     3
 72
     8
 73
     4
 74
     0
 42
0.000000001
 43
0.00000001
 40
0.0
 40
0.0
 40
0.0
 40
0.0
 40
1.0
 40
1.0
 40
1.0
 40
1.0
 10
21.75822244834952
 20
4.747823653227121
 30
0.0
 10
21.27082992475965
 20
4.865963662571796
 30
0.0
 10
20.78127573911731
 20
4.978681779051513
 30
0.0
 10
20.29070391238756
 20
5.085453809616045
 30
0.0
  0
SPLINE
  5
FA
330
1F
100
AcDbEntity
  8
외형선
  6
Continuous
 62
     1
370
    15
100
AcDbSpline
210
0.0
220
0.0
230
1.0
 70
     8
 71
     3
 72
     8
 73
     4
 74
     0
 42
0.000000001
 43
0.00000001
 40
0.0
 40
0.0
 40
0.0
 40
0.0
 40
1.0
 40
1.0
 40
1.0
 40
1.0
 10
20.0791057667116
 20
5.079181894146291
 30
0.0
 10
20.1398607361658
 20
5.099924391943628
 30
0.0
 10
20.21424019704295
 20
5.102095993215245
 30
0.0
 10
20.29070431684989
 20
5.085453721588051
 30
0.0
  0
SPLINE
  5
FB
330
1F
100
AcDbEntity
  8
외형선
  6
Continuous
 62
     1
370
    15
100
AcDbSpline
210
0.0
220
0.0
230
1.0
 70
     8
 71
     3
 72
    10
 73
     6
 74
     0
 42
0.000000001
 43
0.00000001
 40
0.0
 40
0.0
 40
0.0
 40
0.0
 40
0.5
 40
0.5
 40
1.0
 40
1.0
 40
1.0
 40
1.0
 10
19.23523404280646
 20
5.251499405943588
 30
0.0
 10
19.36008520426897
 20
5.153687457572338
 30
0.0
 10
19.51174890863538
 20
5.089700710532659
 30
0.0
 10
19.81416238406049
 20
5.031926439249714
 30
0.0
 10
19.95922604446944
 20
5.03825347467812
 30
0.0
 10
20.07910576671132
 20
5.079181894146041
 30
0.0
  0
SPLINE
  5
FC
330
1F
100
AcDbEntity
  8
외형선
  6
Continuous
 62
     1
370
    15
100
AcDbSpline
210
0.0
220
0.0
230
1.0
 70
     8
 71
     3
 72
     8
 73
     4
 74
     0
 42
0.000000001
 43
0.00000001
 40
0.0
 40
0.0
 40
0.0
 40
0.0
 40
1.0
 40
1.0
 40
1.0
 40
1.0
 10
19.02490241095424
 20
5.347431721118796
 30
0.0
 10
19.09916525874861
 20
5.332856193648086
 30
0.0
 10
19.17381824307449
 20
5.299614288998239
 30
0.0
 10
19.23523404280746
 20
5.251499405946872
 30
0.0
  0
SPLINE
  5
FD
330
1F
100
AcDbEntity
  8
외형선
  6
Continuous
 62
     1
370
    15
100
AcDbSpline
210
0.0
220
0.0
230
1.0
 70
     8
 71
     3
 72
     8
 73
     4
 74
     0
 42
0.000000001
 43
0.00000001
 40
0.0
 40
0.0
 40
0.0
 40
0.0
 40
1.0
 40
1.0
 40
1.0
 40
1.0
 10
19.02490248774087
 20
5.34743170604792
 30
0.0
 10
18.5343602977379
 20
5.443710147094651
 30
0.0
 10
18.04711899770824
 20
5.533447678696247
 30
0.0
 10
17.55666585744273
 20
5.616724069117922
 30
0.0
  0
SPLINE
  5
FE
330
1F
100
AcDbEntity
  8
외형선
  6
Continuous
 62
     1
370
    15
100
AcDbSpline
210
0.0
220
0.0
230
1.0
 70
     8
 71
     3
 72
     8
 73
     4
 74
     0
 42
0.000000001
 43
0.00000001
 40
0.0
 40
0.0
 40
0.0
 40
0.0
 40
1.0
 40
1.0
 40
1.0
 40
1.0
 10
17.344996441889
 20
5.593204952350305
 30
0.0
 10
17.40577889933353
 20
5.62148842307688
 30
0.0
 10
17.48018252567701
 20
5.629710540757122
 30
0.0
 10
17.55666585502134
 20
5.616724069531881
 30
0.0
  0
SPLINE
  5
FF
330
1F
100
AcDbEntity
  8
외형선
  6
Continuous
 62
     1
370
    15
100
AcDbSpline
210
0.0
220
0.0
230
1.0
 70
     8
 71
     3
 72
    10
 73
     6
 74
     0
 42
0.000000001
 43
0.00000001
 40
0.0
 40
0.0
 40
0.0
 40
0.0
 40
0.4999999999999999
 40
0.4999999999999999
 40
1.0
 40
1.0
 40
1.0
 40
1.0
 10
16.50099921712084
 20
5.72447171475319
 30
0.0
 10
16.62587515558154
 20
5.623731995175992
 30
0.0
 10
16.77757226587064
 20
5.562199458034916
 30
0.0
 10
17.08003339327535
 20
5.519165551404435
 30
0.0
 10
17.22509725612701
 20
5.53741311284167
 30
0.0
 10
17.34499644188845
 20
5.593204952349923
 30
0.0
  0
SPLINE
  5
100
330
1F
100
AcDbEntity
  8
외형선
  6
Continuous
 62
     1
370
    15
100
AcDbSpline
210
0.0
220
0.0
230
1.0
 70
     8
 71
     3
 72
     8
 73
     4
 74
     0
 42
0.000000001
 43
0.00000001
 40
0.0
 40
0.0
 40
0.0
 40
0.0
 40
1.0
 40
1.0
 40
1.0
 40
1.0
 10
16.29066799765064
 20
5.816492458537732
 30
0.0
 10
16.364934927914
 20
5.80566331792607
 30
0.0
 10
16.43958679573944
 20
5.774014246207003
 30
0.0
 10
16.50099921712184
 20
5.724471714756926
 30
0.0
  0
SPLINE
  5
101
330
1F
100
AcDbEntity
  8
외형선
  6
Continuous
 62
     1
370
    15
100
AcDbSpline
210
0.0
220
0.0
230
1.0
 70
     8
 71
     3
 72
     8
 73
     4
 74
     0
 42
0.000000001
 43
0.00000001
 40
0.0
 40
0.0
 40
0.0
 40
0.0
 40
1.0
 40
1.0
 40
1.0
 40
1.0
 10
16.29066830487029
 20
5.816492413740869
 30
0.0
 10
15.79988067333735
 20
5.888056008269426
 30
0.0
 10
15.30976790057152
 20
5.952692320781104
 30
0.0
 10
14.82233457252451
 20
6.010132224670801
 30
0.0
  0
SPLINE
  5
102
330
1F
100
AcDbEntity
  8
외형선
  6
Continuous
 62
     1
370
    15
100
AcDbSpline
210
0.0
220
0.0
230
1.0
 70
     8
 71
     3
 72
     8
 73
     4
 74
     0
 42
0.000000001
 43
0.00000001
 40
0.0
 40
0.0
 40
0.0
 40
0.0
 40
1.0
 40
1.0
 40
1.0
 40
1.0
 10
14.61110203972818
 20
5.969897447653491
 30
0.0
 10
14.67186318369405
 20
6.005027674849661
 30
0.0
 10
14.74624442197481
 20
6.019099383620524
 30
0.0
 10
14.82270305377583
 20
6.010088800874857
 30
0.0
  0
SPLINE
  5
103
330
1F
100
AcDbEntity
  8
외형선
  6
Continuous
 62
     1
370
    15
100
AcDbSpline
210
0.0
220
0.0
230
1.0
 70
     8
 71
     3
 72
    10
 73
     6
 74
     0
 42
0.000000001
 43
0.00000001
 40
0.0
 40
0.0
 40
0.0
 40
0.0
 40
0.5
 40
0.5
 40
1.0
 40
1.0
 40
1.0
 40
1.0
 10
13.76746965345331
 20
6.056981239618216
 30
0.0
 10
13.89229792190017
 20
5.955777124035293
 30
0.0
 10
14.04394621804758
 20
5.898176785940826
 30
0.0
 10
14.34629629170826
 20
5.870902441313733
 30
0.0
 10
14.49127554411779
 20
5.900617448295242
 30
0.0
 10
14.61110203972772
 20
5.96989744765313
 30
0.0
  0
SPLINE
  5
104
330
1F
100
AcDbEntity
  8
외형선
  6
Continuous
 62
     1
370
    15
100
AcDbSpline
210
0.0
220
0.0
230
1.0
 70
     8
 71
     3
 72
     8
 73
     4
 74
     0
 42
0.000000001
 43
0.00000001
 40
0.0
 40
0.0
 40
0.0
 40
0.0
 40
1.0
 40
1.0
 40
1.0
 40
1.0
 10
13.55724459783322
 20
6.142880952566291
 30
0.0
 10
13.63147985872687
 20
6.1360454014435
 30
0.0
 10
13.70609262544226
 20
6.106742466900886
 30
0.0
 10
13.76746965345427
 20
6.056981239622241
 30
0.0
  0
SPLINE
  5
105
330
1F
100
AcDbEntity
  8
외형선
  6
Continuous
 62
     1
370
    15
100
AcDbSpline
210
0.0
220
0.0
230
1.0
 70
     8
 71
     3
 72
     8
 73
     4
 74
     0
 42
0.000000001
 43
0.00000001
 40
0.0
 40
0.0
 40
0.0
 40
0.0
 40
1.0
 40
1.0
 40
1.0
 40
1.0
 10
13.55724525579344
 20
6.142880891981569
 30
0.0
 10
13.06820391854362
 20
6.187911616000701
 30
0.0
 10
12.57841636515181
 20
6.225731379110293
 30
0.0
 10
12.09046711078394
 20
6.256156811063694
 30
0.0
  0
SPLINE
  5
106
330
1F
100
AcDbEntity
  8
외형선
  6
Continuous
 62
     1
370
    15
100
AcDbSpline
210
0.0
220
0.0
230
1.0
 70
     8
 71
     3
 72
     8
 73
     4
 74
     0
 42
0.000000001
 43
0.00000001
 40
0.0
 40
0.0
 40
0.0
 40
0.0
 40
1.0
 40
1.0
 40
1.0
 40
1.0
 10
11.87907053293542
 20
6.20016620623607
 30
0.0
 10
11.93975254125123
 20
6.241289305827785
 30
0.0
 10
12.0140622624615
 20
6.260920934291438
 30
0.0
 10
12.09046692846938
 20
6.256156822434927
 30
0.0
  0
SPLINE
  5
107
330
1F
100
AcDbEntity
  8
외형선
  6
Continuous
 62
     1
370
    15
100
AcDbSpline
210
0.0
220
0.0
230
1.0
 70
     8
 71
     3
 72
    10
 73
     6
 74
     0
 42
0.000000001
 43
0.00000001
 40
0.0
 40
0.0
 40
0.0
 40
0.0
 40
0.5
 40
0.5
 40
1.0
 40
1.0
 40
1.0
 40
1.0
 10
11.03578121385894
 20
6.240885012128125
 30
0.0
 10
11.16056783575206
 20
6.141715659858398
 30
0.0
 10
11.31213904937953
 20
6.089456380163487
 30
0.0
 10
11.6143316093468
 20
6.078554162520627
 30
0.0
 10
11.75929489113948
 20
6.11899641995192
 30
0.0
 10
11.87907053293486
 20
6.200166206235592
 30
0.0
  0
SPLINE
  5
108
330
1F
100
AcDbEntity
  8
외형선
  6
Continuous
 62
     1
370
    15
100
AcDbSpline
210
0.0
220
0.0
230
1.0
 70
     8
 71
     3
 72
     8
 73
     4
 74
     0
 42
0.000000001
 43
0.00000001
 40
0.0
 40
0.0
 40
0.0
 40
0.0
 40
1.0
 40
1.0
 40
1.0
 40
1.0
 10
10.8255645091173
 20
6.318584978590483
 30
0.0
 10
10.89979524735846
 20
6.315899628771981
 30
0.0
 10
10.97440404091517
 20
6.289662151802133
 30
0.0
 10
11.03578121385992
 20
6.240885012132427
 30
0.0
  0
SPLINE
  5
109
330
1F
100
AcDbEntity
  8
외형선
  6
Continuous
 62
     1
370
    15
100
AcDbSpline
210
0.0
220
0.0
230
1.0
 70
     8
 71
     3
 72
     8
 73
     4
 74
     0
 42
0.000000001
 43
0.00000001
 40
0.0
 40
0.0
 40
0.0
 40
0.0
 40
0.5628991585563992
 40
0.5628991585563992
 40
0.5628991585563992
 40
0.5628991585563992
 10
10.8255664625338
 20
6.318584907924182
 30
0.0
 10
10.55084849640624
 20
6.328523037207546
 30
0.0
 10
10.27550581460219
 20
6.336112444190677
 30
0.0
 10
9.99999999999995
 20
6.341339796592179
 30
0.0
  0
SPLINE
  5
10C
330
1F
100
AcDbEntity
  8
외형선
  6
Continuous
 62
     1
370
    15
100
AcDbSpline
210
0.0
220
0.0
230
1.0
 70
     8
 71
     3
 72
     9
 73
     5
 74
     0
 42
0.000000001
 43
0.00000001
 40
0.0
 40
0.0
 40
0.0
 40
0.0
 40
0.7739542088407393
 40
1.0
 40
1.0
 40
1.0
 40
1.0
 10
22.18451397743503
 20
4.829448501331071
 30
0.0
 10
22.11786176245934
 20
4.783208692117743
 30
0.0
 10
22.03174269467171
 20
4.723463801935432
 30
0.0
 10
21.93298411009737
 20
4.693878532467243
 30
0.0
 10
21.91066014771349
 20
4.687190906823645
 30
0.0
  0
SPLINE
  5
10D
330
1F
100
AcDbEntity
  8
외형선
  6
Continuous
 62
     1
370
    15
100
AcDbSpline
210
0.0
220
0.0
230
1.0
 70
     8
 71
     3
 72
     8
 73
     4
 74
     0
 42
0.000000001
 43
0.00000001
 40
0.0
 40
0.0
 40
0.0
 40
0.0
 40
1.0
 40
1.0
 40
1.0
 40
1.0
 10
22.39485261596847
 20
4.926762732525096
 30
0.0
 10
22.32058377039123
 20
4.909707155148002
 30
0.0
 10
22.24593201997596
 20
4.875810325306749
 30
0.0
 10
22.1845139774339
 20
4.829448501333558
 30
0.0
  0
SPLINE
  5
10E
330
1F
100
AcDbEntity
  8
외형선
  6
Continuous
 62
     1
370
    15
100
AcDbSpline
210
0.0
220
0.0
230
1.0
 70
     8
 71
     3
 72
     8
 73
     4
 74
     0
 42
0.000000001
 43
0.00000001
 40
0.0
 40
0.0
 40
0.0
 40
0.0
 40
1.0
 40
1.0
 40
1.0
 40
1.0
 10
23.86271897604966
 20
5.245643797501152
 30
0.0
 10
23.37336451738749
 20
5.145398177945729
 30
0.0
 10
22.88321210537026
 20
5.038912764500203
 30
0.0
 10
22.39485205185349
 20
4.926762602978081
 30
0.0
  0
SPLINE
  5
10F
330
1F
100
AcDbEntity
  8
외형선
  6
Continuous
 62
     1
370
    15
100
AcDbSpline
210
0.0
220
0.0
230
1.0
 70
     8
 71
     3
 72
     8
 73
     4
 74
     0
 42
0.000000001
 43
0.00000001
 40
0.0
 40
0.0
 40
0.0
 40
0.0
 40
1.0
 40
1.0
 40
1.0
 40
1.0
 10
24.074291365701
 20
5.234561477056672
 30
0.0
 10
24.01354813397595
 20
5.257448024636004
 30
0.0
 10
23.93917728671618
 20
5.261306494730877
 30
0.0
 10
23.86271897608656
 20
5.245643797511225
 30
0.0
  0
SPLINE
  5
110
330
1F
100
AcDbEntity
  8
외형선
  6
Continuous
 62
     1
370
    15
100
AcDbSpline
210
0.0
220
0.0
230
1.0
 70
     8
 71
     3
 72
    10
 73
     6
 74
     0
 42
0.000000001
 43
0.00000001
 40
0.0
 40
0.0
 40
0.0
 40
0.0
 40
0.5
 40
0.5
 40
1.0
 40
1.0
 40
1.0
 40
1.0
 10
24.9178862304971
 20
5.396110949854755
 30
0.0
 10
24.79308447407617
 20
5.297192613321256
 30
0.0
 10
24.64147637298322
 20
5.233667508650909
 30
0.0
 10
24.33916171361891
 20
5.179766273644661
 30
0.0
 10
24.19413909704824
 20
5.189405815628959
 30
0.0
 10
24.0742913657016
 20
5.23456147705629
 30
0.0
  0
SPLINE
  5
111
330
1F
100
AcDbEntity
  8
외형선
  6
Continuous
 62
     1
370
    15
100
AcDbSpline
210
0.0
220
0.0
230
1.0
 70
     8
 71
     3
 72
     8
 73
     4
 74
     0
 42
0.000000001
 43
0.00000001
 40
0.0
 40
0.0
 40
0.0
 40
0.0
 40
1.0
 40
1.0
 40
1.0
 40
1.0
 10
25.12812114829735
 20
5.491301976537039
 30
0.0
 10
25.05389599915348
 20
5.477692248001777
 30
0.0
 10
24.97927805820187
 20
5.444770340939309
 30
0.0
 10
24.91788623049597
 20
5.396110949857686
 30
0.0
  0
SPLINE
  5
112
330
1F
100
AcDbEntity
  8
외형선
  6
Continuous
 62
     1
370
    15
100
AcDbSpline
210
0.0
220
0.0
230
1.0
 70
     8
 71
     3
 72
     8
 73
     4
 74
     0
 42
0.000000001
 43
0.00000001
 40
0.0
 40
0.0
 40
0.0
 40
0.0
 40
1.0
 40
1.0
 40
1.0
 40
1.0
 10
26.59487144936892
 20
5.739730449518836
 30
0.0
 10
26.10466253340199
 20
5.663525007753431
 30
0.0
 10
25.61488492163744
 20
5.580553704453751
 30
0.0
 10
25.12812114828849
 20
5.491301976535413
 30
0.0
  0
SPLINE
  5
113
330
1F
100
AcDbEntity
  8
외형선
  6
Continuous
 62
     1
370
    15
100
AcDbSpline
210
0.0
220
0.0
230
1.0
 70
     8
 71
     3
 72
     8
 73
     4
 74
     0
 42
0.000000001
 43
0.00000001
 40
0.0
 40
0.0
 40
0.0
 40
0.0
 40
1.0
 40
1.0
 40
1.0
 40
1.0
 10
26.80627363004693
 20
5.711429249920699
 30
0.0
 10
26.74558927423067
 20
5.741698807366133
 30
0.0
 10
26.67127502704093
 20
5.751607769975053
 30
0.0
 10
26.59487145612155
 20
5.739730450571363
 30
0.0
  0
SPLINE
  5
114
330
1F
100
AcDbEntity
  8
외형선
  6
Continuous
 62
     1
370
    15
100
AcDbSpline
210
0.0
220
0.0
230
1.0
 70
     8
 71
     3
 72
    10
 73
     6
 74
     0
 42
0.000000001
 43
0.00000001
 40
0.0
 40
0.0
 40
0.0
 40
0.0
 40
0.5
 40
0.5
 40
1.0
 40
1.0
 40
1.0
 40
1.0
 10
27.64954624604044
 20
5.830647278452258
 30
0.0
 10
27.52479205748418
 20
5.729574923636237
 30
0.0
 10
27.37323413859026
 20
5.668963713774755
 30
0.0
 10
27.07100621200653
 20
5.630189408856101
 30
0.0
 10
26.92603708895393
 20
5.651690840399192
 30
0.0
 10
26.80627363004754
 20
5.711429249920291
 30
0.0
  0
SPLINE
  5
115
330
1F
100
AcDbEntity
  8
외형선
  6
Continuous
 62
     1
370
    15
100
AcDbSpline
210
0.0
220
0.0
230
1.0
 70
     8
 71
     3
 72
     8
 73
     4
 74
     0
 42
0.000000001
 43
0.00000001
 40
0.0
 40
0.0
 40
0.0
 40
0.0
 40
1.0
 40
1.0
 40
1.0
 40
1.0
 10
27.85976762243487
 20
5.921222172122962
 30
0.0
 10
27.78553934796231
 20
5.911461710699484
 30
0.0
 10
27.71092514677875
 20
5.880374747372541
 30
0.0
 10
27.64954624603932
 20
5.830647278455626
 30
0.0
  0
SPLINE
  5
116
330
1F
100
AcDbEntity
  8
외형선
  6
Continuous
 62
     1
370
    15
100
AcDbSpline
210
0.0
220
0.0
230
1.0
 70
     8
 71
     3
 72
     8
 73
     4
 74
     0
 42
0.000000001
 43
0.00000001
 40
0.1887554722649316
 40
0.1887554722649316
 40
0.1887554722649316
 40
0.1887554722649316
 40
1.0
 40
1.0
 40
1.0
 40
1.0
 10
29.05
 20
6.349999999999991
 30
0.0
 10
28.6530120237316
 20
6.190290720094634
 30
0.0
 10
28.25742115853505
 20
6.080167413466597
 30
0.0
 10
27.85976757288013
 20
5.921222165606931
 30
0.0
  0
SPLINE
  5
11D
330
1F
100
AcDbEntity
  8
외형선
  6
Continuous
 62
     1
370
    15
100
AcDbSpline
210
0.0
220
0.0
230
1.0
 70
     8
 71
     3
 72
     9
 73
     5
 74
     0
 42
0.000000001
 43
0.00000001
 40
0.0
 40
0.0
 40
0.0
 40
0.0
 40
0.7221675798995931
 40
1.0
 40
1.0
 40
1.0
 40
1.0
 10
33.87222192513217
 20
-2.982534712238582
 30
0.0
 10
33.75965954489021
 20
-3.015896922733754
 30
0.0
 10
33.60379214876922
 20
-3.062094247875116
 30
0.0
 10
33.4391087108913
 20
-3.126561026258447
 30
0.0
 10
33.39335431279522
 20
-3.144471987312764
 30
0.0
  0
SPLINE
  5
11E
330
1F
100
AcDbEntity
  8
외형선
  6
Continuous
 62
     1
370
    15
100
AcDbSpline
210
0.0
220
0.0
230
1.0
 70
     8
 71
     3
 72
     8
 73
     4
 74
     0
 42
0.000000001
 43
0.00000001
 40
0.502764468944861
 40
0.502764468944861
 40
0.502764468944861
 40
0.502764468944861
 40
1.0
 40
1.0
 40
1.0
 40
1.0
 10
34.38802443414975
 20
-3.439185243690722
 30
0.0
 10
34.05547182611007
 20
-3.344920282346785
 30
0.0
 10
33.72394266580481
 20
-3.246572642056158
 30
0.0
 10
33.39335431279523
 20
-3.144471987312762
 30
0.0
  0
SPLINE
  5
12B
330
1F
100
AcDbEntity
  8
외형선
  6
Continuous
 62
     1
370
    15
100
AcDbSpline
210
0.0
220
0.0
230
1.0
 70
     8
 71
     3
 72
     8
 73
     4
 74
     0
 42
0.000000001
 43
0.00000001
 40
0.0
 40
0.0
 40
0.0
 40
0.0
 40
1.0
 40
1.0
 40
1.0
 40
1.0
 10
28.13569243583532
 20
-6.349999999999977
 30
0.0
 10
27.64785553601932
 20
-6.351620923122321
 30
0.0
 10
27.15772418935131
 20
-6.35207207009376
 30
0.0
 10
26.66788786396564
 20
-6.345032218464126
 30
0.0
  0
SPLINE
  5
12C
330
1F
100
AcDbEntity
  8
외형선
  6
Continuous
 62
     1
370
    15
100
AcDbSpline
210
0.0
220
0.0
230
1.0
 70
     8
 71
     3
 72
     8
 73
     4
 74
     0
 42
0.000000001
 43
0.00000001
 40
0.0
 40
0.0
 40
0.0
 40
0.0
 40
1.0
 40
1.0
 40
1.0
 40
1.0
 10
26.4562531761476
 20
-6.270017969348804
 30
0.0
 10
26.5170211054556
 20
-6.317626858237854
 30
0.0
 10
26.59141287001064
 20
-6.34393313576303
 30
0.0
 10
26.66789040360755
 20
-6.345032254966827
 30
0.0
  0
SPLINE
  5
12D
330
1F
100
AcDbEntity
  8
외형선
  6
Continuous
 62
     1
370
    15
100
AcDbSpline
210
0.0
220
0.0
230
1.0
 70
     8
 71
     3
 72
    10
 73
     6
 74
     0
 42
0.000000001
 43
0.00000001
 40
0.0
 40
0.0
 40
0.0
 40
0.0
 40
0.5
 40
0.5
 40
1.0
 40
1.0
 40
1.0
 40
1.0
 10
25.61226146836252
 20
-6.246562507935627
 30
0.0
 10
25.73713197065337
 20
-6.15396392862968
 30
0.0
 10
25.88881102021062
 20
-6.110973933224178
 30
0.0
 10
26.19125128312421
 20
-6.122704167840362
 30
0.0
 10
26.33634302651733
 20
-6.17607386008874
 30
0.0
 10
26.45625317614756
 20
-6.270017969348783
 30
0.0
  0
SPLINE
  5
12E
330
1F
100
AcDbEntity
  8
외형선
  6
Continuous
 62
     1
370
    15
100
AcDbSpline
210
0.0
220
0.0
230
1.0
 70
     8
 71
     3
 72
     8
 73
     4
 74
     0
 42
0.000000001
 43
0.00000001
 40
0.0
 40
0.0
 40
0.0
 40
0.0
 40
1.0
 40
1.0
 40
1.0
 40
1.0
 10
25.40190592803069
 20
-6.310144984243606
 30
0.0
 10
25.47617142879387
 20
-6.313174056495324
 30
0.0
 10
25.55083298870035
 20
-6.292115219279791
 30
0.0
 10
25.6122614683641
 20
-6.246562507939908
 30
0.0
  0
SPLINE
  5
12F
330
1F
100
AcDbEntity
  8
외형선
  6
Continuous
 62
     1
370
    15
100
AcDbSpline
210
0.0
220
0.0
230
1.0
 70
     8
 71
     3
 72
     8
 73
     4
 74
     0
 42
0.000000001
 43
0.00000001
 40
0.0
 40
0.0
 40
0.0
 40
0.0
 40
1.0
 40
1.0
 40
1.0
 40
1.0
 10
25.40190517632316
 20
-6.310144953583783
 30
0.0
 10
24.91306484142257
 20
-6.290206580415799
 30
0.0
 10
24.42465511993473
 20
-6.262822354389285
 30
0.0
 10
23.9336621013525
 20
-6.228000747996691
 30
0.0
  0
SPLINE
  5
130
330
1F
100
AcDbEntity
  8
외형선
  6
Continuous
 62
     1
370
    15
100
AcDbSpline
210
0.0
220
0.0
230
1.0
 70
     8
 71
     3
 72
     8
 73
     4
 74
     0
 42
0.000000001
 43
0.00000001
 40
0.0
 40
0.0
 40
0.0
 40
0.0
 40
1.0
 40
1.0
 40
1.0
 40
1.0
 10
23.72201004275647
 20
-6.141018546927507
 30
0.0
 10
23.78278415941635
 20
-6.192069437665332
 30
0.0
 10
23.85718216700778
 20
-6.222576731739525
 30
0.0
 10
23.93366217252514
 20
-6.228000753047743
 30
0.0
  0
SPLINE
  5
131
330
1F
100
AcDbEntity
  8
외형선
  6
Continuous
 62
     1
370
    15
100
AcDbSpline
210
0.0
220
0.0
230
1.0
 70
     8
 71
     3
 72
    10
 73
     6
 74
     0
 42
0.000000001
 43
0.00000001
 40
0.0
 40
0.0
 40
0.0
 40
0.0
 40
0.5
 40
0.5
 40
1.0
 40
1.0
 40
1.0
 40
1.0
 10
22.87809419287791
 20
-6.070678267939344
 30
0.0
 10
23.00294996752194
 20
-5.9856152706851
 30
0.0
 10
23.15462522004503
 20
-5.950718935234731
 30
0.0
 10
23.45705827771619
 20
-5.978883230519433
 30
0.0
 10
23.60211834851939
 20
-6.040308275528146
 30
0.0
 10
23.72201004275739
 20
-6.141018546928263
 30
0.0
  0
SPLINE
  5
132
330
1F
100
AcDbEntity
  8
외형선
  6
Continuous
 62
     1
370
    15
100
AcDbSpline
210
0.0
220
0.0
230
1.0
 70
     8
 71
     3
 72
     8
 73
     4
 74
     0
 42
0.000000001
 43
0.00000001
 40
0.0
 40
0.0
 40
0.0
 40
0.0
 40
1.0
 40
1.0
 40
1.0
 40
1.0
 10
22.66778382355375
 20
-6.121978944875726
 30
0.0
 10
22.74204175509747
 20
-6.129151679679016
 30
0.0
 10
22.81668669581181
 20
-6.112514584840282
 30
0.0
 10
22.87809419287942
 20
-6.070678267943622
 30
0.0
  0
SPLINE
  5
133
330
1F
100
AcDbEntity
  8
외형선
  6
Continuous
 62
     1
370
    15
100
AcDbSpline
210
0.0
220
0.0
230
1.0
 70
     8
 71
     3
 72
     8
 73
     4
 74
     0
 42
0.000000001
 43
0.00000001
 40
0.0
 40
0.0
 40
0.0
 40
0.0
 40
1.0
 40
1.0
 40
1.0
 40
1.0
 10
22.66778372348277
 20
-6.121978935209973
 30
0.0
 10
22.17705810663659
 20
-6.074578681628019
 30
0.0
 10
21.68967676464245
 20
-6.020045256288547
 30
0.0
 10
21.2000688161251
 20
-5.958381855524438
 30
0.0
  0
SPLINE
  5
134
330
1F
100
AcDbEntity
  8
외형선
  6
Continuous
 62
     1
370
    15
100
AcDbSpline
210
0.0
220
0.0
230
1.0
 70
     8
 71
     3
 72
     8
 73
     4
 74
     0
 42
0.000000001
 43
0.00000001
 40
0.0
 40
0.0
 40
0.0
 40
0.0
 40
1.0
 40
1.0
 40
1.0
 40
1.0
 10
20.98854085175486
 20
-5.861539614766375
 30
0.0
 10
21.04927242668357
 20
-5.914783800072769
 30
0.0
 10
21.12363020436969
 20
-5.94875483720286
 30
0.0
 10
21.20006889774666
 20
-5.958381865807561
 30
0.0
  0
SPLINE
  5
135
330
1F
100
AcDbEntity
  8
외형선
  6
Continuous
 62
     1
370
    15
100
AcDbSpline
210
0.0
220
0.0
230
1.0
 70
     8
 71
     3
 72
    10
 73
     6
 74
     0
 42
0.000000001
 43
0.00000001
 40
0.0
 40
0.0
 40
0.0
 40
0.0
 40
0.5
 40
0.5
 40
1.0
 40
1.0
 40
1.0
 40
1.0
 10
20.14518860705782
 20
-5.746041920521851
 30
0.0
 10
20.26995758455585
 20
-5.670604972191267
 30
0.0
 10
20.42154712592377
 20
-5.644639266934798
 30
0.0
 10
20.7238150090743
 20
-5.688540712620973
 30
0.0
 10
20.86875924554845
 20
-5.756525475998481
 30
0.0
 10
20.98854085175485
 20
-5.861539614766357
 30
0.0
  0
SPLINE
  5
136
330
1F
100
AcDbEntity
  8
외형선
  6
Continuous
 62
     1
370
    15
100
AcDbSpline
210
0.0
220
0.0
230
1.0
 70
     8
 71
     3
 72
     8
 73
     4
 74
     0
 42
0.000000001
 43
0.00000001
 40
0.0
 40
0.0
 40
0.0
 40
0.0
 40
1.0
 40
1.0
 40
1.0
 40
1.0
 10
19.93502823239782
 20
-5.78382780361763
 30
0.0
 10
20.00924309438088
 20
-5.79495946794957
 30
0.0
 10
20.08383375936174
 20
-5.78313786030476
 30
0.0
 10
20.14518860705931
 20
-5.746041920525932
 30
0.0
  0
SPLINE
  5
137
330
1F
100
AcDbEntity
  8
외형선
  6
Continuous
 62
     1
370
    15
100
AcDbSpline
210
0.0
220
0.0
230
1.0
 70
     8
 71
     3
 72
     8
 73
     4
 74
     0
 42
0.000000001
 43
0.00000001
 40
0.0
 40
0.0
 40
0.0
 40
0.0
 40
1.0
 40
1.0
 40
1.0
 40
1.0
 10
19.9350284182565
 20
-5.783827831495522
 30
0.0
 10
19.44519486837636
 20
-5.710356529620802
 30
0.0
 10
18.95545255198514
 20
-5.630061083452039
 30
0.0
 10
18.46838417097394
 20
-5.54340345405125
 30
0.0
  0
SPLINE
  5
138
330
1F
100
AcDbEntity
  8
외형선
  6
Continuous
 62
     1
370
    15
100
AcDbSpline
210
0.0
220
0.0
230
1.0
 70
     8
 71
     3
 72
     8
 73
     4
 74
     0
 42
0.000000001
 43
0.00000001
 40
0.0
 40
0.0
 40
0.0
 40
0.0
 40
1.0
 40
1.0
 40
1.0
 40
1.0
 10
18.25688835000468
 20
-5.439018721052174
 30
0.0
 10
18.31760823687428
 20
-5.493172329848864
 30
0.0
 10
18.39194839288342
 20
-5.529804247876082
 30
0.0
 10
18.46838416345289
 20
-5.543403452716307
 30
0.0
  0
SPLINE
  5
139
330
1F
100
AcDbEntity
  8
외형선
  6
Continuous
 62
     1
370
    15
100
AcDbSpline
210
0.0
220
0.0
230
1.0
 70
     8
 71
     3
 72
    10
 73
     6
 74
     0
 42
0.000000001
 43
0.00000001
 40
0.0
 40
0.0
 40
0.0
 40
0.0
 40
0.5000000000000001
 40
0.5000000000000001
 40
1.0
 40
1.0
 40
1.0
 40
1.0
 10
17.41333932759903
 20
-5.280848105024121
 30
0.0
 10
17.53816848280371
 20
-5.216907735298131
 30
0.0
 10
17.68980601089172
 20
-5.200593151032558
 30
0.0
 10
17.99212243976924
 20
-5.259260080296469
 30
0.0
 10
18.13709335047383
 20
-5.332178410984947
 30
0.0
 10
18.25688835000465
 20
-5.439018721052158
 30
0.0
  0
SPLINE
  5
13A
330
1F
100
AcDbEntity
  8
외형선
  6
Continuous
 62
     1
370
    15
100
AcDbSpline
210
0.0
220
0.0
230
1.0
 70
     8
 71
     3
 72
     8
 73
     4
 74
     0
 42
0.000000001
 43
0.00000001
 40
0.0
 40
0.0
 40
0.0
 40
0.0
 40
1.0
 40
1.0
 40
1.0
 40
1.0
 10
17.20307681391182
 20
-5.304113567701698
 30
0.0
 10
17.27732337927303
 20
-5.318957453006338
 30
0.0
 10
17.35194958749104
 20
-5.312293344511597
 30
0.0
 10
17.41333932760057
 20
-5.280848105028169
 30
0.0
  0
SPLINE
  5
13B
330
1F
100
AcDbEntity
  8
외형선
  6
Continuous
 62
     1
370
    15
100
AcDbSpline
210
0.0
220
0.0
230
1.0
 70
     8
 71
     3
 72
     8
 73
     4
 74
     0
 42
0.000000001
 43
0.00000001
 40
0.0
 40
0.0
 40
0.0
 40
0.0
 40
1.0
 40
1.0
 40
1.0
 40
1.0
 10
17.20307681391089
 20
-5.304113567702189
 30
0.0
 10
16.71409053183395
 20
-5.206352058438596
 30
0.0
 10
16.22396805474227
 20
-5.102265629485434
 30
0.0
 10
15.73529937175618
 20
-4.992408255385602
 30
0.0
  0
SPLINE
  5
13C
330
1F
100
AcDbEntity
  8
외형선
  6
Continuous
 62
     1
370
    15
100
AcDbSpline
210
0.0
220
0.0
230
1.0
 70
     8
 71
     3
 72
     8
 73
     4
 74
     0
 42
0.000000001
 43
0.00000001
 40
0.0
 40
0.0
 40
0.0
 40
0.0
 40
1.0
 40
1.0
 40
1.0
 40
1.0
 10
15.52365466859568
 20
-4.883193095726674
 30
0.0
 10
15.58442479581328
 20
-4.936887247275647
 30
0.0
 10
15.65881708860232
 20
-4.975214307705179
 30
0.0
 10
15.73529783328548
 20
-4.99240790952567
 30
0.0
  0
SPLINE
  5
13D
330
1F
100
AcDbEntity
  8
외형선
  6
Continuous
 62
     1
370
    15
100
AcDbSpline
210
0.0
220
0.0
230
1.0
 70
     8
 71
     3
 72
    10
 73
     6
 74
     0
 42
0.000000001
 43
0.00000001
 40
0.0
 40
0.0
 40
0.0
 40
0.0
 40
0.5
 40
0.5
 40
1.0
 40
1.0
 40
1.0
 40
1.0
 10
14.67961707152846
 20
-4.686239559897789
 30
0.0
 10
14.80451290782394
 20
-4.635432806567194
 30
0.0
 10
14.95618877242643
 20
-4.629267320332248
 30
0.0
 10
15.25862816428855
 20
-4.701240133980493
 30
0.0
 10
15.40372831941549
 20
-4.77723077735645
 30
0.0
 10
15.5236546685956
 20
-4.883193095726084
 30
0.0
  0
SPLINE
  5
13E
330
1F
100
AcDbEntity
  8
외형선
  6
Continuous
 62
     1
370
    15
100
AcDbSpline
210
0.0
220
0.0
230
1.0
 70
     8
 71
     3
 72
     8
 73
     4
 74
     0
 42
0.000000001
 43
0.00000001
 40
0.0
 40
0.0
 40
0.0
 40
0.0
 40
1.0
 40
1.0
 40
1.0
 40
1.0
 10
14.46925905267575
 20
-4.694304317074302
 30
0.0
 10
14.54353214043519
 20
-4.712533099078138
 30
0.0
 10
14.61818996133474
 20
-4.711227679025317
 30
0.0
 10
14.67961707152999
 20
-4.68623955990131
 30
0.0
  0
SPLINE
  5
13F
330
1F
100
AcDbEntity
  8
외형선
  6
Continuous
 62
     1
370
    15
100
AcDbSpline
210
0.0
220
0.0
230
1.0
 70
     8
 71
     3
 72
     8
 73
     4
 74
     0
 42
0.000000001
 43
0.00000001
 40
0.0
 40
0.0
 40
0.0
 40
0.0
 40
1.0
 40
1.0
 40
1.0
 40
1.0
 10
14.46926019733798
 20
-4.694304598008484
 30
0.0
 10
13.98136206373889
 20
-4.574560173887682
 30
0.0
 10
13.4911045725871
 20
-4.449091727745023
 30
0.0
 10
13.00107909631947
 20
-4.318540178112345
 30
0.0
  0
SPLINE
  5
140
330
1F
100
AcDbEntity
  8
외형선
  6
Continuous
 62
     1
370
    15
100
AcDbSpline
210
0.0
220
0.0
230
1.0
 70
     8
 71
     3
 72
     8
 73
     4
 74
     0
 42
0.000000001
 43
0.00000001
 40
0.0
 40
0.0
 40
0.0
 40
0.0
 40
1.0
 40
1.0
 40
1.0
 40
1.0
 10
12.78942618969634
 20
-4.207156431582924
 30
0.0
 10
12.85019878201777
 20
-4.25907247094788
 30
0.0
 10
12.92459593664839
 20
-4.298163695432789
 30
0.0
 10
13.0010779455921
 20
-4.318539871540622
 30
0.0
  0
SPLINE
  5
141
330
1F
100
AcDbEntity
  8
외형선
  6
Continuous
 62
     1
370
    15
100
AcDbSpline
210
0.0
220
0.0
230
1.0
 70
     8
 71
     3
 72
    10
 73
     6
 74
     0
 42
0.000000001
 43
0.00000001
 40
0.0
 40
0.0
 40
0.0
 40
0.0
 40
0.5
 40
0.5
 40
1.0
 40
1.0
 40
1.0
 40
1.0
 10
11.94548685097743
 20
-3.976988167277918
 30
0.0
 10
12.07034557800051
 20
-3.940433462686428
 30
0.0
 10
12.22201644300806
 20
-3.944278799018308
 30
0.0
 10
12.5244438019577
 20
-4.027557564356747
 30
0.0
 10
12.66952153647406
 20
-4.104725805227423
 30
0.0
 10
12.78942618969631
 20
-4.207156431582916
 30
0.0
  0
SPLINE
  5
142
330
1F
100
AcDbEntity
  8
외형선
  6
Continuous
 62
     1
370
    15
100
AcDbSpline
210
0.0
220
0.0
230
1.0
 70
     8
 71
     3
 72
     8
 73
     4
 74
     0
 42
0.000000001
 43
0.00000001
 40
0.0
 40
0.0
 40
0.0
 40
0.0
 40
1.0
 40
1.0
 40
1.0
 40
1.0
 10
11.73516450736818
 20
-3.969831357788294
 30
0.0
 10
11.80942015535487
 20
-3.99095938632097
 30
0.0
 10
11.88406969717723
 20
-3.994969176439143
 30
0.0
 10
11.94548685097901
 20
-3.976988167281431
 30
0.0
  0
SPLINE
  5
143
330
1F
100
AcDbEntity
  8
외형선
  6
Continuous
 62
     1
370
    15
100
AcDbSpline
210
0.0
220
0.0
230
1.0
 70
     8
 71
     3
 72
     8
 73
     4
 74
     0
 42
0.000000001
 43
0.00000001
 40
0.0
 40
0.0
 40
0.0
 40
0.0
 40
1.0
 40
1.0
 40
1.0
 40
1.0
 10
11.73516659403591
 20
-3.969831951510741
 30
0.0
 10
11.24632830712303
 20
-3.830742354100605
 30
0.0
 10
10.75826960003332
 20
-3.687040937782893
 30
0.0
 10
10.26744861546475
 20
-3.53887316369982
 30
0.0
  0
SPLINE
  5
144
330
1F
100
AcDbEntity
  8
외형선
  6
Continuous
 62
     1
370
    15
100
AcDbSpline
210
0.0
220
0.0
230
1.0
 70
     8
 71
     3
 72
     8
 73
     4
 74
     0
 42
0.000000001
 43
0.00000001
 40
0.0
 40
0.0
 40
0.0
 40
0.0
 40
1.0
 40
1.0
 40
1.0
 40
1.0
 10
10.0559271420519
 20
-3.428014822358854
 30
0.0
 10
10.1166534835589
 20
-3.476885575520428
 30
0.0
 10
10.19100905289321
 20
-3.515797785520482
 30
0.0
 10
10.26744861521954
 20
-3.538873163628037
 30
0.0
  0
SPLINE
  5
145
330
1F
100
AcDbEntity
  8
외형선
  6
Continuous
 62
     1
370
    15
100
AcDbSpline
210
0.0
220
0.0
230
1.0
 70
     8
 71
     3
 72
     8
 73
     4
 74
     0
 42
0.000000001
 43
0.00000001
 40
0.9244919742050319
 40
0.9244919742050319
 40
0.9244919742050319
 40
0.9244919742050319
 40
1.0
 40
1.0
 40
1.0
 40
1.0
 10
9.999999999999995
 20
-3.385738511038061
 30
0.0
 10
10.01917279286871
 20
-3.399352531014563
 30
0.0
 10
10.03783698467496
 20
-3.413456401846699
 30
0.0
 10
10.05592714205191
 20
-3.42801482235885
 30
0.0
  0
SPLINE
  5
153
330
1F
100
AcDbEntity
  8
외형선
  6
Continuous
 62
     1
370
    15
100
AcDbSpline
210
0.0
220
0.0
230
1.0
 70
     8
 71
     3
 72
     8
 73
     4
 74
     0
 42
0.000000001
 43
0.00000001
 40
0.0
 40
0.0
 40
0.0
 40
0.0
 40
0.7552694458702875
 40
0.7552694458702875
 40
0.7552694458702875
 40
0.7552694458702875
 10
11.10758205113937
 20
4.582449996588784
 30
0.0
 10
10.73942518779509
 20
4.675361473091446
 30
0.0
 10
10.36985981396418
 20
4.765315160243052
 30
0.0
 10
10.0
 20
4.852031120471006
 30
0.0
  0
SPLINE
  5
154
330
1F
100
AcDbEntity
  8
외형선
  6
Continuous
 62
     1
370
    15
100
AcDbSpline
210
0.0
220
0.0
230
1.0
 70
     8
 71
     3
 72
     8
 73
     4
 74
     0
 42
0.000000001
 43
0.00000001
 40
0.0
 40
0.0
 40
0.0
 40
0.0
 40
1.0
 40
1.0
 40
1.0
 40
1.0
 10
11.31902344062862
 20
4.471437287056996
 30
0.0
 10
11.25832603783262
 20
4.524200239607521
 30
0.0
 10
11.18400005047828
 20
4.563164444534307
 30
0.0
 10
11.10758030974185
 20
4.582450436066651
 30
0.0
  0
SPLINE
  5
155
330
1F
100
AcDbEntity
  8
외형선
  6
Continuous
 62
     1
370
    15
100
AcDbSpline
210
0.0
220
0.0
230
1.0
 70
     8
 71
     3
 72
    10
 73
     6
 74
     0
 42
0.000000001
 43
0.00000001
 40
0.0
 40
0.0
 40
0.0
 40
0.0
 40
0.5
 40
0.5
 40
1.0
 40
1.0
 40
1.0
 40
1.0
 10
12.16213293058071
 20
4.252920329908072
 30
0.0
 10
12.03737533748194
 20
4.210888963620333
 30
0.0
 10
11.88581355377626
 20
4.210935263899161
 30
0.0
 10
11.5836354601337
 20
4.290294984684566
 30
0.0
 10
11.43875713811682
 20
4.367355347661617
 30
0.0
 10
11.31902344062862
 20
4.471437287056991
 30
0.0
  0
SPLINE
  5
156
330
1F
100
AcDbEntity
  8
외형선
  6
Continuous
 62
     1
370
    15
100
AcDbSpline
210
0.0
220
0.0
230
1.0
 70
     8
 71
     3
 72
     8
 73
     4
 74
     0
 42
0.000000001
 43
0.00000001
 40
0.0
 40
0.0
 40
0.0
 40
0.0
 40
1.0
 40
1.0
 40
1.0
 40
1.0
 10
12.37229373227034
 20
4.251565704522273
 30
0.0
 10
12.2980788425723
 20
4.271616448960925
 30
0.0
 10
12.22348881031247
 20
4.27359138800781
 30
0.0
 10
12.16213293057914
 20
4.252920329911253
 30
0.0
  0
SPLINE
  5
157
330
1F
100
AcDbEntity
  8
외형선
  6
Continuous
 62
     1
370
    15
100
AcDbSpline
210
0.0
220
0.0
230
1.0
 70
     8
 71
     3
 72
     8
 73
     4
 74
     0
 42
0.000000001
 43
0.00000001
 40
0.0
 40
0.0
 40
0.0
 40
0.0
 40
1.0
 40
1.0
 40
1.0
 40
1.0
 10
13.83941433412275
 20
3.840932040973256
 30
0.0
 10
13.35075659432335
 20
3.98245171853215
 30
0.0
 10
12.860854422898
 20
4.119570549839668
 30
0.0
 10
12.37229434465893
 20
4.25156553907264
 30
0.0
  0
SPLINE
  5
158
330
1F
100
AcDbEntity
  8
외형선
  6
Continuous
 62
     1
370
    15
100
AcDbSpline
210
0.0
220
0.0
230
1.0
 70
     8
 71
     3
 72
     8
 73
     4
 74
     0
 42
0.000000001
 43
0.00000001
 40
0.0
 40
0.0
 40
0.0
 40
0.0
 40
1.0
 40
1.0
 40
1.0
 40
1.0
 10
14.05097195960191
 20
3.729509768893509
 30
0.0
 10
13.99023118385606
 20
3.779678761454017
 30
0.0
 10
13.91586586332671
 20
3.818790994050327
 30
0.0
 10
13.83941067323987
 20
3.840933101200129
 30
0.0
  0
SPLINE
  5
159
330
1F
100
AcDbEntity
  8
외형선
  6
Continuous
 62
     1
370
    15
100
AcDbSpline
210
0.0
220
0.0
230
1.0
 70
     8
 71
     3
 72
    10
 73
     6
 74
     0
 42
0.000000001
 43
0.00000001
 40
0.0
 40
0.0
 40
0.0
 40
0.0
 40
0.5
 40
0.5
 40
1.0
 40
1.0
 40
1.0
 40
1.0
 10
14.8947785527044
 20
3.480577713499474
 30
0.0
 10
14.76992777600283
 20
3.453569647734171
 30
0.0
 10
14.61828988483928
 20
3.463873721557074
 30
0.0
 10
14.31592203635023
 20
3.553464718538191
 30
0.0
 10
14.1708514837436
 20
3.6304949821877
 30
0.0
 10
14.05097195960192
 20
3.729509768893516
 30
0.0
  0
SPLINE
  5
15A
330
1F
100
AcDbEntity
  8
외형선
  6
Continuous
 62
     1
370
    15
100
AcDbSpline
210
0.0
220
0.0
230
1.0
 70
     8
 71
     3
 72
     8
 73
     4
 74
     0
 42
0.000000001
 43
0.00000001
 40
0.0
 40
0.0
 40
0.0
 40
0.0
 40
1.0
 40
1.0
 40
1.0
 40
1.0
 10
15.1051038601856
 20
3.463818974833333
 30
0.0
 10
15.03084168154809
 20
3.486515087923786
 30
0.0
 10
14.9561956820843
 20
3.493863637012327
 30
0.0
 10
14.89477855270278
 20
3.480577713502421
 30
0.0
  0
SPLINE
  5
15B
330
1F
100
AcDbEntity
  8
외형선
  6
Continuous
 62
     1
370
    15
100
AcDbSpline
210
0.0
220
0.0
230
1.0
 70
     8
 71
     3
 72
     8
 73
     4
 74
     0
 42
0.000000001
 43
0.00000001
 40
0.0
 40
0.0
 40
0.0
 40
0.0
 40
1.0
 40
1.0
 40
1.0
 40
1.0
 10
16.57354474346019
 20
3.00435285631837
 30
0.0
 10
16.08322353056292
 20
3.161324804296006
 30
0.0
 10
15.59287981387548
 20
3.314744180894881
 30
0.0
 10
15.10510599489528
 20
3.463818322420584
 30
0.0
  0
SPLINE
  5
15C
330
1F
100
AcDbEntity
  8
외형선
  6
Continuous
 62
     1
370
    15
100
AcDbSpline
210
0.0
220
0.0
230
1.0
 70
     8
 71
     3
 72
     8
 73
     4
 74
     0
 42
0.000000001
 43
0.00000001
 40
0.0
 40
0.0
 40
0.0
 40
0.0
 40
1.0
 40
1.0
 40
1.0
 40
1.0
 10
16.78483505115312
 20
2.895295875504108
 30
0.0
 10
16.72405904114261
 20
2.941661621980276
 30
0.0
 10
16.64965941762301
 20
2.979985702352506
 30
0.0
 10
16.57317532206226
 20
3.004471122602191
 30
0.0
  0
SPLINE
  5
15D
330
1F
100
AcDbEntity
  8
외형선
  6
Continuous
 62
     1
370
    15
100
AcDbSpline
210
0.0
220
0.0
230
1.0
 70
     8
 71
     3
 72
    10
 73
     6
 74
     0
 42
0.000000001
 43
0.00000001
 40
0.0
 40
0.0
 40
0.0
 40
0.0
 40
0.5
 40
0.5
 40
1.0
 40
1.0
 40
1.0
 40
1.0
 10
17.62886040104414
 20
2.622701984499439
 30
0.0
 10
17.50398603555749
 20
2.61115957173464
 30
0.0
 10
17.35229919107541
 20
2.631212309165336
 30
0.0
 10
17.04984396724917
 20
2.728678390141427
 30
0.0
 10
16.90475137922572
 20
2.803812244630552
 30
0.0
 10
16.78483505115312
 20
2.895295875504105
 30
0.0
  0
SPLINE
  5
15E
330
1F
100
AcDbEntity
  8
외형선
  6
Continuous
 62
     1
370
    15
100
AcDbSpline
210
0.0
220
0.0
230
1.0
 70
     8
 71
     3
 72
     8
 73
     4
 74
     0
 42
0.000000001
 43
0.00000001
 40
0.0
 40
0.0
 40
0.0
 40
0.0
 40
1.0
 40
1.0
 40
1.0
 40
1.0
 10
17.83921321913303
 20
2.591257058377436
 30
0.0
 10
17.76494686410325
 20
2.615961516709701
 30
0.0
 10
17.69028640423138
 20
2.628379725329724
 30
0.0
 10
17.62886040104252
 20
2.622701984501981
 30
0.0
  0
SPLINE
  5
15F
330
1F
100
AcDbEntity
  8
외형선
  6
Continuous
 62
     1
370
    15
100
AcDbSpline
210
0.0
220
0.0
230
1.0
 70
     8
 71
     3
 72
     8
 73
     4
 74
     0
 42
0.000000001
 43
0.00000001
 40
0.0
 40
0.0
 40
0.0
 40
0.0
 40
1.0
 40
1.0
 40
1.0
 40
1.0
 10
19.30736403944842
 20
2.0941883026253
 30
0.0
 10
18.81643740775324
 20
2.262730084024041
 30
0.0
 10
18.32871499292793
 20
2.428425905950593
 30
0.0
 10
17.83921322374728
 20
2.591257056842852
 30
0.0
  0
SPLINE
  5
160
330
1F
100
AcDbEntity
  8
외형선
  6
Continuous
 62
     1
370
    15
100
AcDbSpline
210
0.0
220
0.0
230
1.0
 70
     8
 71
     3
 72
     8
 73
     4
 74
     0
 42
0.000000001
 43
0.00000001
 40
0.0
 40
0.0
 40
0.0
 40
0.0
 40
1.0
 40
1.0
 40
1.0
 40
1.0
 10
19.51898302886744
 20
1.989879842945694
 30
0.0
 10
19.45822062045277
 20
2.031316125352713
 30
0.0
 10
19.38383322821228
 20
2.067935391368145
 30
0.0
 10
19.30736403865066
 20
2.094188302900676
 30
0.0
  0
SPLINE
  5
161
330
1F
100
AcDbEntity
  8
외형선
  6
Continuous
 62
     1
370
    15
100
AcDbSpline
210
0.0
220
0.0
230
1.0
 70
     8
 71
     3
 72
    10
 73
     6
 74
     0
 42
0.000000001
 43
0.00000001
 40
0.0
 40
0.0
 40
0.0
 40
0.0
 40
0.5
 40
0.5
 40
1.0
 40
1.0
 40
1.0
 40
1.0
 10
20.36273613225499
 20
1.700096299546114
 30
0.0
 10
20.23790713341112
 20
1.704325390947027
 30
0.0
 10
20.08625763679997
 20
1.733686996278432
 30
0.0
 10
19.78387153455253
 20
1.836710881383288
 30
0.0
 10
19.63884401914552
 20
1.908141907068409
 30
0.0
 10
19.51898302886745
 20
1.989879842945678
 30
0.0
  0
SPLINE
  5
162
330
1F
100
AcDbEntity
  8
외형선
  6
Continuous
 62
     1
370
    15
100
AcDbSpline
210
0.0
220
0.0
230
1.0
 70
     8
 71
     3
 72
     8
 73
     4
 74
     0
 42
0.000000001
 43
0.00000001
 40
0.0
 40
0.0
 40
0.0
 40
0.0
 40
1.0
 40
1.0
 40
1.0
 40
1.0
 10
20.57300125701866
 20
1.654795008554076
 30
0.0
 10
20.49875630368516
 20
1.680857132582369
 30
0.0
 10
20.42412764218404
 20
1.698016411788321
 30
0.0
 10
20.3627361322534
 20
1.700096299548123
 30
0.0
  0
SPLINE
  5
163
330
1F
100
AcDbEntity
  8
외형선
  6
Continuous
 62
     1
370
    15
100
AcDbSpline
210
0.0
220
0.0
230
1.0
 70
     8
 71
     3
 72
     8
 73
     4
 74
     0
 42
0.000000001
 43
0.00000001
 40
0.0
 40
0.0
 40
0.0
 40
0.0
 40
1.0
 40
1.0
 40
1.0
 40
1.0
 10
22.04025352191894
 20
1.133387103371092
 30
0.0
 10
21.55143861568331
 20
1.308702951043949
 30
0.0
 10
21.06366412633206
 20
1.482558163094589
 30
0.0
 10
20.57300124473758
 20
1.654795012865433
 30
0.0
  0
SPLINE
  5
164
330
1F
100
AcDbEntity
  8
외형선
  6
Continuous
 62
     1
370
    15
100
AcDbSpline
210
0.0
220
0.0
230
1.0
 70
     8
 71
     3
 72
     8
 73
     4
 74
     0
 42
0.000000001
 43
0.00000001
 40
0.0
 40
0.0
 40
0.0
 40
0.0
 40
1.0
 40
1.0
 40
1.0
 40
1.0
 10
22.25169374849612
 20
1.036424468066431
 30
0.0
 10
22.19099333136634
 20
1.071935798103919
 30
0.0
 10
22.11666436682431
 20
1.105981981551599
 30
0.0
 10
22.04025360968033
 20
1.133387071896047
 30
0.0
  0
SPLINE
  5
165
330
1F
100
AcDbEntity
  8
외형선
  6
Continuous
 62
     1
370
    15
100
AcDbSpline
210
0.0
220
0.0
230
1.0
 70
     8
 71
     3
 72
    10
 73
     6
 74
     0
 42
0.000000001
 43
0.00000001
 40
0.0
 40
0.0
 40
0.0
 40
0.0
 40
0.5
 40
0.5
 40
1.0
 40
1.0
 40
1.0
 40
1.0
 10
23.09475810600427
 20
0.7362654199881495
 30
0.0
 10
22.97002698180734
 20
0.756204620528006
 30
0.0
 10
22.81848692353778
 20
0.794200621433893
 30
0.0
 10
22.51631336871253
 20
0.9003506941643289
 30
0.0
 10
22.37141671432291
 20
0.9663834048649833
 30
0.0
 10
22.25169374849614
 20
1.036424468066431
 30
0.0
  0
SPLINE
  5
166
330
1F
100
AcDbEntity
  8
외형선
  6
Continuous
 62
     1
370
    15
100
AcDbSpline
210
0.0
220
0.0
230
1.0
 70
     8
 71
     3
 72
     8
 73
     4
 74
     0
 42
0.000000001
 43
0.00000001
 40
0.0
 40
0.0
 40
0.0
 40
0.0
 40
1.0
 40
1.0
 40
1.0
 40
1.0
 10
23.304910738328
 20
0.6781273787885407
 30
0.0
 10
23.23069792238751
 20
0.704941535457374
 30
0.0
 10
23.15610936005011
 20
0.7264579644269634
 30
0.0
 10
23.09475810600271
 20
0.7362654199896164
 30
0.0
  0
SPLINE
  5
167
330
1F
100
AcDbEntity
  8
외형선
  6
Continuous
 62
     1
370
    15
100
AcDbSpline
210
0.0
220
0.0
230
1.0
 70
     8
 71
     3
 72
     8
 73
     4
 74
     0
 42
0.000000001
 43
0.00000001
 40
0.0
 40
0.0
 40
0.0
 40
0.0
 40
1.0
 40
1.0
 40
1.0
 40
1.0
 10
24.9836084302049
 20
0.0584948025489378
 30
0.0
 10
24.92286247396656
 20
0.0872576004279905
 30
0.0
 10
24.84849549373571
 20
0.1179135882879472
 30
0.0
 10
24.77203607108459
 20
0.1457752540815576
 30
0.0
  0
SPLINE
  5
168
330
1F
100
AcDbEntity
  8
외형선
  6
Continuous
 62
     1
370
    15
100
AcDbSpline
210
0.0
220
0.0
230
1.0
 70
     8
 71
     3
 72
    10
 73
     6
 74
     0
 42
0.000000001
 43
0.00000001
 40
0.0
 40
0.0
 40
0.0
 40
0.0
 40
0.5
 40
0.5
 40
1.0
 40
1.0
 40
1.0
 40
1.0
 10
25.82741585222496
 20
-0.2456470413714942
 30
0.0
 10
25.70254114362898
 20
-0.2103466327218736
 30
0.0
 10
25.55085690652577
 20
-0.1644645208545043
 30
0.0
 10
25.24846801907563
 20
-0.0574593513974311
 30
0.0
 10
25.10346688642995
 20
0.001742637236553
 30
0.0
 10
24.98360843020491
 20
0.0584948025489349
 30
0.0
  0
SPLINE
  5
16A
330
1F
100
AcDbEntity
  8
외형선
  6
Continuous
 62
     1
370
    15
100
AcDbSpline
210
0.0
220
0.0
230
1.0
 70
     8
 71
     3
 72
    12
 73
     8
 74
     0
 42
0.000000001
 43
0.00000001
 40
0.0
 40
0.0
 40
0.0
 40
0.0
 40
0.2499999999999999
 40
0.2499999999999999
 40
0.4999999999999998
 40
0.4999999999999998
 40
1.0
 40
1.0
 40
1.0
 40
1.0
 10
24.98360836622089
 20
0.0584957495693389
 30
0.0
 10
24.95998897415387
 20
0.4080839026884088
 30
0.0
 10
24.93744448289452
 20
0.7520727025665477
 30
0.0
 10
24.89176031005641
 20
1.433046883508791
 30
0.0
 10
24.86810598856999
 20
1.772527596787576
 30
0.0
 10
24.79610447178165
 20
2.765986434678538
 30
0.0
 10
24.74675578991759
 20
3.393371381339674
 30
0.0
 10
24.70009526535559
 20
3.935933803939615
 30
0.0
  0
SPLINE
  5
16B
330
1F
100
AcDbEntity
  8
외형선
  6
Continuous
 62
     1
370
    15
100
AcDbSpline
210
0.0
220
0.0
230
1.0
 70
     8
 71
     3
 72
    10
 73
     6
 74
     0
 42
0.000000001
 43
0.00000001
 40
0.0
 40
0.0
 40
0.0
 40
0.0
 40
0.5
 40
0.5
 40
1.0
 40
1.0
 40
1.0
 40
1.0
 10
20.5730012482871
 20
1.654795134907586
 30
0.0
 10
20.52607412290588
 20
2.333795042139892
 30
0.0
 10
20.47687155431264
 20
2.992093872199962
 30
0.0
 10
20.38192375733755
 20
4.158990706909345
 30
0.0
 10
20.33808144054203
 20
4.662945186729854
 30
0.0
 10
20.29070424160793
 20
5.085454392598221
 30
0.0
  0
SPLINE
  5
16C
330
1F
100
AcDbEntity
  8
외형선
  6
Continuous
 62
     1
370
    15
100
AcDbSpline
210
0.0
220
0.0
230
1.0
 70
     8
 71
     3
 72
    12
 73
     8
 74
     0
 42
0.000000001
 43
0.00000001
 40
0.0
 40
0.0
 40
0.0
 40
0.0
 40
0.5000000000000001
 40
0.5000000000000001
 40
0.75
 40
0.75
 40
1.0
 40
1.0
 40
1.0
 40
1.0
 10
22.04025361454483
 20
1.133386998663447
 30
0.0
 10
21.9946763218208
 20
1.819015852828116
 30
0.0
 10
21.94587567210976
 20
2.499421324056701
 30
0.0
 10
21.87369144146844
 20
3.426547149852774
 30
0.0
 10
21.8498141176327
 20
3.720082906199364
 30
0.0
 10
21.80339132027247
 20
4.265220261898322
 30
0.0
 10
21.78134153892172
 20
4.515366051541958
 30
0.0
 10
21.75822305398881
 20
4.747825193444222
 30
0.0
  0
SPLINE
  5
16D
330
1F
100
AcDbEntity
  8
외형선
  6
Continuous
 62
     1
370
    15
100
AcDbSpline
210
0.0
220
0.0
230
1.0
 70
     8
 71
     3
 72
    14
 73
    10
 74
     0
 42
0.000000001
 43
0.00000001
 40
0.0
 40
0.0
 40
0.0
 40
0.0
 40
0.2500000000000001
 40
0.2500000000000001
 40
0.5000000000000002
 40
0.5000000000000002
 40
0.7500000000000001
 40
0.7500000000000001
 40
1.0
 40
1.0
 40
1.0
 40
1.0
 10
23.09475810600262
 20
0.7362654200133895
 30
0.0
 10
23.07203209312743
 20
1.079217912313093
 30
0.0
 10
23.04921404482791
 20
1.41934931857873
 30
0.0
 10
23.00177409855683
 20
2.091908155128103
 30
0.0
 10
22.97753940923655
 20
2.422355882500019
 30
0.0
 10
22.92905120064185
 20
3.057245588211222
 30
0.0
 10
22.9048025061601
 20
3.3616242541341
 30
0.0
 10
22.85730846780362
 20
3.932072760356475
 30
0.0
 10
22.83438936027573
 20
4.196972724716693
 30
0.0
 10
22.8117086339346
 20
4.440941183704486
 30
0.0
  0
SPLINE
  5
16E
330
1F
100
AcDbEntity
  8
외형선
  6
Continuous
 62
     1
370
    15
100
AcDbSpline
210
0.0
220
0.0
230
1.0
 70
     8
 71
     3
 72
    12
 73
     8
 74
     0
 42
0.000000001
 43
0.00000001
 40
0.0
 40
0.0
 40
0.0
 40
0.0
 40
0.5
 40
0.5
 40
0.75
 40
0.75
 40
1.0
 40
1.0
 40
1.0
 40
1.0
 10
22.25169336543976
 20
1.036430202002089
 30
0.0
 10
22.20616963353478
 20
1.717870630545671
 30
0.0
 10
22.15724633922519
 20
2.396569568788191
 30
0.0
 10
22.08465165872941
 20
3.32424325623276
 30
0.0
 10
22.06060141688551
 20
3.61845843485283
 30
0.0
 10
22.01378231495527
 20
4.165666222011671
 30
0.0
 10
21.99158574626194
 20
4.416880817217004
 30
0.0
 10
21.96844939997495
 20
4.650254533480116
 30
0.0
  0
SPLINE
  5
16F
330
1F
100
AcDbEntity
  8
외형선
  6
Continuous
 62
     1
370
    15
100
AcDbSpline
210
0.0
220
0.0
230
1.0
 70
     8
 71
     3
 72
    12
 73
     8
 74
     0
 42
0.000000001
 43
0.00000001
 40
0.0
 40
0.0
 40
0.0
 40
0.0
 40
0.5
 40
0.5
 40
0.75
 40
0.75
 40
1.0
 40
1.0
 40
1.0
 40
1.0
 10
20.36273598883157
 20
1.700098341548412
 30
0.0
 10
20.31545694336578
 20
2.373237434525854
 30
0.0
 10
20.26600706217201
 20
3.023769001297646
 30
0.0
 10
20.19466935319308
 20
3.885055529516025
 30
0.0
 10
20.17153097757041
 20
4.152713315891299
 30
0.0
 10
20.12641266791326
 20
4.644097656297465
 30
0.0
 10
20.10297337639813
 20
4.872976767835601
 30
0.0
 10
20.07910576671214
 20
5.079181894136655
 30
0.0
  0
SPLINE
  5
170
330
1F
100
AcDbEntity
  8
외형선
  6
Continuous
 62
     1
370
    15
100
AcDbSpline
210
0.0
220
0.0
230
1.0
 70
     8
 71
     3
 72
    12
 73
     8
 74
     0
 42
0.000000001
 43
0.00000001
 40
0.0
 40
0.0
 40
0.0
 40
0.0
 40
0.5
 40
0.5
 40
0.75
 40
0.75
 40
1.0
 40
1.0
 40
1.0
 40
1.0
 10
17.83921317606745
 20
2.591257637336344
 30
0.0
 10
17.79104681665128
 20
3.238774591951979
 30
0.0
 10
17.74253006443628
 20
3.83750516352521
 30
0.0
 10
17.67497532371364
 20
4.596517337219316
 30
0.0
 10
17.65212263778684
 20
4.831382622282154
 30
0.0
 10
17.60488015731091
 20
5.259286792997863
 30
0.0
 10
17.58076901536995
 20
5.451245663787572
 30
0.0
 10
17.55666580952039
 20
5.616724381917649
 30
0.0
  0
SPLINE
  5
171
330
1F
100
AcDbEntity
  8
외형선
  6
Continuous
 62
     1
370
    15
100
AcDbSpline
210
0.0
220
0.0
230
1.0
 70
     8
 71
     3
 72
    12
 73
     8
 74
     0
 42
0.000000001
 43
0.00000001
 40
0.0
 40
0.0
 40
0.0
 40
0.0
 40
0.5000000000000002
 40
0.5000000000000002
 40
0.7500000000000001
 40
0.7500000000000001
 40
1.0
 40
1.0
 40
1.0
 40
1.0
 10
19.30736399102889
 20
2.094188969096099
 30
0.0
 10
19.25965163373699
 20
2.76170315121918
 30
0.0
 10
19.21053617529536
 20
3.395282092042112
 30
0.0
 10
19.14073158331218
 20
4.219556861216155
 30
0.0
 10
19.11866233909606
 20
4.471898278272568
 30
0.0
 10
19.0726285656514
 20
4.940970242635098
 30
0.0
 10
19.04888997109708
 20
5.156422036588237
 30
0.0
 10
19.02490234329281
 20
5.347432259897647
 30
0.0
  0
SPLINE
  5
172
330
1F
100
AcDbEntity
  8
외형선
  6
Continuous
 62
     1
370
    15
100
AcDbSpline
210
0.0
220
0.0
230
1.0
 70
     8
 71
     3
 72
    12
 73
     8
 74
     0
 42
0.000000001
 43
0.00000001
 40
0.0
 40
0.0
 40
0.0
 40
0.0
 40
0.5000000000000001
 40
0.5000000000000001
 40
0.75
 40
0.75
 40
1.0
 40
1.0
 40
1.0
 40
1.0
 10
19.51898302882007
 20
1.989879843605205
 30
0.0
 10
19.47117341098077
 20
2.655480020551448
 30
0.0
 10
19.42177977305209
 20
3.289659148287827
 30
0.0
 10
19.35138523687581
 20
4.117220092212739
 30
0.0
 10
19.32912732498142
 20
4.370861252886092
 30
0.0
 10
19.28308056846894
 20
4.841860566295302
 30
0.0
 10
19.25929904186029
 20
5.058729675529107
 30
0.0
 10
19.23523404280645
 20
5.251499405943689
 30
0.0
  0
SPLINE
  5
17C
330
1F
100
AcDbEntity
  8
외형선
  6
Continuous
 62
     1
370
    15
100
AcDbSpline
210
0.0
220
0.0
230
1.0
 70
     8
 71
     3
 72
    10
 73
     6
 74
     0
 42
0.000000001
 43
0.00000001
 40
0.0
 40
0.0
 40
0.0
 40
0.0
 40
0.5
 40
0.5
 40
1.0
 40
1.0
 40
1.0
 40
1.0
 10
17.62886040103607
 20
2.622701984606179
 30
0.0
 10
17.58045353789456
 20
3.26289701931281
 30
0.0
 10
17.53182858913356
 20
3.852593901117205
 30
0.0
 10
17.44184654581145
 20
4.844808334580197
 30
0.0
 10
17.39341185637318
 20
5.273009241689487
 30
0.0
 10
17.34499644188829
 20
5.593204952351059
 30
0.0
  0
SPLINE
  5
17E
330
1F
100
AcDbEntity
  8
외형선
  6
Continuous
 62
     1
370
    15
100
AcDbSpline
210
0.0
220
0.0
230
1.0
 70
     8
 71
     3
 72
    12
 73
     8
 74
     0
 42
0.000000001
 43
0.00000001
 40
0.0
 40
0.0
 40
0.0
 40
0.0
 40
0.2500000000000001
 40
0.2500000000000001
 40
0.5000000000000001
 40
0.5000000000000001
 40
1.0
 40
1.0
 40
1.0
 40
1.0
 10
16.784835051127
 20
2.895295875841642
 30
0.0
 10
16.76063403036959
 20
3.20789720637878
 30
0.0
 10
16.73651406918821
 20
3.506360344156436
 30
0.0
 10
16.68943158027995
 20
4.063403146754605
 30
0.0
 10
16.6670443697262
 20
4.320052741274415
 30
0.0
 10
16.59829833233605
 20
5.033914245564604
 30
0.0
 10
16.54927029349879
 20
5.435252580751399
 30
0.0
 10
16.50099937638834
 20
5.724470760492522
 30
0.0
  0
SPLINE
  5
17F
330
1F
100
AcDbEntity
  8
외형선
  6
Continuous
 62
     1
370
    15
100
AcDbSpline
210
0.0
220
0.0
230
1.0
 70
     8
 71
     3
 72
    12
 73
     8
 74
     0
 42
0.000000001
 43
0.00000001
 40
0.0
 40
0.0
 40
0.0
 40
0.0
 40
0.2499999999999999
 40
0.2499999999999999
 40
0.4999999999999998
 40
0.4999999999999998
 40
1.0
 40
1.0
 40
1.0
 40
1.0
 10
15.10510411204234
 20
3.463815844584465
 30
0.0
 10
15.0812656939575
 20
3.760097346721729
 30
0.0
 10
15.05780275744568
 20
4.038587955889223
 30
0.0
 10
15.01253648002804
 20
4.550531125176946
 30
0.0
 10
14.98991418900156
 20
4.787336822575551
 30
0.0
 10
14.91921810041499
 20
5.437709440363709
 30
0.0
 10
14.86999670907418
 20
5.782528564158265
 30
0.0
 10
14.8226935679737
 20
6.010134444587293
 30
0.0
  0
SPLINE
  5
180
330
1F
100
AcDbEntity
  8
외형선
  6
Continuous
 62
     1
370
    15
100
AcDbSpline
210
0.0
220
0.0
230
1.0
 70
     8
 71
     3
 72
    12
 73
     8
 74
     0
 42
0.000000001
 43
0.00000001
 40
0.0
 40
0.0
 40
0.0
 40
0.0
 40
0.2500000000000001
 40
0.2500000000000001
 40
0.5000000000000001
 40
0.5000000000000001
 40
1.0
 40
1.0
 40
1.0
 40
1.0
 10
16.57317531564651
 20
3.004471205800174
 30
0.0
 10
16.5490997703072
 20
3.316858338243926
 30
0.0
 10
16.52514608593304
 20
3.614545821910433
 30
0.0
 10
16.47845675182429
 20
4.169205336320896
 30
0.0
 10
16.45631104540255
 20
4.424248978634367
 30
0.0
 10
16.38754830894153
 20
5.134986363535239
 30
0.0
 10
16.33866667068507
 20
5.532258492433762
 30
0.0
 10
16.29066806486832
 20
5.816492060494547
 30
0.0
  0
SPLINE
  5
183
330
1F
100
AcDbEntity
  8
외형선
  6
Continuous
 62
     1
370
    15
100
AcDbSpline
210
0.0
220
0.0
230
1.0
 70
     8
 71
     3
 72
     8
 73
     4
 74
     0
 42
0.000000001
 43
0.00000001
 40
0.0
 40
0.0
 40
0.0
 40
0.0
 40
0.4026391202311589
 40
0.4026391202311589
 40
0.4026391202311589
 40
0.4026391202311589
 10
10.33941357348377
 20
-5.949946747444216
 30
0.0
 10
10.23891556385804
 20
-5.86838135330285
 30
0.0
 10
10.12103269464932
 20
-5.814082282774991
 30
0.0
 10
9.999999999999993
 20
-5.78734936471456
 30
0.0
  0
SPLINE
  5
184
330
1F
100
AcDbEntity
  8
외형선
  6
Continuous
 62
     1
370
    15
100
AcDbSpline
210
0.0
220
0.0
230
1.0
 70
     8
 71
     3
 72
    12
 73
     8
 74
     0
 42
0.000000001
 43
0.00000001
 40
0.0
 40
0.0
 40
0.0
 40
0.0
 40
0.25
 40
0.25
 40
0.5
 40
0.5
 40
1.0
 40
1.0
 40
1.0
 40
1.0
 10
10.33941357347177
 20
-5.949946747387476
 30
0.0
 10
10.31580657578784
 20
-5.838298797277056
 30
0.0
 10
10.29329098870926
 20
-5.701034025172045
 30
0.0
 10
10.24757829289161
 20
-5.375121312537403
 30
0.0
 10
10.22391398940208
 20
-5.184889586228233
 30
0.0
 10
10.15189740655634
 20
-4.540535568401004
 30
0.0
 10
10.1025592318809
 20
-4.01129256766844
 30
0.0
 10
10.05592714214381
 20
-3.42801482350881
 30
0.0
  0
SPLINE
  5
185
330
1F
100
AcDbEntity
  8
외형선
  6
Continuous
 62
     1
370
    15
100
AcDbSpline
210
0.0
220
0.0
230
1.0
 70
     8
 71
     3
 72
     8
 73
     4
 74
     0
 42
0.000000001
 43
0.00000001
 40
0.0
 40
0.0
 40
0.0
 40
0.0
 40
1.0
 40
1.0
 40
1.0
 40
1.0
 10
12.01762026073385
 20
-6.182326737975258
 30
0.0
 10
11.52759969448327
 20
-6.14159399065229
 30
0.0
 10
11.04035445976573
 20
-6.093632163427373
 30
0.0
 10
10.54968556954962
 20
-6.038399787809909
 30
0.0
  0
SPLINE
  5
186
330
1F
100
AcDbEntity
  8
외형선
  6
Continuous
 62
     1
370
    15
100
AcDbSpline
210
0.0
220
0.0
230
1.0
 70
     8
 71
     3
 72
    12
 73
     8
 74
     0
 42
0.000000001
 43
0.00000001
 40
0.0
 40
0.0
 40
0.0
 40
0.0
 40
0.2499999999999999
 40
0.2499999999999999
 40
0.4999999999999999
 40
0.4999999999999999
 40
1.0
 40
1.0
 40
1.0
 40
1.0
 10
10.54968536605636
 20
-6.038400006991407
 30
0.0
 10
10.52612023594812
 20
-5.929432011192191
 30
0.0
 10
10.50350498861549
 20
-5.794273234146478
 30
0.0
 10
10.45822441990301
 20
-5.473603879977016
 30
0.0
 10
10.43475532456249
 20
-5.285843134921813
 30
0.0
 10
10.36322570669106
 20
-4.647932187721503
 30
0.0
 10
10.31407422703737
 20
-4.121630438492518
 30
0.0
 10
10.26744861371686
 20
-3.538873144824217
 30
0.0
  0
SPLINE
  5
187
330
1F
100
AcDbEntity
  8
외형선
  6
Continuous
 62
     1
370
    15
100
AcDbSpline
210
0.0
220
0.0
230
1.0
 70
     8
 71
     3
 72
    12
 73
     8
 74
     0
 42
0.000000001
 43
0.00000001
 40
0.0
 40
0.0
 40
0.0
 40
0.0
 40
0.25
 40
0.25
 40
0.5
 40
0.5
 40
1.0
 40
1.0
 40
1.0
 40
1.0
 10
12.01762024105298
 20
-6.182326671705924
 30
0.0
 10
11.99366125108033
 20
-6.101501280871779
 30
0.0
 10
11.9699806968587
 20
-5.991976256536351
 30
0.0
 10
11.92411403298635
 20
-5.722398112183178
 30
0.0
 10
11.90197298187197
 20
-5.563044749879078
 30
0.0
 10
11.8319466227324
 20
-5.002690600379206
 30
0.0
 10
11.78279406150006
 20
-4.521399409857678
 30
0.0
 10
11.7351647315349
 20
-3.969833953763055
 30
0.0
  0
SPLINE
  5
188
330
1F
100
AcDbEntity
  8
외형선
  6
Continuous
 62
     1
370
    15
100
AcDbSpline
210
0.0
220
0.0
230
1.0
 70
     8
 71
     3
 72
    12
 73
     8
 74
     0
 42
0.000000001
 43
0.00000001
 40
0.0
 40
0.0
 40
0.0
 40
0.0
 40
0.25
 40
0.25
 40
0.5
 40
0.5
 40
1.0
 40
1.0
 40
1.0
 40
1.0
 10
14.89477855269108
 20
3.480577713662311
 30
0.0
 10
14.8708794120746
 20
3.772645548081743
 30
0.0
 10
14.84739081296638
 20
4.04659906420915
 30
0.0
 10
14.8021448305378
 20
4.549063578489418
 30
0.0
 10
14.77915847632362
 20
4.78225721639802
 30
0.0
 10
14.70791797563492
 20
5.418907942757508
 30
0.0
 10
14.658460031368
 20
5.753107986027201
 30
0.0
 10
14.61110203980312
 20
5.969897447307488
 30
0.0
  0
SPLINE
  5
189
330
1F
100
AcDbEntity
  8
외형선
  6
Continuous
 62
     1
370
    15
100
AcDbSpline
210
0.0
220
0.0
230
1.0
 70
     8
 71
     3
 72
     8
 73
     4
 74
     0
 42
0.000000001
 43
0.00000001
 40
0.0
 40
0.0
 40
0.0
 40
0.0
 40
1.0
 40
1.0
 40
1.0
 40
1.0
 10
10.54968531239685
 20
-6.038399758863378
 30
0.0
 10
10.47544000319625
 20
-6.030042300157234
 30
0.0
 10
10.4008081723983
 20
-5.999775342832987
 30
0.0
 10
10.33941357348214
 20
-5.949946747447282
 30
0.0
  0
SPLINE
  5
18A
330
1F
100
AcDbEntity
  8
외형선
  6
Continuous
 62
     1
370
    15
100
AcDbSpline
210
0.0
220
0.0
230
1.0
 70
     8
 71
     3
 72
    12
 73
     8
 74
     0
 42
0.000000001
 43
0.00000001
 40
0.0
 40
0.0
 40
0.0
 40
0.0
 40
0.25
 40
0.25
 40
0.5
 40
0.5
 40
1.0
 40
1.0
 40
1.0
 40
1.0
 10
14.05097195960064
 20
3.729509768908684
 30
0.0
 10
14.02734345113248
 20
4.010782622920851
 30
0.0
 10
14.00477191078974
 20
4.270667567480671
 30
0.0
 10
13.9591228550406
 20
4.7515292108816
 30
0.0
 10
13.93548199770242
 20
4.974150236437535
 30
0.0
 10
13.86350593249673
 20
5.57158836025494
 30
0.0
 10
13.81415353635011
 20
5.873464719949029
 30
0.0
 10
13.76746965345522
 20
6.056981239610645
 30
0.0
  0
SPLINE
  5
18B
330
1F
100
AcDbEntity
  8
외형선
  6
Continuous
 62
     1
370
    15
100
AcDbSpline
210
0.0
220
0.0
230
1.0
 70
     8
 71
     3
 72
    12
 73
     8
 74
     0
 42
0.000000001
 43
0.00000001
 40
0.0
 40
0.0
 40
0.0
 40
0.0
 40
0.25
 40
0.25
 40
0.5
 40
0.5
 40
1.0
 40
1.0
 40
1.0
 40
1.0
 10
12.37229383935609
 20
4.251564486573372
 30
0.0
 10
12.34955196418404
 20
4.510223609618204
 30
0.0
 10
12.32708560146661
 20
4.748907577383929
 30
0.0
 10
12.28003330536005
 20
5.187534262333082
 30
0.0
 10
12.25595951077975
 20
5.385460574599684
 30
0.0
 10
12.18358048213654
 20
5.90090492801604
 30
0.0
 10
12.13529541544814
 20
6.137429974908454
 30
0.0
 10
12.09046697160797
 20
6.256156708182508
 30
0.0
  0
SPLINE
  5
18C
330
1F
100
AcDbEntity
  8
외형선
  6
Continuous
 62
     1
370
    15
100
AcDbSpline
210
0.0
220
0.0
230
1.0
 70
     8
 71
     3
 72
    12
 73
     8
 74
     0
 42
0.000000001
 43
0.00000001
 40
0.0
 40
0.0
 40
0.0
 40
0.0
 40
0.2500000000000001
 40
0.2500000000000001
 40
0.5000000000000002
 40
0.5000000000000002
 40
1.0
 40
1.0
 40
1.0
 40
1.0
 10
13.83941146709082
 20
3.840923616422136
 30
0.0
 10
13.81598137538319
 20
4.120860650608703
 30
0.0
 10
13.79371105293306
 20
4.37876196096811
 30
0.0
 10
13.748025641306
 20
4.857303432614022
 30
0.0
 10
13.7244067252723
 20
5.078240769809611
 30
0.0
 10
13.65261516063185
 20
5.669408984337942
 30
0.0
 10
13.60354827097847
 20
5.965480906643846
 30
0.0
 10
13.55724477406667
 20
6.142880277375746
 30
0.0
  0
SPLINE
  5
18D
330
1F
100
AcDbEntity
  8
외형선
  6
Continuous
 62
     1
370
    15
100
AcDbSpline
210
0.0
220
0.0
230
1.0
 70
     8
 71
     3
 72
     8
 73
     4
 74
     0
 42
0.000000001
 43
0.00000001
 40
0.0
 40
0.0
 40
0.0
 40
0.0
 40
1.0
 40
1.0
 40
1.0
 40
1.0
 10
12.22927078660543
 20
-6.132054036254674
 30
0.0
 10
12.16849419670806
 20
-6.171069426125678
 30
0.0
 10
12.09409714443857
 20
-6.188683845811008
 30
0.0
 10
12.01762026069747
 20
-6.1823267379754
 30
0.0
  0
SPLINE
  5
18E
330
1F
100
AcDbEntity
  8
외형선
  6
Continuous
 62
     1
370
    15
100
AcDbSpline
210
0.0
220
0.0
230
1.0
 70
     8
 71
     3
 72
    12
 73
     8
 74
     0
 42
0.000000001
 43
0.00000001
 40
0.0
 40
0.0
 40
0.0
 40
0.0
 40
0.2499999999999999
 40
0.2499999999999999
 40
0.5
 40
0.5
 40
1.0
 40
1.0
 40
1.0
 40
1.0
 10
12.22927078659107
 20
-6.132054036209623
 30
0.0
 10
12.20516209923606
 20
-6.056401306965427
 30
0.0
 10
12.1812929902799
 20
-5.951924596539073
 30
0.0
 10
12.13499509246553
 20
-5.691879877993844
 30
0.0
 10
12.11283955566555
 20
-5.537491548403954
 30
0.0
 10
12.04276849902679
 20
-4.992268605626449
 30
0.0
 10
11.99342498004111
 20
-4.520525084660402
 30
0.0
 10
11.94548707494423
 20
-3.976990706681494
 30
0.0
  0
SPLINE
  5
18F
330
1F
100
AcDbEntity
  8
외형선
  6
Continuous
 62
     1
370
    15
100
AcDbSpline
210
0.0
220
0.0
230
1.0
 70
     8
 71
     3
 72
    10
 73
     6
 74
     0
 42
0.000000001
 43
0.00000001
 40
0.0
 40
0.0
 40
0.0
 40
0.0
 40
0.5
 40
0.5
 40
1.0
 40
1.0
 40
1.0
 40
1.0
 10
13.07325970936802
 20
-6.190102290757898
 30
0.0
 10
12.94838132745223
 20
-6.089880581651335
 30
0.0
 10
12.7966837986643
 20
-6.035499112298773
 30
0.0
 10
12.49422615534815
 20
-6.018513271439478
 30
0.0
 10
12.34916395693738
 20
-6.055088895708455
 30
0.0
 10
12.22927078660543
 20
-6.132054036254677
 30
0.0
  0
SPLINE
  5
190
330
1F
100
AcDbEntity
  8
외형선
  6
Continuous
 62
     1
370
    15
100
AcDbSpline
210
0.0
220
0.0
230
1.0
 70
     8
 71
     3
 72
    12
 73
     8
 74
     0
 42
0.000000001
 43
0.00000001
 40
0.0
 40
0.0
 40
0.0
 40
0.0
 40
0.25
 40
0.25
 40
0.5
 40
0.5
 40
1.0
 40
1.0
 40
1.0
 40
1.0
 10
13.0732597093555
 20
-6.190102290727356
 30
0.0
 10
13.04906175877326
 20
-6.131069837167987
 30
0.0
 10
13.02495497719598
 20
-6.042687947610036
 30
0.0
 10
12.97791726234275
 20
-5.812517054105061
 30
0.0
 10
12.95557262384645
 20
-5.672285260545446
 30
0.0
 10
12.88673544236005
 20
-5.173143992041216
 30
0.0
 10
12.83768151636627
 20
-4.729652768449614
 30
0.0
 10
12.78942618969587
 20
-4.207156431578212
 30
0.0
  0
SPLINE
  5
191
330
1F
100
AcDbEntity
  8
외형선
  6
Continuous
 62
     1
370
    15
100
AcDbSpline
210
0.0
220
0.0
230
1.0
 70
     8
 71
     3
 72
     8
 73
     4
 74
     0
 42
0.000000001
 43
0.00000001
 40
0.0
 40
0.0
 40
0.0
 40
0.0
 40
1.0
 40
1.0
 40
1.0
 40
1.0
 10
14.75180187963436
 20
-6.332775726656378
 30
0.0
 10
14.26439932762599
 20
-6.319683003970708
 30
0.0
 10
13.77413629035657
 20
-6.299097476144551
 30
0.0
 10
13.28360332705545
 20
-6.271080683506901
 30
0.0
  0
SPLINE
  5
192
330
1F
100
AcDbEntity
  8
외형선
  6
Continuous
 62
     1
370
    15
100
AcDbSpline
210
0.0
220
0.0
230
1.0
 70
     8
 71
     3
 72
    12
 73
     8
 74
     0
 42
0.000000001
 43
0.00000001
 40
0.0
 40
0.0
 40
0.0
 40
0.0
 40
0.2499999999999999
 40
0.2499999999999999
 40
0.4999999999999998
 40
0.4999999999999998
 40
1.0
 40
1.0
 40
1.0
 40
1.0
 10
13.28360124766038
 20
-6.271081034712526
 30
0.0
 10
13.25950472756843
 20
-6.215335674096052
 30
0.0
 10
13.23546624397463
 20
-6.130090968803327
 30
0.0
 10
13.1884911581237
 20
-5.905585658698207
 30
0.0
 10
13.16607656388213
 20
-5.767665497620615
 30
0.0
 10
13.09789098449717
 20
-5.276878872307293
 30
0.0
 10
13.04917391638315
 20
-4.83825471395627
 30
0.0
 10
13.00107804682811
 20
-4.318540965455536
 30
0.0
  0
SPLINE
  5
193
330
1F
100
AcDbEntity
  8
외형선
  6
Continuous
 62
     1
370
    15
100
AcDbSpline
210
0.0
220
0.0
230
1.0
 70
     8
 71
     3
 72
    12
 73
     8
 74
     0
 42
0.000000001
 43
0.00000001
 40
0.0
 40
0.0
 40
0.0
 40
0.0
 40
0.4999999999999998
 40
0.4999999999999998
 40
0.7499999999999999
 40
0.7499999999999999
 40
1.0
 40
1.0
 40
1.0
 40
1.0
 10
14.75180044068825
 20
-6.332775844603081
 30
0.0
 10
14.703747770991
 20
-6.280610396877033
 30
0.0
 10
14.65493553867362
 20
-6.106704717271435
 30
0.0
 10
14.58643559177763
 20
-5.692684725877103
 30
0.0
 10
14.56417944425011
 20
-5.529855381873658
 30
0.0
 10
14.51734677036976
 20
-5.149558430748383
 30
0.0
 10
14.49334873830719
 20
-4.933150558903312
 30
0.0
 10
14.46925915499362
 20
-4.694305331577254
 30
0.0
  0
SPLINE
  5
194
330
1F
100
AcDbEntity
  8
외형선
  6
Continuous
 62
     1
370
    15
100
AcDbSpline
210
0.0
220
0.0
230
1.0
 70
     8
 71
     3
 72
    14
 73
    10
 74
     0
 42
0.000000001
 43
0.00000001
 40
0.0
 40
0.0
 40
0.0
 40
0.0
 40
0.2499999999999998
 40
0.2499999999999998
 40
0.4999999999999997
 40
0.4999999999999997
 40
0.7499999999999998
 40
0.7499999999999998
 40
1.0
 40
1.0
 40
1.0
 40
1.0
 10
12.16213293057982
 20
4.252920329918055
 30
0.0
 10
12.13938861374131
 20
4.507048103170076
 30
0.0
 10
12.11660685817264
 20
4.74215748910356
 30
0.0
 10
12.0691862445625
 20
5.172053567468892
 30
0.0
 10
12.04495616020599
 20
5.365268478707605
 30
0.0
 10
11.99646639099923
 20
5.699022755131173
 30
0.0
 10
11.97221153163681
 20
5.839528414591472
 30
0.0
 10
11.92469522984334
 20
6.062977918502435
 30
0.0
 10
11.90173474470157
 20
6.145700660645487
 30
0.0
 10
11.8790705329547
 20
6.200166206187923
 30
0.0
  0
SPLINE
  5
195
330
1F
100
AcDbEntity
  8
외형선
  6
Continuous
 62
     1
370
    15
100
AcDbSpline
210
0.0
220
0.0
230
1.0
 70
     8
 71
     3
 72
     8
 73
     4
 74
     0
 42
0.000000001
 43
0.00000001
 40
0.0
 40
0.0
 40
0.0
 40
0.0
 40
1.0
 40
1.0
 40
1.0
 40
1.0
 10
13.28360103936863
 20
-6.271080552845602
 30
0.0
 10
13.20933056953775
 20
-6.26683859110714
 30
0.0
 10
13.13467514161853
 20
-6.239391523143608
 30
0.0
 10
13.07325970936638
 20
-6.190102290761295
 30
0.0
  0
SPLINE
  5
196
330
1F
100
AcDbEntity
  8
외형선
  6
Continuous
 62
     1
370
    15
100
AcDbSpline
210
0.0
220
0.0
230
1.0
 70
     8
 71
     3
 72
    12
 73
     8
 74
     0
 42
0.000000001
 43
0.00000001
 40
0.0
 40
0.0
 40
0.0
 40
0.0
 40
0.5
 40
0.5
 40
0.75
 40
0.75
 40
1.0
 40
1.0
 40
1.0
 40
1.0
 10
11.31902343308363
 20
4.471437367486435
 30
0.0
 10
11.27353048960761
 20
4.956391897799261
 30
0.0
 10
11.22462081243372
 20
5.369745072125308
 30
0.0
 10
11.15201553109272
 20
5.823338932956056
 30
0.0
 10
11.12795675383446
 20
5.947219903647323
 30
0.0
 10
11.08111172989117
 20
6.136961301439072
 30
0.0
 10
11.05890437260306
 20
6.202735652194442
 30
0.0
 10
11.03578121386375
 20
6.240885012120114
 30
0.0
  0
SPLINE
  5
198
330
1F
100
AcDbEntity
  8
외형선
  6
Continuous
 62
     1
370
    15
100
AcDbSpline
210
0.0
220
0.0
230
1.0
 70
     8
 71
     3
 72
    12
 73
     8
 74
     0
 42
0.000000001
 43
0.00000001
 40
0.0
 40
0.0
 40
0.0
 40
0.0
 40
0.5000000000000002
 40
0.5000000000000002
 40
0.7500000000000001
 40
0.7500000000000001
 40
1.0
 40
1.0
 40
1.0
 40
1.0
 10
11.10758063209509
 20
4.582447022770405
 30
0.0
 10
11.06203467923347
 20
5.064713222259315
 30
0.0
 10
11.01324853698486
 20
5.473107392735388
 30
0.0
 10
10.94105534189018
 20
5.917654601334723
 30
0.0
 10
10.91717007417857
 20
6.038265698515616
 30
0.0
 10
10.87072255519517
 20
6.221315983604232
 30
0.0
 10
10.84866941085174
 20
6.283813452239478
 30
0.0
 10
10.82556485732257
 20
6.318584454564117
 30
0.0
  0
SPLINE
  5
199
330
1F
100
AcDbEntity
  8
외형선
  6
Continuous
 62
     1
370
    15
100
AcDbSpline
210
0.0
220
0.0
230
1.0
 70
     8
 71
     3
 72
     8
 73
     4
 74
     0
 42
0.000000001
 43
0.00000001
 40
0.0
 40
0.0
 40
0.0
 40
0.0
 40
1.0
 40
1.0
 40
1.0
 40
1.0
 10
14.96347131974484
 20
-6.267586147574436
 30
0.0
 10
14.9026850976798
 20
-6.311983555754415
 30
0.0
 10
14.82828745978786
 20
-6.334830302933581
 30
0.0
 10
14.75180029277632
 20
-6.332775684033122
 30
0.0
  0
SPLINE
  5
19A
330
1F
100
AcDbEntity
  8
외형선
  6
Continuous
 62
     1
370
    15
100
AcDbSpline
210
0.0
220
0.0
230
1.0
 70
     8
 71
     3
 72
    12
 73
     8
 74
     0
 42
0.000000001
 43
0.00000001
 40
0.0
 40
0.0
 40
0.0
 40
0.0
 40
0.4999999999999998
 40
0.4999999999999998
 40
0.75
 40
0.75
 40
1.0
 40
1.0
 40
1.0
 40
1.0
 10
14.96347131970163
 20
-6.267586147536597
 30
0.0
 10
14.9152693617875
 20
-6.225383532114589
 30
0.0
 10
14.86612884706427
 20
-6.061644808032854
 30
0.0
 10
14.7969848188983
 20
-5.661148852444246
 30
0.0
 10
14.77475351144444
 20
-5.503153913101514
 30
0.0
 10
14.72786661071627
 20
-5.13243124129378
 30
0.0
 10
14.70380438370718
 20
-4.920684495599954
 30
0.0
 10
14.67961707152838
 20
-4.686239559896928
 30
0.0
  0
SPLINE
  5
19B
330
1F
100
AcDbEntity
  8
외형선
  6
Continuous
 62
     1
370
    15
100
AcDbSpline
210
0.0
220
0.0
230
1.0
 70
     8
 71
     3
 72
    10
 73
     6
 74
     0
 42
0.000000001
 43
0.00000001
 40
0.0
 40
0.0
 40
0.0
 40
0.0
 40
0.3220431718731351
 40
0.6913998317752315
 40
1.0
 40
1.0
 40
1.0
 40
1.0
 10
15.58350047333316
 20
-6.166077794311635
 30
0.0
 10
15.51357735664703
 20
-6.150798197785558
 30
0.0
 10
15.36345825667422
 20
-6.117994178354637
 30
0.0
 10
15.14428742921555
 20
-6.158681735914139
 30
0.0
 10
15.02003154080329
 20
-6.233520280236747
 30
0.0
 10
14.96347131974484
 20
-6.26758614757444
 30
0.0
  0
SPLINE
  5
19D
330
1F
100
AcDbEntity
  8
외형선
  6
Continuous
 62
     1
370
    15
100
AcDbSpline
210
0.0
220
0.0
230
1.0
 70
     8
 71
     3
 72
    12
 73
     8
 74
     0
 42
0.000000001
 43
0.00000001
 40
0.0
 40
0.0
 40
0.0
 40
0.0
 40
0.5
 40
0.5
 40
0.75
 40
0.75
 40
1.0
 40
1.0
 40
1.0
 40
1.0
 10
16.01771989488064
 20
-6.349996499679206
 30
0.0
 10
15.97019697065668
 20
-6.34925504152008
 30
0.0
 10
15.92101542340132
 20
-6.227451117386748
 30
0.0
 10
15.85075361430828
 20
-5.880444447762315
 30
0.0
 10
15.82849157173644
 20
-5.739534733385565
 30
0.0
 10
15.7828264390168
 20
-5.405380108162636
 30
0.0
 10
15.75921808707997
 20
-5.211083898976186
 30
0.0
 10
15.73529793200286
 20
-4.992408811970029
 30
0.0
  0
LINE
  5
1A3
330
1F
100
AcDbEntity
  8
외형선
  6
Continuous
 62
     1
370
    15
100
AcDbLine
 10
23.79107376946229
 20
-6.254645643069078
 30
0.0
 11
23.78669001502414
 21
-6.247433271095786
 31
0.0
  0
LINE
  5
1A6
330
1F
100
AcDbEntity
  8
외형선
  6
Continuous
 62
     1
370
    15
100
AcDbLine
 10
26.6897334053452
 20
-6.340393540702928
 30
0.0
 11
26.68474618817144
 21
-6.341452594395561
 31
0.0
  0
SPLINE
  5
1A7
330
1F
100
AcDbEntity
  8
외형선
  6
Continuous
 62
     1
370
    15
100
AcDbSpline
210
0.0
220
0.0
230
1.0
 70
     8
 71
     3
 72
    12
 73
     8
 74
     0
 42
0.000000001
 43
0.00000001
 40
0.0
 40
0.0
 40
0.0
 40
0.0
 40
0.1746749290700481
 40
0.4145386416937408
 40
0.6513105532788476
 40
0.8884959728821082
 40
1.0
 40
1.0
 40
1.0
 40
1.0
 10
15.7897075302879
 20
-6.256062323744232
 30
0.0
 10
15.7740027154743
 20
-6.242331406011635
 30
0.0
 10
15.73673203996555
 20
-6.20974518418585
 30
0.0
 10
15.67786318623828
 20
-5.995168532202506
 30
0.0
 10
15.61599079737901
 20
-5.643494302900194
 30
0.0
 10
15.56492665744805
 20
-5.252482739748142
 30
0.0
 10
15.53365479512026
 20
-4.972671293097848
 30
0.0
 10
15.52365466859559
 20
-4.883193095726013
 30
0.0
  0
SPLINE
  5
1A8
330
1F
100
AcDbEntity
  8
외형선
  6
Continuous
 62
     1
370
    15
100
AcDbSpline
210
0.0
220
0.0
230
1.0
 70
     8
 71
     3
 72
    10
 73
     6
 74
     0
 42
0.000000001
 43
0.00000001
 40
0.0
 40
0.0
 40
0.0
 40
0.0
 40
0.2400236339217653
 40
0.6224568041668477
 40
0.9999999999999999
 40
0.9999999999999999
 40
0.9999999999999999
 40
0.9999999999999999
 10
17.4498019673028
 20
-6.313262651294853
 30
0.0
 10
17.42989677363605
 20
-6.315257856273387
 30
0.0
 10
17.37827634345725
 20
-6.320432050557116
 30
0.0
 10
17.29448185453651
 20
-5.992798238210307
 30
0.0
 10
17.23341418343851
 20
-5.53268828528207
 30
0.0
 10
17.20307681409712
 20
-5.30411356925559
 30
0.0
  0
SPLINE
  5
1AC
330
1F
100
AcDbEntity
  8
외형선
  6
Continuous
 62
     1
370
    15
100
AcDbSpline
210
0.0
220
0.0
230
1.0
 70
     8
 71
     3
 72
    11
 73
     7
 74
     0
 42
0.000000001
 43
0.00000001
 40
0.0
 40
0.0
 40
0.0
 40
0.0
 40
0.1739477080764255
 40
0.4516705992602754
 40
0.727073861480117
 40
1.0
 40
1.0
 40
1.0
 40
1.0
 10
17.6704117560258
 20
-6.254633679612171
 30
0.0
 10
17.65548564913962
 20
-6.263669643073311
 30
0.0
 10
17.61672869329091
 20
-6.287132320889077
 30
0.0
 10
17.55282170641641
 20
-6.123190423100978
 30
0.0
 10
17.48216922066705
 20
-5.803708025798566
 30
0.0
 10
17.43621342224165
 20
-5.454609050734813
 30
0.0
 10
17.41333932760088
 20
-5.280848105038917
 30
0.0
  0
SPLINE
  5
1AD
330
1F
100
AcDbEntity
  8
외형선
  6
Continuous
 62
     1
370
    15
100
AcDbSpline
210
0.0
220
0.0
230
1.0
 70
     8
 71
     3
 72
    10
 73
     6
 74
     0
 42
0.000000001
 43
0.00000001
 40
0.0
 40
0.0
 40
0.0
 40
0.0
 40
0.3004579119746015
 40
0.6526208011631669
 40
1.0
 40
1.0
 40
1.0
 40
1.0
 10
18.45884134980341
 20
-6.260615731469112
 30
0.0
 10
18.43829491976536
 20
-6.23828019518901
 30
0.0
 10
18.39366628095085
 20
-6.189765461508901
 30
0.0
 10
18.32546437424784
 20
-5.914286752390057
 30
0.0
 10
18.27964257677213
 20
-5.596717518555195
 30
0.0
 10
18.25688835001601
 20
-5.43901872113734
 30
0.0
  0
SPLINE
  5
1AF
330
1F
100
AcDbEntity
  8
외형선
  6
Continuous
 62
     1
370
    15
100
AcDbSpline
210
0.0
220
0.0
230
1.0
 70
     8
 71
     3
 72
    11
 73
     7
 74
     0
 42
0.000000001
 43
0.00000001
 40
0.0
 40
0.0
 40
0.0
 40
0.0
 40
0.0192853323874134
 40
0.3484278443612231
 40
0.6765174022024627
 40
1.0
 40
1.0
 40
1.0
 40
1.0
 10
18.68461441705853
 20
-6.345146434508702
 30
0.0
 10
18.68323638072975
 20
-6.346741819054833
 30
0.0
 10
18.65833941666148
 20
-6.375565610481878
 30
0.0
 10
18.60820263135118
 20
-6.26523911517276
 30
0.0
 10
18.53675855292609
 20
-6.015240818751779
 30
0.0
 10
18.49106796584896
 20
-5.69993964333214
 30
0.0
 10
18.46838420062863
 20
-5.543403728728224
 30
0.0
  0
SPLINE
  5
1B0
330
1F
100
AcDbEntity
  8
외형선
  6
Continuous
 62
     1
370
    15
100
AcDbSpline
210
0.0
220
0.0
230
1.0
 70
     8
 71
     3
 72
    10
 73
     6
 74
     0
 42
0.000000001
 43
0.00000001
 40
0.0
 40
0.0
 40
0.0
 40
0.0
 40
0.0575140665761511
 40
0.5307996590823129
 40
1.0
 40
1.0
 40
1.0
 40
1.0
 10
20.11654955543831
 20
-6.336467631649676
 30
0.0
 10
20.11312249106041
 20
-6.34081770598009
 30
0.0
 10
20.08149397456462
 20
-6.380964718859286
 30
0.0
 10
20.01911890634846
 20
-6.227600751140395
 30
0.0
 10
19.96297737530174
 20
-5.931324261824608
 30
0.0
 10
19.93502828389083
 20
-5.783828129667117
 30
0.0
  0
SPLINE
  5
1B1
330
1F
100
AcDbEntity
  8
외형선
  6
Continuous
 62
     1
370
    15
100
AcDbSpline
210
0.0
220
0.0
230
1.0
 70
     8
 71
     3
 72
    11
 73
     7
 74
     0
 42
0.000000001
 43
0.00000001
 40
0.0
 40
0.0
 40
0.0
 40
0.0
 40
0.0428781927558538
 40
0.3626169933827559
 40
0.6828290982614746
 40
1.0
 40
1.0
 40
1.0
 40
1.0
 10
20.3429078137659
 20
-6.263769053082339
 30
0.0
 10
20.34014109949612
 20
-6.26829867938214
 30
0.0
 10
20.3167432474511
 20
-6.306605318827829
 30
0.0
 10
20.27095665752722
 20
-6.246886013053154
 30
0.0
 10
20.2071390429713
 20
-6.08509898917178
 30
0.0
 10
20.16577296112256
 20
-5.85870086547359
 30
0.0
 10
20.14518860706049
 20
-5.746041920538166
 30
0.0
  0
SPLINE
  5
1B2
330
1F
100
AcDbEntity
  8
외형선
  6
Continuous
 62
     1
370
    15
100
AcDbSpline
210
0.0
220
0.0
230
1.0
 70
     8
 71
     3
 72
     9
 73
     5
 74
     0
 42
0.000000001
 43
0.00000001
 40
0.0
 40
0.0
 40
0.0
 40
0.0
 40
0.4241323341753077
 40
1.0
 40
1.0
 40
1.0
 40
1.0
 10
21.12290186182635
 20
-6.249955317678618
 30
0.0
 10
21.10378113267447
 20
-6.233959108707504
 30
0.0
 10
21.0586991438441
 20
-6.196243971986747
 30
0.0
 10
21.01417872284193
 20
-5.983850277004542
 30
0.0
 10
20.98854085191788
 20
-5.861539615639259
 30
0.0
  0
SPLINE
  5
1B3
330
1F
100
AcDbEntity
  8
외형선
  6
Continuous
 62
     1
370
    15
100
AcDbSpline
210
0.0
220
0.0
230
1.0
 70
     8
 71
     3
 72
    10
 73
     6
 74
     0
 42
0.000000001
 43
0.00000001
 40
0.0
 40
0.0
 40
0.0
 40
0.0
 40
0.0003451620145971
 40
0.5009964701480087
 40
1.0
 40
1.0
 40
1.0
 40
1.0
 10
21.35151480014769
 20
-6.349932649920752
 30
0.0
 10
21.35149774262506
 20
-6.349955104849655
 30
0.0
 10
21.32673905463018
 20
-6.382548031190093
 30
0.0
 10
21.27507400180475
 20
-6.278666948885993
 30
0.0
 10
21.22504312382808
 20
-6.065026249136789
 30
0.0
 10
21.20006891896927
 20
-5.958381976289827
 30
0.0
  0
SPLINE
  5
1B4
330
1F
100
AcDbEntity
  8
외형선
  6
Continuous
 62
     1
370
    15
100
AcDbSpline
210
0.0
220
0.0
230
1.0
 70
     8
 71
     3
 72
     9
 73
     5
 74
     0
 42
0.000000001
 43
0.00000001
 40
0.0
 40
0.0
 40
0.0
 40
0.0
 40
0.1708296289282653
 40
1.0
 40
1.0
 40
1.0
 40
1.0
 10
22.78306245828966
 20
-6.324602971173734
 30
0.0
 10
22.7766214499954
 20
-6.332660478804867
 30
0.0
 10
22.73891716921775
 20
-6.379827399916181
 30
0.0
 10
22.70002885020973
 20
-6.238862665742823
 30
0.0
 10
22.66778380830747
 20
-6.121978884800268
 30
0.0
  0
SPLINE
  5
1B5
330
1F
100
AcDbEntity
  8
외형선
  6
Continuous
 62
     1
370
    15
100
AcDbSpline
210
0.0
220
0.0
230
1.0
 70
     8
 71
     3
 72
    10
 73
     6
 74
     0
 42
0.000000001
 43
0.00000001
 40
0.0
 40
0.0
 40
0.0
 40
0.0
 40
0.0537857758871041
 40
0.5264373655462362
 40
1.0
 40
1.0
 40
1.0
 40
1.0
 10
23.00954317627734
 20
-6.26513695368117
 30
0.0
 10
23.00724838105192
 20
-6.268893610657775
 30
0.0
 10
22.98478768520784
 20
-6.305662525290103
 30
0.0
 10
22.94038502351707
 20
-6.258914645409271
 30
0.0
 10
22.8988713246886
 20
-6.133464730642904
 30
0.0
 10
22.87809448992736
 20
-6.070679379699298
 30
0.0
  0
LINE
  5
1B6
330
1F
100
AcDbEntity
  8
외형선
  6
Continuous
 62
     1
370
    15
100
AcDbLine
 10
23.78669001502414
 20
-6.247433271095786
 30
0.0
 11
23.72201004277936
 21
-6.141018546997155
 31
0.0
  0
SPLINE
  5
1B7
330
1F
100
AcDbEntity
  8
외형선
  6
Continuous
 62
     1
370
    15
100
AcDbSpline
210
0.0
220
0.0
230
1.0
 70
     8
 71
     3
 72
     9
 73
     5
 74
     0
 42
0.000000001
 43
0.00000001
 40
0.0
 40
0.0
 40
0.0
 40
0.0
 40
0.0480597481368499
 40
1.0
 40
1.0
 40
1.0
 40
1.0
 10
24.01793939250055
 20
-6.344782000273549
 30
0.0
 10
24.01662065236884
 20
-6.34650837768411
 30
0.0
 10
23.98918105514215
 20
-6.382429860369459
 30
0.0
 10
23.9607381334114
 20
-6.303314164793099
 30
0.0
 10
23.93366217133532
 20
-6.228000749619809
 30
0.0
  0
LINE
  5
1B8
330
1F
100
AcDbEntity
  8
외형선
  6
Continuous
 62
     1
370
    15
100
AcDbLine
 10
25.45000212975748
 20
-6.338593144863661
 30
0.0
 11
25.40190582609254
 21
-6.310144816366407
 31
0.0
  0
SPLINE
  5
1B9
330
1F
100
AcDbEntity
  8
외형선
  6
Continuous
 62
     1
370
    15
100
AcDbSpline
210
0.0
220
0.0
230
1.0
 70
     8
 71
     3
 72
     9
 73
     5
 74
     0
 42
0.000000001
 43
0.00000001
 40
0.0
 40
0.0
 40
0.0
 40
0.0
 40
0.0669520905646201
 40
1.0
 40
1.0
 40
1.0
 40
1.0
 10
25.67595061638785
 20
-6.267900210880442
 30
0.0
 10
25.67456261794147
 20
-6.270199912222145
 30
0.0
 10
25.65383139902535
 20
-6.304548374268804
 30
0.0
 10
25.63232653592291
 20
-6.274551256220031
 30
0.0
 10
25.61226146836247
 20
-6.246562507935534
 30
0.0
  0
LINE
  5
1BA
330
1F
100
AcDbEntity
  8
외형선
  6
Continuous
 62
     1
370
    15
100
AcDbLine
 10
26.68474618817144
 20
-6.341452594395561
 30
0.0
 11
26.66789006063756
 21
-6.34503205434012
 31
0.0
  0
LINE
  5
1BB
330
1F
100
AcDbEntity
  8
중심선
100
AcDbLine
 10
-43.80000000000002
 20
-0.0000000000000088
 30
0.0
 11
39.40000000000003
 21
0.0000000000000014
 31
0.0
  0
LINE
  5
1BC
330
1F
100
AcDbEntity
  8
참조1
100
AcDbLine
 10
3.650000000000003
 20
-0.3168705809327397
 30
0.0
 11
3.650000000000011
 21
-40.31687058093273
 31
0.0
  0
LINE
  5
1BD
330
1F
100
AcDbEntity
  8
참조1
100
AcDbLine
 10
-16.55360765519648
 20
-4.762499999999998
 30
0.0
 11
51.58897268839598
 21
-4.762499999999998
 31
0.0
  0
LINE
  5
1BE
330
1F
100
AcDbEntity
  8
참조1
100
AcDbLine
 10
51.58897268839598
 20
-4.762499999999998
 30
0.0
 11
51.58897268839598
 21
-6.927248606176849
 31
0.0
  0
LINE
  5
1BF
330
1F
100
AcDbEntity
  8
참조1
100
AcDbLine
 10
3.650000000000011
 20
-40.31687058093273
 30
0.0
 11
-21.0210498072657
 21
-40.31687058093273
 31
0.0
  0
CIRCLE
  5
1C0
330
1F
100
AcDbEntity
  8
해칭선
100
AcDbCircle
 10
0.0
 20
0.0
 30
0.0
 40
3.000000000000005
  0
INSERT
  5
1C1
330
1F
100
AcDbEntity
  8
0
  6
Continuous
 62
     7
100
AcDbBlockReference
 66
     1
  2
블럭10
 10
-10.2902729321252
 20
-52.36404488257666
 30
0.0
  0
ATTRIB
  5
1C2
330
1C1
100
AcDbEntity
  8
FORMAT
 62
     2
100
AcDbText
 10
-20.43190894426182
 20
-50.28867796974446
 30
0.0
 40
4.233333333333333
  1
E5E45032 [ 3 FLUTE ]
 41
0.75
  7
SLDTEXTSTYLE0
 11
-20.43190894426182
 21
-52.40534463641113
 31
0.0
100
AcDbAttribute
  2
AUTOATTR0
 70
     0
 74
     1
  0
SEQEND
  5
1C3
330
1C1
100
AcDbEntity
  8
0
  6
Continuous
 62
     7
  0
HATCH
  5
1C4
330
1F
100
AcDbEntity
  8
중심선
100
AcDbHatch
 10
0.0
 20
0.0
 30
0.0
210
0.0
220
0.0
230
1.0
  2
SOLID
 70
     1
 71
     0
 91
        1
 92
        0
 93
        4
 72
     1
 10
-4.575363627744349
 20
-36.11687058093274
 11
-8.021638871581633
 21
-36.11687058093274
 72
     1
 10
-8.021638871581633
 20
-36.11687058093274
 11
-10.14986873078565
 21
-38.65319616150533
 72
     1
 10
-10.14986873078565
 20
-38.65319616150532
 11
-6.703560401835222
 21
-38.65315673220283
 72
     1
 10
-6.703560401835222
 20
-38.65315673220283
 11
-4.575363627744349
 21
-36.11687058093273
 97
        0
 75
     0
 76
     1
 98
        1
 10
3.17499999999999
 20
-0.3168705809327362
  0
HATCH
  5
1C5
330
1F
100
AcDbEntity
  8
중심선
100
AcDbHatch
 10
0.0
 20
0.0
 30
0.0
210
0.0
220
0.0
230
1.0
  2
SOLID
 70
     1
 71
     0
 91
        1
 92
        0
 93
        4
 72
     1
 10
0.4374003632916303
 20
-36.11687058093274
 11
-3.008874880545652
 21
-36.11687058093274
 72
     1
 10
-3.008874880545652
 20
-36.11687058093274
 11
-7.540012888903062
 21
-41.51687058093276
 72
     1
 10
-7.540012888903062
 20
-41.51687058093276
 11
-4.093737645065786
 21
-41.51687058093276
 72
     1
 10
-4.093737645065786
 20
-41.51687058093276
 11
0.4374003632916308
 21
-36.11687058093274
 97
        0
 75
     0
 76
     1
 98
        1
 10
3.17499999999999
 20
-0.3168705809327362
  0
HATCH
  5
1C6
330
1F
100
AcDbEntity
  8
중심선
100
AcDbHatch
 10
0.0
 20
0.0
 30
0.0
210
0.0
220
0.0
230
1.0
  2
SOLID
 70
     1
 71
     0
 91
        1
 92
        0
 93
        4
 72
     1
 10
5.450164354327553
 20
-36.1168705809327
 11
2.003889110490382
 21
-36.11687058093273
 72
     1
 10
2.003889110490382
 20
-36.11687058093274
 11
-5.044547791398866
 21
-44.51687058093276
 72
     1
 10
-5.044547791398866
 20
-44.51687058093276
 11
-1.598272547561584
 21
-44.51687058093276
 72
     1
 10
-1.598272547561584
 20
-44.51687058093276
 11
5.450164354327554
 21
-36.11687058093271
 97
        0
 75
     0
 76
     1
 98
        1
 10
3.17499999999999
 20
-0.3168705809327362
  0
HATCH
  5
1C7
330
1F
100
AcDbEntity
  8
중심선
100
AcDbHatch
 10
0.0
 20
0.0
 30
0.0
210
0.0
220
0.0
230
1.0
  2
SOLID
 70
     1
 71
     0
 91
        1
 92
        0
 93
        6
 72
     3
 10
10.2500547853397
 20
-40.316870580984
 11
3.960054785062283
 21
1.540882976769353E-10
 40
0.3939339440162628
 50
17.09539180608439
 51
320.0019657685083
 73
     0
 72
     1
 10
11.93305444104027
 20
-38.90476458557106
 11
14.23835631474136
 21
-36.97043787552311
 72
     3
 10
10.25005478528685
 20
-40.31687058093289
 11
6.600054785286828
 21
-1.278976924368180E-13
 40
0.6363583540795982
 50
39.99873849337387
 51
368.4976242363724
 73
     1
 72
     1
 10
16.67538727718746
 20
-39.35687058086275
 11
8.930122092122772
 21
-39.35687058086275
 72
     1
 10
8.930122092122772
 20
-39.35687058086275
 11
8.930097047676838
 21
-41.27687058086264
 72
     1
 10
8.930097047676838
 20
-41.27687058086265
 11
13.37147681714888
 21
-41.27687058086261
 97
        0
 75
     0
 76
     1
 98
        1
 10
3.17499999999999
 20
-0.3168705809327362
  0
POINT
  5
1C8
330
1F
100
AcDbEntity
  8
치수문자_일반주서
100
AcDbPoint
 10
-7.566666666666602
 20
-0.4224941079103186
 30
0.0
  0
DIMENSION
  5
1C9
330
1F
100
AcDbEntity
  8
치수문자_일반주서
100
AcDbDimension
  2
_D
 10
54.19334672766246
 20
-6.34999999999992
 30
0.0
 11
54.19334672766234
 21
28.54433333333348
 31
0.0
 70
   160
  1
%%c<>
 71
     2
 42
12.7
 52
-270.0
  3
SLDDIMSTYLE0
100
AcDbAlignedDimension
 13
35.39999999999998
 23
6.350000000000006
 33
0.0
 14
35.39999999999999
 24
-6.349999999999993
 34
0.0
 50
90.0000000000002
100
AcDbRotatedDimension
1001
ACAD
1000
DSTYLE
1002
{
1070
   171
1070
     5
1070
   273
1070
     7
1002
}
  0
DIMENSION
  5
1DC
330
1F
100
AcDbEntity
  8
치수문자_일반주서
100
AcDbDimension
  2
_D_1
 10
-53.81750000000002
 20
-6.350000000000035
 30
0.0
 11
-53.81750000000004
 21
-1.017344347620599
 31
0.0
 70
   160
  1
%%c<>
 71
     2
 42
12.69999999999999
 52
-270.0
  3
SLDDIMSTYLE1
100
AcDbAlignedDimension
 13
-39.40416666666668
 23
6.350000000000008
 33
0.0
 14
-39.40416666666668
 24
-6.349999999999982
 34
0.0
 50
90.0000000000002
100
AcDbRotatedDimension
1001
ACAD
1000
DSTYLE
1002
{
1070
   171
1070
     5
1070
   273
1070
     7
1002
}
  0
DIMENSION
  5
1F1
330
1F
100
AcDbEntity
  8
치수문자_일반주서
100
AcDbDimension
  2
_D_2
 10
9.999999999999993
 20
27.21527039202649
 30
0.0
 11
22.69999999999999
 21
27.21527039202649
 31
0.0
 70
   160
  1
<>
 71
     2
 42
25.39999999999999
  3
SLDDIMSTYLE0
100
AcDbAlignedDimension
 13
35.39999999999998
 23
4.111650175188986
 33
0.0
 14
9.999999999999993
 24
6.349999999999991
 34
0.0
 50
0.0000000000000092
100
AcDbRotatedDimension
1001
ACAD
1000
DSTYLE
1002
{
1070
   171
1070
     5
1070
   273
1070
     7
1002
}
  0
DIMENSION
  5
205
330
1F
100
AcDbEntity
  8
치수문자_일반주서
100
AcDbDimension
  2
_D_3
 10
-40.80000000000002
 20
50.16619365413038
 30
0.0
 11
-3.231617699069937
 21
50.16619365413038
 31
0.0
 70
   160
  1
<>
 71
     2
 42
76.2
  3
SLDDIMSTYLE2
100
AcDbAlignedDimension
 13
35.39999999999998
 23
4.836353435965125
 33
0.0
 14
-40.80000000000002
 24
5.016666666666659
 34
0.0
100
AcDbRotatedDimension
1001
ACAD
1000
DSTYLE
1002
{
1070
   171
1070
     5
1070
   273
1070
     7
1002
}
  0
LINE
  5
219
330
1F
100
AcDbEntity
  8
참조1
100
AcDbLine
 10
76.95129082238857
 20
7.123129419067266
 30
0.0
 11
76.95129082238857
 21
-7.756870580932739
 31
0.0
  0
LINE
  5
21A
330
1F
100
AcDbEntity
  8
참조1
100
AcDbLine
 10
89.65129082238856
 20
5.123129419067266
 30
0.0
 11
76.95129082238857
 21
5.123129419067266
 31
0.0
  0
SOLID
  5
21B
330
1F
100
AcDbEntity
  8
참조1
100
AcDbTrace
 10
76.95129082238857
 20
5.123129419067266
 30
0.0
 11
83.30129082238857
 21
4.107129419067266
 31
0.0
 12
83.30129082238857
 22
6.139129419067266
 32
0.0
 13
83.30129082238857
 23
6.139129419067266
 33
0.0
  0
LINE
  5
21C
330
1F
100
AcDbEntity
  8
참조1
100
AcDbLine
 10
89.65129082238856
 20
-5.756870580932739
 30
0.0
 11
76.95129082238857
 21
-5.756870580932739
 31
0.0
  0
SOLID
  5
21D
330
1F
100
AcDbEntity
  8
참조1
100
AcDbTrace
 10
76.95129082238857
 20
-5.756870580932739
 30
0.0
 11
83.30129082238857
 21
-6.772870580932739
 31
0.0
 12
83.30129082238857
 22
-4.740870580932738
 32
0.0
 13
83.30129082238857
 23
-4.740870580932738
 33
0.0
  0
MTEXT
  5
21E
330
1F
100
AcDbEntity
  8
참조1
100
AcDbMText
 10
86.55140563295113
 20
10.74884698508335
 30
0.0
 40
3.5
 41
0.0
 71
     1
 72
     1
  1
A
  7
SLDTEXTSTYLE0
 73
     1
 44
1.0
  0
MTEXT
  5
21F
330
1F
100
AcDbEntity
  8
참조1
100
AcDbMText
 10
86.55140563295113
 20
-0.1311530149166626
 30
0.0
 40
3.5
 41
0.0
 71
     1
 72
     1
  1
A
  7
SLDTEXTSTYLE0
 73
     1
 44
1.0
  0
INSERT
  5
226
330
1F
100
AcDbEntity
  8
해칭선
100
AcDbBlockReference
  2
SW_DOWELSYMBOL_0
 10
0.0
 20
0.0
 30
0.0
  0
ARC
  5
272
330
1F
100
AcDbEntity
  8
외형선
  6
Continuous
 62
     1
370
    15
100
AcDbCircle
 10
29.05
 20
0.0000000000000004
 30
0.0
 40
6.34999999999999
100
AcDbArc
 50
270.0
 51
90.0
  0
LINE
  5
273
330
1F
100
AcDbEntity
  8
0
100
AcDbLine
 10
35.39999999999998
 20
6.350000000000007
 30
0.0
 11
35.39999999999998
 21
13.19091669108478
 31
0.0
  0
SPLINE
  5
275
330
1F
100
AcDbEntity
  8
외형선
  6
Continuous
 62
     1
370
    15
100
AcDbSpline
210
0.0
220
0.0
230
1.0
 70
  1064
 71
     3
 72
     9
 73
     5
 74
     3
 42
0.000000001
 43
0.0000000001
 44
0.0
 40
0.0
 40
0.0
 40
0.0
 40
0.0
 40
2.514709763122074
 40
6.361458759894971
 40
6.361458759894971
 40
6.361458759894971
 40
6.361458759894971
 10
30.59556788909519
 20
2.064183013458711
 30
0.0
 10
31.53205594149311
 20
2.512660240172971
 30
0.0
 10
33.90108882625333
 20
3.647172629766907
 30
0.0
 10
31.52271243531501
 20
5.331496191816513
 30
0.0
 10
30.08451762165541
 20
6.350000000000006
 30
0.0
 11
30.59556788909519
 21
2.064183013458711
 31
0.0
 11
32.66317713249865
 21
3.495531052663041
 31
0.0
 11
30.08451762165541
 21
6.350000000000006
 31
0.0
  0
LINE
  5
2A6
330
1F
100
AcDbEntity
  8
외형선
  6
Continuous
370
    15
100
AcDbLine
 10
9.999999999999993
 20
6.349999999999991
 30
0.0
 11
9.999999999999993
 21
-6.349999999999993
 31
0.0
  0
ENDSEC
  0
SECTION
  2
OBJECTS
  0
DICTIONARY
  5
C
330
0
100
AcDbDictionary
281
     1
  3
ACAD_DETAILVIEWSTYLE
350
27E
  3
ACAD_GROUP
350
D
  3
ACAD_IMAGE_VARS
350
24A
  3
ACAD_LAYOUT
350
1A
  3
ACAD_MLINESTYLE
350
17
  3
ACAD_PLOTSETTINGS
350
19
  3
ACAD_PLOTSTYLENAME
350
E
  3
ACAD_SCALELIST
350
47
  3
ACAD_SECTIONVIEWSTYLE
350
27F
  3
AcDbVariableDictionary
350
279
  3
APPDATA
350
248
  3
DWGPROPS
350
2AB
  0
DICTIONARY
  5
27E
102
{ACAD_REACTORS
330
C
102
}
330
C
100
AcDbDictionary
281
     1
  0
DICTIONARY
  5
D
102
{ACAD_REACTORS
330
C
102
}
330
C
100
AcDbDictionary
281
     1
  0
RASTERVARIABLES
  5
24A
102
{ACAD_REACTORS
330
C
102
}
330
C
100
AcDbRasterVariables
 90
        0
 70
     1
 71
     1
 72
     1
  0
DICTIONARY
  5
1A
102
{ACAD_REACTORS
330
C
102
}
330
C
100
AcDbDictionary
281
     1
  3
Layout1
350
1E
  3
Layout2
350
26
  3
Model
350
22
  0
DICTIONARY
  5
17
102
{ACAD_REACTORS
330
C
102
}
330
C
100
AcDbDictionary
281
     1
  3
Standard
350
18
  0
DICTIONARY
  5
19
102
{ACAD_REACTORS
330
C
102
}
330
C
100
AcDbDictionary
281
     1
  0
ACDBDICTIONARYWDFLT
  5
E
102
{ACAD_REACTORS
330
C
102
}
330
C
100
AcDbDictionary
281
     1
  3
Normal
350
F
100
AcDbDictionaryWithDefault
340
F
  0
DICTIONARY
  5
47
102
{ACAD_REACTORS
330
C
102
}
330
C
100
AcDbDictionary
281
     1
  3
A0
350
48
  3
A1
350
49
  3
A2
350
4A
  3
A3
350
4B
  3
A4
350
4C
  3
A5
350
4D
  3
A6
350
4E
  3
A7
350
4F
  3
A8
350
50
  3
A9
350
51
  3
B0
350
52
  3
B1
350
53
  3
B2
350
54
  3
B3
350
55
  3
B4
350
56
  3
B5
350
57
  3
B6
350
58
  3
B7
350
59
  3
B8
350
5A
  3
B9
350
5B
  3
C0
350
5C
  3
C1
350
5D
  3
C2
350
5E
  3
C3
350
5F
  3
C4
350
60
  3
C5
350
61
  3
C6
350
62
  3
C7
350
63
  3
C8
350
64
  3
C9
350
65
  3
D0
350
66
  3
D1
350
67
  3
D2
350
68
  0
DICTIONARY
  5
27F
102
{ACAD_REACTORS
330
C
102
}
330
C
100
AcDbDictionary
281
     1
  0
DICTIONARY
  5
279
102
{ACAD_REACTORS
330
C
102
}
330
C
100
AcDbDictionary
281
     1
  0
DICTIONARY
  5
248
102
{ACAD_REACTORS
330
C
102
}
330
C
100
AcDbDictionary
281
     1
  0
XRECORD
  5
2AB
102
{ACAD_REACTORS
330
C
102
}
330
C
100
AcDbXrecord
280
     1
  1
DWGPROPS COOKIE
  2

  3

  4

  6

  7

  8
12016016
  9

300
=
301
=
302
=
303
=
304
=
305
=
306
=
307
=
308
=
309
=
 40
0.0
 41
2458298.975895243
 42
2458311.317893981
  1

 90
        0
  0
LAYOUT
  5
1E
102
{ACAD_REACTORS
330
1A
102
}
330
1A
100
AcDbPlotSettings
  1

  2
none_device
  4

  6

 40
0.0
 41
0.0
 42
0.0
 43
0.0
 44
0.0
 45
0.0
 46
0.0
 47
0.0
 48
0.0
 49
0.0
140
0.0
141
0.0
142
1.0
143
1.0
 70
   688
 72
     1
 73
     0
 74
     5
  7

 75
    16
147
1.0
148
0.0
149
0.0
100
AcDbLayout
  1
Layout1
 70
     1
 71
     1
 10
0.0
 20
0.0
 11
420.0
 21
297.0
 12
0.0
 22
0.0
 32
0.0
 14
1.000000000000000E+20
 24
1.000000000000000E+20
 34
1.000000000000000E+20
 15
-1.000000000000000E+20
 25
-1.000000000000000E+20
 35
-1.000000000000000E+20
146
0.0
 13
0.0
 23
0.0
 33
0.0
 16
1.0
 26
0.0
 36
0.0
 17
0.0
 27
1.0
 37
0.0
 76
     0
330
1B
  0
LAYOUT
  5
26
102
{ACAD_REACTORS
330
1A
102
}
330
1A
100
AcDbPlotSettings
  1

  2
none_device
  4

  6

 40
0.0
 41
0.0
 42
0.0
 43
0.0
 44
0.0
 45
0.0
 46
0.0
 47
0.0
 48
0.0
 49
0.0
140
0.0
141
0.0
142
1.0
143
1.0
 70
   688
 72
     1
 73
     0
 74
     5
  7

 75
    16
147
1.0
148
0.0
149
0.0
100
AcDbLayout
  1
Layout2
 70
     1
 71
     2
 10
0.0
 20
0.0
 11
0.0
 21
0.0
 12
0.0
 22
0.0
 32
0.0
 14
0.0
 24
0.0
 34
0.0
 15
0.0
 25
0.0
 35
0.0
146
0.0
 13
0.0
 23
0.0
 33
0.0
 16
1.0
 26
0.0
 36
0.0
 17
0.0
 27
1.0
 37
0.0
 76
     0
330
23
  0
LAYOUT
  5
22
102
{ACAD_REACTORS
330
1A
102
}
330
1A
100
AcDbPlotSettings
  1

  2
none_device
  4
ANSI_A_(11.00_x_8.50_Inches)
  6

 40
6.35
 41
19.05
 42
6.35000508
 43
19.05000254
 44
279.4
 45
215.9
 46
98.76438513735204
 47
90.88064147516121
 48
0.0
 49
0.0
140
0.0
141
0.0
142
0.0787110341538491
143
1.0
 70
  1696
 72
     0
 73
     0
 74
     0
  7

 75
     0
147
0.0235690232323232
148
0.0
149
0.0
100
AcDbLayout
  1
Model
 70
     1
 71
     0
 10
0.0
 20
0.0
 11
420.0
 21
297.0
 12
0.0
 22
0.0
 32
0.0
 14
-58.19250000000007
 24
-50.28867796974447
 34
0.0
 15
89.65129082238856
 25
54.54119365413038
 35
0.0
146
0.0
 13
0.0
 23
0.0
 33
0.0
 16
1.0
 26
0.0
 36
0.0
 17
0.0
 27
1.0
 37
0.0
 76
     0
330
1F
331
29
  0
MLINESTYLE
  5
18
102
{ACAD_REACTORS
330
17
102
}
330
17
100
AcDbMlineStyle
  2
Standard
 70
     0
  3

 62
   256
 51
90.0
 52
90.0
 71
     2
 49
0.5
 62
   256
  6
BYLAYER
 49
-0.5
 62
   256
  6
BYLAYER
  0
ACDBPLACEHOLDER
  5
F
102
{ACAD_REACTORS
330
E
102
}
330
E
  0
SCALE
  5
48
102
{ACAD_REACTORS
330
47
102
}
330
47
100
AcDbScale
 70
     0
300
1:1
140
1.0
141
1.0
290
     1
  0
SCALE
  5
49
102
{ACAD_REACTORS
330
47
102
}
330
47
100
AcDbScale
 70
     0
300
1:2
140
1.0
141
2.0
290
     0
  0
SCALE
  5
4A
102
{ACAD_REACTORS
330
47
102
}
330
47
100
AcDbScale
 70
     0
300
1:4
140
1.0
141
4.0
290
     0
  0
SCALE
  5
4B
102
{ACAD_REACTORS
330
47
102
}
330
47
100
AcDbScale
 70
     0
300
1:5
140
1.0
141
5.0
290
     0
  0
SCALE
  5
4C
102
{ACAD_REACTORS
330
47
102
}
330
47
100
AcDbScale
 70
     0
300
1:8
140
1.0
141
8.0
290
     0
  0
SCALE
  5
4D
102
{ACAD_REACTORS
330
47
102
}
330
47
100
AcDbScale
 70
     0
300
1:10
140
1.0
141
10.0
290
     0
  0
SCALE
  5
4E
102
{ACAD_REACTORS
330
47
102
}
330
47
100
AcDbScale
 70
     0
300
1:16
140
1.0
141
16.0
290
     0
  0
SCALE
  5
4F
102
{ACAD_REACTORS
330
47
102
}
330
47
100
AcDbScale
 70
     0
300
1:20
140
1.0
141
20.0
290
     0
  0
SCALE
  5
50
102
{ACAD_REACTORS
330
47
102
}
330
47
100
AcDbScale
 70
     0
300
1:30
140
1.0
141
30.0
290
     0
  0
SCALE
  5
51
102
{ACAD_REACTORS
330
47
102
}
330
47
100
AcDbScale
 70
     0
300
1:40
140
1.0
141
40.0
290
     0
  0
SCALE
  5
52
102
{ACAD_REACTORS
330
47
102
}
330
47
100
AcDbScale
 70
     0
300
1:50
140
1.0
141
50.0
290
     0
  0
SCALE
  5
53
102
{ACAD_REACTORS
330
47
102
}
330
47
100
AcDbScale
 70
     0
300
1:100
140
1.0
141
100.0
290
     0
  0
SCALE
  5
54
102
{ACAD_REACTORS
330
47
102
}
330
47
100
AcDbScale
 70
     0
300
2:1
140
2.0
141
1.0
290
     0
  0
SCALE
  5
55
102
{ACAD_REACTORS
330
47
102
}
330
47
100
AcDbScale
 70
     0
300
4:1
140
4.0
141
1.0
290
     0
  0
SCALE
  5
56
102
{ACAD_REACTORS
330
47
102
}
330
47
100
AcDbScale
 70
     0
300
8:1
140
8.0
141
1.0
290
     0
  0
SCALE
  5
57
102
{ACAD_REACTORS
330
47
102
}
330
47
100
AcDbScale
 70
     0
300
10:1
140
10.0
141
1.0
290
     0
  0
SCALE
  5
58
102
{ACAD_REACTORS
330
47
102
}
330
47
100
AcDbScale
 70
     0
300
100:1
140
100.0
141
1.0
290
     0
  0
SCALE
  5
59
102
{ACAD_REACTORS
330
47
102
}
330
47
100
AcDbScale
 70
     0
300
1/128" = 1'-0"
140
0.0078125
141
12.0
290
     0
  0
SCALE
  5
5A
102
{ACAD_REACTORS
330
47
102
}
330
47
100
AcDbScale
 70
     0
300
1/64" = 1'-0"
140
0.015625
141
12.0
290
     0
  0
SCALE
  5
5B
102
{ACAD_REACTORS
330
47
102
}
330
47
100
AcDbScale
 70
     0
300
1/32" = 1'-0"
140
0.03125
141
12.0
290
     0
  0
SCALE
  5
5C
102
{ACAD_REACTORS
330
47
102
}
330
47
100
AcDbScale
 70
     0
300
1/16" = 1'-0"
140
0.0625
141
12.0
290
     0
  0
SCALE
  5
5D
102
{ACAD_REACTORS
330
47
102
}
330
47
100
AcDbScale
 70
     0
300
3/32" = 1'-0"
140
0.09375
141
12.0
290
     0
  0
SCALE
  5
5E
102
{ACAD_REACTORS
330
47
102
}
330
47
100
AcDbScale
 70
     0
300
1/8" = 1'-0"
140
0.125
141
12.0
290
     0
  0
SCALE
  5
5F
102
{ACAD_REACTORS
330
47
102
}
330
47
100
AcDbScale
 70
     0
300
3/16" = 1'-0"
140
0.1875
141
12.0
290
     0
  0
SCALE
  5
60
102
{ACAD_REACTORS
330
47
102
}
330
47
100
AcDbScale
 70
     0
300
1/4" = 1'-0"
140
0.25
141
12.0
290
     0
  0
SCALE
  5
61
102
{ACAD_REACTORS
330
47
102
}
330
47
100
AcDbScale
 70
     0
300
3/8" = 1'-0"
140
0.375
141
12.0
290
     0
  0
SCALE
  5
62
102
{ACAD_REACTORS
330
47
102
}
330
47
100
AcDbScale
 70
     0
300
1/2" = 1'-0"
140
0.5
141
12.0
290
     0
  0
SCALE
  5
63
102
{ACAD_REACTORS
330
47
102
}
330
47
100
AcDbScale
 70
     0
300
3/4" = 1'-0"
140
0.75
141
12.0
290
     0
  0
SCALE
  5
64
102
{ACAD_REACTORS
330
47
102
}
330
47
100
AcDbScale
 70
     0
300
1" = 1'-0"
140
1.0
141
12.0
290
     0
  0
SCALE
  5
65
102
{ACAD_REACTORS
330
47
102
}
330
47
100
AcDbScale
 70
     0
300
1-1/2" = 1'-0"
140
1.5
141
12.0
290
     0
  0
SCALE
  5
66
102
{ACAD_REACTORS
330
47
102
}
330
47
100
AcDbScale
 70
     0
300
3" = 1'-0"
140
3.0
141
12.0
290
     0
  0
SCALE
  5
67
102
{ACAD_REACTORS
330
47
102
}
330
47
100
AcDbScale
 70
     0
300
6" = 1'-0"
140
6.0
141
12.0
290
     0
  0
SCALE
  5
68
102
{ACAD_REACTORS
330
47
102
}
330
47
100
AcDbScale
 70
     0
300
1'-0" = 1'-0"
140
12.0
141
12.0
290
     0
  0
ENDSEC
  0
EOF
