  0
SECTION
  2
HEADER
  9
$ACADVER
  1
AC1015
  9
$ACADMAINTVER
 70
     6
  9
$DWGCODEPAGE
  3
ANSI_949
  9
$INSBASE
 10
0.0
 20
0.0
 30
0.0
  9
$EXTMIN
 10
-67.8125000000001
 20
-50.28867796974447
 30
0.0
  9
$EXTMAX
 10
96.00129082238855
 20
67.08274206766293
 30
0.0
  9
$LIMMIN
 10
0.0
 20
0.0
  9
$LIMMAX
 10
420.0
 20
297.0
  9
$ORTHOMODE
 70
     1
  9
$REGENMODE
 70
     1
  9
$FILLMODE
 70
     1
  9
$QTEXTMODE
 70
     0
  9
$MIRRTEXT
 70
     1
  9
$LTSCALE
 40
1.0
  9
$ATTMODE
 70
     1
  9
$TEXTSIZE
 40
3.5
  9
$TRACEWID
 40
1.0
  9
$TEXTSTYLE
  7
Standard
  9
$CLAYER
  8
0
  9
$CELTYPE
  6
ByLayer
  9
$CECOLOR
 62
   256
  9
$CELTSCALE
 40
1.0
  9
$DISPSILH
 70
     0
  9
$DIMSCALE
 40
1.0
  9
$DIMASZ
 40
3.302
  9
$DIMEXO
 40
1.0
  9
$DIMDLI
 40
3.75
  9
$DIMRND
 40
0.0
  9
$DIMDLE
 40
0.0
  9
$DIMEXE
 40
1.0
  9
$DIMTP
 40
0.0
  9
$DIMTM
 40
0.0
  9
$DIMTXT
 40
3.5
  9
$DIMCEN
 40
2.5
  9
$DIMTSZ
 40
0.0
  9
$DIMTOL
 70
     0
  9
$DIMLIM
 70
     0
  9
$DIMTIH
 70
     1
  9
$DIMTOH
 70
     1
  9
$DIMSE1
 70
     0
  9
$DIMSE2
 70
     0
  9
$DIMTAD
 70
     1
  9
$DIMZIN
 70
     0
  9
$DIMBLK
  1

  9
$DIMASO
 70
     1
  9
$DIMSHO
 70
     1
  9
$DIMPOST
  1

  9
$DIMAPOST
  1

  9
$DIMALT
 70
     0
  9
$DIMALTD
 70
     3
  9
$DIMALTF
 40
0.0393700787401575
  9
$DIMLFAC
 40
1.0
  9
$DIMTOFL
 70
     1
  9
$DIMTVP
 40
0.0
  9
$DIMTIX
 70
     0
  9
$DIMSOXD
 70
     0
  9
$DIMSAH
 70
     0
  9
$DIMBLK1
  1

  9
$DIMBLK2
  1

  9
$DIMSTYLE
  2
ISO-25
  9
$DIMCLRD
 70
     0
  9
$DIMCLRE
 70
     0
  9
$DIMCLRT
 70
     0
  9
$DIMTFAC
 40
1.0
  9
$DIMGAP
 40
1.524
  9
$DIMJUST
 70
     0
  9
$DIMSD1
 70
     0
  9
$DIMSD2
 70
     0
  9
$DIMTOLJ
 70
     0
  9
$DIMTZIN
 70
     0
  9
$DIMALTZ
 70
     0
  9
$DIMALTTZ
 70
     0
  9
$DIMUPT
 70
     0
  9
$DIMDEC
 70
     2
  9
$DIMTDEC
 70
     2
  9
$DIMALTU
 70
     2
  9
$DIMALTTD
 70
     3
  9
$DIMTXSTY
  7
Standard
  9
$DIMAUNIT
 70
     0
  9
$DIMADEC
 70
     2
  9
$DIMALTRND
 40
0.0
  9
$DIMAZIN
 70
     0
  9
$DIMDSEP
 70
    44
  9
$DIMATFIT
 70
     3
  9
$DIMFRAC
 70
     0
  9
$DIMLDRBLK
  1

  9
$DIMLUNIT
 70
     2
  9
$DIMLWD
 70
    -2
  9
$DIMLWE
 70
    -2
  9
$DIMTMOVE
 70
     0
  9
$LUNITS
 70
     2
  9
$LUPREC
 70
     2
  9
$SKETCHINC
 40
1.0
  9
$FILLETRAD
 40
10.0
  9
$AUNITS
 70
     0
  9
$AUPREC
 70
     2
  9
$MENU
  1
.
  9
$ELEVATION
 40
0.0
  9
$PELEVATION
 40
0.0
  9
$THICKNESS
 40
0.0
  9
$LIMCHECK
 70
     0
  9
$CHAMFERA
 40
0.0
  9
$CHAMFERB
 40
0.0
  9
$CHAMFERC
 40
0.0
  9
$CHAMFERD
 40
0.0
  9
$SKPOLY
 70
     0
  9
$TDCREATE
 40
2458299.350895243
  9
$TDUCREATE
 40
2458298.975895243
  9
$TDUPDATE
 40
2458311.694198044
  9
$TDUUPDATE
 40
2458311.319198044
  9
$TDINDWG
 40
0.0175314468
  9
$TDUSRTIMER
 40
2458311.316041817
  9
$USRTIMER
 70
     1
  9
$ANGBASE
 50
0.0
  9
$ANGDIR
 70
     0
  9
$PDMODE
 70
     0
  9
$PDSIZE
 40
-1.0
  9
$PLINEWID
 40
0.0
  9
$SPLFRAME
 70
     0
  9
$SPLINETYPE
 70
     6
  9
$SPLINESEGS
 70
     8
  9
$HANDSEED
  5
2B5
  9
$SURFTAB1
 70
     6
  9
$SURFTAB2
 70
     6
  9
$SURFTYPE
 70
     6
  9
$SURFU
 70
     6
  9
$SURFV
 70
     6
  9
$UCSBASE
  2

  9
$UCSNAME
  2

  9
$UCSORG
 10
0.0
 20
0.0
 30
0.0
  9
$UCSXDIR
 10
1.0
 20
0.0
 30
0.0
  9
$UCSYDIR
 10
0.0
 20
1.0
 30
0.0
  9
$UCSORTHOREF
  2

  9
$UCSORTHOVIEW
 70
     0
  9
$UCSORGTOP
 10
0.0
 20
0.0
 30
0.0
  9
$UCSORGBOTTOM
 10
0.0
 20
0.0
 30
0.0
  9
$UCSORGLEFT
 10
0.0
 20
0.0
 30
0.0
  9
$UCSORGRIGHT
 10
0.0
 20
0.0
 30
0.0
  9
$UCSORGFRONT
 10
0.0
 20
0.0
 30
0.0
  9
$UCSORGBACK
 10
0.0
 20
0.0
 30
0.0
  9
$PUCSBASE
  2

  9
$PUCSNAME
  2

  9
$PUCSORG
 10
0.0
 20
0.0
 30
0.0
  9
$PUCSXDIR
 10
1.0
 20
0.0
 30
0.0
  9
$PUCSYDIR
 10
0.0
 20
1.0
 30
0.0
  9
$PUCSORTHOREF
  2

  9
$PUCSORTHOVIEW
 70
     0
  9
$PUCSORGTOP
 10
0.0
 20
0.0
 30
0.0
  9
$PUCSORGBOTTOM
 10
0.0
 20
0.0
 30
0.0
  9
$PUCSORGLEFT
 10
0.0
 20
0.0
 30
0.0
  9
$PUCSORGRIGHT
 10
0.0
 20
0.0
 30
0.0
  9
$PUCSORGFRONT
 10
0.0
 20
0.0
 30
0.0
  9
$PUCSORGBACK
 10
0.0
 20
0.0
 30
0.0
  9
$USERI1
 70
     0
  9
$USERI2
 70
     0
  9
$USERI3
 70
     0
  9
$USERI4
 70
     0
  9
$USERI5
 70
     0
  9
$USERR1
 40
0.0
  9
$USERR2
 40
0.0
  9
$USERR3
 40
0.0
  9
$USERR4
 40
0.0
  9
$USERR5
 40
0.0
  9
$WORLDVIEW
 70
     1
  9
$SHADEDGE
 70
     3
  9
$SHADEDIF
 70
    70
  9
$TILEMODE
 70
     1
  9
$MAXACTVP
 70
    64
  9
$PINSBASE
 10
0.0
 20
0.0
 30
0.0
  9
$PLIMCHECK
 70
     0
  9
$PEXTMIN
 10
1.000000000000000E+20
 20
1.000000000000000E+20
 30
1.000000000000000E+20
  9
$PEXTMAX
 10
-1.000000000000000E+20
 20
-1.000000000000000E+20
 30
-1.000000000000000E+20
  9
$PLIMMIN
 10
0.0
 20
0.0
  9
$PLIMMAX
 10
0.0
 20
0.0
  9
$UNITMODE
 70
     0
  9
$VISRETAIN
 70
     1
  9
$PLINEGEN
 70
     0
  9
$PSLTSCALE
 70
     1
  9
$TREEDEPTH
 70
  3020
  9
$CMLSTYLE
  2
Standard
  9
$CMLJUST
 70
     0
  9
$CMLSCALE
 40
20.0
  9
$PROXYGRAPHICS
 70
     1
  9
$MEASUREMENT
 70
     1
  9
$CELWEIGHT
370
    -1
  9
$ENDCAPS
280
     0
  9
$JOINSTYLE
280
     0
  9
$LWDISPLAY
290
     1
  9
$INSUNITS
 70
     4
  9
$HYPERLINKBASE
  1

  9
$STYLESHEET
  1

  9
$XEDIT
290
     1
  9
$CEPSNTYPE
380
     0
  9
$PSTYLEMODE
290
     1
  9
$FINGERPRINTGUID
  2
{5EF76DE8-C6DD-4A4F-9B81-46A72B4BA541}
  9
$VERSIONGUID
  2
{FAEB1C32-E019-11D5-929B-00C0DF256EC4}
  9
$EXTNAMES
290
     1
  9
$PSVPSCALE
 40
0.0
  9
$OLESTARTUP
290
     0
  0
ENDSEC
  0
SECTION
  2
CLASSES
  0
CLASS
  1
ACDBDICTIONARYWDFLT
  2
AcDbDictionaryWithDefault
  3
ObjectDBX Classes
 90
        0
280
     0
281
     0
  0
CLASS
  1
VISUALSTYLE
  2
AcDbVisualStyle
  3
ObjectDBX Classes
 90
     4095
280
     0
281
     0
  0
CLASS
  1
MATERIAL
  2
AcDbMaterial
  3
ObjectDBX Classes
 90
     1153
280
     0
281
     0
  0
CLASS
  1
SCALE
  2
AcDbScale
  3
ObjectDBX Classes
 90
     1153
280
     0
281
     0
  0
CLASS
  1
SUN
  2
AcDbSun
  3
SCENEOE
 90
     1153
280
     0
281
     0
  0
CLASS
  1
ACDBPLACEHOLDER
  2
AcDbPlaceHolder
  3
ObjectDBX Classes
 90
        0
280
     0
281
     0
  0
CLASS
  1
LAYOUT
  2
AcDbLayout
  3
ObjectDBX Classes
 90
        0
280
     0
281
     0
  0
CLASS
  1
TABLESTYLE
  2
AcDbTableStyle
  3
ObjectDBX Classes
 90
     4095
280
     0
281
     0
  0
CLASS
  1
MLEADERSTYLE
  2
AcDbMLeaderStyle
  3
ACDB_MLEADERSTYLE_CLASS
 90
     4095
280
     0
281
     0
  0
CLASS
  1
RASTERVARIABLES
  2
AcDbRasterVariables
  3
ISM
 90
        0
280
     0
281
     0
  0
CLASS
  1
DICTIONARYVAR
  2
AcDbDictionaryVar
  3
ObjectDBX Classes
 90
        0
280
     0
281
     0
  0
ENDSEC
  0
SECTION
  2
TABLES
  0
TABLE
  2
VPORT
  5
8
330
0
100
AcDbSymbolTable
 70
     1
  0
VPORT
  5
29
330
8
100
AcDbSymbolTableRecord
100
AcDbViewportTableRecord
  2
*Active
 70
     0
 10
0.0
 20
0.0
 11
1.0
 21
1.0
 12
13.38611083531023
 22
0.5574924348017873
 13
0.0
 23
0.0
 14
10.0
 24
10.0
 15
10.0
 25
10.0
 16
0.0
 26
0.0
 36
1.0
 17
0.0
 27
0.0
 37
0.0
 40
164.9234779850836
 41
1.387755102040817
 42
50.0
 43
0.0
 44
0.0
 50
0.0
 51
0.0
 71
    16
 72
  2000
 73
     1
 74
     3
 75
     0
 76
     0
 77
     0
 78
     0
281
     0
 65
     1
110
0.0
120
0.0
130
0.0
111
1.0
121
0.0
131
0.0
112
0.0
122
1.0
132
0.0
 79
     0
146
0.0
  0
ENDTAB
  0
TABLE
  2
LTYPE
  5
5
330
0
100
AcDbSymbolTable
 70
     6
  0
LTYPE
  5
14
330
5
100
AcDbSymbolTableRecord
100
AcDbLinetypeTableRecord
  2
ByBlock
 70
     0
  3

 72
    65
 73
     0
 40
0.0
  0
LTYPE
  5
15
330
5
100
AcDbSymbolTableRecord
100
AcDbLinetypeTableRecord
  2
ByLayer
 70
     0
  3

 72
    65
 73
     0
 40
0.0
  0
LTYPE
  5
16
330
5
100
AcDbSymbolTableRecord
100
AcDbLinetypeTableRecord
  2
Continuous
 70
     0
  3
Solid line
 72
    65
 73
     0
 40
0.0
  0
LTYPE
  5
6A
330
5
100
AcDbSymbolTableRecord
100
AcDbLinetypeTableRecord
  2
HIDDEN
 70
     0
  3
Hidden __ __ __ __ __ __ __ __ __ __ __ __ __ __
 72
    65
 73
     2
 40
1.905
 49
1.27
 74
     0
 49
-0.635
 74
     0
  0
LTYPE
  5
6B
330
5
100
AcDbSymbolTableRecord
100
AcDbLinetypeTableRecord
  2
PHANTOM
 70
     0
  3
Phantom ______  __  __  ______  __  __  ______
 72
    65
 73
     6
 40
12.7
 49
6.35
 74
     0
 49
-1.27
 74
     0
 49
1.27
 74
     0
 49
-1.27
 74
     0
 49
1.27
 74
     0
 49
-1.27
 74
     0
  0
LTYPE
  5
6C
330
5
100
AcDbSymbolTableRecord
100
AcDbLinetypeTableRecord
  2
CENTER
 70
     0
  3
Center ____ _ ____ _ ____ _ ____ _ ____ _ ____
 72
    65
 73
     4
 40
10.16
 49
6.35
 74
     0
 49
-1.27
 74
     0
 49
1.27
 74
     0
 49
-1.27
 74
     0
  0
LTYPE
  5
6D
330
5
100
AcDbSymbolTableRecord
100
AcDbLinetypeTableRecord
  2
CENTERX2
 70
     0
  3
Center (2x) ________  __  ________  __  _____
 72
    65
 73
     4
 40
20.32
 49
12.7
 74
     0
 49
-2.54
 74
     0
 49
2.54
 74
     0
 49
-2.54
 74
     0
  0
LTYPE
  5
6E
330
5
100
AcDbSymbolTableRecord
100
AcDbLinetypeTableRecord
  2
DOT2
 70
     0
  3
Dot (.5x) ........................................
 72
    65
 73
     2
 40
0.635
 49
0.0
 74
     0
 49
-0.635
 74
     0
  0
ENDTAB
  0
TABLE
  2
LAYER
  5
2
330
0
100
AcDbSymbolTable
 70
    18
  0
LAYER
  5
10
330
2
100
AcDbSymbolTableRecord
100
AcDbLayerTableRecord
  2
0
 70
     0
 62
     7
  6
Continuous
370
    -3
390
F
  0
LAYER
  5
6F
330
2
100
AcDbSymbolTableRecord
100
AcDbLayerTableRecord
  2
FORMAT
 70
     0
 62
     2
  6
Continuous
370
    -3
390
F
  0
LAYER
  5
70
330
2
100
AcDbSymbolTableRecord
100
AcDbLayerTableRecord
  2
외형선
 70
     0
 62
     4
  6
Continuous
370
    30
390
F
  0
LAYER
  5
71
330
2
100
AcDbSymbolTableRecord
100
AcDbLayerTableRecord
  2
숨은선
 70
     0
 62
     2
  6
HIDDEN
370
    15
390
F
  0
LAYER
  5
72
330
2
100
AcDbSymbolTableRecord
100
AcDbLayerTableRecord
  2
중심선
 70
     0
 62
     1
  6
CENTERX2
370
    -3
390
F
  0
LAYER
  5
73
330
2
100
AcDbSymbolTableRecord
100
AcDbLayerTableRecord
  2
파단선
 70
     0
 62
     4
  6
Continuous
370
    -3
390
F
  0
LAYER
  5
74
330
2
100
AcDbSymbolTableRecord
100
AcDbLayerTableRecord
  2
해칭선
 70
     0
 62
   100
  6
Continuous
370
    -3
390
F
  0
LAYER
  5
75
330
2
100
AcDbSymbolTableRecord
100
AcDbLayerTableRecord
  2
가는실선
 70
     0
 62
     4
  6
Continuous
370
    -3
390
F
  0
LAYER
  5
76
330
2
100
AcDbSymbolTableRecord
100
AcDbLayerTableRecord
  2
치수_보조선
 70
     0
 62
     4
  6
Continuous
370
    -3
390
F
  0
LAYER
  5
77
330
2
100
AcDbSymbolTableRecord
100
AcDbLayerTableRecord
  2
치수문자_일반주서
 70
     0
 62
     7
  6
Continuous
370
    15
390
F
  0
LAYER
  5
78
330
2
100
AcDbSymbolTableRecord
100
AcDbLayerTableRecord
  2
개별주서
 70
     0
 62
   100
  6
Continuous
370
    30
390
F
  0
LAYER
  5
79
330
2
100
AcDbSymbolTableRecord
100
AcDbLayerTableRecord
  2
중간선
 70
     0
 62
     2
  6
Continuous
370
    15
390
F
  0
LAYER
  5
7A
330
2
100
AcDbSymbolTableRecord
100
AcDbLayerTableRecord
  2
윤곽선
 70
     0
 62
     3
  6
Continuous
370
    40
390
F
  0
LAYER
  5
7B
330
2
100
AcDbSymbolTableRecord
100
AcDbLayerTableRecord
  2
중심마크
 70
     0
 62
   100
  6
Continuous
370
    30
390
F
  0
LAYER
  5
7C
330
2
100
AcDbSymbolTableRecord
100
AcDbLayerTableRecord
  2
가상선
 70
     0
 62
     4
  6
PHANTOM
370
    -3
390
F
  0
LAYER
  5
7D
330
2
100
AcDbSymbolTableRecord
100
AcDbLayerTableRecord
  2
특수지정선
 70
     0
 62
     5
  6
CENTERX2
370
    60
390
F
  0
LAYER
  5
7E
330
2
100
AcDbSymbolTableRecord
100
AcDbLayerTableRecord
  2
참조1
 70
     0
 62
    -4
  6
Continuous
370
    -3
390
F
  0
LAYER
  5
24B
330
2
100
AcDbSymbolTableRecord
100
AcDbLayerTableRecord
  2
Defpoints
 70
     0
 62
     7
  6
Continuous
290
     0
370
    -3
390
F
  0
ENDTAB
  0
TABLE
  2
STYLE
  5
3
330
0
100
AcDbSymbolTable
 70
     2
  0
STYLE
  5
11
330
3
100
AcDbSymbolTableRecord
100
AcDbTextStyleTableRecord
  2
Standard
 70
     0
 40
0.0
 41
1.0
 50
0.0
 71
     0
 42
3.5
  3
txt
  4

  0
STYLE
  5
94
330
3
100
AcDbSymbolTableRecord
100
AcDbTextStyleTableRecord
  2
SLDTEXTSTYLE0
 70
     0
 40
0.0
 41
0.75
 50
0.0
 71
     0
 42
3.5
  3
TXT
  4

  0
ENDTAB
  0
TABLE
  2
VIEW
  5
6
330
0
100
AcDbSymbolTable
 70
     0
  0
ENDTAB
  0
TABLE
  2
UCS
  5
7
330
0
100
AcDbSymbolTable
 70
     0
  0
ENDTAB
  0
TABLE
  2
APPID
  5
9
330
0
100
AcDbSymbolTable
 70
     1
  0
APPID
  5
12
330
9
100
AcDbSymbolTableRecord
100
AcDbRegAppTableRecord
  2
ACAD
 70
     0
  0
ENDTAB
  0
TABLE
  2
DIMSTYLE
  5
A
330
0
100
AcDbSymbolTable
 70
     4
100
AcDbDimStyleTable
  0
DIMSTYLE
105
27
330
A
100
AcDbSymbolTableRecord
100
AcDbDimStyleTableRecord
  2
ISO-25
 70
     0
 41
2.5
 42
0.625
 43
3.75
 44
1.25
 73
     0
 74
     0
 77
     1
 78
     8
140
2.5
141
2.5
143
0.03937007874016
147
0.625
171
     3
172
     1
178
     0
271
     2
272
     2
274
     3
278
    44
283
     0
284
     8
340
11
  0
DIMSTYLE
105
1CA
102
{ACAD_REACTORS
330
1C9
330
1F1
102
}
330
A
100
AcDbSymbolTableRecord
100
AcDbDimStyleTableRecord
  2
SLDDIMSTYLE0
 70
     0
 41
3.302
 44
0.0
 45
0.000000001
 73
     0
 74
     0
 77
     1
 78
    12
 79
     3
140
3.5
143
0.0393700787401575
147
0.875
148
0.000000001
170
     1
173
     1
178
     0
271
     2
272
     2
276
     2
284
    12
340
94
  0
DIMSTYLE
105
1DD
102
{ACAD_REACTORS
330
1DC
102
}
330
A
100
AcDbSymbolTableRecord
100
AcDbDimStyleTableRecord
  2
SLDDIMSTYLE1
 70
     0
 41
3.302
 44
0.0
 45
0.000000001
 73
     0
 74
     0
 77
     1
 78
    12
 79
     3
140
3.5
143
0.0393700787401575
147
0.875
148
0.000000001
170
     1
172
     1
173
     1
178
     0
271
     2
272
     2
276
     2
284
    12
289
     0
340
94
  0
DIMSTYLE
105
206
102
{ACAD_REACTORS
330
205
102
}
330
A
100
AcDbSymbolTableRecord
100
AcDbDimStyleTableRecord
  2
SLDDIMSTYLE2
 70
     0
 41
3.302
 44
0.0
 45
0.000000001
 73
     0
 74
     0
 77
     1
 78
     4
 79
     1
140
3.5
143
0.0393700787401575
147
0.875
148
0.000000001
170
     1
173
     1
178
     0
271
     2
272
     2
276
     2
284
    12
340
94
  0
ENDTAB
  0
TABLE
  2
BLOCK_RECORD
  5
1
330
0
100
AcDbSymbolTable
 70
     7
  0
BLOCK_RECORD
  5
1F
330
1
100
AcDbSymbolTableRecord
100
AcDbBlockTableRecord
  2
*Model_Space
340
22
  0
BLOCK_RECORD
  5
1B
330
1
100
AcDbSymbolTableRecord
100
AcDbBlockTableRecord
  2
*Paper_Space
340
1E
  0
BLOCK_RECORD
  5
23
330
1
100
AcDbSymbolTableRecord
100
AcDbBlockTableRecord
  2
*Paper_Space0
340
26
  0
BLOCK_RECORD
  5
7F
330
1
100
AcDbSymbolTableRecord
100
AcDbBlockTableRecord
  2
블럭10
340
0
102
{BLKREFS
331
1C1
102
}
  0
BLOCK_RECORD
  5
1CB
330
1
100
AcDbSymbolTableRecord
100
AcDbBlockTableRecord
  2
_D
340
0
  0
BLOCK_RECORD
  5
1DE
330
1
100
AcDbSymbolTableRecord
100
AcDbBlockTableRecord
  2
_D_1
340
0
  0
BLOCK_RECORD
  5
1F2
330
1
100
AcDbSymbolTableRecord
100
AcDbBlockTableRecord
  2
_D_2
340
0
  0
BLOCK_RECORD
  5
207
330
1
100
AcDbSymbolTableRecord
100
AcDbBlockTableRecord
  2
_D_3
340
0
  0
BLOCK_RECORD
  5
220
330
1
100
AcDbSymbolTableRecord
100
AcDbBlockTableRecord
  2
SW_DOWELSYMBOL_0
340
0
102
{BLKREFS
331
226
102
}
  0
ENDTAB
  0
ENDSEC
  0
SECTION
  2
BLOCKS
  0
BLOCK
  5
20
330
1F
100
AcDbEntity
  8
0
100
AcDbBlockBegin
  2
*Model_Space
 70
     0
 10
0.0
 20
0.0
 30
0.0
  3
*Model_Space
  1
*Model_Space
  0
ENDBLK
  5
21
330
1F
100
AcDbEntity
  8
0
100
AcDbBlockEnd
  0
BLOCK
  5
1C
330
1B
100
AcDbEntity
 67
     1
  8
0
100
AcDbBlockBegin
  2
*Paper_Space
 70
     0
 10
0.0
 20
0.0
 30
0.0
  3
*Paper_Space
  1
*Paper_Space
  0
ENDBLK
  5
1D
330
1B
100
AcDbEntity
 67
     1
  8
0
100
AcDbBlockEnd
  0
BLOCK
  5
24
330
23
100
AcDbEntity
  8
0
100
AcDbBlockBegin
  2
*Paper_Space0
 70
     0
 10
0.0
 20
0.0
 30
0.0
  3
*Paper_Space0
  1
*Paper_Space0
  0
ENDBLK
  5
25
330
23
100
AcDbEntity
  8
0
100
AcDbBlockEnd
  0
BLOCK
  5
80
330
7F
100
AcDbEntity
  8
0
100
AcDbBlockBegin
  2
블럭10
 70
     2
 10
0.0
 20
0.0
 30
0.0
  3
블럭10
  1
블럭10
  0
ELLIPSE
  5
82
330
7F
100
AcDbEntity
  8
중심선
100
AcDbEllipse
 10
20.54032771741204
 20
12.0471743016438
 30
0.0
 11
6.600054785286829
 21
-1.261213355974178E-13
 31
0.0
210
0.0
220
0.0
230
1.0
 40
0.636358354079598
 41
0.9219305317359503
 42
6.513795318482858
  0
ELLIPSE
  5
83
330
7F
100
AcDbEntity
  8
중심선
100
AcDbEllipse
 10
20.54032771746488
 20
12.04717430159265
 30
0.0
 11
3.960054785062283
 21
1.540847449632565E-10
 31
0.0
210
0.0
220
0.0
230
1.0
 40
0.3939339440162632
 41
1.131841032648279
 42
5.62031148352944
  0
LINE
  5
84
330
7F
100
AcDbEntity
  8
중심선
100
AcDbLine
 10
2.268634060543552
 20
16.24717430164393
 30
0.0
 11
5.714909304380834
 21
16.24717430164393
 31
0.0
  0
LINE
  5
85
330
7F
100
AcDbEntity
  8
중심선
100
AcDbLine
 10
5.245725140726316
 20
7.84717430164391
 30
0.0
 11
8.692000384563599
 21
7.84717430164391
 31
0.0
  0
LINE
  5
86
330
7F
100
AcDbEntity
  8
중심선
100
AcDbLine
 10
15.74043728645272
 20
16.24717430164393
 30
0.0
 11
8.692000384563599
 21
7.84717430164391
 31
0.0
  0
LINE
  5
87
330
7F
100
AcDbEntity
  8
중심선
100
AcDbLine
 10
0.1404042013395286
 20
13.71084872107135
 30
0.0
 11
3.58671253028996
 21
13.71088815037384
 31
0.0
  0
LINE
  5
88
330
7F
100
AcDbEntity
  8
중심선
100
AcDbLine
 10
2.750260043222114
 20
10.84717430164391
 30
0.0
 11
6.196535287059397
 21
10.84717430164391
 31
0.0
  0
LINE
  5
89
330
7F
100
AcDbEntity
  8
중심선
100
AcDbLine
 10
12.29416204261559
 20
16.24717430164393
 30
0.0
 11
5.245725140726316
 21
7.84717430164391
 31
0.0
  0
LINE
  5
8A
330
7F
100
AcDbEntity
  8
중심선
100
AcDbLine
 10
10.72767329541681
 20
16.24717430164393
 30
0.0
 11
6.196535287059397
 21
10.84717430164391
 31
0.0
  0
LINE
  5
8B
330
7F
100
AcDbEntity
  8
중심선
100
AcDbLine
 10
7.28139805157953
 20
16.24717430164393
 30
0.0
 11
2.750260043222114
 21
10.84717430164391
 31
0.0
  0
LINE
  5
8C
330
7F
100
AcDbEntity
  8
중심선
100
AcDbLine
 10
5.714909304380834
 20
16.24717430164393
 30
0.0
 11
3.58671253028996
 21
13.71088815037384
 31
0.0
  0
LINE
  5
8D
330
7F
100
AcDbEntity
  8
중심선
100
AcDbLine
 10
2.268634060543552
 20
16.24717430164393
 30
0.0
 11
0.1404042013395286
 21
13.71084872107135
 31
0.0
  0
LINE
  5
8E
330
7F
100
AcDbEntity
  8
중심선
100
AcDbLine
 10
7.28139805157953
 20
16.24717430164393
 30
0.0
 11
10.72767329541681
 21
16.24717430164393
 31
0.0
  0
LINE
  5
8F
330
7F
100
AcDbEntity
  8
중심선
100
AcDbLine
 10
12.29416204261559
 20
16.24717430164393
 30
0.0
 11
15.74043728645272
 21
16.24717430164393
 31
0.0
  0
LINE
  5
90
330
7F
100
AcDbEntity
  8
중심선
100
AcDbLine
 10
19.22036997980202
 20
11.08717430171403
 30
0.0
 11
23.66174974927406
 21
11.08717430171406
 31
0.0
  0
LINE
  5
91
330
7F
100
AcDbEntity
  8
중심선
100
AcDbLine
 10
19.22039502424796
 20
13.00717430171391
 30
0.0
 11
19.22036997980202
 21
11.08717430171403
 31
0.0
  0
LINE
  5
92
330
7F
100
AcDbEntity
  8
중심선
100
AcDbLine
 10
19.22039502424796
 20
13.00717430171391
 30
0.0
 11
26.96566020931264
 21
13.00717430171391
 31
0.0
  0
LINE
  5
93
330
7F
100
AcDbEntity
  8
중심선
100
AcDbLine
 10
22.22332737316547
 20
13.45928029700563
 30
0.0
 11
24.52862924686651
 21
15.39360700705356
 31
0.0
  0
ATTDEF
  5
95
330
7F
100
AcDbEntity
  8
FORMAT
 62
     2
100
AcDbText
 10
-10.14163601213663
 20
2.075366912832191
 30
0.0
 40
4.233333333333333
  1
EM156024 [ 3 FLUTE ]
 41
0.75
  7
SLDTEXTSTYLE0
 11
-10.14163601213663
 21
-0.0412997538344756
 31
0.0
100
AcDbAttributeDefinition
  3

  2
AUTOATTR0
 70
     0
 74
     1
  0
ENDBLK
  5
81
330
7F
100
AcDbEntity
  8
0
100
AcDbBlockEnd
  0
BLOCK
  5
1CC
330
1CB
100
AcDbEntity
  8
0
100
AcDbBlockBegin
  2
_D
 70
     0
 10
0.0
 20
0.0
 30
0.0
  3
_D
  1
_D
  0
LINE
  5
1CE
330
1CB
100
AcDbEntity
  8
치수문자_일반주서
 62
     0
370
    -2
100
AcDbLine
 10
41.81249999999997
 20
7.937500000000004
 30
0.0
 11
57.48059365071454
 21
7.93750000000006
 31
0.0
  0
LINE
  5
1CF
330
1CB
100
AcDbEntity
  8
치수문자_일반주서
 62
     0
370
    -2
100
AcDbLine
 10
41.81249999999998
 20
-7.937499999999985
 30
0.0
 11
57.4805936507146
 21
-7.937499999999929
 31
0.0
  0
LINE
  5
1D0
330
1CB
100
AcDbEntity
  8
치수문자_일반주서
 62
     0
370
    -2
100
AcDbLine
 10
57.48059365071454
 20
7.93750000000006
 30
0.0
 11
57.48059365071443
 21
39.23950000000006
 31
0.0
  0
LINE
  5
1D1
330
1CB
100
AcDbEntity
  8
치수문자_일반주서
 62
     0
370
    -2
100
AcDbLine
 10
57.48059365071455
 20
4.635500000000061
 30
0.0
 11
57.48059365071458
 21
-4.635499999999929
 31
0.0
  0
SOLID
  5
1D2
330
1CB
100
AcDbEntity
  8
치수문자_일반주서
 62
     0
100
AcDbTrace
 10
58.03092698404789
 20
4.635500000000063
 30
0.0
 11
56.93026031738122
 21
4.635500000000059
 31
0.0
 12
57.48059365071454
 22
7.93750000000006
 32
0.0
 13
57.48059365071454
 23
7.93750000000006
 33
0.0
  0
SOLID
  5
1D3
330
1CB
100
AcDbEntity
  8
치수문자_일반주서
 62
     0
100
AcDbTrace
 10
56.93026031738125
 20
-4.635499999999931
 30
0.0
 11
58.03092698404792
 21
-4.635499999999928
 31
0.0
 12
57.4805936507146
 22
-7.937499999999929
 32
0.0
 13
57.4805936507146
 23
-7.937499999999929
 33
0.0
  0
MTEXT
  5
1D4
330
1CB
100
AcDbEntity
  8
치수문자_일반주서
 62
     0
100
AcDbMText
 10
53.10559365071448
 20
25.23950000000005
 30
0.0
 40
3.5
 41
0.0
 71
     2
 72
     1
  1
\A1;%%c15.88 [5/8]
  7
SLDTEXTSTYLE0
 11
-3.580687802255625E-15
 21
1.0
 31
0.0
 73
     1
 44
1.0
  0
POINT
  5
1D5
330
1CB
100
AcDbEntity
  8
Defpoints
 62
     0
100
AcDbPoint
 10
41.74999999999997
 20
7.937500000000004
 30
0.0
  0
POINT
  5
1D6
330
1CB
100
AcDbEntity
  8
Defpoints
 62
     0
100
AcDbPoint
 10
41.74999999999998
 20
-7.937499999999985
 30
0.0
  0
POINT
  5
2AF
330
1CB
100
AcDbEntity
  8
Defpoints
 62
     0
100
AcDbPoint
 10
57.4805936507146
 20
-7.937499999999926
 30
0.0
  0
ENDBLK
  5
1CD
330
1CB
100
AcDbEntity
  8
0
100
AcDbBlockEnd
  0
BLOCK
  5
1DF
330
1DE
100
AcDbEntity
  8
0
100
AcDbBlockBegin
  2
_D_1
 70
     0
 10
0.0
 20
0.0
 30
0.0
  3
_D_1
  1
_D_1
  0
LINE
  5
1E1
330
1DE
100
AcDbEntity
  8
치수문자_일반주서
 62
     0
370
    -2
100
AcDbLine
 10
-45.48333333333336
 20
7.937500000000007
 30
0.0
 11
-63.43750000000008
 21
7.93749999999994
 31
0.0
  0
LINE
  5
1E2
330
1DE
100
AcDbEntity
  8
치수문자_일반주서
 62
     0
370
    -2
100
AcDbLine
 10
-45.48333333333336
 20
-7.937499999999972
 30
0.0
 11
-63.43750000000002
 21
-7.937500000000039
 31
0.0
  0
LINE
  5
1E3
330
1DE
100
AcDbEntity
  8
치수문자_일반주서
 62
     0
370
    -2
100
AcDbLine
 10
-63.43750000000006
 20
4.63549999999994
 30
0.0
 11
-63.43750000000004
 21
-4.635500000000039
 31
0.0
  0
SOLID
  5
1E4
330
1DE
100
AcDbEntity
  8
치수문자_일반주서
 62
     0
100
AcDbTrace
 10
-62.88716666666673
 20
4.635499999999942
 30
0.0
 11
-63.9878333333334
 21
4.635499999999938
 31
0.0
 12
-63.43750000000008
 22
7.93749999999994
 32
0.0
 13
-63.43750000000008
 23
7.93749999999994
 33
0.0
  0
SOLID
  5
1E5
330
1DE
100
AcDbEntity
  8
치수문자_일반주서
 62
     0
100
AcDbTrace
 10
-63.98783333333337
 20
-4.635500000000041
 30
0.0
 11
-62.8871666666667
 21
-4.635500000000038
 31
0.0
 12
-63.43750000000002
 22
-7.937500000000039
 32
0.0
 13
-63.43750000000002
 23
-7.937500000000039
 33
0.0
  0
MTEXT
  5
1E6
330
1DE
100
AcDbEntity
  8
치수문자_일반주서
 62
     0
100
AcDbMText
 10
-67.81250000000004
 20
-1.271680434525762
 30
0.0
 40
3.5
 41
0.0
 71
     2
 72
     1
  1
\A1;%%c15.88 [5/8]
  7
SLDTEXTSTYLE0
 11
-3.580687802255628E-15
 21
1.0
 31
0.0
 73
     1
 44
1.0
  0
POINT
  5
1E7
330
1DE
100
AcDbEntity
  8
Defpoints
 62
     0
100
AcDbPoint
 10
-45.42083333333336
 20
7.937500000000007
 30
0.0
  0
POINT
  5
1E8
330
1DE
100
AcDbEntity
  8
Defpoints
 62
     0
100
AcDbPoint
 10
-45.42083333333336
 20
-7.937499999999972
 30
0.0
  0
POINT
  5
1E9
330
1DE
100
AcDbEntity
  8
Defpoints
 62
     0
100
AcDbPoint
 10
-63.43750000000001
 20
-7.937500000000039
 30
0.0
  0
ENDBLK
  5
1E0
330
1DE
100
AcDbEntity
  8
0
100
AcDbBlockEnd
  0
BLOCK
  5
1F3
330
1F2
100
AcDbEntity
  8
0
100
AcDbBlockBegin
  2
_D_2
 70
     0
 10
0.0
 20
0.0
 30
0.0
  3
_D_2
  1
_D_2
  0
LINE
  5
1F5
330
1F2
100
AcDbEntity
  8
치수문자_일반주서
 62
     0
370
    -2
100
AcDbLine
 10
41.74999999999997
 20
5.202062718986231
 30
0.0
 11
41.74999999999997
 21
34.0190879900331
 31
0.0
  0
LINE
  5
1F6
330
1F2
100
AcDbEntity
  8
치수문자_일반주서
 62
     0
370
    -2
100
AcDbLine
 10
10.0
 20
7.999999999999986
 30
0.0
 11
10.0
 21
34.0190879900331
 31
0.0
  0
LINE
  5
1F7
330
1F2
100
AcDbEntity
  8
치수문자_일반주서
 62
     0
370
    -2
100
AcDbLine
 10
38.44799999999997
 20
34.0190879900331
 30
0.0
 11
13.302
 21
34.0190879900331
 31
0.0
  0
SOLID
  5
1F8
330
1F2
100
AcDbEntity
  8
치수문자_일반주서
 62
     0
100
AcDbTrace
 10
38.44799999999997
 20
33.46875465669977
 30
0.0
 11
38.44799999999997
 21
34.56942132336643
 31
0.0
 12
41.74999999999997
 22
34.0190879900331
 32
0.0
 13
41.74999999999997
 23
34.0190879900331
 33
0.0
  0
SOLID
  5
1F9
330
1F2
100
AcDbEntity
  8
치수문자_일반주서
 62
     0
100
AcDbTrace
 10
13.302
 20
34.56942132336643
 30
0.0
 11
13.302
 21
33.46875465669977
 31
0.0
 12
10.0
 22
34.0190879900331
 32
0.0
 13
10.0
 23
34.0190879900331
 33
0.0
  0
MTEXT
  5
1FA
330
1F2
100
AcDbEntity
  8
치수문자_일반주서
 62
     0
100
AcDbMText
 10
25.87499999999999
 20
38.3940879900331
 30
0.0
 40
3.5
 41
0.0
 71
     2
 72
     1
  1
\A1;31.75 [1 1/4]
  7
SLDTEXTSTYLE0
 73
     1
 44
1.0
  0
POINT
  5
1FB
330
1F2
100
AcDbEntity
  8
Defpoints
 62
     0
100
AcDbPoint
 10
41.74999999999997
 20
5.139562718986231
 30
0.0
  0
POINT
  5
1FC
330
1F2
100
AcDbEntity
  8
Defpoints
 62
     0
100
AcDbPoint
 10
10.0
 20
7.937499999999986
 30
0.0
  0
POINT
  5
1FD
330
1F2
100
AcDbEntity
  8
Defpoints
 62
     0
100
AcDbPoint
 10
10.0
 20
34.0190879900331
 30
0.0
  0
ENDBLK
  5
1F4
330
1F2
100
AcDbEntity
  8
0
100
AcDbBlockEnd
  0
BLOCK
  5
208
330
207
100
AcDbEntity
  8
0
100
AcDbBlockBegin
  2
_D_3
 70
     0
 10
0.0
 20
0.0
 30
0.0
  3
_D_3
  1
_D_3
  0
LINE
  5
20A
330
207
100
AcDbEntity
  8
치수문자_일반주서
 62
     0
370
    -2
100
AcDbLine
 10
41.74999999999997
 20
6.107941794956405
 30
0.0
 11
41.74999999999998
 21
62.70774206766294
 31
0.0
  0
LINE
  5
20B
330
207
100
AcDbEntity
  8
치수문자_일반주서
 62
     0
370
    -2
100
AcDbLine
 10
-47.15000000000003
 20
6.333333333333321
 30
0.0
 11
-47.15000000000002
 21
62.70774206766294
 31
0.0
  0
LINE
  5
20C
330
207
100
AcDbEntity
  8
치수문자_일반주서
 62
     0
370
    -2
100
AcDbLine
 10
38.44799999999998
 20
62.70774206766294
 30
0.0
 11
-43.84800000000002
 21
62.70774206766294
 31
0.0
  0
SOLID
  5
20D
330
207
100
AcDbEntity
  8
치수문자_일반주서
 62
     0
100
AcDbTrace
 10
38.44799999999998
 20
62.15740873432961
 30
0.0
 11
38.44799999999998
 21
63.25807540099628
 31
0.0
 12
41.74999999999998
 22
62.70774206766294
 32
0.0
 13
41.74999999999998
 23
62.70774206766294
 33
0.0
  0
SOLID
  5
20E
330
207
100
AcDbEntity
  8
치수문자_일반주서
 62
     0
100
AcDbTrace
 10
-43.84800000000002
 20
63.25807540099628
 30
0.0
 11
-43.84800000000002
 21
62.15740873432961
 31
0.0
 12
-47.15000000000002
 22
62.70774206766294
 32
0.0
 13
-47.15000000000002
 23
62.70774206766294
 33
0.0
  0
MTEXT
  5
20F
330
207
100
AcDbEntity
  8
치수문자_일반주서
 62
     0
100
AcDbMText
 10
-2.700000000000017
 20
67.08274206766293
 30
0.0
 40
3.5
 41
0.0
 71
     2
 72
     1
  1
\A1;88.90 [3 1/2]
  7
SLDTEXTSTYLE0
 73
     1
 44
1.0
  0
POINT
  5
210
330
207
100
AcDbEntity
  8
Defpoints
 62
     0
100
AcDbPoint
 10
41.74999999999997
 20
6.045441794956405
 30
0.0
  0
POINT
  5
211
330
207
100
AcDbEntity
  8
Defpoints
 62
     0
100
AcDbPoint
 10
-47.15000000000003
 20
6.270833333333321
 30
0.0
  0
POINT
  5
212
330
207
100
AcDbEntity
  8
Defpoints
 62
     0
100
AcDbPoint
 10
-47.15000000000003
 20
62.70774206766294
 30
0.0
  0
ENDBLK
  5
209
330
207
100
AcDbEntity
  8
0
100
AcDbBlockEnd
  0
BLOCK
  5
221
330
220
100
AcDbEntity
  8
0
100
AcDbBlockBegin
  2
SW_DOWELSYMBOL_0
 70
     0
 10
0.0
 20
0.0
 30
0.0
  3
SW_DOWELSYMBOL_0
  1
SW_DOWELSYMBOL_0
  0
CIRCLE
  5
223
330
220
100
AcDbEntity
  8
해칭선
 62
     0
100
AcDbCircle
 10
0.0
 20
0.0
 30
0.0
 40
3.000000000000004
  0
HATCH
  5
224
330
220
100
AcDbEntity
  8
0
  6
Continuous
 62
     0
370
     0
100
AcDbHatch
 10
0.0
 20
0.0
 30
0.0
210
0.0
220
0.0
230
1.0
  2
SOLID
 70
     1
 71
     0
 91
        1
 92
        0
 93
        3
 72
     2
 10
0.0000000000000104
 20
-0.0000000000000035
 40
3.000000000000004
 50
0.0
 51
90.0
 73
     1
 72
     1
 10
0.0000000000000104
 20
3.000000000000001
 11
0.0000000000000104
 21
-0.0000000000000036
 72
     1
 10
0.0000000000000104
 20
-0.0000000000000035
 11
3.000000000000015
 21
-0.0000000000000035
 97
        0
 75
     0
 76
     1
 98
        1
 10
0.0
 20
0.0
  0
HATCH
  5
225
330
220
100
AcDbEntity
  8
0
  6
Continuous
 62
     0
370
     0
100
AcDbHatch
 10
0.0
 20
0.0
 30
0.0
210
0.0
220
0.0
230
1.0
  2
SOLID
 70
     1
 71
     0
 91
        1
 92
        0
 93
        3
 72
     2
 10
0.0000000000000104
 20
-0.0000000000000035
 40
3.000000000000004
 50
180.0
 51
270.0000000000007
 73
     1
 72
     1
 10
0.0000000000000104
 20
-3.000000000000008
 11
0.0000000000000104
 21
-0.0000000000000036
 72
     1
 10
0.0000000000000104
 20
-0.0000000000000035
 11
-2.999999999999994
 21
-0.0000000000000035
 97
        0
 75
     0
 76
     1
 98
        1
 10
0.0
 20
0.0
  0
ENDBLK
  5
222
330
220
100
AcDbEntity
  8
0
100
AcDbBlockEnd
  0
ENDSEC
  0
SECTION
  2
ENTITIES
  0
LINE
  5
96
330
1F
100
AcDbEntity
  8
외형선
  6
Continuous
370
    15
100
AcDbLine
 10
10.0
 20
7.93749999999998
 30
0.0
 11
-45.48333333333338
 21
7.937499999999972
 31
0.0
  0
LINE
  5
97
330
1F
100
AcDbEntity
  8
외형선
  6
Continuous
370
    15
100
AcDbLine
 10
-45.48333333333334
 20
-7.937499999999998
 30
0.0
 11
10.0
 21
-7.93749999999999
 31
0.0
  0
LINE
  5
98
330
1F
100
AcDbEntity
  8
외형선
  6
Continuous
370
    15
100
AcDbLine
 10
-45.48333333333336
 20
7.937499999999982
 30
0.0
 11
-47.15000000000003
 21
6.270833333333321
 31
0.0
  0
LINE
  5
99
330
1F
100
AcDbEntity
  8
외형선
  6
Continuous
370
    15
100
AcDbLine
 10
-47.15000000000003
 20
-6.27083333333332
 30
0.0
 11
-45.48333333333336
 21
-7.937499999999984
 31
0.0
  0
SPLINE
  5
9A
330
1F
100
AcDbEntity
  8
외형선
  6
Continuous
 62
     1
370
    15
100
AcDbSpline
210
0.0
220
0.0
230
1.0
 70
     8
 71
     3
 72
     9
 73
     5
 74
     0
 42
0.000000001
 43
0.00000001
 40
0.0
 40
0.0
 40
0.0
 40
0.0
 40
0.2525306192613339
 40
0.9999999999999999
 40
0.9999999999999999
 40
0.9999999999999999
 40
0.9999999999999999
 10
16.97859962800232
 20
-7.711806836630566
 30
0.0
 10
17.00438677658777
 20
-7.717478640636345
 30
0.0
 10
17.10650171481147
 20
-7.739938507175972
 30
0.0
 10
17.18101136126762
 20
-7.795657400356776
 30
0.0
 10
17.23670504056326
 20
-7.837305566938082
 30
0.0
  0
LINE
  5
9B
330
1F
100
AcDbEntity
  8
외형선
  6
Continuous
 62
     1
370
    15
100
AcDbLine
 10
17.54507952887516
 20
-7.937499999999991
 30
0.0
 11
19.3122524591285
 21
-7.937499999999991
 31
0.0
  0
SPLINE
  5
9C
330
1F
100
AcDbEntity
  8
외형선
  6
Continuous
 62
     1
370
    15
100
AcDbSpline
210
0.0
220
0.0
230
1.0
 70
     8
 71
     3
 72
     9
 73
     5
 74
     0
 42
0.000000001
 43
0.00000001
 40
0.0
 40
0.0
 40
0.0
 40
0.0
 40
0.4985632956629031
 40
1.0
 40
1.0
 40
1.0
 40
1.0
 10
17.23670545606318
 20
-7.837305892556214
 30
0.0
 10
17.28073338986898
 20
-7.866206496585596
 30
0.0
 10
17.36904300710071
 20
-7.92417426974658
 30
0.0
 10
17.47139010721434
 20
-7.933049589108975
 30
0.0
 10
17.52271069979378
 20
-7.937499999999994
 30
0.0
  0
SPLINE
  5
A0
330
1F
100
AcDbEntity
  8
외형선
  6
Continuous
 62
     1
370
    15
100
AcDbSpline
210
0.0
220
0.0
230
1.0
 70
     8
 71
     3
 72
     9
 73
     5
 74
     0
 42
0.000000001
 43
0.00000001
 40
0.0
 40
0.0
 40
0.0
 40
0.0
 40
0.5016424317447656
 40
1.0
 40
1.0
 40
1.0
 40
1.0
 10
19.3147490862282
 20
-7.93743565266093
 30
0.0
 10
19.36418651892063
 20
-7.933116824598635
 30
0.0
 10
19.46273765726927
 20
-7.924507449097293
 30
0.0
 10
19.54723179641652
 20
-7.870343916397747
 30
0.0
 10
19.58934009013375
 20
-7.843351109953486
 30
0.0
  0
SPLINE
  5
A1
330
1F
100
AcDbEntity
  8
외형선
  6
Continuous
 62
     1
370
    15
100
AcDbSpline
210
0.0
220
0.0
230
1.0
 70
     8
 71
     3
 72
    11
 73
     7
 74
     0
 42
0.000000001
 43
0.00000001
 40
0.0
 40
0.0
 40
0.0
 40
0.0
 40
0.2445955317804439
 40
0.4999465975032778
 40
0.7553203505911168
 40
1.0
 40
1.0
 40
1.0
 40
1.0
 10
19.57861903382999
 20
-7.847548288810442
 30
0.0
 10
19.65135943554402
 20
-7.799270807988933
 30
0.0
 10
19.80003883321428
 20
-7.70059295358558
 30
0.0
 10
20.07607529810545
 20
-7.655186773482039
 30
0.0
 10
20.35210479833267
 20
-7.696928317241356
 30
0.0
 10
20.50069428097627
 20
-7.792851503977458
 30
0.0
 10
20.57340016066344
 20
-7.839787394391538
 30
0.0
  0
SPLINE
  5
A3
330
1F
100
AcDbEntity
  8
외형선
  6
Continuous
 62
     1
370
    15
100
AcDbSpline
210
0.0
220
0.0
230
1.0
 70
     8
 71
     3
 72
     9
 73
     5
 74
     0
 42
0.000000001
 43
0.00000001
 40
0.0
 40
0.0
 40
0.0
 40
0.0
 40
0.4985632191734577
 40
1.0
 40
1.0
 40
1.0
 40
1.0
 10
20.57008333668625
 20
-7.837340776228809
 30
0.0
 10
20.61410510945628
 20
-7.866232010110759
 30
0.0
 10
20.70240238265468
 20
-7.924180997863704
 30
0.0
 10
20.80473733902902
 20
-7.933051835088619
 30
0.0
 10
20.85605185011939
 20
-7.937499999149916
 30
0.0
  0
LINE
  5
A4
330
1F
100
AcDbEntity
  8
외형선
  6
Continuous
 62
     1
370
    15
100
AcDbLine
 10
20.85595400531626
 20
-7.937499999999991
 30
0.0
 11
22.64568694429789
 21
-7.937499999999991
 31
0.0
  0
SPLINE
  5
A6
330
1F
100
AcDbEntity
  8
외형선
  6
Continuous
 62
     1
370
    15
100
AcDbSpline
210
0.0
220
0.0
230
1.0
 70
     8
 71
     3
 72
     9
 73
     5
 74
     0
 42
0.000000001
 43
0.00000001
 40
0.0
 40
0.0
 40
0.0
 40
0.0
 40
0.5021242565836328
 40
1.0
 40
1.0
 40
1.0
 40
1.0
 10
22.64593183473959
 20
-7.937499999994789
 30
0.0
 10
22.69715751134536
 20
-7.933081130642517
 30
0.0
 10
22.79917544004356
 20
-7.924280780342097
 30
0.0
 10
22.88738748693687
 20
-7.866434253791037
 30
0.0
 10
22.93130612536215
 20
-7.837633871380369
 30
0.0
  0
SPLINE
  5
A7
330
1F
100
AcDbEntity
  8
외형선
  6
Continuous
 62
     1
370
    15
100
AcDbSpline
210
0.0
220
0.0
230
1.0
 70
     8
 71
     3
 72
    11
 73
     7
 74
     0
 42
0.000000001
 43
0.00000001
 40
0.0
 40
0.0
 40
0.0
 40
0.0
 40
0.2165312519261956
 40
0.4577969990583248
 40
0.7219531014986543
 40
1.0
 40
1.0
 40
1.0
 40
1.0
 10
22.93589936697201
 20
-7.833734823434817
 30
0.0
 10
22.9897906341787
 20
-7.797718320812696
 30
0.0
 10
23.10372920047436
 20
-7.721571128800888
 30
0.0
 10
23.35266566769095
 20
-7.65868489161996
 30
0.0
 10
23.64773924405928
 20
-7.679995891585079
 30
0.0
 10
23.81658163989827
 20
-7.783873875329063
 30
0.0
 10
23.90316563964934
 20
-7.837143501562092
 30
0.0
  0
SPLINE
  5
A8
330
1F
100
AcDbEntity
  8
외형선
  6
Continuous
 62
     1
370
    15
100
AcDbSpline
210
0.0
220
0.0
230
1.0
 70
     8
 71
     3
 72
     9
 73
     5
 74
     0
 42
0.000000001
 43
0.00000001
 40
0.0
 40
0.0
 40
0.0
 40
0.0
 40
0.4985634289951677
 40
1.0
 40
1.0
 40
1.0
 40
1.0
 10
23.90338188791896
 20
-7.837313543976856
 30
0.0
 10
23.94741159729646
 20
-7.866213942806689
 30
0.0
 10
24.03572475228706
 20
-7.924181288883553
 30
0.0
 10
24.13807537108948
 20
-7.933051930250186
 30
0.0
 10
24.18939771442198
 20
-7.937499994239686
 30
0.0
  0
LINE
  5
A9
330
1F
100
AcDbEntity
  8
외형선
  6
Continuous
 62
     1
370
    15
100
AcDbLine
 10
24.18937642003254
 20
-7.937499999999991
 30
0.0
 11
25.97882807286207
 21
-7.937499999999991
 31
0.0
  0
SPLINE
  5
AA
330
1F
100
AcDbEntity
  8
외형선
  6
Continuous
 62
     1
370
    15
100
AcDbSpline
210
0.0
220
0.0
230
1.0
 70
     8
 71
     3
 72
     9
 73
     5
 74
     0
 42
0.000000001
 43
0.00000001
 40
0.0
 40
0.0
 40
0.0
 40
0.0
 40
0.5021235492446573
 40
1.0
 40
1.0
 40
1.0
 40
1.0
 10
25.97927529844406
 20
-7.937499998739417
 30
0.0
 10
26.03049734876193
 20
-7.933080499853512
 30
0.0
 10
26.13250819926857
 20
-7.924278883413583
 30
0.0
 10
26.22071281727554
 20
-7.866439740319455
 30
0.0
 10
26.26462781942909
 20
-7.837642993041021
 30
0.0
  0
SPLINE
  5
AB
330
1F
100
AcDbEntity
  8
외형선
  6
Continuous
 62
     1
370
    15
100
AcDbSpline
210
0.0
220
0.0
230
1.0
 70
     8
 71
     3
 72
    11
 73
     7
 74
     0
 42
0.000000001
 43
0.00000001
 40
0.0
 40
0.0
 40
0.0
 40
0.0
 40
0.2075981081028182
 40
0.4465939248728411
 40
0.7134321827231339
 40
1.0
 40
1.0
 40
1.0
 40
1.0
 10
26.26826080380118
 20
-7.834609711319584
 30
0.0
 10
26.32498012270402
 20
-7.797085743388956
 30
0.0
 10
26.44699714625219
 20
-7.716362579444494
 30
0.0
 10
26.69714553644737
 20
-7.658083294452785
 30
0.0
 10
26.98881270265959
 20
-7.683630122544059
 30
0.0
 10
27.14952092116985
 20
-7.782690017413666
 30
0.0
 10
27.232739746309
 20
-7.833985764114565
 30
0.0
  0
SPLINE
  5
AC
330
1F
100
AcDbEntity
  8
외형선
  6
Continuous
 62
     1
370
    15
100
AcDbSpline
210
0.0
220
0.0
230
1.0
 70
     8
 71
     3
 72
     9
 73
     5
 74
     0
 42
0.000000001
 43
0.00000001
 40
0.0
 40
0.0
 40
0.0
 40
0.0
 40
0.4985635771069233
 40
0.9999999999999999
 40
0.9999999999999999
 40
0.9999999999999999
 40
0.9999999999999999
 10
27.2367017970459
 20
-7.837303024904699
 30
0.0
 10
27.28073594151402
 20
-7.866207776363692
 30
0.0
 10
27.36905796600614
 20
-7.924183835559032
 30
0.0
 10
27.47141734261525
 20
-7.933052775164014
 30
0.0
 10
27.52274406227167
 20
-7.937499984514394
 30
0.0
  0
LINE
  5
AD
330
1F
100
AcDbEntity
  8
외형선
  6
Continuous
 62
     1
370
    15
100
AcDbLine
 10
27.52260933496071
 20
-7.937499999999991
 30
0.0
 11
29.31250266219685
 21
-7.937499999999991
 31
0.0
  0
SPLINE
  5
AE
330
1F
100
AcDbEntity
  8
외형선
  6
Continuous
 62
     1
370
    15
100
AcDbSpline
210
0.0
220
0.0
230
1.0
 70
     8
 71
     3
 72
     9
 73
     5
 74
     0
 42
0.000000001
 43
0.00000001
 40
0.0
 40
0.0
 40
0.0
 40
0.0
 40
0.5022015739434694
 40
0.9999999999999999
 40
0.9999999999999999
 40
0.9999999999999999
 40
0.9999999999999999
 10
29.30980083187719
 20
-7.937391136320631
 30
0.0
 10
29.36149153030165
 20
-7.933281391487329
 30
0.0
 10
29.46441971911347
 20
-7.925097934790781
 30
0.0
 10
29.55358084058
 20
-7.866706873389509
 30
0.0
 10
29.59796510651149
 20
-7.837639894928184
 30
0.0
  0
SPLINE
  5
AF
330
1F
100
AcDbEntity
  8
외형선
  6
Continuous
 62
     1
370
    15
100
AcDbSpline
210
0.0
220
0.0
230
1.0
 70
     8
 71
     3
 72
    11
 73
     7
 74
     0
 42
0.000000001
 43
0.00000001
 40
0.0
 40
0.0
 40
0.0
 40
0.0
 40
0.2442022635850489
 40
0.4999584286430276
 40
0.7557314892065103
 40
0.9999999999999999
 40
0.9999999999999999
 40
0.9999999999999999
 40
0.9999999999999999
 10
29.60240049354294
 20
-7.833885735219682
 30
0.0
 10
29.67567571774593
 20
-7.787206405601759
 30
0.0
 10
29.82569302476507
 20
-7.691639214932544
 30
0.0
 10
30.10260264974143
 20
-7.65160638063598
 30
0.0
 10
30.3795052951951
 20
-7.698544234936834
 30
0.0
 10
30.52943830859803
 20
-7.799222943320624
 30
0.0
 10
30.60268004688654
 20
-7.848404130594277
 30
0.0
  0
SPLINE
  5
B1
330
1F
100
AcDbEntity
  8
외형선
  6
Continuous
 62
     1
370
    15
100
AcDbSpline
210
0.0
220
0.0
230
1.0
 70
     8
 71
     3
 72
     9
 73
     5
 74
     0
 42
0.000000001
 43
0.00000001
 40
0.0
 40
0.0
 40
0.0
 40
0.0
 40
0.4988356904373358
 40
1.0
 40
1.0
 40
1.0
 40
1.0
 10
30.59203091437242
 20
-7.847981253038176
 30
0.0
 10
30.63342242125989
 20
-7.87390291870966
 30
0.0
 10
30.71639865507991
 20
-7.925867255200408
 30
0.0
 10
30.81365318405828
 20
-7.933242094499057
 30
0.0
 10
30.86239368292558
 20
-7.936938100744301
 30
0.0
  0
LINE
  5
B2
330
1F
100
AcDbEntity
  8
외형선
  6
Continuous
 62
     1
370
    15
100
AcDbLine
 10
30.8559327352143
 20
-7.937499999999991
 30
0.0
 11
31.69877463797909
 21
-7.937499999999991
 31
0.0
  0
LINE
  5
BA
330
1F
100
AcDbEntity
  8
외형선
  6
Continuous
370
    15
100
AcDbLine
 10
-45.48333333333336
 20
7.937499999999984
 30
0.0
 11
-45.48333333333336
 21
-7.937499999999972
 31
0.0
  0
LINE
  5
BC
330
1F
100
AcDbEntity
  8
외형선
  6
Continuous
370
    15
100
AcDbLine
 10
-47.15000000000003
 20
6.270833333333321
 30
0.0
 11
-47.15000000000003
 21
-6.27083333333332
 31
0.0
  0
SPLINE
  5
BE
330
1F
100
AcDbEntity
  8
외형선
  6
Continuous
 62
     1
370
    15
100
AcDbSpline
210
0.0
220
0.0
230
1.0
 70
     8
 71
     3
 72
     8
 73
     4
 74
     0
 42
0.000000001
 43
0.00000001
 40
0.0
 40
0.0
 40
0.0
 40
0.0
 40
1.0
 40
1.0
 40
1.0
 40
1.0
 10
38.98040657460935
 20
-3.489991827683899
 30
0.0
 10
38.90453847332792
 20
-3.4840426228372
 30
0.0
 10
38.81163025179123
 20
-3.463832710190882
 30
0.0
 10
38.71611588175291
 20
-3.432511147492688
 30
0.0
  0
SPLINE
  5
C0
330
1F
100
AcDbEntity
  8
외형선
  6
Continuous
 62
     1
370
    15
100
AcDbSpline
210
0.0
220
0.0
230
1.0
 70
     8
 71
     3
 72
     8
 73
     4
 74
     0
 42
0.000000001
 43
0.00000001
 40
0.0
 40
0.0
 40
0.0
 40
0.0
 40
1.0
 40
1.0
 40
1.0
 40
1.0
 10
38.36359152854872
 20
1.715812812344308
 30
0.0
 10
38.45637447554761
 20
1.682840321927647
 30
0.0
 10
38.5496391231194
 20
1.646770870505301
 30
0.0
 10
38.62635951584223
 20
1.615633545826397
 30
0.0
  0
SPLINE
  5
C2
330
1F
100
AcDbEntity
  8
외형선
  6
Continuous
 62
     1
370
    15
100
AcDbSpline
210
0.0
220
0.0
230
1.0
 70
     8
 71
     3
 72
     8
 73
     4
 74
     0
 42
0.000000001
 43
0.00000001
 40
0.0
 40
0.0
 40
0.0
 40
0.0
 40
1.0
 40
1.0
 40
1.0
 40
1.0
 10
39.6804073831284
 20
1.243153384155389
 30
0.0
 10
39.74904741690725
 20
1.219905319141489
 30
0.0
 10
39.83171364241573
 20
1.191079347716119
 30
0.0
 10
39.91750969725661
 20
1.160351884469625
 30
0.0
  0
SPLINE
  5
C5
330
1F
100
AcDbEntity
  8
외형선
  6
Continuous
 62
     1
370
    15
100
AcDbSpline
210
0.0
220
0.0
230
1.0
 70
     8
 71
     3
 72
     8
 73
     4
 74
     0
 42
0.000000001
 43
0.00000001
 40
0.0
 40
0.0
 40
0.0
 40
0.0
 40
1.0
 40
1.0
 40
1.0
 40
1.0
 10
36.88202432662877
 20
-2.818374452969831
 30
0.0
 10
36.78922068068841
 20
-2.786768172199041
 30
0.0
 10
36.69592957435496
 20
-2.747766821665486
 30
0.0
 10
36.61917967426095
 20
-2.709126897479501
 30
0.0
  0
SPLINE
  5
C7
330
1F
100
AcDbEntity
  8
외형선
  6
Continuous
 62
     1
370
    15
100
AcDbSpline
210
0.0
220
0.0
230
1.0
 70
     8
 71
     3
 72
     8
 73
     4
 74
     0
 42
0.000000001
 43
0.00000001
 40
0.0
 40
0.0
 40
0.0
 40
0.0
 40
1.0
 40
1.0
 40
1.0
 40
1.0
 10
36.26462497440078
 20
2.437158212452472
 30
0.0
 10
36.34057498276326
 20
2.42148961763883
 30
0.0
 10
36.43355277274767
 20
2.395009393570675
 30
0.0
 10
36.52913256964261
 20
2.36179987055896
 30
0.0
  0
SPLINE
  5
C9
330
1F
100
AcDbEntity
  8
외형선
  6
Continuous
 62
     1
370
    15
100
AcDbSpline
210
0.0
220
0.0
230
1.0
 70
     8
 71
     3
 72
    10
 73
     6
 74
     0
 42
0.000000001
 43
0.00000001
 40
0.0
 40
0.0
 40
0.0
 40
0.0
 40
0.5
 40
0.5
 40
1.0
 40
1.0
 40
1.0
 40
1.0
 10
40.0178626420108
 20
-3.815372222783393
 30
0.0
 10
39.86265964372613
 20
-3.725293167560471
 30
0.0
 10
39.67582479747192
 20
-3.650416558065103
 30
0.0
 10
39.30460660035887
 20
-3.537834471157371
 30
0.0
 10
39.12746826079362
 20
-3.501523684701977
 30
0.0
 10
38.98040657460936
 20
-3.4899918276839
 30
0.0
  0
SPLINE
  5
CA
330
1F
100
AcDbEntity
  8
외형선
  6
Continuous
 62
     1
370
    15
100
AcDbSpline
210
0.0
220
0.0
230
1.0
 70
     8
 71
     3
 72
    10
 73
     6
 74
     0
 42
0.000000001
 43
0.00000001
 40
0.0
 40
0.0
 40
0.0
 40
0.0
 40
0.5
 40
0.5
 40
1.0
 40
1.0
 40
1.0
 40
1.0
 10
38.62635951584105
 20
1.615633545826398
 30
0.0
 10
38.78229534912526
 20
1.552346269813759
 30
0.0
 10
38.97173570029884
 20
1.486352797303126
 30
0.0
 10
39.34950807925765
 20
1.356043665262131
 30
0.0
 10
39.5307117927693
 20
1.29385459488254
 30
0.0
 10
39.68040738312798
 20
1.243153384155232
 30
0.0
  0
SPLINE
  5
CC
330
1F
100
AcDbEntity
  8
외형선
  6
Continuous
 62
     1
370
    15
100
AcDbSpline
210
0.0
220
0.0
230
1.0
 70
     8
 71
     3
 72
     8
 73
     4
 74
     0
 42
0.000000001
 43
0.00000001
 40
0.0
 40
0.0
 40
0.0
 40
0.0
 40
0.9756232341503304
 40
0.9756232341503304
 40
0.9756232341503304
 40
0.9756232341503304
 10
39.91708818001817
 20
1.160512470233471
 30
0.0
 10
40.51154058243254
 20
0.9340162479877886
 30
0.0
 10
41.10692590673039
 20
0.8180264527448793
 30
0.0
 10
41.70515302689661
 20
0.8425760778821849
 30
0.0
  0
SPLINE
  5
CE
330
1F
100
AcDbEntity
  8
외형선
  6
Continuous
 62
     1
370
    15
100
AcDbSpline
210
0.0
220
0.0
230
1.0
 70
     8
 71
     3
 72
     8
 73
     4
 74
     0
 42
0.000000001
 43
0.00000001
 40
0.5614439094920822
 40
0.5614439094920822
 40
0.5614439094920822
 40
0.5614439094920822
 40
1.0
 40
1.0
 40
1.0
 40
1.0
 10
40.79129212014794
 20
-3.781582577937474
 30
0.0
 10
40.53648735079047
 20
-3.790995529212308
 30
0.0
 10
40.27822015960288
 20
-3.802232598147157
 30
0.0
 10
40.0178626420108
 20
-3.815372222783388
 30
0.0
  0
SPLINE
  5
CF
330
1F
100
AcDbEntity
  8
외형선
  6
Continuous
 62
     1
370
    15
100
AcDbSpline
210
0.0
220
0.0
230
1.0
 70
     8
 71
     3
 72
     8
 73
     4
 74
     0
 42
0.000000001
 43
0.00000001
 40
0.0
 40
0.0
 40
0.0
 40
0.0
 40
1.0
 40
1.0
 40
1.0
 40
1.0
 10
35.56446509438365
 20
-2.350166251653335
 30
0.0
 10
35.48851490030355
 20
-2.333754788028935
 30
0.0
 10
35.39553199597881
 20
-2.306832105129971
 30
0.0
 10
35.29994322593309
 20
-2.273551873187842
 30
0.0
  0
SPLINE
  5
D1
330
1F
100
AcDbEntity
  8
외형선
  6
Continuous
 62
     1
370
    15
100
AcDbSpline
210
0.0
220
0.0
230
1.0
 70
     8
 71
     3
 72
     8
 73
     4
 74
     0
 42
0.000000001
 43
0.00000001
 40
0.0
 40
0.0
 40
0.0
 40
0.0
 40
1.0
 40
1.0
 40
1.0
 40
1.0
 10
34.94687213274341
 20
2.904266794788743
 30
0.0
 10
35.03970373748987
 20
2.872867532405416
 30
0.0
 10
35.13301677211138
 20
2.833725633132975
 30
0.0
 10
35.20978001266712
 20
2.79456055848183
 30
0.0
  0
SPLINE
  5
D3
330
1F
100
AcDbEntity
  8
외형선
  6
Continuous
 62
     1
370
    15
100
AcDbSpline
210
0.0
220
0.0
230
1.0
 70
     8
 71
     3
 72
     8
 73
     4
 74
     0
 42
0.000000001
 43
0.00000001
 40
0.0
 40
0.0
 40
0.0
 40
0.0
 40
1.0
 40
1.0
 40
1.0
 40
1.0
 10
33.46482399278332
 20
-1.62656388554017
 30
0.0
 10
33.37198196415724
 20
-1.593421714497458
 30
0.0
 10
33.27865813676073
 20
-1.557493911405513
 30
0.0
 10
33.20186991189286
 20
-1.526855043741658
 30
0.0
  0
SPLINE
  5
D4
330
1F
100
AcDbEntity
  8
외형선
  6
Continuous
 62
     1
370
    15
100
AcDbSpline
210
0.0
220
0.0
230
1.0
 70
     8
 71
     3
 72
    10
 73
     6
 74
     0
 42
0.000000001
 43
0.00000001
 40
0.0
 40
0.0
 40
0.0
 40
0.0
 40
0.5
 40
0.5
 40
1.0
 40
1.0
 40
1.0
 40
1.0
 10
33.20186991188569
 20
-1.526855043610321
 30
0.0
 10
33.14135403114292
 20
-0.6628495810023303
 30
0.0
 10
33.08059129432514
 20
0.2311131103832738
 30
0.0
 10
32.96819258119821
 20
1.933784505264138
 30
0.0
 10
32.90753612819444
 20
2.787199978350503
 30
0.0
 10
32.84701548781175
 20
3.571569644895958
 30
0.0
  0
SPLINE
  5
D5
330
1F
100
AcDbEntity
  8
외형선
  6
Continuous
 62
     1
370
    15
100
AcDbSpline
210
0.0
220
0.0
230
1.0
 70
     8
 71
     3
 72
     8
 73
     4
 74
     0
 42
0.000000001
 43
0.00000001
 40
0.0
 40
0.0
 40
0.0
 40
0.0
 40
1.0
 40
1.0
 40
1.0
 40
1.0
 10
32.84701548780203
 20
3.571569645030804
 30
0.0
 10
32.9230046673968
 20
3.566296925791109
 30
0.0
 10
33.01601449653551
 20
3.546469814090641
 30
0.0
 10
33.11161980206047
 20
3.515180397897215
 30
0.0
  0
SPLINE
  5
D6
330
1F
100
AcDbEntity
  8
외형선
  6
Continuous
 62
     1
370
    15
100
AcDbSpline
210
0.0
220
0.0
230
1.0
 70
     8
 71
     3
 72
    10
 73
     6
 74
     0
 42
0.000000001
 43
0.00000001
 40
0.0
 40
0.0
 40
0.0
 40
0.0
 40
0.5
 40
0.5
 40
1.0
 40
1.0
 40
1.0
 40
1.0
 10
33.46482381919371
 20
-1.626561383759989
 30
0.0
 10
33.40460796837641
 20
-0.7587345209212419
 30
0.0
 10
33.34397923104122
 20
0.1415315658076283
 30
0.0
 10
33.23146378330258
 20
1.861527610301663
 30
0.0
 10
33.17188033179153
 20
2.720027655062158
 30
0.0
 10
33.11161973104997
 20
3.51518133490937
 30
0.0
  0
SPLINE
  5
D7
330
1F
100
AcDbEntity
  8
외형선
  6
Continuous
 62
     1
370
    15
100
AcDbSpline
210
0.0
220
0.0
230
1.0
 70
     8
 71
     3
 72
    10
 73
     6
 74
     0
 42
0.000000001
 43
0.00000001
 40
0.0
 40
0.0
 40
0.0
 40
0.0
 40
0.5
 40
0.5
 40
1.0
 40
1.0
 40
1.0
 40
1.0
 10
36.61917967426294
 20
-2.709126897479206
 30
0.0
 10
36.46314309729749
 20
-2.63056990265819
 30
0.0
 10
36.27358857926806
 20
-2.558395947471898
 30
0.0
 10
35.89561244472772
 20
-2.433471732060307
 30
0.0
 10
35.71430633326255
 20
-2.382544233975564
 30
0.0
 10
35.56446509438365
 20
-2.350166251653335
 30
0.0
  0
SPLINE
  5
D8
330
1F
100
AcDbEntity
  8
외형선
  6
Continuous
 62
     1
370
    15
100
AcDbSpline
210
0.0
220
0.0
230
1.0
 70
     8
 71
     3
 72
    10
 73
     6
 74
     0
 42
0.000000001
 43
0.00000001
 40
0.0
 40
0.0
 40
0.0
 40
0.0
 40
0.5
 40
0.5
 40
1.0
 40
1.0
 40
1.0
 40
1.0
 10
35.20978001266586
 20
2.79456055848097
 30
0.0
 10
35.36585266120758
 20
2.714931338988557
 30
0.0
 10
35.55544613704665
 20
2.642393891965385
 30
0.0
 10
35.93347358569131
 20
2.518063641681395
 30
0.0
 10
36.11478490583202
 20
2.468070431843045
 30
0.0
 10
36.26462497440014
 20
2.437158212452308
 30
0.0
  0
SPLINE
  5
D9
330
1F
100
AcDbEntity
  8
외형선
  6
Continuous
 62
     1
370
    15
100
AcDbSpline
210
0.0
220
0.0
230
1.0
 70
     8
 71
     3
 72
     8
 73
     4
 74
     0
 42
0.000000001
 43
0.00000001
 40
0.0
 40
0.0
 40
0.0
 40
0.0
 40
1.0
 40
1.0
 40
1.0
 40
1.0
 10
31.88220134062635
 20
-1.058299540390645
 30
0.0
 10
31.27091769196636
 20
-0.8379890594544799
 30
0.0
 10
30.65815621723087
 20
-0.6162543169764725
 30
0.0
 10
30.04715612618848
 20
-0.39426786979251
 30
0.0
  0
SPLINE
  5
DA
330
1F
100
AcDbEntity
  8
외형선
  6
Continuous
 62
     1
370
    15
100
AcDbSpline
210
0.0
220
0.0
230
1.0
 70
     8
 71
     3
 72
    12
 73
     8
 74
     0
 42
0.000000001
 43
0.00000001
 40
0.0
 40
0.0
 40
0.0
 40
0.0
 40
0.2500000000000001
 40
0.2500000000000001
 40
0.5
 40
0.5
 40
1.0
 40
1.0
 40
1.0
 40
1.0
 10
30.0471574715817
 20
-0.3942662430302535
 30
0.0
 10
30.01737156786743
 20
0.0469831992864133
 30
0.0
 10
29.98806106383363
 20
0.4876865584342097
 30
0.0
 10
29.93152429867423
 20
1.35029622219314
 30
0.0
 10
29.90320670376421
 20
1.77780467708917
 30
0.0
 10
29.81480746116206
 20
3.046674773626789
 30
0.0
 10
29.75328588652243
 20
3.862736493521774
 30
0.0
 10
29.69418553146518
 20
4.582314451058548
 30
0.0
  0
SPLINE
  5
DB
330
1F
100
AcDbEntity
  8
외형선
  6
Continuous
 62
     1
370
    15
100
AcDbSpline
210
0.0
220
0.0
230
1.0
 70
     8
 71
     3
 72
     8
 73
     4
 74
     0
 42
0.000000001
 43
0.00000001
 40
0.0
 40
0.0
 40
0.0
 40
0.0
 40
1.0
 40
1.0
 40
1.0
 40
1.0
 10
31.52906375528504
 20
4.022075918236684
 30
0.0
 10
30.91721203648116
 20
4.213803423584242
 30
0.0
 10
30.30450661805191
 20
4.400875112438211
 30
0.0
 10
29.69418551721628
 20
4.582314623946797
 30
0.0
  0
SPLINE
  5
DC
330
1F
100
AcDbEntity
  8
외형선
  6
Continuous
 62
     1
370
    15
100
AcDbSpline
210
0.0
220
0.0
230
1.0
 70
     8
 71
     3
 72
    12
 73
     8
 74
     0
 42
0.000000001
 43
0.00000001
 40
0.0
 40
0.0
 40
0.0
 40
0.0
 40
0.25
 40
0.25
 40
0.5
 40
0.5
 40
1.0
 40
1.0
 40
1.0
 40
1.0
 10
31.88220134275374
 20
-1.058299022099554
 30
0.0
 10
31.85210960690205
 20
-0.6190293927986256
 30
0.0
 10
31.82217681676465
 20
-0.1755848449574814
 30
0.0
 10
31.76384575347083
 20
0.7012324154449594
 30
0.0
 10
31.73618265007648
 20
1.130935841003634
 30
0.0
 10
31.65017032779383
 20
2.413993125682055
 30
0.0
 10
31.58905220972522
 20
3.258688994911151
 30
0.0
 10
31.52906513426325
 20
4.022079218654865
 30
0.0
  0
SPLINE
  5
DD
330
1F
100
AcDbEntity
  8
외형선
  6
Continuous
 62
     1
370
    15
100
AcDbSpline
210
0.0
220
0.0
230
1.0
 70
     8
 71
     3
 72
     8
 73
     4
 74
     0
 42
0.000000001
 43
0.00000001
 40
0.0
 40
0.0
 40
0.0
 40
0.0
 40
1.0
 40
1.0
 40
1.0
 40
1.0
 10
38.71610698901907
 20
-3.43250823134012
 30
0.0
 10
38.10285377763635
 20
-3.231407046497344
 30
0.0
 10
37.49371217230925
 20
-3.026697925594961
 30
0.0
 10
36.88202432652535
 20
-2.81837445293418
 30
0.0
  0
SPLINE
  5
DE
330
1F
100
AcDbEntity
  8
외형선
  6
Continuous
 62
     1
370
    15
100
AcDbSpline
210
0.0
220
0.0
230
1.0
 70
     8
 71
     3
 72
     8
 73
     4
 74
     0
 42
0.000000001
 43
0.00000001
 40
0.0
 40
0.0
 40
0.0
 40
0.0
 40
1.0
 40
1.0
 40
1.0
 40
1.0
 10
38.36359152818002
 20
1.715812812475348
 30
0.0
 10
37.75080024279652
 20
1.933581868516485
 30
0.0
 10
37.14202588814152
 20
2.148848019425356
 30
0.0
 10
36.52913232202225
 20
2.361799956594747
 30
0.0
  0
SPLINE
  5
DF
330
1F
100
AcDbEntity
  8
외형선
  6
Continuous
 62
     1
370
    15
100
AcDbSpline
210
0.0
220
0.0
230
1.0
 70
     8
 71
     3
 72
     8
 73
     4
 74
     0
 42
0.000000001
 43
0.00000001
 40
0.0
 40
0.0
 40
0.0
 40
0.0
 40
1.0
 40
1.0
 40
1.0
 40
1.0
 10
35.29993676963551
 20
-2.273549625359394
 30
0.0
 10
34.68710088145919
 20
-2.060184370204346
 30
0.0
 10
34.07431686727208
 20
-1.844136871880523
 30
0.0
 10
33.46482278532468
 20
-1.626563454508623
 30
0.0
  0
SPLINE
  5
E0
330
1F
100
AcDbEntity
  8
외형선
  6
Continuous
 62
     1
370
    15
100
AcDbSpline
210
0.0
220
0.0
230
1.0
 70
     8
 71
     3
 72
     8
 73
     4
 74
     0
 42
0.000000001
 43
0.00000001
 40
0.0
 40
0.0
 40
0.0
 40
0.0
 40
1.0
 40
1.0
 40
1.0
 40
1.0
 10
34.94687209292664
 20
2.904266808256319
 30
0.0
 10
34.33337400100466
 20
3.111775744456906
 30
0.0
 10
33.72113415577961
 20
3.315700378878555
 30
0.0
 10
33.11161955971998
 20
3.515180477208258
 30
0.0
  0
SPLINE
  5
E1
330
1F
100
AcDbEntity
  8
외형선
  6
Continuous
 62
     1
370
    15
100
AcDbSpline
210
0.0
220
0.0
230
1.0
 70
     8
 71
     3
 72
     8
 73
     4
 74
     0
 42
0.000000001
 43
0.00000001
 40
0.0
 40
0.0
 40
0.0
 40
0.0
 40
1.0
 40
1.0
 40
1.0
 40
1.0
 10
28.46504344470902
 20
0.1822196667252154
 30
0.0
 10
27.85566650994945
 20
0.4042754419350482
 30
0.0
 10
27.24328726605773
 20
0.6264810518553801
 30
0.0
 10
26.63113785081089
 20
0.8476594301937709
 30
0.0
  0
SPLINE
  5
E2
330
1F
100
AcDbEntity
  8
외형선
  6
Continuous
 62
     1
370
    15
100
AcDbSpline
210
0.0
220
0.0
230
1.0
 70
     8
 71
     3
 72
    12
 73
     8
 74
     0
 42
0.000000001
 43
0.00000001
 40
0.0
 40
0.0
 40
0.0
 40
0.0
 40
0.2499999999999999
 40
0.2499999999999999
 40
0.4999999999999998
 40
0.4999999999999998
 40
1.0
 40
1.0
 40
1.0
 40
1.0
 10
26.63113843432329
 20
0.847659049653551
 30
0.0
 10
26.60273275820236
 20
1.280345449447747
 30
0.0
 10
26.57461206463114
 20
1.707877310063705
 30
0.0
 10
26.51576952093016
 20
2.55602560804195
 30
0.0
 10
26.48566992367402
 20
2.973436134040251
 30
0.0
 10
26.39519428868299
 20
4.17871263088169
 30
0.0
 10
26.33495405377672
 20
4.9163063840843
 30
0.0
 10
26.27887389202681
 20
5.537249157158543
 30
0.0
  0
SPLINE
  5
E3
330
1F
100
AcDbEntity
  8
외형선
  6
Continuous
 62
     1
370
    15
100
AcDbSpline
210
0.0
220
0.0
230
1.0
 70
     8
 71
     3
 72
     8
 73
     4
 74
     0
 42
0.000000001
 43
0.00000001
 40
0.0
 40
0.0
 40
0.0
 40
0.0
 40
1.0
 40
1.0
 40
1.0
 40
1.0
 10
28.11232740571139
 20
5.040706659263661
 30
0.0
 10
27.50247740372246
 20
5.212222267582868
 30
0.0
 10
26.89024929364525
 20
5.378033644517691
 30
0.0
 10
26.27887355650617
 20
5.537250021628846
 30
0.0
  0
SPLINE
  5
E4
330
1F
100
AcDbEntity
  8
외형선
  6
Continuous
 62
     1
370
    15
100
AcDbSpline
210
0.0
220
0.0
230
1.0
 70
     8
 71
     3
 72
    12
 73
     8
 74
     0
 42
0.000000001
 43
0.00000001
 40
0.0
 40
0.0
 40
0.0
 40
0.0
 40
0.2499999999999999
 40
0.2499999999999999
 40
0.4999999999999999
 40
0.4999999999999999
 40
1.0
 40
1.0
 40
1.0
 40
1.0
 10
28.46504486632963
 20
0.1822224064681754
 30
0.0
 10
28.43577025597504
 20
0.6214786781988215
 30
0.0
 10
28.40795737903785
 20
1.052585884510571
 30
0.0
 10
28.35080856027255
 20
1.909028203526018
 30
0.0
 10
28.32126919711594
 20
2.335284531121669
 30
0.0
 10
28.23150161080557
 20
3.580755442943862
 30
0.0
 10
28.1701755480371
 20
4.364603061212785
 30
0.0
 10
28.11232802394476
 20
5.04070655543049
 30
0.0
  0
SPLINE
  5
E5
330
1F
100
AcDbEntity
  8
외형선
  6
Continuous
 62
     1
370
    15
100
AcDbSpline
210
0.0
220
0.0
230
1.0
 70
     8
 71
     3
 72
     8
 73
     4
 74
     0
 42
0.000000001
 43
0.00000001
 40
0.0
 40
0.0
 40
0.0
 40
0.0
 40
1.0
 40
1.0
 40
1.0
 40
1.0
 10
32.14678205677191
 20
-1.152266674688973
 30
0.0
 10
32.07081020611162
 20
-1.125767818010007
 30
0.0
 10
31.97781028282874
 20
-1.09275760594013
 30
0.0
 10
31.88220137921596
 20
-1.058299554298619
 30
0.0
  0
SPLINE
  5
E6
330
1F
100
AcDbEntity
  8
외형선
  6
Continuous
 62
     1
370
    15
100
AcDbSpline
210
0.0
220
0.0
230
1.0
 70
     8
 71
     3
 72
     8
 73
     4
 74
     0
 42
0.000000001
 43
0.00000001
 40
0.0
 40
0.0
 40
0.0
 40
0.0
 40
1.0
 40
1.0
 40
1.0
 40
1.0
 10
31.52906543496916
 20
4.022075391897304
 30
0.0
 10
31.62190101921715
 20
3.992984788302744
 30
0.0
 10
31.71521497457825
 20
3.951694460177339
 30
0.0
 10
31.79198108328364
 20
3.905433097713135
 30
0.0
  0
SPLINE
  5
E7
330
1F
100
AcDbEntity
  8
외형선
  6
Continuous
 62
     1
370
    15
100
AcDbSpline
210
0.0
220
0.0
230
1.0
 70
     8
 71
     3
 72
    12
 73
     8
 74
     0
 42
0.000000001
 43
0.00000001
 40
0.0
 40
0.0
 40
0.0
 40
0.0
 40
0.2500000000000001
 40
0.2500000000000001
 40
0.5000000000000001
 40
0.5000000000000001
 40
1.0
 40
1.0
 40
1.0
 40
1.0
 10
32.14678205674154
 20
-1.152266674251606
 30
0.0
 10
32.1165321182806
 20
-0.716674740921408
 30
0.0
 10
32.08639015365722
 20
-0.2761558436890381
 30
0.0
 10
32.02756521237609
 20
0.5962125230105927
 30
0.0
 10
31.99960928773004
 20
1.024448382712862
 30
0.0
 10
31.91361468918116
 20
2.299865788535794
 30
0.0
 10
31.85231109469599
 20
3.142194573155599
 30
0.0
 10
31.79198142191054
 20
3.905428813707576
 30
0.0
  0
SPLINE
  5
E8
330
1F
100
AcDbEntity
  8
외형선
  6
Continuous
 62
     1
370
    15
100
AcDbSpline
210
0.0
220
0.0
230
1.0
 70
     8
 71
     3
 72
     8
 73
     4
 74
     0
 42
0.000000001
 43
0.00000001
 40
0.0
 40
0.0
 40
0.0
 40
0.0
 40
1.0
 40
1.0
 40
1.0
 40
1.0
 10
30.04715761797908
 20
-0.394268411785182
 30
0.0
 10
29.9543314864532
 20
-0.3605431418370239
 30
0.0
 10
29.86102819968625
 20
-0.3287573695603574
 30
0.0
 10
29.7842698152792
 20
-0.3070588017131841
 30
0.0
  0
SPLINE
  5
E9
330
1F
100
AcDbEntity
  8
외형선
  6
Continuous
 62
     1
370
    15
100
AcDbSpline
210
0.0
220
0.0
230
1.0
 70
     8
 71
     3
 72
    12
 73
     8
 74
     0
 42
0.000000001
 43
0.00000001
 40
0.0
 40
0.0
 40
0.0
 40
0.0
 40
0.2500000000000001
 40
0.2500000000000001
 40
0.5000000000000001
 40
0.5000000000000001
 40
1.0
 40
1.0
 40
1.0
 40
1.0
 10
29.78426981527344
 20
-0.3070588016006758
 30
0.0
 10
29.75440709805915
 20
0.1311848389492282
 30
0.0
 10
29.72506354326816
 20
0.5682934476692454
 30
0.0
 10
29.66855016953737
 20
1.422628513249634
 30
0.0
 10
29.63976831431715
 20
1.847956993608753
 30
0.0
 10
29.5506867381665
 20
3.105242098519903
 30
0.0
 10
29.48886822684806
 20
3.910851966146343
 30
0.0
 10
29.42969826574915
 20
4.617916442425019
 30
0.0
  0
SPLINE
  5
EA
330
1F
100
AcDbEntity
  8
외형선
  6
Continuous
 62
     1
370
    15
100
AcDbSpline
210
0.0
220
0.0
230
1.0
 70
     8
 71
     3
 72
     8
 73
     4
 74
     0
 42
0.000000001
 43
0.00000001
 40
0.0
 40
0.0
 40
0.0
 40
0.0
 40
1.0
 40
1.0
 40
1.0
 40
1.0
 10
29.42969826556287
 20
4.617916444659613
 30
0.0
 10
29.50563594041277
 20
4.623265082801149
 30
0.0
 10
29.59860459963613
 20
4.610729428830174
 30
0.0
 10
29.6941855172658
 20
4.582314623934102
 30
0.0
  0
SPLINE
  5
EB
330
1F
100
AcDbEntity
  8
외형선
  6
Continuous
 62
     1
370
    15
100
AcDbSpline
210
0.0
220
0.0
230
1.0
 70
     8
 71
     3
 72
    10
 73
     6
 74
     0
 42
0.000000001
 43
0.00000001
 40
0.0
 40
0.0
 40
0.0
 40
0.0
 40
0.5
 40
0.5
 40
1.0
 40
1.0
 40
1.0
 40
1.0
 10
33.20186991189494
 20
-1.526855043742124
 30
0.0
 10
33.0457593718963
 20
-1.464566194323082
 30
0.0
 10
32.85615034543094
 20
-1.398845578427399
 30
0.0
 10
32.4780881977379
 20
-1.267778386414565
 30
0.0
 10
32.29669891338071
 20
-1.204557427941784
 30
0.0
 10
32.14678205677191
 20
-1.152266674688966
 30
0.0
  0
SPLINE
  5
EC
330
1F
100
AcDbEntity
  8
외형선
  6
Continuous
 62
     1
370
    15
100
AcDbSpline
210
0.0
220
0.0
230
1.0
 70
     8
 71
     3
 72
    10
 73
     6
 74
     0
 42
0.000000001
 43
0.00000001
 40
0.0
 40
0.0
 40
0.0
 40
0.0
 40
0.5
 40
0.5
 40
1.0
 40
1.0
 40
1.0
 40
1.0
 10
31.79198108328242
 20
3.905433097711374
 30
0.0
 10
31.94810072601955
 20
3.811351119318991
 30
0.0
 10
32.13774548494212
 20
3.733992063564943
 30
0.0
 10
32.51583133099194
 20
3.618586391459835
 30
0.0
 10
32.69714496536282
 20
3.58196882543117
 30
0.0
 10
32.84701548780134
 20
3.57156964503056
 30
0.0
  0
SPLINE
  5
F4
330
1F
100
AcDbEntity
  8
외형선
  6
Continuous
 62
     1
370
    15
100
AcDbSpline
210
0.0
220
0.0
230
1.0
 70
     8
 71
     3
 72
    10
 73
     6
 74
     0
 42
0.000000001
 43
0.00000001
 40
0.0
 40
0.0
 40
0.0
 40
0.0
 40
0.4999999999999966
 40
0.4999999999999966
 40
1.0
 40
1.0
 40
1.0
 40
1.0
 10
28.37511908169247
 20
4.919917254948113
 30
0.0
 10
28.53117040563657
 20
4.813680314812734
 30
0.0
 10
28.72072886612654
 20
4.733359025092531
 30
0.0
 10
29.09861300866076
 20
4.629626271810725
 30
0.0
 10
29.2798740567313
 20
4.607363639618891
 30
0.0
 10
29.42969826556219
 20
4.617916444659302
 30
0.0
  0
SPLINE
  5
F5
330
1F
100
AcDbEntity
  8
외형선
  6
Continuous
 62
     1
370
    15
100
AcDbSpline
210
0.0
220
0.0
230
1.0
 70
     8
 71
     3
 72
     8
 73
     4
 74
     0
 42
0.000000001
 43
0.00000001
 40
0.0
 40
0.0
 40
0.0
 40
0.0
 40
1.0
 40
1.0
 40
1.0
 40
1.0
 10
28.11232803008517
 20
5.040706483663356
 30
0.0
 10
28.20512287049183
 20
5.014608650012029
 30
0.0
 10
28.29839018903387
 20
4.972152907747899
 30
0.0
 10
28.37511908169366
 20
4.919917254950693
 30
0.0
  0
SPLINE
  5
F6
330
1F
100
AcDbEntity
  8
외형선
  6
Continuous
 62
     1
370
    15
100
AcDbSpline
210
0.0
220
0.0
230
1.0
 70
     8
 71
     3
 72
     8
 73
     4
 74
     0
 42
0.000000001
 43
0.00000001
 40
0.0
 40
0.0
 40
0.0
 40
0.0
 40
1.0
 40
1.0
 40
1.0
 40
1.0
 10
26.01463579239317
 20
5.551176479908327
 30
0.0
 10
26.09048495974358
 20
5.5670426981821
 30
0.0
 10
26.18337171735622
 20
5.562120908857977
 30
0.0
 10
26.2788738201526
 20
5.53724995297177
 30
0.0
  0
SPLINE
  5
F7
330
1F
100
AcDbEntity
  8
외형선
  6
Continuous
 62
     1
370
    15
100
AcDbSpline
210
0.0
220
0.0
230
1.0
 70
     8
 71
     3
 72
    10
 73
     6
 74
     0
 42
0.000000001
 43
0.00000001
 40
0.0
 40
0.0
 40
0.0
 40
0.0
 40
0.5
 40
0.5
 40
1.0
 40
1.0
 40
1.0
 40
1.0
 10
24.96056174996666
 20
5.812818166870731
 30
0.0
 10
25.11650456203039
 20
5.697166481863285
 30
0.0
 10
25.30594021108281
 20
5.616017167925804
 30
0.0
 10
25.68370036330309
 20
5.527065377927724
 30
0.0
 10
25.86492449492737
 20
5.519859694152057
 30
0.0
 10
26.01463579239249
 20
5.551176479907955
 30
0.0
  0
SPLINE
  5
F8
330
1F
100
AcDbEntity
  8
외형선
  6
Continuous
 62
     1
370
    15
100
AcDbSpline
210
0.0
220
0.0
230
1.0
 70
     8
 71
     3
 72
     8
 73
     4
 74
     0
 42
0.000000001
 43
0.00000001
 40
0.0
 40
0.0
 40
0.0
 40
0.0
 40
1.0
 40
1.0
 40
1.0
 40
1.0
 10
24.69777903238784
 20
5.934779330940853
 30
0.0
 10
24.79055765632096
 20
5.912290541160475
 30
0.0
 10
24.88382776077364
 20
5.86972630537777
 30
0.0
 10
24.96056174996789
 20
5.812818166874093
 30
0.0
  0
SPLINE
  5
F9
330
1F
100
AcDbEntity
  8
외형선
  6
Continuous
 62
     1
370
    15
100
AcDbSpline
210
0.0
220
0.0
230
1.0
 70
     8
 71
     3
 72
     8
 73
     4
 74
     0
 42
0.000000001
 43
0.00000001
 40
0.0
 40
0.0
 40
0.0
 40
0.0
 40
1.0
 40
1.0
 40
1.0
 40
1.0
 10
24.69777806043691
 20
5.9347795665339
 30
0.0
 10
24.08853740594956
 20
6.082454578214744
 30
0.0
 10
23.47659467389664
 20
6.223352223814389
 30
0.0
 10
22.86337989048445
 20
6.356817262020054
 30
0.0
  0
SPLINE
  5
FA
330
1F
100
AcDbEntity
  8
외형선
  6
Continuous
 62
     1
370
    15
100
AcDbSpline
210
0.0
220
0.0
230
1.0
 70
     8
 71
     3
 72
     8
 73
     4
 74
     0
 42
0.000000001
 43
0.00000001
 40
0.0
 40
0.0
 40
0.0
 40
0.0
 40
1.0
 40
1.0
 40
1.0
 40
1.0
 10
22.5988822083895
 20
6.348977367682862
 30
0.0
 10
22.67482592020725
 20
6.374905489929533
 30
0.0
 10
22.76780024630369
 20
6.377619991519055
 30
0.0
 10
22.86338039606236
 20
6.356817151985062
 30
0.0
  0
SPLINE
  5
FB
330
1F
100
AcDbEntity
  8
외형선
  6
Continuous
 62
     1
370
    15
100
AcDbSpline
210
0.0
220
0.0
230
1.0
 70
     8
 71
     3
 72
    10
 73
     6
 74
     0
 42
0.000000001
 43
0.00000001
 40
0.0
 40
0.0
 40
0.0
 40
0.0
 40
0.5
 40
0.5
 40
1.0
 40
1.0
 40
1.0
 40
1.0
 10
21.54404255350808
 20
6.564374257429483
 30
0.0
 10
21.70010650533622
 20
6.442109321965421
 30
0.0
 10
21.88968613579423
 20
6.362125888165822
 30
0.0
 10
22.26770298007562
 20
6.289908049062142
 30
0.0
 10
22.4490325555868
 20
6.297816843347649
 30
0.0
 10
22.59888220838915
 20
6.34897736768255
 30
0.0
  0
SPLINE
  5
FC
330
1F
100
AcDbEntity
  8
외형선
  6
Continuous
 62
     1
370
    15
100
AcDbSpline
210
0.0
220
0.0
230
1.0
 70
     8
 71
     3
 72
     8
 73
     4
 74
     0
 42
0.000000001
 43
0.00000001
 40
0.0
 40
0.0
 40
0.0
 40
0.0
 40
1.0
 40
1.0
 40
1.0
 40
1.0
 10
21.2811280136928
 20
6.684289651398493
 30
0.0
 10
21.37395657343576
 20
6.666070242060106
 30
0.0
 10
21.46727280384312
 20
6.624517861247797
 30
0.0
 10
21.54404255350933
 20
6.564374257433589
 30
0.0
  0
SPLINE
  5
FD
330
1F
100
AcDbEntity
  8
외형선
  6
Continuous
 62
     1
370
    15
100
AcDbSpline
210
0.0
220
0.0
230
1.0
 70
     8
 71
     3
 72
     8
 73
     4
 74
     0
 42
0.000000001
 43
0.00000001
 40
0.0
 40
0.0
 40
0.0
 40
0.0
 40
1.0
 40
1.0
 40
1.0
 40
1.0
 10
21.2811281096761
 20
6.684289632559898
 30
0.0
 10
20.66795037217238
 20
6.804637683868311
 30
0.0
 10
20.0588987471353
 20
6.916809598370306
 30
0.0
 10
19.44583232180342
 20
7.0209050863974
 30
0.0
  0
SPLINE
  5
FE
330
1F
100
AcDbEntity
  8
외형선
  6
Continuous
 62
     1
370
    15
100
AcDbSpline
210
0.0
220
0.0
230
1.0
 70
     8
 71
     3
 72
     8
 73
     4
 74
     0
 42
0.000000001
 43
0.00000001
 40
0.0
 40
0.0
 40
0.0
 40
0.0
 40
1.0
 40
1.0
 40
1.0
 40
1.0
 10
19.18124555236125
 20
6.99150619043788
 30
0.0
 10
19.25722362416692
 20
7.026860528846098
 30
0.0
 10
19.35022815709627
 20
7.0371381759464
 30
0.0
 10
19.44583231877668
 20
7.020905086914849
 30
0.0
  0
SPLINE
  5
FF
330
1F
100
AcDbEntity
  8
외형선
  6
Continuous
 62
     1
370
    15
100
AcDbSpline
210
0.0
220
0.0
230
1.0
 70
     8
 71
     3
 72
    10
 73
     6
 74
     0
 42
0.000000001
 43
0.00000001
 40
0.0
 40
0.0
 40
0.0
 40
0.0
 40
0.4999999999999999
 40
0.4999999999999999
 40
1.0
 40
1.0
 40
1.0
 40
1.0
 10
18.12624902140105
 20
7.155589643441486
 30
0.0
 10
18.28234394447693
 20
7.029664993969988
 30
0.0
 10
18.4719653323383
 20
6.952749322543643
 30
0.0
 10
18.85004174159419
 20
6.898956939255542
 30
0.0
 10
19.03137157015878
 20
6.921766391052086
 30
0.0
 10
19.18124555236057
 20
6.991506190437402
 30
0.0
  0
SPLINE
  5
100
330
1F
100
AcDbEntity
  8
외형선
  6
Continuous
 62
     1
370
    15
100
AcDbSpline
210
0.0
220
0.0
230
1.0
 70
     8
 71
     3
 72
     8
 73
     4
 74
     0
 42
0.000000001
 43
0.00000001
 40
0.0
 40
0.0
 40
0.0
 40
0.0
 40
1.0
 40
1.0
 40
1.0
 40
1.0
 10
17.8633349970633
 20
7.270615573172163
 30
0.0
 10
17.95616865989251
 20
7.257079147407586
 30
0.0
 10
18.04948349467431
 20
7.217517807758752
 30
0.0
 10
18.12624902140231
 20
7.155589643446155
 30
0.0
  0
SPLINE
  5
101
330
1F
100
AcDbEntity
  8
외형선
  6
Continuous
 62
     1
370
    15
100
AcDbSpline
210
0.0
220
0.0
230
1.0
 70
     8
 71
     3
 72
     8
 73
     4
 74
     0
 42
0.000000001
 43
0.00000001
 40
0.0
 40
0.0
 40
0.0
 40
0.0
 40
1.0
 40
1.0
 40
1.0
 40
1.0
 10
17.86333538108787
 20
7.270615517176084
 30
0.0
 10
17.24985084167169
 20
7.36007001033678
 30
0.0
 10
16.63720987571441
 20
7.440865400976378
 30
0.0
 10
16.02791821565564
 20
7.512665280838498
 30
0.0
  0
SPLINE
  5
102
330
1F
100
AcDbEntity
  8
외형선
  6
Continuous
 62
     1
370
    15
100
AcDbSpline
210
0.0
220
0.0
230
1.0
 70
     8
 71
     3
 72
     8
 73
     4
 74
     0
 42
0.000000001
 43
0.00000001
 40
0.0
 40
0.0
 40
0.0
 40
0.0
 40
1.0
 40
1.0
 40
1.0
 40
1.0
 10
15.76387754966023
 20
7.462371809566862
 30
0.0
 10
15.83982897961757
 20
7.506284593562073
 30
0.0
 10
15.93280552746853
 20
7.523874229525653
 30
0.0
 10
16.02837881721979
 20
7.512611001093568
 30
0.0
  0
SPLINE
  5
103
330
1F
100
AcDbEntity
  8
외형선
  6
Continuous
 62
     1
370
    15
100
AcDbSpline
210
0.0
220
0.0
230
1.0
 70
     8
 71
     3
 72
    10
 73
     6
 74
     0
 42
0.000000001
 43
0.00000001
 40
0.0
 40
0.0
 40
0.0
 40
0.0
 40
0.5
 40
0.5
 40
1.0
 40
1.0
 40
1.0
 40
1.0
 10
14.70933706681665
 20
7.571226549522768
 30
0.0
 10
14.86537240237521
 20
7.444721405044113
 30
0.0
 10
15.05493277255948
 20
7.37272098242603
 30
0.0
 10
15.43287036463533
 20
7.338628051642164
 30
0.0
 10
15.61409443014725
 20
7.37577181036905
 30
0.0
 10
15.76387754965966
 20
7.46237180956641
 30
0.0
  0
SPLINE
  5
104
330
1F
100
AcDbEntity
  8
외형선
  6
Continuous
 62
     1
370
    15
100
AcDbSpline
210
0.0
220
0.0
230
1.0
 70
     8
 71
     3
 72
     8
 73
     4
 74
     0
 42
0.000000001
 43
0.00000001
 40
0.0
 40
0.0
 40
0.0
 40
0.0
 40
1.0
 40
1.0
 40
1.0
 40
1.0
 10
14.44655574729153
 20
7.678601190707861
 30
0.0
 10
14.53934982340859
 20
7.670056751804372
 30
0.0
 10
14.63261578180283
 20
7.633428083626105
 30
0.0
 10
14.70933706681784
 20
7.571226549527799
 30
0.0
  0
SPLINE
  5
105
330
1F
100
AcDbEntity
  8
외형선
  6
Continuous
 62
     1
370
    15
100
AcDbSpline
210
0.0
220
0.0
230
1.0
 70
     8
 71
     3
 72
     8
 73
     4
 74
     0
 42
0.000000001
 43
0.00000001
 40
0.0
 40
0.0
 40
0.0
 40
0.0
 40
1.0
 40
1.0
 40
1.0
 40
1.0
 10
14.44655656974181
 20
7.678601114976958
 30
0.0
 10
13.83525489817953
 20
7.734889520000873
 30
0.0
 10
13.22302045643977
 20
7.782164223887864
 30
0.0
 10
12.61308388847993
 20
7.820196013829616
 30
0.0
  0
SPLINE
  5
106
330
1F
100
AcDbEntity
  8
외형선
  6
Continuous
 62
     1
370
    15
100
AcDbSpline
210
0.0
220
0.0
230
1.0
 70
     8
 71
     3
 72
     8
 73
     4
 74
     0
 42
0.000000001
 43
0.00000001
 40
0.0
 40
0.0
 40
0.0
 40
0.0
 40
1.0
 40
1.0
 40
1.0
 40
1.0
 10
12.34883816616928
 20
7.750207757795086
 30
0.0
 10
12.42469067656405
 20
7.80161163228473
 30
0.0
 10
12.51757782807688
 20
7.826151167864294
 30
0.0
 10
12.61308366058674
 20
7.820196028043656
 30
0.0
  0
SPLINE
  5
107
330
1F
100
AcDbEntity
  8
외형선
  6
Continuous
 62
     1
370
    15
100
AcDbSpline
210
0.0
220
0.0
230
1.0
 70
     8
 71
     3
 72
    10
 73
     6
 74
     0
 42
0.000000001
 43
0.00000001
 40
0.0
 40
0.0
 40
0.0
 40
0.0
 40
0.5
 40
0.5
 40
1.0
 40
1.0
 40
1.0
 40
1.0
 10
11.29472651732369
 20
7.801106265160153
 30
0.0
 10
11.45070979469009
 20
7.677144574822995
 30
0.0
 10
11.64017381172442
 20
7.611820475204356
 30
0.0
 10
12.0179145116835
 20
7.598192703150781
 30
0.0
 10
12.19911861392435
 20
7.648745524939899
 30
0.0
 10
12.34883816616859
 20
7.750207757794488
 30
0.0
  0
SPLINE
  5
108
330
1F
100
AcDbEntity
  8
외형선
  6
Continuous
 62
     1
370
    15
100
AcDbSpline
210
0.0
220
0.0
230
1.0
 70
     8
 71
     3
 72
     8
 73
     4
 74
     0
 42
0.000000001
 43
0.00000001
 40
0.0
 40
0.0
 40
0.0
 40
0.0
 40
1.0
 40
1.0
 40
1.0
 40
1.0
 10
11.03195563639664
 20
7.898231223238101
 30
0.0
 10
11.12474405919809
 20
7.894874535964974
 30
0.0
 10
11.21800505114397
 20
7.862077689752664
 30
0.0
 10
11.2947265173249
 20
7.801106265165531
 30
0.0
  0
SPLINE
  5
109
330
1F
100
AcDbEntity
  8
외형선
  6
Continuous
 62
     1
370
    15
100
AcDbSpline
210
0.0
220
0.0
230
1.0
 70
     8
 71
     3
 72
     8
 73
     4
 74
     0
 42
0.000000001
 43
0.00000001
 40
0.0
 40
0.0
 40
0.0
 40
0.0
 40
0.5628991585563992
 40
0.5628991585563992
 40
0.5628991585563992
 40
0.5628991585563992
 10
11.03195807816725
 20
7.898231134905225
 30
0.0
 10
10.68856062050781
 20
7.91065379650943
 30
0.0
 10
10.34438226825274
 20
7.920140555238344
 30
0.0
 10
9.999999999999947
 20
7.926674745740222
 30
0.0
  0
SPLINE
  5
10C
330
1F
100
AcDbEntity
  8
외형선
  6
Continuous
 62
     1
370
    15
100
AcDbSpline
210
0.0
220
0.0
230
1.0
 70
     8
 71
     3
 72
     9
 73
     5
 74
     0
 42
0.000000001
 43
0.00000001
 40
0.0
 40
0.0
 40
0.0
 40
0.0
 40
0.7739542088407393
 40
1.0
 40
1.0
 40
1.0
 40
1.0
 10
25.23064247179379
 20
6.036810626663837
 30
0.0
 10
25.14732720307418
 20
5.979010865147177
 30
0.0
 10
25.03967836833964
 20
5.904329752419288
 30
0.0
 10
24.91623013762171
 20
5.867348165584052
 30
0.0
 10
24.88832518464186
 20
5.858988633529554
 30
0.0
  0
SPLINE
  5
10D
330
1F
100
AcDbEntity
  8
외형선
  6
Continuous
 62
     1
370
    15
100
AcDbSpline
210
0.0
220
0.0
230
1.0
 70
     8
 71
     3
 72
     8
 73
     4
 74
     0
 42
0.000000001
 43
0.00000001
 40
0.0
 40
0.0
 40
0.0
 40
0.0
 40
1.0
 40
1.0
 40
1.0
 40
1.0
 10
25.49356576996059
 20
6.158453415656369
 30
0.0
 10
25.40072971298905
 20
6.137133943935001
 30
0.0
 10
25.30741502496996
 20
6.094762906633435
 30
0.0
 10
25.23064247179238
 20
6.036810626666946
 30
0.0
  0
SPLINE
  5
10E
330
1F
100
AcDbEntity
  8
외형선
  6
Continuous
 62
     1
370
    15
100
AcDbSpline
210
0.0
220
0.0
230
1.0
 70
     8
 71
     3
 72
     8
 73
     4
 74
     0
 42
0.000000001
 43
0.00000001
 40
0.0
 40
0.0
 40
0.0
 40
0.0
 40
1.0
 40
1.0
 40
1.0
 40
1.0
 10
27.32839872006207
 20
6.557054746876438
 30
0.0
 10
26.71670564673436
 20
6.431747722432159
 30
0.0
 10
26.10401513171282
 20
6.298640955625253
 30
0.0
 10
25.49356506481686
 20
6.1584532537226
 30
0.0
  0
SPLINE
  5
10F
330
1F
100
AcDbEntity
  8
외형선
  6
Continuous
 62
     1
370
    15
100
AcDbSpline
210
0.0
220
0.0
230
1.0
 70
     8
 71
     3
 72
     8
 73
     4
 74
     0
 42
0.000000001
 43
0.00000001
 40
0.0
 40
0.0
 40
0.0
 40
0.0
 40
1.0
 40
1.0
 40
1.0
 40
1.0
 10
27.59286420712625
 20
6.543201846320838
 30
0.0
 10
27.51693516746994
 20
6.571810030795004
 30
0.0
 10
27.42397160839522
 20
6.576633118413595
 30
0.0
 10
27.3283987201082
 20
6.55705474688903
 30
0.0
  0
SPLINE
  5
110
330
1F
100
AcDbEntity
  8
외형선
  6
Continuous
 62
     1
370
    15
100
AcDbSpline
210
0.0
220
0.0
230
1.0
 70
     8
 71
     3
 72
    10
 73
     6
 74
     0
 42
0.000000001
 43
0.00000001
 40
0.0
 40
0.0
 40
0.0
 40
0.0
 40
0.5
 40
0.5
 40
1.0
 40
1.0
 40
1.0
 40
1.0
 10
28.64735778812137
 20
6.745138687318442
 30
0.0
 10
28.49135559259522
 20
6.621490766651569
 30
0.0
 10
28.30184546622903
 20
6.542084385813635
 30
0.0
 10
27.92395214202364
 20
6.474707842055824
 30
0.0
 10
27.7426738713103
 20
6.486757269536197
 30
0.0
 10
27.59286420712701
 20
6.54320184632036
 30
0.0
  0
SPLINE
  5
111
330
1F
100
AcDbEntity
  8
외형선
  6
Continuous
 62
     1
370
    15
100
AcDbSpline
210
0.0
220
0.0
230
1.0
 70
     8
 71
     3
 72
     8
 73
     4
 74
     0
 42
0.000000001
 43
0.00000001
 40
0.0
 40
0.0
 40
0.0
 40
0.0
 40
1.0
 40
1.0
 40
1.0
 40
1.0
 10
28.91015143537169
 20
6.864127470671296
 30
0.0
 10
28.81736999894185
 20
6.847115310002219
 30
0.0
 10
28.72409757275233
 20
6.805962926174134
 30
0.0
 10
28.64735778811995
 20
6.745138687322106
 30
0.0
  0
SPLINE
  5
112
330
1F
100
AcDbEntity
  8
외형선
  6
Continuous
 62
     1
370
    15
100
AcDbSpline
210
0.0
220
0.0
230
1.0
 70
     8
 71
     3
 72
     8
 73
     4
 74
     0
 42
0.000000001
 43
0.00000001
 40
0.0
 40
0.0
 40
0.0
 40
0.0
 40
1.0
 40
1.0
 40
1.0
 40
1.0
 10
30.74358931171114
 20
7.174663061898543
 30
0.0
 10
30.13082816675248
 20
7.079406259691787
 30
0.0
 10
29.5186061520468
 20
6.975692130567186
 30
0.0
 10
28.9101514353606
 20
6.864127470669263
 30
0.0
  0
SPLINE
  5
113
330
1F
100
AcDbEntity
  8
외형선
  6
Continuous
 62
     1
370
    15
100
AcDbSpline
210
0.0
220
0.0
230
1.0
 70
     8
 71
     3
 72
     8
 73
     4
 74
     0
 42
0.000000001
 43
0.00000001
 40
0.0
 40
0.0
 40
0.0
 40
0.0
 40
1.0
 40
1.0
 40
1.0
 40
1.0
 10
31.00784203755866
 20
7.139286562400872
 30
0.0
 10
30.93198659278833
 20
7.177123509207664
 30
0.0
 10
30.83909378380116
 20
7.189509712468815
 30
0.0
 10
30.74358932015193
 20
7.174663063214202
 30
0.0
  0
SPLINE
  5
114
330
1F
100
AcDbEntity
  8
외형선
  6
Continuous
 62
     1
370
    15
100
AcDbSpline
210
0.0
220
0.0
230
1.0
 70
     8
 71
     3
 72
    10
 73
     6
 74
     0
 42
0.000000001
 43
0.00000001
 40
0.0
 40
0.0
 40
0.0
 40
0.0
 40
0.5
 40
0.5
 40
1.0
 40
1.0
 40
1.0
 40
1.0
 10
32.06193280755054
 20
7.288309098065321
 30
0.0
 10
31.90599007185523
 20
7.161968654545294
 30
0.0
 10
31.71654267323782
 20
7.086204642218442
 30
0.0
 10
31.33875776500816
 20
7.037736761070124
 30
0.0
 10
31.15754636119241
 20
7.064613550498988
 30
0.0
 10
31.00784203755941
 20
7.139286562400361
 30
0.0
  0
SPLINE
  5
115
330
1F
100
AcDbEntity
  8
외형선
  6
Continuous
 62
     1
370
    15
100
AcDbSpline
210
0.0
220
0.0
230
1.0
 70
     8
 71
     3
 72
     8
 73
     4
 74
     0
 42
0.000000001
 43
0.00000001
 40
0.0
 40
0.0
 40
0.0
 40
0.0
 40
1.0
 40
1.0
 40
1.0
 40
1.0
 10
32.32470952804358
 20
7.4015277151537
 30
0.0
 10
32.23192418495289
 20
7.389327138374354
 30
0.0
 10
32.13865643347343
 20
7.350468434215673
 30
0.0
 10
32.06193280754915
 20
7.288309098069531
 30
0.0
  0
SPLINE
  5
116
330
1F
100
AcDbEntity
  8
외형선
  6
Continuous
 62
     1
370
    15
100
AcDbSpline
210
0.0
220
0.0
230
1.0
 70
     8
 71
     3
 72
     8
 73
     4
 74
     0
 42
0.000000001
 43
0.00000001
 40
0.1887554722649316
 40
0.1887554722649316
 40
0.1887554722649316
 40
0.1887554722649316
 40
1.0
 40
1.0
 40
1.0
 40
1.0
 10
33.81249999999999
 20
7.937499999999986
 30
0.0
 10
33.31626502966449
 20
7.73786340011829
 30
0.0
 10
32.82177644816881
 20
7.600209266833244
 30
0.0
 10
32.32470946610016
 20
7.401527707008662
 30
0.0
  0
SPLINE
  5
11D
330
1F
100
AcDbEntity
  8
외형선
  6
Continuous
 62
     1
370
    15
100
AcDbSpline
210
0.0
220
0.0
230
1.0
 70
     8
 71
     3
 72
     9
 73
     5
 74
     0
 42
0.000000001
 43
0.00000001
 40
0.0
 40
0.0
 40
0.0
 40
0.0
 40
0.7221675798995931
 40
1.0
 40
1.0
 40
1.0
 40
1.0
 10
39.8402774064152
 20
-3.728168390298223
 30
0.0
 10
39.69957443111275
 20
-3.769871153417188
 30
0.0
 10
39.50474018596151
 20
-3.827617809843891
 30
0.0
 10
39.29888588861412
 20
-3.908201282823054
 30
0.0
 10
39.24169289099402
 20
-3.930589984140951
 30
0.0
  0
SPLINE
  5
11E
330
1F
100
AcDbEntity
  8
외형선
  6
Continuous
 62
     1
370
    15
100
AcDbSpline
210
0.0
220
0.0
230
1.0
 70
     8
 71
     3
 72
     8
 73
     4
 74
     0
 42
0.000000001
 43
0.00000001
 40
0.502764468944861
 40
0.502764468944861
 40
0.502764468944861
 40
0.502764468944861
 40
1.0
 40
1.0
 40
1.0
 40
1.0
 10
40.48503054268718
 20
-4.298981554613399
 30
0.0
 10
40.06933978263758
 20
-4.181150352933478
 30
0.0
 10
39.654928332256
 20
-4.058215802570194
 30
0.0
 10
39.24169289099403
 20
-3.930589984140948
 30
0.0
  0
SPLINE
  5
12B
330
1F
100
AcDbEntity
  8
외형선
  6
Continuous
 62
     1
370
    15
100
AcDbSpline
210
0.0
220
0.0
230
1.0
 70
     8
 71
     3
 72
     8
 73
     4
 74
     0
 42
0.000000001
 43
0.00000001
 40
0.0
 40
0.0
 40
0.0
 40
0.0
 40
1.0
 40
1.0
 40
1.0
 40
1.0
 10
32.66961554479414
 20
-7.937499999999964
 30
0.0
 10
32.05981942002415
 20
-7.939526153902896
 30
0.0
 10
31.44715523668913
 20
-7.940090087617194
 30
0.0
 10
30.83485982995705
 20
-7.931290273080151
 30
0.0
  0
SPLINE
  5
12C
330
1F
100
AcDbEntity
  8
외형선
  6
Continuous
 62
     1
370
    15
100
AcDbSpline
210
0.0
220
0.0
230
1.0
 70
     8
 71
     3
 72
     8
 73
     4
 74
     0
 42
0.000000001
 43
0.00000001
 40
0.0
 40
0.0
 40
0.0
 40
0.0
 40
1.0
 40
1.0
 40
1.0
 40
1.0
 10
30.57031647018449
 20
-7.837522461686
 30
0.0
 10
30.6462763818195
 20
-7.897033572797311
 30
0.0
 10
30.73926608751329
 20
-7.929916419703781
 30
0.0
 10
30.83486300450944
 20
-7.931290318708528
 30
0.0
  0
SPLINE
  5
12D
330
1F
100
AcDbEntity
  8
외형선
  6
Continuous
 62
     1
370
    15
100
AcDbSpline
210
0.0
220
0.0
230
1.0
 70
     8
 71
     3
 72
    10
 73
     6
 74
     0
 42
0.000000001
 43
0.00000001
 40
0.0
 40
0.0
 40
0.0
 40
0.0
 40
0.5
 40
0.5
 40
1.0
 40
1.0
 40
1.0
 40
1.0
 10
29.51532683545314
 20
-7.808203134919528
 30
0.0
 10
29.67141496331671
 20
-7.692454910787094
 30
0.0
 10
29.86101377526328
 20
-7.638717416530217
 30
0.0
 10
30.23906410390526
 20
-7.653380209800447
 30
0.0
 10
30.42042878314666
 20
-7.72009232511092
 30
0.0
 10
30.57031647018445
 20
-7.837522461685973
 30
0.0
  0
SPLINE
  5
12E
330
1F
100
AcDbEntity
  8
외형선
  6
Continuous
 62
     1
370
    15
100
AcDbSpline
210
0.0
220
0.0
230
1.0
 70
     8
 71
     3
 72
     8
 73
     4
 74
     0
 42
0.000000001
 43
0.00000001
 40
0.0
 40
0.0
 40
0.0
 40
0.0
 40
1.0
 40
1.0
 40
1.0
 40
1.0
 10
29.25238241003836
 20
-7.887681230304501
 30
0.0
 10
29.34521428599233
 20
-7.891467570619149
 30
0.0
 10
29.43854123587543
 20
-7.865144024099733
 30
0.0
 10
29.51532683545512
 20
-7.808203134924879
 30
0.0
  0
SPLINE
  5
12F
330
1F
100
AcDbEntity
  8
외형선
  6
Continuous
 62
     1
370
    15
100
AcDbSpline
210
0.0
220
0.0
230
1.0
 70
     8
 71
     3
 72
     8
 73
     4
 74
     0
 42
0.000000001
 43
0.00000001
 40
0.0
 40
0.0
 40
0.0
 40
0.0
 40
1.0
 40
1.0
 40
1.0
 40
1.0
 10
29.25238147040395
 20
-7.887681191979723
 30
0.0
 10
28.64133105177822
 20
-7.862758225519744
 30
0.0
 10
28.03081889991841
 20
-7.8285279429866
 30
0.0
 10
27.41707762669062
 20
-7.785000934995858
 30
0.0
  0
SPLINE
  5
130
330
1F
100
AcDbEntity
  8
외형선
  6
Continuous
 62
     1
370
    15
100
AcDbSpline
210
0.0
220
0.0
230
1.0
 70
     8
 71
     3
 72
     8
 73
     4
 74
     0
 42
0.000000001
 43
0.00000001
 40
0.0
 40
0.0
 40
0.0
 40
0.0
 40
1.0
 40
1.0
 40
1.0
 40
1.0
 10
27.15251255344559
 20
-7.676273183659378
 30
0.0
 10
27.22848019927044
 20
-7.74008679708166
 30
0.0
 10
27.32147770875972
 20
-7.7782209146744
 30
0.0
 10
27.41707771565642
 20
-7.785000941309673
 30
0.0
  0
SPLINE
  5
131
330
1F
100
AcDbEntity
  8
외형선
  6
Continuous
 62
     1
370
    15
100
AcDbSpline
210
0.0
220
0.0
230
1.0
 70
     8
 71
     3
 72
    10
 73
     6
 74
     0
 42
0.000000001
 43
0.00000001
 40
0.0
 40
0.0
 40
0.0
 40
0.0
 40
0.5
 40
0.5
 40
1.0
 40
1.0
 40
1.0
 40
1.0
 10
26.09761774109739
 20
-7.588347834924174
 30
0.0
 10
26.25368745940242
 20
-7.48201908835637
 30
0.0
 10
26.44328152505629
 20
-7.438398669043408
 30
0.0
 10
26.82132284714524
 20
-7.473604038149286
 30
0.0
 10
27.00264793564924
 20
-7.550385344410176
 30
0.0
 10
27.15251255344674
 20
-7.676273183660323
 30
0.0
  0
SPLINE
  5
132
330
1F
100
AcDbEntity
  8
외형선
  6
Continuous
 62
     1
370
    15
100
AcDbSpline
210
0.0
220
0.0
230
1.0
 70
     8
 71
     3
 72
     8
 73
     4
 74
     0
 42
0.000000001
 43
0.00000001
 40
0.0
 40
0.0
 40
0.0
 40
0.0
 40
1.0
 40
1.0
 40
1.0
 40
1.0
 10
25.83472977944219
 20
-7.652473681094652
 30
0.0
 10
25.92755219387184
 20
-7.661439599598765
 30
0.0
 10
26.02085836976476
 20
-7.640643231050347
 30
0.0
 10
26.09761774109927
 20
-7.588347834929522
 30
0.0
  0
SPLINE
  5
133
330
1F
100
AcDbEntity
  8
외형선
  6
Continuous
 62
     1
370
    15
100
AcDbSpline
210
0.0
220
0.0
230
1.0
 70
     8
 71
     3
 72
     8
 73
     4
 74
     0
 42
0.000000001
 43
0.00000001
 40
0.0
 40
0.0
 40
0.0
 40
0.0
 40
1.0
 40
1.0
 40
1.0
 40
1.0
 10
25.83472965435346
 20
-7.65247366901246
 30
0.0
 10
25.22132263329574
 20
-7.593223352035017
 30
0.0
 10
24.61209595580306
 20
-7.525056570360678
 30
0.0
 10
24.00008602015637
 20
-7.447977319405542
 30
0.0
  0
SPLINE
  5
134
330
1F
100
AcDbEntity
  8
외형선
  6
Continuous
 62
     1
370
    15
100
AcDbSpline
210
0.0
220
0.0
230
1.0
 70
     8
 71
     3
 72
     8
 73
     4
 74
     0
 42
0.000000001
 43
0.00000001
 40
0.0
 40
0.0
 40
0.0
 40
0.0
 40
1.0
 40
1.0
 40
1.0
 40
1.0
 10
23.73567606469358
 20
-7.326924518457964
 30
0.0
 10
23.81159053335446
 20
-7.393479750090956
 30
0.0
 10
23.90453775546211
 20
-7.435943546503569
 30
0.0
 10
24.00008612218333
 20
-7.447977332259446
 30
0.0
  0
SPLINE
  5
135
330
1F
100
AcDbEntity
  8
외형선
  6
Continuous
 62
     1
370
    15
100
AcDbSpline
210
0.0
220
0.0
230
1.0
 70
     8
 71
     3
 72
    10
 73
     6
 74
     0
 42
0.000000001
 43
0.00000001
 40
0.0
 40
0.0
 40
0.0
 40
0.0
 40
0.5
 40
0.5
 40
1.0
 40
1.0
 40
1.0
 40
1.0
 10
22.68148575882228
 20
-7.182552400652308
 30
0.0
 10
22.83744698069481
 20
-7.088256215239078
 30
0.0
 10
23.02693390740471
 20
-7.055799083668491
 30
0.0
 10
23.40476876134288
 20
-7.11067589077621
 30
0.0
 10
23.58594905693556
 20
-7.195656844998095
 30
0.0
 10
23.73567606469356
 20
-7.326924518457941
 30
0.0
  0
SPLINE
  5
136
330
1F
100
AcDbEntity
  8
외형선
  6
Continuous
 62
     1
370
    15
100
AcDbSpline
210
0.0
220
0.0
230
1.0
 70
     8
 71
     3
 72
     8
 73
     4
 74
     0
 42
0.000000001
 43
0.00000001
 40
0.0
 40
0.0
 40
0.0
 40
0.0
 40
1.0
 40
1.0
 40
1.0
 40
1.0
 10
22.41878529049728
 20
-7.229784754522032
 30
0.0
 10
22.5115538679761
 20
-7.243699334936957
 30
0.0
 10
22.60479219920218
 20
-7.228922325380944
 30
0.0
 10
22.68148575882415
 20
-7.182552400657409
 30
0.0
  0
SPLINE
  5
137
330
1F
100
AcDbEntity
  8
외형선
  6
Continuous
 62
     1
370
    15
100
AcDbSpline
210
0.0
220
0.0
230
1.0
 70
     8
 71
     3
 72
     8
 73
     4
 74
     0
 42
0.000000001
 43
0.00000001
 40
0.0
 40
0.0
 40
0.0
 40
0.0
 40
1.0
 40
1.0
 40
1.0
 40
1.0
 10
22.41878552282063
 20
-7.229784789369397
 30
0.0
 10
21.80649358547045
 20
-7.137945662025997
 30
0.0
 10
21.19431568998143
 20
-7.037576354315044
 30
0.0
 10
20.58548021371743
 20
-6.929254317564056
 30
0.0
  0
SPLINE
  5
138
330
1F
100
AcDbEntity
  8
외형선
  6
Continuous
 62
     1
370
    15
100
AcDbSpline
210
0.0
220
0.0
230
1.0
 70
     8
 71
     3
 72
     8
 73
     4
 74
     0
 42
0.000000001
 43
0.00000001
 40
0.0
 40
0.0
 40
0.0
 40
0.0
 40
1.0
 40
1.0
 40
1.0
 40
1.0
 10
20.32111043750585
 20
-6.798773401315213
 30
0.0
 10
20.39701029609286
 20
-6.866465412311075
 30
0.0
 10
20.48993549110428
 20
-6.912255309845097
 30
0.0
 10
20.58548020431612
 20
-6.929254315895378
 30
0.0
  0
SPLINE
  5
139
330
1F
100
AcDbEntity
  8
외형선
  6
Continuous
 62
     1
370
    15
100
AcDbSpline
210
0.0
220
0.0
230
1.0
 70
     8
 71
     3
 72
    10
 73
     6
 74
     0
 42
0.000000001
 43
0.00000001
 40
0.0
 40
0.0
 40
0.0
 40
0.0
 40
0.5000000000000001
 40
0.5000000000000001
 40
1.0
 40
1.0
 40
1.0
 40
1.0
 10
19.26667415949878
 20
-6.601060131280145
 30
0.0
 10
19.42271060350463
 20
-6.521134669122659
 30
0.0
 10
19.61225751361465
 20
-6.500741438790691
 30
0.0
 10
19.99015304971155
 20
-6.574075100370582
 30
0.0
 10
20.17136668809228
 20
-6.665223013731179
 30
0.0
 10
20.32111043750582
 20
-6.798773401315192
 30
0.0
  0
SPLINE
  5
13A
330
1F
100
AcDbEntity
  8
외형선
  6
Continuous
 62
     1
370
    15
100
AcDbSpline
210
0.0
220
0.0
230
1.0
 70
     8
 71
     3
 72
     8
 73
     4
 74
     0
 42
0.000000001
 43
0.00000001
 40
0.0
 40
0.0
 40
0.0
 40
0.0
 40
1.0
 40
1.0
 40
1.0
 40
1.0
 10
19.00384601738978
 20
-6.630141959627117
 30
0.0
 10
19.09665422409129
 20
-6.648696816257917
 30
0.0
 10
19.1899369843638
 20
-6.640366680639492
 30
0.0
 10
19.26667415950072
 20
-6.601060131285206
 30
0.0
  0
SPLINE
  5
13B
330
1F
100
AcDbEntity
  8
외형선
  6
Continuous
 62
     1
370
    15
100
AcDbSpline
210
0.0
220
0.0
230
1.0
 70
     8
 71
     3
 72
     8
 73
     4
 74
     0
 42
0.000000001
 43
0.00000001
 40
0.0
 40
0.0
 40
0.0
 40
0.0
 40
1.0
 40
1.0
 40
1.0
 40
1.0
 10
19.00384601738862
 20
-6.630141959627731
 30
0.0
 10
18.39261316479244
 20
-6.50794007304824
 30
0.0
 10
17.77996006842784
 20
-6.377832036856787
 30
0.0
 10
17.16912421469523
 20
-6.240510319231997
 30
0.0
  0
SPLINE
  5
13C
330
1F
100
AcDbEntity
  8
외형선
  6
Continuous
 62
     1
370
    15
100
AcDbSpline
210
0.0
220
0.0
230
1.0
 70
     8
 71
     3
 72
     8
 73
     4
 74
     0
 42
0.000000001
 43
0.00000001
 40
0.0
 40
0.0
 40
0.0
 40
0.0
 40
1.0
 40
1.0
 40
1.0
 40
1.0
 10
16.90456833574461
 20
-6.103991369658337
 30
0.0
 10
16.98053099476661
 20
-6.171109059094554
 30
0.0
 10
17.07352136075291
 20
-6.219017884631469
 30
0.0
 10
17.16912229160686
 20
-6.240509886907082
 30
0.0
  0
SPLINE
  5
13D
330
1F
100
AcDbEntity
  8
외형선
  6
Continuous
 62
     1
370
    15
100
AcDbSpline
210
0.0
220
0.0
230
1.0
 70
     8
 71
     3
 72
    10
 73
     6
 74
     0
 42
0.000000001
 43
0.00000001
 40
0.0
 40
0.0
 40
0.0
 40
0.0
 40
0.5
 40
0.5
 40
1.0
 40
1.0
 40
1.0
 40
1.0
 10
15.84952133941058
 20
-5.857799449872231
 30
0.0
 10
16.00564113477993
 20
-5.794291008208988
 30
0.0
 10
16.19523596553304
 20
-5.786584150415305
 30
0.0
 10
16.57328520536069
 20
-5.876550167475611
 30
0.0
 10
16.75466039926936
 20
-5.971538471695557
 30
0.0
 10
16.90456833574451
 20
-6.1039913696576
 30
0.0
  0
SPLINE
  5
13E
330
1F
100
AcDbEntity
  8
외형선
  6
Continuous
 62
     1
370
    15
100
AcDbSpline
210
0.0
220
0.0
230
1.0
 70
     8
 71
     3
 72
     8
 73
     4
 74
     0
 42
0.000000001
 43
0.00000001
 40
0.0
 40
0.0
 40
0.0
 40
0.0
 40
1.0
 40
1.0
 40
1.0
 40
1.0
 10
15.58657381584469
 20
-5.867880396342872
 30
0.0
 10
15.679415175544
 20
-5.890666373847668
 30
0.0
 10
15.77273745166843
 20
-5.889034598781641
 30
0.0
 10
15.8495213394125
 20
-5.857799449876632
 30
0.0
  0
SPLINE
  5
13F
330
1F
100
AcDbEntity
  8
외형선
  6
Continuous
 62
     1
370
    15
100
AcDbSpline
210
0.0
220
0.0
230
1.0
 70
     8
 71
     3
 72
     8
 73
     4
 74
     0
 42
0.000000001
 43
0.00000001
 40
0.0
 40
0.0
 40
0.0
 40
0.0
 40
1.0
 40
1.0
 40
1.0
 40
1.0
 10
15.58657524667248
 20
-5.867880747510601
 30
0.0
 10
14.97670257967361
 20
-5.718200217359597
 30
0.0
 10
14.36388071573388
 20
-5.561364659681274
 30
0.0
 10
13.75134887039935
 20
-5.398175222640426
 30
0.0
  0
SPLINE
  5
140
330
1F
100
AcDbEntity
  8
외형선
  6
Continuous
 62
     1
370
    15
100
AcDbSpline
210
0.0
220
0.0
230
1.0
 70
     8
 71
     3
 72
     8
 73
     4
 74
     0
 42
0.000000001
 43
0.00000001
 40
0.0
 40
0.0
 40
0.0
 40
0.0
 40
1.0
 40
1.0
 40
1.0
 40
1.0
 10
13.48678273712043
 20
-5.25894553947865
 30
0.0
 10
13.56274847752221
 20
-5.323840588684845
 30
0.0
 10
13.6557449208105
 20
-5.372704619290982
 30
0.0
 10
13.75134743199013
 20
-5.398174839425773
 30
0.0
  0
SPLINE
  5
141
330
1F
100
AcDbEntity
  8
외형선
  6
Continuous
 62
     1
370
    15
100
AcDbSpline
210
0.0
220
0.0
230
1.0
 70
     8
 71
     3
 72
    10
 73
     6
 74
     0
 42
0.000000001
 43
0.00000001
 40
0.0
 40
0.0
 40
0.0
 40
0.0
 40
0.5
 40
0.5
 40
1.0
 40
1.0
 40
1.0
 40
1.0
 10
12.4318585637218
 20
-4.971235209097393
 30
0.0
 10
12.58793197250065
 20
-4.925541828358031
 30
0.0
 10
12.77752055376008
 20
-4.930348498772881
 30
0.0
 10
13.15555475244713
 20
-5.034446955445929
 30
0.0
 10
13.33690192059258
 20
-5.130907256534273
 30
0.0
 10
13.4867827371204
 20
-5.258945539478641
 30
0.0
  0
SPLINE
  5
142
330
1F
100
AcDbEntity
  8
외형선
  6
Continuous
 62
     1
370
    15
100
AcDbSpline
210
0.0
220
0.0
230
1.0
 70
     8
 71
     3
 72
     8
 73
     4
 74
     0
 42
0.000000001
 43
0.00000001
 40
0.0
 40
0.0
 40
0.0
 40
0.0
 40
1.0
 40
1.0
 40
1.0
 40
1.0
 10
12.16895563421024
 20
-4.962289197235362
 30
0.0
 10
12.2617751941936
 20
-4.988699232901207
 30
0.0
 10
12.35508712147155
 20
-4.993711470548925
 30
0.0
 10
12.43185856372377
 20
-4.971235209101784
 30
0.0
  0
SPLINE
  5
143
330
1F
100
AcDbEntity
  8
외형선
  6
Continuous
 62
     1
370
    15
100
AcDbSpline
210
0.0
220
0.0
230
1.0
 70
     8
 71
     3
 72
     8
 73
     4
 74
     0
 42
0.000000001
 43
0.00000001
 40
0.0
 40
0.0
 40
0.0
 40
0.0
 40
1.0
 40
1.0
 40
1.0
 40
1.0
 10
12.1689582425449
 20
-4.962289939388422
 30
0.0
 10
11.5579103839038
 20
-4.788427942625751
 30
0.0
 10
10.94783700004165
 20
-4.608801172228612
 30
0.0
 10
10.33431076933095
 20
-4.423591454624771
 30
0.0
  0
SPLINE
  5
144
330
1F
100
AcDbEntity
  8
외형선
  6
Continuous
 62
     1
370
    15
100
AcDbSpline
210
0.0
220
0.0
230
1.0
 70
     8
 71
     3
 72
     8
 73
     4
 74
     0
 42
0.000000001
 43
0.00000001
 40
0.0
 40
0.0
 40
0.0
 40
0.0
 40
1.0
 40
1.0
 40
1.0
 40
1.0
 10
10.06990892756489
 20
-4.285018527948564
 30
0.0
 10
10.14581685444864
 20
-4.346106969400531
 30
0.0
 10
10.23876131611652
 20
-4.394747231900599
 30
0.0
 10
10.33431076902444
 20
-4.423591454535043
 30
0.0
  0
SPLINE
  5
145
330
1F
100
AcDbEntity
  8
외형선
  6
Continuous
 62
     1
370
    15
100
AcDbSpline
210
0.0
220
0.0
230
1.0
 70
     8
 71
     3
 72
     8
 73
     4
 74
     0
 42
0.000000001
 43
0.00000001
 40
0.9244919742050319
 40
0.9244919742050319
 40
0.9244919742050319
 40
0.9244919742050319
 40
1.0
 40
1.0
 40
1.0
 40
1.0
 10
10.0
 20
-4.232173138797572
 30
0.0
 10
10.02396599108589
 20
-4.2491906637682
 30
0.0
 10
10.04729623084371
 20
-4.266820502308369
 30
0.0
 10
10.0699089275649
 20
-4.285018527948559
 30
0.0
  0
SPLINE
  5
153
330
1F
100
AcDbEntity
  8
외형선
  6
Continuous
 62
     1
370
    15
100
AcDbSpline
210
0.0
220
0.0
230
1.0
 70
     8
 71
     3
 72
     8
 73
     4
 74
     0
 42
0.000000001
 43
0.00000001
 40
0.0
 40
0.0
 40
0.0
 40
0.0
 40
0.7552694458702875
 40
0.7552694458702875
 40
0.7552694458702875
 40
0.7552694458702875
 10
11.38447756392422
 20
5.728062495735979
 30
0.0
 10
10.92428148474387
 20
5.844201841364305
 30
0.0
 10
10.46232476745523
 20
5.956643950303813
 30
0.0
 10
10.00000000000001
 20
6.065038900588756
 30
0.0
  0
SPLINE
  5
154
330
1F
100
AcDbEntity
  8
외형선
  6
Continuous
 62
     1
370
    15
100
AcDbSpline
210
0.0
220
0.0
230
1.0
 70
     8
 71
     3
 72
     8
 73
     4
 74
     0
 42
0.000000001
 43
0.00000001
 40
0.0
 40
0.0
 40
0.0
 40
0.0
 40
1.0
 40
1.0
 40
1.0
 40
1.0
 10
11.64877930078579
 20
5.589296608821243
 30
0.0
 10
11.57290754729078
 20
5.6552502995094
 30
0.0
 10
11.48000006309785
 20
5.703955555667882
 30
0.0
 10
11.38447538717732
 20
5.728063045083313
 30
0.0
  0
SPLINE
  5
155
330
1F
100
AcDbEntity
  8
외형선
  6
Continuous
 62
     1
370
    15
100
AcDbSpline
210
0.0
220
0.0
230
1.0
 70
     8
 71
     3
 72
    10
 73
     6
 74
     0
 42
0.000000001
 43
0.00000001
 40
0.0
 40
0.0
 40
0.0
 40
0.0
 40
0.5
 40
0.5
 40
1.0
 40
1.0
 40
1.0
 40
1.0
 10
12.7026661632259
 20
5.316150412385089
 30
0.0
 10
12.54671917185243
 20
5.263611204525416
 30
0.0
 10
12.35726694222033
 20
5.26366907987395
 30
0.0
 10
11.97954432516714
 20
5.362868730855706
 30
0.0
 10
11.79844642264604
 20
5.45919418457702
 30
0.0
 10
11.64877930078579
 20
5.589296608821237
 30
0.0
  0
SPLINE
  5
156
330
1F
100
AcDbEntity
  8
외형선
  6
Continuous
 62
     1
370
    15
100
AcDbSpline
210
0.0
220
0.0
230
1.0
 70
     8
 71
     3
 72
     8
 73
     4
 74
     0
 42
0.000000001
 43
0.00000001
 40
0.0
 40
0.0
 40
0.0
 40
0.0
 40
1.0
 40
1.0
 40
1.0
 40
1.0
 10
12.96536716533793
 20
5.31445713065284
 30
0.0
 10
12.87259855321538
 20
5.339520561201155
 30
0.0
 10
12.7793610128906
 20
5.341989235009762
 30
0.0
 10
12.70266616322393
 20
5.316150412389065
 30
0.0
  0
SPLINE
  5
157
330
1F
100
AcDbEntity
  8
외형선
  6
Continuous
 62
     1
370
    15
100
AcDbSpline
210
0.0
220
0.0
230
1.0
 70
     8
 71
     3
 72
     8
 73
     4
 74
     0
 42
0.000000001
 43
0.00000001
 40
0.0
 40
0.0
 40
0.0
 40
0.0
 40
1.0
 40
1.0
 40
1.0
 40
1.0
 10
14.79926791765344
 20
4.801165051216569
 30
0.0
 10
14.18844574290419
 20
4.978064648165186
 30
0.0
 10
13.57606802862251
 20
5.149463187299584
 30
0.0
 10
12.96536793082366
 20
5.314456923840799
 30
0.0
  0
SPLINE
  5
158
330
1F
100
AcDbEntity
  8
외형선
  6
Continuous
 62
     1
370
    15
100
AcDbSpline
210
0.0
220
0.0
230
1.0
 70
     8
 71
     3
 72
     8
 73
     4
 74
     0
 42
0.000000001
 43
0.00000001
 40
0.0
 40
0.0
 40
0.0
 40
0.0
 40
1.0
 40
1.0
 40
1.0
 40
1.0
 10
15.0637149495024
 20
4.661887211116886
 30
0.0
 10
14.98778897982008
 20
4.724598451817521
 30
0.0
 10
14.89483232915839
 20
4.773488742562908
 30
0.0
 10
14.79926334154985
 20
4.801166376500161
 30
0.0
  0
SPLINE
  5
159
330
1F
100
AcDbEntity
  8
외형선
  6
Continuous
 62
     1
370
    15
100
AcDbSpline
210
0.0
220
0.0
230
1.0
 70
     8
 71
     3
 72
    10
 73
     6
 74
     0
 42
0.000000001
 43
0.00000001
 40
0.0
 40
0.0
 40
0.0
 40
0.0
 40
0.5
 40
0.5
 40
1.0
 40
1.0
 40
1.0
 40
1.0
 10
16.11847319088051
 20
4.350722141874343
 30
0.0
 10
15.96240972000354
 20
4.316962059667714
 30
0.0
 10
15.77286235604911
 20
4.329842151946342
 30
0.0
 10
15.39490254543779
 20
4.441830898172737
 30
0.0
 10
15.21356435467951
 20
4.538118727734624
 30
0.0
 10
15.06371494950241
 20
4.661887211116895
 30
0.0
  0
SPLINE
  5
15A
330
1F
100
AcDbEntity
  8
외형선
  6
Continuous
 62
     1
370
    15
100
AcDbSpline
210
0.0
220
0.0
230
1.0
 70
     8
 71
     3
 72
     8
 73
     4
 74
     0
 42
0.000000001
 43
0.00000001
 40
0.0
 40
0.0
 40
0.0
 40
0.0
 40
1.0
 40
1.0
 40
1.0
 40
1.0
 10
16.38137982523201
 20
4.329773718541666
 30
0.0
 10
16.28855210193512
 20
4.358143859904732
 30
0.0
 10
16.19524460260538
 20
4.367329546265408
 30
0.0
 10
16.11847319087848
 20
4.350722141878026
 30
0.0
  0
SPLINE
  5
15B
330
1F
100
AcDbEntity
  8
외형선
  6
Continuous
 62
     1
370
    15
100
AcDbSpline
210
0.0
220
0.0
230
1.0
 70
     8
 71
     3
 72
     8
 73
     4
 74
     0
 42
0.000000001
 43
0.00000001
 40
0.0
 40
0.0
 40
0.0
 40
0.0
 40
1.0
 40
1.0
 40
1.0
 40
1.0
 10
18.21693092932524
 20
3.755441070397963
 30
0.0
 10
17.60402941320365
 20
3.951656005370007
 30
0.0
 10
16.99109976734436
 20
4.143430226118602
 30
0.0
 10
16.38138249361911
 20
4.329772903025729
 30
0.0
  0
SPLINE
  5
15C
330
1F
100
AcDbEntity
  8
외형선
  6
Continuous
 62
     1
370
    15
100
AcDbSpline
210
0.0
220
0.0
230
1.0
 70
     8
 71
     3
 72
     8
 73
     4
 74
     0
 42
0.000000001
 43
0.00000001
 40
0.0
 40
0.0
 40
0.0
 40
0.0
 40
1.0
 40
1.0
 40
1.0
 40
1.0
 10
18.4810438139414
 20
3.619119844380135
 30
0.0
 10
18.40507380142827
 20
3.677077027475345
 30
0.0
 10
18.31207427202877
 20
3.724982127940633
 30
0.0
 10
18.21646915257782
 20
3.755588903252739
 30
0.0
  0
SPLINE
  5
15D
330
1F
100
AcDbEntity
  8
외형선
  6
Continuous
 62
     1
370
    15
100
AcDbSpline
210
0.0
220
0.0
230
1.0
 70
     8
 71
     3
 72
    10
 73
     6
 74
     0
 42
0.000000001
 43
0.00000001
 40
0.0
 40
0.0
 40
0.0
 40
0.0
 40
0.5
 40
0.5
 40
1.0
 40
1.0
 40
1.0
 40
1.0
 10
19.53607550130518
 20
3.278377480624299
 30
0.0
 10
19.37998254444687
 20
3.2639494646683
 30
0.0
 10
19.19037398884426
 20
3.28901538645667
 30
0.0
 10
18.81230495906147
 20
3.410847987676784
 30
0.0
 10
18.63093922403215
 20
3.50476530578819
 30
0.0
 10
18.4810438139414
 20
3.619119844380131
 30
0.0
  0
SPLINE
  5
15E
330
1F
100
AcDbEntity
  8
외형선
  6
Continuous
 62
     1
370
    15
100
AcDbSpline
210
0.0
220
0.0
230
1.0
 70
     8
 71
     3
 72
     8
 73
     4
 74
     0
 42
0.000000001
 43
0.00000001
 40
0.0
 40
0.0
 40
0.0
 40
0.0
 40
1.0
 40
1.0
 40
1.0
 40
1.0
 10
19.79901652391629
 20
3.239071322971796
 30
0.0
 10
19.70618358012907
 20
3.269951895887127
 30
0.0
 10
19.61285800528923
 20
3.285474656662156
 30
0.0
 10
19.53607550130315
 20
3.278377480627477
 30
0.0
  0
SPLINE
  5
15F
330
1F
100
AcDbEntity
  8
외형선
  6
Continuous
 62
     1
370
    15
100
AcDbSpline
210
0.0
220
0.0
230
1.0
 70
     8
 71
     3
 72
     8
 73
     4
 74
     0
 42
0.000000001
 43
0.00000001
 40
0.0
 40
0.0
 40
0.0
 40
0.0
 40
1.0
 40
1.0
 40
1.0
 40
1.0
 10
21.63420504931053
 20
2.617735378281626
 30
0.0
 10
21.02054675969155
 20
2.828412605030052
 30
0.0
 10
20.41089374115992
 20
3.035532382438242
 30
0.0
 10
19.7990165296841
 20
3.239071321053566
 30
0.0
  0
SPLINE
  5
160
330
1F
100
AcDbEntity
  8
외형선
  6
Continuous
 62
     1
370
    15
100
AcDbSpline
210
0.0
220
0.0
230
1.0
 70
     8
 71
     3
 72
     8
 73
     4
 74
     0
 42
0.000000001
 43
0.00000001
 40
0.0
 40
0.0
 40
0.0
 40
0.0
 40
1.0
 40
1.0
 40
1.0
 40
1.0
 10
21.8987287860843
 20
2.487349803682119
 30
0.0
 10
21.82277577556597
 20
2.539145156690891
 30
0.0
 10
21.72979153526535
 20
2.584919239210182
 30
0.0
 10
21.63420504831333
 20
2.617735378625846
 30
0.0
  0
SPLINE
  5
161
330
1F
100
AcDbEntity
  8
외형선
  6
Continuous
 62
     1
370
    15
100
AcDbSpline
210
0.0
220
0.0
230
1.0
 70
     8
 71
     3
 72
    10
 73
     6
 74
     0
 42
0.000000001
 43
0.00000001
 40
0.0
 40
0.0
 40
0.0
 40
0.0
 40
0.5
 40
0.5
 40
1.0
 40
1.0
 40
1.0
 40
1.0
 10
22.95342016531875
 20
2.125120374432644
 30
0.0
 10
22.7973839167639
 20
2.130406738683784
 30
0.0
 10
22.60782204599997
 20
2.167108745348041
 30
0.0
 10
22.22983941819066
 20
2.295888601729111
 30
0.0
 10
22.0485550239319
 20
2.385177383835512
 30
0.0
 10
21.89872878608431
 20
2.487349803682099
 30
0.0
  0
SPLINE
  5
162
330
1F
100
AcDbEntity
  8
외형선
  6
Continuous
 62
     1
370
    15
100
AcDbSpline
210
0.0
220
0.0
230
1.0
 70
     8
 71
     3
 72
     8
 73
     4
 74
     0
 42
0.000000001
 43
0.00000001
 40
0.0
 40
0.0
 40
0.0
 40
0.0
 40
1.0
 40
1.0
 40
1.0
 40
1.0
 10
23.21625157127333
 20
2.068493760692596
 30
0.0
 10
23.12344537960644
 20
2.101071415727963
 30
0.0
 10
23.03015955273005
 20
2.122520514735403
 30
0.0
 10
22.95342016531675
 20
2.125120374435154
 30
0.0
  0
SPLINE
  5
163
330
1F
100
AcDbEntity
  8
외형선
  6
Continuous
 62
     1
370
    15
100
AcDbSpline
210
0.0
220
0.0
230
1.0
 70
     8
 71
     3
 72
     8
 73
     4
 74
     0
 42
0.000000001
 43
0.00000001
 40
0.0
 40
0.0
 40
0.0
 40
0.0
 40
1.0
 40
1.0
 40
1.0
 40
1.0
 10
25.05031690239868
 20
1.416733879213866
 30
0.0
 10
24.43929826960414
 20
1.635878688804937
 30
0.0
 10
23.82958015791507
 20
1.853197703868238
 30
0.0
 10
23.21625155592198
 20
2.068493766081793
 30
0.0
  0
SPLINE
  5
164
330
1F
100
AcDbEntity
  8
외형선
  6
Continuous
 62
     1
370
    15
100
AcDbSpline
210
0.0
220
0.0
230
1.0
 70
     8
 71
     3
 72
     8
 73
     4
 74
     0
 42
0.000000001
 43
0.00000001
 40
0.0
 40
0.0
 40
0.0
 40
0.0
 40
1.0
 40
1.0
 40
1.0
 40
1.0
 10
25.31461718562016
 20
1.29553058508304
 30
0.0
 10
25.23874166420793
 20
1.3399197476299
 30
0.0
 10
25.14583045853039
 20
1.3824774769395
 30
0.0
 10
25.05031701210041
 20
1.41673383987006
 30
0.0
  0
SPLINE
  5
165
330
1F
100
AcDbEntity
  8
외형선
  6
Continuous
 62
     1
370
    15
100
AcDbSpline
210
0.0
220
0.0
230
1.0
 70
     8
 71
     3
 72
    10
 73
     6
 74
     0
 42
0.000000001
 43
0.00000001
 40
0.0
 40
0.0
 40
0.0
 40
0.0
 40
0.5
 40
0.5
 40
1.0
 40
1.0
 40
1.0
 40
1.0
 10
26.36844763250534
 20
0.9203317749851886
 30
0.0
 10
26.21253372725917
 20
0.9452557756600091
 30
0.0
 10
26.02310865442222
 20
0.9927507767923679
 30
0.0
 10
25.64539171089066
 20
1.125438367705413
 30
0.0
 10
25.46427089290364
 20
1.207979256081231
 30
0.0
 10
25.31461718562017
 20
1.29553058508304
 30
0.0
  0
SPLINE
  5
166
330
1F
100
AcDbEntity
  8
외형선
  6
Continuous
 62
     1
370
    15
100
AcDbSpline
210
0.0
220
0.0
230
1.0
 70
     8
 71
     3
 72
     8
 73
     4
 74
     0
 42
0.000000001
 43
0.00000001
 40
0.0
 40
0.0
 40
0.0
 40
0.0
 40
1.0
 40
1.0
 40
1.0
 40
1.0
 10
26.63113842291001
 20
0.8476592234856775
 30
0.0
 10
26.53837240298439
 20
0.8811769193217192
 30
0.0
 10
26.44513670006264
 20
0.9080724555337059
 30
0.0
 10
26.36844763250339
 20
0.9203317749870221
 30
0.0
  0
SPLINE
  5
167
330
1F
100
AcDbEntity
  8
외형선
  6
Continuous
 62
     1
370
    15
100
AcDbSpline
210
0.0
220
0.0
230
1.0
 70
     8
 71
     3
 72
     8
 73
     4
 74
     0
 42
0.000000001
 43
0.00000001
 40
0.0
 40
0.0
 40
0.0
 40
0.0
 40
1.0
 40
1.0
 40
1.0
 40
1.0
 10
28.72951053775612
 20
0.0731185031861743
 30
0.0
 10
28.6535780924582
 20
0.1090720005349901
 30
0.0
 10
28.56061936716964
 20
0.147391985359936
 30
0.0
 10
28.46504508885573
 20
0.1822190676019489
 30
0.0
  0
SPLINE
  5
168
330
1F
100
AcDbEntity
  8
외형선
  6
Continuous
 62
     1
370
    15
100
AcDbSpline
210
0.0
220
0.0
230
1.0
 70
     8
 71
     3
 72
    10
 73
     6
 74
     0
 42
0.000000001
 43
0.00000001
 40
0.0
 40
0.0
 40
0.0
 40
0.0
 40
0.5
 40
0.5
 40
1.0
 40
1.0
 40
1.0
 40
1.0
 10
29.7842698152812
 20
-0.3070588017143654
 30
0.0
 10
29.62817642953622
 20
-0.2629332909023399
 30
0.0
 10
29.4385711331572
 20
-0.2055806510681282
 30
0.0
 10
29.06058502384454
 20
-0.0718241892467868
 30
0.0
 10
28.87933360803743
 20
0.0021782965456933
 30
0.0
 10
28.72951053775613
 20
0.0731185031861706
 30
0.0
  0
SPLINE
  5
16A
330
1F
100
AcDbEntity
  8
외형선
  6
Continuous
 62
     1
370
    15
100
AcDbSpline
210
0.0
220
0.0
230
1.0
 70
     8
 71
     3
 72
    12
 73
     8
 74
     0
 42
0.000000001
 43
0.00000001
 40
0.0
 40
0.0
 40
0.0
 40
0.0
 40
0.2499999999999999
 40
0.2499999999999999
 40
0.4999999999999998
 40
0.4999999999999998
 40
1.0
 40
1.0
 40
1.0
 40
1.0
 10
28.72951045777612
 20
0.0731196869616756
 30
0.0
 10
28.69998621769234
 20
0.5101048783605129
 30
0.0
 10
28.67180560361815
 20
0.9400908782081862
 30
0.0
 10
28.61470038757052
 20
1.79130860438599
 30
0.0
 10
28.58513248571249
 20
2.215659495984471
 30
0.0
 10
28.49513058972707
 20
3.457483043348173
 30
0.0
 10
28.43344473739698
 20
4.241714226674592
 30
0.0
 10
28.37511908169448
 20
4.919917254924518
 30
0.0
  0
SPLINE
  5
16B
330
1F
100
AcDbEntity
  8
외형선
  6
Continuous
 62
     1
370
    15
100
AcDbSpline
210
0.0
220
0.0
230
1.0
 70
     8
 71
     3
 72
    10
 73
     6
 74
     0
 42
0.000000001
 43
0.00000001
 40
0.0
 40
0.0
 40
0.0
 40
0.0
 40
0.5
 40
0.5
 40
1.0
 40
1.0
 40
1.0
 40
1.0
 10
23.21625156035888
 20
2.068493918634484
 30
0.0
 10
23.15759265363235
 20
2.917243802674866
 30
0.0
 10
23.0960894428908
 20
3.740117340249953
 30
0.0
 10
22.97740469667195
 20
5.198738383636681
 30
0.0
 10
22.92260180067755
 20
5.828681483412317
 30
0.0
 10
22.86338030200992
 20
6.356817990747775
 30
0.0
  0
SPLINE
  5
16C
330
1F
100
AcDbEntity
  8
외형선
  6
Continuous
 62
     1
370
    15
100
AcDbSpline
210
0.0
220
0.0
230
1.0
 70
     8
 71
     3
 72
    12
 73
     8
 74
     0
 42
0.000000001
 43
0.00000001
 40
0.0
 40
0.0
 40
0.0
 40
0.0
 40
0.5000000000000001
 40
0.5000000000000001
 40
0.75
 40
0.75
 40
1.0
 40
1.0
 40
1.0
 40
1.0
 10
25.05031701818105
 20
1.416733748329309
 30
0.0
 10
24.99334540227601
 20
2.273769816035146
 30
0.0
 10
24.93234459013721
 20
3.124276655070877
 30
0.0
 10
24.84211430183556
 20
4.283183937315967
 30
0.0
 10
24.81226764704088
 20
4.650103632749205
 30
0.0
 10
24.7542391503406
 20
5.331525327372901
 30
0.0
 10
24.72667692365214
 20
5.644207564427446
 30
0.0
 10
24.69777881748601
 20
5.934781491805277
 30
0.0
  0
SPLINE
  5
16D
330
1F
100
AcDbEntity
  8
외형선
  6
Continuous
 62
     1
370
    15
100
AcDbSpline
210
0.0
220
0.0
230
1.0
 70
     8
 71
     3
 72
    14
 73
    10
 74
     0
 42
0.000000001
 43
0.00000001
 40
0.0
 40
0.0
 40
0.0
 40
0.0
 40
0.2500000000000001
 40
0.2500000000000001
 40
0.5000000000000002
 40
0.5000000000000002
 40
0.7500000000000001
 40
0.7500000000000001
 40
1.0
 40
1.0
 40
1.0
 40
1.0
 10
26.36844763250328
 20
0.9203317750167385
 30
0.0
 10
26.34004011640929
 20
1.349022390391367
 30
0.0
 10
26.31151755603489
 20
1.774186648223413
 30
0.0
 10
26.25221762319604
 20
2.61488519391013
 30
0.0
 10
26.22192426154569
 20
3.027944853125024
 30
0.0
 10
26.16131400080232
 20
3.821556985264027
 30
0.0
 10
26.13100313270012
 20
4.202030317667625
 30
0.0
 10
26.07163558475452
 20
4.915090950445594
 30
0.0
 10
26.04298670034466
 20
5.246215905895864
 30
0.0
 10
26.01463579241825
 20
5.551176479630606
 30
0.0
  0
SPLINE
  5
16E
330
1F
100
AcDbEntity
  8
외형선
  6
Continuous
 62
     1
370
    15
100
AcDbSpline
210
0.0
220
0.0
230
1.0
 70
     8
 71
     3
 72
    12
 73
     8
 74
     0
 42
0.000000001
 43
0.00000001
 40
0.0
 40
0.0
 40
0.0
 40
0.0
 40
0.5
 40
0.5
 40
0.75
 40
0.75
 40
1.0
 40
1.0
 40
1.0
 40
1.0
 10
25.3146167067997
 20
1.295537752502613
 30
0.0
 10
25.25771204191848
 20
2.147338288182089
 30
0.0
 10
25.1965579240315
 20
2.995711960985239
 30
0.0
 10
25.10581457341176
 20
4.15530407029095
 30
0.0
 10
25.07575177110689
 20
4.523073043566037
 30
0.0
 10
25.01722789369409
 20
5.207082777514588
 30
0.0
 10
24.98948218282742
 20
5.521101021521254
 30
0.0
 10
24.9605617499687
 20
5.812818166850144
 30
0.0
  0
SPLINE
  5
16F
330
1F
100
AcDbEntity
  8
외형선
  6
Continuous
 62
     1
370
    15
100
AcDbSpline
210
0.0
220
0.0
230
1.0
 70
     8
 71
     3
 72
    12
 73
     8
 74
     0
 42
0.000000001
 43
0.00000001
 40
0.0
 40
0.0
 40
0.0
 40
0.0
 40
0.5
 40
0.5
 40
0.75
 40
0.75
 40
1.0
 40
1.0
 40
1.0
 40
1.0
 10
22.95341998603946
 20
2.125122926935516
 30
0.0
 10
22.89432117920723
 20
2.966546793157318
 30
0.0
 10
22.83250882771501
 20
3.779711251622057
 30
0.0
 10
22.74333669149135
 20
4.85631941189503
 30
0.0
 10
22.71441372196301
 20
5.190891644864123
 30
0.0
 10
22.65801583489158
 20
5.80512207037183
 30
0.0
 10
22.62871672049766
 20
6.0912209597945
 30
0.0
 10
22.59888220839018
 20
6.348977367670817
 30
0.0
  0
SPLINE
  5
170
330
1F
100
AcDbEntity
  8
외형선
  6
Continuous
 62
     1
370
    15
100
AcDbSpline
210
0.0
220
0.0
230
1.0
 70
     8
 71
     3
 72
    12
 73
     8
 74
     0
 42
0.000000001
 43
0.00000001
 40
0.0
 40
0.0
 40
0.0
 40
0.0
 40
0.5
 40
0.5
 40
0.75
 40
0.75
 40
1.0
 40
1.0
 40
1.0
 40
1.0
 10
19.79901647008432
 20
3.23907204667043
 30
0.0
 10
19.7388085208141
 20
4.048468239939973
 30
0.0
 10
19.67816258054535
 20
4.796881454406512
 30
0.0
 10
19.59371915464205
 20
5.745646671524144
 30
0.0
 10
19.56515329723355
 20
6.039228277852692
 30
0.0
 10
19.50610019663863
 20
6.574108491247327
 30
0.0
 10
19.47596126921243
 20
6.814057079734463
 30
0.0
 10
19.44583226190048
 20
7.02090547739706
 30
0.0
  0
SPLINE
  5
171
330
1F
100
AcDbEntity
  8
외형선
  6
Continuous
 62
     1
370
    15
100
AcDbSpline
210
0.0
220
0.0
230
1.0
 70
     8
 71
     3
 72
    12
 73
     8
 74
     0
 42
0.000000001
 43
0.00000001
 40
0.0
 40
0.0
 40
0.0
 40
0.0
 40
0.5000000000000002
 40
0.5000000000000002
 40
0.7500000000000001
 40
0.7500000000000001
 40
1.0
 40
1.0
 40
1.0
 40
1.0
 10
21.63420498878612
 20
2.617736211370125
 30
0.0
 10
21.57456454217124
 20
3.452128939023975
 30
0.0
 10
21.5131702191192
 20
4.24410261505264
 30
0.0
 10
21.42591447914023
 20
5.274446076520193
 30
0.0
 10
21.39832792387008
 20
5.589872847840708
 30
0.0
 10
21.34078570706425
 20
6.176212803293871
 30
0.0
 10
21.31111246387135
 20
6.445527545735294
 30
0.0
 10
21.28112792911601
 20
6.684290324872057
 30
0.0
  0
SPLINE
  5
172
330
1F
100
AcDbEntity
  8
외형선
  6
Continuous
 62
     1
370
    15
100
AcDbSpline
210
0.0
220
0.0
230
1.0
 70
     8
 71
     3
 72
    12
 73
     8
 74
     0
 42
0.000000001
 43
0.00000001
 40
0.0
 40
0.0
 40
0.0
 40
0.0
 40
0.5000000000000001
 40
0.5000000000000001
 40
0.75
 40
0.75
 40
1.0
 40
1.0
 40
1.0
 40
1.0
 10
21.8987287860251
 20
2.487349804506507
 30
0.0
 10
21.83896676372596
 20
3.31935002568931
 30
0.0
 10
21.77722471631512
 20
4.112073935359784
 30
0.0
 10
21.68923154609477
 20
5.146525115265923
 30
0.0
 10
21.66140915622678
 20
5.463576566107614
 30
0.0
 10
21.60385071058618
 20
6.052325707869126
 30
0.0
 10
21.57412380232536
 20
6.323412094411382
 30
0.0
 10
21.54404255350806
 20
6.56437425742961
 30
0.0
  0
SPLINE
  5
17C
330
1F
100
AcDbEntity
  8
외형선
  6
Continuous
 62
     1
370
    15
100
AcDbSpline
210
0.0
220
0.0
230
1.0
 70
     8
 71
     3
 72
    10
 73
     6
 74
     0
 42
0.000000001
 43
0.00000001
 40
0.0
 40
0.0
 40
0.0
 40
0.0
 40
0.5
 40
0.5
 40
1.0
 40
1.0
 40
1.0
 40
1.0
 10
19.53607550129509
 20
3.278377480757724
 30
0.0
 10
19.4755669223682
 20
4.078621274141012
 30
0.0
 10
19.41478573641695
 20
4.815742376396505
 30
0.0
 10
19.30230818226432
 20
6.056010418225244
 30
0.0
 10
19.24176482046649
 20
6.591261552111857
 30
0.0
 10
19.18124555236037
 20
6.991506190438822
 30
0.0
  0
SPLINE
  5
17E
330
1F
100
AcDbEntity
  8
외형선
  6
Continuous
 62
     1
370
    15
100
AcDbSpline
210
0.0
220
0.0
230
1.0
 70
     8
 71
     3
 72
    12
 73
     8
 74
     0
 42
0.000000001
 43
0.00000001
 40
0.0
 40
0.0
 40
0.0
 40
0.0
 40
0.2500000000000001
 40
0.2500000000000001
 40
0.5000000000000001
 40
0.5000000000000001
 40
1.0
 40
1.0
 40
1.0
 40
1.0
 10
18.48104381390875
 20
3.619119844802053
 30
0.0
 10
18.45079253796199
 20
4.009871507973475
 30
0.0
 10
18.42064258648527
 20
4.382950430195544
 30
0.0
 10
18.36178947534994
 20
5.079253933443256
 30
0.0
 10
18.33380546215776
 20
5.400065926593017
 30
0.0
 10
18.24787291542007
 20
6.292392806955754
 30
0.0
 10
18.1865878668735
 20
6.794065725939247
 30
0.0
 10
18.12624922048543
 20
7.15558845061565
 30
0.0
  0
SPLINE
  5
17F
330
1F
100
AcDbEntity
  8
외형선
  6
Continuous
 62
     1
370
    15
100
AcDbSpline
210
0.0
220
0.0
230
1.0
 70
     8
 71
     3
 72
    12
 73
     8
 74
     0
 42
0.000000001
 43
0.00000001
 40
0.0
 40
0.0
 40
0.0
 40
0.0
 40
0.2499999999999999
 40
0.2499999999999999
 40
0.4999999999999998
 40
0.4999999999999998
 40
1.0
 40
1.0
 40
1.0
 40
1.0
 10
16.38138014005293
 20
4.329769805730582
 30
0.0
 10
16.35158211744688
 20
4.700121683402161
 30
0.0
 10
16.32225344680711
 20
5.048234944861528
 30
0.0
 10
16.26567060003506
 20
5.688163906471181
 30
0.0
 10
16.23739273625196
 20
5.984171028219436
 30
0.0
 10
16.14902262551875
 20
6.797136800454634
 30
0.0
 10
16.08749588634272
 20
7.228160705197829
 30
0.0
 10
16.02836695996713
 20
7.512668055734114
 30
0.0
  0
SPLINE
  5
180
330
1F
100
AcDbEntity
  8
외형선
  6
Continuous
 62
     1
370
    15
100
AcDbSpline
210
0.0
220
0.0
230
1.0
 70
     8
 71
     3
 72
    12
 73
     8
 74
     0
 42
0.000000001
 43
0.00000001
 40
0.0
 40
0.0
 40
0.0
 40
0.0
 40
0.2500000000000001
 40
0.2500000000000001
 40
0.5000000000000001
 40
0.5000000000000001
 40
1.0
 40
1.0
 40
1.0
 40
1.0
 10
18.21646914455814
 20
3.755589007250218
 30
0.0
 10
18.186374712884
 20
4.146072922804906
 30
0.0
 10
18.15643260741631
 20
4.518182277388041
 30
0.0
 10
18.09807093978037
 20
5.211506670401119
 30
0.0
 10
18.07038880675319
 20
5.530311223292958
 30
0.0
 10
17.98443538617692
 20
6.418732954419047
 30
0.0
 10
17.92333333835634
 20
6.915323115542201
 30
0.0
 10
17.86333508108541
 20
7.270615075618182
 30
0.0
  0
SPLINE
  5
183
330
1F
100
AcDbEntity
  8
외형선
  6
Continuous
 62
     1
370
    15
100
AcDbSpline
210
0.0
220
0.0
230
1.0
 70
     8
 71
     3
 72
     8
 73
     4
 74
     0
 42
0.000000001
 43
0.00000001
 40
0.0
 40
0.0
 40
0.0
 40
0.0
 40
0.4026391202311589
 40
0.4026391202311589
 40
0.4026391202311589
 40
0.4026391202311589
 10
10.42426696685472
 20
-7.437433434305265
 30
0.0
 10
10.29864445482256
 20
-7.335476691628557
 30
0.0
 10
10.15129086831166
 20
-7.267602853468733
 30
0.0
 10
10.0
 20
-7.234186705893194
 30
0.0
  0
SPLINE
  5
184
330
1F
100
AcDbEntity
  8
외형선
  6
Continuous
 62
     1
370
    15
100
AcDbSpline
210
0.0
220
0.0
230
1.0
 70
     8
 71
     3
 72
    12
 73
     8
 74
     0
 42
0.000000001
 43
0.00000001
 40
0.0
 40
0.0
 40
0.0
 40
0.0
 40
0.25
 40
0.25
 40
0.5
 40
0.5
 40
1.0
 40
1.0
 40
1.0
 40
1.0
 10
10.42426696683972
 20
-7.43743343423434
 30
0.0
 10
10.3947582197348
 20
-7.297873496596314
 30
0.0
 10
10.36661373588659
 20
-7.12629253146505
 30
0.0
 10
10.30947286611452
 20
-6.718901640671748
 30
0.0
 10
10.27989248675261
 20
-6.481111982785286
 30
0.0
 10
10.18987175819544
 20
-5.67566946050125
 30
0.0
 10
10.12819903985114
 20
-5.014115709585546
 30
0.0
 10
10.06990892767977
 20
-4.285018529386009
 30
0.0
  0
SPLINE
  5
185
330
1F
100
AcDbEntity
  8
외형선
  6
Continuous
 62
     1
370
    15
100
AcDbSpline
210
0.0
220
0.0
230
1.0
 70
     8
 71
     3
 72
     8
 73
     4
 74
     0
 42
0.000000001
 43
0.00000001
 40
0.0
 40
0.0
 40
0.0
 40
0.0
 40
1.0
 40
1.0
 40
1.0
 40
1.0
 10
12.52202532591732
 20
-7.727908422469067
 30
0.0
 10
11.9094996181041
 20
-7.676992488315357
 30
0.0
 10
11.30044307470717
 20
-7.617040204284211
 30
0.0
 10
10.68710696193704
 20
-7.547999734762381
 30
0.0
  0
SPLINE
  5
186
330
1F
100
AcDbEntity
  8
외형선
  6
Continuous
 62
     1
370
    15
100
AcDbSpline
210
0.0
220
0.0
230
1.0
 70
     8
 71
     3
 72
    12
 73
     8
 74
     0
 42
0.000000001
 43
0.00000001
 40
0.0
 40
0.0
 40
0.0
 40
0.0
 40
0.2499999999999999
 40
0.2499999999999999
 40
0.4999999999999999
 40
0.4999999999999999
 40
1.0
 40
1.0
 40
1.0
 40
1.0
 10
10.68710670757045
 20
-7.548000008739253
 30
0.0
 10
10.65765029493516
 20
-7.411790013990233
 30
0.0
 10
10.62938123576937
 20
-7.242841542683092
 30
0.0
 10
10.57278052487877
 20
-6.842004849971265
 30
0.0
 10
10.54344415570312
 20
-6.607303918652261
 30
0.0
 10
10.45403213336384
 20
-5.809915234651874
 30
0.0
 10
10.39259278379672
 20
-5.152038048115642
 30
0.0
 10
10.33431076714609
 20
-4.423591431030267
 30
0.0
  0
SPLINE
  5
187
330
1F
100
AcDbEntity
  8
외형선
  6
Continuous
 62
     1
370
    15
100
AcDbSpline
210
0.0
220
0.0
230
1.0
 70
     8
 71
     3
 72
    12
 73
     8
 74
     0
 42
0.000000001
 43
0.00000001
 40
0.0
 40
0.0
 40
0.0
 40
0.0
 40
0.25
 40
0.25
 40
0.5
 40
0.5
 40
1.0
 40
1.0
 40
1.0
 40
1.0
 10
12.52202530131623
 20
-7.7279083396324
 30
0.0
 10
12.49207656385042
 20
-7.626876601089718
 30
0.0
 10
12.46247587107338
 20
-7.489970320670433
 30
0.0
 10
12.40514254123295
 20
-7.152997640228966
 30
0.0
 10
12.37746622733997
 20
-6.953805937348841
 30
0.0
 10
12.2899332784155
 20
-6.253363250474003
 30
0.0
 10
12.22849257687508
 20
-5.651749262322093
 30
0.0
 10
12.16895591441864
 20
-4.962292442203815
 30
0.0
  0
SPLINE
  5
188
330
1F
100
AcDbEntity
  8
외형선
  6
Continuous
 62
     1
370
    15
100
AcDbSpline
210
0.0
220
0.0
230
1.0
 70
     8
 71
     3
 72
    12
 73
     8
 74
     0
 42
0.000000001
 43
0.00000001
 40
0.0
 40
0.0
 40
0.0
 40
0.0
 40
0.25
 40
0.25
 40
0.5
 40
0.5
 40
1.0
 40
1.0
 40
1.0
 40
1.0
 10
16.11847319086386
 20
4.350722142077888
 30
0.0
 10
16.08859926509326
 20
4.715806935102179
 30
0.0
 10
16.05923851620798
 20
5.058248830261436
 30
0.0
 10
16.00268103817226
 20
5.686329473111772
 30
0.0
 10
15.97394809540453
 20
5.977821520497524
 30
0.0
 10
15.88489746954366
 20
6.773634928446882
 30
0.0
 10
15.82307503921001
 20
7.191384982533999
 30
0.0
 10
15.76387754975391
 20
7.462371809134359
 30
0.0
  0
SPLINE
  5
189
330
1F
100
AcDbEntity
  8
외형선
  6
Continuous
 62
     1
370
    15
100
AcDbSpline
210
0.0
220
0.0
230
1.0
 70
     8
 71
     3
 72
     8
 73
     4
 74
     0
 42
0.000000001
 43
0.00000001
 40
0.0
 40
0.0
 40
0.0
 40
0.0
 40
1.0
 40
1.0
 40
1.0
 40
1.0
 10
10.68710664049607
 20
-7.547999698579216
 30
0.0
 10
10.59430000399532
 20
-7.537552875196536
 30
0.0
 10
10.50101021549789
 20
-7.499719178541228
 30
0.0
 10
10.42426696685268
 20
-7.437433434309098
 30
0.0
  0
SPLINE
  5
18A
330
1F
100
AcDbEntity
  8
외형선
  6
Continuous
 62
     1
370
    15
100
AcDbSpline
210
0.0
220
0.0
230
1.0
 70
     8
 71
     3
 72
    12
 73
     8
 74
     0
 42
0.000000001
 43
0.00000001
 40
0.0
 40
0.0
 40
0.0
 40
0.0
 40
0.25
 40
0.25
 40
0.5
 40
0.5
 40
1.0
 40
1.0
 40
1.0
 40
1.0
 10
15.06371494950081
 20
4.661887211135854
 30
0.0
 10
15.03417931391561
 20
5.013478278651062
 30
0.0
 10
15.00596488848718
 20
5.338334459350838
 30
0.0
 10
14.94890356880076
 20
5.939411513601998
 30
0.0
 10
14.91935249712803
 20
6.217687795546918
 30
0.0
 10
14.82938241562091
 20
6.964485450318673
 30
0.0
 10
14.76769192043765
 20
7.341830899936284
 30
0.0
 10
14.70933706681903
 20
7.571226549513304
 30
0.0
  0
SPLINE
  5
18B
330
1F
100
AcDbEntity
  8
외형선
  6
Continuous
 62
     1
370
    15
100
AcDbSpline
210
0.0
220
0.0
230
1.0
 70
     8
 71
     3
 72
    12
 73
     8
 74
     0
 42
0.000000001
 43
0.00000001
 40
0.0
 40
0.0
 40
0.0
 40
0.0
 40
0.25
 40
0.25
 40
0.5
 40
0.5
 40
1.0
 40
1.0
 40
1.0
 40
1.0
 10
12.96536729919512
 20
5.314455608216714
 30
0.0
 10
12.93693995523006
 20
5.637779512022753
 30
0.0
 10
12.90885700183327
 20
5.93613447172991
 30
0.0
 10
12.85004163170007
 20
6.48441782791635
 30
0.0
 10
12.8199493884747
 20
6.731825718249604
 30
0.0
 10
12.72947560267068
 20
7.376131160020048
 30
0.0
 10
12.66911926931018
 20
7.671787468635564
 30
0.0
 10
12.61308371450997
 20
7.820195885228133
 30
0.0
  0
SPLINE
  5
18C
330
1F
100
AcDbEntity
  8
외형선
  6
Continuous
 62
     1
370
    15
100
AcDbSpline
210
0.0
220
0.0
230
1.0
 70
     8
 71
     3
 72
    12
 73
     8
 74
     0
 42
0.000000001
 43
0.00000001
 40
0.0
 40
0.0
 40
0.0
 40
0.0
 40
0.2500000000000001
 40
0.2500000000000001
 40
0.5000000000000002
 40
0.5000000000000002
 40
1.0
 40
1.0
 40
1.0
 40
1.0
 10
14.79926433386353
 20
4.801154520527668
 30
0.0
 10
14.769976719229
 20
5.151075813260878
 30
0.0
 10
14.74213881616633
 20
5.473452451210137
 30
0.0
 10
14.68503205163251
 20
6.071629290767526
 30
0.0
 10
14.65550840659038
 20
6.347800962262012
 30
0.0
 10
14.56576895078982
 20
7.086761230422426
 30
0.0
 10
14.5044353387231
 20
7.456851133304805
 30
0.0
 10
14.44655596758335
 20
7.678600346719681
 30
0.0
  0
SPLINE
  5
18D
330
1F
100
AcDbEntity
  8
외형선
  6
Continuous
 62
     1
370
    15
100
AcDbSpline
210
0.0
220
0.0
230
1.0
 70
     8
 71
     3
 72
     8
 73
     4
 74
     0
 42
0.000000001
 43
0.00000001
 40
0.0
 40
0.0
 40
0.0
 40
0.0
 40
1.0
 40
1.0
 40
1.0
 40
1.0
 10
12.7865884832568
 20
-7.665067545318337
 30
0.0
 10
12.71061774588508
 20
-7.713836782657092
 30
0.0
 10
12.61762143054822
 20
-7.735854807263754
 30
0.0
 10
12.52202532587185
 20
-7.727908422469244
 30
0.0
  0
SPLINE
  5
18E
330
1F
100
AcDbEntity
  8
외형선
  6
Continuous
 62
     1
370
    15
100
AcDbSpline
210
0.0
220
0.0
230
1.0
 70
     8
 71
     3
 72
    12
 73
     8
 74
     0
 42
0.000000001
 43
0.00000001
 40
0.0
 40
0.0
 40
0.0
 40
0.0
 40
0.2499999999999999
 40
0.2499999999999999
 40
0.5
 40
0.5
 40
1.0
 40
1.0
 40
1.0
 40
1.0
 10
12.78658848323885
 20
-7.665067545262023
 30
0.0
 10
12.75645262404508
 20
-7.570501633706777
 30
0.0
 10
12.72661623784988
 20
-7.439905745673836
 30
0.0
 10
12.66874386558192
 20
-7.114849847492299
 30
0.0
 10
12.64104944458195
 20
-6.921864435504937
 30
0.0
 10
12.5534606237835
 20
-6.240335757033056
 30
0.0
 10
12.4917812250514
 20
-5.650656355825499
 30
0.0
 10
12.4318588436803
 20
-4.971238383351863
 30
0.0
  0
SPLINE
  5
18F
330
1F
100
AcDbEntity
  8
외형선
  6
Continuous
 62
     1
370
    15
100
AcDbSpline
210
0.0
220
0.0
230
1.0
 70
     8
 71
     3
 72
    10
 73
     6
 74
     0
 42
0.000000001
 43
0.00000001
 40
0.0
 40
0.0
 40
0.0
 40
0.0
 40
0.5
 40
0.5
 40
1.0
 40
1.0
 40
1.0
 40
1.0
 10
13.84157463671003
 20
-7.737627863447367
 30
0.0
 10
13.6854766593153
 20
-7.612350727064163
 30
0.0
 10
13.49585474833038
 20
-7.54437389037346
 30
0.0
 10
13.1177826941852
 20
-7.523141589299341
 30
0.0
 10
12.93645494617173
 20
-7.568861119635562
 30
0.0
 10
12.7865884832568
 20
-7.66506754531834
 30
0.0
  0
SPLINE
  5
190
330
1F
100
AcDbEntity
  8
외형선
  6
Continuous
 62
     1
370
    15
100
AcDbSpline
210
0.0
220
0.0
230
1.0
 70
     8
 71
     3
 72
    12
 73
     8
 74
     0
 42
0.000000001
 43
0.00000001
 40
0.0
 40
0.0
 40
0.0
 40
0.0
 40
0.25
 40
0.25
 40
0.5
 40
0.5
 40
1.0
 40
1.0
 40
1.0
 40
1.0
 10
13.84157463669438
 20
-7.737627863409188
 30
0.0
 10
13.81132719846658
 20
-7.663837296459977
 30
0.0
 10
13.78119372149498
 20
-7.553359934512539
 30
0.0
 10
13.72239657792845
 20
-7.265646317631322
 30
0.0
 10
13.69446577980806
 20
-7.090356575681802
 30
0.0
 10
13.60841930295006
 20
-6.466429990051514
 30
0.0
 10
13.54710189545784
 20
-5.912065960562012
 30
0.0
 10
13.48678273711985
 20
-5.25894553947276
 30
0.0
  0
SPLINE
  5
191
330
1F
100
AcDbEntity
  8
외형선
  6
Continuous
 62
     1
370
    15
100
AcDbSpline
210
0.0
220
0.0
230
1.0
 70
     8
 71
     3
 72
     8
 73
     4
 74
     0
 42
0.000000001
 43
0.00000001
 40
0.0
 40
0.0
 40
0.0
 40
0.0
 40
1.0
 40
1.0
 40
1.0
 40
1.0
 10
15.93975234954296
 20
-7.915969658320466
 30
0.0
 10
15.33049915953249
 20
-7.899603754963379
 30
0.0
 10
14.71767036294571
 20
-7.873871845180683
 30
0.0
 10
14.10450415881932
 20
-7.838850854383621
 30
0.0
  0
SPLINE
  5
192
330
1F
100
AcDbEntity
  8
외형선
  6
Continuous
 62
     1
370
    15
100
AcDbSpline
210
0.0
220
0.0
230
1.0
 70
     8
 71
     3
 72
    12
 73
     8
 74
     0
 42
0.000000001
 43
0.00000001
 40
0.0
 40
0.0
 40
0.0
 40
0.0
 40
0.2499999999999999
 40
0.2499999999999999
 40
0.4999999999999998
 40
0.4999999999999998
 40
1.0
 40
1.0
 40
1.0
 40
1.0
 10
14.10450155957548
 20
-7.838851293390651
 30
0.0
 10
14.07438090946055
 20
-7.769169592620059
 30
0.0
 10
14.0443328049683
 20
-7.662613711004154
 30
0.0
 10
13.98561394765463
 20
-7.381982073372754
 30
0.0
 10
13.95759570485266
 20
-7.209581872025763
 30
0.0
 10
13.87236373062146
 20
-6.596098590384111
 30
0.0
 10
13.81146739547894
 20
-6.047818392445333
 30
0.0
 10
13.75134755853515
 20
-5.398176206819415
 30
0.0
  0
SPLINE
  5
193
330
1F
100
AcDbEntity
  8
외형선
  6
Continuous
 62
     1
370
    15
100
AcDbSpline
210
0.0
220
0.0
230
1.0
 70
     8
 71
     3
 72
    12
 73
     8
 74
     0
 42
0.000000001
 43
0.00000001
 40
0.0
 40
0.0
 40
0.0
 40
0.0
 40
0.4999999999999998
 40
0.4999999999999998
 40
0.7499999999999999
 40
0.7499999999999999
 40
1.0
 40
1.0
 40
1.0
 40
1.0
 10
15.93975055086032
 20
-7.915969805753845
 30
0.0
 10
15.87968471373876
 20
-7.850762996096285
 30
0.0
 10
15.81866942334203
 20
-7.633380896589288
 30
0.0
 10
15.73304448972205
 20
-7.115855907346373
 30
0.0
 10
15.70522430531264
 20
-6.912319227342068
 30
0.0
 10
15.64668346296221
 20
-6.436948038435474
 30
0.0
 10
15.61668592288399
 20
-6.166438198629136
 30
0.0
 10
15.58657394374203
 20
-5.867881664471563
 30
0.0
  0
SPLINE
  5
194
330
1F
100
AcDbEntity
  8
외형선
  6
Continuous
 62
     1
370
    15
100
AcDbSpline
210
0.0
220
0.0
230
1.0
 70
     8
 71
     3
 72
    14
 73
    10
 74
     0
 42
0.000000001
 43
0.00000001
 40
0.0
 40
0.0
 40
0.0
 40
0.0
 40
0.2499999999999998
 40
0.2499999999999998
 40
0.4999999999999997
 40
0.4999999999999997
 40
0.7499999999999998
 40
0.7499999999999998
 40
1.0
 40
1.0
 40
1.0
 40
1.0
 10
12.70266616322478
 20
5.316150412397568
 30
0.0
 10
12.67423576717665
 20
5.633810128962594
 30
0.0
 10
12.64575857271581
 20
5.927696861379449
 30
0.0
 10
12.58648280570313
 20
6.465066959336114
 30
0.0
 10
12.5561952002575
 20
6.706585598384505
 30
0.0
 10
12.49558298874905
 20
7.123778443913964
 30
0.0
 10
12.46526441454602
 20
7.299410518239338
 30
0.0
 10
12.40586903730418
 20
7.578722398128042
 30
0.0
 10
12.37716843087697
 20
7.682125825806857
 30
0.0
 10
12.34883816619338
 20
7.750207757734901
 30
0.0
  0
SPLINE
  5
195
330
1F
100
AcDbEntity
  8
외형선
  6
Continuous
 62
     1
370
    15
100
AcDbSpline
210
0.0
220
0.0
230
1.0
 70
     8
 71
     3
 72
     8
 73
     4
 74
     0
 42
0.000000001
 43
0.00000001
 40
0.0
 40
0.0
 40
0.0
 40
0.0
 40
1.0
 40
1.0
 40
1.0
 40
1.0
 10
14.10450129921079
 20
-7.838850691056996
 30
0.0
 10
14.0116632119222
 20
-7.833548238883919
 30
0.0
 10
13.91834392702316
 20
-7.799239403929504
 30
0.0
 10
13.84157463670798
 20
-7.737627863451612
 30
0.0
  0
SPLINE
  5
196
330
1F
100
AcDbEntity
  8
외형선
  6
Continuous
 62
     1
370
    15
100
AcDbSpline
210
0.0
220
0.0
230
1.0
 70
     8
 71
     3
 72
    12
 73
     8
 74
     0
 42
0.000000001
 43
0.00000001
 40
0.0
 40
0.0
 40
0.0
 40
0.0
 40
0.5
 40
0.5
 40
0.75
 40
0.75
 40
1.0
 40
1.0
 40
1.0
 40
1.0
 10
11.64877929135455
 20
5.589296709358043
 30
0.0
 10
11.59191311200952
 20
6.195489872249074
 30
0.0
 10
11.53077601554215
 20
6.712181340156634
 30
0.0
 10
11.4400194138659
 20
7.279173666195068
 30
0.0
 10
11.40994594229308
 20
7.434024879559152
 30
0.0
 10
11.35138966236397
 20
7.671201626798838
 30
0.0
 10
11.32363046575384
 20
7.753419565243051
 30
0.0
 10
11.2947265173297
 20
7.801106265150141
 30
0.0
  0
SPLINE
  5
198
330
1F
100
AcDbEntity
  8
외형선
  6
Continuous
 62
     1
370
    15
100
AcDbSpline
210
0.0
220
0.0
230
1.0
 70
     8
 71
     3
 72
    12
 73
     8
 74
     0
 42
0.000000001
 43
0.00000001
 40
0.0
 40
0.0
 40
0.0
 40
0.0
 40
0.5000000000000002
 40
0.5000000000000002
 40
0.7500000000000001
 40
0.7500000000000001
 40
1.0
 40
1.0
 40
1.0
 40
1.0
 10
11.38447579011887
 20
5.728058778463005
 30
0.0
 10
11.32754334904185
 20
6.330891527824142
 30
0.0
 10
11.26656067123109
 20
6.841384240919233
 30
0.0
 10
11.17631917736273
 20
7.397068251668402
 30
0.0
 10
11.14646259272322
 20
7.547832123144517
 30
0.0
 10
11.08840319399397
 20
7.776644979505287
 30
0.0
 10
11.06083676356469
 20
7.854766815299345
 30
0.0
 10
11.03195607165322
 20
7.898230568205144
 30
0.0
  0
SPLINE
  5
199
330
1F
100
AcDbEntity
  8
외형선
  6
Continuous
 62
     1
370
    15
100
AcDbSpline
210
0.0
220
0.0
230
1.0
 70
     8
 71
     3
 72
     8
 73
     4
 74
     0
 42
0.000000001
 43
0.00000001
 40
0.0
 40
0.0
 40
0.0
 40
0.0
 40
1.0
 40
1.0
 40
1.0
 40
1.0
 10
16.20433914968106
 20
-7.834482684468039
 30
0.0
 10
16.12835637209976
 20
-7.889979444693012
 30
0.0
 10
16.03535932473483
 20
-7.91853787866697
 30
0.0
 10
15.93975036597041
 20
-7.915969605041397
 30
0.0
  0
SPLINE
  5
19A
330
1F
100
AcDbEntity
  8
외형선
  6
Continuous
 62
     1
370
    15
100
AcDbSpline
210
0.0
220
0.0
230
1.0
 70
     8
 71
     3
 72
    12
 73
     8
 74
     0
 42
0.000000001
 43
0.00000001
 40
0.0
 40
0.0
 40
0.0
 40
0.0
 40
0.4999999999999998
 40
0.4999999999999998
 40
0.75
 40
0.75
 40
1.0
 40
1.0
 40
1.0
 40
1.0
 10
16.20433914962704
 20
-7.83448268442074
 30
0.0
 10
16.14408670223438
 20
-7.78172941514323
 30
0.0
 10
16.08266105883035
 20
-7.577056010041062
 30
0.0
 10
15.99623102362288
 20
-7.076436065555302
 30
0.0
 10
15.96844188930556
 20
-6.878942391376887
 30
0.0
 10
15.90983326339534
 20
-6.41553905161722
 30
0.0
 10
15.87975547963398
 20
-6.150855619499937
 30
0.0
 10
15.84952133941048
 20
-5.857799449871155
 30
0.0
  0
SPLINE
  5
19B
330
1F
100
AcDbEntity
  8
외형선
  6
Continuous
 62
     1
370
    15
100
AcDbSpline
210
0.0
220
0.0
230
1.0
 70
     8
 71
     3
 72
    10
 73
     6
 74
     0
 42
0.000000001
 43
0.00000001
 40
0.0
 40
0.0
 40
0.0
 40
0.0
 40
0.3220431718731351
 40
0.6913998317752315
 40
1.0
 40
1.0
 40
1.0
 40
1.0
 10
16.97937559166645
 20
-7.707597242889538
 30
0.0
 10
16.89197169580879
 20
-7.688497747231941
 30
0.0
 10
16.70432282084278
 20
-7.647492722943291
 30
0.0
 10
16.43035928651944
 20
-7.698352169892668
 30
0.0
 10
16.27503942600413
 20
-7.791900350295928
 30
0.0
 10
16.20433914968106
 20
-7.834482684468044
 30
0.0
  0
SPLINE
  5
19D
330
1F
100
AcDbEntity
  8
외형선
  6
Continuous
 62
     1
370
    15
100
AcDbSpline
210
0.0
220
0.0
230
1.0
 70
     8
 71
     3
 72
    12
 73
     8
 74
     0
 42
0.000000001
 43
0.00000001
 40
0.0
 40
0.0
 40
0.0
 40
0.0
 40
0.5
 40
0.5
 40
0.75
 40
0.75
 40
1.0
 40
1.0
 40
1.0
 40
1.0
 10
17.52214986860081
 20
-7.937495624599002
 30
0.0
 10
17.46274621332086
 20
-7.936568801900094
 30
0.0
 10
17.40126927925165
 20
-7.784313896733429
 30
0.0
 10
17.31344201788536
 20
-7.350555559702888
 30
0.0
 10
17.28561446467056
 20
-7.17441841673195
 30
0.0
 10
17.22853304877101
 20
-6.75672513520329
 30
0.0
 10
17.19902260884997
 20
-6.513854873720228
 30
0.0
 10
17.16912241500358
 20
-6.240511014962531
 30
0.0
  0
LINE
  5
1A3
330
1F
100
AcDbEntity
  8
외형선
  6
Continuous
 62
     1
370
    15
100
AcDbLine
 10
27.23884221182787
 20
-7.818307053836342
 30
0.0
 11
27.23336251878018
 21
-7.809291588869726
 31
0.0
  0
LINE
  5
1A6
330
1F
100
AcDbEntity
  8
외형선
  6
Continuous
 62
     1
370
    15
100
AcDbLine
 10
30.8621667566815
 20
-7.925491925878655
 30
0.0
 11
30.8559327352143
 21
-7.926815742994445
 31
0.0
  0
SPLINE
  5
1A7
330
1F
100
AcDbEntity
  8
외형선
  6
Continuous
 62
     1
370
    15
100
AcDbSpline
210
0.0
220
0.0
230
1.0
 70
     8
 71
     3
 72
    12
 73
     8
 74
     0
 42
0.000000001
 43
0.00000001
 40
0.0
 40
0.0
 40
0.0
 40
0.0
 40
0.1746749290700481
 40
0.4145386416937408
 40
0.6513105532788476
 40
0.8884959728821082
 40
1.0
 40
1.0
 40
1.0
 40
1.0
 10
17.23713441285987
 20
-7.820077904680285
 30
0.0
 10
17.21750339434288
 20
-7.802914257514538
 30
0.0
 10
17.17091504995694
 20
-7.762181480232306
 30
0.0
 10
17.09732898279785
 20
-7.493960665253127
 30
0.0
 10
17.01998849672376
 20
-7.054367878625238
 30
0.0
 10
16.95615832181007
 20
-6.565603424685172
 30
0.0
 10
16.91706849390032
 20
-6.215839116372305
 30
0.0
 10
16.90456833574449
 20
-6.103991369657511
 30
0.0
  0
SPLINE
  5
1A8
330
1F
100
AcDbEntity
  8
외형선
  6
Continuous
 62
     1
370
    15
100
AcDbSpline
210
0.0
220
0.0
230
1.0
 70
     8
 71
     3
 72
    10
 73
     6
 74
     0
 42
0.000000001
 43
0.00000001
 40
0.0
 40
0.0
 40
0.0
 40
0.0
 40
0.2400236339217653
 40
0.6224568041668477
 40
0.9999999999999999
 40
0.9999999999999999
 40
0.9999999999999999
 40
0.9999999999999999
 10
19.3122524591285
 20
-7.89157831411856
 30
0.0
 10
19.28737096704507
 20
-7.894072320341728
 30
0.0
 10
19.22284542932157
 20
-7.900540063196389
 30
0.0
 10
19.11810231817064
 20
-7.490997797762878
 30
0.0
 10
19.04176772929814
 20
-6.915860356602582
 30
0.0
 10
19.00384601762141
 20
-6.630141961569483
 30
0.0
  0
SPLINE
  5
1AC
330
1F
100
AcDbEntity
  8
외형선
  6
Continuous
 62
     1
370
    15
100
AcDbSpline
210
0.0
220
0.0
230
1.0
 70
     8
 71
     3
 72
    11
 73
     7
 74
     0
 42
0.000000001
 43
0.00000001
 40
0.0
 40
0.0
 40
0.0
 40
0.0
 40
0.1739477080764255
 40
0.4516705992602754
 40
0.727073861480117
 40
1.0
 40
1.0
 40
1.0
 40
1.0
 10
19.58801469503225
 20
-7.818292099515208
 30
0.0
 10
19.56935706142453
 20
-7.829587053841633
 30
0.0
 10
19.52091086661363
 20
-7.85891540111134
 30
0.0
 10
19.44102713302052
 20
-7.653988028876217
 30
0.0
 10
19.35271152583382
 20
-7.254635032248202
 30
0.0
 10
19.29526677780207
 20
-6.818261313418511
 30
0.0
 10
19.26667415950111
 20
-6.601060131298641
 30
0.0
  0
SPLINE
  5
1AD
330
1F
100
AcDbEntity
  8
외형선
  6
Continuous
 62
     1
370
    15
100
AcDbSpline
210
0.0
220
0.0
230
1.0
 70
     8
 71
     3
 72
    10
 73
     6
 74
     0
 42
0.000000001
 43
0.00000001
 40
0.0
 40
0.0
 40
0.0
 40
0.0
 40
0.3004579119746015
 40
0.6526208011631669
 40
1.0
 40
1.0
 40
1.0
 40
1.0
 10
20.57355168725427
 20
-7.825769664336383
 30
0.0
 10
20.5478686497067
 20
-7.797850243986257
 30
0.0
 10
20.49208285118856
 20
-7.73720682688612
 30
0.0
 10
20.4068304678098
 20
-7.392858440487565
 30
0.0
 10
20.34955322096516
 20
-6.995896898193989
 30
0.0
 10
20.32111043752001
 20
-6.79877340142167
 30
0.0
  0
SPLINE
  5
1AF
330
1F
100
AcDbEntity
  8
외형선
  6
Continuous
 62
     1
370
    15
100
AcDbSpline
210
0.0
220
0.0
230
1.0
 70
     8
 71
     3
 72
    11
 73
     7
 74
     0
 42
0.000000001
 43
0.00000001
 40
0.0
 40
0.0
 40
0.0
 40
0.0
 40
0.0192853323874134
 40
0.3484278443612231
 40
0.6765174022024627
 40
1.0
 40
1.0
 40
1.0
 40
1.0
 10
20.85576802132317
 20
-7.931433043135871
 30
0.0
 10
20.85404547591219
 20
-7.933427273818536
 30
0.0
 10
20.82292427082685
 20
-7.969457013102342
 30
0.0
 10
20.76025328918898
 20
-7.831548893965945
 30
0.0
 10
20.67094819115761
 20
-7.519051023439718
 30
0.0
 10
20.6138349573112
 20
-7.12492455416517
 30
0.0
 10
20.5854802507858
 20
-6.929254660910274
 30
0.0
  0
SPLINE
  5
1B0
330
1F
100
AcDbEntity
  8
외형선
  6
Continuous
 62
     1
370
    15
100
AcDbSpline
210
0.0
220
0.0
230
1.0
 70
     8
 71
     3
 72
    10
 73
     6
 74
     0
 42
0.000000001
 43
0.00000001
 40
0.0
 40
0.0
 40
0.0
 40
0.0
 40
0.0575140665761511
 40
0.5307996590823129
 40
1.0
 40
1.0
 40
1.0
 40
1.0
 10
22.64568694429789
 20
-7.920584539562088
 30
0.0
 10
22.64140311382551
 20
-7.926022132475106
 30
0.0
 10
22.60186746820578
 20
-7.976205898574101
 30
0.0
 10
22.52389863293558
 20
-7.784500938925488
 30
0.0
 10
22.45372171912718
 20
-7.414155327280755
 30
0.0
 10
22.41878535486354
 20
-7.22978516208389
 30
0.0
  0
SPLINE
  5
1B1
330
1F
100
AcDbEntity
  8
외형선
  6
Continuous
 62
     1
370
    15
100
AcDbSpline
210
0.0
220
0.0
230
1.0
 70
     8
 71
     3
 72
    11
 73
     7
 74
     0
 42
0.000000001
 43
0.00000001
 40
0.0
 40
0.0
 40
0.0
 40
0.0
 40
0.0428781927558538
 40
0.3626169933827559
 40
0.6828290982614746
 40
1.0
 40
1.0
 40
1.0
 40
1.0
 10
22.92863476720738
 20
-7.829711316352919
 30
0.0
 10
22.92517637437015
 20
-7.835373349227669
 30
0.0
 10
22.89592905931388
 20
-7.883256648534781
 30
0.0
 10
22.83869582190903
 20
-7.808607516316437
 30
0.0
 10
22.75892380371413
 20
-7.60637373646472
 30
0.0
 10
22.7072162014032
 20
-7.323376081841983
 30
0.0
 10
22.68148575882562
 20
-7.182552400672702
 30
0.0
  0
SPLINE
  5
1B2
330
1F
100
AcDbEntity
  8
외형선
  6
Continuous
 62
     1
370
    15
100
AcDbSpline
210
0.0
220
0.0
230
1.0
 70
     8
 71
     3
 72
     9
 73
     5
 74
     0
 42
0.000000001
 43
0.00000001
 40
0.0
 40
0.0
 40
0.0
 40
0.0
 40
0.4241323341753077
 40
1.0
 40
1.0
 40
1.0
 40
1.0
 10
23.90362732728294
 20
-7.812444147098266
 30
0.0
 10
23.87972641584309
 20
-7.792448885884374
 30
0.0
 10
23.82337392980513
 20
-7.745304964983428
 30
0.0
 10
23.76772340355241
 20
-7.479812846255673
 30
0.0
 10
23.73567606489735
 20
-7.326924519549069
 30
0.0
  0
SPLINE
  5
1B3
330
1F
100
AcDbEntity
  8
외형선
  6
Continuous
 62
     1
370
    15
100
AcDbSpline
210
0.0
220
0.0
230
1.0
 70
     8
 71
     3
 72
    10
 73
     6
 74
     0
 42
0.000000001
 43
0.00000001
 40
0.0
 40
0.0
 40
0.0
 40
0.0
 40
0.0003451620145971
 40
0.5009964701480087
 40
1.0
 40
1.0
 40
1.0
 40
1.0
 10
24.18939350018461
 20
-7.937415812400934
 30
0.0
 10
24.18937217828132
 20
-7.937443881062062
 30
0.0
 10
24.15842381828772
 20
-7.97818503898761
 30
0.0
 10
24.09384250225594
 20
-7.848333686107486
 30
0.0
 10
24.0313039047851
 20
-7.58128281142098
 30
0.0
 10
24.0000861487116
 20
-7.447977470362278
 30
0.0
  0
SPLINE
  5
1B4
330
1F
100
AcDbEntity
  8
외형선
  6
Continuous
 62
     1
370
    15
100
AcDbSpline
210
0.0
220
0.0
230
1.0
 70
     8
 71
     3
 72
     9
 73
     5
 74
     0
 42
0.000000001
 43
0.00000001
 40
0.0
 40
0.0
 40
0.0
 40
0.0
 40
0.1708296289282653
 40
1.0
 40
1.0
 40
1.0
 40
1.0
 10
25.97882807286207
 20
-7.905753713967162
 30
0.0
 10
25.97077681249426
 20
-7.915825598506078
 30
0.0
 10
25.92364646152219
 20
-7.97478424989522
 30
0.0
 10
25.87503606276216
 20
-7.798578332178523
 30
0.0
 10
25.83472976038434
 20
-7.65247360600033
 30
0.0
  0
SPLINE
  5
1B5
330
1F
100
AcDbEntity
  8
외형선
  6
Continuous
 62
     1
370
    15
100
AcDbSpline
210
0.0
220
0.0
230
1.0
 70
     8
 71
     3
 72
    10
 73
     6
 74
     0
 42
0.000000001
 43
0.00000001
 40
0.0
 40
0.0
 40
0.0
 40
0.0
 40
0.0537857758871041
 40
0.5264373655462362
 40
1.0
 40
1.0
 40
1.0
 40
1.0
 10
26.26192897034667
 20
-7.831421192101456
 30
0.0
 10
26.25906047631491
 20
-7.836117013322213
 30
0.0
 10
26.23098460650981
 20
-7.882078156612622
 30
0.0
 10
26.17548127939634
 20
-7.823643306761583
 30
0.0
 10
26.12358915586076
 20
-7.666830913303625
 30
0.0
 10
26.09761811240921
 20
-7.588349224624117
 30
0.0
  0
LINE
  5
1B6
330
1F
100
AcDbEntity
  8
외형선
  6
Continuous
 62
     1
370
    15
100
AcDbLine
 10
27.23336251878018
 20
-7.809291588869726
 30
0.0
 11
27.1525125534742
 21
-7.676273183746438
 31
0.0
  0
SPLINE
  5
1B7
330
1F
100
AcDbEntity
  8
외형선
  6
Continuous
 62
     1
370
    15
100
AcDbSpline
210
0.0
220
0.0
230
1.0
 70
     8
 71
     3
 72
     9
 73
     5
 74
     0
 42
0.000000001
 43
0.00000001
 40
0.0
 40
0.0
 40
0.0
 40
0.0
 40
0.0480597481368499
 40
1.0
 40
1.0
 40
1.0
 40
1.0
 10
27.52242424062569
 20
-7.93097750034193
 30
0.0
 10
27.52077581546105
 20
-7.933135472105131
 30
0.0
 10
27.48647631892769
 20
-7.978037325461818
 30
0.0
 10
27.45092266676426
 20
-7.879142705991367
 30
0.0
 10
27.41707771416915
 20
-7.785000937024755
 30
0.0
  0
LINE
  5
1B8
330
1F
100
AcDbEntity
  8
외형선
  6
Continuous
 62
     1
370
    15
100
AcDbLine
 10
29.31250266219685
 20
-7.92324143107957
 30
0.0
 11
29.25238228261568
 21
-7.887681020458002
 31
0.0
  0
SPLINE
  5
1B9
330
1F
100
AcDbEntity
  8
외형선
  6
Continuous
 62
     1
370
    15
100
AcDbSpline
210
0.0
220
0.0
230
1.0
 70
     8
 71
     3
 72
     9
 73
     5
 74
     0
 42
0.000000001
 43
0.00000001
 40
0.0
 40
0.0
 40
0.0
 40
0.0
 40
0.0669520905646201
 40
1.0
 40
1.0
 40
1.0
 40
1.0
 10
29.59493827048481
 20
-7.834875263600547
 30
0.0
 10
29.59320327242683
 20
-7.837749890277675
 30
0.0
 10
29.56728924878168
 20
-7.880685467835999
 30
0.0
 10
29.54040816990363
 20
-7.843189070275033
 30
0.0
 10
29.51532683545308
 20
-7.808203134919412
 30
0.0
  0
LINE
  5
1BA
330
1F
100
AcDbEntity
  8
외형선
  6
Continuous
 62
     1
370
    15
100
AcDbLine
 10
30.8559327352143
 20
-7.926815742994445
 30
0.0
 11
30.83486257579695
 21
-7.931290067925143
 31
0.0
  0
LINE
  5
1BB
330
1F
100
AcDbEntity
  8
중심선
100
AcDbLine
 10
-50.15000000000003
 20
-0.0000000000000081
 30
0.0
 11
46.75000000000002
 21
0.0000000000000038
 31
0.0
  0
LINE
  5
1BC
330
1F
100
AcDbEntity
  8
참조1
100
AcDbLine
 10
9.999999999999993
 20
-0.3168705809327379
 30
0.0
 11
10.0
 21
-40.31687058093273
 31
0.0
  0
LINE
  5
1BD
330
1F
100
AcDbEntity
  8
참조1
100
AcDbLine
 10
-10.20360765519649
 20
-4.762499999999997
 30
0.0
 11
57.93897268839597
 21
-4.762499999999997
 31
0.0
  0
LINE
  5
1BE
330
1F
100
AcDbEntity
  8
참조1
100
AcDbLine
 10
57.93897268839597
 20
-4.762499999999997
 30
0.0
 11
57.93897268839597
 21
-6.927248606176847
 31
0.0
  0
LINE
  5
1BF
330
1F
100
AcDbEntity
  8
참조1
100
AcDbLine
 10
10.0
 20
-40.31687058093273
 30
0.0
 11
-14.67104980726572
 21
-40.31687058093273
 31
0.0
  0
CIRCLE
  5
1C0
330
1F
100
AcDbEntity
  8
해칭선
100
AcDbCircle
 10
0.0
 20
0.0
 30
0.0
 40
3.750000000000004
  0
INSERT
  5
1C1
330
1F
100
AcDbEntity
  8
0
  6
Continuous
 62
     7
100
AcDbBlockReference
 66
     1
  2
블럭10
 10
-3.940272932125215
 20
-52.36404488257666
 30
0.0
  0
ATTRIB
  5
1C2
330
1C1
100
AcDbEntity
  8
FORMAT
 62
     2
100
AcDbText
 10
-14.08190894426184
 20
-50.28867796974446
 30
0.0
 40
4.233333333333333
  1
E5E45040 [ 3 FLUTE ]
 41
0.75
  7
SLDTEXTSTYLE0
 11
-14.08190894426184
 21
-52.40534463641113
 31
0.0
100
AcDbAttribute
  2
AUTOATTR0
 70
     0
 74
     1
  0
SEQEND
  5
1C3
330
1C1
100
AcDbEntity
  8
0
  6
Continuous
 62
     7
  0
HATCH
  5
1C4
330
1F
100
AcDbEntity
  8
중심선
100
AcDbHatch
 10
0.0
 20
0.0
 30
0.0
210
0.0
220
0.0
230
1.0
  2
SOLID
 70
     1
 71
     0
 91
        1
 92
        0
 93
        4
 72
     1
 10
1.77463637225564
 20
-36.11687058093274
 11
-1.671638871581644
 21
-36.11687058093274
 72
     1
 10
-1.671638871581644
 20
-36.11687058093274
 11
-3.799868730785663
 21
-38.65319616150533
 72
     1
 10
-3.799868730785663
 20
-38.65319616150532
 11
-0.3535604018352334
 21
-38.65315673220283
 72
     1
 10
-0.3535604018352334
 20
-38.65315673220283
 11
1.77463637225564
 21
-36.11687058093273
 97
        0
 75
     0
 76
     1
 98
        1
 10
9.524999999999979
 20
-0.3168705809327345
  0
HATCH
  5
1C5
330
1F
100
AcDbEntity
  8
중심선
100
AcDbHatch
 10
0.0
 20
0.0
 30
0.0
210
0.0
220
0.0
230
1.0
  2
SOLID
 70
     1
 71
     0
 91
        1
 92
        0
 93
        4
 72
     1
 10
6.787400363291619
 20
-36.11687058093274
 11
3.341125119454337
 21
-36.11687058093274
 72
     1
 10
3.341125119454337
 20
-36.11687058093274
 11
-1.190012888903073
 21
-41.51687058093276
 72
     1
 10
-1.190012888903073
 20
-41.51687058093276
 11
2.256262354934203
 21
-41.51687058093276
 72
     1
 10
2.256262354934203
 20
-41.51687058093276
 11
6.78740036329162
 21
-36.11687058093274
 97
        0
 75
     0
 76
     1
 98
        1
 10
9.524999999999979
 20
-0.3168705809327345
  0
HATCH
  5
1C6
330
1F
100
AcDbEntity
  8
중심선
100
AcDbHatch
 10
0.0
 20
0.0
 30
0.0
210
0.0
220
0.0
230
1.0
  2
SOLID
 70
     1
 71
     0
 91
        1
 92
        0
 93
        4
 72
     1
 10
11.80016435432754
 20
-36.1168705809327
 11
8.353889110490371
 21
-36.11687058093273
 72
     1
 10
8.353889110490371
 20
-36.11687058093274
 11
1.305452208601123
 21
-44.51687058093276
 72
     1
 10
1.305452208601123
 20
-44.51687058093276
 11
4.751727452438405
 21
-44.51687058093276
 72
     1
 10
4.751727452438405
 20
-44.51687058093276
 11
11.80016435432754
 21
-36.11687058093271
 97
        0
 75
     0
 76
     1
 98
        1
 10
9.524999999999979
 20
-0.3168705809327345
  0
HATCH
  5
1C7
330
1F
100
AcDbEntity
  8
중심선
100
AcDbHatch
 10
0.0
 20
0.0
 30
0.0
210
0.0
220
0.0
230
1.0
  2
SOLID
 70
     1
 71
     0
 91
        1
 92
        0
 93
        6
 72
     3
 10
16.60005478533969
 20
-40.316870580984
 11
3.960054785062283
 21
1.540882976769353E-10
 40
0.3939339440162628
 50
17.09539180608439
 51
320.0019657685083
 73
     0
 72
     1
 10
18.28305444104026
 20
-38.90476458557106
 11
20.58835631474135
 21
-36.97043787552311
 72
     3
 10
16.60005478528684
 20
-40.31687058093289
 11
6.600054785286826
 21
-1.278976924368180E-13
 40
0.6363583540795983
 50
39.99873849337383
 51
368.4976242363723
 73
     1
 72
     1
 10
23.02538727718745
 20
-39.35687058086275
 11
15.28012209212276
 21
-39.35687058086275
 72
     1
 10
15.28012209212276
 20
-39.35687058086275
 11
15.28009704767683
 21
-41.27687058086264
 72
     1
 10
15.28009704767683
 20
-41.27687058086265
 11
19.72147681714887
 21
-41.27687058086261
 97
        0
 75
     0
 76
     1
 98
        1
 10
9.524999999999979
 20
-0.3168705809327345
  0
POINT
  5
1C8
330
1F
100
AcDbEntity
  8
치수문자_일반주서
100
AcDbPoint
 10
-11.95833333333323
 20
-0.5281176348878959
 30
0.0
  0
DIMENSION
  5
1C9
330
1F
100
AcDbEntity
  8
치수문자_일반주서
100
AcDbDimension
  2
_D
 10
57.4805936507146
 20
-7.937499999999929
 30
0.0
 11
57.48059365071448
 21
25.23950000000006
 31
0.0
 70
   160
  1
%%c<>
 71
     2
 42
15.87499999999999
 52
-270.0
  3
SLDDIMSTYLE0
100
AcDbAlignedDimension
 13
41.74999999999997
 23
7.937500000000004
 33
0.0
 14
41.74999999999998
 24
-7.937499999999985
 34
0.0
 50
90.0000000000002
100
AcDbRotatedDimension
1001
ACAD
1000
DSTYLE
1002
{
1070
   171
1070
     5
1070
   273
1070
     7
1002
}
  0
DIMENSION
  5
1DC
330
1F
100
AcDbEntity
  8
치수문자_일반주서
100
AcDbDimension
  2
_D_1
 10
-63.43750000000002
 20
-7.937500000000039
 30
0.0
 11
-63.43750000000004
 21
-1.271680434525746
 31
0.0
 70
   160
  1
%%c<>
 71
     2
 42
15.87499999999998
 52
-270.0
  3
SLDDIMSTYLE1
100
AcDbAlignedDimension
 13
-45.42083333333336
 23
7.937500000000007
 33
0.0
 14
-45.42083333333336
 24
-7.937499999999972
 34
0.0
 50
90.0000000000002
100
AcDbRotatedDimension
1001
ACAD
1000
DSTYLE
1002
{
1070
   171
1070
     5
1070
   273
1070
     7
1002
}
  0
DIMENSION
  5
1F1
330
1F
100
AcDbEntity
  8
치수문자_일반주서
100
AcDbDimension
  2
_D_2
 10
10.0
 20
34.0190879900331
 30
0.0
 11
25.87499999999999
 21
34.0190879900331
 31
0.0
 70
   160
  1
<>
 71
     2
 42
31.74999999999997
  3
SLDDIMSTYLE0
100
AcDbAlignedDimension
 13
41.74999999999997
 23
5.139562718986231
 33
0.0
 14
10.0
 24
7.937499999999986
 34
0.0
 50
0.0000000000000092
100
AcDbRotatedDimension
1001
ACAD
1000
DSTYLE
1002
{
1070
   171
1070
     5
1070
   273
1070
     7
1002
}
  0
DIMENSION
  5
205
330
1F
100
AcDbEntity
  8
치수문자_일반주서
100
AcDbDimension
  2
_D_3
 10
-47.15000000000002
 20
62.70774206766294
 30
0.0
 11
-2.700000000000017
 21
62.70774206766294
 31
0.0
 70
   160
  1
<>
 71
     2
 42
88.9
  3
SLDDIMSTYLE2
100
AcDbAlignedDimension
 13
41.74999999999997
 23
6.045441794956405
 33
0.0
 14
-47.15000000000003
 24
6.270833333333321
 34
0.0
100
AcDbRotatedDimension
1001
ACAD
1000
DSTYLE
1002
{
1070
   171
1070
     5
1070
   273
1070
     7
1002
}
  0
LINE
  5
219
330
1F
100
AcDbEntity
  8
참조1
100
AcDbLine
 10
83.30129082238857
 20
7.123129419067268
 30
0.0
 11
83.30129082238857
 21
-7.756870580932737
 31
0.0
  0
LINE
  5
21A
330
1F
100
AcDbEntity
  8
참조1
100
AcDbLine
 10
96.00129082238855
 20
5.123129419067268
 30
0.0
 11
83.30129082238857
 21
5.123129419067268
 31
0.0
  0
SOLID
  5
21B
330
1F
100
AcDbEntity
  8
참조1
100
AcDbTrace
 10
83.30129082238857
 20
5.123129419067268
 30
0.0
 11
89.65129082238856
 21
4.107129419067268
 31
0.0
 12
89.65129082238856
 22
6.139129419067268
 32
0.0
 13
89.65129082238856
 23
6.139129419067268
 33
0.0
  0
LINE
  5
21C
330
1F
100
AcDbEntity
  8
참조1
100
AcDbLine
 10
96.00129082238855
 20
-5.756870580932737
 30
0.0
 11
83.30129082238857
 21
-5.756870580932737
 31
0.0
  0
SOLID
  5
21D
330
1F
100
AcDbEntity
  8
참조1
100
AcDbTrace
 10
83.30129082238857
 20
-5.756870580932737
 30
0.0
 11
89.65129082238856
 21
-6.772870580932737
 31
0.0
 12
89.65129082238856
 22
-4.740870580932737
 32
0.0
 13
89.65129082238856
 23
-4.740870580932737
 33
0.0
  0
MTEXT
  5
21E
330
1F
100
AcDbEntity
  8
참조1
100
AcDbMText
 10
92.90140563295112
 20
10.74884698508335
 30
0.0
 40
3.5
 41
0.0
 71
     1
 72
     1
  1
A
  7
SLDTEXTSTYLE0
 73
     1
 44
1.0
  0
MTEXT
  5
21F
330
1F
100
AcDbEntity
  8
참조1
100
AcDbMText
 10
92.90140563295112
 20
-0.1311530149166609
 30
0.0
 40
3.5
 41
0.0
 71
     1
 72
     1
  1
A
  7
SLDTEXTSTYLE0
 73
     1
 44
1.0
  0
INSERT
  5
226
330
1F
100
AcDbEntity
  8
해칭선
100
AcDbBlockReference
  2
SW_DOWELSYMBOL_0
 10
0.0
 20
0.0
 30
0.0
 41
1.249999999999999
 42
1.249999999999999
 43
1.249999999999999
  0
ARC
  5
272
330
1F
100
AcDbEntity
  8
외형선
  6
Continuous
 62
     1
370
    15
100
AcDbCircle
 10
33.81249999999999
 20
0.0000000000000026
 30
0.0
 40
7.937499999999983
100
AcDbArc
 50
270.0
 51
90.0
  0
LINE
  5
273
330
1F
100
AcDbEntity
  8
0
100
AcDbLine
 10
41.74999999999997
 20
7.937500000000006
 30
0.0
 11
41.74999999999997
 21
16.48864586385597
 31
0.0
  0
SPLINE
  5
275
330
1F
100
AcDbEntity
  8
외형선
  6
Continuous
 62
     1
370
    15
100
AcDbSpline
210
0.0
220
0.0
230
1.0
 70
  1064
 71
     3
 72
     9
 73
     5
 74
     3
 42
0.000000001
 43
0.0000000001
 44
0.0
 40
0.0
 40
0.0
 40
0.0
 40
0.0
 40
3.143387203902589
 40
7.951823449868709
 40
7.951823449868709
 40
7.951823449868709
 40
7.951823449868709
 10
35.74445986136899
 20
2.58022876682339
 30
0.0
 10
36.91506992686639
 20
3.140825300216214
 30
0.0
 10
39.87636103281666
 20
4.558965787208636
 30
0.0
 10
36.90339054414375
 20
6.664370239770639
 30
0.0
 10
35.10564702706925
 20
7.937500000000004
 30
0.0
 11
35.74445986136899
 21
2.58022876682339
 31
0.0
 11
38.3289714156233
 21
4.369413815828801
 31
0.0
 11
35.10564702706925
 21
7.937500000000004
 31
0.0
  0
LINE
  5
2A6
330
1F
100
AcDbEntity
  8
외형선
  6
Continuous
370
    15
100
AcDbLine
 10
10.0
 20
7.937499999999986
 30
0.0
 11
10.0
 21
-7.937499999999985
 31
0.0
  0
ENDSEC
  0
SECTION
  2
OBJECTS
  0
DICTIONARY
  5
C
330
0
100
AcDbDictionary
281
     1
  3
ACAD_DETAILVIEWSTYLE
350
27E
  3
ACAD_GROUP
350
D
  3
ACAD_IMAGE_VARS
350
24A
  3
ACAD_LAYOUT
350
1A
  3
ACAD_MLINESTYLE
350
17
  3
ACAD_PLOTSETTINGS
350
19
  3
ACAD_PLOTSTYLENAME
350
E
  3
ACAD_SCALELIST
350
47
  3
ACAD_SECTIONVIEWSTYLE
350
27F
  3
AcDbVariableDictionary
350
279
  3
APPDATA
350
248
  3
DWGPROPS
350
2B4
  0
DICTIONARY
  5
27E
102
{ACAD_REACTORS
330
C
102
}
330
C
100
AcDbDictionary
281
     1
  0
DICTIONARY
  5
D
102
{ACAD_REACTORS
330
C
102
}
330
C
100
AcDbDictionary
281
     1
  0
RASTERVARIABLES
  5
24A
102
{ACAD_REACTORS
330
C
102
}
330
C
100
AcDbRasterVariables
 90
        0
 70
     1
 71
     1
 72
     1
  0
DICTIONARY
  5
1A
102
{ACAD_REACTORS
330
C
102
}
330
C
100
AcDbDictionary
281
     1
  3
Layout1
350
1E
  3
Layout2
350
26
  3
Model
350
22
  0
DICTIONARY
  5
17
102
{ACAD_REACTORS
330
C
102
}
330
C
100
AcDbDictionary
281
     1
  3
Standard
350
18
  0
DICTIONARY
  5
19
102
{ACAD_REACTORS
330
C
102
}
330
C
100
AcDbDictionary
281
     1
  0
ACDBDICTIONARYWDFLT
  5
E
102
{ACAD_REACTORS
330
C
102
}
330
C
100
AcDbDictionary
281
     1
  3
Normal
350
F
100
AcDbDictionaryWithDefault
340
F
  0
DICTIONARY
  5
47
102
{ACAD_REACTORS
330
C
102
}
330
C
100
AcDbDictionary
281
     1
  3
A0
350
48
  3
A1
350
49
  3
A2
350
4A
  3
A3
350
4B
  3
A4
350
4C
  3
A5
350
4D
  3
A6
350
4E
  3
A7
350
4F
  3
A8
350
50
  3
A9
350
51
  3
B0
350
52
  3
B1
350
53
  3
B2
350
54
  3
B3
350
55
  3
B4
350
56
  3
B5
350
57
  3
B6
350
58
  3
B7
350
59
  3
B8
350
5A
  3
B9
350
5B
  3
C0
350
5C
  3
C1
350
5D
  3
C2
350
5E
  3
C3
350
5F
  3
C4
350
60
  3
C5
350
61
  3
C6
350
62
  3
C7
350
63
  3
C8
350
64
  3
C9
350
65
  3
D0
350
66
  3
D1
350
67
  3
D2
350
68
  0
DICTIONARY
  5
27F
102
{ACAD_REACTORS
330
C
102
}
330
C
100
AcDbDictionary
281
     1
  0
DICTIONARY
  5
279
102
{ACAD_REACTORS
330
C
102
}
330
C
100
AcDbDictionary
281
     1
  0
DICTIONARY
  5
248
102
{ACAD_REACTORS
330
C
102
}
330
C
100
AcDbDictionary
281
     1
  0
XRECORD
  5
2B4
102
{ACAD_REACTORS
330
C
102
}
330
C
100
AcDbXrecord
280
     1
  1
DWGPROPS COOKIE
  2

  3

  4

  6

  7

  8
12016016
  9

300
=
301
=
302
=
303
=
304
=
305
=
306
=
307
=
308
=
309
=
 40
0.0
 41
2458298.975895243
 42
2458311.319198044
  1

 90
        0
  0
LAYOUT
  5
1E
102
{ACAD_REACTORS
330
1A
102
}
330
1A
100
AcDbPlotSettings
  1

  2
none_device
  4

  6

 40
0.0
 41
0.0
 42
0.0
 43
0.0
 44
0.0
 45
0.0
 46
0.0
 47
0.0
 48
0.0
 49
0.0
140
0.0
141
0.0
142
1.0
143
1.0
 70
   688
 72
     1
 73
     0
 74
     5
  7

 75
    16
147
1.0
148
0.0
149
0.0
100
AcDbLayout
  1
Layout1
 70
     1
 71
     1
 10
0.0
 20
0.0
 11
420.0
 21
297.0
 12
0.0
 22
0.0
 32
0.0
 14
1.000000000000000E+20
 24
1.000000000000000E+20
 34
1.000000000000000E+20
 15
-1.000000000000000E+20
 25
-1.000000000000000E+20
 35
-1.000000000000000E+20
146
0.0
 13
0.0
 23
0.0
 33
0.0
 16
1.0
 26
0.0
 36
0.0
 17
0.0
 27
1.0
 37
0.0
 76
     0
330
1B
  0
LAYOUT
  5
26
102
{ACAD_REACTORS
330
1A
102
}
330
1A
100
AcDbPlotSettings
  1

  2
none_device
  4

  6

 40
0.0
 41
0.0
 42
0.0
 43
0.0
 44
0.0
 45
0.0
 46
0.0
 47
0.0
 48
0.0
 49
0.0
140
0.0
141
0.0
142
1.0
143
1.0
 70
   688
 72
     1
 73
     0
 74
     5
  7

 75
    16
147
1.0
148
0.0
149
0.0
100
AcDbLayout
  1
Layout2
 70
     1
 71
     2
 10
0.0
 20
0.0
 11
0.0
 21
0.0
 12
0.0
 22
0.0
 32
0.0
 14
0.0
 24
0.0
 34
0.0
 15
0.0
 25
0.0
 35
0.0
146
0.0
 13
0.0
 23
0.0
 33
0.0
 16
1.0
 26
0.0
 36
0.0
 17
0.0
 27
1.0
 37
0.0
 76
     0
330
23
  0
LAYOUT
  5
22
102
{ACAD_REACTORS
330
1A
102
}
330
1A
100
AcDbPlotSettings
  1

  2
none_device
  4
ANSI_A_(11.00_x_8.50_Inches)
  6

 40
6.35
 41
19.05
 42
6.35000508
 43
19.05000254
 44
279.4
 45
215.9
 46
98.76438513735204
 47
90.88064147516121
 48
0.0
 49
0.0
140
0.0
141
0.0
142
0.0787110341538491
143
1.0
 70
  1696
 72
     0
 73
     0
 74
     0
  7

 75
     0
147
0.0235690232323232
148
0.0
149
0.0
100
AcDbLayout
  1
Model
 70
     1
 71
     0
 10
0.0
 20
0.0
 11
420.0
 21
297.0
 12
0.0
 22
0.0
 32
0.0
 14
-67.8125000000001
 24
-50.28867796974447
 34
0.0
 15
96.00129082238855
 25
67.08274206766293
 35
0.0
146
0.0
 13
0.0
 23
0.0
 33
0.0
 16
1.0
 26
0.0
 36
0.0
 17
0.0
 27
1.0
 37
0.0
 76
     0
330
1F
331
29
  0
MLINESTYLE
  5
18
102
{ACAD_REACTORS
330
17
102
}
330
17
100
AcDbMlineStyle
  2
Standard
 70
     0
  3

 62
   256
 51
90.0
 52
90.0
 71
     2
 49
0.5
 62
   256
  6
BYLAYER
 49
-0.5
 62
   256
  6
BYLAYER
  0
ACDBPLACEHOLDER
  5
F
102
{ACAD_REACTORS
330
E
102
}
330
E
  0
SCALE
  5
48
102
{ACAD_REACTORS
330
47
102
}
330
47
100
AcDbScale
 70
     0
300
1:1
140
1.0
141
1.0
290
     1
  0
SCALE
  5
49
102
{ACAD_REACTORS
330
47
102
}
330
47
100
AcDbScale
 70
     0
300
1:2
140
1.0
141
2.0
290
     0
  0
SCALE
  5
4A
102
{ACAD_REACTORS
330
47
102
}
330
47
100
AcDbScale
 70
     0
300
1:4
140
1.0
141
4.0
290
     0
  0
SCALE
  5
4B
102
{ACAD_REACTORS
330
47
102
}
330
47
100
AcDbScale
 70
     0
300
1:5
140
1.0
141
5.0
290
     0
  0
SCALE
  5
4C
102
{ACAD_REACTORS
330
47
102
}
330
47
100
AcDbScale
 70
     0
300
1:8
140
1.0
141
8.0
290
     0
  0
SCALE
  5
4D
102
{ACAD_REACTORS
330
47
102
}
330
47
100
AcDbScale
 70
     0
300
1:10
140
1.0
141
10.0
290
     0
  0
SCALE
  5
4E
102
{ACAD_REACTORS
330
47
102
}
330
47
100
AcDbScale
 70
     0
300
1:16
140
1.0
141
16.0
290
     0
  0
SCALE
  5
4F
102
{ACAD_REACTORS
330
47
102
}
330
47
100
AcDbScale
 70
     0
300
1:20
140
1.0
141
20.0
290
     0
  0
SCALE
  5
50
102
{ACAD_REACTORS
330
47
102
}
330
47
100
AcDbScale
 70
     0
300
1:30
140
1.0
141
30.0
290
     0
  0
SCALE
  5
51
102
{ACAD_REACTORS
330
47
102
}
330
47
100
AcDbScale
 70
     0
300
1:40
140
1.0
141
40.0
290
     0
  0
SCALE
  5
52
102
{ACAD_REACTORS
330
47
102
}
330
47
100
AcDbScale
 70
     0
300
1:50
140
1.0
141
50.0
290
     0
  0
SCALE
  5
53
102
{ACAD_REACTORS
330
47
102
}
330
47
100
AcDbScale
 70
     0
300
1:100
140
1.0
141
100.0
290
     0
  0
SCALE
  5
54
102
{ACAD_REACTORS
330
47
102
}
330
47
100
AcDbScale
 70
     0
300
2:1
140
2.0
141
1.0
290
     0
  0
SCALE
  5
55
102
{ACAD_REACTORS
330
47
102
}
330
47
100
AcDbScale
 70
     0
300
4:1
140
4.0
141
1.0
290
     0
  0
SCALE
  5
56
102
{ACAD_REACTORS
330
47
102
}
330
47
100
AcDbScale
 70
     0
300
8:1
140
8.0
141
1.0
290
     0
  0
SCALE
  5
57
102
{ACAD_REACTORS
330
47
102
}
330
47
100
AcDbScale
 70
     0
300
10:1
140
10.0
141
1.0
290
     0
  0
SCALE
  5
58
102
{ACAD_REACTORS
330
47
102
}
330
47
100
AcDbScale
 70
     0
300
100:1
140
100.0
141
1.0
290
     0
  0
SCALE
  5
59
102
{ACAD_REACTORS
330
47
102
}
330
47
100
AcDbScale
 70
     0
300
1/128" = 1'-0"
140
0.0078125
141
12.0
290
     0
  0
SCALE
  5
5A
102
{ACAD_REACTORS
330
47
102
}
330
47
100
AcDbScale
 70
     0
300
1/64" = 1'-0"
140
0.015625
141
12.0
290
     0
  0
SCALE
  5
5B
102
{ACAD_REACTORS
330
47
102
}
330
47
100
AcDbScale
 70
     0
300
1/32" = 1'-0"
140
0.03125
141
12.0
290
     0
  0
SCALE
  5
5C
102
{ACAD_REACTORS
330
47
102
}
330
47
100
AcDbScale
 70
     0
300
1/16" = 1'-0"
140
0.0625
141
12.0
290
     0
  0
SCALE
  5
5D
102
{ACAD_REACTORS
330
47
102
}
330
47
100
AcDbScale
 70
     0
300
3/32" = 1'-0"
140
0.09375
141
12.0
290
     0
  0
SCALE
  5
5E
102
{ACAD_REACTORS
330
47
102
}
330
47
100
AcDbScale
 70
     0
300
1/8" = 1'-0"
140
0.125
141
12.0
290
     0
  0
SCALE
  5
5F
102
{ACAD_REACTORS
330
47
102
}
330
47
100
AcDbScale
 70
     0
300
3/16" = 1'-0"
140
0.1875
141
12.0
290
     0
  0
SCALE
  5
60
102
{ACAD_REACTORS
330
47
102
}
330
47
100
AcDbScale
 70
     0
300
1/4" = 1'-0"
140
0.25
141
12.0
290
     0
  0
SCALE
  5
61
102
{ACAD_REACTORS
330
47
102
}
330
47
100
AcDbScale
 70
     0
300
3/8" = 1'-0"
140
0.375
141
12.0
290
     0
  0
SCALE
  5
62
102
{ACAD_REACTORS
330
47
102
}
330
47
100
AcDbScale
 70
     0
300
1/2" = 1'-0"
140
0.5
141
12.0
290
     0
  0
SCALE
  5
63
102
{ACAD_REACTORS
330
47
102
}
330
47
100
AcDbScale
 70
     0
300
3/4" = 1'-0"
140
0.75
141
12.0
290
     0
  0
SCALE
  5
64
102
{ACAD_REACTORS
330
47
102
}
330
47
100
AcDbScale
 70
     0
300
1" = 1'-0"
140
1.0
141
12.0
290
     0
  0
SCALE
  5
65
102
{ACAD_REACTORS
330
47
102
}
330
47
100
AcDbScale
 70
     0
300
1-1/2" = 1'-0"
140
1.5
141
12.0
290
     0
  0
SCALE
  5
66
102
{ACAD_REACTORS
330
47
102
}
330
47
100
AcDbScale
 70
     0
300
3" = 1'-0"
140
3.0
141
12.0
290
     0
  0
SCALE
  5
67
102
{ACAD_REACTORS
330
47
102
}
330
47
100
AcDbScale
 70
     0
300
6" = 1'-0"
140
6.0
141
12.0
290
     0
  0
SCALE
  5
68
102
{ACAD_REACTORS
330
47
102
}
330
47
100
AcDbScale
 70
     0
300
1'-0" = 1'-0"
140
12.0
141
12.0
290
     0
  0
ENDSEC
  0
EOF
