  0
SECTION
  2
HEADER
  9
$ACADVER
  1
AC1015
  9
$ACADMAINTVER
 70
     6
  9
$DWGCODEPAGE
  3
ANSI_949
  9
$INSBASE
 10
0.0
 20
0.0
 30
0.0
  9
$EXTMIN
 10
-69.65416666666671
 20
-50.28867796974447
 30
0.0
  9
$EXTMAX
 10
107.5262908223886
 20
49.65117589570664
 30
0.0
  9
$LIMMIN
 10
0.0
 20
0.0
  9
$LIMMAX
 10
420.0
 20
297.0
  9
$ORTHOMODE
 70
     0
  9
$REGENMODE
 70
     1
  9
$FILLMODE
 70
     1
  9
$QTEXTMODE
 70
     0
  9
$MIRRTEXT
 70
     1
  9
$LTSCALE
 40
1.0
  9
$ATTMODE
 70
     1
  9
$TEXTSIZE
 40
3.5
  9
$TRACEWID
 40
1.0
  9
$TEXTSTYLE
  7
Standard
  9
$CLAYER
  8
0
  9
$CELTYPE
  6
ByLayer
  9
$CECOLOR
 62
   256
  9
$CELTSCALE
 40
1.0
  9
$DISPSILH
 70
     0
  9
$DIMSCALE
 40
1.0
  9
$DIMASZ
 40
3.302
  9
$DIMEXO
 40
1.0
  9
$DIMDLI
 40
3.75
  9
$DIMRND
 40
0.0
  9
$DIMDLE
 40
0.0
  9
$DIMEXE
 40
1.0
  9
$DIMTP
 40
0.0
  9
$DIMTM
 40
0.0
  9
$DIMTXT
 40
3.5
  9
$DIMCEN
 40
2.5
  9
$DIMTSZ
 40
0.0
  9
$DIMTOL
 70
     0
  9
$DIMLIM
 70
     0
  9
$DIMTIH
 70
     1
  9
$DIMTOH
 70
     1
  9
$DIMSE1
 70
     0
  9
$DIMSE2
 70
     0
  9
$DIMTAD
 70
     1
  9
$DIMZIN
 70
     0
  9
$DIMBLK
  1

  9
$DIMASO
 70
     1
  9
$DIMSHO
 70
     1
  9
$DIMPOST
  1

  9
$DIMAPOST
  1

  9
$DIMALT
 70
     0
  9
$DIMALTD
 70
     3
  9
$DIMALTF
 40
0.0393700787401575
  9
$DIMLFAC
 40
1.0
  9
$DIMTOFL
 70
     1
  9
$DIMTVP
 40
0.0
  9
$DIMTIX
 70
     0
  9
$DIMSOXD
 70
     0
  9
$DIMSAH
 70
     0
  9
$DIMBLK1
  1

  9
$DIMBLK2
  1

  9
$DIMSTYLE
  2
ISO-25
  9
$DIMCLRD
 70
     0
  9
$DIMCLRE
 70
     0
  9
$DIMCLRT
 70
     0
  9
$DIMTFAC
 40
1.0
  9
$DIMGAP
 40
1.524
  9
$DIMJUST
 70
     0
  9
$DIMSD1
 70
     0
  9
$DIMSD2
 70
     0
  9
$DIMTOLJ
 70
     0
  9
$DIMTZIN
 70
     0
  9
$DIMALTZ
 70
     0
  9
$DIMALTTZ
 70
     0
  9
$DIMUPT
 70
     0
  9
$DIMDEC
 70
     2
  9
$DIMTDEC
 70
     2
  9
$DIMALTU
 70
     2
  9
$DIMALTTD
 70
     3
  9
$DIMTXSTY
  7
Standard
  9
$DIMAUNIT
 70
     0
  9
$DIMADEC
 70
     2
  9
$DIMALTRND
 40
0.0
  9
$DIMAZIN
 70
     0
  9
$DIMDSEP
 70
    44
  9
$DIMATFIT
 70
     3
  9
$DIMFRAC
 70
     0
  9
$DIMLDRBLK
  1

  9
$DIMLUNIT
 70
     2
  9
$DIMLWD
 70
    -2
  9
$DIMLWE
 70
    -2
  9
$DIMTMOVE
 70
     0
  9
$LUNITS
 70
     2
  9
$LUPREC
 70
     2
  9
$SKETCHINC
 40
1.0
  9
$FILLETRAD
 40
10.0
  9
$AUNITS
 70
     0
  9
$AUPREC
 70
     2
  9
$MENU
  1
.
  9
$ELEVATION
 40
0.0
  9
$PELEVATION
 40
0.0
  9
$THICKNESS
 40
0.0
  9
$LIMCHECK
 70
     0
  9
$CHAMFERA
 40
0.0
  9
$CHAMFERB
 40
0.0
  9
$CHAMFERC
 40
0.0
  9
$CHAMFERD
 40
0.0
  9
$SKPOLY
 70
     0
  9
$TDCREATE
 40
2458299.350895243
  9
$TDUCREATE
 40
2458298.975895243
  9
$TDUPDATE
 40
2458311.696919201
  9
$TDUUPDATE
 40
2458311.321919201
  9
$TDINDWG
 40
0.0189487037
  9
$TDUSRTIMER
 40
2458311.319280405
  9
$USRTIMER
 70
     1
  9
$ANGBASE
 50
0.0
  9
$ANGDIR
 70
     0
  9
$PDMODE
 70
     0
  9
$PDSIZE
 40
-1.0
  9
$PLINEWID
 40
0.0
  9
$SPLFRAME
 70
     0
  9
$SPLINETYPE
 70
     6
  9
$SPLINESEGS
 70
     8
  9
$HANDSEED
  5
2FD
  9
$SURFTAB1
 70
     6
  9
$SURFTAB2
 70
     6
  9
$SURFTYPE
 70
     6
  9
$SURFU
 70
     6
  9
$SURFV
 70
     6
  9
$UCSBASE
  2

  9
$UCSNAME
  2

  9
$UCSORG
 10
0.0
 20
0.0
 30
0.0
  9
$UCSXDIR
 10
1.0
 20
0.0
 30
0.0
  9
$UCSYDIR
 10
0.0
 20
1.0
 30
0.0
  9
$UCSORTHOREF
  2

  9
$UCSORTHOVIEW
 70
     0
  9
$UCSORGTOP
 10
0.0
 20
0.0
 30
0.0
  9
$UCSORGBOTTOM
 10
0.0
 20
0.0
 30
0.0
  9
$UCSORGLEFT
 10
0.0
 20
0.0
 30
0.0
  9
$UCSORGRIGHT
 10
0.0
 20
0.0
 30
0.0
  9
$UCSORGFRONT
 10
0.0
 20
0.0
 30
0.0
  9
$UCSORGBACK
 10
0.0
 20
0.0
 30
0.0
  9
$PUCSBASE
  2

  9
$PUCSNAME
  2

  9
$PUCSORG
 10
0.0
 20
0.0
 30
0.0
  9
$PUCSXDIR
 10
1.0
 20
0.0
 30
0.0
  9
$PUCSYDIR
 10
0.0
 20
1.0
 30
0.0
  9
$PUCSORTHOREF
  2

  9
$PUCSORTHOVIEW
 70
     0
  9
$PUCSORGTOP
 10
0.0
 20
0.0
 30
0.0
  9
$PUCSORGBOTTOM
 10
0.0
 20
0.0
 30
0.0
  9
$PUCSORGLEFT
 10
0.0
 20
0.0
 30
0.0
  9
$PUCSORGRIGHT
 10
0.0
 20
0.0
 30
0.0
  9
$PUCSORGFRONT
 10
0.0
 20
0.0
 30
0.0
  9
$PUCSORGBACK
 10
0.0
 20
0.0
 30
0.0
  9
$USERI1
 70
     0
  9
$USERI2
 70
     0
  9
$USERI3
 70
     0
  9
$USERI4
 70
     0
  9
$USERI5
 70
     0
  9
$USERR1
 40
0.0
  9
$USERR2
 40
0.0
  9
$USERR3
 40
0.0
  9
$USERR4
 40
0.0
  9
$USERR5
 40
0.0
  9
$WORLDVIEW
 70
     1
  9
$SHADEDGE
 70
     3
  9
$SHADEDIF
 70
    70
  9
$TILEMODE
 70
     1
  9
$MAXACTVP
 70
    64
  9
$PINSBASE
 10
0.0
 20
0.0
 30
0.0
  9
$PLIMCHECK
 70
     0
  9
$PEXTMIN
 10
1.000000000000000E+20
 20
1.000000000000000E+20
 30
1.000000000000000E+20
  9
$PEXTMAX
 10
-1.000000000000000E+20
 20
-1.000000000000000E+20
 30
-1.000000000000000E+20
  9
$PLIMMIN
 10
0.0
 20
0.0
  9
$PLIMMAX
 10
0.0
 20
0.0
  9
$UNITMODE
 70
     0
  9
$VISRETAIN
 70
     1
  9
$PLINEGEN
 70
     0
  9
$PSLTSCALE
 70
     1
  9
$TREEDEPTH
 70
  3020
  9
$CMLSTYLE
  2
Standard
  9
$CMLJUST
 70
     0
  9
$CMLSCALE
 40
20.0
  9
$PROXYGRAPHICS
 70
     1
  9
$MEASUREMENT
 70
     1
  9
$CELWEIGHT
370
    -1
  9
$ENDCAPS
280
     0
  9
$JOINSTYLE
280
     0
  9
$LWDISPLAY
290
     1
  9
$INSUNITS
 70
     4
  9
$HYPERLINKBASE
  1

  9
$STYLESHEET
  1

  9
$XEDIT
290
     1
  9
$CEPSNTYPE
380
     0
  9
$PSTYLEMODE
290
     1
  9
$FINGERPRINTGUID
  2
{5EF76DE8-C6DD-4A4F-9B81-46A72B4BA541}
  9
$VERSIONGUID
  2
{FAEB1C32-E019-11D5-929B-00C0DF256EC4}
  9
$EXTNAMES
290
     1
  9
$PSVPSCALE
 40
0.0
  9
$OLESTARTUP
290
     0
  0
ENDSEC
  0
SECTION
  2
CLASSES
  0
CLASS
  1
ACDBDICTIONARYWDFLT
  2
AcDbDictionaryWithDefault
  3
ObjectDBX Classes
 90
        0
280
     0
281
     0
  0
CLASS
  1
VISUALSTYLE
  2
AcDbVisualStyle
  3
ObjectDBX Classes
 90
     4095
280
     0
281
     0
  0
CLASS
  1
MATERIAL
  2
AcDbMaterial
  3
ObjectDBX Classes
 90
     1153
280
     0
281
     0
  0
CLASS
  1
SCALE
  2
AcDbScale
  3
ObjectDBX Classes
 90
     1153
280
     0
281
     0
  0
CLASS
  1
SUN
  2
AcDbSun
  3
SCENEOE
 90
     1153
280
     0
281
     0
  0
CLASS
  1
ACDBPLACEHOLDER
  2
AcDbPlaceHolder
  3
ObjectDBX Classes
 90
        0
280
     0
281
     0
  0
CLASS
  1
LAYOUT
  2
AcDbLayout
  3
ObjectDBX Classes
 90
        0
280
     0
281
     0
  0
CLASS
  1
TABLESTYLE
  2
AcDbTableStyle
  3
ObjectDBX Classes
 90
     4095
280
     0
281
     0
  0
CLASS
  1
MLEADERSTYLE
  2
AcDbMLeaderStyle
  3
ACDB_MLEADERSTYLE_CLASS
 90
     4095
280
     0
281
     0
  0
CLASS
  1
RASTERVARIABLES
  2
AcDbRasterVariables
  3
ISM
 90
        0
280
     0
281
     0
  0
CLASS
  1
DICTIONARYVAR
  2
AcDbDictionaryVar
  3
ObjectDBX Classes
 90
        0
280
     0
281
     0
  0
ENDSEC
  0
SECTION
  2
TABLES
  0
TABLE
  2
VPORT
  5
8
330
0
100
AcDbSymbolTable
 70
     1
  0
VPORT
  5
29
330
8
100
AcDbSymbolTableRecord
100
AcDbViewportTableRecord
  2
*Active
 70
     0
 10
0.0
 20
0.0
 11
1.0
 21
1.0
 12
2.916862197901349
 22
-0.5578999188754139
 13
0.0
 23
0.0
 14
10.0
 24
10.0
 15
10.0
 25
10.0
 16
0.0
 26
0.0
 36
1.0
 17
0.0
 27
0.0
 37
0.0
 40
164.9234779850836
 41
1.387755102040817
 42
50.0
 43
0.0
 44
0.0
 50
0.0
 51
0.0
 71
    16
 72
  2000
 73
     1
 74
     3
 75
     0
 76
     0
 77
     0
 78
     0
281
     0
 65
     1
110
0.0
120
0.0
130
0.0
111
1.0
121
0.0
131
0.0
112
0.0
122
1.0
132
0.0
 79
     0
146
0.0
  0
ENDTAB
  0
TABLE
  2
LTYPE
  5
5
330
0
100
AcDbSymbolTable
 70
     6
  0
LTYPE
  5
14
330
5
100
AcDbSymbolTableRecord
100
AcDbLinetypeTableRecord
  2
ByBlock
 70
     0
  3

 72
    65
 73
     0
 40
0.0
  0
LTYPE
  5
15
330
5
100
AcDbSymbolTableRecord
100
AcDbLinetypeTableRecord
  2
ByLayer
 70
     0
  3

 72
    65
 73
     0
 40
0.0
  0
LTYPE
  5
16
330
5
100
AcDbSymbolTableRecord
100
AcDbLinetypeTableRecord
  2
Continuous
 70
     0
  3
Solid line
 72
    65
 73
     0
 40
0.0
  0
LTYPE
  5
6A
330
5
100
AcDbSymbolTableRecord
100
AcDbLinetypeTableRecord
  2
HIDDEN
 70
     0
  3
Hidden __ __ __ __ __ __ __ __ __ __ __ __ __ __
 72
    65
 73
     2
 40
1.905
 49
1.27
 74
     0
 49
-0.635
 74
     0
  0
LTYPE
  5
6B
330
5
100
AcDbSymbolTableRecord
100
AcDbLinetypeTableRecord
  2
PHANTOM
 70
     0
  3
Phantom ______  __  __  ______  __  __  ______
 72
    65
 73
     6
 40
12.7
 49
6.35
 74
     0
 49
-1.27
 74
     0
 49
1.27
 74
     0
 49
-1.27
 74
     0
 49
1.27
 74
     0
 49
-1.27
 74
     0
  0
LTYPE
  5
6C
330
5
100
AcDbSymbolTableRecord
100
AcDbLinetypeTableRecord
  2
CENTER
 70
     0
  3
Center ____ _ ____ _ ____ _ ____ _ ____ _ ____
 72
    65
 73
     4
 40
10.16
 49
6.35
 74
     0
 49
-1.27
 74
     0
 49
1.27
 74
     0
 49
-1.27
 74
     0
  0
LTYPE
  5
6D
330
5
100
AcDbSymbolTableRecord
100
AcDbLinetypeTableRecord
  2
CENTERX2
 70
     0
  3
Center (2x) ________  __  ________  __  _____
 72
    65
 73
     4
 40
20.32
 49
12.7
 74
     0
 49
-2.54
 74
     0
 49
2.54
 74
     0
 49
-2.54
 74
     0
  0
LTYPE
  5
6E
330
5
100
AcDbSymbolTableRecord
100
AcDbLinetypeTableRecord
  2
DOT2
 70
     0
  3
Dot (.5x) ........................................
 72
    65
 73
     2
 40
0.635
 49
0.0
 74
     0
 49
-0.635
 74
     0
  0
ENDTAB
  0
TABLE
  2
LAYER
  5
2
330
0
100
AcDbSymbolTable
 70
    18
  0
LAYER
  5
10
330
2
100
AcDbSymbolTableRecord
100
AcDbLayerTableRecord
  2
0
 70
     0
 62
     7
  6
Continuous
370
    -3
390
F
  0
LAYER
  5
6F
330
2
100
AcDbSymbolTableRecord
100
AcDbLayerTableRecord
  2
FORMAT
 70
     0
 62
     2
  6
Continuous
370
    -3
390
F
  0
LAYER
  5
70
330
2
100
AcDbSymbolTableRecord
100
AcDbLayerTableRecord
  2
외형선
 70
     0
 62
     4
  6
Continuous
370
    30
390
F
  0
LAYER
  5
71
330
2
100
AcDbSymbolTableRecord
100
AcDbLayerTableRecord
  2
숨은선
 70
     0
 62
     2
  6
HIDDEN
370
    15
390
F
  0
LAYER
  5
72
330
2
100
AcDbSymbolTableRecord
100
AcDbLayerTableRecord
  2
중심선
 70
     0
 62
     1
  6
CENTERX2
370
    -3
390
F
  0
LAYER
  5
73
330
2
100
AcDbSymbolTableRecord
100
AcDbLayerTableRecord
  2
파단선
 70
     0
 62
     4
  6
Continuous
370
    -3
390
F
  0
LAYER
  5
74
330
2
100
AcDbSymbolTableRecord
100
AcDbLayerTableRecord
  2
해칭선
 70
     0
 62
   100
  6
Continuous
370
    -3
390
F
  0
LAYER
  5
75
330
2
100
AcDbSymbolTableRecord
100
AcDbLayerTableRecord
  2
가는실선
 70
     0
 62
     4
  6
Continuous
370
    -3
390
F
  0
LAYER
  5
76
330
2
100
AcDbSymbolTableRecord
100
AcDbLayerTableRecord
  2
치수_보조선
 70
     0
 62
     4
  6
Continuous
370
    -3
390
F
  0
LAYER
  5
77
330
2
100
AcDbSymbolTableRecord
100
AcDbLayerTableRecord
  2
치수문자_일반주서
 70
     0
 62
     7
  6
Continuous
370
    15
390
F
  0
LAYER
  5
78
330
2
100
AcDbSymbolTableRecord
100
AcDbLayerTableRecord
  2
개별주서
 70
     0
 62
   100
  6
Continuous
370
    30
390
F
  0
LAYER
  5
79
330
2
100
AcDbSymbolTableRecord
100
AcDbLayerTableRecord
  2
중간선
 70
     0
 62
     2
  6
Continuous
370
    15
390
F
  0
LAYER
  5
7A
330
2
100
AcDbSymbolTableRecord
100
AcDbLayerTableRecord
  2
윤곽선
 70
     0
 62
     3
  6
Continuous
370
    40
390
F
  0
LAYER
  5
7B
330
2
100
AcDbSymbolTableRecord
100
AcDbLayerTableRecord
  2
중심마크
 70
     0
 62
   100
  6
Continuous
370
    30
390
F
  0
LAYER
  5
7C
330
2
100
AcDbSymbolTableRecord
100
AcDbLayerTableRecord
  2
가상선
 70
     0
 62
     4
  6
PHANTOM
370
    -3
390
F
  0
LAYER
  5
7D
330
2
100
AcDbSymbolTableRecord
100
AcDbLayerTableRecord
  2
특수지정선
 70
     0
 62
     5
  6
CENTERX2
370
    60
390
F
  0
LAYER
  5
7E
330
2
100
AcDbSymbolTableRecord
100
AcDbLayerTableRecord
  2
참조1
 70
     0
 62
    -4
  6
Continuous
370
    -3
390
F
  0
LAYER
  5
24B
330
2
100
AcDbSymbolTableRecord
100
AcDbLayerTableRecord
  2
Defpoints
 70
     0
 62
     7
  6
Continuous
290
     0
370
    -3
390
F
  0
ENDTAB
  0
TABLE
  2
STYLE
  5
3
330
0
100
AcDbSymbolTable
 70
     2
  0
STYLE
  5
11
330
3
100
AcDbSymbolTableRecord
100
AcDbTextStyleTableRecord
  2
Standard
 70
     0
 40
0.0
 41
1.0
 50
0.0
 71
     0
 42
3.5
  3
txt
  4

  0
STYLE
  5
94
330
3
100
AcDbSymbolTableRecord
100
AcDbTextStyleTableRecord
  2
SLDTEXTSTYLE0
 70
     0
 40
0.0
 41
0.75
 50
0.0
 71
     0
 42
3.5
  3
TXT
  4

  0
ENDTAB
  0
TABLE
  2
VIEW
  5
6
330
0
100
AcDbSymbolTable
 70
     0
  0
ENDTAB
  0
TABLE
  2
UCS
  5
7
330
0
100
AcDbSymbolTable
 70
     0
  0
ENDTAB
  0
TABLE
  2
APPID
  5
9
330
0
100
AcDbSymbolTable
 70
     1
  0
APPID
  5
12
330
9
100
AcDbSymbolTableRecord
100
AcDbRegAppTableRecord
  2
ACAD
 70
     0
  0
ENDTAB
  0
TABLE
  2
DIMSTYLE
  5
A
330
0
100
AcDbSymbolTable
 70
     4
100
AcDbDimStyleTable
  0
DIMSTYLE
105
27
330
A
100
AcDbSymbolTableRecord
100
AcDbDimStyleTableRecord
  2
ISO-25
 70
     0
 41
2.5
 42
0.625
 43
3.75
 44
1.25
 73
     0
 74
     0
 77
     1
 78
     8
140
2.5
141
2.5
143
0.03937007874016
147
0.625
171
     3
172
     1
178
     0
271
     2
272
     2
274
     3
278
    44
283
     0
284
     8
340
11
  0
DIMSTYLE
105
1CA
102
{ACAD_REACTORS
330
1C9
330
1F1
102
}
330
A
100
AcDbSymbolTableRecord
100
AcDbDimStyleTableRecord
  2
SLDDIMSTYLE0
 70
     0
 41
3.302
 44
0.0
 45
0.000000001
 73
     0
 74
     0
 77
     1
 78
    12
 79
     3
140
3.5
143
0.0393700787401575
147
0.875
148
0.000000001
170
     1
173
     1
178
     0
271
     2
272
     2
276
     2
284
    12
340
94
  0
DIMSTYLE
105
1DD
102
{ACAD_REACTORS
330
1DC
102
}
330
A
100
AcDbSymbolTableRecord
100
AcDbDimStyleTableRecord
  2
SLDDIMSTYLE1
 70
     0
 41
3.302
 44
0.0
 45
0.000000001
 73
     0
 74
     0
 77
     1
 78
    12
 79
     3
140
3.5
143
0.0393700787401575
147
0.875
148
0.000000001
170
     1
172
     1
173
     1
178
     0
271
     2
272
     2
276
     2
284
    12
289
     0
340
94
  0
DIMSTYLE
105
206
102
{ACAD_REACTORS
330
205
102
}
330
A
100
AcDbSymbolTableRecord
100
AcDbDimStyleTableRecord
  2
SLDDIMSTYLE2
 70
     0
 41
3.302
 44
0.0
 45
0.000000001
 73
     0
 74
     0
 77
     1
 78
     4
 79
     1
140
3.5
143
0.0393700787401575
147
0.875
148
0.000000001
170
     1
173
     1
178
     0
271
     2
272
     2
276
     2
284
    12
340
94
  0
ENDTAB
  0
TABLE
  2
BLOCK_RECORD
  5
1
330
0
100
AcDbSymbolTable
 70
     7
  0
BLOCK_RECORD
  5
1F
330
1
100
AcDbSymbolTableRecord
100
AcDbBlockTableRecord
  2
*Model_Space
340
22
  0
BLOCK_RECORD
  5
1B
330
1
100
AcDbSymbolTableRecord
100
AcDbBlockTableRecord
  2
*Paper_Space
340
1E
  0
BLOCK_RECORD
  5
23
330
1
100
AcDbSymbolTableRecord
100
AcDbBlockTableRecord
  2
*Paper_Space0
340
26
  0
BLOCK_RECORD
  5
7F
330
1
100
AcDbSymbolTableRecord
100
AcDbBlockTableRecord
  2
블럭10
340
0
102
{BLKREFS
331
1C1
102
}
  0
BLOCK_RECORD
  5
1CB
330
1
100
AcDbSymbolTableRecord
100
AcDbBlockTableRecord
  2
_D
340
0
  0
BLOCK_RECORD
  5
1DE
330
1
100
AcDbSymbolTableRecord
100
AcDbBlockTableRecord
  2
_D_1
340
0
  0
BLOCK_RECORD
  5
1F2
330
1
100
AcDbSymbolTableRecord
100
AcDbBlockTableRecord
  2
_D_2
340
0
  0
BLOCK_RECORD
  5
207
330
1
100
AcDbSymbolTableRecord
100
AcDbBlockTableRecord
  2
_D_3
340
0
  0
BLOCK_RECORD
  5
220
330
1
100
AcDbSymbolTableRecord
100
AcDbBlockTableRecord
  2
SW_DOWELSYMBOL_0
340
0
102
{BLKREFS
331
226
102
}
  0
ENDTAB
  0
ENDSEC
  0
SECTION
  2
BLOCKS
  0
BLOCK
  5
20
330
1F
100
AcDbEntity
  8
0
100
AcDbBlockBegin
  2
*Model_Space
 70
     0
 10
0.0
 20
0.0
 30
0.0
  3
*Model_Space
  1
*Model_Space
  0
ENDBLK
  5
21
330
1F
100
AcDbEntity
  8
0
100
AcDbBlockEnd
  0
BLOCK
  5
1C
330
1B
100
AcDbEntity
 67
     1
  8
0
100
AcDbBlockBegin
  2
*Paper_Space
 70
     0
 10
0.0
 20
0.0
 30
0.0
  3
*Paper_Space
  1
*Paper_Space
  0
ENDBLK
  5
1D
330
1B
100
AcDbEntity
 67
     1
  8
0
100
AcDbBlockEnd
  0
BLOCK
  5
24
330
23
100
AcDbEntity
  8
0
100
AcDbBlockBegin
  2
*Paper_Space0
 70
     0
 10
0.0
 20
0.0
 30
0.0
  3
*Paper_Space0
  1
*Paper_Space0
  0
ENDBLK
  5
25
330
23
100
AcDbEntity
  8
0
100
AcDbBlockEnd
  0
BLOCK
  5
80
330
7F
100
AcDbEntity
  8
0
100
AcDbBlockBegin
  2
블럭10
 70
     2
 10
0.0
 20
0.0
 30
0.0
  3
블럭10
  1
블럭10
  0
ELLIPSE
  5
82
330
7F
100
AcDbEntity
  8
중심선
100
AcDbEllipse
 10
20.54032771741204
 20
12.0471743016438
 30
0.0
 11
6.600054785286829
 21
-1.261213355974178E-13
 31
0.0
210
0.0
220
0.0
230
1.0
 40
0.636358354079598
 41
0.9219305317359503
 42
6.513795318482858
  0
ELLIPSE
  5
83
330
7F
100
AcDbEntity
  8
중심선
100
AcDbEllipse
 10
20.54032771746488
 20
12.04717430159265
 30
0.0
 11
3.960054785062283
 21
1.540847449632565E-10
 31
0.0
210
0.0
220
0.0
230
1.0
 40
0.3939339440162632
 41
1.131841032648279
 42
5.62031148352944
  0
LINE
  5
84
330
7F
100
AcDbEntity
  8
중심선
100
AcDbLine
 10
2.268634060543552
 20
16.24717430164393
 30
0.0
 11
5.714909304380834
 21
16.24717430164393
 31
0.0
  0
LINE
  5
85
330
7F
100
AcDbEntity
  8
중심선
100
AcDbLine
 10
5.245725140726316
 20
7.84717430164391
 30
0.0
 11
8.692000384563599
 21
7.84717430164391
 31
0.0
  0
LINE
  5
86
330
7F
100
AcDbEntity
  8
중심선
100
AcDbLine
 10
15.74043728645272
 20
16.24717430164393
 30
0.0
 11
8.692000384563599
 21
7.84717430164391
 31
0.0
  0
LINE
  5
87
330
7F
100
AcDbEntity
  8
중심선
100
AcDbLine
 10
0.1404042013395286
 20
13.71084872107135
 30
0.0
 11
3.58671253028996
 21
13.71088815037384
 31
0.0
  0
LINE
  5
88
330
7F
100
AcDbEntity
  8
중심선
100
AcDbLine
 10
2.750260043222114
 20
10.84717430164391
 30
0.0
 11
6.196535287059397
 21
10.84717430164391
 31
0.0
  0
LINE
  5
89
330
7F
100
AcDbEntity
  8
중심선
100
AcDbLine
 10
12.29416204261559
 20
16.24717430164393
 30
0.0
 11
5.245725140726316
 21
7.84717430164391
 31
0.0
  0
LINE
  5
8A
330
7F
100
AcDbEntity
  8
중심선
100
AcDbLine
 10
10.72767329541681
 20
16.24717430164393
 30
0.0
 11
6.196535287059397
 21
10.84717430164391
 31
0.0
  0
LINE
  5
8B
330
7F
100
AcDbEntity
  8
중심선
100
AcDbLine
 10
7.28139805157953
 20
16.24717430164393
 30
0.0
 11
2.750260043222114
 21
10.84717430164391
 31
0.0
  0
LINE
  5
8C
330
7F
100
AcDbEntity
  8
중심선
100
AcDbLine
 10
5.714909304380834
 20
16.24717430164393
 30
0.0
 11
3.58671253028996
 21
13.71088815037384
 31
0.0
  0
LINE
  5
8D
330
7F
100
AcDbEntity
  8
중심선
100
AcDbLine
 10
2.268634060543552
 20
16.24717430164393
 30
0.0
 11
0.1404042013395286
 21
13.71084872107135
 31
0.0
  0
LINE
  5
8E
330
7F
100
AcDbEntity
  8
중심선
100
AcDbLine
 10
7.28139805157953
 20
16.24717430164393
 30
0.0
 11
10.72767329541681
 21
16.24717430164393
 31
0.0
  0
LINE
  5
8F
330
7F
100
AcDbEntity
  8
중심선
100
AcDbLine
 10
12.29416204261559
 20
16.24717430164393
 30
0.0
 11
15.74043728645272
 21
16.24717430164393
 31
0.0
  0
LINE
  5
90
330
7F
100
AcDbEntity
  8
중심선
100
AcDbLine
 10
19.22036997980202
 20
11.08717430171403
 30
0.0
 11
23.66174974927406
 21
11.08717430171406
 31
0.0
  0
LINE
  5
91
330
7F
100
AcDbEntity
  8
중심선
100
AcDbLine
 10
19.22039502424796
 20
13.00717430171391
 30
0.0
 11
19.22036997980202
 21
11.08717430171403
 31
0.0
  0
LINE
  5
92
330
7F
100
AcDbEntity
  8
중심선
100
AcDbLine
 10
19.22039502424796
 20
13.00717430171391
 30
0.0
 11
26.96566020931264
 21
13.00717430171391
 31
0.0
  0
LINE
  5
93
330
7F
100
AcDbEntity
  8
중심선
100
AcDbLine
 10
22.22332737316547
 20
13.45928029700563
 30
0.0
 11
24.52862924686651
 21
15.39360700705356
 31
0.0
  0
ATTDEF
  5
95
330
7F
100
AcDbEntity
  8
FORMAT
 62
     2
100
AcDbText
 10
-10.14163601213663
 20
2.075366912832191
 30
0.0
 40
4.233333333333333
  1
EM156024 [ 3 FLUTE ]
 41
0.75
  7
SLDTEXTSTYLE0
 11
-10.14163601213663
 21
-0.0412997538344756
 31
0.0
100
AcDbAttributeDefinition
  3

  2
AUTOATTR0
 70
     0
 74
     1
  0
ENDBLK
  5
81
330
7F
100
AcDbEntity
  8
0
100
AcDbBlockEnd
  0
BLOCK
  5
1CC
330
1CB
100
AcDbEntity
  8
0
100
AcDbBlockBegin
  2
_D
 70
     0
 10
0.0
 20
0.0
 30
0.0
  3
_D
  1
_D
  0
LINE
  5
1CE
330
1CB
100
AcDbEntity
  8
치수문자_일반주서
 62
     0
370
    -2
100
AcDbLine
 10
53.3375
 20
9.525000000000002
 30
0.0
 11
72.15171238085748
 21
9.525000000000073
 31
0.0
  0
LINE
  5
1CF
330
1CB
100
AcDbEntity
  8
치수문자_일반주서
 62
     0
370
    -2
100
AcDbLine
 10
53.33750000000001
 20
-9.524999999999977
 30
0.0
 11
72.15171238085755
 21
-9.52499999999991
 31
0.0
  0
LINE
  5
1D0
330
1CB
100
AcDbEntity
  8
치수문자_일반주서
 62
     0
370
    -2
100
AcDbLine
 10
72.15171238085748
 20
9.525000000000073
 30
0.0
 11
72.15171238085735
 21
44.06865000000006
 31
0.0
  0
LINE
  5
1D1
330
1CB
100
AcDbEntity
  8
치수문자_일반주서
 62
     0
370
    -2
100
AcDbLine
 10
72.15171238085749
 20
6.223000000000074
 30
0.0
 11
72.15171238085753
 21
-6.22299999999991
 31
0.0
  0
SOLID
  5
1D2
330
1CB
100
AcDbEntity
  8
치수문자_일반주서
 62
     0
100
AcDbTrace
 10
72.70204571419082
 20
6.223000000000075
 30
0.0
 11
71.60137904752416
 21
6.223000000000072
 31
0.0
 12
72.15171238085748
 22
9.525000000000073
 32
0.0
 13
72.15171238085748
 23
9.525000000000073
 33
0.0
  0
SOLID
  5
1D3
330
1CB
100
AcDbEntity
  8
치수문자_일반주서
 62
     0
100
AcDbTrace
 10
71.6013790475242
 20
-6.222999999999912
 30
0.0
 11
72.70204571419086
 21
-6.222999999999908
 31
0.0
 12
72.15171238085755
 22
-9.52499999999991
 32
0.0
 13
72.15171238085755
 23
-9.52499999999991
 33
0.0
  0
MTEXT
  5
1D4
330
1CB
100
AcDbEntity
  8
치수문자_일반주서
 62
     0
100
AcDbMText
 10
67.7767123808574
 20
30.28740000000004
 30
0.0
 40
3.5
 41
0.0
 71
     2
 72
     1
  1
\A1;%%c19.05 [3/4]
  7
SLDTEXTSTYLE0
 11
-3.729883127349611E-15
 21
1.0
 31
0.0
 73
     1
 44
1.0
  0
POINT
  5
1D5
330
1CB
100
AcDbEntity
  8
Defpoints
 62
     0
100
AcDbPoint
 10
53.275
 20
9.525000000000002
 30
0.0
  0
POINT
  5
1D6
330
1CB
100
AcDbEntity
  8
Defpoints
 62
     0
100
AcDbPoint
 10
53.27500000000001
 20
-9.524999999999977
 30
0.0
  0
POINT
  5
2AF
330
1CB
100
AcDbEntity
  8
Defpoints
 62
     0
100
AcDbPoint
 10
72.15171238085753
 20
-9.524999999999906
 30
0.0
  0
ENDBLK
  5
1CD
330
1CB
100
AcDbEntity
  8
0
100
AcDbBlockEnd
  0
BLOCK
  5
1DF
330
1DE
100
AcDbEntity
  8
0
100
AcDbBlockBegin
  2
_D_1
 70
     0
 10
0.0
 20
0.0
 30
0.0
  3
_D_1
  1
_D_1
  0
LINE
  5
1E1
330
1DE
100
AcDbEntity
  8
치수문자_일반주서
 62
     0
370
    -2
100
AcDbLine
 10
-46.3875
 20
9.524999999999977
 30
0.0
 11
-65.27916666666671
 21
9.524999999999904
 31
0.0
  0
LINE
  5
1E2
330
1DE
100
AcDbEntity
  8
치수문자_일반주서
 62
     0
370
    -2
100
AcDbLine
 10
-46.38749999999998
 20
-9.524999999999993
 30
0.0
 11
-65.27916666666664
 21
-9.525000000000066
 31
0.0
  0
LINE
  5
1E3
330
1DE
100
AcDbEntity
  8
치수문자_일반주서
 62
     0
370
    -2
100
AcDbLine
 10
-65.2791666666667
 20
6.222999999999905
 30
0.0
 11
-65.27916666666665
 21
-6.223000000000066
 31
0.0
  0
SOLID
  5
1E4
330
1DE
100
AcDbEntity
  8
치수문자_일반주서
 62
     0
100
AcDbTrace
 10
-64.72883333333337
 20
6.222999999999907
 30
0.0
 11
-65.82950000000002
 21
6.222999999999903
 31
0.0
 12
-65.27916666666671
 22
9.524999999999904
 32
0.0
 13
-65.27916666666671
 23
9.524999999999904
 33
0.0
  0
SOLID
  5
1E5
330
1DE
100
AcDbEntity
  8
치수문자_일반주서
 62
     0
100
AcDbTrace
 10
-65.82949999999998
 20
-6.223000000000068
 30
0.0
 11
-64.72883333333333
 21
-6.223000000000065
 31
0.0
 12
-65.27916666666664
 22
-9.525000000000066
 32
0.0
 13
-65.27916666666664
 23
-9.525000000000066
 33
0.0
  0
MTEXT
  5
1E6
330
1DE
100
AcDbEntity
  8
치수문자_일반주서
 62
     0
100
AcDbMText
 10
-69.65416666666667
 20
-1.859180434525771
 30
0.0
 40
3.5
 41
0.0
 71
     2
 72
     1
  1
\A1;%%c19.05 [3/4]
  7
SLDTEXTSTYLE0
 11
-3.729883127349614E-15
 21
1.0
 31
0.0
 73
     1
 44
1.0
  0
POINT
  5
1E7
330
1DE
100
AcDbEntity
  8
Defpoints
 62
     0
100
AcDbPoint
 10
-46.325
 20
9.524999999999977
 30
0.0
  0
POINT
  5
1E8
330
1DE
100
AcDbEntity
  8
Defpoints
 62
     0
100
AcDbPoint
 10
-46.32499999999998
 20
-9.524999999999993
 30
0.0
  0
POINT
  5
1E9
330
1DE
100
AcDbEntity
  8
Defpoints
 62
     0
100
AcDbPoint
 10
-65.27916666666664
 20
-9.525000000000064
 30
0.0
  0
ENDBLK
  5
1E0
330
1DE
100
AcDbEntity
  8
0
100
AcDbBlockEnd
  0
BLOCK
  5
1F3
330
1F2
100
AcDbEntity
  8
0
100
AcDbBlockBegin
  2
_D_2
 70
     0
 10
0.0
 20
0.0
 30
0.0
  3
_D_2
  1
_D_2
  0
LINE
  5
1F5
330
1F2
100
AcDbEntity
  8
치수문자_일반주서
 62
     0
370
    -2
100
AcDbLine
 10
53.275
 20
6.229975262783475
 30
0.0
 11
53.275
 21
25.0418668319905
 31
0.0
  0
LINE
  5
1F6
330
1F2
100
AcDbEntity
  8
치수문자_일반주서
 62
     0
370
    -2
100
AcDbLine
 10
12.0
 20
9.587499999999972
 30
0.0
 11
12.0
 21
25.0418668319905
 31
0.0
  0
LINE
  5
1F7
330
1F2
100
AcDbEntity
  8
치수문자_일반주서
 62
     0
370
    -2
100
AcDbLine
 10
49.973
 20
25.0418668319905
 30
0.0
 11
15.302
 21
25.0418668319905
 31
0.0
  0
SOLID
  5
1F8
330
1F2
100
AcDbEntity
  8
치수문자_일반주서
 62
     0
100
AcDbTrace
 10
49.973
 20
24.49153349865716
 30
0.0
 11
49.973
 21
25.59220016532383
 31
0.0
 12
53.275
 22
25.0418668319905
 32
0.0
 13
53.275
 23
25.0418668319905
 33
0.0
  0
SOLID
  5
1F9
330
1F2
100
AcDbEntity
  8
치수문자_일반주서
 62
     0
100
AcDbTrace
 10
15.302
 20
25.59220016532383
 30
0.0
 11
15.302
 21
24.49153349865716
 31
0.0
 12
12.0
 22
25.0418668319905
 32
0.0
 13
12.0
 23
25.0418668319905
 33
0.0
  0
MTEXT
  5
1FA
330
1F2
100
AcDbEntity
  8
치수문자_일반주서
 62
     0
100
AcDbMText
 10
33.05053968809312
 20
29.4168668319905
 30
0.0
 40
3.5
 41
0.0
 71
     2
 72
     1
  1
\A1;41.28 [1 5/8]
  7
SLDTEXTSTYLE0
 73
     1
 44
1.0
  0
POINT
  5
1FB
330
1F2
100
AcDbEntity
  8
Defpoints
 62
     0
100
AcDbPoint
 10
53.275
 20
6.167475262783475
 30
0.0
  0
POINT
  5
1FC
330
1F2
100
AcDbEntity
  8
Defpoints
 62
     0
100
AcDbPoint
 10
12.0
 20
9.524999999999972
 30
0.0
  0
POINT
  5
1FD
330
1F2
100
AcDbEntity
  8
Defpoints
 62
     0
100
AcDbPoint
 10
12.0
 20
25.0418668319905
 30
0.0
  0
ENDBLK
  5
1F4
330
1F2
100
AcDbEntity
  8
0
100
AcDbBlockEnd
  0
BLOCK
  5
208
330
207
100
AcDbEntity
  8
0
100
AcDbBlockBegin
  2
_D_3
 70
     0
 10
0.0
 20
0.0
 30
0.0
  3
_D_3
  1
_D_3
  0
LINE
  5
20A
330
207
100
AcDbEntity
  8
치수문자_일반주서
 62
     0
370
    -2
100
AcDbLine
 10
53.275
 20
7.317030153947683
 30
0.0
 11
53.27500000000001
 21
45.27617589570664
 31
0.0
  0
LINE
  5
20B
330
207
100
AcDbEntity
  8
치수문자_일반주서
 62
     0
370
    -2
100
AcDbLine
 10
-48.32499999999999
 20
7.587499999999981
 30
0.0
 11
-48.32499999999999
 21
45.27617589570664
 31
0.0
  0
LINE
  5
20C
330
207
100
AcDbEntity
  8
치수문자_일반주서
 62
     0
370
    -2
100
AcDbLine
 10
49.97300000000001
 20
45.27617589570664
 30
0.0
 11
-45.02299999999999
 21
45.27617589570664
 31
0.0
  0
SOLID
  5
20D
330
207
100
AcDbEntity
  8
치수문자_일반주서
 62
     0
100
AcDbTrace
 10
49.97300000000001
 20
44.72584256237331
 30
0.0
 11
49.97300000000001
 21
45.82650922903998
 31
0.0
 12
53.27500000000001
 22
45.27617589570664
 32
0.0
 13
53.27500000000001
 23
45.27617589570664
 33
0.0
  0
SOLID
  5
20E
330
207
100
AcDbEntity
  8
치수문자_일반주서
 62
     0
100
AcDbTrace
 10
-45.02299999999999
 20
45.82650922903998
 30
0.0
 11
-45.02299999999999
 21
44.72584256237331
 31
0.0
 12
-48.32499999999999
 22
45.27617589570664
 32
0.0
 13
-48.32499999999999
 23
45.27617589570664
 33
0.0
  0
MTEXT
  5
20F
330
207
100
AcDbEntity
  8
치수문자_일반주서
 62
     0
100
AcDbMText
 10
2.520887460842342
 20
49.65117589570664
 30
0.0
 40
3.5
 41
0.0
 71
     2
 72
     1
  1
\A1;101.60 [4]
  7
SLDTEXTSTYLE0
 73
     1
 44
1.0
  0
POINT
  5
210
330
207
100
AcDbEntity
  8
Defpoints
 62
     0
100
AcDbPoint
 10
53.275
 20
7.254530153947683
 30
0.0
  0
POINT
  5
211
330
207
100
AcDbEntity
  8
Defpoints
 62
     0
100
AcDbPoint
 10
-48.32499999999999
 20
7.524999999999981
 30
0.0
  0
POINT
  5
212
330
207
100
AcDbEntity
  8
Defpoints
 62
     0
100
AcDbPoint
 10
-48.32499999999999
 20
45.27617589570664
 30
0.0
  0
ENDBLK
  5
209
330
207
100
AcDbEntity
  8
0
100
AcDbBlockEnd
  0
BLOCK
  5
221
330
220
100
AcDbEntity
  8
0
100
AcDbBlockBegin
  2
SW_DOWELSYMBOL_0
 70
     0
 10
0.0
 20
0.0
 30
0.0
  3
SW_DOWELSYMBOL_0
  1
SW_DOWELSYMBOL_0
  0
CIRCLE
  5
223
330
220
100
AcDbEntity
  8
해칭선
 62
     0
100
AcDbCircle
 10
0.0
 20
0.0
 30
0.0
 40
3.000000000000004
  0
HATCH
  5
224
330
220
100
AcDbEntity
  8
0
  6
Continuous
 62
     0
370
     0
100
AcDbHatch
 10
0.0
 20
0.0
 30
0.0
210
0.0
220
0.0
230
1.0
  2
SOLID
 70
     1
 71
     0
 91
        1
 92
        0
 93
        3
 72
     2
 10
0.0000000000000104
 20
-0.0000000000000035
 40
3.000000000000004
 50
0.0
 51
90.0
 73
     1
 72
     1
 10
0.0000000000000104
 20
3.000000000000001
 11
0.0000000000000104
 21
-0.0000000000000036
 72
     1
 10
0.0000000000000104
 20
-0.0000000000000035
 11
3.000000000000015
 21
-0.0000000000000035
 97
        0
 75
     0
 76
     1
 98
        1
 10
0.0
 20
0.0
  0
HATCH
  5
225
330
220
100
AcDbEntity
  8
0
  6
Continuous
 62
     0
370
     0
100
AcDbHatch
 10
0.0
 20
0.0
 30
0.0
210
0.0
220
0.0
230
1.0
  2
SOLID
 70
     1
 71
     0
 91
        1
 92
        0
 93
        3
 72
     2
 10
0.0000000000000104
 20
-0.0000000000000035
 40
3.000000000000004
 50
180.0
 51
270.0000000000007
 73
     1
 72
     1
 10
0.0000000000000104
 20
-3.000000000000008
 11
0.0000000000000104
 21
-0.0000000000000036
 72
     1
 10
0.0000000000000104
 20
-0.0000000000000035
 11
-2.999999999999994
 21
-0.0000000000000035
 97
        0
 75
     0
 76
     1
 98
        1
 10
0.0
 20
0.0
  0
ENDBLK
  5
222
330
220
100
AcDbEntity
  8
0
100
AcDbBlockEnd
  0
ENDSEC
  0
SECTION
  2
ENTITIES
  0
LINE
  5
96
330
1F
100
AcDbEntity
  8
외형선
  6
Continuous
370
    15
100
AcDbLine
 10
12.0
 20
9.524999999999972
 30
0.0
 11
-46.32500000000001
 21
9.524999999999961
 31
0.0
  0
LINE
  5
97
330
1F
100
AcDbEntity
  8
외형선
  6
Continuous
370
    15
100
AcDbLine
 10
-46.32499999999998
 20
-9.524999999999993
 30
0.0
 11
12.0
 21
-9.524999999999984
 31
0.0
  0
LINE
  5
98
330
1F
100
AcDbEntity
  8
외형선
  6
Continuous
370
    15
100
AcDbLine
 10
-46.325
 20
9.524999999999974
 30
0.0
 11
-48.32499999999999
 21
7.524999999999981
 31
0.0
  0
LINE
  5
99
330
1F
100
AcDbEntity
  8
외형선
  6
Continuous
370
    15
100
AcDbLine
 10
-48.32499999999999
 20
-7.524999999999982
 30
0.0
 11
-46.325
 21
-9.524999999999977
 31
0.0
  0
SPLINE
  5
9A
330
1F
100
AcDbEntity
  8
외형선
  6
Continuous
 62
     1
370
    15
100
AcDbSpline
210
0.0
220
0.0
230
1.0
 70
     8
 71
     3
 72
     9
 73
     5
 74
     0
 42
0.000000001
 43
0.00000001
 40
0.0
 40
0.0
 40
0.0
 40
0.0
 40
0.2525306192613339
 40
0.9999999999999999
 40
0.9999999999999999
 40
0.9999999999999999
 40
0.9999999999999999
 10
23.54931955360283
 20
-9.254168203956675
 30
0.0
 10
23.58026413190537
 20
-9.260974368763609
 30
0.0
 10
23.70280205777381
 20
-9.287926208611163
 30
0.0
 10
23.79221363352119
 20
-9.354788880428126
 30
0.0
 10
23.85904604867596
 20
-9.404766680325695
 30
0.0
  0
LINE
  5
9B
330
1F
100
AcDbEntity
  8
외형선
  6
Continuous
 62
     1
370
    15
100
AcDbLine
 10
24.22909543465024
 20
-9.524999999999986
 30
0.0
 11
26.34970295095425
 21
-9.524999999999986
 31
0.0
  0
SPLINE
  5
9C
330
1F
100
AcDbEntity
  8
외형선
  6
Continuous
 62
     1
370
    15
100
AcDbSpline
210
0.0
220
0.0
230
1.0
 70
     8
 71
     3
 72
     9
 73
     5
 74
     0
 42
0.000000001
 43
0.00000001
 40
0.0
 40
0.0
 40
0.0
 40
0.0
 40
0.4985632956629031
 40
1.0
 40
1.0
 40
1.0
 40
1.0
 10
23.85904654727586
 20
-9.404767071067452
 30
0.0
 10
23.91188006784282
 20
-9.43944779590271
 30
0.0
 10
24.0178516085209
 20
-9.509009123695892
 30
0.0
 10
24.14066812865725
 20
-9.519659506930767
 30
0.0
 10
24.20225283975258
 20
-9.524999999999988
 30
0.0
  0
SPLINE
  5
A0
330
1F
100
AcDbEntity
  8
외형선
  6
Continuous
 62
     1
370
    15
100
AcDbSpline
210
0.0
220
0.0
230
1.0
 70
     8
 71
     3
 72
     9
 73
     5
 74
     0
 42
0.000000001
 43
0.00000001
 40
0.0
 40
0.0
 40
0.0
 40
0.0
 40
0.5016424317447656
 40
1.0
 40
1.0
 40
1.0
 40
1.0
 10
26.35269890347389
 20
-9.524922783193112
 30
0.0
 10
26.4120238227048
 20
-9.519740189518357
 30
0.0
 10
26.53028518872317
 20
-9.509408938916748
 30
0.0
 10
26.63167815569987
 20
-9.444412699677292
 30
0.0
 10
26.68220810816054
 20
-9.412021331944178
 30
0.0
  0
SPLINE
  5
A1
330
1F
100
AcDbEntity
  8
외형선
  6
Continuous
 62
     1
370
    15
100
AcDbSpline
210
0.0
220
0.0
230
1.0
 70
     8
 71
     3
 72
    11
 73
     7
 74
     0
 42
0.000000001
 43
0.00000001
 40
0.0
 40
0.0
 40
0.0
 40
0.0
 40
0.2445955317804439
 40
0.4999465975032778
 40
0.7553203505911168
 40
1.0
 40
1.0
 40
1.0
 40
1.0
 10
26.66934284059603
 20
-9.417057946572527
 30
0.0
 10
26.75663132265287
 20
-9.359124969586714
 30
0.0
 10
26.93504659985718
 20
-9.240711544302691
 30
0.0
 10
27.26629035772659
 20
-9.186224128178443
 30
0.0
 10
27.59752575799925
 20
-9.236313980689623
 30
0.0
 10
27.77583313717157
 20
-9.351421804772945
 30
0.0
 10
27.86308019279617
 20
-9.407744873269841
 30
0.0
  0
SPLINE
  5
A3
330
1F
100
AcDbEntity
  8
외형선
  6
Continuous
 62
     1
370
    15
100
AcDbSpline
210
0.0
220
0.0
230
1.0
 70
     8
 71
     3
 72
     9
 73
     5
 74
     0
 42
0.000000001
 43
0.00000001
 40
0.0
 40
0.0
 40
0.0
 40
0.0
 40
0.4985632191734577
 40
1.0
 40
1.0
 40
1.0
 40
1.0
 10
27.85910000402354
 20
-9.404808931474568
 30
0.0
 10
27.91192613134758
 20
-9.439478412132907
 30
0.0
 10
28.01788285918566
 20
-9.50901719743644
 30
0.0
 10
28.14068480683487
 20
-9.519662202106339
 30
0.0
 10
28.20226222014331
 20
-9.524999998979895
 30
0.0
  0
LINE
  5
A4
330
1F
100
AcDbEntity
  8
외형선
  6
Continuous
 62
     1
370
    15
100
AcDbLine
 10
28.20214480637956
 20
-9.524999999999986
 30
0.0
 11
30.34982433315751
 21
-9.524999999999986
 31
0.0
  0
SPLINE
  5
A6
330
1F
100
AcDbEntity
  8
외형선
  6
Continuous
 62
     1
370
    15
100
AcDbSpline
210
0.0
220
0.0
230
1.0
 70
     8
 71
     3
 72
     9
 73
     5
 74
     0
 42
0.000000001
 43
0.00000001
 40
0.0
 40
0.0
 40
0.0
 40
0.0
 40
0.5021242565836328
 40
1.0
 40
1.0
 40
1.0
 40
1.0
 10
30.35011820168755
 20
-9.524999999993742
 30
0.0
 10
30.41158901361447
 20
-9.519697356771017
 30
0.0
 10
30.53401052805231
 20
-9.509136936410513
 30
0.0
 10
30.63986498432429
 20
-9.43972110454924
 30
0.0
 10
30.69256735043462
 20
-9.405160645656439
 30
0.0
  0
SPLINE
  5
A7
330
1F
100
AcDbEntity
  8
외형선
  6
Continuous
 62
     1
370
    15
100
AcDbSpline
210
0.0
220
0.0
230
1.0
 70
     8
 71
     3
 72
    11
 73
     7
 74
     0
 42
0.000000001
 43
0.00000001
 40
0.0
 40
0.0
 40
0.0
 40
0.0
 40
0.2165312519261956
 40
0.4577969990583248
 40
0.7219531014986543
 40
1.0
 40
1.0
 40
1.0
 40
1.0
 10
30.69807924036645
 20
-9.400481788121777
 30
0.0
 10
30.76274876101448
 20
-9.357261984975231
 30
0.0
 10
30.89947504056927
 20
-9.265885354561062
 30
0.0
 10
31.19819880122918
 20
-9.190421869943949
 30
0.0
 10
31.55228709287118
 20
-9.21599506990209
 30
0.0
 10
31.75489796787797
 20
-9.340648650394872
 30
0.0
 10
31.85879876757925
 20
-9.404572201874506
 30
0.0
  0
SPLINE
  5
A8
330
1F
100
AcDbEntity
  8
외형선
  6
Continuous
 62
     1
370
    15
100
AcDbSpline
210
0.0
220
0.0
230
1.0
 70
     8
 71
     3
 72
     9
 73
     5
 74
     0
 42
0.000000001
 43
0.00000001
 40
0.0
 40
0.0
 40
0.0
 40
0.0
 40
0.4985634289951677
 40
1.0
 40
1.0
 40
1.0
 40
1.0
 10
31.8590582655028
 20
-9.404776252772225
 30
0.0
 10
31.91189391675579
 20
-9.439456731368022
 30
0.0
 10
32.01786970274451
 20
-9.50901754666026
 30
0.0
 10
32.14069044530742
 20
-9.51966231630022
 30
0.0
 10
32.20227725730642
 20
-9.524999993087619
 30
0.0
  0
LINE
  5
A9
330
1F
100
AcDbEntity
  8
외형선
  6
Continuous
 62
     1
370
    15
100
AcDbLine
 10
32.20225170403909
 20
-9.524999999999986
 30
0.0
 11
34.34959368743452
 21
-9.524999999999986
 31
0.0
  0
SPLINE
  5
AA
330
1F
100
AcDbEntity
  8
외형선
  6
Continuous
 62
     1
370
    15
100
AcDbSpline
210
0.0
220
0.0
230
1.0
 70
     8
 71
     3
 72
     9
 73
     5
 74
     0
 42
0.000000001
 43
0.00000001
 40
0.0
 40
0.0
 40
0.0
 40
0.0
 40
0.5021235492446573
 40
1.0
 40
1.0
 40
1.0
 40
1.0
 10
34.35013035813292
 20
-9.524999998487298
 30
0.0
 10
34.41159681851435
 20
-9.51969659982421
 30
0.0
 10
34.53400983912233
 20
-9.509134660096295
 30
0.0
 10
34.63985538073069
 20
-9.439727688383343
 30
0.0
 10
34.69255338331495
 20
-9.405171591649221
 30
0.0
  0
SPLINE
  5
AB
330
1F
100
AcDbEntity
  8
외형선
  6
Continuous
 62
     1
370
    15
100
AcDbSpline
210
0.0
220
0.0
230
1.0
 70
     8
 71
     3
 72
    11
 73
     7
 74
     0
 42
0.000000001
 43
0.00000001
 40
0.0
 40
0.0
 40
0.0
 40
0.0
 40
0.2075981081028182
 40
0.4465939248728411
 40
0.7134321827231339
 40
1.0
 40
1.0
 40
1.0
 40
1.0
 10
34.69691296456146
 20
-9.401531653583497
 30
0.0
 10
34.76497614724487
 20
-9.356502892066743
 30
0.0
 10
34.91139657550267
 20
-9.259635095333389
 30
0.0
 10
35.21157464373688
 20
-9.189699953343338
 30
0.0
 10
35.56157524319155
 20
-9.220356147052867
 30
0.0
 10
35.75442510540386
 20
-9.339228020896394
 30
0.0
 10
35.85428769557084
 20
-9.400782916937473
 30
0.0
  0
SPLINE
  5
AC
330
1F
100
AcDbEntity
  8
외형선
  6
Continuous
 62
     1
370
    15
100
AcDbSpline
210
0.0
220
0.0
230
1.0
 70
     8
 71
     3
 72
     9
 73
     5
 74
     0
 42
0.000000001
 43
0.00000001
 40
0.0
 40
0.0
 40
0.0
 40
0.0
 40
0.4985635771069233
 40
0.9999999999999999
 40
0.9999999999999999
 40
0.9999999999999999
 40
0.9999999999999999
 10
35.85904215645512
 20
-9.404763629885634
 30
0.0
 10
35.91188312981686
 20
-9.439449331636427
 30
0.0
 10
36.0178695592074
 20
-9.509020602670834
 30
0.0
 10
36.14070081113834
 20
-9.519663330196813
 30
0.0
 10
36.20229287472605
 20
-9.524999981417269
 30
0.0
  0
LINE
  5
AD
330
1F
100
AcDbEntity
  8
외형선
  6
Continuous
 62
     1
370
    15
100
AcDbLine
 10
36.20213120195289
 20
-9.524999999999986
 30
0.0
 11
38.35000319463626
 21
-9.524999999999986
 31
0.0
  0
SPLINE
  5
AE
330
1F
100
AcDbEntity
  8
외형선
  6
Continuous
 62
     1
370
    15
100
AcDbSpline
210
0.0
220
0.0
230
1.0
 70
     8
 71
     3
 72
     9
 73
     5
 74
     0
 42
0.000000001
 43
0.00000001
 40
0.0
 40
0.0
 40
0.0
 40
0.0
 40
0.5022015739434694
 40
0.9999999999999999
 40
0.9999999999999999
 40
0.9999999999999999
 40
0.9999999999999999
 10
38.34676099825267
 20
-9.524869363584754
 30
0.0
 10
38.40878983636202
 20
-9.51993766978479
 30
0.0
 10
38.5323036629362
 20
-9.510117521748933
 30
0.0
 10
38.63929700869604
 20
-9.440048248067407
 30
0.0
 10
38.69255812781383
 20
-9.405167873913816
 30
0.0
  0
SPLINE
  5
AF
330
1F
100
AcDbEntity
  8
외형선
  6
Continuous
 62
     1
370
    15
100
AcDbSpline
210
0.0
220
0.0
230
1.0
 70
     8
 71
     3
 72
    11
 73
     7
 74
     0
 42
0.000000001
 43
0.00000001
 40
0.0
 40
0.0
 40
0.0
 40
0.0
 40
0.2442022635850489
 40
0.4999584286430276
 40
0.7557314892065103
 40
0.9999999999999999
 40
0.9999999999999999
 40
0.9999999999999999
 40
0.9999999999999999
 10
38.69788059225157
 20
-9.400662882263614
 30
0.0
 10
38.78581086129515
 20
-9.344647686722107
 30
0.0
 10
38.96583162971812
 20
-9.22996705791905
 30
0.0
 10
39.29812317968976
 20
-9.181927656763172
 30
0.0
 10
39.63040635423416
 20
-9.238253081924196
 30
0.0
 10
39.81032597031768
 20
-9.359067531984744
 30
0.0
 10
39.89821605626388
 20
-9.418084956713129
 30
0.0
  0
SPLINE
  5
B1
330
1F
100
AcDbEntity
  8
외형선
  6
Continuous
 62
     1
370
    15
100
AcDbSpline
210
0.0
220
0.0
230
1.0
 70
     8
 71
     3
 72
     9
 73
     5
 74
     0
 42
0.000000001
 43
0.00000001
 40
0.0
 40
0.0
 40
0.0
 40
0.0
 40
0.4988356904373358
 40
1.0
 40
1.0
 40
1.0
 40
1.0
 10
39.88543709724694
 20
-9.417577503645807
 30
0.0
 10
39.93510690551191
 20
-9.448683502451587
 30
0.0
 10
40.03467838609593
 20
-9.511040706240486
 30
0.0
 10
40.15138382086997
 20
-9.519890513398865
 30
0.0
 10
40.20987241951073
 20
-9.524325720893158
 30
0.0
  0
LINE
  5
B2
330
1F
100
AcDbEntity
  8
외형선
  6
Continuous
 62
     1
370
    15
100
AcDbLine
 10
40.2021192822572
 20
-9.524999999999986
 30
0.0
 11
41.21352956557494
 21
-9.524999999999986
 31
0.0
  0
LINE
  5
BA
330
1F
100
AcDbEntity
  8
외형선
  6
Continuous
370
    15
100
AcDbLine
 10
-46.325
 20
9.524999999999977
 30
0.0
 11
-46.325
 21
-9.524999999999963
 31
0.0
  0
LINE
  5
BC
330
1F
100
AcDbEntity
  8
외형선
  6
Continuous
370
    15
100
AcDbLine
 10
-48.32499999999999
 20
7.524999999999981
 30
0.0
 11
-48.32499999999999
 21
-7.524999999999982
 31
0.0
  0
SPLINE
  5
BE
330
1F
100
AcDbEntity
  8
외형선
  6
Continuous
 62
     1
370
    15
100
AcDbSpline
210
0.0
220
0.0
230
1.0
 70
     8
 71
     3
 72
     8
 73
     4
 74
     0
 42
0.000000001
 43
0.00000001
 40
0.0
 40
0.0
 40
0.0
 40
0.0
 40
1.0
 40
1.0
 40
1.0
 40
1.0
 10
49.95148788953125
 20
-4.187990193220677
 30
0.0
 10
49.86044616799354
 20
-4.180851147404638
 30
0.0
 10
49.74895630214951
 20
-4.156599252229057
 30
0.0
 10
49.63433905810353
 20
-4.119013376991224
 30
0.0
  0
SPLINE
  5
C0
330
1F
100
AcDbEntity
  8
외형선
  6
Continuous
 62
     1
370
    15
100
AcDbSpline
210
0.0
220
0.0
230
1.0
 70
     8
 71
     3
 72
     8
 73
     4
 74
     0
 42
0.000000001
 43
0.00000001
 40
0.0
 40
0.0
 40
0.0
 40
0.0
 40
1.0
 40
1.0
 40
1.0
 40
1.0
 10
49.21130983425849
 20
2.058975374813169
 30
0.0
 10
49.32264937065717
 20
2.019408386313176
 30
0.0
 10
49.43456694774331
 20
1.976125044606361
 30
0.0
 10
49.52663141901071
 20
1.938760254991676
 30
0.0
  0
SPLINE
  5
C2
330
1F
100
AcDbEntity
  8
외형선
  6
Continuous
 62
     1
370
    15
100
AcDbSpline
210
0.0
220
0.0
230
1.0
 70
     8
 71
     3
 72
     8
 73
     4
 74
     0
 42
0.000000001
 43
0.00000001
 40
0.0
 40
0.0
 40
0.0
 40
0.0
 40
1.0
 40
1.0
 40
1.0
 40
1.0
 10
50.79148885975411
 20
1.491784060986466
 30
0.0
 10
50.87385690028874
 20
1.463886382969786
 30
0.0
 10
50.97305637089891
 20
1.429295217259342
 30
0.0
 10
51.07601163670797
 20
1.39242226136355
 30
0.0
  0
SPLINE
  5
C5
330
1F
100
AcDbEntity
  8
외형선
  6
Continuous
 62
     1
370
    15
100
AcDbSpline
210
0.0
220
0.0
230
1.0
 70
     8
 71
     3
 72
     8
 73
     4
 74
     0
 42
0.000000001
 43
0.00000001
 40
0.0
 40
0.0
 40
0.0
 40
0.0
 40
1.0
 40
1.0
 40
1.0
 40
1.0
 10
47.43342919195457
 20
-3.382049343563795
 30
0.0
 10
47.32206481682613
 20
-3.344121806638848
 30
0.0
 10
47.21011548922599
 20
-3.297320185998581
 30
0.0
 10
47.11801560911317
 20
-3.2509522769754
 30
0.0
  0
SPLINE
  5
C7
330
1F
100
AcDbEntity
  8
외형선
  6
Continuous
 62
     1
370
    15
100
AcDbSpline
210
0.0
220
0.0
230
1.0
 70
     8
 71
     3
 72
     8
 73
     4
 74
     0
 42
0.000000001
 43
0.00000001
 40
0.0
 40
0.0
 40
0.0
 40
0.0
 40
1.0
 40
1.0
 40
1.0
 40
1.0
 10
46.69254996928098
 20
2.924589854942965
 30
0.0
 10
46.78368997931594
 20
2.905787541166595
 30
0.0
 10
46.89526332729724
 20
2.874011272284809
 30
0.0
 10
47.00995908357117
 20
2.834159844670751
 30
0.0
  0
SPLINE
  5
C9
330
1F
100
AcDbEntity
  8
외형선
  6
Continuous
 62
     1
370
    15
100
AcDbSpline
210
0.0
220
0.0
230
1.0
 70
     8
 71
     3
 72
    10
 73
     6
 74
     0
 42
0.000000001
 43
0.00000001
 40
0.0
 40
0.0
 40
0.0
 40
0.0
 40
0.5
 40
0.5
 40
1.0
 40
1.0
 40
1.0
 40
1.0
 10
51.19643517041299
 20
-4.57844666734007
 30
0.0
 10
51.01019157247139
 20
-4.470351801072564
 30
0.0
 10
50.78598975696634
 20
-4.380499869678122
 30
0.0
 10
50.34052792043068
 20
-4.245401365388844
 30
0.0
 10
50.12796191295238
 20
-4.201828421642371
 30
0.0
 10
49.95148788953127
 20
-4.187990193220678
 30
0.0
  0
SPLINE
  5
CA
330
1F
100
AcDbEntity
  8
외형선
  6
Continuous
 62
     1
370
    15
100
AcDbSpline
210
0.0
220
0.0
230
1.0
 70
     8
 71
     3
 72
    10
 73
     6
 74
     0
 42
0.000000001
 43
0.00000001
 40
0.0
 40
0.0
 40
0.0
 40
0.0
 40
0.5
 40
0.5
 40
1.0
 40
1.0
 40
1.0
 40
1.0
 10
49.5266314190093
 20
1.938760254991677
 30
0.0
 10
49.71375441895035
 20
1.86281552377651
 30
0.0
 10
49.94108284035864
 20
1.783623356763751
 30
0.0
 10
50.39440969510922
 20
1.627252398314557
 30
0.0
 10
50.6118541513232
 20
1.552625513859047
 30
0.0
 10
50.79148885975361
 20
1.491784060986278
 30
0.0
  0
SPLINE
  5
CC
330
1F
100
AcDbEntity
  8
외형선
  6
Continuous
 62
     1
370
    15
100
AcDbSpline
210
0.0
220
0.0
230
1.0
 70
     8
 71
     3
 72
     8
 73
     4
 74
     0
 42
0.000000001
 43
0.00000001
 40
0.0
 40
0.0
 40
0.0
 40
0.0
 40
0.9756232341503304
 40
0.9756232341503304
 40
0.9756232341503304
 40
0.9756232341503304
 10
51.07550581602184
 20
1.392614964280165
 30
0.0
 10
51.78884869891908
 20
1.120819497585346
 30
0.0
 10
52.5033110880765
 20
0.9816317432938547
 30
0.0
 10
53.22118363227597
 20
1.011091293458622
 30
0.0
  0
SPLINE
  5
CE
330
1F
100
AcDbEntity
  8
외형선
  6
Continuous
 62
     1
370
    15
100
AcDbSpline
210
0.0
220
0.0
230
1.0
 70
     8
 71
     3
 72
     8
 73
     4
 74
     0
 42
0.000000001
 43
0.00000001
 40
0.5614439094920822
 40
0.5614439094920822
 40
0.5614439094920822
 40
0.5614439094920822
 40
1.0
 40
1.0
 40
1.0
 40
1.0
 10
52.12455054417757
 20
-4.537899093524967
 30
0.0
 10
51.8187848209486
 20
-4.549194635054768
 30
0.0
 10
51.50886419152349
 20
-4.562679117776587
 30
0.0
 10
51.19643517041299
 20
-4.578446667340064
 30
0.0
  0
SPLINE
  5
CF
330
1F
100
AcDbEntity
  8
외형선
  6
Continuous
 62
     1
370
    15
100
AcDbSpline
210
0.0
220
0.0
230
1.0
 70
     8
 71
     3
 72
     8
 73
     4
 74
     0
 42
0.000000001
 43
0.00000001
 40
0.0
 40
0.0
 40
0.0
 40
0.0
 40
1.0
 40
1.0
 40
1.0
 40
1.0
 10
45.85235811326041
 20
-2.820199501984001
 30
0.0
 10
45.7612178803643
 20
-2.800505745634721
 30
0.0
 10
45.64963839517461
 20
-2.768198526155964
 30
0.0
 10
45.53493187111975
 20
-2.728262247825409
 30
0.0
  0
SPLINE
  5
D1
330
1F
100
AcDbEntity
  8
외형선
  6
Continuous
 62
     1
370
    15
100
AcDbSpline
210
0.0
220
0.0
230
1.0
 70
     8
 71
     3
 72
     8
 73
     4
 74
     0
 42
0.000000001
 43
0.00000001
 40
0.0
 40
0.0
 40
0.0
 40
0.0
 40
1.0
 40
1.0
 40
1.0
 40
1.0
 10
45.11124655929213
 20
3.48512015374649
 30
0.0
 10
45.22264448498788
 20
3.447441038886498
 30
0.0
 10
45.33462012653369
 20
3.400470759759569
 30
0.0
 10
45.42673601520058
 20
3.353472670178194
 30
0.0
  0
SPLINE
  5
D3
330
1F
100
AcDbEntity
  8
외형선
  6
Continuous
 62
     1
370
    15
100
AcDbSpline
210
0.0
220
0.0
230
1.0
 70
     8
 71
     3
 72
     8
 73
     4
 74
     0
 42
0.000000001
 43
0.00000001
 40
0.0
 40
0.0
 40
0.0
 40
0.0
 40
1.0
 40
1.0
 40
1.0
 40
1.0
 10
43.33278879134002
 20
-1.951876662648203
 30
0.0
 10
43.22137835698873
 20
-1.912106057396949
 30
0.0
 10
43.10938976411292
 20
-1.868992693686615
 30
0.0
 10
43.01724389427147
 20
-1.832226052489989
 30
0.0
  0
SPLINE
  5
D4
330
1F
100
AcDbEntity
  8
외형선
  6
Continuous
 62
     1
370
    15
100
AcDbSpline
210
0.0
220
0.0
230
1.0
 70
     8
 71
     3
 72
    10
 73
     6
 74
     0
 42
0.000000001
 43
0.00000001
 40
0.0
 40
0.0
 40
0.0
 40
0.0
 40
0.5
 40
0.5
 40
1.0
 40
1.0
 40
1.0
 40
1.0
 10
43.01724389426286
 20
-1.832226052332384
 30
0.0
 10
42.94462483737154
 20
-0.795419497202796
 30
0.0
 10
42.87170955319021
 20
0.2773357324599285
 30
0.0
 10
42.73683109743789
 20
2.320541406316964
 30
0.0
 10
42.66404335383336
 20
3.344639974020602
 30
0.0
 10
42.59141858537414
 20
4.285883573875148
 30
0.0
  0
SPLINE
  5
D5
330
1F
100
AcDbEntity
  8
외형선
  6
Continuous
 62
     1
370
    15
100
AcDbSpline
210
0.0
220
0.0
230
1.0
 70
     8
 71
     3
 72
     8
 73
     4
 74
     0
 42
0.000000001
 43
0.00000001
 40
0.0
 40
0.0
 40
0.0
 40
0.0
 40
1.0
 40
1.0
 40
1.0
 40
1.0
 10
42.59141858536248
 20
4.285883574036963
 30
0.0
 10
42.6826056008762
 20
4.279556310949329
 30
0.0
 10
42.79421739584265
 20
4.255763776908768
 30
0.0
 10
42.9089437624726
 20
4.218216477476656
 30
0.0
  0
SPLINE
  5
D6
330
1F
100
AcDbEntity
  8
외형선
  6
Continuous
 62
     1
370
    15
100
AcDbSpline
210
0.0
220
0.0
230
1.0
 70
     8
 71
     3
 72
    10
 73
     6
 74
     0
 42
0.000000001
 43
0.00000001
 40
0.0
 40
0.0
 40
0.0
 40
0.0
 40
0.5
 40
0.5
 40
1.0
 40
1.0
 40
1.0
 40
1.0
 10
43.33278858303249
 20
-1.951873660511986
 30
0.0
 10
43.26052956205173
 20
-0.9104814251054899
 30
0.0
 10
43.1877750772495
 20
0.1698378789691539
 30
0.0
 10
43.05275653996313
 20
2.233833132361994
 30
0.0
 10
42.98125639814987
 20
3.264033186074588
 30
0.0
 10
42.90894367726001
 20
4.218217601891243
 30
0.0
  0
SPLINE
  5
D7
330
1F
100
AcDbEntity
  8
외형선
  6
Continuous
 62
     1
370
    15
100
AcDbSpline
210
0.0
220
0.0
230
1.0
 70
     8
 71
     3
 72
    10
 73
     6
 74
     0
 42
0.000000001
 43
0.00000001
 40
0.0
 40
0.0
 40
0.0
 40
0.0
 40
0.5
 40
0.5
 40
1.0
 40
1.0
 40
1.0
 40
1.0
 10
47.11801560911556
 20
-3.250952276975046
 30
0.0
 10
46.93077171675702
 20
-3.156683883189827
 30
0.0
 10
46.70330629512171
 20
-3.070075136966276
 30
0.0
 10
46.2497349336733
 20
-2.920166078472367
 30
0.0
 10
46.0321675999151
 20
-2.859053080770676
 30
0.0
 10
45.85235811326041
 20
-2.820199501984001
 30
0.0
  0
SPLINE
  5
D8
330
1F
100
AcDbEntity
  8
외형선
  6
Continuous
 62
     1
370
    15
100
AcDbSpline
210
0.0
220
0.0
230
1.0
 70
     8
 71
     3
 72
    10
 73
     6
 74
     0
 42
0.000000001
 43
0.00000001
 40
0.0
 40
0.0
 40
0.0
 40
0.0
 40
0.5
 40
0.5
 40
1.0
 40
1.0
 40
1.0
 40
1.0
 10
45.42673601519907
 20
3.353472670177163
 30
0.0
 10
45.61402319344914
 20
3.257917606786267
 30
0.0
 10
45.84153536445602
 20
3.17087267035846
 30
0.0
 10
46.29516830282961
 20
3.021676370017673
 30
0.0
 10
46.51274188699846
 20
2.961684518211653
 30
0.0
 10
46.69254996928021
 20
2.924589854942768
 30
0.0
  0
SPLINE
  5
D9
330
1F
100
AcDbEntity
  8
외형선
  6
Continuous
 62
     1
370
    15
100
AcDbSpline
210
0.0
220
0.0
230
1.0
 70
     8
 71
     3
 72
     8
 73
     4
 74
     0
 42
0.000000001
 43
0.00000001
 40
0.0
 40
0.0
 40
0.0
 40
0.0
 40
1.0
 40
1.0
 40
1.0
 40
1.0
 10
41.43364160875166
 20
-1.269959448468774
 30
0.0
 10
40.70010123035967
 20
-1.005586871345375
 30
0.0
 10
39.96478746067709
 20
-0.7395051803717667
 30
0.0
 10
39.23158735142621
 20
-0.4731214437510118
 30
0.0
  0
SPLINE
  5
DA
330
1F
100
AcDbEntity
  8
외형선
  6
Continuous
 62
     1
370
    15
100
AcDbSpline
210
0.0
220
0.0
230
1.0
 70
     8
 71
     3
 72
    12
 73
     8
 74
     0
 42
0.000000001
 43
0.00000001
 40
0.0
 40
0.0
 40
0.0
 40
0.0
 40
0.2500000000000001
 40
0.2500000000000001
 40
0.5
 40
0.5
 40
1.0
 40
1.0
 40
1.0
 40
1.0
 10
39.23158896589808
 20
-0.473119491636304
 30
0.0
 10
39.19584588144095
 20
0.0563798391436959
 30
0.0
 10
39.1606732766004
 20
0.5852238701210514
 30
0.0
 10
39.09282915840912
 20
1.620355466631767
 30
0.0
 10
39.05884804451709
 20
2.133365612507003
 30
0.0
 10
38.95276895339451
 20
3.656009728352145
 30
0.0
 10
38.87894306382696
 20
4.635283792226127
 30
0.0
 10
38.80802263775826
 20
5.498777341270255
 30
0.0
  0
SPLINE
  5
DB
330
1F
100
AcDbEntity
  8
외형선
  6
Continuous
 62
     1
370
    15
100
AcDbSpline
210
0.0
220
0.0
230
1.0
 70
     8
 71
     3
 72
     8
 73
     4
 74
     0
 42
0.000000001
 43
0.00000001
 40
0.0
 40
0.0
 40
0.0
 40
0.0
 40
1.0
 40
1.0
 40
1.0
 40
1.0
 10
41.00987650634209
 20
4.826491101884019
 30
0.0
 10
40.27565444377743
 20
5.056564108301088
 30
0.0
 10
39.54040794166233
 20
5.281050134925851
 30
0.0
 10
38.80802262065958
 20
5.498777548736154
 30
0.0
  0
SPLINE
  5
DC
330
1F
100
AcDbEntity
  8
외형선
  6
Continuous
 62
     1
370
    15
100
AcDbSpline
210
0.0
220
0.0
230
1.0
 70
     8
 71
     3
 72
    12
 73
     8
 74
     0
 42
0.000000001
 43
0.00000001
 40
0.0
 40
0.0
 40
0.0
 40
0.0
 40
0.25
 40
0.25
 40
0.5
 40
0.5
 40
1.0
 40
1.0
 40
1.0
 40
1.0
 10
41.43364161130452
 20
-1.269958826519464
 30
0.0
 10
41.3975315282825
 20
-0.7428352713583504
 30
0.0
 10
41.36161218011762
 20
-0.2107018139489776
 30
0.0
 10
41.29161490416503
 20
0.841478898533951
 30
0.0
 10
41.25841918009181
 20
1.35712300920436
 30
0.0
 10
41.15520439335263
 20
2.896791750818465
 30
0.0
 10
41.08186265167031
 20
3.91042679389338
 30
0.0
 10
41.00987816111594
 20
4.826495062385836
 30
0.0
  0
SPLINE
  5
DD
330
1F
100
AcDbEntity
  8
외형선
  6
Continuous
 62
     1
370
    15
100
AcDbSpline
210
0.0
220
0.0
230
1.0
 70
     8
 71
     3
 72
     8
 73
     4
 74
     0
 42
0.000000001
 43
0.00000001
 40
0.0
 40
0.0
 40
0.0
 40
0.0
 40
1.0
 40
1.0
 40
1.0
 40
1.0
 10
49.63432838682292
 20
-4.119009877608142
 30
0.0
 10
48.89842453316366
 20
-3.877688455796811
 30
0.0
 10
48.16745460677114
 20
-3.632037510713952
 30
0.0
 10
47.43342919183045
 20
-3.382049343521015
 30
0.0
  0
SPLINE
  5
DE
330
1F
100
AcDbEntity
  8
외형선
  6
Continuous
 62
     1
370
    15
100
AcDbSpline
210
0.0
220
0.0
230
1.0
 70
     8
 71
     3
 72
     8
 73
     4
 74
     0
 42
0.000000001
 43
0.00000001
 40
0.0
 40
0.0
 40
0.0
 40
0.0
 40
1.0
 40
1.0
 40
1.0
 40
1.0
 10
49.21130983381605
 20
2.058975374970417
 30
0.0
 10
48.47596029135586
 20
2.320298242219781
 30
0.0
 10
47.74543106576986
 20
2.578617623310426
 30
0.0
 10
47.00995878642674
 20
2.834159947913695
 30
0.0
  0
SPLINE
  5
DF
330
1F
100
AcDbEntity
  8
외형선
  6
Continuous
 62
     1
370
    15
100
AcDbSpline
210
0.0
220
0.0
230
1.0
 70
     8
 71
     3
 72
     8
 73
     4
 74
     0
 42
0.000000001
 43
0.00000001
 40
0.0
 40
0.0
 40
0.0
 40
0.0
 40
1.0
 40
1.0
 40
1.0
 40
1.0
 10
45.53492412356265
 20
-2.728259550431272
 30
0.0
 10
44.79952105775106
 20
-2.472221244245214
 30
0.0
 10
44.06418024072654
 20
-2.212964246256627
 30
0.0
 10
43.33278734238965
 20
-1.951876145410347
 30
0.0
  0
SPLINE
  5
E0
330
1F
100
AcDbEntity
  8
외형선
  6
Continuous
 62
     1
370
    15
100
AcDbSpline
210
0.0
220
0.0
230
1.0
 70
     8
 71
     3
 72
     8
 73
     4
 74
     0
 42
0.000000001
 43
0.00000001
 40
0.0
 40
0.0
 40
0.0
 40
0.0
 40
1.0
 40
1.0
 40
1.0
 40
1.0
 10
45.11124651151201
 20
3.485120169907582
 30
0.0
 10
44.37504880120562
 20
3.734130893348286
 30
0.0
 10
43.64036098693557
 20
3.978840454654264
 30
0.0
 10
42.90894347166402
 20
4.218216572649908
 30
0.0
  0
SPLINE
  5
E1
330
1F
100
AcDbEntity
  8
외형선
  6
Continuous
 62
     1
370
    15
100
AcDbSpline
210
0.0
220
0.0
230
1.0
 70
     8
 71
     3
 72
     8
 73
     4
 74
     0
 42
0.000000001
 43
0.00000001
 40
0.0
 40
0.0
 40
0.0
 40
0.0
 40
1.0
 40
1.0
 40
1.0
 40
1.0
 10
37.33305213365087
 20
0.2186636000702584
 30
0.0
 10
36.60179981193938
 20
0.4851305303220577
 30
0.0
 10
35.86694471926932
 20
0.7517772622264558
 30
0.0
 10
35.13236542097311
 20
1.017191316232525
 30
0.0
  0
SPLINE
  5
E2
330
1F
100
AcDbEntity
  8
외형선
  6
Continuous
 62
     1
370
    15
100
AcDbSpline
210
0.0
220
0.0
230
1.0
 70
     8
 71
     3
 72
    12
 73
     8
 74
     0
 42
0.000000001
 43
0.00000001
 40
0.0
 40
0.0
 40
0.0
 40
0.0
 40
0.2499999999999999
 40
0.2499999999999999
 40
0.4999999999999998
 40
0.4999999999999998
 40
1.0
 40
1.0
 40
1.0
 40
1.0
 10
35.13236612118799
 20
1.017190859584261
 30
0.0
 10
35.09827930984287
 20
1.536414539337296
 30
0.0
 10
35.06453447755741
 20
2.049452772076445
 30
0.0
 10
34.99392342511624
 20
3.067230729650339
 30
0.0
 10
34.95780390840886
 20
3.5681233608483
 30
0.0
 10
34.84923314641963
 20
5.014455157058026
 30
0.0
 10
34.7769448645321
 20
5.899567660901157
 30
0.0
 10
34.70964867043222
 20
6.644698988590249
 30
0.0
  0
SPLINE
  5
E3
330
1F
100
AcDbEntity
  8
외형선
  6
Continuous
 62
     1
370
    15
100
AcDbSpline
210
0.0
220
0.0
230
1.0
 70
     8
 71
     3
 72
     8
 73
     4
 74
     0
 42
0.000000001
 43
0.00000001
 40
0.0
 40
0.0
 40
0.0
 40
0.0
 40
1.0
 40
1.0
 40
1.0
 40
1.0
 10
36.90979288685371
 20
6.04884799111639
 30
0.0
 10
36.17797288446699
 20
6.25466672109944
 30
0.0
 10
35.44329915237434
 20
6.453640373421226
 30
0.0
 10
34.70964826780745
 20
6.644700025954612
 30
0.0
  0
SPLINE
  5
E4
330
1F
100
AcDbEntity
  8
외형선
  6
Continuous
 62
     1
370
    15
100
AcDbSpline
210
0.0
220
0.0
230
1.0
 70
     8
 71
     3
 72
    12
 73
     8
 74
     0
 42
0.000000001
 43
0.00000001
 40
0.0
 40
0.0
 40
0.0
 40
0.0
 40
0.2499999999999999
 40
0.2499999999999999
 40
0.4999999999999999
 40
0.4999999999999999
 40
1.0
 40
1.0
 40
1.0
 40
1.0
 10
37.3330538395956
 20
0.2186668877618104
 30
0.0
 10
37.29792430717009
 20
0.7457744138385856
 30
0.0
 10
37.26454885484546
 20
1.263103061412685
 30
0.0
 10
37.1959702723271
 20
2.290833844231221
 30
0.0
 10
37.16052303653917
 20
2.802341437346002
 30
0.0
 10
37.05280193296672
 20
4.296906531532633
 30
0.0
 10
36.97921065764456
 20
5.23752367345534
 30
0.0
 10
36.90979362873375
 20
6.048847866516586
 30
0.0
  0
SPLINE
  5
E5
330
1F
100
AcDbEntity
  8
외형선
  6
Continuous
 62
     1
370
    15
100
AcDbSpline
210
0.0
220
0.0
230
1.0
 70
     8
 71
     3
 72
     8
 73
     4
 74
     0
 42
0.000000001
 43
0.00000001
 40
0.0
 40
0.0
 40
0.0
 40
0.0
 40
1.0
 40
1.0
 40
1.0
 40
1.0
 10
41.75113846812634
 20
-1.382720009626767
 30
0.0
 10
41.65997224733398
 20
-1.350921381612008
 30
0.0
 10
41.54837233939453
 20
-1.311309127128156
 30
0.0
 10
41.43364165505919
 20
-1.269959465158342
 30
0.0
  0
SPLINE
  5
E6
330
1F
100
AcDbEntity
  8
외형선
  6
Continuous
 62
     1
370
    15
100
AcDbSpline
210
0.0
220
0.0
230
1.0
 70
     8
 71
     3
 72
     8
 73
     4
 74
     0
 42
0.000000001
 43
0.00000001
 40
0.0
 40
0.0
 40
0.0
 40
0.0
 40
1.0
 40
1.0
 40
1.0
 40
1.0
 10
41.00987852196303
 20
4.826490470276763
 30
0.0
 10
41.12128122306062
 20
4.791581745963291
 30
0.0
 10
41.23325796949393
 20
4.742033352212805
 30
0.0
 10
41.32537729994041
 20
4.68651971725576
 30
0.0
  0
SPLINE
  5
E7
330
1F
100
AcDbEntity
  8
외형선
  6
Continuous
 62
     1
370
    15
100
AcDbSpline
210
0.0
220
0.0
230
1.0
 70
     8
 71
     3
 72
    12
 73
     8
 74
     0
 42
0.000000001
 43
0.00000001
 40
0.0
 40
0.0
 40
0.0
 40
0.0
 40
0.2500000000000001
 40
0.2500000000000001
 40
0.5000000000000001
 40
0.5000000000000001
 40
1.0
 40
1.0
 40
1.0
 40
1.0
 10
41.75113846808989
 20
-1.382720009101926
 30
0.0
 10
41.71483854193676
 20
-0.8600096891056893
 30
0.0
 10
41.67866818438871
 20
-0.3313870124268456
 30
0.0
 10
41.60807825485134
 20
0.715455027612711
 30
0.0
 10
41.57453114527608
 20
1.229338059255434
 30
0.0
 10
41.47133762701743
 20
2.759838946242952
 30
0.0
 10
41.39777331363523
 20
3.770633487786717
 30
0.0
 10
41.32537770629268
 20
4.686514576449089
 30
0.0
  0
SPLINE
  5
E8
330
1F
100
AcDbEntity
  8
외형선
  6
Continuous
 62
     1
370
    15
100
AcDbSpline
210
0.0
220
0.0
230
1.0
 70
     8
 71
     3
 72
     8
 73
     4
 74
     0
 42
0.000000001
 43
0.00000001
 40
0.0
 40
0.0
 40
0.0
 40
0.0
 40
1.0
 40
1.0
 40
1.0
 40
1.0
 10
39.23158914157494
 20
-0.4731220941422182
 30
0.0
 10
39.12019778374388
 20
-0.4326517702044285
 30
0.0
 10
39.00823383962354
 20
-0.3945088434724287
 30
0.0
 10
38.91612377833508
 20
-0.3684705620558208
 30
0.0
  0
SPLINE
  5
E9
330
1F
100
AcDbEntity
  8
외형선
  6
Continuous
 62
     1
370
    15
100
AcDbSpline
210
0.0
220
0.0
230
1.0
 70
     8
 71
     3
 72
    12
 73
     8
 74
     0
 42
0.000000001
 43
0.00000001
 40
0.0
 40
0.0
 40
0.0
 40
0.0
 40
0.2500000000000001
 40
0.2500000000000001
 40
0.5000000000000001
 40
0.5000000000000001
 40
1.0
 40
1.0
 40
1.0
 40
1.0
 10
38.91612377832817
 20
-0.3684705619208108
 30
0.0
 10
38.88028851767102
 20
0.1574218067390738
 30
0.0
 10
38.84507625192183
 20
0.6819521372030942
 30
0.0
 10
38.77726020344488
 20
1.70715421589956
 30
0.0
 10
38.74272197718062
 20
2.217548392330503
 30
0.0
 10
38.63582408579984
 20
3.726290518223882
 30
0.0
 10
38.56164187221771
 20
4.693022359375609
 30
0.0
 10
38.49063791889902
 20
5.541499730910021
 30
0.0
  0
SPLINE
  5
EA
330
1F
100
AcDbEntity
  8
외형선
  6
Continuous
 62
     1
370
    15
100
AcDbSpline
210
0.0
220
0.0
230
1.0
 70
     8
 71
     3
 72
     8
 73
     4
 74
     0
 42
0.000000001
 43
0.00000001
 40
0.0
 40
0.0
 40
0.0
 40
0.0
 40
1.0
 40
1.0
 40
1.0
 40
1.0
 10
38.49063791867548
 20
5.541499733591533
 30
0.0
 10
38.58176312849536
 20
5.547918099361376
 30
0.0
 10
38.69332551956339
 20
5.532875314596207
 30
0.0
 10
38.808022620719
 20
5.49877754872092
 30
0.0
  0
SPLINE
  5
EB
330
1F
100
AcDbEntity
  8
외형선
  6
Continuous
 62
     1
370
    15
100
AcDbSpline
210
0.0
220
0.0
230
1.0
 70
     8
 71
     3
 72
    10
 73
     6
 74
     0
 42
0.000000001
 43
0.00000001
 40
0.0
 40
0.0
 40
0.0
 40
0.0
 40
0.5
 40
0.5
 40
1.0
 40
1.0
 40
1.0
 40
1.0
 10
43.01724389427397
 20
-1.832226052490548
 30
0.0
 10
42.8299112462756
 20
-1.757479433187698
 30
0.0
 10
42.60238041451716
 20
-1.678614694112878
 30
0.0
 10
42.14870583728551
 20
-1.521334063697477
 30
0.0
 10
41.93103869605689
 20
-1.44546891353014
 30
0.0
 10
41.75113846812634
 20
-1.382720009626759
 30
0.0
  0
SPLINE
  5
EC
330
1F
100
AcDbEntity
  8
외형선
  6
Continuous
 62
     1
370
    15
100
AcDbSpline
210
0.0
220
0.0
230
1.0
 70
     8
 71
     3
 72
    10
 73
     6
 74
     0
 42
0.000000001
 43
0.00000001
 40
0.0
 40
0.0
 40
0.0
 40
0.0
 40
0.5
 40
0.5
 40
1.0
 40
1.0
 40
1.0
 40
1.0
 10
41.32537729993894
 20
4.686519717253647
 30
0.0
 10
41.5127208712235
 20
4.573621343182787
 30
0.0
 10
41.74029458193058
 20
4.48079047627793
 30
0.0
 10
42.19399759719036
 20
4.3423036697518
 30
0.0
 10
42.41157395843542
 20
4.298362590517402
 30
0.0
 10
42.59141858536165
 20
4.28588357403667
 30
0.0
  0
SPLINE
  5
F4
330
1F
100
AcDbEntity
  8
외형선
  6
Continuous
 62
     1
370
    15
100
AcDbSpline
210
0.0
220
0.0
230
1.0
 70
     8
 71
     3
 72
    10
 73
     6
 74
     0
 42
0.000000001
 43
0.00000001
 40
0.0
 40
0.0
 40
0.0
 40
0.0
 40
0.4999999999999966
 40
0.4999999999999966
 40
1.0
 40
1.0
 40
1.0
 40
1.0
 10
37.225142898031
 20
5.903900705937733
 30
0.0
 10
37.41240448676393
 20
5.776416377775278
 30
0.0
 10
37.63987463935189
 20
5.680030830111034
 30
0.0
 10
38.09333561039295
 20
5.555551526172867
 30
0.0
 10
38.3108488680776
 20
5.528836367542667
 30
0.0
 10
38.49063791867467
 20
5.54149973359116
 30
0.0
  0
SPLINE
  5
F5
330
1F
100
AcDbEntity
  8
외형선
  6
Continuous
 62
     1
370
    15
100
AcDbSpline
210
0.0
220
0.0
230
1.0
 70
     8
 71
     3
 72
     8
 73
     4
 74
     0
 42
0.000000001
 43
0.00000001
 40
0.0
 40
0.0
 40
0.0
 40
0.0
 40
1.0
 40
1.0
 40
1.0
 40
1.0
 10
36.90979363610224
 20
6.048847780396025
 30
0.0
 10
37.02114744459023
 20
6.017530380014432
 30
0.0
 10
37.13306822684068
 20
5.966583489297477
 30
0.0
 10
37.22514289803243
 20
5.903900705940829
 30
0.0
  0
SPLINE
  5
F6
330
1F
100
AcDbEntity
  8
외형선
  6
Continuous
 62
     1
370
    15
100
AcDbSpline
210
0.0
220
0.0
230
1.0
 70
     8
 71
     3
 72
     8
 73
     4
 74
     0
 42
0.000000001
 43
0.00000001
 40
0.0
 40
0.0
 40
0.0
 40
0.0
 40
1.0
 40
1.0
 40
1.0
 40
1.0
 10
34.39256295087185
 20
6.66141177588999
 30
0.0
 10
34.48358195169234
 20
6.680451237818517
 30
0.0
 10
34.59504606082751
 20
6.674545090629569
 30
0.0
 10
34.70964858418316
 20
6.644699943566121
 30
0.0
  0
SPLINE
  5
F7
330
1F
100
AcDbEntity
  8
외형선
  6
Continuous
 62
     1
370
    15
100
AcDbSpline
210
0.0
220
0.0
230
1.0
 70
     8
 71
     3
 72
    10
 73
     6
 74
     0
 42
0.000000001
 43
0.00000001
 40
0.0
 40
0.0
 40
0.0
 40
0.0
 40
0.5
 40
0.5
 40
1.0
 40
1.0
 40
1.0
 40
1.0
 10
33.12767409996003
 20
6.975381800244874
 30
0.0
 10
33.31480547443651
 20
6.836599778235938
 30
0.0
 10
33.54212825329941
 20
6.739220601510962
 30
0.0
 10
33.99544043596374
 20
6.632478453513266
 30
0.0
 10
34.21290939391288
 20
6.623831632982466
 30
0.0
 10
34.39256295087102
 20
6.661411775889543
 30
0.0
  0
SPLINE
  5
F8
330
1F
100
AcDbEntity
  8
외형선
  6
Continuous
 62
     1
370
    15
100
AcDbSpline
210
0.0
220
0.0
230
1.0
 70
     8
 71
     3
 72
     8
 73
     4
 74
     0
 42
0.000000001
 43
0.00000001
 40
0.0
 40
0.0
 40
0.0
 40
0.0
 40
1.0
 40
1.0
 40
1.0
 40
1.0
 10
32.81233483886545
 20
7.121735197129021
 30
0.0
 10
32.92366918758519
 20
7.094748649392567
 30
0.0
 10
33.03559331292841
 20
7.043671566453321
 30
0.0
 10
33.12767409996151
 20
6.975381800248909
 30
0.0
  0
SPLINE
  5
F9
330
1F
100
AcDbEntity
  8
외형선
  6
Continuous
 62
     1
370
    15
100
AcDbSpline
210
0.0
220
0.0
230
1.0
 70
     8
 71
     3
 72
     8
 73
     4
 74
     0
 42
0.000000001
 43
0.00000001
 40
0.0
 40
0.0
 40
0.0
 40
0.0
 40
1.0
 40
1.0
 40
1.0
 40
1.0
 10
32.81233367252433
 20
7.121735479840677
 30
0.0
 10
32.08124488713951
 20
7.29894549385769
 30
0.0
 10
31.34691360867601
 20
7.468022668577263
 30
0.0
 10
30.61105586858138
 20
7.628180714424062
 30
0.0
  0
SPLINE
  5
FA
330
1F
100
AcDbEntity
  8
외형선
  6
Continuous
 62
     1
370
    15
100
AcDbSpline
210
0.0
220
0.0
230
1.0
 70
     8
 71
     3
 72
     8
 73
     4
 74
     0
 42
0.000000001
 43
0.00000001
 40
0.0
 40
0.0
 40
0.0
 40
0.0
 40
1.0
 40
1.0
 40
1.0
 40
1.0
 10
30.29365865006744
 20
7.618772841219431
 30
0.0
 10
30.38479110424874
 20
7.649886587915437
 30
0.0
 10
30.49636029556447
 20
7.653143989822862
 30
0.0
 10
30.61105647527488
 20
7.628180582382072
 30
0.0
  0
SPLINE
  5
FB
330
1F
100
AcDbEntity
  8
외형선
  6
Continuous
 62
     1
370
    15
100
AcDbSpline
210
0.0
220
0.0
230
1.0
 70
     8
 71
     3
 72
    10
 73
     6
 74
     0
 42
0.000000001
 43
0.00000001
 40
0.0
 40
0.0
 40
0.0
 40
0.0
 40
0.5
 40
0.5
 40
1.0
 40
1.0
 40
1.0
 40
1.0
 10
29.02785106420974
 20
7.877249108915376
 30
0.0
 10
29.2151278064035
 20
7.730531186358502
 30
0.0
 10
29.44262336295312
 20
7.634551065798983
 30
0.0
 10
29.89624357609079
 20
7.547889658874568
 30
0.0
 10
30.11383906670421
 20
7.557380212017176
 30
0.0
 10
30.29365865006702
 20
7.618772841219057
 30
0.0
  0
SPLINE
  5
FC
330
1F
100
AcDbEntity
  8
외형선
  6
Continuous
 62
     1
370
    15
100
AcDbSpline
210
0.0
220
0.0
230
1.0
 70
     8
 71
     3
 72
     8
 73
     4
 74
     0
 42
0.000000001
 43
0.00000001
 40
0.0
 40
0.0
 40
0.0
 40
0.0
 40
1.0
 40
1.0
 40
1.0
 40
1.0
 10
28.7123536164314
 20
8.02114758167819
 30
0.0
 10
28.82374788812296
 20
7.999284290472124
 30
0.0
 10
28.93572736461179
 20
7.949421433497353
 30
0.0
 10
29.02785106421124
 20
7.877249108920304
 30
0.0
  0
SPLINE
  5
FD
330
1F
100
AcDbEntity
  8
외형선
  6
Continuous
 62
     1
370
    15
100
AcDbSpline
210
0.0
220
0.0
230
1.0
 70
     8
 71
     3
 72
     8
 73
     4
 74
     0
 42
0.000000001
 43
0.00000001
 40
0.0
 40
0.0
 40
0.0
 40
0.0
 40
1.0
 40
1.0
 40
1.0
 40
1.0
 10
28.71235373161136
 20
8.021147559071874
 30
0.0
 10
27.9765404466069
 20
8.16556522064197
 30
0.0
 10
27.2456784965624
 20
8.300171518044364
 30
0.0
 10
26.50999878616415
 20
8.425086103676877
 30
0.0
  0
SPLINE
  5
FE
330
1F
100
AcDbEntity
  8
외형선
  6
Continuous
 62
     1
370
    15
100
AcDbSpline
210
0.0
220
0.0
230
1.0
 70
     8
 71
     3
 72
     8
 73
     4
 74
     0
 42
0.000000001
 43
0.00000001
 40
0.0
 40
0.0
 40
0.0
 40
0.0
 40
1.0
 40
1.0
 40
1.0
 40
1.0
 10
26.19249466283355
 20
8.389807428525453
 30
0.0
 10
26.28366834900035
 20
8.432232634615314
 30
0.0
 10
26.39527378851557
 20
8.444565811135677
 30
0.0
 10
26.50999878253206
 20
8.425086104297815
 30
0.0
  0
SPLINE
  5
FF
330
1F
100
AcDbEntity
  8
외형선
  6
Continuous
 62
     1
370
    15
100
AcDbSpline
210
0.0
220
0.0
230
1.0
 70
     8
 71
     3
 72
    10
 73
     6
 74
     0
 42
0.000000001
 43
0.00000001
 40
0.0
 40
0.0
 40
0.0
 40
0.0
 40
0.4999999999999999
 40
0.4999999999999999
 40
1.0
 40
1.0
 40
1.0
 40
1.0
 10
24.92649882568131
 20
8.586707572129779
 30
0.0
 10
25.11381273337236
 20
8.43559799276398
 30
0.0
 10
25.341358398806
 20
8.343299187052368
 30
0.0
 10
25.79505008991307
 20
8.278748327106648
 30
0.0
 10
26.01264588419058
 20
8.306119669262499
 30
0.0
 10
26.19249466283273
 20
8.389807428524879
 30
0.0
  0
SPLINE
  5
100
330
1F
100
AcDbEntity
  8
외형선
  6
Continuous
 62
     1
370
    15
100
AcDbSpline
210
0.0
220
0.0
230
1.0
 70
     8
 71
     3
 72
     8
 73
     4
 74
     0
 42
0.000000001
 43
0.00000001
 40
0.0
 40
0.0
 40
0.0
 40
0.0
 40
1.0
 40
1.0
 40
1.0
 40
1.0
 10
24.61100199647601
 20
8.724738687806592
 30
0.0
 10
24.72240239187106
 20
8.7084949768891
 30
0.0
 10
24.83438019360922
 20
8.661021369310498
 30
0.0
 10
24.92649882568282
 20
8.586707572135383
 30
0.0
  0
SPLINE
  5
101
330
1F
100
AcDbEntity
  8
외형선
  6
Continuous
 62
     1
370
    15
100
AcDbSpline
210
0.0
220
0.0
230
1.0
 70
     8
 71
     3
 72
     8
 73
     4
 74
     0
 42
0.000000001
 43
0.00000001
 40
0.0
 40
0.0
 40
0.0
 40
0.0
 40
1.0
 40
1.0
 40
1.0
 40
1.0
 10
24.61100245730549
 20
8.724738620611296
 30
0.0
 10
23.87482101000607
 20
8.832084012404133
 30
0.0
 10
23.13965185085734
 20
8.92903848117165
 30
0.0
 10
22.40850185878681
 20
9.015198337006195
 30
0.0
  0
SPLINE
  5
102
330
1F
100
AcDbEntity
  8
외형선
  6
Continuous
 62
     1
370
    15
100
AcDbSpline
210
0.0
220
0.0
230
1.0
 70
     8
 71
     3
 72
     8
 73
     4
 74
     0
 42
0.000000001
 43
0.00000001
 40
0.0
 40
0.0
 40
0.0
 40
0.0
 40
1.0
 40
1.0
 40
1.0
 40
1.0
 10
22.09165305959232
 20
8.95484617148023
 30
0.0
 10
22.18279477554113
 20
9.007541512274484
 30
0.0
 10
22.29436663296228
 20
9.02864907543078
 30
0.0
 10
22.40905458066379
 20
9.015133201312278
 30
0.0
  0
SPLINE
  5
103
330
1F
100
AcDbEntity
  8
외형선
  6
Continuous
 62
     1
370
    15
100
AcDbSpline
210
0.0
220
0.0
230
1.0
 70
     8
 71
     3
 72
    10
 73
     6
 74
     0
 42
0.000000001
 43
0.00000001
 40
0.0
 40
0.0
 40
0.0
 40
0.0
 40
0.5
 40
0.5
 40
1.0
 40
1.0
 40
1.0
 40
1.0
 10
20.82620448018003
 20
9.085471859427319
 30
0.0
 10
21.0134468828503
 20
8.933665686052933
 30
0.0
 10
21.24091932707142
 20
8.847265178911233
 30
0.0
 10
21.69444443756244
 20
8.806353661970594
 30
0.0
 10
21.91191331617675
 20
8.850926172442858
 30
0.0
 10
22.09165305959164
 20
8.954846171479689
 30
0.0
  0
SPLINE
  5
104
330
1F
100
AcDbEntity
  8
외형선
  6
Continuous
 62
     1
370
    15
100
AcDbSpline
210
0.0
220
0.0
230
1.0
 70
     8
 71
     3
 72
     8
 73
     4
 74
     0
 42
0.000000001
 43
0.00000001
 40
0.0
 40
0.0
 40
0.0
 40
0.0
 40
1.0
 40
1.0
 40
1.0
 40
1.0
 10
20.51086689674988
 20
9.214321428849429
 30
0.0
 10
20.62221978809036
 20
9.204068102165243
 30
0.0
 10
20.73413893816344
 20
9.160113700351323
 30
0.0
 10
20.82620448018146
 20
9.085471859433355
 30
0.0
  0
SPLINE
  5
105
330
1F
100
AcDbEntity
  8
외형선
  6
Continuous
 62
     1
370
    15
100
AcDbSpline
210
0.0
220
0.0
230
1.0
 70
     8
 71
     3
 72
     8
 73
     4
 74
     0
 42
0.000000001
 43
0.00000001
 40
0.0
 40
0.0
 40
0.0
 40
0.0
 40
1.0
 40
1.0
 40
1.0
 40
1.0
 10
20.51086788369022
 20
9.214321337972345
 30
0.0
 10
19.77730587781548
 20
9.281867424001044
 30
0.0
 10
19.04262454772777
 20
9.338597068665432
 30
0.0
 10
18.31070066617596
 20
9.384235216595535
 30
0.0
  0
SPLINE
  5
106
330
1F
100
AcDbEntity
  8
외형선
  6
Continuous
 62
     1
370
    15
100
AcDbSpline
210
0.0
220
0.0
230
1.0
 70
     8
 71
     3
 72
     8
 73
     4
 74
     0
 42
0.000000001
 43
0.00000001
 40
0.0
 40
0.0
 40
0.0
 40
0.0
 40
1.0
 40
1.0
 40
1.0
 40
1.0
 10
17.99360579940318
 20
9.300249309354099
 30
0.0
 10
18.08462881187691
 20
9.361933958741671
 30
0.0
 10
18.1960933936923
 20
9.39138140143715
 30
0.0
 10
18.31070039270413
 20
9.384235233652383
 30
0.0
  0
SPLINE
  5
107
330
1F
100
AcDbEntity
  8
외형선
  6
Continuous
 62
     1
370
    15
100
AcDbSpline
210
0.0
220
0.0
230
1.0
 70
     8
 71
     3
 72
    10
 73
     6
 74
     0
 42
0.000000001
 43
0.00000001
 40
0.0
 40
0.0
 40
0.0
 40
0.0
 40
0.5
 40
0.5
 40
1.0
 40
1.0
 40
1.0
 40
1.0
 10
16.72867182078848
 20
9.36132751819218
 30
0.0
 10
16.91585175362815
 20
9.212573489787589
 30
0.0
 10
17.14320857406935
 20
9.134184570245223
 30
0.0
 10
17.59649741402025
 20
9.117831243780934
 30
0.0
 10
17.81394233670927
 20
9.178494629927874
 30
0.0
 10
17.99360579940236
 20
9.300249309353381
 30
0.0
  0
SPLINE
  5
108
330
1F
100
AcDbEntity
  8
외형선
  6
Continuous
 62
     1
370
    15
100
AcDbSpline
210
0.0
220
0.0
230
1.0
 70
     8
 71
     3
 72
     8
 73
     4
 74
     0
 42
0.000000001
 43
0.00000001
 40
0.0
 40
0.0
 40
0.0
 40
0.0
 40
1.0
 40
1.0
 40
1.0
 40
1.0
 10
16.41334676367602
 20
9.477877467885717
 30
0.0
 10
16.52469287103776
 20
9.473849443157965
 30
0.0
 10
16.63660606137281
 20
9.434493227703193
 30
0.0
 10
16.72867182078993
 20
9.361327518198634
 30
0.0
  0
SPLINE
  5
109
330
1F
100
AcDbEntity
  8
외형선
  6
Continuous
 62
     1
370
    15
100
AcDbSpline
210
0.0
220
0.0
230
1.0
 70
     8
 71
     3
 72
     8
 73
     4
 74
     0
 42
0.000000001
 43
0.00000001
 40
0.0
 40
0.0
 40
0.0
 40
0.0
 40
0.5628991585563992
 40
0.5628991585563992
 40
0.5628991585563992
 40
0.5628991585563992
 10
16.41334969380075
 20
9.477877361886266
 30
0.0
 10
16.00127274460942
 20
9.492784555811312
 30
0.0
 10
15.58825872190334
 20
9.50416866628601
 30
0.0
 10
15.17499999999998
 20
9.512009694888262
 30
0.0
  0
SPLINE
  5
10C
330
1F
100
AcDbEntity
  8
외형선
  6
Continuous
 62
     1
370
    15
100
AcDbSpline
210
0.0
220
0.0
230
1.0
 70
     8
 71
     3
 72
     9
 73
     5
 74
     0
 42
0.000000001
 43
0.00000001
 40
0.0
 40
0.0
 40
0.0
 40
0.0
 40
0.7739542088407393
 40
1.0
 40
1.0
 40
1.0
 40
1.0
 10
33.45177096615259
 20
7.244172751996602
 30
0.0
 10
33.35179264368906
 20
7.174813038176609
 30
0.0
 10
33.22261404200761
 20
7.085195702903143
 30
0.0
 10
33.07447616514609
 20
7.04081779870086
 30
0.0
 10
33.04099022157028
 20
7.030786360235462
 30
0.0
  0
SPLINE
  5
10D
330
1F
100
AcDbEntity
  8
외형선
  6
Continuous
 62
     1
370
    15
100
AcDbSpline
210
0.0
220
0.0
230
1.0
 70
     8
 71
     3
 72
     8
 73
     4
 74
     0
 42
0.000000001
 43
0.00000001
 40
0.0
 40
0.0
 40
0.0
 40
0.0
 40
1.0
 40
1.0
 40
1.0
 40
1.0
 10
33.76727892395274
 20
7.39014409878764
 30
0.0
 10
33.6558756555869
 20
7.364560732721998
 30
0.0
 10
33.543898029964
 20
7.31371548796012
 30
0.0
 10
33.4517709661509
 20
7.244172752000332
 30
0.0
  0
SPLINE
  5
10E
330
1F
100
AcDbEntity
  8
외형선
  6
Continuous
 62
     1
370
    15
100
AcDbSpline
210
0.0
220
0.0
230
1.0
 70
     8
 71
     3
 72
     8
 73
     4
 74
     0
 42
0.000000001
 43
0.00000001
 40
0.0
 40
0.0
 40
0.0
 40
0.0
 40
1.0
 40
1.0
 40
1.0
 40
1.0
 10
35.96907846407452
 20
7.868465696251723
 30
0.0
 10
35.23504677608128
 20
7.718097266918588
 30
0.0
 10
34.49981815805543
 20
7.558369146750301
 30
0.0
 10
33.76727807778028
 20
7.390143904467117
 30
0.0
  0
SPLINE
  5
10F
330
1F
100
AcDbEntity
  8
외형선
  6
Continuous
 62
     1
370
    15
100
AcDbSpline
210
0.0
220
0.0
230
1.0
 70
     8
 71
     3
 72
     8
 73
     4
 74
     0
 42
0.000000001
 43
0.00000001
 40
0.0
 40
0.0
 40
0.0
 40
0.0
 40
1.0
 40
1.0
 40
1.0
 40
1.0
 10
36.28643704855154
 20
7.851842215585003
 30
0.0
 10
36.19532220096396
 20
7.886172036954002
 30
0.0
 10
36.08376593007431
 20
7.891959742096311
 30
0.0
 10
35.96907846412988
 20
7.868465696266832
 30
0.0
  0
SPLINE
  5
110
330
1F
100
AcDbEntity
  8
외형선
  6
Continuous
 62
     1
370
    15
100
AcDbSpline
210
0.0
220
0.0
230
1.0
 70
     8
 71
     3
 72
    10
 73
     6
 74
     0
 42
0.000000001
 43
0.00000001
 40
0.0
 40
0.0
 40
0.0
 40
0.0
 40
0.5
 40
0.5
 40
1.0
 40
1.0
 40
1.0
 40
1.0
 10
37.55182934574568
 20
8.094166424782127
 30
0.0
 10
37.3646267111143
 20
7.94578891998188
 30
0.0
 10
37.13721455947488
 20
7.850501262976359
 30
0.0
 10
36.68374257042841
 20
7.769649410466985
 30
0.0
 10
36.4662086455724
 20
7.784108723443433
 30
0.0
 10
36.28643704855246
 20
7.851842215584429
 30
0.0
  0
SPLINE
  5
111
330
1F
100
AcDbEntity
  8
외형선
  6
Continuous
 62
     1
370
    15
100
AcDbSpline
210
0.0
220
0.0
230
1.0
 70
     8
 71
     3
 72
     8
 73
     4
 74
     0
 42
0.000000001
 43
0.00000001
 40
0.0
 40
0.0
 40
0.0
 40
0.0
 40
1.0
 40
1.0
 40
1.0
 40
1.0
 10
37.86718172244607
 20
8.236952964805552
 30
0.0
 10
37.75584399873026
 20
8.21653837200266
 30
0.0
 10
37.64391708730284
 20
8.167155511408957
 30
0.0
 10
37.55182934574398
 20
8.094166424786524
 30
0.0
  0
SPLINE
  5
112
330
1F
100
AcDbEntity
  8
외형선
  6
Continuous
 62
     1
370
    15
100
AcDbSpline
210
0.0
220
0.0
230
1.0
 70
     8
 71
     3
 72
     8
 73
     4
 74
     0
 42
0.000000001
 43
0.00000001
 40
0.0
 40
0.0
 40
0.0
 40
0.0
 40
1.0
 40
1.0
 40
1.0
 40
1.0
 10
40.0673071740534
 20
8.609595674278248
 30
0.0
 10
39.33199380010301
 20
8.49528751163014
 30
0.0
 10
38.5973273824562
 20
8.37083055668062
 30
0.0
 10
37.86718172243276
 20
8.236952964803113
 30
0.0
  0
SPLINE
  5
113
330
1F
100
AcDbEntity
  8
외형선
  6
Continuous
 62
     1
370
    15
100
AcDbSpline
210
0.0
220
0.0
230
1.0
 70
     8
 71
     3
 72
     8
 73
     4
 74
     0
 42
0.000000001
 43
0.00000001
 40
0.0
 40
0.0
 40
0.0
 40
0.0
 40
1.0
 40
1.0
 40
1.0
 40
1.0
 10
40.38441044507043
 20
8.567143874881042
 30
0.0
 10
40.29338391134603
 20
8.612548211049194
 30
0.0
 10
40.18191254056143
 20
8.627411654962573
 30
0.0
 10
40.06730718418235
 20
8.609595675857038
 30
0.0
  0
SPLINE
  5
114
330
1F
100
AcDbEntity
  8
외형선
  6
Continuous
 62
     1
370
    15
100
AcDbSpline
210
0.0
220
0.0
230
1.0
 70
     8
 71
     3
 72
    10
 73
     6
 74
     0
 42
0.000000001
 43
0.00000001
 40
0.0
 40
0.0
 40
0.0
 40
0.0
 40
0.5
 40
0.5
 40
1.0
 40
1.0
 40
1.0
 40
1.0
 10
41.64931936906068
 20
8.745970917678381
 30
0.0
 10
41.46218808622631
 20
8.59436238545435
 30
0.0
 10
41.23485120788543
 20
8.503445570662127
 30
0.0
 10
40.78150931800983
 20
8.445284113284146
 30
0.0
 10
40.56405563343093
 20
8.477536260598782
 30
0.0
 10
40.38441044507133
 20
8.56714387488043
 30
0.0
  0
SPLINE
  5
115
330
1F
100
AcDbEntity
  8
외형선
  6
Continuous
 62
     1
370
    15
100
AcDbSpline
210
0.0
220
0.0
230
1.0
 70
     8
 71
     3
 72
     8
 73
     4
 74
     0
 42
0.000000001
 43
0.00000001
 40
0.0
 40
0.0
 40
0.0
 40
0.0
 40
1.0
 40
1.0
 40
1.0
 40
1.0
 10
41.96465143365233
 20
8.881833258184436
 30
0.0
 10
41.8533090219435
 20
8.867192566049221
 30
0.0
 10
41.74138772016816
 20
8.820562121058805
 30
0.0
 10
41.64931936905901
 20
8.745970917683433
 30
0.0
  0
SPLINE
  5
116
330
1F
100
AcDbEntity
  8
외형선
  6
Continuous
 62
     1
370
    15
100
AcDbSpline
210
0.0
220
0.0
230
1.0
 70
     8
 71
     3
 72
     8
 73
     4
 74
     0
 42
0.000000001
 43
0.00000001
 40
0.1887554722649316
 40
0.1887554722649316
 40
0.1887554722649316
 40
0.1887554722649316
 40
1.0
 40
1.0
 40
1.0
 40
1.0
 10
43.75000000000003
 20
9.524999999999979
 30
0.0
 10
43.15451803559743
 20
9.285436080141945
 30
0.0
 10
42.56113173780261
 20
9.120251120199889
 30
0.0
 10
41.96465135932023
 20
8.881833248410391
 30
0.0
  0
SPLINE
  5
11D
330
1F
100
AcDbEntity
  8
외형선
  6
Continuous
 62
     1
370
    15
100
AcDbSpline
210
0.0
220
0.0
230
1.0
 70
     8
 71
     3
 72
     9
 73
     5
 74
     0
 42
0.000000001
 43
0.00000001
 40
0.0
 40
0.0
 40
0.0
 40
0.0
 40
0.7221675798995931
 40
1.0
 40
1.0
 40
1.0
 40
1.0
 10
50.98333288769827
 20
-4.473802068357865
 30
0.0
 10
50.81448931733534
 20
-4.523845384100624
 30
0.0
 10
50.58068822315384
 20
-4.593141371812667
 30
0.0
 10
50.33366306633698
 20
-4.689841539387663
 30
0.0
 10
50.26503146919286
 20
-4.716707980969139
 30
0.0
  0
SPLINE
  5
11E
330
1F
100
AcDbEntity
  8
외형선
  6
Continuous
 62
     1
370
    15
100
AcDbSpline
210
0.0
220
0.0
230
1.0
 70
     8
 71
     3
 72
     8
 73
     4
 74
     0
 42
0.000000001
 43
0.00000001
 40
0.502764468944861
 40
0.502764468944861
 40
0.502764468944861
 40
0.502764468944861
 40
1.0
 40
1.0
 40
1.0
 40
1.0
 10
51.75703665122465
 20
-5.158777865536077
 30
0.0
 10
51.25820773916513
 20
-5.017380423520171
 30
0.0
 10
50.76091399870723
 20
-4.869858963084231
 30
0.0
 10
50.26503146919287
 20
-4.716707980969136
 30
0.0
  0
SPLINE
  5
12B
330
1F
100
AcDbEntity
  8
외형선
  6
Continuous
 62
     1
370
    15
100
AcDbSpline
210
0.0
220
0.0
230
1.0
 70
     8
 71
     3
 72
     8
 73
     4
 74
     0
 42
0.000000001
 43
0.00000001
 40
0.0
 40
0.0
 40
0.0
 40
0.0
 40
1.0
 40
1.0
 40
1.0
 40
1.0
 10
42.378538653753
 20
-9.524999999999952
 30
0.0
 10
41.64678330402901
 20
-9.52743138468347
 30
0.0
 10
40.911586284027
 20
-9.528108105140628
 30
0.0
 10
40.1768317959485
 20
-9.517548327696177
 30
0.0
  0
SPLINE
  5
12C
330
1F
100
AcDbEntity
  8
외형선
  6
Continuous
 62
     1
370
    15
100
AcDbSpline
210
0.0
220
0.0
230
1.0
 70
     8
 71
     3
 72
     8
 73
     4
 74
     0
 42
0.000000001
 43
0.00000001
 40
0.0
 40
0.0
 40
0.0
 40
0.0
 40
1.0
 40
1.0
 40
1.0
 40
1.0
 10
39.85937976422143
 20
-9.405026954023196
 30
0.0
 10
39.95053165818344
 20
-9.47644028735677
 30
0.0
 10
40.06211930501598
 20
-9.515899703644532
 30
0.0
 10
40.17683560541137
 20
-9.51754838245023
 30
0.0
  0
SPLINE
  5
12D
330
1F
100
AcDbEntity
  8
외형선
  6
Continuous
 62
     1
370
    15
100
AcDbSpline
210
0.0
220
0.0
230
1.0
 70
     8
 71
     3
 72
    10
 73
     6
 74
     0
 42
0.000000001
 43
0.00000001
 40
0.0
 40
0.0
 40
0.0
 40
0.0
 40
0.5
 40
0.5
 40
1.0
 40
1.0
 40
1.0
 40
1.0
 10
38.59339220254381
 20
-9.369843761903429
 30
0.0
 10
38.7806979559801
 20
-9.23094589294451
 30
0.0
 10
39.00821653031598
 20
-9.166460899836256
 30
0.0
 10
39.46187692468635
 20
-9.184056251760532
 30
0.0
 10
39.67951453977604
 20
-9.264110790133099
 30
0.0
 10
39.85937976422138
 20
-9.405026954023164
 30
0.0
  0
SPLINE
  5
12E
330
1F
100
AcDbEntity
  8
외형선
  6
Continuous
 62
     1
370
    15
100
AcDbSpline
210
0.0
220
0.0
230
1.0
 70
     8
 71
     3
 72
     8
 73
     4
 74
     0
 42
0.000000001
 43
0.00000001
 40
0.0
 40
0.0
 40
0.0
 40
0.0
 40
1.0
 40
1.0
 40
1.0
 40
1.0
 10
38.27785889204608
 20
-9.465217476365398
 30
0.0
 10
38.38925714319084
 20
-9.469761084742975
 30
0.0
 10
38.50124948305056
 20
-9.438172828919676
 30
0.0
 10
38.59339220254618
 20
-9.36984376190985
 30
0.0
  0
SPLINE
  5
12F
330
1F
100
AcDbEntity
  8
외형선
  6
Continuous
 62
     1
370
    15
100
AcDbSpline
210
0.0
220
0.0
230
1.0
 70
     8
 71
     3
 72
     8
 73
     4
 74
     0
 42
0.000000001
 43
0.00000001
 40
0.0
 40
0.0
 40
0.0
 40
0.0
 40
1.0
 40
1.0
 40
1.0
 40
1.0
 10
38.27785776448478
 20
-9.465217430375665
 30
0.0
 10
37.54459726213391
 20
-9.435309870623689
 30
0.0
 10
36.81198267990213
 20
-9.394233531583916
 30
0.0
 10
36.07549315202878
 20
-9.342001121995025
 30
0.0
  0
SPLINE
  5
130
330
1F
100
AcDbEntity
  8
외형선
  6
Continuous
 62
     1
370
    15
100
AcDbSpline
210
0.0
220
0.0
230
1.0
 70
     8
 71
     3
 72
     8
 73
     4
 74
     0
 42
0.000000001
 43
0.00000001
 40
0.0
 40
0.0
 40
0.0
 40
0.0
 40
1.0
 40
1.0
 40
1.0
 40
1.0
 10
35.75801506413475
 20
-9.211527820391249
 30
0.0
 10
35.84917623912457
 20
-9.288104156497988
 30
0.0
 10
35.96077325051171
 20
-9.333865097609277
 30
0.0
 10
36.07549325878774
 20
-9.342001129571603
 30
0.0
  0
SPLINE
  5
131
330
1F
100
AcDbEntity
  8
외형선
  6
Continuous
 62
     1
370
    15
100
AcDbSpline
210
0.0
220
0.0
230
1.0
 70
     8
 71
     3
 72
    10
 73
     6
 74
     0
 42
0.000000001
 43
0.00000001
 40
0.0
 40
0.0
 40
0.0
 40
0.0
 40
0.5
 40
0.5
 40
1.0
 40
1.0
 40
1.0
 40
1.0
 10
34.49214128931691
 20
-9.106017401909005
 30
0.0
 10
34.67942495128295
 20
-8.97842290602764
 30
0.0
 10
34.90693783006759
 20
-8.926078402852086
 30
0.0
 10
35.36058741657433
 20
-8.96832484577914
 30
0.0
 10
35.57817752277913
 20
-9.060462413292209
 30
0.0
 10
35.75801506413613
 20
-9.211527820392384
 30
0.0
  0
SPLINE
  5
132
330
1F
100
AcDbEntity
  8
외형선
  6
Continuous
 62
     1
370
    15
100
AcDbSpline
210
0.0
220
0.0
230
1.0
 70
     8
 71
     3
 72
     8
 73
     4
 74
     0
 42
0.000000001
 43
0.00000001
 40
0.0
 40
0.0
 40
0.0
 40
0.0
 40
1.0
 40
1.0
 40
1.0
 40
1.0
 10
34.17667573533067
 20
-9.182968417313578
 30
0.0
 10
34.28806263264624
 20
-9.193727519518514
 30
0.0
 10
34.40003004371775
 20
-9.168771877260411
 30
0.0
 10
34.49214128931916
 20
-9.106017401915423
 30
0.0
  0
SPLINE
  5
133
330
1F
100
AcDbEntity
  8
외형선
  6
Continuous
 62
     1
370
    15
100
AcDbSpline
210
0.0
220
0.0
230
1.0
 70
     8
 71
     3
 72
     8
 73
     4
 74
     0
 42
0.000000001
 43
0.00000001
 40
0.0
 40
0.0
 40
0.0
 40
0.0
 40
1.0
 40
1.0
 40
1.0
 40
1.0
 10
34.17667558522419
 20
-9.182968402814948
 30
0.0
 10
33.44058715995493
 20
-9.111868022442017
 30
0.0
 10
32.70951514696371
 20
-9.03006788443281
 30
0.0
 10
31.97510322418769
 20
-8.937572783286647
 30
0.0
  0
SPLINE
  5
134
330
1F
100
AcDbEntity
  8
외형선
  6
Continuous
 62
     1
370
    15
100
AcDbSpline
210
0.0
220
0.0
230
1.0
 70
     8
 71
     3
 72
     8
 73
     4
 74
     0
 42
0.000000001
 43
0.00000001
 40
0.0
 40
0.0
 40
0.0
 40
0.0
 40
1.0
 40
1.0
 40
1.0
 40
1.0
 10
31.65781127763234
 20
-8.792309422149552
 30
0.0
 10
31.7489086400254
 20
-8.872175700109143
 30
0.0
 10
31.86044530655457
 20
-8.923132255804278
 30
0.0
 10
31.97510334662004
 20
-8.937572798711331
 30
0.0
  0
SPLINE
  5
135
330
1F
100
AcDbEntity
  8
외형선
  6
Continuous
 62
     1
370
    15
100
AcDbSpline
210
0.0
220
0.0
230
1.0
 70
     8
 71
     3
 72
    10
 73
     6
 74
     0
 42
0.000000001
 43
0.00000001
 40
0.0
 40
0.0
 40
0.0
 40
0.0
 40
0.5
 40
0.5
 40
1.0
 40
1.0
 40
1.0
 40
1.0
 10
30.39278291058678
 20
-8.619062880782765
 30
0.0
 10
30.57993637683381
 20
-8.50590745828689
 30
0.0
 10
30.8073206888857
 20
-8.466958900402187
 30
0.0
 10
31.2607225136115
 20
-8.532811068931448
 30
0.0
 10
31.47813886832272
 20
-8.63478821399771
 30
0.0
 10
31.65781127763232
 20
-8.792309422149525
 30
0.0
  0
SPLINE
  5
136
330
1F
100
AcDbEntity
  8
외형선
  6
Continuous
 62
     1
370
    15
100
AcDbSpline
210
0.0
220
0.0
230
1.0
 70
     8
 71
     3
 72
     8
 73
     4
 74
     0
 42
0.000000001
 43
0.00000001
 40
0.0
 40
0.0
 40
0.0
 40
0.0
 40
1.0
 40
1.0
 40
1.0
 40
1.0
 10
30.07754234859678
 20
-8.675741705426434
 30
0.0
 10
30.18886464157136
 20
-8.692439201924344
 30
0.0
 10
30.30075063904266
 20
-8.67470679045713
 30
0.0
 10
30.39278291058902
 20
-8.619062880788887
 30
0.0
  0
SPLINE
  5
137
330
1F
100
AcDbEntity
  8
외형선
  6
Continuous
 62
     1
370
    15
100
AcDbSpline
210
0.0
220
0.0
230
1.0
 70
     8
 71
     3
 72
     8
 73
     4
 74
     0
 42
0.000000001
 43
0.00000001
 40
0.0
 40
0.0
 40
0.0
 40
0.0
 40
1.0
 40
1.0
 40
1.0
 40
1.0
 10
30.0775426273848
 20
-8.675741747243272
 30
0.0
 10
29.34279230256458
 20
-8.565534794431192
 30
0.0
 10
28.60817882797776
 20
-8.44509162517805
 30
0.0
 10
27.87757625646096
 20
-8.315105181076865
 30
0.0
  0
SPLINE
  5
138
330
1F
100
AcDbEntity
  8
외형선
  6
Continuous
 62
     1
370
    15
100
AcDbSpline
210
0.0
220
0.0
230
1.0
 70
     8
 71
     3
 72
     8
 73
     4
 74
     0
 42
0.000000001
 43
0.00000001
 40
0.0
 40
0.0
 40
0.0
 40
0.0
 40
1.0
 40
1.0
 40
1.0
 40
1.0
 10
27.56033252500707
 20
-8.158528081578252
 30
0.0
 10
27.65141235531148
 20
-8.239758494773287
 30
0.0
 10
27.76292258932518
 20
-8.294706371814113
 30
0.0
 10
27.87757624517939
 20
-8.31510517907445
 30
0.0
  0
SPLINE
  5
139
330
1F
100
AcDbEntity
  8
외형선
  6
Continuous
 62
     1
370
    15
100
AcDbSpline
210
0.0
220
0.0
230
1.0
 70
     8
 71
     3
 72
    10
 73
     6
 74
     0
 42
0.000000001
 43
0.00000001
 40
0.0
 40
0.0
 40
0.0
 40
0.0
 40
0.5000000000000001
 40
0.5000000000000001
 40
1.0
 40
1.0
 40
1.0
 40
1.0
 10
26.29500899139858
 20
-7.921272157536171
 30
0.0
 10
26.4822527242056
 20
-7.825361602947187
 30
0.0
 10
26.70970901633763
 20
-7.800889726548826
 30
0.0
 10
27.16318365965391
 20
-7.888890120444695
 30
0.0
 10
27.38064002571078
 20
-7.998267616477412
 30
0.0
 10
27.56033252500703
 20
-8.158528081578227
 30
0.0
  0
SPLINE
  5
13A
330
1F
100
AcDbEntity
  8
외형선
  6
Continuous
 62
     1
370
    15
100
AcDbSpline
210
0.0
220
0.0
230
1.0
 70
     8
 71
     3
 72
     8
 73
     4
 74
     0
 42
0.000000001
 43
0.00000001
 40
0.0
 40
0.0
 40
0.0
 40
0.0
 40
1.0
 40
1.0
 40
1.0
 40
1.0
 10
25.97961522086778
 20
-7.956170351552537
 30
0.0
 10
26.09098506890959
 20
-7.978436179509497
 30
0.0
 10
26.20292438123661
 20
-7.968440016767387
 30
0.0
 10
26.29500899140091
 20
-7.921272157542244
 30
0.0
  0
SPLINE
  5
13B
330
1F
100
AcDbEntity
  8
외형선
  6
Continuous
 62
     1
370
    15
100
AcDbSpline
210
0.0
220
0.0
230
1.0
 70
     8
 71
     3
 72
     8
 73
     4
 74
     0
 42
0.000000001
 43
0.00000001
 40
0.0
 40
0.0
 40
0.0
 40
0.0
 40
1.0
 40
1.0
 40
1.0
 40
1.0
 10
25.97961522086639
 20
-7.956170351553274
 30
0.0
 10
25.24613579775097
 20
-7.809528087657885
 30
0.0
 10
24.51095208211346
 20
-7.653398444228141
 30
0.0
 10
23.77794905763432
 20
-7.488612383078393
 30
0.0
  0
SPLINE
  5
13C
330
1F
100
AcDbEntity
  8
외형선
  6
Continuous
 62
     1
370
    15
100
AcDbSpline
210
0.0
220
0.0
230
1.0
 70
     8
 71
     3
 72
     8
 73
     4
 74
     0
 42
0.000000001
 43
0.00000001
 40
0.0
 40
0.0
 40
0.0
 40
0.0
 40
1.0
 40
1.0
 40
1.0
 40
1.0
 10
23.46048200289358
 20
-7.324789643590002
 30
0.0
 10
23.55163719371998
 20
-7.405330870913462
 30
0.0
 10
23.66322563290354
 20
-7.46282146155776
 30
0.0
 10
23.77794674992828
 20
-7.488611864288496
 30
0.0
  0
SPLINE
  5
13D
330
1F
100
AcDbEntity
  8
외형선
  6
Continuous
 62
     1
370
    15
100
AcDbSpline
210
0.0
220
0.0
230
1.0
 70
     8
 71
     3
 72
    10
 73
     6
 74
     0
 42
0.000000001
 43
0.00000001
 40
0.0
 40
0.0
 40
0.0
 40
0.0
 40
0.5
 40
0.5
 40
1.0
 40
1.0
 40
1.0
 40
1.0
 10
22.19442560729274
 20
-7.029359339846675
 30
0.0
 10
22.38176936173596
 20
-6.953149209850782
 30
0.0
 10
22.60928315863969
 20
-6.943900980498363
 30
0.0
 10
23.06294224643288
 20
-7.05186020097073
 30
0.0
 10
23.28059247912327
 20
-7.165846166034665
 30
0.0
 10
23.46048200289346
 20
-7.324789643589117
 30
0.0
  0
SPLINE
  5
13E
330
1F
100
AcDbEntity
  8
외형선
  6
Continuous
 62
     1
370
    15
100
AcDbSpline
210
0.0
220
0.0
230
1.0
 70
     8
 71
     3
 72
     8
 73
     4
 74
     0
 42
0.000000001
 43
0.00000001
 40
0.0
 40
0.0
 40
0.0
 40
0.0
 40
1.0
 40
1.0
 40
1.0
 40
1.0
 10
21.87888857901367
 20
-7.041456475611444
 30
0.0
 10
21.99029821065285
 20
-7.068799648617198
 30
0.0
 10
22.10228494200216
 20
-7.066841518537966
 30
0.0
 10
22.19442560729505
 20
-7.029359339851956
 30
0.0
  0
SPLINE
  5
13F
330
1F
100
AcDbEntity
  8
외형선
  6
Continuous
 62
     1
370
    15
100
AcDbSpline
210
0.0
220
0.0
230
1.0
 70
     8
 71
     3
 72
     8
 73
     4
 74
     0
 42
0.000000001
 43
0.00000001
 40
0.0
 40
0.0
 40
0.0
 40
0.0
 40
1.0
 40
1.0
 40
1.0
 40
1.0
 10
21.87889029600702
 20
-7.041456897012718
 30
0.0
 10
21.14704309560838
 20
-6.861840260831514
 30
0.0
 10
20.4116568588807
 20
-6.673637591617527
 30
0.0
 10
19.67661864447927
 20
-6.477810267168508
 30
0.0
  0
SPLINE
  5
140
330
1F
100
AcDbEntity
  8
외형선
  6
Continuous
 62
     1
370
    15
100
AcDbSpline
210
0.0
220
0.0
230
1.0
 70
     8
 71
     3
 72
     8
 73
     4
 74
     0
 42
0.000000001
 43
0.00000001
 40
0.0
 40
0.0
 40
0.0
 40
0.0
 40
1.0
 40
1.0
 40
1.0
 40
1.0
 10
19.35913928454456
 20
-6.310734647374377
 30
0.0
 10
19.4502981730267
 20
-6.388608706421812
 30
0.0
 10
19.56189390497265
 20
-6.447245543149175
 30
0.0
 10
19.6766169183882
 20
-6.477809807310925
 30
0.0
  0
SPLINE
  5
141
330
1F
100
AcDbEntity
  8
외형선
  6
Continuous
 62
     1
370
    15
100
AcDbSpline
210
0.0
220
0.0
230
1.0
 70
     8
 71
     3
 72
    10
 73
     6
 74
     0
 42
0.000000001
 43
0.00000001
 40
0.0
 40
0.0
 40
0.0
 40
0.0
 40
0.5
 40
0.5
 40
1.0
 40
1.0
 40
1.0
 40
1.0
 10
18.09323027646621
 20
-5.965482250916869
 30
0.0
 10
18.28051836700083
 20
-5.910650194029635
 30
0.0
 10
18.50802466451214
 20
-5.916418198527455
 30
0.0
 10
18.96166570293661
 20
-6.041336346535112
 30
0.0
 10
19.17928230471114
 20
-6.157088707841124
 30
0.0
 10
19.35913928454453
 20
-6.310734647374367
 30
0.0
  0
SPLINE
  5
142
330
1F
100
AcDbEntity
  8
외형선
  6
Continuous
 62
     1
370
    15
100
AcDbSpline
210
0.0
220
0.0
230
1.0
 70
     8
 71
     3
 72
     8
 73
     4
 74
     0
 42
0.000000001
 43
0.00000001
 40
0.0
 40
0.0
 40
0.0
 40
0.0
 40
1.0
 40
1.0
 40
1.0
 40
1.0
 10
17.77774676105233
 20
-5.954747036682432
 30
0.0
 10
17.88913023303237
 20
-5.986439079481446
 30
0.0
 10
18.00110454576591
 20
-5.992453764658708
 30
0.0
 10
18.09323027646857
 20
-5.965482250922138
 30
0.0
  0
SPLINE
  5
143
330
1F
100
AcDbEntity
  8
외형선
  6
Continuous
 62
     1
370
    15
100
AcDbSpline
210
0.0
220
0.0
230
1.0
 70
     8
 71
     3
 72
     8
 73
     4
 74
     0
 42
0.000000001
 43
0.00000001
 40
0.0
 40
0.0
 40
0.0
 40
0.0
 40
1.0
 40
1.0
 40
1.0
 40
1.0
 10
17.77774989105393
 20
-5.954747927266104
 30
0.0
 10
17.04449246068461
 20
-5.7461135311509
 30
0.0
 10
16.31240440005003
 20
-5.530561406674333
 30
0.0
 10
15.57617292319719
 20
-5.308309745549723
 30
0.0
  0
SPLINE
  5
144
330
1F
100
AcDbEntity
  8
외형선
  6
Continuous
 62
     1
370
    15
100
AcDbSpline
210
0.0
220
0.0
230
1.0
 70
     8
 71
     3
 72
     8
 73
     4
 74
     0
 42
0.000000001
 43
0.00000001
 40
0.0
 40
0.0
 40
0.0
 40
0.0
 40
1.0
 40
1.0
 40
1.0
 40
1.0
 10
15.25889071307792
 20
-5.142022233538275
 30
0.0
 10
15.34998022533842
 20
-5.215328363280635
 30
0.0
 10
15.46151357933987
 20
-5.273696678280716
 30
0.0
 10
15.57617292282938
 20
-5.30830974544205
 30
0.0
  0
SPLINE
  5
145
330
1F
100
AcDbEntity
  8
외형선
  6
Continuous
 62
     1
370
    15
100
AcDbSpline
210
0.0
220
0.0
230
1.0
 70
     8
 71
     3
 72
     8
 73
     4
 74
     0
 42
0.000000001
 43
0.00000001
 40
0.9244919742050319
 40
0.9244919742050319
 40
0.9244919742050319
 40
0.9244919742050319
 40
1.0
 40
1.0
 40
1.0
 40
1.0
 10
15.17500000000005
 20
-5.078607766557084
 30
0.0
 10
15.20375918930312
 20
-5.099028796521837
 30
0.0
 10
15.2317554770125
 20
-5.120184602770041
 30
0.0
 10
15.25889071307793
 20
-5.142022233538269
 30
0.0
  0
SPLINE
  5
153
330
1F
100
AcDbEntity
  8
외형선
  6
Continuous
 62
     1
370
    15
100
AcDbSpline
210
0.0
220
0.0
230
1.0
 70
     8
 71
     3
 72
     8
 73
     4
 74
     0
 42
0.000000001
 43
0.00000001
 40
0.0
 40
0.0
 40
0.0
 40
0.0
 40
0.6162000418878506
 40
0.6162000418878506
 40
0.6162000418878506
 40
0.6162000418878506
 10
16.83637307670911
 20
6.873674994883172
 30
0.0
 10
16.38582206636212
 20
6.987380221592358
 30
0.0
 10
15.93386471397599
 20
7.098132212562945
 30
0.0
 10
13.58376069024269
 20
7.80359584269377
 30
0.0
  0
SPLINE
  5
154
330
1F
100
AcDbEntity
  8
외형선
  6
Continuous
 62
     1
370
    15
100
AcDbSpline
210
0.0
220
0.0
230
1.0
 70
     8
 71
     3
 72
     8
 73
     4
 74
     0
 42
0.000000001
 43
0.00000001
 40
0.0
 40
0.0
 40
0.0
 40
0.0
 40
1.0
 40
1.0
 40
1.0
 40
1.0
 10
17.153535160943
 20
6.707155930585489
 30
0.0
 10
17.06248905674899
 20
6.786300359411277
 30
0.0
 10
16.95100007571747
 20
6.844746666801456
 30
0.0
 10
16.83637046461283
 20
6.873675654099973
 30
0.0
  0
SPLINE
  5
155
330
1F
100
AcDbEntity
  8
외형선
  6
Continuous
 62
     1
370
    15
100
AcDbSpline
210
0.0
220
0.0
230
1.0
 70
     8
 71
     3
 72
    10
 73
     6
 74
     0
 42
0.000000001
 43
0.00000001
 40
0.0
 40
0.0
 40
0.0
 40
0.0
 40
0.5
 40
0.5
 40
1.0
 40
1.0
 40
1.0
 40
1.0
 10
18.41819939587113
 20
6.379380494862104
 30
0.0
 10
18.23106300622296
 20
6.316333445430497
 30
0.0
 10
18.00372033066444
 20
6.316402895848737
 30
0.0
 10
17.55045319020062
 20
6.435442477026845
 30
0.0
 10
17.33313570717529
 20
6.551033021492422
 30
0.0
 10
17.153535160943
 20
6.707155930585482
 30
0.0
  0
SPLINE
  5
156
330
1F
100
AcDbEntity
  8
외형선
  6
Continuous
 62
     1
370
    15
100
AcDbSpline
210
0.0
220
0.0
230
1.0
 70
     8
 71
     3
 72
     8
 73
     4
 74
     0
 42
0.000000001
 43
0.00000001
 40
0.0
 40
0.0
 40
0.0
 40
0.0
 40
1.0
 40
1.0
 40
1.0
 40
1.0
 10
18.73344059840556
 20
6.377348556783405
 30
0.0
 10
18.6221182638585
 20
6.407424673441383
 30
0.0
 10
18.51023321546877
 20
6.410387082011711
 30
0.0
 10
18.41819939586876
 20
6.379380494866875
 30
0.0
  0
SPLINE
  5
157
330
1F
100
AcDbEntity
  8
외형선
  6
Continuous
 62
     1
370
    15
100
AcDbSpline
210
0.0
220
0.0
230
1.0
 70
     8
 71
     3
 72
     8
 73
     4
 74
     0
 42
0.000000001
 43
0.00000001
 40
0.0
 40
0.0
 40
0.0
 40
0.0
 40
1.0
 40
1.0
 40
1.0
 40
1.0
 10
20.93412150118418
 20
5.761398061459881
 30
0.0
 10
20.20113489148508
 20
5.973677577798221
 30
0.0
 10
19.46628163434706
 20
6.179355824759498
 30
0.0
 10
18.73344151698844
 20
6.377348308608957
 30
0.0
  0
SPLINE
  5
158
330
1F
100
AcDbEntity
  8
외형선
  6
Continuous
 62
     1
370
    15
100
AcDbSpline
210
0.0
220
0.0
230
1.0
 70
     8
 71
     3
 72
     8
 73
     4
 74
     0
 42
0.000000001
 43
0.00000001
 40
0.0
 40
0.0
 40
0.0
 40
0.0
 40
1.0
 40
1.0
 40
1.0
 40
1.0
 10
21.25145793940293
 20
5.594264653340261
 30
0.0
 10
21.16034677578414
 20
5.669518142181023
 30
0.0
 10
21.04879879499012
 20
5.728186491075487
 30
0.0
 10
20.93411600985987
 20
5.761399651800191
 30
0.0
  0
SPLINE
  5
159
330
1F
100
AcDbEntity
  8
외형선
  6
Continuous
 62
     1
370
    15
100
AcDbSpline
210
0.0
220
0.0
230
1.0
 70
     8
 71
     3
 72
    10
 73
     6
 74
     0
 42
0.000000001
 43
0.00000001
 40
0.0
 40
0.0
 40
0.0
 40
0.0
 40
0.5
 40
0.5
 40
1.0
 40
1.0
 40
1.0
 40
1.0
 10
22.51716782905666
 20
5.220866570249209
 30
0.0
 10
22.32989166400429
 20
5.180354471601254
 30
0.0
 10
22.10243482725898
 20
5.195810582335608
 30
0.0
 10
21.64888305452539
 20
5.330197077807282
 30
0.0
 10
21.43127722561546
 20
5.445742473281547
 30
0.0
 10
21.25145793940294
 20
5.594264653340272
 30
0.0
  0
SPLINE
  5
15A
330
1F
100
AcDbEntity
  8
외형선
  6
Continuous
 62
     1
370
    15
100
AcDbSpline
210
0.0
220
0.0
230
1.0
 70
     8
 71
     3
 72
     8
 73
     4
 74
     0
 42
0.000000001
 43
0.00000001
 40
0.0
 40
0.0
 40
0.0
 40
0.0
 40
1.0
 40
1.0
 40
1.0
 40
1.0
 10
22.83265579027846
 20
5.195728462249996
 30
0.0
 10
22.72126252232219
 20
5.229772631885677
 30
0.0
 10
22.6092935231265
 20
5.240795455518487
 30
0.0
 10
22.51716782905422
 20
5.220866570253629
 30
0.0
  0
SPLINE
  5
15B
330
1F
100
AcDbEntity
  8
외형선
  6
Continuous
 62
     1
370
    15
100
AcDbSpline
210
0.0
220
0.0
230
1.0
 70
     8
 71
     3
 72
     8
 73
     4
 74
     0
 42
0.000000001
 43
0.00000001
 40
0.0
 40
0.0
 40
0.0
 40
0.0
 40
1.0
 40
1.0
 40
1.0
 40
1.0
 10
25.03531711519033
 20
4.506529284477554
 30
0.0
 10
24.29983529584443
 20
4.741987206444007
 30
0.0
 10
23.56431972081328
 20
4.97211627134232
 30
0.0
 10
22.83265899234298
 20
5.195727483630873
 30
0.0
  0
SPLINE
  5
15C
330
1F
100
AcDbEntity
  8
외형선
  6
Continuous
 62
     1
370
    15
100
AcDbSpline
210
0.0
220
0.0
230
1.0
 70
     8
 71
     3
 72
     8
 73
     4
 74
     0
 42
0.000000001
 43
0.00000001
 40
0.0
 40
0.0
 40
0.0
 40
0.0
 40
1.0
 40
1.0
 40
1.0
 40
1.0
 10
25.35225257672973
 20
4.34294381325616
 30
0.0
 10
25.26108856171397
 20
4.412492432970412
 30
0.0
 10
25.14948912643457
 20
4.469978553528758
 30
0.0
 10
25.03476298309343
 20
4.506706683903285
 30
0.0
  0
SPLINE
  5
15D
330
1F
100
AcDbEntity
  8
외형선
  6
Continuous
 62
     1
370
    15
100
AcDbSpline
210
0.0
220
0.0
230
1.0
 70
     8
 71
     3
 72
    10
 73
     6
 74
     0
 42
0.000000001
 43
0.00000001
 40
0.0
 40
0.0
 40
0.0
 40
0.0
 40
0.5
 40
0.5
 40
1.0
 40
1.0
 40
1.0
 40
1.0
 10
26.61829060156626
 20
3.934052976749157
 30
0.0
 10
26.43097905333629
 20
3.916739357601958
 30
0.0
 10
26.20344878661316
 20
3.946818463748002
 30
0.0
 10
25.74976595087381
 20
4.093017585212139
 30
0.0
 10
25.53212706883863
 20
4.205718366945826
 30
0.0
 10
25.35225257672973
 20
4.342943813256156
 30
0.0
  0
SPLINE
  5
15E
330
1F
100
AcDbEntity
  8
외형선
  6
Continuous
 62
     1
370
    15
100
AcDbSpline
210
0.0
220
0.0
230
1.0
 70
     8
 71
     3
 72
     8
 73
     4
 74
     0
 42
0.000000001
 43
0.00000001
 40
0.0
 40
0.0
 40
0.0
 40
0.0
 40
1.0
 40
1.0
 40
1.0
 40
1.0
 10
26.93381982869959
 20
3.886885587566153
 30
0.0
 10
26.82242029615493
 20
3.923942275064551
 30
0.0
 10
26.71042960634712
 20
3.942569587994586
 30
0.0
 10
26.61829060156382
 20
3.93405297675297
 30
0.0
  0
SPLINE
  5
15F
330
1F
100
AcDbEntity
  8
외형선
  6
Continuous
 62
     1
370
    15
100
AcDbSpline
210
0.0
220
0.0
230
1.0
 70
     8
 71
     3
 72
     8
 73
     4
 74
     0
 42
0.000000001
 43
0.00000001
 40
0.0
 40
0.0
 40
0.0
 40
0.0
 40
1.0
 40
1.0
 40
1.0
 40
1.0
 10
29.13604605917268
 20
3.14128245393795
 30
0.0
 10
28.3996561116299
 20
3.394095126036061
 30
0.0
 10
27.66807248939195
 20
3.642638858925889
 30
0.0
 10
26.93381983562096
 20
3.886885585264277
 30
0.0
  0
SPLINE
  5
160
330
1F
100
AcDbEntity
  8
외형선
  6
Continuous
 62
     1
370
    15
100
AcDbSpline
210
0.0
220
0.0
230
1.0
 70
     8
 71
     3
 72
     8
 73
     4
 74
     0
 42
0.000000001
 43
0.00000001
 40
0.0
 40
0.0
 40
0.0
 40
0.0
 40
1.0
 40
1.0
 40
1.0
 40
1.0
 10
29.4534745433012
 20
2.984819764418542
 30
0.0
 10
29.36233093067921
 20
3.046974188029068
 30
0.0
 10
29.25074984231846
 20
3.101903087052217
 30
0.0
 10
29.13604605797604
 20
3.141282454351014
 30
0.0
  0
SPLINE
  5
161
330
1F
100
AcDbEntity
  8
외형선
  6
Continuous
 62
     1
370
    15
100
AcDbSpline
210
0.0
220
0.0
230
1.0
 70
     8
 71
     3
 72
    10
 73
     6
 74
     0
 42
0.000000001
 43
0.00000001
 40
0.0
 40
0.0
 40
0.0
 40
0.0
 40
0.5
 40
0.5
 40
1.0
 40
1.0
 40
1.0
 40
1.0
 10
30.71910419838254
 20
2.550144449319172
 30
0.0
 10
30.53186070011672
 20
2.55648808642054
 30
0.0
 10
30.30438645520001
 20
2.600530494417648
 30
0.0
 10
29.85080730182884
 20
2.755066322074932
 30
0.0
 10
29.63326602871832
 20
2.862212860602613
 30
0.0
 10
29.45347454330122
 20
2.984819764418518
 30
0.0
  0
SPLINE
  5
162
330
1F
100
AcDbEntity
  8
외형선
  6
Continuous
 62
     1
370
    15
100
AcDbSpline
210
0.0
220
0.0
230
1.0
 70
     8
 71
     3
 72
     8
 73
     4
 74
     0
 42
0.000000001
 43
0.00000001
 40
0.0
 40
0.0
 40
0.0
 40
0.0
 40
1.0
 40
1.0
 40
1.0
 40
1.0
 10
31.03450188552804
 20
2.482192512831114
 30
0.0
 10
30.92313445552777
 20
2.521285698873554
 30
0.0
 10
30.8111914632761
 20
2.547024617682482
 30
0.0
 10
30.71910419838014
 20
2.550144449322183
 30
0.0
  0
SPLINE
  5
163
330
1F
100
AcDbEntity
  8
외형선
  6
Continuous
 62
     1
370
    15
100
AcDbSpline
210
0.0
220
0.0
230
1.0
 70
     8
 71
     3
 72
     8
 73
     4
 74
     0
 42
0.000000001
 43
0.00000001
 40
0.0
 40
0.0
 40
0.0
 40
0.0
 40
1.0
 40
1.0
 40
1.0
 40
1.0
 10
33.23538028287846
 20
1.700080655056639
 30
0.0
 10
32.50215792352501
 20
1.963054426565924
 30
0.0
 10
31.77049618949813
 20
2.223837244641885
 30
0.0
 10
31.03450186710642
 20
2.48219251929815
 30
0.0
  0
SPLINE
  5
164
330
1F
100
AcDbEntity
  8
외형선
  6
Continuous
 62
     1
370
    15
100
AcDbSpline
210
0.0
220
0.0
230
1.0
 70
     8
 71
     3
 72
     8
 73
     4
 74
     0
 42
0.000000001
 43
0.00000001
 40
0.0
 40
0.0
 40
0.0
 40
0.0
 40
1.0
 40
1.0
 40
1.0
 40
1.0
 10
33.55254062274423
 20
1.554636702099647
 30
0.0
 10
33.46148999704955
 20
1.607903697155879
 30
0.0
 10
33.34999655023651
 20
1.658972972327399
 30
0.0
 10
33.23538041452053
 20
1.700080607844071
 30
0.0
  0
SPLINE
  5
165
330
1F
100
AcDbEntity
  8
외형선
  6
Continuous
 62
     1
370
    15
100
AcDbSpline
210
0.0
220
0.0
230
1.0
 70
     8
 71
     3
 72
    10
 73
     6
 74
     0
 42
0.000000001
 43
0.00000001
 40
0.0
 40
0.0
 40
0.0
 40
0.0
 40
0.5
 40
0.5
 40
1.0
 40
1.0
 40
1.0
 40
1.0
 10
34.81713715900645
 20
1.104398129982226
 30
0.0
 10
34.63004047271104
 20
1.13430693079201
 30
0.0
 10
34.4027303853067
 20
1.191300932150841
 30
0.0
 10
33.94947005306884
 20
1.350526041246495
 30
0.0
 10
33.73212507148441
 20
1.449575107297477
 30
0.0
 10
33.55254062274425
 20
1.554636702099647
 30
0.0
  0
SPLINE
  5
166
330
1F
100
AcDbEntity
  8
외형선
  6
Continuous
 62
     1
370
    15
100
AcDbSpline
210
0.0
220
0.0
230
1.0
 70
     8
 71
     3
 72
     8
 73
     4
 74
     0
 42
0.000000001
 43
0.00000001
 40
0.0
 40
0.0
 40
0.0
 40
0.0
 40
1.0
 40
1.0
 40
1.0
 40
1.0
 10
35.13236610749205
 20
1.017191068182812
 30
0.0
 10
35.02104688358131
 20
1.057412303186062
 30
0.0
 10
34.90916404007521
 20
1.089686946640447
 30
0.0
 10
34.8171371590041
 20
1.104398129984426
 30
0.0
  0
SPLINE
  5
167
330
1F
100
AcDbEntity
  8
외형선
  6
Continuous
 62
     1
370
    15
100
AcDbSpline
210
0.0
220
0.0
230
1.0
 70
     8
 71
     3
 72
     8
 73
     4
 74
     0
 42
0.000000001
 43
0.00000001
 40
0.0
 40
0.0
 40
0.0
 40
0.0
 40
1.0
 40
1.0
 40
1.0
 40
1.0
 10
37.65041264530738
 20
0.0877422038234091
 30
0.0
 10
37.55929371094988
 20
0.1308864006419881
 30
0.0
 10
37.44774324060361
 20
0.1768703824319231
 30
0.0
 10
37.33305410662692
 20
0.2186628811223386
 30
0.0
  0
SPLINE
  5
168
330
1F
100
AcDbEntity
  8
외형선
  6
Continuous
 62
     1
370
    15
100
AcDbSpline
210
0.0
220
0.0
230
1.0
 70
     8
 71
     3
 72
    10
 73
     6
 74
     0
 42
0.000000001
 43
0.00000001
 40
0.0
 40
0.0
 40
0.0
 40
0.0
 40
0.5
 40
0.5
 40
1.0
 40
1.0
 40
1.0
 40
1.0
 10
38.91612377833748
 20
-0.3684705620572383
 30
0.0
 10
38.72881171544351
 20
-0.3155199490828078
 30
0.0
 10
38.50128535978868
 20
-0.2466967812817537
 30
0.0
 10
38.04770202861349
 20
-0.0861890270961441
 30
0.0
 10
37.83020032964496
 20
0.002613955854832
 30
0.0
 10
37.6504126453074
 20
0.0877422038234047
 30
0.0
  0
SPLINE
  5
16A
330
1F
100
AcDbEntity
  8
외형선
  6
Continuous
 62
     1
370
    15
100
AcDbSpline
210
0.0
220
0.0
230
1.0
 70
     8
 71
     3
 72
    12
 73
     8
 74
     0
 42
0.000000001
 43
0.00000001
 40
0.0
 40
0.0
 40
0.0
 40
0.0
 40
0.2499999999999999
 40
0.2499999999999999
 40
0.4999999999999998
 40
0.4999999999999998
 40
1.0
 40
1.0
 40
1.0
 40
1.0
 10
37.65041254933139
 20
0.0877436243540107
 30
0.0
 10
37.61498346123085
 20
0.6121258540326152
 30
0.0
 10
37.58116672434182
 20
1.128109053849823
 30
0.0
 10
37.51264046508467
 20
2.149570325263187
 30
0.0
 10
37.47715898285502
 20
2.658791395181364
 30
0.0
 10
37.36915670767252
 20
4.148979652017806
 30
0.0
 10
37.29513368487641
 20
5.090057072009508
 30
0.0
 10
37.22514289803341
 20
5.903900705909419
 30
0.0
  0
SPLINE
  5
16B
330
1F
100
AcDbEntity
  8
외형선
  6
Continuous
 62
     1
370
    15
100
AcDbSpline
210
0.0
220
0.0
230
1.0
 70
     8
 71
     3
 72
    10
 73
     6
 74
     0
 42
0.000000001
 43
0.00000001
 40
0.0
 40
0.0
 40
0.0
 40
0.0
 40
0.5
 40
0.5
 40
1.0
 40
1.0
 40
1.0
 40
1.0
 10
31.0345018724307
 20
2.48219270236138
 30
0.0
 10
30.96411118435886
 20
3.500692563209838
 30
0.0
 10
30.890307331469
 20
4.488140808299941
 30
0.0
 10
30.74788563600638
 20
6.238486060364015
 30
0.0
 10
30.6821221608131
 20
6.994417780094778
 30
0.0
 10
30.61105636241194
 20
7.628181588897327
 30
0.0
  0
SPLINE
  5
16C
330
1F
100
AcDbEntity
  8
외형선
  6
Continuous
 62
     1
370
    15
100
AcDbSpline
210
0.0
220
0.0
230
1.0
 70
     8
 71
     3
 72
    12
 73
     8
 74
     0
 42
0.000000001
 43
0.00000001
 40
0.0
 40
0.0
 40
0.0
 40
0.0
 40
0.5000000000000001
 40
0.5000000000000001
 40
0.75
 40
0.75
 40
1.0
 40
1.0
 40
1.0
 40
1.0
 10
33.2353804218173
 20
1.70008049799517
 30
0.0
 10
33.16701448273125
 20
2.728523779242174
 30
0.0
 10
33.09381350816469
 20
3.749131986085051
 30
0.0
 10
32.98553716220272
 20
5.139820724779159
 30
0.0
 10
32.9497211764491
 20
5.580124359299043
 30
0.0
 10
32.88008698040876
 20
6.397830392847479
 30
0.0
 10
32.84701230838261
 20
6.773049077312932
 30
0.0
 10
32.81233458098325
 20
7.121737790166329
 30
0.0
  0
SPLINE
  5
16D
330
1F
100
AcDbEntity
  8
외형선
  6
Continuous
 62
     1
370
    15
100
AcDbSpline
210
0.0
220
0.0
230
1.0
 70
     8
 71
     3
 72
    14
 73
    10
 74
     0
 42
0.000000001
 43
0.00000001
 40
0.0
 40
0.0
 40
0.0
 40
0.0
 40
0.2500000000000001
 40
0.2500000000000001
 40
0.5000000000000002
 40
0.5000000000000002
 40
0.7500000000000001
 40
0.7500000000000001
 40
1.0
 40
1.0
 40
1.0
 40
1.0
 10
34.81713715900398
 20
1.104398130020086
 30
0.0
 10
34.78304813969119
 20
1.61882686846964
 30
0.0
 10
34.74882106724191
 20
2.129023977868095
 30
0.0
 10
34.67766114783529
 20
3.137862232692155
 30
0.0
 10
34.64130911385487
 20
3.633533823750028
 30
0.0
 10
34.56857680096283
 20
4.58586838231683
 30
0.0
 10
34.53220375924018
 20
5.042436381201148
 30
0.0
 10
34.46096270170547
 20
5.898109140534711
 30
0.0
 10
34.42658404041363
 20
6.295459087075034
 30
0.0
 10
34.39256295090194
 20
6.661411775556725
 30
0.0
  0
SPLINE
  5
16E
330
1F
100
AcDbEntity
  8
외형선
  6
Continuous
 62
     1
370
    15
100
AcDbSpline
210
0.0
220
0.0
230
1.0
 70
     8
 71
     3
 72
    12
 73
     8
 74
     0
 42
0.000000001
 43
0.00000001
 40
0.0
 40
0.0
 40
0.0
 40
0.0
 40
0.5
 40
0.5
 40
0.75
 40
0.75
 40
1.0
 40
1.0
 40
1.0
 40
1.0
 10
33.55254004815968
 20
1.554645303003135
 30
0.0
 10
33.48425445030222
 20
2.576805945818506
 30
0.0
 10
33.41086950883784
 20
3.594854353182285
 30
0.0
 10
33.30197748809415
 20
4.986364884349138
 30
0.0
 10
33.26590212532831
 20
5.427687652279243
 30
0.0
 10
33.19567347243295
 20
6.248499333017502
 30
0.0
 10
33.16237861939295
 20
6.625321225825502
 30
0.0
 10
33.12767409996248
 20
6.975381800220171
 30
0.0
  0
SPLINE
  5
16F
330
1F
100
AcDbEntity
  8
외형선
  6
Continuous
 62
     1
370
    15
100
AcDbSpline
210
0.0
220
0.0
230
1.0
 70
     8
 71
     3
 72
    12
 73
     8
 74
     0
 42
0.000000001
 43
0.00000001
 40
0.0
 40
0.0
 40
0.0
 40
0.0
 40
0.5
 40
0.5
 40
0.75
 40
0.75
 40
1.0
 40
1.0
 40
1.0
 40
1.0
 10
30.71910398324739
 20
2.550147512322618
 30
0.0
 10
30.64818541504872
 20
3.559856151788781
 30
0.0
 10
30.57401059325806
 20
4.535653501946467
 30
0.0
 10
30.46700402978966
 20
5.827583294274034
 30
0.0
 10
30.43229646635565
 20
6.229069973836944
 30
0.0
 10
30.36461900186994
 20
6.966146484446194
 30
0.0
 10
30.32946006459724
 20
7.309465151753397
 30
0.0
 10
30.29365865006826
 20
7.618772841204978
 30
0.0
  0
SPLINE
  5
170
330
1F
100
AcDbEntity
  8
외형선
  6
Continuous
 62
     1
370
    15
100
AcDbSpline
210
0.0
220
0.0
230
1.0
 70
     8
 71
     3
 72
    12
 73
     8
 74
     0
 42
0.000000001
 43
0.00000001
 40
0.0
 40
0.0
 40
0.0
 40
0.0
 40
0.5
 40
0.5
 40
0.75
 40
0.75
 40
1.0
 40
1.0
 40
1.0
 40
1.0
 10
26.93381976410123
 20
3.886886456004514
 30
0.0
 10
26.86157022497697
 20
4.858161887927966
 30
0.0
 10
26.78879509665446
 20
5.756257745287813
 30
0.0
 10
26.6874629855705
 20
6.89477600582897
 30
0.0
 10
26.65318395668031
 20
7.247073933423227
 30
0.0
 10
26.5823202359664
 20
7.888930189496789
 30
0.0
 10
26.54615352305496
 20
8.176868495681353
 30
0.0
 10
26.50999871428062
 20
8.425086572876468
 30
0.0
  0
SPLINE
  5
171
330
1F
100
AcDbEntity
  8
외형선
  6
Continuous
 62
     1
370
    15
100
AcDbSpline
210
0.0
220
0.0
230
1.0
 70
     8
 71
     3
 72
    12
 73
     8
 74
     0
 42
0.000000001
 43
0.00000001
 40
0.0
 40
0.0
 40
0.0
 40
0.0
 40
0.5000000000000002
 40
0.5000000000000002
 40
0.7500000000000001
 40
0.7500000000000001
 40
1.0
 40
1.0
 40
1.0
 40
1.0
 10
29.13604598654339
 20
3.141283453644149
 30
0.0
 10
29.06447745060553
 20
4.142554726828768
 30
0.0
 10
28.99080426294308
 20
5.092923138063165
 30
0.0
 10
28.88609737496832
 20
6.329335291824229
 30
0.0
 10
28.85299350864414
 20
6.707847417408846
 30
0.0
 10
28.78394284847714
 20
7.411455363952642
 30
0.0
 10
28.74833495664566
 20
7.734633054882349
 30
0.0
 10
28.71235351493926
 20
8.021148389846465
 30
0.0
  0
SPLINE
  5
172
330
1F
100
AcDbEntity
  8
외형선
  6
Continuous
 62
     1
370
    15
100
AcDbSpline
210
0.0
220
0.0
230
1.0
 70
     8
 71
     3
 72
    12
 73
     8
 74
     0
 42
0.000000001
 43
0.00000001
 40
0.0
 40
0.0
 40
0.0
 40
0.0
 40
0.5000000000000001
 40
0.5000000000000001
 40
0.75
 40
0.75
 40
1.0
 40
1.0
 40
1.0
 40
1.0
 10
29.45347454323016
 20
2.984819765407807
 30
0.0
 10
29.3817601164712
 20
3.98322003082717
 30
0.0
 10
29.30766965957819
 20
4.934488722431738
 30
0.0
 10
29.20207785531377
 20
6.175830138319105
 30
0.0
 10
29.16869098747218
 20
6.556291879329134
 30
0.0
 10
29.09962085270346
 20
7.262790849442948
 30
0.0
 10
29.06394856279048
 20
7.588094513293655
 30
0.0
 10
29.02785106420972
 20
7.877249108915529
 30
0.0
  0
SPLINE
  5
17C
330
1F
100
AcDbEntity
  8
외형선
  6
Continuous
 62
     1
370
    15
100
AcDbSpline
210
0.0
220
0.0
230
1.0
 70
     8
 71
     3
 72
    10
 73
     6
 74
     0
 42
0.000000001
 43
0.00000001
 40
0.0
 40
0.0
 40
0.0
 40
0.0
 40
0.5
 40
0.5
 40
1.0
 40
1.0
 40
1.0
 40
1.0
 10
26.61829060155415
 20
3.934052976909268
 30
0.0
 10
26.54568030684188
 20
4.894345528969213
 30
0.0
 10
26.47274288370038
 20
5.778890851675804
 30
0.0
 10
26.33776981871723
 20
7.26721250187029
 30
0.0
 10
26.26511778455983
 20
7.909513862534225
 30
0.0
 10
26.19249466283249
 20
8.389807428526582
 30
0.0
  0
SPLINE
  5
17E
330
1F
100
AcDbEntity
  8
외형선
  6
Continuous
 62
     1
370
    15
100
AcDbSpline
210
0.0
220
0.0
230
1.0
 70
     8
 71
     3
 72
    12
 73
     8
 74
     0
 42
0.000000001
 43
0.00000001
 40
0.0
 40
0.0
 40
0.0
 40
0.0
 40
0.2500000000000001
 40
0.2500000000000001
 40
0.5000000000000001
 40
0.5000000000000001
 40
1.0
 40
1.0
 40
1.0
 40
1.0
 10
25.35225257669055
 20
4.342943813762462
 30
0.0
 10
25.31595104555443
 20
4.811845809568168
 30
0.0
 10
25.27977110378237
 20
5.259540516234651
 30
0.0
 10
25.20914737041997
 20
6.095104720131904
 30
0.0
 10
25.17556655458936
 20
6.480079111911618
 30
0.0
 10
25.07244749850413
 20
7.550871368346902
 30
0.0
 10
24.99890544024824
 20
8.152878871127093
 30
0.0
 10
24.92649906458256
 20
8.586706140738777
 30
0.0
  0
SPLINE
  5
17F
330
1F
100
AcDbEntity
  8
외형선
  6
Continuous
 62
     1
370
    15
100
AcDbSpline
210
0.0
220
0.0
230
1.0
 70
     8
 71
     3
 72
    12
 73
     8
 74
     0
 42
0.000000001
 43
0.00000001
 40
0.0
 40
0.0
 40
0.0
 40
0.0
 40
0.2499999999999999
 40
0.2499999999999999
 40
0.4999999999999998
 40
0.4999999999999998
 40
1.0
 40
1.0
 40
1.0
 40
1.0
 10
22.83265616806356
 20
5.195723766876696
 30
0.0
 10
22.7968985409363
 20
5.64014602008259
 30
0.0
 10
22.76170413616858
 20
6.057881933833831
 30
0.0
 10
22.69380472004212
 20
6.825796687765415
 30
0.0
 10
22.6598712835024
 20
7.18100523386332
 30
0.0
 10
22.55382715062255
 20
8.156564160545559
 30
0.0
 10
22.47999506361131
 20
8.673792846237392
 30
0.0
 10
22.4090403519606
 20
9.015201666880934
 30
0.0
  0
SPLINE
  5
180
330
1F
100
AcDbEntity
  8
외형선
  6
Continuous
 62
     1
370
    15
100
AcDbSpline
210
0.0
220
0.0
230
1.0
 70
     8
 71
     3
 72
    12
 73
     8
 74
     0
 42
0.000000001
 43
0.00000001
 40
0.0
 40
0.0
 40
0.0
 40
0.0
 40
0.2500000000000001
 40
0.2500000000000001
 40
0.5000000000000001
 40
0.5000000000000001
 40
1.0
 40
1.0
 40
1.0
 40
1.0
 10
25.03476297346981
 20
4.50670680870026
 30
0.0
 10
24.99864965546085
 20
4.975287507365885
 30
0.0
 10
24.96271912889962
 20
5.421818732865647
 30
0.0
 10
24.89268512773649
 20
6.25380800448134
 30
0.0
 10
24.85946656810387
 20
6.636373467951547
 30
0.0
 10
24.75632246341235
 20
7.702479545302854
 30
0.0
 10
24.68300000602765
 20
8.298387738650638
 30
0.0
 10
24.61100209730254
 20
8.724738090741814
 30
0.0
  0
SPLINE
  5
184
330
1F
100
AcDbEntity
  8
외형선
  6
Continuous
 62
     1
370
    15
100
AcDbSpline
210
0.0
220
0.0
230
1.0
 70
     8
 71
     3
 72
    12
 73
     8
 74
     0
 42
0.000000001
 43
0.00000001
 40
0.0
 40
0.0
 40
0.0
 40
0.0
 40
0.25
 40
0.25
 40
0.5
 40
0.5
 40
1.0
 40
1.0
 40
1.0
 40
1.0
 10
15.68412036020771
 20
-8.924920121081204
 30
0.0
 10
15.64870986368181
 20
-8.757448195915574
 30
0.0
 10
15.61493648306396
 20
-8.551551037758056
 30
0.0
 10
15.54636743933747
 20
-8.062681968806094
 30
0.0
 10
15.51087098410318
 20
-7.77733437934234
 30
0.0
 10
15.40284610983458
 20
-6.810803352601496
 30
0.0
 10
15.32883884782142
 20
-6.016938851502653
 30
0.0
 10
15.25889071321577
 20
-5.142022235263209
 30
0.0
  0
SPLINE
  5
185
330
1F
100
AcDbEntity
  8
외형선
  6
Continuous
 62
     1
370
    15
100
AcDbSpline
210
0.0
220
0.0
230
1.0
 70
     8
 71
     3
 72
     8
 73
     4
 74
     0
 42
0.000000001
 43
0.00000001
 40
0.0
 40
0.0
 40
0.0
 40
0.0
 40
1.0
 40
1.0
 40
1.0
 40
1.0
 10
18.20143039110084
 20
-9.273490106962877
 30
0.0
 10
17.46639954172497
 20
-9.212390985978425
 30
0.0
 10
16.73553168964865
 20
-9.14044824514105
 30
0.0
 10
15.9995283543245
 20
-9.057599681714853
 30
0.0
  0
SPLINE
  5
186
330
1F
100
AcDbEntity
  8
외형선
  6
Continuous
 62
     1
370
    15
100
AcDbSpline
210
0.0
220
0.0
230
1.0
 70
     8
 71
     3
 72
    12
 73
     8
 74
     0
 42
0.000000001
 43
0.00000001
 40
0.0
 40
0.0
 40
0.0
 40
0.0
 40
0.2499999999999999
 40
0.2499999999999999
 40
0.4999999999999999
 40
0.4999999999999999
 40
1.0
 40
1.0
 40
1.0
 40
1.0
 10
15.99952804908459
 20
-9.0576000104871
 30
0.0
 10
15.96418035392224
 20
-8.894148016788275
 30
0.0
 10
15.93025748292329
 20
-8.691409851219706
 30
0.0
 10
15.86233662985457
 20
-8.210405819965516
 30
0.0
 10
15.82713298684379
 20
-7.928764702382709
 30
0.0
 10
15.71983856003666
 20
-6.971898281582246
 30
0.0
 10
15.64611134055611
 20
-6.182445657738768
 30
0.0
 10
15.57617292057536
 20
-5.308309717236318
 30
0.0
  0
SPLINE
  5
187
330
1F
100
AcDbEntity
  8
외형선
  6
Continuous
 62
     1
370
    15
100
AcDbSpline
210
0.0
220
0.0
230
1.0
 70
     8
 71
     3
 72
    12
 73
     8
 74
     0
 42
0.000000001
 43
0.00000001
 40
0.0
 40
0.0
 40
0.0
 40
0.0
 40
0.25
 40
0.25
 40
0.5
 40
0.5
 40
1.0
 40
1.0
 40
1.0
 40
1.0
 10
18.20143036157953
 20
-9.273490007558875
 30
0.0
 10
18.16549187662055
 20
-9.152251921307657
 30
0.0
 10
18.1299710452881
 20
-8.987964384804515
 30
0.0
 10
18.06117104947959
 20
-8.583597168274755
 30
0.0
 10
18.02795947280801
 20
-8.344567124818607
 30
0.0
 10
17.92291993409865
 20
-7.5040359005688
 30
0.0
 10
17.84919109225014
 20
-6.782099114786508
 30
0.0
 10
17.77774709730242
 20
-5.954750930644575
 30
0.0
  0
SPLINE
  5
188
330
1F
100
AcDbEntity
  8
외형선
  6
Continuous
 62
     1
370
    15
100
AcDbSpline
210
0.0
220
0.0
230
1.0
 70
     8
 71
     3
 72
    12
 73
     8
 74
     0
 42
0.000000001
 43
0.00000001
 40
0.0
 40
0.0
 40
0.0
 40
0.0
 40
0.25
 40
0.25
 40
0.5
 40
0.5
 40
1.0
 40
1.0
 40
1.0
 40
1.0
 10
22.51716782903668
 20
5.220866570493464
 30
0.0
 10
22.48131911811196
 20
5.658968322122613
 30
0.0
 10
22.44608621944962
 20
6.069898596313721
 30
0.0
 10
22.37821724580676
 20
6.823595367734123
 30
0.0
 10
22.34373771448548
 20
7.173385824597026
 30
0.0
 10
22.23687696345244
 20
8.128361914136256
 30
0.0
 10
22.16269004705206
 20
8.629661979040796
 30
0.0
 10
22.09165305970474
 20
8.954846170961227
 30
0.0
  0
SPLINE
  5
189
330
1F
100
AcDbEntity
  8
외형선
  6
Continuous
 62
     1
370
    15
100
AcDbSpline
210
0.0
220
0.0
230
1.0
 70
     8
 71
     3
 72
     8
 73
     4
 74
     0
 42
0.000000001
 43
0.00000001
 40
0.0
 40
0.0
 40
0.0
 40
0.0
 40
1.0
 40
1.0
 40
1.0
 40
1.0
 10
15.99952796859533
 20
-9.057599638295056
 30
0.0
 10
15.88816000479443
 20
-9.04506345023584
 30
0.0
 10
15.77621225859752
 20
-8.99966301424947
 30
0.0
 10
15.68412036022327
 20
-8.924920121170915
 30
0.0
  0
SPLINE
  5
18A
330
1F
100
AcDbEntity
  8
외형선
  6
Continuous
 62
     1
370
    15
100
AcDbSpline
210
0.0
220
0.0
230
1.0
 70
     8
 71
     3
 72
    12
 73
     8
 74
     0
 42
0.000000001
 43
0.00000001
 40
0.0
 40
0.0
 40
0.0
 40
0.0
 40
0.25
 40
0.25
 40
0.5
 40
0.5
 40
1.0
 40
1.0
 40
1.0
 40
1.0
 10
21.25145793940102
 20
5.594264653363022
 30
0.0
 10
21.21601517669878
 20
6.016173934381272
 30
0.0
 10
21.18215786618466
 20
6.406001351221003
 30
0.0
 10
21.11368428256096
 20
7.127293816322394
 30
0.0
 10
21.07822299655368
 20
7.461225354656299
 30
0.0
 10
20.97025889874514
 20
8.357382540382403
 30
0.0
 10
20.89623030452523
 20
8.810197079923537
 30
0.0
 10
20.82620448018288
 20
9.085471859415962
 30
0.0
  0
SPLINE
  5
18B
330
1F
100
AcDbEntity
  8
외형선
  6
Continuous
 62
     1
370
    15
100
AcDbSpline
210
0.0
220
0.0
230
1.0
 70
     8
 71
     3
 72
    12
 73
     8
 74
     0
 42
0.000000001
 43
0.00000001
 40
0.0
 40
0.0
 40
0.0
 40
0.0
 40
0.25
 40
0.25
 40
0.5
 40
0.5
 40
1.0
 40
1.0
 40
1.0
 40
1.0
 10
18.73344075903419
 20
6.377346729860054
 30
0.0
 10
18.69932794627612
 20
6.765335414427301
 30
0.0
 10
18.66562840219997
 20
7.12336136607589
 30
0.0
 10
18.59504995804013
 20
7.781301393499617
 30
0.0
 10
18.55893926616969
 20
8.078190861899522
 30
0.0
 10
18.45037072320486
 20
8.851357392024054
 30
0.0
 10
18.37794312317227
 20
9.206144962362673
 30
0.0
 10
18.31070045741201
 20
9.384235062273754
 30
0.0
  0
SPLINE
  5
18C
330
1F
100
AcDbEntity
  8
외형선
  6
Continuous
 62
     1
370
    15
100
AcDbSpline
210
0.0
220
0.0
230
1.0
 70
     8
 71
     3
 72
    12
 73
     8
 74
     0
 42
0.000000001
 43
0.00000001
 40
0.0
 40
0.0
 40
0.0
 40
0.0
 40
0.2500000000000001
 40
0.2500000000000001
 40
0.5000000000000002
 40
0.5000000000000002
 40
1.0
 40
1.0
 40
1.0
 40
1.0
 10
20.93411720063628
 20
5.761385424633199
 30
0.0
 10
20.89897206307485
 20
6.181290975913051
 30
0.0
 10
20.86556657939964
 20
6.568142941452161
 30
0.0
 10
20.79703846195906
 20
7.285955148921029
 30
0.0
 10
20.7616100879085
 20
7.617361154714411
 30
0.0
 10
20.65392274094783
 20
8.504113476506907
 30
0.0
 10
20.58032240646777
 20
8.948221359965762
 30
0.0
 10
20.51086716110007
 20
9.214320416063613
 30
0.0
  0
SPLINE
  5
18D
330
1F
100
AcDbEntity
  8
외형선
  6
Continuous
 62
     1
370
    15
100
AcDbSpline
210
0.0
220
0.0
230
1.0
 70
     8
 71
     3
 72
     8
 73
     4
 74
     0
 42
0.000000001
 43
0.00000001
 40
0.0
 40
0.0
 40
0.0
 40
0.0
 40
1.0
 40
1.0
 40
1.0
 40
1.0
 10
18.51890617990821
 20
-9.198081054382
 30
0.0
 10
18.42774129506214
 20
-9.256604139188505
 30
0.0
 10
18.31614571665791
 20
-9.2830257687165
 30
0.0
 10
18.20143039104627
 20
-9.273490106963088
 30
0.0
  0
SPLINE
  5
18E
330
1F
100
AcDbEntity
  8
외형선
  6
Continuous
 62
     1
370
    15
100
AcDbSpline
210
0.0
220
0.0
230
1.0
 70
     8
 71
     3
 72
    12
 73
     8
 74
     0
 42
0.000000001
 43
0.00000001
 40
0.0
 40
0.0
 40
0.0
 40
0.0
 40
0.2499999999999999
 40
0.2499999999999999
 40
0.5
 40
0.5
 40
1.0
 40
1.0
 40
1.0
 40
1.0
 10
18.51890617988667
 20
-9.198081054314423
 30
0.0
 10
18.48274314885414
 20
-9.08460196044813
 30
0.0
 10
18.4469394854199
 20
-8.9278868948086
 30
0.0
 10
18.37749263869835
 20
-8.537819816990755
 30
0.0
 10
18.34425933349839
 20
-8.306237322605922
 30
0.0
 10
18.23915274854025
 20
-7.488402908439664
 30
0.0
 10
18.16513747006173
 20
-6.780787626990596
 30
0.0
 10
18.09323061241641
 20
-5.965486060022233
 30
0.0
  0
SPLINE
  5
18F
330
1F
100
AcDbEntity
  8
외형선
  6
Continuous
 62
     1
370
    15
100
AcDbSpline
210
0.0
220
0.0
230
1.0
 70
     8
 71
     3
 72
    10
 73
     6
 74
     0
 42
0.000000001
 43
0.00000001
 40
0.0
 40
0.0
 40
0.0
 40
0.0
 40
0.5
 40
0.5
 40
1.0
 40
1.0
 40
1.0
 40
1.0
 10
19.78488956405208
 20
-9.285153436136836
 30
0.0
 10
19.59757199117841
 20
-9.134820872476991
 30
0.0
 10
19.3700256979965
 20
-9.053248668448148
 30
0.0
 10
18.91633923302229
 20
-9.027769907159206
 30
0.0
 10
18.69874593540612
 20
-9.082633343562671
 30
0.0
 10
18.51890617990821
 20
-9.198081054382005
 30
0.0
  0
SPLINE
  5
190
330
1F
100
AcDbEntity
  8
외형선
  6
Continuous
 62
     1
370
    15
100
AcDbSpline
210
0.0
220
0.0
230
1.0
 70
     8
 71
     3
 72
    12
 73
     8
 74
     0
 42
0.000000001
 43
0.00000001
 40
0.0
 40
0.0
 40
0.0
 40
0.0
 40
0.25
 40
0.25
 40
0.5
 40
0.5
 40
1.0
 40
1.0
 40
1.0
 40
1.0
 10
19.7848895640333
 20
-9.285153436091022
 30
0.0
 10
19.74859263815994
 20
-9.196604755751968
 30
0.0
 10
19.71243246579402
 20
-9.064031921415044
 30
0.0
 10
19.64187589351419
 20
-8.718775581157583
 30
0.0
 10
19.60835893576972
 20
-8.508427890818158
 30
0.0
 10
19.50510316354012
 20
-7.759715988061814
 30
0.0
 10
19.43152227454946
 20
-7.094479152674412
 30
0.0
 10
19.35913928454387
 20
-6.310734647367309
 30
0.0
  0
SPLINE
  5
191
330
1F
100
AcDbEntity
  8
외형선
  6
Continuous
 62
     1
370
    15
100
AcDbSpline
210
0.0
220
0.0
230
1.0
 70
     8
 71
     3
 72
     8
 73
     4
 74
     0
 42
0.000000001
 43
0.00000001
 40
0.0
 40
0.0
 40
0.0
 40
0.0
 40
1.0
 40
1.0
 40
1.0
 40
1.0
 10
22.3027028194516
 20
-9.499163589984555
 30
0.0
 10
21.57159899143904
 20
-9.47952450595605
 30
0.0
 10
20.8362044355349
 20
-9.448646214216815
 30
0.0
 10
20.10040499058323
 20
-9.40662102526034
 30
0.0
  0
SPLINE
  5
192
330
1F
100
AcDbEntity
  8
외형선
  6
Continuous
 62
     1
370
    15
100
AcDbSpline
210
0.0
220
0.0
230
1.0
 70
     8
 71
     3
 72
    12
 73
     8
 74
     0
 42
0.000000001
 43
0.00000001
 40
0.0
 40
0.0
 40
0.0
 40
0.0
 40
0.2499999999999999
 40
0.2499999999999999
 40
0.4999999999999998
 40
0.4999999999999998
 40
1.0
 40
1.0
 40
1.0
 40
1.0
 10
20.10040187149062
 20
-9.406621552068778
 30
0.0
 10
20.0642570913527
 20
-9.323003511144066
 30
0.0
 10
20.02819936596201
 20
-9.19513645320498
 30
0.0
 10
19.9577367371856
 20
-8.8583784880473
 30
0.0
 10
19.92411484582324
 20
-8.651498246430911
 30
0.0
 10
19.8218364767458
 20
-7.91531830846093
 30
0.0
 10
19.74876087457478
 20
-7.257382070934396
 30
0.0
 10
19.67661707024223
 20
-6.477811448183296
 30
0.0
  0
SPLINE
  5
193
330
1F
100
AcDbEntity
  8
외형선
  6
Continuous
 62
     1
370
    15
100
AcDbSpline
210
0.0
220
0.0
230
1.0
 70
     8
 71
     3
 72
    12
 73
     8
 74
     0
 42
0.000000001
 43
0.00000001
 40
0.0
 40
0.0
 40
0.0
 40
0.0
 40
0.4999999999999998
 40
0.4999999999999998
 40
0.7499999999999999
 40
0.7499999999999999
 40
1.0
 40
1.0
 40
1.0
 40
1.0
 10
22.30270066103243
 20
-9.49916376690461
 30
0.0
 10
22.23062165648656
 20
-9.420915595315538
 30
0.0
 10
22.15740330801048
 20
-9.160057075907142
 30
0.0
 10
22.05465338766651
 20
-8.539027088815644
 30
0.0
 10
22.02126916637522
 20
-8.294783072810478
 30
0.0
 10
21.9510201555547
 20
-7.724337646122565
 30
0.0
 10
21.91502310746083
 20
-7.39972583835496
 30
0.0
 10
21.87888873249048
 20
-7.041457997365873
 30
0.0
  0
SPLINE
  5
194
330
1F
100
AcDbEntity
  8
외형선
  6
Continuous
 62
     1
370
    15
100
AcDbSpline
210
0.0
220
0.0
230
1.0
 70
     8
 71
     3
 72
    14
 73
    10
 74
     0
 42
0.000000001
 43
0.00000001
 40
0.0
 40
0.0
 40
0.0
 40
0.0
 40
0.2499999999999998
 40
0.2499999999999998
 40
0.4999999999999997
 40
0.4999999999999997
 40
0.7499999999999998
 40
0.7499999999999998
 40
1.0
 40
1.0
 40
1.0
 40
1.0
 10
18.41819939586978
 20
6.379380494877079
 30
0.0
 10
18.38408292061203
 20
6.76057215475511
 30
0.0
 10
18.34991028725902
 20
7.113236233655336
 30
0.0
 10
18.2787793668438
 20
7.758080351203334
 30
0.0
 10
18.24243424030905
 20
8.047902718061403
 30
0.0
 10
18.16969958649891
 20
8.548534132696753
 30
0.0
 10
18.13331729745527
 20
8.759292621887202
 30
0.0
 10
18.06204284476507
 20
9.094466877753646
 30
0.0
 10
18.02760211705241
 20
9.218550990968224
 30
0.0
 10
17.9936057994321
 20
9.300249309281877
 30
0.0
  0
SPLINE
  5
195
330
1F
100
AcDbEntity
  8
외형선
  6
Continuous
 62
     1
370
    15
100
AcDbSpline
210
0.0
220
0.0
230
1.0
 70
     8
 71
     3
 72
     8
 73
     4
 74
     0
 42
0.000000001
 43
0.00000001
 40
0.0
 40
0.0
 40
0.0
 40
0.0
 40
1.0
 40
1.0
 40
1.0
 40
1.0
 10
20.10040155905299
 20
-9.406620829268391
 30
0.0
 10
19.98899585430669
 20
-9.400257886660699
 30
0.0
 10
19.87701271242784
 20
-9.3590872847154
 30
0.0
 10
19.78488956404962
 20
-9.28515343614193
 30
0.0
  0
SPLINE
  5
196
330
1F
100
AcDbEntity
  8
외형선
  6
Continuous
 62
     1
370
    15
100
AcDbSpline
210
0.0
220
0.0
230
1.0
 70
     8
 71
     3
 72
    12
 73
     8
 74
     0
 42
0.000000001
 43
0.00000001
 40
0.0
 40
0.0
 40
0.0
 40
0.0
 40
0.5
 40
0.5
 40
0.75
 40
0.75
 40
1.0
 40
1.0
 40
1.0
 40
1.0
 10
17.15353514962551
 20
6.707156051229648
 30
0.0
 10
17.08529573441147
 20
7.434587846698886
 30
0.0
 10
17.01193121865063
 20
8.054617608187957
 30
0.0
 10
16.90302329663913
 20
8.735008399434077
 30
0.0
 10
16.86693513075174
 20
8.920829855470979
 30
0.0
 10
16.79666759483681
 20
9.205441952158601
 30
0.0
 10
16.76335655890466
 20
9.304103478291657
 30
0.0
 10
16.72867182079569
 20
9.361327518180165
 30
0.0
  0
SPLINE
  5
198
330
1F
100
AcDbEntity
  8
외형선
  6
Continuous
 62
     1
370
    15
100
AcDbSpline
210
0.0
220
0.0
230
1.0
 70
     8
 71
     3
 72
    12
 73
     8
 74
     0
 42
0.000000001
 43
0.00000001
 40
0.0
 40
0.0
 40
0.0
 40
0.0
 40
0.5000000000000002
 40
0.5000000000000002
 40
0.7500000000000001
 40
0.7500000000000001
 40
1.0
 40
1.0
 40
1.0
 40
1.0
 10
16.83637094814269
 20
6.873670534155603
 30
0.0
 10
16.76805201885027
 20
7.597069833388967
 30
0.0
 10
16.69487280547736
 20
8.209661089103076
 30
0.0
 10
16.58658301283533
 20
8.876481902002078
 30
0.0
 10
16.55075511126791
 20
9.057398547773417
 30
0.0
 10
16.48108383279281
 20
9.33197397540634
 30
0.0
 10
16.44800411627768
 20
9.42572017835921
 30
0.0
 10
16.41334728598391
 20
9.477876681846169
 30
0.0
  0
SPLINE
  5
199
330
1F
100
AcDbEntity
  8
외형선
  6
Continuous
 62
     1
370
    15
100
AcDbSpline
210
0.0
220
0.0
230
1.0
 70
     8
 71
     3
 72
     8
 73
     4
 74
     0
 42
0.000000001
 43
0.00000001
 40
0.0
 40
0.0
 40
0.0
 40
0.0
 40
1.0
 40
1.0
 40
1.0
 40
1.0
 10
22.62020697961732
 20
-9.401379221361642
 30
0.0
 10
22.52902764651976
 20
-9.46797533363161
 30
0.0
 10
22.41743118968184
 20
-9.50224545440036
 30
0.0
 10
22.30270043916454
 20
-9.499163526049673
 30
0.0
  0
SPLINE
  5
19A
330
1F
100
AcDbEntity
  8
외형선
  6
Continuous
 62
     1
370
    15
100
AcDbSpline
210
0.0
220
0.0
230
1.0
 70
     8
 71
     3
 72
    12
 73
     8
 74
     0
 42
0.000000001
 43
0.00000001
 40
0.0
 40
0.0
 40
0.0
 40
0.0
 40
0.4999999999999998
 40
0.4999999999999998
 40
0.75
 40
0.75
 40
1.0
 40
1.0
 40
1.0
 40
1.0
 10
22.62020697955249
 20
-9.401379221304884
 30
0.0
 10
22.5479040426813
 20
-9.338075298171873
 30
0.0
 10
22.47419327059647
 20
-9.092467212049272
 30
0.0
 10
22.3704772283475
 20
-8.491723278666358
 30
0.0
 10
22.33713026716672
 20
-8.254730869652262
 30
0.0
 10
22.26679991607445
 20
-7.69864686194066
 30
0.0
 10
22.23070657556082
 20
-7.381026743399921
 30
0.0
 10
22.19442560729262
 20
-7.029359339845383
 30
0.0
  0
SPLINE
  5
19B
330
1F
100
AcDbEntity
  8
외형선
  6
Continuous
 62
     1
370
    15
100
AcDbSpline
210
0.0
220
0.0
230
1.0
 70
     8
 71
     3
 72
    10
 73
     6
 74
     0
 42
0.000000001
 43
0.00000001
 40
0.0
 40
0.0
 40
0.0
 40
0.0
 40
0.3220431718731351
 40
0.6913998317752315
 40
1.0
 40
1.0
 40
1.0
 40
1.0
 10
23.55025070999979
 20
-9.24911669146744
 30
0.0
 10
23.4453660349706
 20
-9.226197296678325
 30
0.0
 10
23.22018738501138
 20
-9.176991267531944
 30
0.0
 10
22.89143114382338
 20
-9.238022603871197
 30
0.0
 10
22.705047311205
 20
-9.35028042035511
 30
0.0
 10
22.62020697961732
 20
-9.40137922136165
 30
0.0
  0
SPLINE
  5
19D
330
1F
100
AcDbEntity
  8
외형선
  6
Continuous
 62
     1
370
    15
100
AcDbSpline
210
0.0
220
0.0
230
1.0
 70
     8
 71
     3
 72
    12
 73
     8
 74
     0
 42
0.000000001
 43
0.00000001
 40
0.0
 40
0.0
 40
0.0
 40
0.0
 40
0.5
 40
0.5
 40
0.75
 40
0.75
 40
1.0
 40
1.0
 40
1.0
 40
1.0
 10
24.20157984232102
 20
-9.524994749518799
 30
0.0
 10
24.13029545598508
 20
-9.523882562280109
 30
0.0
 10
24.05652313510203
 20
-9.34117667608011
 30
0.0
 10
23.95113042146248
 20
-8.820666671643462
 30
0.0
 10
23.91773735760471
 20
-8.609302100078336
 30
0.0
 10
23.84923965852526
 20
-8.108070162243944
 30
0.0
 10
23.81382713062001
 20
-7.816625848464271
 30
0.0
 10
23.77794689800434
 20
-7.488613217955034
 30
0.0
  0
LINE
  5
1A3
330
1F
100
AcDbEntity
  8
외형선
  6
Continuous
 62
     1
370
    15
100
AcDbLine
 10
35.86161065419348
 20
-9.381968464603608
 30
0.0
 11
35.85503502253626
 21
-9.371149906643668
 31
0.0
  0
LINE
  5
1A6
330
1F
100
AcDbEntity
  8
외형선
  6
Continuous
 62
     1
370
    15
100
AcDbLine
 10
40.20960010801784
 20
-9.510590311054381
 30
0.0
 11
40.2021192822572
 21
-9.51217889159333
 31
0.0
  0
SPLINE
  5
1A7
330
1F
100
AcDbEntity
  8
외형선
  6
Continuous
 62
     1
370
    15
100
AcDbSpline
210
0.0
220
0.0
230
1.0
 70
     8
 71
     3
 72
    12
 73
     8
 74
     0
 42
0.000000001
 43
0.00000001
 40
0.0
 40
0.0
 40
0.0
 40
0.0
 40
0.1746749290700481
 40
0.4145386416937408
 40
0.6513105532788476
 40
0.8884959728821082
 40
1.0
 40
1.0
 40
1.0
 40
1.0
 10
23.85956129543189
 20
-9.384093485616338
 30
0.0
 10
23.8360040732115
 20
-9.363497109017441
 30
0.0
 10
23.78009805994837
 20
-9.314617776278764
 30
0.0
 10
23.69179477935747
 20
-8.992752798303748
 30
0.0
 10
23.59898619606856
 20
-8.465241454350283
 30
0.0
 10
23.52238998617213
 20
-7.878724109622203
 30
0.0
 10
23.47548219268043
 20
-7.459006939646763
 30
0.0
 10
23.46048200289343
 20
-7.324789643589011
 30
0.0
  0
SPLINE
  5
1A8
330
1F
100
AcDbEntity
  8
외형선
  6
Continuous
 62
     1
370
    15
100
AcDbSpline
210
0.0
220
0.0
230
1.0
 70
     8
 71
     3
 72
    10
 73
     6
 74
     0
 42
0.000000001
 43
0.00000001
 40
0.0
 40
0.0
 40
0.0
 40
0.0
 40
0.2400236339217653
 40
0.6224568041668477
 40
0.9999999999999999
 40
0.9999999999999999
 40
0.9999999999999999
 40
0.9999999999999999
 10
26.34970295095425
 20
-9.469893976942268
 30
0.0
 10
26.31984516045413
 20
-9.47288678441007
 30
0.0
 10
26.24241451518593
 20
-9.480648075835663
 30
0.0
 10
26.11672278180481
 20
-8.98919735731545
 30
0.0
 10
26.02512127515781
 20
-8.299032427923095
 30
0.0
 10
25.97961522114574
 20
-7.956170353883376
 30
0.0
  0
SPLINE
  5
1AC
330
1F
100
AcDbEntity
  8
외형선
  6
Continuous
 62
     1
370
    15
100
AcDbSpline
210
0.0
220
0.0
230
1.0
 70
     8
 71
     3
 72
    11
 73
     7
 74
     0
 42
0.000000001
 43
0.00000001
 40
0.0
 40
0.0
 40
0.0
 40
0.0
 40
0.1739477080764255
 40
0.4516705992602754
 40
0.727073861480117
 40
1.0
 40
1.0
 40
1.0
 40
1.0
 10
26.68061763403874
 20
-9.381950519418245
 30
0.0
 10
26.65822847370948
 20
-9.395504464609955
 30
0.0
 10
26.6000930399364
 20
-9.430698481333604
 30
0.0
 10
26.50423255962467
 20
-9.184785634651456
 30
0.0
 10
26.39825383100063
 20
-8.705562038697838
 30
0.0
 10
26.32932013336253
 20
-8.181913576102211
 30
0.0
 10
26.29500899140138
 20
-7.921272157558366
 30
0.0
  0
SPLINE
  5
1AD
330
1F
100
AcDbEntity
  8
외형선
  6
Continuous
 62
     1
370
    15
100
AcDbSpline
210
0.0
220
0.0
230
1.0
 70
     8
 71
     3
 72
    10
 73
     6
 74
     0
 42
0.000000001
 43
0.00000001
 40
0.0
 40
0.0
 40
0.0
 40
0.0
 40
0.3004579119746015
 40
0.6526208011631669
 40
1.0
 40
1.0
 40
1.0
 40
1.0
 10
27.86326202470517
 20
-9.390923597203656
 30
0.0
 10
27.83244237964809
 20
-9.357420292783505
 30
0.0
 10
27.76549942142632
 20
-9.28464819226334
 30
0.0
 10
27.66319656137181
 20
-8.871430128585075
 30
0.0
 10
27.59446386515824
 20
-8.395076277832782
 30
0.0
 10
27.56033252502406
 20
-8.158528081706
 30
0.0
  0
SPLINE
  5
1AF
330
1F
100
AcDbEntity
  8
외형선
  6
Continuous
 62
     1
370
    15
100
AcDbSpline
210
0.0
220
0.0
230
1.0
 70
     8
 71
     3
 72
    11
 73
     7
 74
     0
 42
0.000000001
 43
0.00000001
 40
0.0
 40
0.0
 40
0.0
 40
0.0
 40
0.0192853323874134
 40
0.3484278443612231
 40
0.6765174022024627
 40
1.0
 40
1.0
 40
1.0
 40
1.0
 10
28.20192162558785
 20
-9.517719651763041
 30
0.0
 10
28.19985457109467
 20
-9.52011272858224
 30
0.0
 10
28.16250912499226
 20
-9.563348415722807
 30
0.0
 10
28.08730394702682
 20
-9.39785867275913
 30
0.0
 10
27.98013782938918
 20
-9.022861228127658
 30
0.0
 10
27.91160194877349
 20
-8.5499094649982
 30
0.0
 10
27.87757630094301
 20
-8.315105593092326
 30
0.0
  0
SPLINE
  5
1B0
330
1F
100
AcDbEntity
  8
외형선
  6
Continuous
 62
     1
370
    15
100
AcDbSpline
210
0.0
220
0.0
230
1.0
 70
     8
 71
     3
 72
    10
 73
     6
 74
     0
 42
0.000000001
 43
0.00000001
 40
0.0
 40
0.0
 40
0.0
 40
0.0
 40
0.0575140665761511
 40
0.5307996590823129
 40
1.0
 40
1.0
 40
1.0
 40
1.0
 10
30.34982433315751
 20
-9.504701447474503
 30
0.0
 10
30.34468373659066
 20
-9.511226558970124
 30
0.0
 10
30.29724096184698
 20
-9.571447078288918
 30
0.0
 10
30.20367835952274
 20
-9.341401126710581
 30
0.0
 10
30.11946606295266
 20
-8.896986392736903
 30
0.0
 10
30.07754242583629
 20
-8.675742194500664
 30
0.0
  0
SPLINE
  5
1B1
330
1F
100
AcDbEntity
  8
외형선
  6
Continuous
 62
     1
370
    15
100
AcDbSpline
210
0.0
220
0.0
230
1.0
 70
     8
 71
     3
 72
    11
 73
     7
 74
     0
 42
0.000000001
 43
0.00000001
 40
0.0
 40
0.0
 40
0.0
 40
0.0
 40
0.0428781927558538
 40
0.3626169933827559
 40
0.6828290982614746
 40
1.0
 40
1.0
 40
1.0
 40
1.0
 10
30.6893617206489
 20
-9.395653579623499
 30
0.0
 10
30.68521164924422
 20
-9.402448019073198
 30
0.0
 10
30.6501148711767
 20
-9.459907978241732
 30
0.0
 10
30.58143498629088
 20
-9.37032901957972
 30
0.0
 10
30.485708564457
 20
-9.12764848375766
 30
0.0
 10
30.42365944168388
 20
-8.788051298210375
 30
0.0
 10
30.39278291059079
 20
-8.61906288080724
 30
0.0
  0
SPLINE
  5
1B2
330
1F
100
AcDbEntity
  8
외형선
  6
Continuous
 62
     1
370
    15
100
AcDbSpline
210
0.0
220
0.0
230
1.0
 70
     8
 71
     3
 72
     9
 73
     5
 74
     0
 42
0.000000001
 43
0.00000001
 40
0.0
 40
0.0
 40
0.0
 40
0.0
 40
0.4241323341753077
 40
1.0
 40
1.0
 40
1.0
 40
1.0
 10
31.85935279273957
 20
-9.374932976517915
 30
0.0
 10
31.83067169901175
 20
-9.350938663061244
 30
0.0
 10
31.7630487157662
 20
-9.29436595798011
 30
0.0
 10
31.69626808426293
 20
-8.975775415506805
 30
0.0
 10
31.65781127787686
 20
-8.792309423458878
 30
0.0
  0
SPLINE
  5
1B3
330
1F
100
AcDbEntity
  8
외형선
  6
Continuous
 62
     1
370
    15
100
AcDbSpline
210
0.0
220
0.0
230
1.0
 70
     8
 71
     3
 72
    10
 73
     6
 74
     0
 42
0.000000001
 43
0.00000001
 40
0.0
 40
0.0
 40
0.0
 40
0.0
 40
0.0003451620145971
 40
0.5009964701480087
 40
1.0
 40
1.0
 40
1.0
 40
1.0
 10
32.20227220022157
 20
-9.524898974881117
 30
0.0
 10
32.20224661393763
 20
-9.52493265727447
 30
0.0
 10
32.1651085819453
 20
-9.573822046785128
 30
0.0
 10
32.08761100270716
 20
-9.418000423328978
 30
0.0
 10
32.01256468574216
 20
-9.097539373705173
 30
0.0
 10
31.97510337845396
 20
-8.93757296443473
 30
0.0
  0
SPLINE
  5
1B4
330
1F
100
AcDbEntity
  8
외형선
  6
Continuous
 62
     1
370
    15
100
AcDbSpline
210
0.0
220
0.0
230
1.0
 70
     8
 71
     3
 72
     9
 73
     5
 74
     0
 42
0.000000001
 43
0.00000001
 40
0.0
 40
0.0
 40
0.0
 40
0.0
 40
0.1708296289282653
 40
1.0
 40
1.0
 40
1.0
 40
1.0
 10
34.34959368743452
 20
-9.48690445676059
 30
0.0
 10
34.33993217499315
 20
-9.49899071820729
 30
0.0
 10
34.28337575382667
 20
-9.56974109987426
 30
0.0
 10
34.22504327531463
 20
-9.358293998614224
 30
0.0
 10
34.17667571246125
 20
-9.182968327200392
 30
0.0
  0
SPLINE
  5
1B5
330
1F
100
AcDbEntity
  8
외형선
  6
Continuous
 62
     1
370
    15
100
AcDbSpline
210
0.0
220
0.0
230
1.0
 70
     8
 71
     3
 72
    10
 73
     6
 74
     0
 42
0.000000001
 43
0.00000001
 40
0.0
 40
0.0
 40
0.0
 40
0.0
 40
0.0537857758871041
 40
0.5264373655462362
 40
1.0
 40
1.0
 40
1.0
 40
1.0
 10
34.68931476441605
 20
-9.397705430521743
 30
0.0
 10
34.68587257157793
 20
-9.403340415986651
 30
0.0
 10
34.65218152781181
 20
-9.458493787935144
 30
0.0
 10
34.58557753527565
 20
-9.388371968113896
 30
0.0
 10
34.52330698703295
 20
-9.200197095964345
 30
0.0
 10
34.49214173489109
 20
-9.106019069548937
 30
0.0
  0
LINE
  5
1B6
330
1F
100
AcDbEntity
  8
외형선
  6
Continuous
 62
     1
370
    15
100
AcDbLine
 10
35.85503502253626
 20
-9.371149906643668
 30
0.0
 11
35.75801506416908
 21
-9.211527820495721
 31
0.0
  0
SPLINE
  5
1B7
330
1F
100
AcDbEntity
  8
외형선
  6
Continuous
 62
     1
370
    15
100
AcDbSpline
210
0.0
220
0.0
230
1.0
 70
     8
 71
     3
 72
     9
 73
     5
 74
     0
 42
0.000000001
 43
0.00000001
 40
0.0
 40
0.0
 40
0.0
 40
0.0
 40
0.0480597481368499
 40
1.0
 40
1.0
 40
1.0
 40
1.0
 10
36.20190908875087
 20
-9.517173000410311
 30
0.0
 10
36.1999309785533
 20
-9.519762566526154
 30
0.0
 10
36.15877158271327
 20
-9.573644790554178
 30
0.0
 10
36.11610720011716
 20
-9.454971247189636
 30
0.0
 10
36.07549325700302
 20
-9.342001124429702
 30
0.0
  0
LINE
  5
1B8
330
1F
100
AcDbEntity
  8
외형선
  6
Continuous
 62
     1
370
    15
100
AcDbLine
 10
38.35000319463626
 20
-9.50788971729548
 30
0.0
 11
38.27785873913886
 21
-9.4652172245496
 31
0.0
  0
SPLINE
  5
1B9
330
1F
100
AcDbEntity
  8
외형선
  6
Continuous
 62
     1
370
    15
100
AcDbSpline
210
0.0
220
0.0
230
1.0
 70
     8
 71
     3
 72
     9
 73
     5
 74
     0
 42
0.000000001
 43
0.00000001
 40
0.0
 40
0.0
 40
0.0
 40
0.0
 40
0.0669520905646201
 40
1.0
 40
1.0
 40
1.0
 40
1.0
 10
38.68892592458181
 20
-9.401850316320653
 30
0.0
 10
38.68684392691224
 20
-9.405299868333206
 30
0.0
 10
38.65574709853806
 20
-9.456822561403195
 30
0.0
 10
38.6234898038844
 20
-9.411826884330035
 30
0.0
 10
38.59339220254374
 20
-9.36984376190329
 30
0.0
  0
LINE
  5
1BA
330
1F
100
AcDbEntity
  8
외형선
  6
Continuous
 62
     1
370
    15
100
AcDbLine
 10
40.2021192822572
 20
-9.51217889159333
 30
0.0
 11
40.17683509095638
 21
-9.517548081510167
 31
0.0
  0
LINE
  5
1BB
330
1F
100
AcDbEntity
  8
중심선
100
AcDbLine
 10
-55.325
 20
-0.0000000000000095
 30
0.0
 11
59.27500000000006
 21
0.0000000000000046
 31
0.0
  0
LINE
  5
1BC
330
1F
100
AcDbEntity
  8
참조1
100
AcDbLine
 10
21.52500000000002
 20
-0.3168705809327379
 30
0.0
 11
21.52500000000003
 21
-40.31687058093273
 31
0.0
  0
LINE
  5
1BD
330
1F
100
AcDbEntity
  8
참조1
100
AcDbLine
 10
1.321392344803536
 20
-4.762499999999997
 30
0.0
 11
69.463972688396
 21
-4.762499999999997
 31
0.0
  0
LINE
  5
1BE
330
1F
100
AcDbEntity
  8
참조1
100
AcDbLine
 10
69.463972688396
 20
-4.762499999999997
 30
0.0
 11
69.463972688396
 21
-6.927248606176847
 31
0.0
  0
LINE
  5
1BF
330
1F
100
AcDbEntity
  8
참조1
100
AcDbLine
 10
21.52500000000003
 20
-40.31687058093273
 30
0.0
 11
-3.146049807265692
 21
-40.31687058093273
 31
0.0
  0
CIRCLE
  5
1C0
330
1F
100
AcDbEntity
  8
해칭선
100
AcDbCircle
 10
0.0
 20
0.0
 30
0.0
 40
4.500000000000003
  0
INSERT
  5
1C1
330
1F
100
AcDbEntity
  8
0
  6
Continuous
 62
     7
100
AcDbBlockReference
 66
     1
  2
블럭10
 10
7.584727067874812
 20
-52.36404488257666
 30
0.0
  0
ATTRIB
  5
1C2
330
1C1
100
AcDbEntity
  8
FORMAT
 62
     2
100
AcDbText
 10
-2.556908944261814
 20
-50.28867796974446
 30
0.0
 40
4.233333333333333
  1
E5E45048 [ 3 FLUTE ]
 41
0.75
  7
SLDTEXTSTYLE0
 11
-2.556908944261814
 21
-52.40534463641113
 31
0.0
100
AcDbAttribute
  2
AUTOATTR0
 70
     0
 74
     1
  0
SEQEND
  5
1C3
330
1C1
100
AcDbEntity
  8
0
  6
Continuous
 62
     7
  0
HATCH
  5
1C4
330
1F
100
AcDbEntity
  8
중심선
100
AcDbHatch
 10
0.0
 20
0.0
 30
0.0
210
0.0
220
0.0
230
1.0
  2
SOLID
 70
     1
 71
     0
 91
        1
 92
        0
 93
        4
 72
     1
 10
13.29963637225567
 20
-36.11687058093274
 11
9.853361128418385
 21
-36.11687058093274
 72
     1
 10
9.853361128418383
 20
-36.11687058093274
 11
7.725131269214364
 21
-38.65319616150533
 72
     1
 10
7.725131269214364
 20
-38.65319616150532
 11
11.17143959816479
 21
-38.65315673220283
 72
     1
 10
11.17143959816479
 20
-38.65315673220283
 11
13.29963637225567
 21
-36.11687058093273
 97
        0
 75
     0
 76
     1
 98
        1
 10
21.05
 20
-0.3168705809327345
  0
HATCH
  5
1C5
330
1F
100
AcDbEntity
  8
중심선
100
AcDbHatch
 10
0.0
 20
0.0
 30
0.0
210
0.0
220
0.0
230
1.0
  2
SOLID
 70
     1
 71
     0
 91
        1
 92
        0
 93
        4
 72
     1
 10
18.31240036329164
 20
-36.11687058093274
 11
14.86612511945436
 21
-36.11687058093274
 72
     1
 10
14.86612511945436
 20
-36.11687058093274
 11
10.33498711109695
 21
-41.51687058093276
 72
     1
 10
10.33498711109695
 20
-41.51687058093276
 11
13.78126235493423
 21
-41.51687058093276
 72
     1
 10
13.78126235493423
 20
-41.51687058093276
 11
18.31240036329164
 21
-36.11687058093274
 97
        0
 75
     0
 76
     1
 98
        1
 10
21.05
 20
-0.3168705809327345
  0
HATCH
  5
1C6
330
1F
100
AcDbEntity
  8
중심선
100
AcDbHatch
 10
0.0
 20
0.0
 30
0.0
210
0.0
220
0.0
230
1.0
  2
SOLID
 70
     1
 71
     0
 91
        1
 92
        0
 93
        4
 72
     1
 10
23.32516435432757
 20
-36.1168705809327
 11
19.8788891104904
 21
-36.11687058093273
 72
     1
 10
19.8788891104904
 20
-36.11687058093274
 11
12.83045220860115
 21
-44.51687058093276
 72
     1
 10
12.83045220860115
 20
-44.51687058093276
 11
16.27672745243843
 21
-44.51687058093276
 72
     1
 10
16.27672745243843
 20
-44.51687058093276
 11
23.32516435432757
 21
-36.11687058093271
 97
        0
 75
     0
 76
     1
 98
        1
 10
21.05
 20
-0.3168705809327345
  0
HATCH
  5
1C7
330
1F
100
AcDbEntity
  8
중심선
100
AcDbHatch
 10
0.0
 20
0.0
 30
0.0
210
0.0
220
0.0
230
1.0
  2
SOLID
 70
     1
 71
     0
 91
        1
 92
        0
 93
        6
 72
     3
 10
28.12505478533972
 20
-40.316870580984
 11
3.96005478506228
 21
1.540882976769353E-10
 40
0.3939339440162632
 50
17.09539180608441
 51
320.0019657685083
 73
     0
 72
     1
 10
29.80805444104029
 20
-38.90476458557106
 11
32.11335631474138
 21
-36.97043787552311
 72
     3
 10
28.12505478528687
 20
-40.31687058093289
 11
6.600054785286826
 21
-1.278976924368180E-13
 40
0.6363583540795983
 50
39.99873849337383
 51
368.4976242363722
 73
     1
 72
     1
 10
34.55038727718748
 20
-39.35687058086275
 11
26.80512209212279
 21
-39.35687058086275
 72
     1
 10
26.80512209212279
 20
-39.35687058086275
 11
26.80509704767686
 21
-41.27687058086264
 72
     1
 10
26.80509704767686
 20
-41.27687058086265
 11
31.2464768171489
 21
-41.27687058086261
 97
        0
 75
     0
 76
     1
 98
        1
 10
21.05
 20
-0.3168705809327345
  0
POINT
  5
1C8
330
1F
100
AcDbEntity
  8
치수문자_일반주서
100
AcDbPoint
 10
-11.17499999999982
 20
-0.6337411618654748
 30
0.0
  0
DIMENSION
  5
1C9
330
1F
100
AcDbEntity
  8
치수문자_일반주서
100
AcDbDimension
  2
_D
 10
72.15171238085755
 20
-9.52499999999991
 30
0.0
 11
72.1517123808574
 21
30.28740000000006
 31
0.0
 70
   160
  1
%%c<>
 71
     2
 42
19.04999999999998
 52
-270.0
  3
SLDDIMSTYLE0
100
AcDbAlignedDimension
 13
53.275
 23
9.525000000000002
 33
0.0
 14
53.27500000000001
 24
-9.524999999999977
 34
0.0
 50
90.0000000000002
100
AcDbRotatedDimension
1001
ACAD
1000
DSTYLE
1002
{
1070
   171
1070
     5
1070
   273
1070
     7
1002
}
  0
DIMENSION
  5
1DC
330
1F
100
AcDbEntity
  8
치수문자_일반주서
100
AcDbDimension
  2
_D_1
 10
-65.27916666666664
 20
-9.525000000000066
 30
0.0
 11
-65.27916666666667
 21
-1.859180434525754
 31
0.0
 70
   160
  1
%%c<>
 71
     2
 42
19.04999999999997
 52
-270.0
  3
SLDDIMSTYLE1
100
AcDbAlignedDimension
 13
-46.325
 23
9.524999999999977
 33
0.0
 14
-46.32499999999998
 24
-9.524999999999993
 34
0.0
 50
90.0000000000002
100
AcDbRotatedDimension
1001
ACAD
1000
DSTYLE
1002
{
1070
   171
1070
     5
1070
   273
1070
     7
1002
}
  0
DIMENSION
  5
1F1
330
1F
100
AcDbEntity
  8
치수문자_일반주서
100
AcDbDimension
  2
_D_2
 10
12.0
 20
25.0418668319905
 30
0.0
 11
33.05053968809312
 21
25.0418668319905
 31
0.0
 70
   160
  1
<>
 71
     2
 42
41.275
  3
SLDDIMSTYLE0
100
AcDbAlignedDimension
 13
53.275
 23
6.167475262783475
 33
0.0
 14
12.0
 24
9.524999999999972
 34
0.0
 50
0.0000000000000092
100
AcDbRotatedDimension
1001
ACAD
1000
DSTYLE
1002
{
1070
   171
1070
     5
1070
   273
1070
     7
1002
}
  0
DIMENSION
  5
205
330
1F
100
AcDbEntity
  8
치수문자_일반주서
100
AcDbDimension
  2
_D_3
 10
-48.32499999999999
 20
45.27617589570664
 30
0.0
 11
2.520887460842342
 21
45.27617589570664
 31
0.0
 70
   160
  1
<>
 71
     2
 42
101.6
  3
SLDDIMSTYLE2
100
AcDbAlignedDimension
 13
53.275
 23
7.254530153947683
 33
0.0
 14
-48.32499999999999
 24
7.524999999999981
 34
0.0
100
AcDbRotatedDimension
1001
ACAD
1000
DSTYLE
1002
{
1070
   171
1070
     5
1070
   273
1070
     7
1002
}
  0
LINE
  5
219
330
1F
100
AcDbEntity
  8
참조1
100
AcDbLine
 10
94.82629082238859
 20
7.123129419067268
 30
0.0
 11
94.82629082238859
 21
-7.756870580932737
 31
0.0
  0
LINE
  5
21A
330
1F
100
AcDbEntity
  8
참조1
100
AcDbLine
 10
107.5262908223886
 20
5.123129419067268
 30
0.0
 11
94.82629082238859
 21
5.123129419067268
 31
0.0
  0
SOLID
  5
21B
330
1F
100
AcDbEntity
  8
참조1
100
AcDbTrace
 10
94.82629082238859
 20
5.123129419067268
 30
0.0
 11
101.1762908223886
 21
4.107129419067268
 31
0.0
 12
101.1762908223886
 22
6.139129419067268
 32
0.0
 13
101.1762908223886
 23
6.139129419067268
 33
0.0
  0
LINE
  5
21C
330
1F
100
AcDbEntity
  8
참조1
100
AcDbLine
 10
107.5262908223886
 20
-5.756870580932737
 30
0.0
 11
94.82629082238859
 21
-5.756870580932737
 31
0.0
  0
SOLID
  5
21D
330
1F
100
AcDbEntity
  8
참조1
100
AcDbTrace
 10
94.82629082238859
 20
-5.756870580932737
 30
0.0
 11
101.1762908223886
 21
-6.772870580932737
 31
0.0
 12
101.1762908223886
 22
-4.740870580932737
 32
0.0
 13
101.1762908223886
 23
-4.740870580932737
 33
0.0
  0
MTEXT
  5
21E
330
1F
100
AcDbEntity
  8
참조1
100
AcDbMText
 10
104.4264056329511
 20
10.74884698508335
 30
0.0
 40
3.5
 41
0.0
 71
     1
 72
     1
  1
A
  7
SLDTEXTSTYLE0
 73
     1
 44
1.0
  0
MTEXT
  5
21F
330
1F
100
AcDbEntity
  8
참조1
100
AcDbMText
 10
104.4264056329511
 20
-0.1311530149166609
 30
0.0
 40
3.5
 41
0.0
 71
     1
 72
     1
  1
A
  7
SLDTEXTSTYLE0
 73
     1
 44
1.0
  0
INSERT
  5
226
330
1F
100
AcDbEntity
  8
해칭선
100
AcDbBlockReference
  2
SW_DOWELSYMBOL_0
 10
0.0
 20
0.0
 30
0.0
 41
1.499999999999998
 42
1.499999999999998
 43
1.499999999999998
  0
ARC
  5
272
330
1F
100
AcDbEntity
  8
외형선
  6
Continuous
 62
     1
370
    15
100
AcDbCircle
 10
43.75000000000003
 20
0.0000000000000031
 30
0.0
 40
9.524999999999975
100
AcDbArc
 50
270.0
 51
90.0
  0
LINE
  5
273
330
1F
100
AcDbEntity
  8
0
100
AcDbLine
 10
53.275
 20
9.525000000000004
 30
0.0
 11
53.275
 21
19.78637503662716
 31
0.0
  0
SPLINE
  5
275
330
1F
100
AcDbEntity
  8
외형선
  6
Continuous
 62
     1
370
    15
100
AcDbSpline
210
0.0
220
0.0
230
1.0
 70
  1064
 71
     3
 72
     9
 73
     5
 74
     3
 42
0.000000001
 43
0.0000000001
 44
0.0
 40
0.0
 40
0.0
 40
0.0
 40
0.0
 40
3.772064644683104
 40
9.542188139842446
 40
9.542188139842446
 40
9.542188139842446
 40
9.542188139842446
 10
46.06835183364282
 20
3.096274520188067
 30
0.0
 10
47.4730839122397
 20
3.768990360259455
 30
0.0
 10
51.02663323938003
 20
5.470758944650361
 30
0.0
 10
47.45906865297253
 20
7.997244287724765
 30
0.0
 10
45.30177643248314
 20
9.525000000000002
 30
0.0
 11
46.06835183364282
 21
3.096274520188067
 31
0.0
 11
49.16976569874799
 21
5.243296578994559
 31
0.0
 11
45.30177643248314
 21
9.525000000000002
 31
0.0
  0
LINE
  5
2DB
330
1F
100
AcDbEntity
  8
외형선
  6
Continuous
370
    15
100
AcDbLine
 10
12.0
 20
9.524999999999997
 30
0.0
 11
12.0
 21
-9.524999999999997
 31
0.0
  0
LINE
  5
2E0
330
1F
100
AcDbEntity
  8
외형선
  6
Continuous
 62
     1
370
    15
100
AcDbLine
 10
15.17499999999998
 20
9.512009694888262
 30
0.0
 11
13.58749999996995
 21
9.51850484744424
 31
0.0
  0
SPLINE
  5
2E1
330
1F
100
AcDbEntity
  8
외형선
  6
Continuous
 62
     1
370
    15
100
AcDbSpline
210
0.0
220
0.0
230
1.0
 70
     8
 71
     3
 72
    10
 73
     6
 74
     0
 42
0.000000001
 43
0.00000001
 40
0.0672712983074882
 40
0.0672712983074882
 40
0.0672712983074882
 40
0.0672712983074882
 40
0.5
 40
0.5
 40
1.0
 40
1.0
 40
1.0
 40
1.0
 10
12.40019927123068
 20
9.523362610822407
 30
0.0
 10
12.57091141248976
 20
9.411006692311194
 30
0.0
 10
12.76759610340903
 20
9.351339998904564
 30
0.0
 10
13.19039161458814
 20
9.336086781943173
 30
0.0
 10
13.40783653727716
 20
9.396750168090113
 30
0.0
 10
13.58749999997024
 20
9.51850484751562
 30
0.0
  0
LINE
  5
2E2
330
1F
100
AcDbEntity
  8
외형선
  6
Continuous
 62
     1
370
    15
100
AcDbLine
 10
12.40019927123069
 20
9.523362610822407
 30
0.0
 11
12.0
 21
9.524999999999972
 31
0.0
  0
SPLINE
  5
2E4
330
1F
100
AcDbEntity
  8
외형선
  6
Continuous
 62
     1
370
    15
100
AcDbSpline
210
0.0
220
0.0
230
1.0
 70
     8
 71
     3
 72
     8
 73
     4
 74
     0
 42
0.000000001
 43
0.00000001
 40
0.0
 40
0.0
 40
0.0
 40
0.0
 40
1.0
 40
1.0
 40
1.0
 40
1.0
 10
12.30493102387201
 20
8.12691134434455
 30
0.0
 10
12.213884919678
 20
8.20605577317034
 30
0.0
 10
12.10239593864648
 20
8.264502080560518
 30
0.0
 10
11.98776632754185
 20
8.293431067859036
 30
0.0
  0
SPLINE
  5
2E5
330
1F
100
AcDbEntity
  8
외형선
  6
Continuous
 62
     1
370
    15
100
AcDbSpline
210
0.0
220
0.0
230
1.0
 70
     8
 71
     3
 72
    10
 73
     6
 74
     0
 42
0.000000001
 43
0.00000001
 40
0.0
 40
0.0
 40
0.0
 40
0.0
 40
0.5
 40
0.5
 40
1.0
 40
1.0
 40
1.0
 40
1.0
 10
13.56959525880014
 20
7.799135908621166
 30
0.0
 10
13.38245886915198
 20
7.736088859189559
 30
0.0
 10
13.15511619359346
 20
7.736158309607799
 30
0.0
 10
12.70184905312963
 20
7.855197890785907
 30
0.0
 10
12.48453157010431
 20
7.970788435251484
 30
0.0
 10
12.30493102387201
 20
8.126911344344544
 30
0.0
  0
SPLINE
  5
2E6
330
1F
100
AcDbEntity
  8
외형선
  6
Continuous
 62
     1
370
    15
100
AcDbSpline
210
0.0
220
0.0
230
1.0
 70
     8
 71
     3
 72
     8
 73
     4
 74
     0
 42
0.000000001
 43
0.00000001
 40
0.9492408986793333
 40
0.9492408986793333
 40
0.9492408986793333
 40
0.9492408986793333
 40
1.0
 40
1.0
 40
1.0
 40
1.0
 10
13.58376069024269
 20
7.80359584269377
 30
0.0
 10
13.57898951316613
 20
7.802196120968565
 30
0.0
 10
13.57426681277178
 20
7.800709775124429
 30
0.0
 10
13.56959525879778
 20
7.799135908625937
 30
0.0
  0
SPLINE
  5
2E7
330
1F
100
AcDbEntity
  8
외형선
  6
Continuous
 62
     1
370
    15
100
AcDbSpline
210
0.0
220
0.0
230
1.0
 70
     8
 71
     3
 72
     8
 73
     4
 74
     0
 42
0.000000001
 43
0.00000001
 40
0.7267370983058528
 40
0.7267370983058528
 40
0.7267370983058528
 40
0.7267370983058528
 40
0.7349509110984278
 40
0.7349509110984278
 40
0.7349509110984278
 40
0.7349509110984278
 10
12.12485022572137
 20
8.24410629186063
 30
0.0
 10
12.08363270599583
 20
8.256610435983163
 30
0.0
 10
12.04201746155086
 20
8.269239300104973
 30
0.0
 10
12.0
 20
8.281994299781765
 30
0.0
  0
SPLINE
  5
2E8
330
1F
100
AcDbEntity
  8
외형선
  6
Continuous
 62
     1
370
    15
100
AcDbSpline
210
0.0
220
0.0
230
1.0
 70
     8
 71
     3
 72
    10
 73
     6
 74
     0
 42
0.000000001
 43
0.00000001
 40
0.0512725708734296
 40
0.0512725708734296
 40
0.0512725708734296
 40
0.0512725708734296
 40
0.5
 40
0.5
 40
0.6301201874839145
 40
0.6301201874839145
 40
0.6301201874839145
 40
0.6301201874839145
 10
14.21166571252371
 20
7.615776957326556
 30
0.0
 10
14.1495361271426
 20
8.248288702171216
 30
0.0
 10
14.08376465811667
 20
8.789420388584292
 30
0.0
 10
13.99970987000153
 20
9.314543839086344
 30
0.0
 10
13.98087314562471
 20
9.421487010854895
 30
0.0
 10
13.96219885045104
 20
9.516971791572505
 30
0.0
  0
SPLINE
  5
2E9
330
1F
100
AcDbEntity
  8
외형선
  6
Continuous
 62
     1
370
    15
100
AcDbSpline
210
0.0
220
0.0
230
1.0
 70
     8
 71
     3
 72
    10
 73
     6
 74
     0
 42
0.000000001
 43
0.00000001
 40
0.0340859959376375
 40
0.0340859959376375
 40
0.0340859959376375
 40
0.0340859959376375
 40
0.5000000000000002
 40
0.5000000000000002
 40
0.5694679546656365
 40
0.5694679546656365
 40
0.5694679546656365
 40
0.5694679546656365
 10
13.90161148289458
 20
7.708343132801637
 30
0.0
 10
13.83735781414554
 20
8.368100927900247
 30
0.0
 10
13.76923000990064
 20
8.928255691437824
 30
0.0
 10
13.69192814150739
 20
9.404260802011779
 30
0.0
 10
13.68191866105426
 20
9.462831088278573
 30
0.0
 10
13.67194545165048
 20
9.518159344394595
 30
0.0
  0
SPLINE
  5
2EA
330
1F
100
AcDbEntity
  8
외형선
  6
Continuous
 62
     1
370
    15
100
AcDbSpline
210
0.0
220
0.0
230
1.0
 70
     8
 71
     3
 72
    10
 73
     6
 74
     0
 42
0.000000001
 43
0.00000001
 40
0.1154037665676641
 40
0.1154037665676641
 40
0.1154037665676641
 40
0.1154037665676641
 40
0.5
 40
0.5
 40
0.613392210984792
 40
0.613392210984792
 40
0.613392210984792
 40
0.613392210984792
 10
12.68820195105932
 20
7.881244741142055
 30
0.0
 10
12.63413405273903
 20
8.400225466948925
 30
0.0
 10
12.57783741087902
 20
8.847599421893571
 30
0.0
 10
12.50552422865607
 20
9.299368424198097
 30
0.0
 10
12.48910260465481
 20
9.393806778717703
 30
0.0
 10
12.47279414587329
 20
9.479578464247837
 30
0.0
  0
SPLINE
  5
2EB
330
1F
100
AcDbEntity
  8
외형선
  6
Continuous
 62
     1
370
    15
100
AcDbSpline
210
0.0
220
0.0
230
1.0
 70
     8
 71
     3
 72
    10
 73
     6
 74
     0
 42
0.000000001
 43
0.00000001
 40
0.1230634141123018
 40
0.1230634141123018
 40
0.1230634141123018
 40
0.1230634141123018
 40
0.5000000000000002
 40
0.5000000000000002
 40
0.5720381474784347
 40
0.5720381474784347
 40
0.5720381474784347
 40
0.5720381474784347
 10
12.36779350541216
 20
8.075112278566644
 30
0.0
 10
12.3147530530237
 20
8.576729210444483
 30
0.0
 10
12.2597681614566
 20
9.00736501719367
 30
0.0
 10
12.19494232041963
 20
9.406545946092763
 30
0.0
 10
12.18456330269108
 20
9.467160713372929
 30
0.0
 10
12.17422390725249
 20
9.524287174263605
 30
0.0
  0
SPLINE
  5
2EC
330
1F
100
AcDbEntity
  8
외형선
  6
Continuous
 62
     1
370
    15
100
AcDbSpline
210
0.0
220
0.0
230
1.0
 70
     8
 71
     3
 72
     8
 73
     4
 74
     0
 42
0.000000001
 43
0.00000001
 40
0.9903927694258889
 40
0.9903927694258889
 40
0.9903927694258889
 40
0.9903927694258889
 40
1.0
 40
1.0
 40
1.0
 40
1.0
 10
12.0
 20
10.15996829329405
 30
0.0
 10
11.99867264431466
 20
10.16209556012618
 30
0.0
 10
11.99734314872961
 20
10.16416129726836
 30
0.0
 10
11.99601132409121
 20
10.16616561548811
 30
0.0
  0
SPLINE
  5
2ED
330
1F
100
AcDbEntity
  8
외형선
  6
Continuous
 62
     1
370
    15
100
AcDbSpline
210
0.0
220
0.0
230
1.0
 70
     8
 71
     3
 72
     8
 73
     4
 74
     0
 42
0.000000001
 43
0.00000001
 40
0.0
 40
0.0
 40
0.0
 40
0.0
 40
1.0
 40
1.0
 40
1.0
 40
1.0
 10
14.85752236615641
 20
-4.911532606620536
 30
0.0
 10
14.94868125463855
 20
-4.989406665667971
 30
0.0
 10
15.0602769865845
 20
-5.048043502395334
 30
0.0
 10
15.17500000000005
 20
-5.078607766557084
 30
0.0
  0
SPLINE
  5
2EE
330
1F
100
AcDbEntity
  8
외형선
  6
Continuous
 62
     1
370
    15
100
AcDbSpline
210
0.0
220
0.0
230
1.0
 70
     8
 71
     3
 72
    10
 73
     6
 74
     0
 42
0.000000001
 43
0.00000001
 40
0.0
 40
0.0
 40
0.0
 40
0.0
 40
0.5
 40
0.5
 40
1.0
 40
1.0
 40
1.0
 40
1.0
 10
13.59161335807805
 20
-4.566280210163028
 30
0.0
 10
13.77890144861268
 20
-4.511448153275794
 30
0.0
 10
14.00640774612399
 20
-4.517216157773614
 30
0.0
 10
14.46004878454845
 20
-4.642134305781271
 30
0.0
 10
14.67766538632299
 20
-4.757886667087283
 30
0.0
 10
14.85752236615638
 20
-4.911532606620526
 30
0.0
  0
SPLINE
  5
2EF
330
1F
100
AcDbEntity
  8
외형선
  6
Continuous
 62
     1
370
    15
100
AcDbSpline
210
0.0
220
0.0
230
1.0
 70
     8
 71
     3
 72
     8
 73
     4
 74
     0
 42
0.000000001
 43
0.00000001
 40
0.0
 40
0.0
 40
0.0
 40
0.0
 40
1.0
 40
1.0
 40
1.0
 40
1.0
 10
13.27612984266418
 20
-4.555544995928591
 30
0.0
 10
13.38751331464421
 20
-4.587237038727605
 30
0.0
 10
13.49948762737776
 20
-4.593251723904867
 30
0.0
 10
13.59161335808042
 20
-4.566280210168297
 30
0.0
  0
SPLINE
  5
2F0
330
1F
100
AcDbEntity
  8
외형선
  6
Continuous
 62
     1
370
    15
100
AcDbSpline
210
0.0
220
0.0
230
1.0
 70
     8
 71
     3
 72
     8
 73
     4
 74
     0
 42
0.000000001
 43
0.00000001
 40
0.0
 40
0.0
 40
0.0
 40
0.0
 40
0.5801856298441012
 40
0.5801856298441012
 40
0.5801856298441012
 40
0.5801856298441012
 10
13.27613297266578
 20
-4.555545886512263
 30
0.0
 10
12.85070754858909
 20
-4.434499207995019
 30
0.0
 10
12.42567575233256
 20
-4.311123915819908
 30
0.0
 10
12.0
 20
-4.185462622697102
 30
0.0
  0
SPLINE
  5
2F3
330
1F
100
AcDbEntity
  8
외형선
  6
Continuous
 62
     1
370
    15
100
AcDbSpline
210
0.0
220
0.0
230
1.0
 70
     8
 71
     3
 72
     8
 73
     4
 74
     0
 42
0.000000001
 43
0.00000001
 40
0.0
 40
0.0
 40
0.0
 40
0.0
 40
1.0
 40
1.0
 40
1.0
 40
1.0
 10
14.41802915792031
 20
-8.849059667416714
 30
0.0
 10
14.32686427307424
 20
-8.90758275222322
 30
0.0
 10
14.21526869467001
 20
-8.934004381751215
 30
0.0
 10
14.10055336905837
 20
-8.924468719997803
 30
0.0
  0
SPLINE
  5
2F4
330
1F
100
AcDbEntity
  8
외형선
  6
Continuous
 62
     1
370
    15
100
AcDbSpline
210
0.0
220
0.0
230
1.0
 70
     8
 71
     3
 72
    10
 73
     6
 74
     0
 42
0.000000001
 43
0.00000001
 40
0.0
 40
0.0
 40
0.0
 40
0.0
 40
0.5
 40
0.5
 40
1.0
 40
1.0
 40
1.0
 40
1.0
 10
15.68401254206418
 20
-8.936132049171551
 30
0.0
 10
15.49669496919051
 20
-8.785799485511706
 30
0.0
 10
15.2691486760086
 20
-8.704227281482863
 30
0.0
 10
14.81546221103439
 20
-8.67874852019392
 30
0.0
 10
14.59786891341822
 20
-8.733611956597386
 30
0.0
 10
14.41802915792031
 20
-8.84905966741672
 30
0.0
  0
SPLINE
  5
2F5
330
1F
100
AcDbEntity
  8
외형선
  6
Continuous
 62
     1
370
    15
100
AcDbSpline
210
0.0
220
0.0
230
1.0
 70
     8
 71
     3
 72
     8
 73
     4
 74
     0
 42
0.000000001
 43
0.00000001
 40
0.0
 40
0.0
 40
0.0
 40
0.0
 40
1.0
 40
1.0
 40
1.0
 40
1.0
 10
15.99952453706509
 20
-9.057599442303106
 30
0.0
 10
15.88811883231879
 20
-9.051236499695413
 30
0.0
 10
15.77613569043994
 20
-9.010065897750115
 30
0.0
 10
15.68401254206172
 20
-8.936132049176646
 30
0.0
  0
SPLINE
  5
2F9
330
1F
100
AcDbEntity
  8
외형선
  6
Continuous
 62
     1
370
    15
100
AcDbSpline
210
0.0
220
0.0
230
1.0
 70
     8
 71
     3
 72
     8
 73
     4
 74
     0
 42
0.000000001
 43
0.00000001
 40
0.0
 40
0.0
 40
0.0
 40
0.0
 40
0.9540852411565993
 40
0.9540852411565993
 40
0.9540852411565993
 40
0.9540852411565993
 10
14.10055336911294
 20
-8.924468719997591
 30
0.0
 10
13.39927128392862
 20
-8.866174950418685
 30
0.0
 10
12.70177868629524
 20
-8.798010465227216
 30
0.0
 10
12.0
 20
-8.719921242378206
 30
0.0
  0
ENDSEC
  0
SECTION
  2
OBJECTS
  0
DICTIONARY
  5
C
330
0
100
AcDbDictionary
281
     1
  3
ACAD_DETAILVIEWSTYLE
350
27E
  3
ACAD_GROUP
350
D
  3
ACAD_IMAGE_VARS
350
24A
  3
ACAD_LAYOUT
350
1A
  3
ACAD_MLINESTYLE
350
17
  3
ACAD_PLOTSETTINGS
350
19
  3
ACAD_PLOTSTYLENAME
350
E
  3
ACAD_SCALELIST
350
47
  3
ACAD_SECTIONVIEWSTYLE
350
27F
  3
AcDbVariableDictionary
350
279
  3
APPDATA
350
248
  3
DWGPROPS
350
2FC
  0
DICTIONARY
  5
27E
102
{ACAD_REACTORS
330
C
102
}
330
C
100
AcDbDictionary
281
     1
  0
DICTIONARY
  5
D
102
{ACAD_REACTORS
330
C
102
}
330
C
100
AcDbDictionary
281
     1
  0
RASTERVARIABLES
  5
24A
102
{ACAD_REACTORS
330
C
102
}
330
C
100
AcDbRasterVariables
 90
        0
 70
     1
 71
     1
 72
     1
  0
DICTIONARY
  5
1A
102
{ACAD_REACTORS
330
C
102
}
330
C
100
AcDbDictionary
281
     1
  3
Layout1
350
1E
  3
Layout2
350
26
  3
Model
350
22
  0
DICTIONARY
  5
17
102
{ACAD_REACTORS
330
C
102
}
330
C
100
AcDbDictionary
281
     1
  3
Standard
350
18
  0
DICTIONARY
  5
19
102
{ACAD_REACTORS
330
C
102
}
330
C
100
AcDbDictionary
281
     1
  0
ACDBDICTIONARYWDFLT
  5
E
102
{ACAD_REACTORS
330
C
102
}
330
C
100
AcDbDictionary
281
     1
  3
Normal
350
F
100
AcDbDictionaryWithDefault
340
F
  0
DICTIONARY
  5
47
102
{ACAD_REACTORS
330
C
102
}
330
C
100
AcDbDictionary
281
     1
  3
A0
350
48
  3
A1
350
49
  3
A2
350
4A
  3
A3
350
4B
  3
A4
350
4C
  3
A5
350
4D
  3
A6
350
4E
  3
A7
350
4F
  3
A8
350
50
  3
A9
350
51
  3
B0
350
52
  3
B1
350
53
  3
B2
350
54
  3
B3
350
55
  3
B4
350
56
  3
B5
350
57
  3
B6
350
58
  3
B7
350
59
  3
B8
350
5A
  3
B9
350
5B
  3
C0
350
5C
  3
C1
350
5D
  3
C2
350
5E
  3
C3
350
5F
  3
C4
350
60
  3
C5
350
61
  3
C6
350
62
  3
C7
350
63
  3
C8
350
64
  3
C9
350
65
  3
D0
350
66
  3
D1
350
67
  3
D2
350
68
  0
DICTIONARY
  5
27F
102
{ACAD_REACTORS
330
C
102
}
330
C
100
AcDbDictionary
281
     1
  0
DICTIONARY
  5
279
102
{ACAD_REACTORS
330
C
102
}
330
C
100
AcDbDictionary
281
     1
  0
DICTIONARY
  5
248
102
{ACAD_REACTORS
330
C
102
}
330
C
100
AcDbDictionary
281
     1
  0
XRECORD
  5
2FC
102
{ACAD_REACTORS
330
C
102
}
330
C
100
AcDbXrecord
280
     1
  1
DWGPROPS COOKIE
  2

  3

  4

  6

  7

  8
12016016
  9

300
=
301
=
302
=
303
=
304
=
305
=
306
=
307
=
308
=
309
=
 40
0.0
 41
2458298.975895243
 42
2458311.321919201
  1

 90
        0
  0
LAYOUT
  5
1E
102
{ACAD_REACTORS
330
1A
102
}
330
1A
100
AcDbPlotSettings
  1

  2
none_device
  4

  6

 40
0.0
 41
0.0
 42
0.0
 43
0.0
 44
0.0
 45
0.0
 46
0.0
 47
0.0
 48
0.0
 49
0.0
140
0.0
141
0.0
142
1.0
143
1.0
 70
   688
 72
     1
 73
     0
 74
     5
  7

 75
    16
147
1.0
148
0.0
149
0.0
100
AcDbLayout
  1
Layout1
 70
     1
 71
     1
 10
0.0
 20
0.0
 11
420.0
 21
297.0
 12
0.0
 22
0.0
 32
0.0
 14
1.000000000000000E+20
 24
1.000000000000000E+20
 34
1.000000000000000E+20
 15
-1.000000000000000E+20
 25
-1.000000000000000E+20
 35
-1.000000000000000E+20
146
0.0
 13
0.0
 23
0.0
 33
0.0
 16
1.0
 26
0.0
 36
0.0
 17
0.0
 27
1.0
 37
0.0
 76
     0
330
1B
  0
LAYOUT
  5
26
102
{ACAD_REACTORS
330
1A
102
}
330
1A
100
AcDbPlotSettings
  1

  2
none_device
  4

  6

 40
0.0
 41
0.0
 42
0.0
 43
0.0
 44
0.0
 45
0.0
 46
0.0
 47
0.0
 48
0.0
 49
0.0
140
0.0
141
0.0
142
1.0
143
1.0
 70
   688
 72
     1
 73
     0
 74
     5
  7

 75
    16
147
1.0
148
0.0
149
0.0
100
AcDbLayout
  1
Layout2
 70
     1
 71
     2
 10
0.0
 20
0.0
 11
0.0
 21
0.0
 12
0.0
 22
0.0
 32
0.0
 14
0.0
 24
0.0
 34
0.0
 15
0.0
 25
0.0
 35
0.0
146
0.0
 13
0.0
 23
0.0
 33
0.0
 16
1.0
 26
0.0
 36
0.0
 17
0.0
 27
1.0
 37
0.0
 76
     0
330
23
  0
LAYOUT
  5
22
102
{ACAD_REACTORS
330
1A
102
}
330
1A
100
AcDbPlotSettings
  1

  2
none_device
  4
ANSI_A_(11.00_x_8.50_Inches)
  6

 40
6.35
 41
19.05
 42
6.35000508
 43
19.05000254
 44
279.4
 45
215.9
 46
98.76438513735204
 47
90.88064147516121
 48
0.0
 49
0.0
140
0.0
141
0.0
142
0.0787110341538491
143
1.0
 70
  1696
 72
     0
 73
     0
 74
     0
  7

 75
     0
147
0.0235690232323232
148
0.0
149
0.0
100
AcDbLayout
  1
Model
 70
     1
 71
     0
 10
0.0
 20
0.0
 11
420.0
 21
297.0
 12
0.0
 22
0.0
 32
0.0
 14
-69.65416666666671
 24
-50.28867796974447
 34
0.0
 15
107.5262908223886
 25
49.65117589570664
 35
0.0
146
0.0
 13
0.0
 23
0.0
 33
0.0
 16
1.0
 26
0.0
 36
0.0
 17
0.0
 27
1.0
 37
0.0
 76
     0
330
1F
331
29
  0
MLINESTYLE
  5
18
102
{ACAD_REACTORS
330
17
102
}
330
17
100
AcDbMlineStyle
  2
Standard
 70
     0
  3

 62
   256
 51
90.0
 52
90.0
 71
     2
 49
0.5
 62
   256
  6
BYLAYER
 49
-0.5
 62
   256
  6
BYLAYER
  0
ACDBPLACEHOLDER
  5
F
102
{ACAD_REACTORS
330
E
102
}
330
E
  0
SCALE
  5
48
102
{ACAD_REACTORS
330
47
102
}
330
47
100
AcDbScale
 70
     0
300
1:1
140
1.0
141
1.0
290
     1
  0
SCALE
  5
49
102
{ACAD_REACTORS
330
47
102
}
330
47
100
AcDbScale
 70
     0
300
1:2
140
1.0
141
2.0
290
     0
  0
SCALE
  5
4A
102
{ACAD_REACTORS
330
47
102
}
330
47
100
AcDbScale
 70
     0
300
1:4
140
1.0
141
4.0
290
     0
  0
SCALE
  5
4B
102
{ACAD_REACTORS
330
47
102
}
330
47
100
AcDbScale
 70
     0
300
1:5
140
1.0
141
5.0
290
     0
  0
SCALE
  5
4C
102
{ACAD_REACTORS
330
47
102
}
330
47
100
AcDbScale
 70
     0
300
1:8
140
1.0
141
8.0
290
     0
  0
SCALE
  5
4D
102
{ACAD_REACTORS
330
47
102
}
330
47
100
AcDbScale
 70
     0
300
1:10
140
1.0
141
10.0
290
     0
  0
SCALE
  5
4E
102
{ACAD_REACTORS
330
47
102
}
330
47
100
AcDbScale
 70
     0
300
1:16
140
1.0
141
16.0
290
     0
  0
SCALE
  5
4F
102
{ACAD_REACTORS
330
47
102
}
330
47
100
AcDbScale
 70
     0
300
1:20
140
1.0
141
20.0
290
     0
  0
SCALE
  5
50
102
{ACAD_REACTORS
330
47
102
}
330
47
100
AcDbScale
 70
     0
300
1:30
140
1.0
141
30.0
290
     0
  0
SCALE
  5
51
102
{ACAD_REACTORS
330
47
102
}
330
47
100
AcDbScale
 70
     0
300
1:40
140
1.0
141
40.0
290
     0
  0
SCALE
  5
52
102
{ACAD_REACTORS
330
47
102
}
330
47
100
AcDbScale
 70
     0
300
1:50
140
1.0
141
50.0
290
     0
  0
SCALE
  5
53
102
{ACAD_REACTORS
330
47
102
}
330
47
100
AcDbScale
 70
     0
300
1:100
140
1.0
141
100.0
290
     0
  0
SCALE
  5
54
102
{ACAD_REACTORS
330
47
102
}
330
47
100
AcDbScale
 70
     0
300
2:1
140
2.0
141
1.0
290
     0
  0
SCALE
  5
55
102
{ACAD_REACTORS
330
47
102
}
330
47
100
AcDbScale
 70
     0
300
4:1
140
4.0
141
1.0
290
     0
  0
SCALE
  5
56
102
{ACAD_REACTORS
330
47
102
}
330
47
100
AcDbScale
 70
     0
300
8:1
140
8.0
141
1.0
290
     0
  0
SCALE
  5
57
102
{ACAD_REACTORS
330
47
102
}
330
47
100
AcDbScale
 70
     0
300
10:1
140
10.0
141
1.0
290
     0
  0
SCALE
  5
58
102
{ACAD_REACTORS
330
47
102
}
330
47
100
AcDbScale
 70
     0
300
100:1
140
100.0
141
1.0
290
     0
  0
SCALE
  5
59
102
{ACAD_REACTORS
330
47
102
}
330
47
100
AcDbScale
 70
     0
300
1/128" = 1'-0"
140
0.0078125
141
12.0
290
     0
  0
SCALE
  5
5A
102
{ACAD_REACTORS
330
47
102
}
330
47
100
AcDbScale
 70
     0
300
1/64" = 1'-0"
140
0.015625
141
12.0
290
     0
  0
SCALE
  5
5B
102
{ACAD_REACTORS
330
47
102
}
330
47
100
AcDbScale
 70
     0
300
1/32" = 1'-0"
140
0.03125
141
12.0
290
     0
  0
SCALE
  5
5C
102
{ACAD_REACTORS
330
47
102
}
330
47
100
AcDbScale
 70
     0
300
1/16" = 1'-0"
140
0.0625
141
12.0
290
     0
  0
SCALE
  5
5D
102
{ACAD_REACTORS
330
47
102
}
330
47
100
AcDbScale
 70
     0
300
3/32" = 1'-0"
140
0.09375
141
12.0
290
     0
  0
SCALE
  5
5E
102
{ACAD_REACTORS
330
47
102
}
330
47
100
AcDbScale
 70
     0
300
1/8" = 1'-0"
140
0.125
141
12.0
290
     0
  0
SCALE
  5
5F
102
{ACAD_REACTORS
330
47
102
}
330
47
100
AcDbScale
 70
     0
300
3/16" = 1'-0"
140
0.1875
141
12.0
290
     0
  0
SCALE
  5
60
102
{ACAD_REACTORS
330
47
102
}
330
47
100
AcDbScale
 70
     0
300
1/4" = 1'-0"
140
0.25
141
12.0
290
     0
  0
SCALE
  5
61
102
{ACAD_REACTORS
330
47
102
}
330
47
100
AcDbScale
 70
     0
300
3/8" = 1'-0"
140
0.375
141
12.0
290
     0
  0
SCALE
  5
62
102
{ACAD_REACTORS
330
47
102
}
330
47
100
AcDbScale
 70
     0
300
1/2" = 1'-0"
140
0.5
141
12.0
290
     0
  0
SCALE
  5
63
102
{ACAD_REACTORS
330
47
102
}
330
47
100
AcDbScale
 70
     0
300
3/4" = 1'-0"
140
0.75
141
12.0
290
     0
  0
SCALE
  5
64
102
{ACAD_REACTORS
330
47
102
}
330
47
100
AcDbScale
 70
     0
300
1" = 1'-0"
140
1.0
141
12.0
290
     0
  0
SCALE
  5
65
102
{ACAD_REACTORS
330
47
102
}
330
47
100
AcDbScale
 70
     0
300
1-1/2" = 1'-0"
140
1.5
141
12.0
290
     0
  0
SCALE
  5
66
102
{ACAD_REACTORS
330
47
102
}
330
47
100
AcDbScale
 70
     0
300
3" = 1'-0"
140
3.0
141
12.0
290
     0
  0
SCALE
  5
67
102
{ACAD_REACTORS
330
47
102
}
330
47
100
AcDbScale
 70
     0
300
6" = 1'-0"
140
6.0
141
12.0
290
     0
  0
SCALE
  5
68
102
{ACAD_REACTORS
330
47
102
}
330
47
100
AcDbScale
 70
     0
300
1'-0" = 1'-0"
140
12.0
141
12.0
290
     0
  0
ENDSEC
  0
EOF
