  0
SECTION
  2
HEADER
  9
$ACADVER
  1
AC1015
  9
$ACADMAINTVER
 70
     6
  9
$DWGCODEPAGE
  3
ANSI_949
  9
$INSBASE
 10
0.0
 20
0.0
 30
0.0
  9
$EXTMIN
 10
-72.0679338944503
 20
-50.28867796974447
 30
0.0
  9
$EXTMAX
 10
110.7012908223886
 20
48.92160986556378
 30
0.0
  9
$LIMMIN
 10
0.0
 20
0.0
  9
$LIMMAX
 10
420.0
 20
297.0
  9
$ORTHOMODE
 70
     1
  9
$REGENMODE
 70
     1
  9
$FILLMODE
 70
     1
  9
$QTEXTMODE
 70
     0
  9
$MIRRTEXT
 70
     1
  9
$LTSCALE
 40
1.0
  9
$ATTMODE
 70
     1
  9
$TEXTSIZE
 40
3.5
  9
$TRACEWID
 40
1.0
  9
$TEXTSTYLE
  7
Standard
  9
$CLAYER
  8
0
  9
$CELTYPE
  6
ByLayer
  9
$CECOLOR
 62
   256
  9
$CELTSCALE
 40
1.0
  9
$DISPSILH
 70
     0
  9
$DIMSCALE
 40
1.0
  9
$DIMASZ
 40
3.302
  9
$DIMEXO
 40
1.0
  9
$DIMDLI
 40
3.75
  9
$DIMRND
 40
0.0
  9
$DIMDLE
 40
0.0
  9
$DIMEXE
 40
1.0
  9
$DIMTP
 40
0.0
  9
$DIMTM
 40
0.0
  9
$DIMTXT
 40
3.5
  9
$DIMCEN
 40
2.5
  9
$DIMTSZ
 40
0.0
  9
$DIMTOL
 70
     0
  9
$DIMLIM
 70
     0
  9
$DIMTIH
 70
     1
  9
$DIMTOH
 70
     1
  9
$DIMSE1
 70
     0
  9
$DIMSE2
 70
     0
  9
$DIMTAD
 70
     1
  9
$DIMZIN
 70
     0
  9
$DIMBLK
  1

  9
$DIMASO
 70
     1
  9
$DIMSHO
 70
     1
  9
$DIMPOST
  1

  9
$DIMAPOST
  1

  9
$DIMALT
 70
     0
  9
$DIMALTD
 70
     3
  9
$DIMALTF
 40
0.0393700787401575
  9
$DIMLFAC
 40
1.0
  9
$DIMTOFL
 70
     1
  9
$DIMTVP
 40
0.0
  9
$DIMTIX
 70
     0
  9
$DIMSOXD
 70
     0
  9
$DIMSAH
 70
     0
  9
$DIMBLK1
  1

  9
$DIMBLK2
  1

  9
$DIMSTYLE
  2
ISO-25
  9
$DIMCLRD
 70
     0
  9
$DIMCLRE
 70
     0
  9
$DIMCLRT
 70
     0
  9
$DIMTFAC
 40
1.0
  9
$DIMGAP
 40
1.524
  9
$DIMJUST
 70
     0
  9
$DIMSD1
 70
     0
  9
$DIMSD2
 70
     0
  9
$DIMTOLJ
 70
     0
  9
$DIMTZIN
 70
     0
  9
$DIMALTZ
 70
     0
  9
$DIMALTTZ
 70
     0
  9
$DIMUPT
 70
     0
  9
$DIMDEC
 70
     2
  9
$DIMTDEC
 70
     2
  9
$DIMALTU
 70
     2
  9
$DIMALTTD
 70
     3
  9
$DIMTXSTY
  7
Standard
  9
$DIMAUNIT
 70
     0
  9
$DIMADEC
 70
     2
  9
$DIMALTRND
 40
0.0
  9
$DIMAZIN
 70
     0
  9
$DIMDSEP
 70
    44
  9
$DIMATFIT
 70
     3
  9
$DIMFRAC
 70
     0
  9
$DIMLDRBLK
  1

  9
$DIMLUNIT
 70
     2
  9
$DIMLWD
 70
    -2
  9
$DIMLWE
 70
    -2
  9
$DIMTMOVE
 70
     0
  9
$LUNITS
 70
     2
  9
$LUPREC
 70
     2
  9
$SKETCHINC
 40
1.0
  9
$FILLETRAD
 40
10.0
  9
$AUNITS
 70
     0
  9
$AUPREC
 70
     2
  9
$MENU
  1
.
  9
$ELEVATION
 40
0.0
  9
$PELEVATION
 40
0.0
  9
$THICKNESS
 40
0.0
  9
$LIMCHECK
 70
     0
  9
$CHAMFERA
 40
0.0
  9
$CHAMFERB
 40
0.0
  9
$CHAMFERC
 40
0.0
  9
$CHAMFERD
 40
0.0
  9
$SKPOLY
 70
     0
  9
$TDCREATE
 40
2458299.350895243
  9
$TDUCREATE
 40
2458298.975895243
  9
$TDUPDATE
 40
2458311.698523368
  9
$TDUUPDATE
 40
2458311.323523368
  9
$TDINDWG
 40
0.0205528588
  9
$TDUSRTIMER
 40
2458311.319280405
  9
$USRTIMER
 70
     1
  9
$ANGBASE
 50
0.0
  9
$ANGDIR
 70
     0
  9
$PDMODE
 70
     0
  9
$PDSIZE
 40
-1.0
  9
$PLINEWID
 40
0.0
  9
$SPLFRAME
 70
     0
  9
$SPLINETYPE
 70
     6
  9
$SPLINESEGS
 70
     8
  9
$HANDSEED
  5
304
  9
$SURFTAB1
 70
     6
  9
$SURFTAB2
 70
     6
  9
$SURFTYPE
 70
     6
  9
$SURFU
 70
     6
  9
$SURFV
 70
     6
  9
$UCSBASE
  2

  9
$UCSNAME
  2

  9
$UCSORG
 10
0.0
 20
0.0
 30
0.0
  9
$UCSXDIR
 10
1.0
 20
0.0
 30
0.0
  9
$UCSYDIR
 10
0.0
 20
1.0
 30
0.0
  9
$UCSORTHOREF
  2

  9
$UCSORTHOVIEW
 70
     0
  9
$UCSORGTOP
 10
0.0
 20
0.0
 30
0.0
  9
$UCSORGBOTTOM
 10
0.0
 20
0.0
 30
0.0
  9
$UCSORGLEFT
 10
0.0
 20
0.0
 30
0.0
  9
$UCSORGRIGHT
 10
0.0
 20
0.0
 30
0.0
  9
$UCSORGFRONT
 10
0.0
 20
0.0
 30
0.0
  9
$UCSORGBACK
 10
0.0
 20
0.0
 30
0.0
  9
$PUCSBASE
  2

  9
$PUCSNAME
  2

  9
$PUCSORG
 10
0.0
 20
0.0
 30
0.0
  9
$PUCSXDIR
 10
1.0
 20
0.0
 30
0.0
  9
$PUCSYDIR
 10
0.0
 20
1.0
 30
0.0
  9
$PUCSORTHOREF
  2

  9
$PUCSORTHOVIEW
 70
     0
  9
$PUCSORGTOP
 10
0.0
 20
0.0
 30
0.0
  9
$PUCSORGBOTTOM
 10
0.0
 20
0.0
 30
0.0
  9
$PUCSORGLEFT
 10
0.0
 20
0.0
 30
0.0
  9
$PUCSORGRIGHT
 10
0.0
 20
0.0
 30
0.0
  9
$PUCSORGFRONT
 10
0.0
 20
0.0
 30
0.0
  9
$PUCSORGBACK
 10
0.0
 20
0.0
 30
0.0
  9
$USERI1
 70
     0
  9
$USERI2
 70
     0
  9
$USERI3
 70
     0
  9
$USERI4
 70
     0
  9
$USERI5
 70
     0
  9
$USERR1
 40
0.0
  9
$USERR2
 40
0.0
  9
$USERR3
 40
0.0
  9
$USERR4
 40
0.0
  9
$USERR5
 40
0.0
  9
$WORLDVIEW
 70
     1
  9
$SHADEDGE
 70
     3
  9
$SHADEDIF
 70
    70
  9
$TILEMODE
 70
     1
  9
$MAXACTVP
 70
    64
  9
$PINSBASE
 10
0.0
 20
0.0
 30
0.0
  9
$PLIMCHECK
 70
     0
  9
$PEXTMIN
 10
1.000000000000000E+20
 20
1.000000000000000E+20
 30
1.000000000000000E+20
  9
$PEXTMAX
 10
-1.000000000000000E+20
 20
-1.000000000000000E+20
 30
-1.000000000000000E+20
  9
$PLIMMIN
 10
0.0
 20
0.0
  9
$PLIMMAX
 10
0.0
 20
0.0
  9
$UNITMODE
 70
     0
  9
$VISRETAIN
 70
     1
  9
$PLINEGEN
 70
     0
  9
$PSLTSCALE
 70
     1
  9
$TREEDEPTH
 70
  3020
  9
$CMLSTYLE
  2
Standard
  9
$CMLJUST
 70
     0
  9
$CMLSCALE
 40
20.0
  9
$PROXYGRAPHICS
 70
     1
  9
$MEASUREMENT
 70
     1
  9
$CELWEIGHT
370
    -1
  9
$ENDCAPS
280
     0
  9
$JOINSTYLE
280
     0
  9
$LWDISPLAY
290
     1
  9
$INSUNITS
 70
     4
  9
$HYPERLINKBASE
  1

  9
$STYLESHEET
  1

  9
$XEDIT
290
     1
  9
$CEPSNTYPE
380
     0
  9
$PSTYLEMODE
290
     1
  9
$FINGERPRINTGUID
  2
{5EF76DE8-C6DD-4A4F-9B81-46A72B4BA541}
  9
$VERSIONGUID
  2
{FAEB1C32-E019-11D5-929B-00C0DF256EC4}
  9
$EXTNAMES
290
     1
  9
$PSVPSCALE
 40
0.0
  9
$OLESTARTUP
290
     0
  0
ENDSEC
  0
SECTION
  2
CLASSES
  0
CLASS
  1
ACDBDICTIONARYWDFLT
  2
AcDbDictionaryWithDefault
  3
ObjectDBX Classes
 90
        0
280
     0
281
     0
  0
CLASS
  1
VISUALSTYLE
  2
AcDbVisualStyle
  3
ObjectDBX Classes
 90
     4095
280
     0
281
     0
  0
CLASS
  1
MATERIAL
  2
AcDbMaterial
  3
ObjectDBX Classes
 90
     1153
280
     0
281
     0
  0
CLASS
  1
SCALE
  2
AcDbScale
  3
ObjectDBX Classes
 90
     1153
280
     0
281
     0
  0
CLASS
  1
SUN
  2
AcDbSun
  3
SCENEOE
 90
     1153
280
     0
281
     0
  0
CLASS
  1
ACDBPLACEHOLDER
  2
AcDbPlaceHolder
  3
ObjectDBX Classes
 90
        0
280
     0
281
     0
  0
CLASS
  1
LAYOUT
  2
AcDbLayout
  3
ObjectDBX Classes
 90
        0
280
     0
281
     0
  0
CLASS
  1
TABLESTYLE
  2
AcDbTableStyle
  3
ObjectDBX Classes
 90
     4095
280
     0
281
     0
  0
CLASS
  1
MLEADERSTYLE
  2
AcDbMLeaderStyle
  3
ACDB_MLEADERSTYLE_CLASS
 90
     4095
280
     0
281
     0
  0
CLASS
  1
RASTERVARIABLES
  2
AcDbRasterVariables
  3
ISM
 90
        0
280
     0
281
     0
  0
CLASS
  1
DICTIONARYVAR
  2
AcDbDictionaryVar
  3
ObjectDBX Classes
 90
        0
280
     0
281
     0
  0
ENDSEC
  0
SECTION
  2
TABLES
  0
TABLE
  2
VPORT
  5
8
330
0
100
AcDbSymbolTable
 70
     1
  0
VPORT
  5
29
330
8
100
AcDbSymbolTableRecord
100
AcDbViewportTableRecord
  2
*Active
 70
     0
 10
0.0
 20
0.0
 11
1.0
 21
1.0
 12
6.89781432553103
 22
22.21922856886191
 13
0.0
 23
0.0
 14
10.0
 24
10.0
 15
10.0
 25
10.0
 16
0.0
 26
0.0
 36
1.0
 17
0.0
 27
0.0
 37
0.0
 40
257.6929343516929
 41
1.387755102040816
 42
50.0
 43
0.0
 44
0.0
 50
0.0
 51
0.0
 71
    16
 72
  2000
 73
     1
 74
     3
 75
     0
 76
     0
 77
     0
 78
     0
281
     0
 65
     1
110
0.0
120
0.0
130
0.0
111
1.0
121
0.0
131
0.0
112
0.0
122
1.0
132
0.0
 79
     0
146
0.0
  0
ENDTAB
  0
TABLE
  2
LTYPE
  5
5
330
0
100
AcDbSymbolTable
 70
     6
  0
LTYPE
  5
14
330
5
100
AcDbSymbolTableRecord
100
AcDbLinetypeTableRecord
  2
ByBlock
 70
     0
  3

 72
    65
 73
     0
 40
0.0
  0
LTYPE
  5
15
330
5
100
AcDbSymbolTableRecord
100
AcDbLinetypeTableRecord
  2
ByLayer
 70
     0
  3

 72
    65
 73
     0
 40
0.0
  0
LTYPE
  5
16
330
5
100
AcDbSymbolTableRecord
100
AcDbLinetypeTableRecord
  2
Continuous
 70
     0
  3
Solid line
 72
    65
 73
     0
 40
0.0
  0
LTYPE
  5
6A
330
5
100
AcDbSymbolTableRecord
100
AcDbLinetypeTableRecord
  2
HIDDEN
 70
     0
  3
Hidden __ __ __ __ __ __ __ __ __ __ __ __ __ __
 72
    65
 73
     2
 40
1.905
 49
1.27
 74
     0
 49
-0.635
 74
     0
  0
LTYPE
  5
6B
330
5
100
AcDbSymbolTableRecord
100
AcDbLinetypeTableRecord
  2
PHANTOM
 70
     0
  3
Phantom ______  __  __  ______  __  __  ______
 72
    65
 73
     6
 40
12.7
 49
6.35
 74
     0
 49
-1.27
 74
     0
 49
1.27
 74
     0
 49
-1.27
 74
     0
 49
1.27
 74
     0
 49
-1.27
 74
     0
  0
LTYPE
  5
6C
330
5
100
AcDbSymbolTableRecord
100
AcDbLinetypeTableRecord
  2
CENTER
 70
     0
  3
Center ____ _ ____ _ ____ _ ____ _ ____ _ ____
 72
    65
 73
     4
 40
10.16
 49
6.35
 74
     0
 49
-1.27
 74
     0
 49
1.27
 74
     0
 49
-1.27
 74
     0
  0
LTYPE
  5
6D
330
5
100
AcDbSymbolTableRecord
100
AcDbLinetypeTableRecord
  2
CENTERX2
 70
     0
  3
Center (2x) ________  __  ________  __  _____
 72
    65
 73
     4
 40
20.32
 49
12.7
 74
     0
 49
-2.54
 74
     0
 49
2.54
 74
     0
 49
-2.54
 74
     0
  0
LTYPE
  5
6E
330
5
100
AcDbSymbolTableRecord
100
AcDbLinetypeTableRecord
  2
DOT2
 70
     0
  3
Dot (.5x) ........................................
 72
    65
 73
     2
 40
0.635
 49
0.0
 74
     0
 49
-0.635
 74
     0
  0
ENDTAB
  0
TABLE
  2
LAYER
  5
2
330
0
100
AcDbSymbolTable
 70
    18
  0
LAYER
  5
10
330
2
100
AcDbSymbolTableRecord
100
AcDbLayerTableRecord
  2
0
 70
     0
 62
     7
  6
Continuous
370
    -3
390
F
  0
LAYER
  5
6F
330
2
100
AcDbSymbolTableRecord
100
AcDbLayerTableRecord
  2
FORMAT
 70
     0
 62
     2
  6
Continuous
370
    -3
390
F
  0
LAYER
  5
70
330
2
100
AcDbSymbolTableRecord
100
AcDbLayerTableRecord
  2
외형선
 70
     0
 62
     4
  6
Continuous
370
    30
390
F
  0
LAYER
  5
71
330
2
100
AcDbSymbolTableRecord
100
AcDbLayerTableRecord
  2
숨은선
 70
     0
 62
     2
  6
HIDDEN
370
    15
390
F
  0
LAYER
  5
72
330
2
100
AcDbSymbolTableRecord
100
AcDbLayerTableRecord
  2
중심선
 70
     0
 62
     1
  6
CENTERX2
370
    -3
390
F
  0
LAYER
  5
73
330
2
100
AcDbSymbolTableRecord
100
AcDbLayerTableRecord
  2
파단선
 70
     0
 62
     4
  6
Continuous
370
    -3
390
F
  0
LAYER
  5
74
330
2
100
AcDbSymbolTableRecord
100
AcDbLayerTableRecord
  2
해칭선
 70
     0
 62
   100
  6
Continuous
370
    -3
390
F
  0
LAYER
  5
75
330
2
100
AcDbSymbolTableRecord
100
AcDbLayerTableRecord
  2
가는실선
 70
     0
 62
     4
  6
Continuous
370
    -3
390
F
  0
LAYER
  5
76
330
2
100
AcDbSymbolTableRecord
100
AcDbLayerTableRecord
  2
치수_보조선
 70
     0
 62
     4
  6
Continuous
370
    -3
390
F
  0
LAYER
  5
77
330
2
100
AcDbSymbolTableRecord
100
AcDbLayerTableRecord
  2
치수문자_일반주서
 70
     0
 62
     7
  6
Continuous
370
    15
390
F
  0
LAYER
  5
78
330
2
100
AcDbSymbolTableRecord
100
AcDbLayerTableRecord
  2
개별주서
 70
     0
 62
   100
  6
Continuous
370
    30
390
F
  0
LAYER
  5
79
330
2
100
AcDbSymbolTableRecord
100
AcDbLayerTableRecord
  2
중간선
 70
     0
 62
     2
  6
Continuous
370
    15
390
F
  0
LAYER
  5
7A
330
2
100
AcDbSymbolTableRecord
100
AcDbLayerTableRecord
  2
윤곽선
 70
     0
 62
     3
  6
Continuous
370
    40
390
F
  0
LAYER
  5
7B
330
2
100
AcDbSymbolTableRecord
100
AcDbLayerTableRecord
  2
중심마크
 70
     0
 62
   100
  6
Continuous
370
    30
390
F
  0
LAYER
  5
7C
330
2
100
AcDbSymbolTableRecord
100
AcDbLayerTableRecord
  2
가상선
 70
     0
 62
     4
  6
PHANTOM
370
    -3
390
F
  0
LAYER
  5
7D
330
2
100
AcDbSymbolTableRecord
100
AcDbLayerTableRecord
  2
특수지정선
 70
     0
 62
     5
  6
CENTERX2
370
    60
390
F
  0
LAYER
  5
7E
330
2
100
AcDbSymbolTableRecord
100
AcDbLayerTableRecord
  2
참조1
 70
     0
 62
    -4
  6
Continuous
370
    -3
390
F
  0
LAYER
  5
24B
330
2
100
AcDbSymbolTableRecord
100
AcDbLayerTableRecord
  2
Defpoints
 70
     0
 62
     7
  6
Continuous
290
     0
370
    -3
390
F
  0
ENDTAB
  0
TABLE
  2
STYLE
  5
3
330
0
100
AcDbSymbolTable
 70
     2
  0
STYLE
  5
11
330
3
100
AcDbSymbolTableRecord
100
AcDbTextStyleTableRecord
  2
Standard
 70
     0
 40
0.0
 41
1.0
 50
0.0
 71
     0
 42
3.5
  3
txt
  4

  0
STYLE
  5
94
330
3
100
AcDbSymbolTableRecord
100
AcDbTextStyleTableRecord
  2
SLDTEXTSTYLE0
 70
     0
 40
0.0
 41
0.75
 50
0.0
 71
     0
 42
3.5
  3
TXT
  4

  0
ENDTAB
  0
TABLE
  2
VIEW
  5
6
330
0
100
AcDbSymbolTable
 70
     0
  0
ENDTAB
  0
TABLE
  2
UCS
  5
7
330
0
100
AcDbSymbolTable
 70
     0
  0
ENDTAB
  0
TABLE
  2
APPID
  5
9
330
0
100
AcDbSymbolTable
 70
     1
  0
APPID
  5
12
330
9
100
AcDbSymbolTableRecord
100
AcDbRegAppTableRecord
  2
ACAD
 70
     0
  0
ENDTAB
  0
TABLE
  2
DIMSTYLE
  5
A
330
0
100
AcDbSymbolTable
 70
     4
100
AcDbDimStyleTable
  0
DIMSTYLE
105
27
330
A
100
AcDbSymbolTableRecord
100
AcDbDimStyleTableRecord
  2
ISO-25
 70
     0
 41
2.5
 42
0.625
 43
3.75
 44
1.25
 73
     0
 74
     0
 77
     1
 78
     8
140
2.5
141
2.5
143
0.03937007874016
147
0.625
171
     3
172
     1
178
     0
271
     2
272
     2
274
     3
278
    44
283
     0
284
     8
340
11
  0
DIMSTYLE
105
1CA
102
{ACAD_REACTORS
330
1C9
330
1F1
102
}
330
A
100
AcDbSymbolTableRecord
100
AcDbDimStyleTableRecord
  2
SLDDIMSTYLE0
 70
     0
 41
3.302
 44
0.0
 45
0.000000001
 73
     0
 74
     0
 77
     1
 78
    12
 79
     3
140
3.5
143
0.0393700787401575
147
0.875
148
0.000000001
170
     1
173
     1
178
     0
271
     2
272
     2
276
     2
284
    12
340
94
  0
DIMSTYLE
105
1DD
102
{ACAD_REACTORS
330
1DC
102
}
330
A
100
AcDbSymbolTableRecord
100
AcDbDimStyleTableRecord
  2
SLDDIMSTYLE1
 70
     0
 41
3.302
 44
0.0
 45
0.000000001
 73
     0
 74
     0
 77
     1
 78
    12
 79
     3
140
3.5
143
0.0393700787401575
147
0.875
148
0.000000001
170
     1
172
     1
173
     1
178
     0
271
     2
272
     2
276
     2
284
    12
289
     0
340
94
  0
DIMSTYLE
105
206
102
{ACAD_REACTORS
330
205
102
}
330
A
100
AcDbSymbolTableRecord
100
AcDbDimStyleTableRecord
  2
SLDDIMSTYLE2
 70
     0
 41
3.302
 44
0.0
 45
0.000000001
 73
     0
 74
     0
 77
     1
 78
     4
 79
     1
140
3.5
143
0.0393700787401575
147
0.875
148
0.000000001
170
     1
173
     1
178
     0
271
     2
272
     2
276
     2
284
    12
340
94
  0
ENDTAB
  0
TABLE
  2
BLOCK_RECORD
  5
1
330
0
100
AcDbSymbolTable
 70
     7
  0
BLOCK_RECORD
  5
1F
330
1
100
AcDbSymbolTableRecord
100
AcDbBlockTableRecord
  2
*Model_Space
340
22
  0
BLOCK_RECORD
  5
1B
330
1
100
AcDbSymbolTableRecord
100
AcDbBlockTableRecord
  2
*Paper_Space
340
1E
  0
BLOCK_RECORD
  5
23
330
1
100
AcDbSymbolTableRecord
100
AcDbBlockTableRecord
  2
*Paper_Space0
340
26
  0
BLOCK_RECORD
  5
7F
330
1
100
AcDbSymbolTableRecord
100
AcDbBlockTableRecord
  2
블럭10
340
0
102
{BLKREFS
331
1C1
102
}
  0
BLOCK_RECORD
  5
1CB
330
1
100
AcDbSymbolTableRecord
100
AcDbBlockTableRecord
  2
_D
340
0
  0
BLOCK_RECORD
  5
1DE
330
1
100
AcDbSymbolTableRecord
100
AcDbBlockTableRecord
  2
_D_1
340
0
  0
BLOCK_RECORD
  5
1F2
330
1
100
AcDbSymbolTableRecord
100
AcDbBlockTableRecord
  2
_D_2
340
0
  0
BLOCK_RECORD
  5
207
330
1
100
AcDbSymbolTableRecord
100
AcDbBlockTableRecord
  2
_D_3
340
0
  0
BLOCK_RECORD
  5
220
330
1
100
AcDbSymbolTableRecord
100
AcDbBlockTableRecord
  2
SW_DOWELSYMBOL_0
340
0
102
{BLKREFS
331
226
102
}
  0
ENDTAB
  0
ENDSEC
  0
SECTION
  2
BLOCKS
  0
BLOCK
  5
20
330
1F
100
AcDbEntity
  8
0
100
AcDbBlockBegin
  2
*Model_Space
 70
     0
 10
0.0
 20
0.0
 30
0.0
  3
*Model_Space
  1
*Model_Space
  0
ENDBLK
  5
21
330
1F
100
AcDbEntity
  8
0
100
AcDbBlockEnd
  0
BLOCK
  5
1C
330
1B
100
AcDbEntity
 67
     1
  8
0
100
AcDbBlockBegin
  2
*Paper_Space
 70
     0
 10
0.0
 20
0.0
 30
0.0
  3
*Paper_Space
  1
*Paper_Space
  0
ENDBLK
  5
1D
330
1B
100
AcDbEntity
 67
     1
  8
0
100
AcDbBlockEnd
  0
BLOCK
  5
24
330
23
100
AcDbEntity
  8
0
100
AcDbBlockBegin
  2
*Paper_Space0
 70
     0
 10
0.0
 20
0.0
 30
0.0
  3
*Paper_Space0
  1
*Paper_Space0
  0
ENDBLK
  5
25
330
23
100
AcDbEntity
  8
0
100
AcDbBlockEnd
  0
BLOCK
  5
80
330
7F
100
AcDbEntity
  8
0
100
AcDbBlockBegin
  2
블럭10
 70
     2
 10
0.0
 20
0.0
 30
0.0
  3
블럭10
  1
블럭10
  0
ELLIPSE
  5
82
330
7F
100
AcDbEntity
  8
중심선
100
AcDbEllipse
 10
20.54032771741204
 20
12.0471743016438
 30
0.0
 11
6.600054785286829
 21
-1.261213355974178E-13
 31
0.0
210
0.0
220
0.0
230
1.0
 40
0.636358354079598
 41
0.9219305317359503
 42
6.513795318482858
  0
ELLIPSE
  5
83
330
7F
100
AcDbEntity
  8
중심선
100
AcDbEllipse
 10
20.54032771746488
 20
12.04717430159265
 30
0.0
 11
3.960054785062283
 21
1.540847449632565E-10
 31
0.0
210
0.0
220
0.0
230
1.0
 40
0.3939339440162632
 41
1.131841032648279
 42
5.62031148352944
  0
LINE
  5
84
330
7F
100
AcDbEntity
  8
중심선
100
AcDbLine
 10
2.268634060543552
 20
16.24717430164393
 30
0.0
 11
5.714909304380834
 21
16.24717430164393
 31
0.0
  0
LINE
  5
85
330
7F
100
AcDbEntity
  8
중심선
100
AcDbLine
 10
5.245725140726316
 20
7.84717430164391
 30
0.0
 11
8.692000384563599
 21
7.84717430164391
 31
0.0
  0
LINE
  5
86
330
7F
100
AcDbEntity
  8
중심선
100
AcDbLine
 10
15.74043728645272
 20
16.24717430164393
 30
0.0
 11
8.692000384563599
 21
7.84717430164391
 31
0.0
  0
LINE
  5
87
330
7F
100
AcDbEntity
  8
중심선
100
AcDbLine
 10
0.1404042013395286
 20
13.71084872107135
 30
0.0
 11
3.58671253028996
 21
13.71088815037384
 31
0.0
  0
LINE
  5
88
330
7F
100
AcDbEntity
  8
중심선
100
AcDbLine
 10
2.750260043222114
 20
10.84717430164391
 30
0.0
 11
6.196535287059397
 21
10.84717430164391
 31
0.0
  0
LINE
  5
89
330
7F
100
AcDbEntity
  8
중심선
100
AcDbLine
 10
12.29416204261559
 20
16.24717430164393
 30
0.0
 11
5.245725140726316
 21
7.84717430164391
 31
0.0
  0
LINE
  5
8A
330
7F
100
AcDbEntity
  8
중심선
100
AcDbLine
 10
10.72767329541681
 20
16.24717430164393
 30
0.0
 11
6.196535287059397
 21
10.84717430164391
 31
0.0
  0
LINE
  5
8B
330
7F
100
AcDbEntity
  8
중심선
100
AcDbLine
 10
7.28139805157953
 20
16.24717430164393
 30
0.0
 11
2.750260043222114
 21
10.84717430164391
 31
0.0
  0
LINE
  5
8C
330
7F
100
AcDbEntity
  8
중심선
100
AcDbLine
 10
5.714909304380834
 20
16.24717430164393
 30
0.0
 11
3.58671253028996
 21
13.71088815037384
 31
0.0
  0
LINE
  5
8D
330
7F
100
AcDbEntity
  8
중심선
100
AcDbLine
 10
2.268634060543552
 20
16.24717430164393
 30
0.0
 11
0.1404042013395286
 21
13.71084872107135
 31
0.0
  0
LINE
  5
8E
330
7F
100
AcDbEntity
  8
중심선
100
AcDbLine
 10
7.28139805157953
 20
16.24717430164393
 30
0.0
 11
10.72767329541681
 21
16.24717430164393
 31
0.0
  0
LINE
  5
8F
330
7F
100
AcDbEntity
  8
중심선
100
AcDbLine
 10
12.29416204261559
 20
16.24717430164393
 30
0.0
 11
15.74043728645272
 21
16.24717430164393
 31
0.0
  0
LINE
  5
90
330
7F
100
AcDbEntity
  8
중심선
100
AcDbLine
 10
19.22036997980202
 20
11.08717430171403
 30
0.0
 11
23.66174974927406
 21
11.08717430171406
 31
0.0
  0
LINE
  5
91
330
7F
100
AcDbEntity
  8
중심선
100
AcDbLine
 10
19.22039502424796
 20
13.00717430171391
 30
0.0
 11
19.22036997980202
 21
11.08717430171403
 31
0.0
  0
LINE
  5
92
330
7F
100
AcDbEntity
  8
중심선
100
AcDbLine
 10
19.22039502424796
 20
13.00717430171391
 30
0.0
 11
26.96566020931264
 21
13.00717430171391
 31
0.0
  0
LINE
  5
93
330
7F
100
AcDbEntity
  8
중심선
100
AcDbLine
 10
22.22332737316547
 20
13.45928029700563
 30
0.0
 11
24.52862924686651
 21
15.39360700705356
 31
0.0
  0
ATTDEF
  5
95
330
7F
100
AcDbEntity
  8
FORMAT
 62
     2
100
AcDbText
 10
-10.14163601213663
 20
2.075366912832191
 30
0.0
 40
4.233333333333333
  1
EM156024 [ 3 FLUTE ]
 41
0.75
  7
SLDTEXTSTYLE0
 11
-10.14163601213663
 21
-0.0412997538344756
 31
0.0
100
AcDbAttributeDefinition
  3

  2
AUTOATTR0
 70
     0
 74
     1
  0
ENDBLK
  5
81
330
7F
100
AcDbEntity
  8
0
100
AcDbBlockEnd
  0
BLOCK
  5
1CC
330
1CB
100
AcDbEntity
  8
0
100
AcDbBlockBegin
  2
_D
 70
     0
 10
0.0
 20
0.0
 30
0.0
  3
_D
  1
_D
  0
LINE
  5
1CE
330
1CB
100
AcDbEntity
  8
치수문자_일반주서
 62
     0
370
    -2
100
AcDbLine
 10
56.5125
 20
12.69993164972064
 30
0.0
 11
81.6188143840761
 21
12.69993164972073
 31
0.0
  0
LINE
  5
1CF
330
1CB
100
AcDbEntity
  8
치수문자_일반주서
 62
     0
370
    -2
100
AcDbLine
 10
56.5125
 20
-12.69993164972061
 30
0.0
 11
81.61881438407619
 21
-12.69993164972051
 31
0.0
  0
LINE
  5
1D0
330
1CB
100
AcDbEntity
  8
치수문자_일반주서
 62
     0
370
    -2
100
AcDbLine
 10
81.6188143840761
 20
12.69993164972073
 30
0.0
 11
81.61881438407602
 21
40.1956294366153
 31
0.0
  0
LINE
  5
1D1
330
1CB
100
AcDbEntity
  8
치수문자_일반주서
 62
     0
370
    -2
100
AcDbLine
 10
81.61881438407612
 20
9.397931649720732
 30
0.0
 11
81.61881438407617
 21
-9.397931649720512
 31
0.0
  0
SOLID
  5
1D2
330
1CB
100
AcDbEntity
  8
치수문자_일반주서
 62
     0
100
AcDbTrace
 10
82.16914771740944
 20
9.397931649720734
 30
0.0
 11
81.06848105074279
 21
9.39793164972073
 31
0.0
 12
81.6188143840761
 22
12.69993164972073
 32
0.0
 13
81.6188143840761
 23
12.69993164972073
 33
0.0
  0
SOLID
  5
1D3
330
1CB
100
AcDbEntity
  8
치수문자_일반주서
 62
     0
100
AcDbTrace
 10
81.06848105074285
 20
-9.397931649720514
 30
0.0
 11
82.1691477174095
 21
-9.39793164972051
 31
0.0
 12
81.61881438407619
 22
-12.69993164972051
 32
0.0
 13
81.61881438407619
 23
-12.69993164972051
 33
0.0
  0
MTEXT
  5
1D4
330
1CB
100
AcDbEntity
  8
치수문자_일반주서
 62
     0
100
AcDbMText
 10
77.24381438407605
 20
30.13312943661528
 30
0.0
 40
3.5
 41
0.0
 71
     2
 72
     1
  1
\A1;%%c25.4 [1]
  7
SLDTEXTSTYLE0
 11
-3.356912881223566E-15
 21
1.0
 31
0.0
 73
     1
 44
1.0
  0
POINT
  5
1D5
330
1CB
100
AcDbEntity
  8
Defpoints
 62
     0
100
AcDbPoint
 10
56.45
 20
12.69993164972064
 30
0.0
  0
POINT
  5
1D6
330
1CB
100
AcDbEntity
  8
Defpoints
 62
     0
100
AcDbPoint
 10
56.45
 20
-12.69993164972061
 30
0.0
  0
POINT
  5
2AF
330
1CB
100
AcDbEntity
  8
Defpoints
 62
     0
100
AcDbPoint
 10
81.61881438407619
 20
-12.69993164972051
 30
0.0
  0
ENDBLK
  5
1CD
330
1CB
100
AcDbEntity
  8
0
100
AcDbBlockEnd
  0
BLOCK
  5
1DF
330
1DE
100
AcDbEntity
  8
0
100
AcDbBlockBegin
  2
_D_1
 70
     0
 10
0.0
 20
0.0
 30
0.0
  3
_D_1
  1
_D_1
  0
LINE
  5
1E1
330
1DE
100
AcDbEntity
  8
치수문자_일반주서
 62
     0
370
    -2
100
AcDbLine
 10
-42.48334768509804
 20
12.69993164972059
 30
0.0
 11
-67.69293389445033
 21
12.69993164972049
 31
0.0
  0
LINE
  5
1E2
330
1DE
100
AcDbEntity
  8
치수문자_일반주서
 62
     0
370
    -2
100
AcDbLine
 10
-42.48334768509802
 20
-12.69993164972064
 30
0.0
 11
-67.69293389445025
 21
-12.69993164972074
 31
0.0
  0
LINE
  5
1E3
330
1DE
100
AcDbEntity
  8
치수문자_일반주서
 62
     0
370
    -2
100
AcDbLine
 10
-67.69293389445032
 20
9.397931649720494
 30
0.0
 11
-67.69293389445026
 21
-9.397931649720743
 31
0.0
  0
SOLID
  5
1E4
330
1DE
100
AcDbEntity
  8
치수문자_일반주서
 62
     0
100
AcDbTrace
 10
-67.14260056111699
 20
9.397931649720496
 30
0.0
 11
-68.24326722778365
 21
9.397931649720492
 31
0.0
 12
-67.69293389445033
 22
12.69993164972049
 32
0.0
 13
-67.69293389445033
 23
12.69993164972049
 33
0.0
  0
SOLID
  5
1E5
330
1DE
100
AcDbEntity
  8
치수문자_일반주서
 62
     0
100
AcDbTrace
 10
-68.24326722778359
 20
-9.397931649720745
 30
0.0
 11
-67.14260056111694
 21
-9.397931649720741
 31
0.0
 12
-67.69293389445025
 22
-12.69993164972074
 32
0.0
 13
-67.69293389445025
 23
-12.69993164972074
 33
0.0
  0
MTEXT
  5
1E6
330
1DE
100
AcDbEntity
  8
치수문자_일반주서
 62
     0
100
AcDbMText
 10
-72.06793389445028
 20
-2.478893904774308
 30
0.0
 40
3.5
 41
0.0
 71
     2
 72
     1
  1
\A1;%%c25.4 [1]
  7
SLDTEXTSTYLE0
 11
-3.356912881223568E-15
 21
1.0
 31
0.0
 73
     1
 44
1.0
  0
POINT
  5
1E7
330
1DE
100
AcDbEntity
  8
Defpoints
 62
     0
100
AcDbPoint
 10
-42.42084768509804
 20
12.69993164972059
 30
0.0
  0
POINT
  5
1E8
330
1DE
100
AcDbEntity
  8
Defpoints
 62
     0
100
AcDbPoint
 10
-42.42084768509802
 20
-12.69993164972064
 30
0.0
  0
POINT
  5
1E9
330
1DE
100
AcDbEntity
  8
Defpoints
 62
     0
100
AcDbPoint
 10
-67.69293389445025
 20
-12.69993164972074
 30
0.0
  0
ENDBLK
  5
1E0
330
1DE
100
AcDbEntity
  8
0
100
AcDbBlockEnd
  0
BLOCK
  5
1F3
330
1F2
100
AcDbEntity
  8
0
100
AcDbBlockBegin
  2
_D_2
 70
     0
 10
0.0
 20
0.0
 30
0.0
  3
_D_2
  1
_D_2
  0
LINE
  5
1F5
330
1F2
100
AcDbEntity
  8
치수문자_일반주서
 62
     0
370
    -2
100
AcDbLine
 10
56.45
 20
8.285756093301098
 30
0.0
 11
56.45
 21
33.38897607849717
 31
0.0
  0
LINE
  5
1F6
330
1F2
100
AcDbEntity
  8
치수문자_일반주서
 62
     0
370
    -2
100
AcDbLine
 10
12.0
 20
12.76243164972064
 30
0.0
 11
12.0
 21
33.38897607849717
 31
0.0
  0
LINE
  5
1F7
330
1F2
100
AcDbEntity
  8
치수문자_일반주서
 62
     0
370
    -2
100
AcDbLine
 10
53.148
 20
33.38897607849717
 30
0.0
 11
15.302
 21
33.38897607849717
 31
0.0
  0
SOLID
  5
1F8
330
1F2
100
AcDbEntity
  8
치수문자_일반주서
 62
     0
100
AcDbTrace
 10
53.148
 20
32.83864274516384
 30
0.0
 11
53.148
 21
33.93930941183051
 31
0.0
 12
56.45
 22
33.38897607849717
 32
0.0
 13
56.45
 23
33.38897607849717
 33
0.0
  0
SOLID
  5
1F9
330
1F2
100
AcDbEntity
  8
치수문자_일반주서
 62
     0
100
AcDbTrace
 10
15.302
 20
33.93930941183051
 30
0.0
 11
15.302
 21
32.83864274516384
 31
0.0
 12
12.0
 22
33.38897607849717
 32
0.0
 13
12.0
 23
33.38897607849717
 33
0.0
  0
MTEXT
  5
1FA
330
1F2
100
AcDbEntity
  8
치수문자_일반주서
 62
     0
100
AcDbMText
 10
34.22499999999999
 20
37.76397607849717
 30
0.0
 40
3.5
 41
0.0
 71
     2
 72
     1
  1
\A1;44.45 [1 3/4]
  7
SLDTEXTSTYLE0
 73
     1
 44
1.0
  0
POINT
  5
1FB
330
1F2
100
AcDbEntity
  8
Defpoints
 62
     0
100
AcDbPoint
 10
56.45
 20
8.223256093301098
 30
0.0
  0
POINT
  5
1FC
330
1F2
100
AcDbEntity
  8
Defpoints
 62
     0
100
AcDbPoint
 10
12.0
 20
12.69993164972064
 30
0.0
  0
POINT
  5
1FD
330
1F2
100
AcDbEntity
  8
Defpoints
 62
     0
100
AcDbPoint
 10
12.0
 20
33.38897607849717
 30
0.0
  0
ENDBLK
  5
1F4
330
1F2
100
AcDbEntity
  8
0
100
AcDbBlockEnd
  0
BLOCK
  5
208
330
207
100
AcDbEntity
  8
0
100
AcDbBlockBegin
  2
_D_3
 70
     0
 10
0.0
 20
0.0
 30
0.0
  3
_D_3
  1
_D_3
  0
LINE
  5
20A
330
207
100
AcDbEntity
  8
치수문자_일반주서
 62
     0
370
    -2
100
AcDbLine
 10
56.45
 20
9.73515481427537
 30
0.0
 11
56.45
 21
44.54660986556378
 31
0.0
  0
LINE
  5
20B
330
207
100
AcDbEntity
  8
치수문자_일반주서
 62
     0
370
    -2
100
AcDbLine
 10
-45.15
 20
10.09577933481864
 30
0.0
 11
-45.15
 21
44.54660986556378
 31
0.0
  0
LINE
  5
20C
330
207
100
AcDbEntity
  8
치수문자_일반주서
 62
     0
370
    -2
100
AcDbLine
 10
53.148
 20
44.54660986556378
 30
0.0
 11
-41.848
 21
44.54660986556378
 31
0.0
  0
SOLID
  5
20D
330
207
100
AcDbEntity
  8
치수문자_일반주서
 62
     0
100
AcDbTrace
 10
53.148
 20
43.99627653223045
 30
0.0
 11
53.148
 21
45.09694319889712
 31
0.0
 12
56.45
 22
44.54660986556378
 32
0.0
 13
56.45
 23
44.54660986556378
 33
0.0
  0
SOLID
  5
20E
330
207
100
AcDbEntity
  8
치수문자_일반주서
 62
     0
100
AcDbTrace
 10
-41.848
 20
45.09694319889712
 30
0.0
 11
-41.848
 21
43.99627653223045
 31
0.0
 12
-45.15
 22
44.54660986556378
 32
0.0
 13
-45.15
 23
44.54660986556378
 33
0.0
  0
MTEXT
  5
20F
330
207
100
AcDbEntity
  8
치수문자_일반주서
 62
     0
100
AcDbMText
 10
5.649999999999999
 20
48.92160986556378
 30
0.0
 40
3.5
 41
0.0
 71
     2
 72
     1
  1
\A1;101.60 [4]
  7
SLDTEXTSTYLE0
 73
     1
 44
1.0
  0
POINT
  5
210
330
207
100
AcDbEntity
  8
Defpoints
 62
     0
100
AcDbPoint
 10
56.45
 20
9.67265481427537
 30
0.0
  0
POINT
  5
211
330
207
100
AcDbEntity
  8
Defpoints
 62
     0
100
AcDbPoint
 10
-45.15
 20
10.03327933481864
 30
0.0
  0
POINT
  5
212
330
207
100
AcDbEntity
  8
Defpoints
 62
     0
100
AcDbPoint
 10
-45.15
 20
44.54660986556378
 30
0.0
  0
ENDBLK
  5
209
330
207
100
AcDbEntity
  8
0
100
AcDbBlockEnd
  0
BLOCK
  5
221
330
220
100
AcDbEntity
  8
0
100
AcDbBlockBegin
  2
SW_DOWELSYMBOL_0
 70
     0
 10
0.0
 20
0.0
 30
0.0
  3
SW_DOWELSYMBOL_0
  1
SW_DOWELSYMBOL_0
  0
CIRCLE
  5
223
330
220
100
AcDbEntity
  8
해칭선
 62
     0
100
AcDbCircle
 10
0.0
 20
0.0
 30
0.0
 40
3.000000000000004
  0
HATCH
  5
224
330
220
100
AcDbEntity
  8
0
  6
Continuous
 62
     0
370
     0
100
AcDbHatch
 10
0.0
 20
0.0
 30
0.0
210
0.0
220
0.0
230
1.0
  2
SOLID
 70
     1
 71
     0
 91
        1
 92
        0
 93
        3
 72
     2
 10
0.0000000000000104
 20
-0.0000000000000035
 40
3.000000000000004
 50
0.0
 51
90.0
 73
     1
 72
     1
 10
0.0000000000000104
 20
3.000000000000001
 11
0.0000000000000104
 21
-0.0000000000000036
 72
     1
 10
0.0000000000000104
 20
-0.0000000000000035
 11
3.000000000000015
 21
-0.0000000000000035
 97
        0
 75
     0
 76
     1
 98
        1
 10
0.0
 20
0.0
  0
HATCH
  5
225
330
220
100
AcDbEntity
  8
0
  6
Continuous
 62
     0
370
     0
100
AcDbHatch
 10
0.0
 20
0.0
 30
0.0
210
0.0
220
0.0
230
1.0
  2
SOLID
 70
     1
 71
     0
 91
        1
 92
        0
 93
        3
 72
     2
 10
0.0000000000000104
 20
-0.0000000000000035
 40
3.000000000000004
 50
180.0
 51
270.0000000000007
 73
     1
 72
     1
 10
0.0000000000000104
 20
-3.000000000000008
 11
0.0000000000000104
 21
-0.0000000000000036
 72
     1
 10
0.0000000000000104
 20
-0.0000000000000035
 11
-2.999999999999994
 21
-0.0000000000000035
 97
        0
 75
     0
 76
     1
 98
        1
 10
0.0
 20
0.0
  0
ENDBLK
  5
222
330
220
100
AcDbEntity
  8
0
100
AcDbBlockEnd
  0
ENDSEC
  0
SECTION
  2
ENTITIES
  0
LINE
  5
96
330
1F
100
AcDbEntity
  8
외형선
  6
Continuous
370
    15
100
AcDbLine
 10
12.0
 20
12.6999316497206
 30
0.0
 11
-42.48334768509804
 21
12.69993164972059
 31
0.0
  0
LINE
  5
97
330
1F
100
AcDbEntity
  8
외형선
  6
Continuous
370
    15
100
AcDbLine
 10
-42.48334768509802
 20
-12.69993164972062
 30
0.0
 11
12.00000000000001
 21
-12.69993164972061
 31
0.0
  0
LINE
  5
98
330
1F
100
AcDbEntity
  8
외형선
  6
Continuous
370
    15
100
AcDbLine
 10
-42.48334768509803
 20
12.6999316497206
 30
0.0
 11
-45.15
 21
10.03327933481864
 31
0.0
  0
LINE
  5
99
330
1F
100
AcDbEntity
  8
외형선
  6
Continuous
370
    15
100
AcDbLine
 10
-45.15
 20
-10.03327933481864
 30
0.0
 11
-42.48334768509803
 21
-12.69993164972061
 31
0.0
  0
SPLINE
  5
9A
330
1F
100
AcDbEntity
  8
외형선
  6
Continuous
 62
     1
370
    15
100
AcDbSpline
210
0.0
220
0.0
230
1.0
 70
     8
 71
     3
 72
     9
 73
     5
 74
     0
 42
0.000000001
 43
0.00000001
 40
0.0
 40
0.0
 40
0.0
 40
0.0
 40
0.2525306192613339
 40
0.9999999999999999
 40
0.9999999999999999
 40
0.9999999999999999
 40
0.9999999999999999
 10
16.81597271278936
 20
-12.33882453178664
 30
0.0
 10
16.85723192847142
 20
-12.34789936935565
 30
0.0
 10
17.0206149503116
 20
-12.38383496241582
 30
0.0
 10
17.13982974303449
 20
-12.47298471170644
 30
0.0
 10
17.22893915032597
 20
-12.53962141960172
 30
0.0
  0
LINE
  5
9B
330
1F
100
AcDbEntity
  8
외형선
  6
Continuous
 62
     1
370
    15
100
AcDbLine
 10
17.72233567619415
 20
-12.69993164972062
 30
0.0
 11
20.54979714736945
 21
-12.69993164972062
 31
0.0
  0
SPLINE
  5
9C
330
1F
100
AcDbEntity
  8
외형선
  6
Continuous
 62
     1
370
    15
100
AcDbSpline
210
0.0
220
0.0
230
1.0
 70
     8
 71
     3
 72
     9
 73
     5
 74
     0
 42
0.000000001
 43
0.00000001
 40
0.0
 40
0.0
 40
0.0
 40
0.0
 40
0.4985632956629031
 40
1.0
 40
1.0
 40
1.0
 40
1.0
 10
17.22893981512227
 20
-12.53962194058793
 30
0.0
 10
17.29938413008442
 20
-12.58586265817014
 30
0.0
 10
17.44067875721588
 20
-12.67861059606381
 30
0.0
 10
17.60443323608079
 20
-12.69281103061774
 30
0.0
 10
17.68654574228325
 20
-12.69993164972062
 30
0.0
  0
SPLINE
  5
A0
330
1F
100
AcDbEntity
  8
외형선
  6
Continuous
 62
     1
370
    15
100
AcDbSpline
210
0.0
220
0.0
230
1.0
 70
     8
 71
     3
 72
     9
 73
     5
 74
     0
 42
0.000000001
 43
0.00000001
 40
0.0
 40
0.0
 40
0.0
 40
0.0
 40
0.5016424317447656
 40
1.0
 40
1.0
 40
1.0
 40
1.0
 10
20.55379172923037
 20
-12.69982869453222
 30
0.0
 10
20.63289119582961
 20
-12.69291860682223
 30
0.0
 10
20.79057216855779
 20
-12.67914368015592
 30
0.0
 10
20.92576206360939
 20
-12.59248249424201
 30
0.0
 10
20.99313497095996
 20
-12.54929423636784
 30
0.0
  0
SPLINE
  5
A1
330
1F
100
AcDbEntity
  8
외형선
  6
Continuous
 62
     1
370
    15
100
AcDbSpline
210
0.0
220
0.0
230
1.0
 70
     8
 71
     3
 72
    11
 73
     7
 74
     0
 42
0.000000001
 43
0.00000001
 40
0.0
 40
0.0
 40
0.0
 40
0.0
 40
0.2445955317804439
 40
0.4999465975032778
 40
0.7553203505911168
 40
1.0
 40
1.0
 40
1.0
 40
1.0
 10
20.9759813731936
 20
-12.55600968639682
 30
0.0
 10
21.09236538956416
 20
-12.47876613280263
 30
0.0
 10
21.33025114554955
 20
-12.32088241547807
 30
0.0
 10
21.77190711240918
 20
-12.24823291830769
 30
0.0
 10
22.21355193586647
 20
-12.31501902888371
 30
0.0
 10
22.45129382858345
 20
-12.46849530166127
 30
0.0
 10
22.56762261000832
 20
-12.54359232215609
 30
0.0
  0
SPLINE
  5
A3
330
1F
100
AcDbEntity
  8
외형선
  6
Continuous
 62
     1
370
    15
100
AcDbSpline
210
0.0
220
0.0
230
1.0
 70
     8
 71
     3
 72
     9
 73
     5
 74
     0
 42
0.000000001
 43
0.00000001
 40
0.0
 40
0.0
 40
0.0
 40
0.0
 40
0.4985632191734577
 40
1.0
 40
1.0
 40
1.0
 40
1.0
 10
22.56231572020618
 20
-12.53967775416369
 30
0.0
 10
22.63275017756416
 20
-12.5859034795907
 30
0.0
 10
22.77402505434858
 20
-12.67862136099327
 30
0.0
 10
22.9377601033352
 20
-12.69281462416583
 30
0.0
 10
23.01986287920752
 20
-12.69993164836051
 30
0.0
  0
LINE
  5
A4
330
1F
100
AcDbEntity
  8
외형선
  6
Continuous
 62
     1
370
    15
100
AcDbLine
 10
23.01970632836506
 20
-12.69993164972062
 30
0.0
 11
25.88326361924006
 21
-12.69993164972062
 31
0.0
  0
SPLINE
  5
A6
330
1F
100
AcDbEntity
  8
외형선
  6
Continuous
 62
     1
370
    15
100
AcDbSpline
210
0.0
220
0.0
230
1.0
 70
     8
 71
     3
 72
     9
 73
     5
 74
     0
 42
0.000000001
 43
0.00000001
 40
0.0
 40
0.0
 40
0.0
 40
0.0
 40
0.5021242565836328
 40
1.0
 40
1.0
 40
1.0
 40
1.0
 10
25.88365544183802
 20
-12.69993164971229
 30
0.0
 10
25.96561608329993
 20
-12.6928614967998
 30
0.0
 10
26.12884389073466
 20
-12.67878101209947
 30
0.0
 10
26.26998240616484
 20
-12.58622706773761
 30
0.0
 10
26.34025184945931
 20
-12.54014670388233
 30
0.0
  0
SPLINE
  5
A7
330
1F
100
AcDbEntity
  8
외형선
  6
Continuous
 62
     1
370
    15
100
AcDbSpline
210
0.0
220
0.0
230
1.0
 70
     8
 71
     3
 72
    11
 73
     7
 74
     0
 42
0.000000001
 43
0.00000001
 40
0.0
 40
0.0
 40
0.0
 40
0.0
 40
0.2165312519261956
 40
0.4577969990583248
 40
0.7219531014986543
 40
1.0
 40
1.0
 40
1.0
 40
1.0
 10
26.34760099648241
 20
-12.53390826074438
 30
0.0
 10
26.43382655995224
 20
-12.47628216668921
 30
0.0
 10
26.6161272848936
 20
-12.35444731517826
 30
0.0
 10
27.01442348883359
 20
-12.25382987720587
 30
0.0
 10
27.48653867012699
 20
-12.28792729363978
 30
0.0
 10
27.75668504955757
 20
-12.45413117313073
 30
0.0
 10
27.89521870357937
 20
-12.53936211639569
 30
0.0
  0
SPLINE
  5
A8
330
1F
100
AcDbEntity
  8
외형선
  6
Continuous
 62
     1
370
    15
100
AcDbSpline
210
0.0
220
0.0
230
1.0
 70
     8
 71
     3
 72
     9
 73
     5
 74
     0
 42
0.000000001
 43
0.00000001
 40
0.0
 40
0.0
 40
0.0
 40
0.0
 40
0.4985634289951677
 40
1.0
 40
1.0
 40
1.0
 40
1.0
 10
27.89556469894864
 20
-12.53963418279507
 30
0.0
 10
27.96601185481022
 20
-12.58587457205977
 30
0.0
 10
28.10731214232541
 20
-12.67862182662252
 30
0.0
 10
28.27107225106209
 20
-12.69281477642352
 30
0.0
 10
28.35318755845437
 20
-12.69993164050418
 30
0.0
  0
LINE
  5
A9
330
1F
100
AcDbEntity
  8
외형선
  6
Continuous
 62
     1
370
    15
100
AcDbLine
 10
28.35315348761463
 20
-12.69993164972062
 30
0.0
 11
31.21626072306844
 21
-12.69993164972062
 31
0.0
  0
SPLINE
  5
AA
330
1F
100
AcDbEntity
  8
외형선
  6
Continuous
 62
     1
370
    15
100
AcDbSpline
210
0.0
220
0.0
230
1.0
 70
     8
 71
     3
 72
     9
 73
     5
 74
     0
 42
0.000000001
 43
0.00000001
 40
0.0
 40
0.0
 40
0.0
 40
0.0
 40
0.5021235492446573
 40
1.0
 40
1.0
 40
1.0
 40
1.0
 10
31.21697628014854
 20
-12.69993164770371
 30
0.0
 10
31.29893111958104
 20
-12.69286048754283
 30
0.0
 10
31.46214760197024
 20
-12.67877797703018
 30
0.0
 10
31.60327423124624
 20
-12.58623584613584
 30
0.0
 10
31.67353785653725
 20
-12.54016129846083
 30
0.0
  0
SPLINE
  5
AB
330
1F
100
AcDbEntity
  8
외형선
  6
Continuous
 62
     1
370
    15
100
AcDbSpline
210
0.0
220
0.0
230
1.0
 70
     8
 71
     3
 72
    11
 73
     7
 74
     0
 42
0.000000001
 43
0.00000001
 40
0.0
 40
0.0
 40
0.0
 40
0.0
 40
0.2075981081028182
 40
0.4465939248728411
 40
0.7134321827231339
 40
1.0
 40
1.0
 40
1.0
 40
1.0
 10
31.67935060024875
 20
-12.53530807382629
 30
0.0
 10
31.7701010220799
 20
-12.47527004825838
 30
0.0
 10
31.96532720906121
 20
-12.34611368105916
 30
0.0
 10
32.36556247933099
 20
-12.25286732691877
 30
0.0
 10
32.83222743370742
 20
-12.29374203187957
 30
0.0
 10
33.08935919945591
 20
-12.45223701066036
 30
0.0
 10
33.22250860307636
 20
-12.53430976367111
 30
0.0
  0
SPLINE
  5
AC
330
1F
100
AcDbEntity
  8
외형선
  6
Continuous
 62
     1
370
    15
100
AcDbSpline
210
0.0
220
0.0
230
1.0
 70
     8
 71
     3
 72
     9
 73
     5
 74
     0
 42
0.000000001
 43
0.00000001
 40
0.0
 40
0.0
 40
0.0
 40
0.0
 40
0.4985635771069233
 40
0.9999999999999999
 40
0.9999999999999999
 40
0.9999999999999999
 40
0.9999999999999999
 10
33.22884785013794
 20
-12.5396173523702
 30
0.0
 10
33.29930210210633
 20
-12.58586470580407
 30
0.0
 10
33.44061658074757
 20
-12.67862590128136
 30
0.0
 10
33.60439070189954
 20
-12.69281612827837
 30
0.0
 10
33.68651301137241
 20
-12.6999316249438
 30
0.0
  0
LINE
  5
AD
330
1F
100
AcDbEntity
  8
외형선
  6
Continuous
 62
     1
370
    15
100
AcDbLine
 10
33.68629744883502
 20
-12.69993164972062
 30
0.0
 11
36.55011135953612
 21
-12.69993164972062
 31
0.0
  0
SPLINE
  5
AE
330
1F
100
AcDbEntity
  8
외형선
  6
Continuous
 62
     1
370
    15
100
AcDbSpline
210
0.0
220
0.0
230
1.0
 70
     8
 71
     3
 72
     9
 73
     5
 74
     0
 42
0.000000001
 43
0.00000001
 40
0.0
 40
0.0
 40
0.0
 40
0.0
 40
0.5022015739434694
 40
0.9999999999999999
 40
0.9999999999999999
 40
0.9999999999999999
 40
0.9999999999999999
 10
36.54578845429029
 20
-12.69975746877108
 30
0.0
 10
36.62849312665777
 20
-12.69318191242704
 30
0.0
 10
36.793177342436
 20
-12.6800884521808
 30
0.0
 10
36.93583436901078
 20
-12.58666325674763
 30
0.0
 10
37.00684881230566
 20
-12.54015634150696
 30
0.0
  0
SPLINE
  5
AF
330
1F
100
AcDbEntity
  8
외형선
  6
Continuous
 62
     1
370
    15
100
AcDbSpline
210
0.0
220
0.0
230
1.0
 70
     8
 71
     3
 72
    11
 73
     7
 74
     0
 42
0.000000001
 43
0.00000001
 40
0.0
 40
0.0
 40
0.0
 40
0.0
 40
0.2442022635850489
 40
0.4999584286430276
 40
0.7557314892065103
 40
0.9999999999999999
 40
0.9999999999999999
 40
0.9999999999999999
 40
0.9999999999999999
 10
37.01394539336259
 20
-12.53414971830065
 30
0.0
 10
37.13118512111011
 20
-12.45946319287043
 30
0.0
 10
37.37121152053287
 20
-12.30655651073439
 30
0.0
 10
37.81426453600999
 20
-12.24250432058497
 30
0.0
 10
38.25730638431089
 20
-12.31760448328171
 30
0.0
 10
38.49719791467358
 20
-12.4786895497455
 30
0.0
 10
38.61438406524628
 20
-12.55737902588125
 30
0.0
  0
SPLINE
  5
B1
330
1F
100
AcDbEntity
  8
외형선
  6
Continuous
 62
     1
370
    15
100
AcDbSpline
210
0.0
220
0.0
230
1.0
 70
     8
 71
     3
 72
     9
 73
     5
 74
     0
 42
0.000000001
 43
0.00000001
 40
0.0
 40
0.0
 40
0.0
 40
0.0
 40
0.4988356904373358
 40
1.0
 40
1.0
 40
1.0
 40
1.0
 10
38.597345544924
 20
-12.55670242543291
 30
0.0
 10
38.66357159951924
 20
-12.59817686729429
 30
0.0
 10
38.79633285911805
 20
-12.68131935821154
 30
0.0
 10
38.95193926801897
 20
-12.6931190375842
 30
0.0
 10
39.02992364649934
 20
-12.69903261575006
 30
0.0
  0
LINE
  5
B2
330
1F
100
AcDbEntity
  8
외형선
  6
Continuous
 62
     1
370
    15
100
AcDbLine
 10
39.0195861857969
 20
-12.69993164972062
 30
0.0
 11
40.36812597245936
 21
-12.69993164972062
 31
0.0
  0
LINE
  5
BA
330
1F
100
AcDbEntity
  8
외형선
  6
Continuous
370
    15
100
AcDbLine
 10
-42.48334768509803
 20
12.69993164972061
 30
0.0
 11
-42.48334768509803
 21
-12.69993164972059
 31
0.0
  0
LINE
  5
BC
330
1F
100
AcDbEntity
  8
외형선
  6
Continuous
370
    15
100
AcDbLine
 10
-45.15
 20
10.03327933481864
 30
0.0
 11
-45.15
 21
-10.03327933481864
 31
0.0
  0
SPLINE
  5
BE
330
1F
100
AcDbEntity
  8
외형선
  6
Continuous
 62
     1
370
    15
100
AcDbSpline
210
0.0
220
0.0
230
1.0
 70
     8
 71
     3
 72
     8
 73
     4
 74
     0
 42
0.000000001
 43
0.00000001
 40
0.0
 40
0.0
 40
0.0
 40
0.0
 40
1.0
 40
1.0
 40
1.0
 40
1.0
 10
52.01867436850687
 20
-5.583956871769336
 30
0.0
 10
51.89728605976128
 20
-5.57443819524357
 30
0.0
 10
51.74863370534073
 20
-5.542102509038209
 30
0.0
 10
51.59581153575929
 20
-5.491988278432917
 30
0.0
  0
SPLINE
  5
C0
330
1F
100
AcDbEntity
  8
외형선
  6
Continuous
 62
     1
370
    15
100
AcDbSpline
210
0.0
220
0.0
230
1.0
 70
     8
 71
     3
 72
     8
 73
     4
 74
     0
 42
0.000000001
 43
0.00000001
 40
0.0
 40
0.0
 40
0.0
 40
0.0
 40
1.0
 40
1.0
 40
1.0
 40
1.0
 10
51.03177560624051
 20
2.745285724785845
 30
0.0
 10
51.18022752247933
 20
2.692530024047242
 30
0.0
 10
51.32945015548682
 20
2.634819212367656
 30
0.0
 10
51.45220212319955
 20
2.584999761006744
 30
0.0
  0
SPLINE
  5
C2
330
1F
100
AcDbEntity
  8
외형선
  6
Continuous
 62
     1
370
    15
100
AcDbSpline
210
0.0
220
0.0
230
1.0
 70
     8
 71
     3
 72
     8
 73
     4
 74
     0
 42
0.000000001
 43
0.00000001
 40
0.0
 40
0.0
 40
0.0
 40
0.0
 40
1.0
 40
1.0
 40
1.0
 40
1.0
 10
53.13866963438922
 20
1.989034709781712
 30
0.0
 10
53.24849309737203
 20
1.951838005949927
 30
0.0
 10
53.38075834634186
 20
1.905716699891471
 30
0.0
 10
53.5180312952924
 20
1.856553023293073
 30
0.0
  0
SPLINE
  5
C5
330
1F
100
AcDbEntity
  8
외형선
  6
Continuous
 62
     1
370
    15
100
AcDbSpline
210
0.0
220
0.0
230
1.0
 70
     8
 71
     3
 72
     8
 73
     4
 74
     0
 42
0.000000001
 43
0.00000001
 40
0.0
 40
0.0
 40
0.0
 40
0.0
 40
1.0
 40
1.0
 40
1.0
 40
1.0
 10
48.66128084103092
 20
-4.509374855563544
 30
0.0
 10
48.51279580666399
 20
-4.458805078493823
 30
0.0
 10
48.36353083986568
 20
-4.396403253483058
 30
0.0
 10
48.24073166061316
 20
-4.334579707516142
 30
0.0
  0
SPLINE
  5
C7
330
1F
100
AcDbEntity
  8
외형선
  6
Continuous
 62
     1
370
    15
100
AcDbSpline
210
0.0
220
0.0
230
1.0
 70
     8
 71
     3
 72
     8
 73
     4
 74
     0
 42
0.000000001
 43
0.00000001
 40
0.0
 40
0.0
 40
0.0
 40
0.0
 40
1.0
 40
1.0
 40
1.0
 40
1.0
 10
47.67344719392828
 20
3.899432153411239
 30
0.0
 10
47.79496655329825
 20
3.874362536632603
 30
0.0
 10
47.94373021663608
 20
3.831994406146322
 30
0.0
 10
48.09665706862474
 20
3.778859455296734
 30
0.0
  0
SPLINE
  5
C9
330
1F
100
AcDbEntity
  8
외형선
  6
Continuous
 62
     1
370
    15
100
AcDbSpline
210
0.0
220
0.0
230
1.0
 70
     8
 71
     3
 72
    10
 73
     6
 74
     0
 42
0.000000001
 43
0.00000001
 40
0.0
 40
0.0
 40
0.0
 40
0.0
 40
0.5
 40
0.5
 40
1.0
 40
1.0
 40
1.0
 40
1.0
 10
53.67859514275398
 20
-6.104562702058806
 30
0.0
 10
53.43027168196067
 20
-5.960436989378175
 30
0.0
 10
53.13133753679977
 20
-5.840635058952474
 30
0.0
 10
52.53739161800063
 20
-5.660504689351074
 30
0.0
 10
52.25397180004489
 20
-5.602407743696761
 30
0.0
 10
52.0186743685069
 20
-5.583956871769337
 30
0.0
  0
SPLINE
  5
CA
330
1F
100
AcDbEntity
  8
외형선
  6
Continuous
 62
     1
370
    15
100
AcDbSpline
210
0.0
220
0.0
230
1.0
 70
     8
 71
     3
 72
    10
 73
     6
 74
     0
 42
0.000000001
 43
0.00000001
 40
0.0
 40
0.0
 40
0.0
 40
0.0
 40
0.5
 40
0.5
 40
1.0
 40
1.0
 40
1.0
 40
1.0
 10
51.45220212319766
 20
2.584999761006745
 30
0.0
 10
51.70169811367976
 20
2.483740664356979
 30
0.0
 10
52.00480104427547
 20
2.37815167661364
 30
0.0
 10
52.6092335975894
 20
2.169658187447649
 30
0.0
 10
52.89915797885221
 20
2.070156210354046
 30
0.0
 10
53.13866963438856
 20
1.98903470978146
 30
0.0
  0
SPLINE
  5
CC
330
1F
100
AcDbEntity
  8
외형선
  6
Continuous
 62
     1
370
    15
100
AcDbSpline
210
0.0
220
0.0
230
1.0
 70
     8
 71
     3
 72
     8
 73
     4
 74
     0
 42
0.000000001
 43
0.00000001
 40
0.0
 40
0.0
 40
0.0
 40
0.0
 40
0.9756232341503304
 40
0.9756232341503304
 40
0.9756232341503304
 40
0.9756232341503304
 10
53.5173568713406
 20
1.856809959132413
 30
0.0
 10
54.46847559633898
 20
1.494417953911613
 30
0.0
 10
55.42108698831751
 20
1.308835280317908
 30
0.0
 10
56.37824522921454
 20
1.348114469139331
 30
0.0
  0
SPLINE
  5
CE
330
1F
100
AcDbEntity
  8
외형선
  6
Continuous
 62
     1
370
    15
100
AcDbSpline
210
0.0
220
0.0
230
1.0
 70
     8
 71
     3
 72
     8
 73
     4
 74
     0
 42
0.000000001
 43
0.00000001
 40
0.5614439094920822
 40
0.5614439094920822
 40
0.5614439094920822
 40
0.5614439094920822
 40
1.0
 40
1.0
 40
1.0
 40
1.0
 10
54.91607564772669
 20
-6.050499561269954
 30
0.0
 10
54.50839021089359
 20
-6.065560202254212
 30
0.0
 10
54.09516492894742
 20
-6.08353941578691
 30
0.0
 10
53.67859514275398
 20
-6.104562702058798
 30
0.0
  0
SPLINE
  5
CF
330
1F
100
AcDbEntity
  8
외형선
  6
Continuous
 62
     1
370
    15
100
AcDbSpline
210
0.0
220
0.0
230
1.0
 70
     8
 71
     3
 72
     8
 73
     4
 74
     0
 42
0.000000001
 43
0.00000001
 40
0.0
 40
0.0
 40
0.0
 40
0.0
 40
1.0
 40
1.0
 40
1.0
 40
1.0
 10
46.55319741501877
 20
-3.760245765225511
 30
0.0
 10
46.4316777585022
 20
-3.733987564746549
 30
0.0
 10
46.28290591226387
 20
-3.690911503941013
 30
0.0
 10
46.12996470331124
 20
-3.637663419411641
 30
0.0
  0
SPLINE
  5
D1
330
1F
100
AcDbEntity
  8
외형선
  6
Continuous
 62
     1
370
    15
100
AcDbSpline
210
0.0
220
0.0
230
1.0
 70
     8
 71
     3
 72
     8
 73
     4
 74
     0
 42
0.000000001
 43
0.00000001
 40
0.0
 40
0.0
 40
0.0
 40
0.0
 40
1.0
 40
1.0
 40
1.0
 40
1.0
 10
45.5650539945237
 20
4.646801862849796
 30
0.0
 10
45.71358376273963
 20
4.596563313417368
 30
0.0
 10
45.86288381461002
 20
4.53393661163466
 30
0.0
 10
45.98570433848641
 20
4.471272829445589
 30
0.0
  0
SPLINE
  5
D3
330
1F
100
AcDbEntity
  8
외형선
  6
Continuous
 62
     1
370
    15
100
AcDbSpline
210
0.0
220
0.0
230
1.0
 70
     8
 71
     3
 72
     8
 73
     4
 74
     0
 42
0.000000001
 43
0.00000001
 40
0.0
 40
0.0
 40
0.0
 40
0.0
 40
1.0
 40
1.0
 40
1.0
 40
1.0
 10
43.19378973259126
 20
-2.602488210426983
 30
0.0
 10
43.04524328625771
 20
-2.549461022147828
 30
0.0
 10
42.89592596604026
 20
-2.491976846577141
 30
0.0
 10
42.77306546747958
 20
-2.442954922148064
 30
0.0
  0
SPLINE
  5
D4
330
1F
100
AcDbEntity
  8
외형선
  6
Continuous
 62
     1
370
    15
100
AcDbSpline
210
0.0
220
0.0
230
1.0
 70
     8
 71
     3
 72
    10
 73
     6
 74
     0
 42
0.000000001
 43
0.00000001
 40
0.0
 40
0.0
 40
0.0
 40
0.0
 40
0.5
 40
0.5
 40
1.0
 40
1.0
 40
1.0
 40
1.0
 10
42.77306546746811
 20
-2.442954921937926
 30
0.0
 10
42.67624057938549
 20
-1.060553621766999
 30
0.0
 10
42.57902072370855
 20
0.369778986484651
 30
0.0
 10
42.39918375057739
 20
3.094038556490505
 30
0.0
 10
42.30213394808764
 20
4.459495964617854
 30
0.0
 10
42.20530144462213
 20
5.714480676837249
 30
0.0
  0
SPLINE
  5
D5
330
1F
100
AcDbEntity
  8
외형선
  6
Continuous
 62
     1
370
    15
100
AcDbSpline
210
0.0
220
0.0
230
1.0
 70
     8
 71
     3
 72
     8
 73
     4
 74
     0
 42
0.000000001
 43
0.00000001
 40
0.0
 40
0.0
 40
0.0
 40
0.0
 40
1.0
 40
1.0
 40
1.0
 40
1.0
 10
42.20530144460658
 20
5.714480677053
 30
0.0
 10
42.32688347761091
 20
5.706044371673184
 30
0.0
 10
42.47569840331974
 20
5.67432116368486
 30
0.0
 10
42.62866606889676
 20
5.624258367210382
 30
0.0
  0
SPLINE
  5
D6
330
1F
100
AcDbEntity
  8
외형선
  6
Continuous
 62
     1
370
    15
100
AcDbSpline
210
0.0
220
0.0
230
1.0
 70
     8
 71
     3
 72
    10
 73
     6
 74
     0
 42
0.000000001
 43
0.00000001
 40
0.0
 40
0.0
 40
0.0
 40
0.0
 40
0.5
 40
0.5
 40
1.0
 40
1.0
 40
1.0
 40
1.0
 10
43.19378945484938
 20
-2.602484207600236
 30
0.0
 10
43.09744461206394
 20
-1.2139686999664
 30
0.0
 10
43.00043915440525
 20
0.2264492865555675
 30
0.0
 10
42.82041540690057
 20
2.978428146758917
 30
0.0
 10
42.7250823975595
 20
4.352020825781328
 30
0.0
 10
42.62866595528058
 20
5.624259866421762
 30
0.0
  0
SPLINE
  5
D7
330
1F
100
AcDbEntity
  8
외형선
  6
Continuous
 62
     1
370
    15
100
AcDbSpline
210
0.0
220
0.0
230
1.0
 70
     8
 71
     3
 72
    10
 73
     6
 74
     0
 42
0.000000001
 43
0.00000001
 40
0.0
 40
0.0
 40
0.0
 40
0.0
 40
0.5
 40
0.5
 40
1.0
 40
1.0
 40
1.0
 40
1.0
 10
48.24073166061634
 20
-4.33457970751567
 30
0.0
 10
47.99107448111177
 20
-4.208889192260948
 30
0.0
 10
47.68778888452979
 20
-4.093411485457053
 30
0.0
 10
47.08303032403996
 20
-3.893533816528275
 30
0.0
 10
46.79294210693329
 20
-3.812050258132368
 30
0.0
 10
46.55319741501877
 20
-3.760245765225511
 30
0.0
  0
SPLINE
  5
D8
330
1F
100
AcDbEntity
  8
외형선
  6
Continuous
 62
     1
370
    15
100
AcDbSpline
210
0.0
220
0.0
230
1.0
 70
     8
 71
     3
 72
    10
 73
     6
 74
     0
 42
0.000000001
 43
0.00000001
 40
0.0
 40
0.0
 40
0.0
 40
0.0
 40
0.5
 40
0.5
 40
1.0
 40
1.0
 40
1.0
 40
1.0
 10
45.9857043384844
 20
4.471272829444213
 30
0.0
 10
46.23541923220041
 20
4.343866763948245
 30
0.0
 10
46.53876716094235
 20
4.227807473335392
 30
0.0
 10
47.1436078235572
 20
4.028880143496107
 30
0.0
 10
47.43370437449989
 20
3.948891438249217
 30
0.0
 10
47.67344719392725
 20
3.899432153410976
 30
0.0
  0
SPLINE
  5
D9
330
1F
100
AcDbEntity
  8
외형선
  6
Continuous
 62
     1
370
    15
100
AcDbSpline
210
0.0
220
0.0
230
1.0
 70
     8
 71
     3
 72
     8
 73
     4
 74
     0
 42
0.000000001
 43
0.00000001
 40
0.0
 40
0.0
 40
0.0
 40
0.0
 40
1.0
 40
1.0
 40
1.0
 40
1.0
 10
40.66160711719685
 20
-1.693270151545443
 30
0.0
 10
39.68355854314033
 20
-1.340775279154088
 30
0.0
 10
38.70314546008865
 20
-0.9860016005601857
 30
0.0
 10
37.72555057577853
 20
-0.6308251966041991
 30
0.0
  0
SPLINE
  5
DA
330
1F
100
AcDbEntity
  8
외형선
  6
Continuous
 62
     1
370
    15
100
AcDbSpline
210
0.0
220
0.0
230
1.0
 70
     8
 71
     3
 72
    12
 73
     8
 74
     0
 42
0.000000001
 43
0.00000001
 40
0.0
 40
0.0
 40
0.0
 40
0.0
 40
0.2500000000000001
 40
0.2500000000000001
 40
0.5
 40
0.5
 40
1.0
 40
1.0
 40
1.0
 40
1.0
 10
37.7255527283961
 20
-0.630822593798597
 30
0.0
 10
37.67789553894144
 20
0.0751727142831688
 30
0.0
 10
37.63099898488184
 20
0.780294293997096
 30
0.0
 10
37.54054064746821
 20
2.160462328028833
 30
0.0
 10
37.49523273945665
 20
2.844472174562031
 30
0.0
 10
37.35379471250429
 20
4.874653402707188
 30
0.0
 10
37.25536072284678
 20
6.180345127383695
 30
0.0
 10
37.16080066367181
 20
7.331663663114417
 30
0.0
  0
SPLINE
  5
DB
330
1F
100
AcDbEntity
  8
외형선
  6
Continuous
 62
     1
370
    15
100
AcDbSpline
210
0.0
220
0.0
230
1.0
 70
     8
 71
     3
 72
     8
 73
     4
 74
     0
 42
0.000000001
 43
0.00000001
 40
0.0
 40
0.0
 40
0.0
 40
0.0
 40
1.0
 40
1.0
 40
1.0
 40
1.0
 10
40.09659002153928
 20
6.435286834846393
 30
0.0
 10
39.11763254014421
 20
6.742049192425659
 30
0.0
 10
38.13730914669981
 20
7.041362283706693
 30
0.0
 10
37.1608006408737
 20
7.331663939734126
 30
0.0
  0
SPLINE
  5
DC
330
1F
100
AcDbEntity
  8
외형선
  6
Continuous
 62
     1
370
    15
100
AcDbSpline
210
0.0
220
0.0
230
1.0
 70
     8
 71
     3
 72
    12
 73
     8
 74
     0
 42
0.000000001
 43
0.00000001
 40
0.0
 40
0.0
 40
0.0
 40
0.0
 40
0.25
 40
0.25
 40
0.5
 40
0.5
 40
1.0
 40
1.0
 40
1.0
 40
1.0
 10
40.66160712060066
 20
-1.69326932228416
 30
0.0
 10
40.61346060235967
 20
-0.9904416979792895
 30
0.0
 10
40.56556839589284
 20
-0.2809342399605427
 30
0.0
 10
40.47223919691494
 20
1.121965826358361
 30
0.0
 10
40.4279784696926
 20
1.809487607050768
 30
0.0
 10
40.29035949469752
 20
3.862368214054497
 30
0.0
 10
40.19257103207946
 20
5.213874331095237
 30
0.0
 10
40.09659222789254
 20
6.435292115487061
 30
0.0
  0
SPLINE
  5
DD
330
1F
100
AcDbEntity
  8
외형선
  6
Continuous
 62
     1
370
    15
100
AcDbSpline
210
0.0
220
0.0
230
1.0
 70
     8
 71
     3
 72
     8
 73
     4
 74
     0
 42
0.000000001
 43
0.00000001
 40
0.0
 40
0.0
 40
0.0
 40
0.0
 40
1.0
 40
1.0
 40
1.0
 40
1.0
 10
51.5957973074617
 20
-5.491983612613918
 30
0.0
 10
50.61459745000884
 20
-5.170223448559609
 30
0.0
 10
49.63997612683966
 20
-4.842690617878077
 30
0.0
 10
48.66128084086544
 20
-4.509374855506503
 30
0.0
  0
SPLINE
  5
DE
330
1F
100
AcDbEntity
  8
외형선
  6
Continuous
 62
     1
370
    15
100
AcDbSpline
210
0.0
220
0.0
230
1.0
 70
     8
 71
     3
 72
     8
 73
     4
 74
     0
 42
0.000000001
 43
0.00000001
 40
0.0
 40
0.0
 40
0.0
 40
0.0
 40
1.0
 40
1.0
 40
1.0
 40
1.0
 10
51.03177560565059
 20
2.745285724995508
 30
0.0
 10
50.0513148258188
 20
3.093714339439177
 30
0.0
 10
49.07728110056257
 20
3.438138327223884
 30
0.0
 10
48.09665667243429
 20
3.778859592953252
 30
0.0
  0
SPLINE
  5
DF
330
1F
100
AcDbEntity
  8
외형선
  6
Continuous
 62
     1
370
    15
100
AcDbSpline
210
0.0
220
0.0
230
1.0
 70
     8
 71
     3
 72
     8
 73
     4
 74
     0
 42
0.000000001
 43
0.00000001
 40
0.0
 40
0.0
 40
0.0
 40
0.0
 40
1.0
 40
1.0
 40
1.0
 40
1.0
 10
46.12995437329071
 20
-3.637659822905481
 30
0.0
 10
45.14942222937447
 20
-3.296277251958166
 30
0.0
 10
44.16897308339429
 20
-2.950603115037765
 30
0.0
 10
43.19378780066783
 20
-2.602487520780219
 30
0.0
  0
SPLINE
  5
E0
330
1F
100
AcDbEntity
  8
외형선
  6
Continuous
 62
     1
370
    15
100
AcDbSpline
210
0.0
220
0.0
230
1.0
 70
     8
 71
     3
 72
     8
 73
     4
 74
     0
 42
0.000000001
 43
0.00000001
 40
0.0
 40
0.0
 40
0.0
 40
0.0
 40
1.0
 40
1.0
 40
1.0
 40
1.0
 10
45.56505393081721
 20
4.646801884397802
 30
0.0
 10
44.58346226661019
 20
4.978814395447086
 30
0.0
 10
43.60388378628344
 20
5.305092054514703
 30
0.0
 10
42.62866568115408
 20
5.624258494107368
 30
0.0
  0
SPLINE
  5
E1
330
1F
100
AcDbEntity
  8
외형선
  6
Continuous
 62
     1
370
    15
100
AcDbSpline
210
0.0
220
0.0
230
1.0
 70
     8
 71
     3
 72
     8
 73
     4
 74
     0
 42
0.000000001
 43
0.00000001
 40
0.0
 40
0.0
 40
0.0
 40
0.0
 40
1.0
 40
1.0
 40
1.0
 40
1.0
 10
35.19418390907676
 20
0.2915498976560766
 30
0.0
 10
34.21918606084208
 20
0.646837225856468
 30
0.0
 10
33.23938454384901
 20
1.002364288303422
 30
0.0
 10
32.25995075070869
 20
1.356247789064822
 30
0.0
  0
SPLINE
  5
E2
330
1F
100
AcDbEntity
  8
외형선
  6
Continuous
 62
     1
370
    15
100
AcDbSpline
210
0.0
220
0.0
230
1.0
 70
     8
 71
     3
 72
    12
 73
     8
 74
     0
 42
0.000000001
 43
0.00000001
 40
0.0
 40
0.0
 40
0.0
 40
0.0
 40
0.2499999999999999
 40
0.2499999999999999
 40
0.4999999999999998
 40
0.4999999999999998
 40
1.0
 40
1.0
 40
1.0
 40
1.0
 10
32.2599516843235
 20
1.356247180203747
 30
0.0
 10
32.21450284713296
 20
2.048541693986423
 30
0.0
 10
32.16950997956796
 20
2.732588989469957
 30
0.0
 10
32.075362416343
 20
4.089618962780269
 30
0.0
 10
32.02720331992257
 20
4.75747221003096
 30
0.0
 10
31.88244308302794
 20
6.685904226270456
 30
0.0
 10
31.78605922591012
 20
7.866047879931439
 30
0.0
 10
31.69633145001983
 20
8.859550969875487
 30
0.0
  0
SPLINE
  5
E3
330
1F
100
AcDbEntity
  8
외형선
  6
Continuous
 62
     1
370
    15
100
AcDbSpline
210
0.0
220
0.0
230
1.0
 70
     8
 71
     3
 72
     8
 73
     4
 74
     0
 42
0.000000001
 43
0.00000001
 40
0.0
 40
0.0
 40
0.0
 40
0.0
 40
1.0
 40
1.0
 40
1.0
 40
1.0
 10
34.62984128393911
 20
8.06508724900033
 30
0.0
 10
33.65408653221105
 20
8.339510745380071
 30
0.0
 10
32.67452682801979
 20
8.604807520664268
 30
0.0
 10
31.69633091318969
 20
8.859552353020527
 30
0.0
  0
SPLINE
  5
E4
330
1F
100
AcDbEntity
  8
외형선
  6
Continuous
 62
     1
370
    15
100
AcDbSpline
210
0.0
220
0.0
230
1.0
 70
     8
 71
     3
 72
    12
 73
     8
 74
     0
 42
0.000000001
 43
0.00000001
 40
0.0
 40
0.0
 40
0.0
 40
0.0
 40
0.2499999999999999
 40
0.2499999999999999
 40
0.4999999999999999
 40
0.4999999999999999
 40
1.0
 40
1.0
 40
1.0
 40
1.0
 10
35.1941861836575
 20
0.2915542812212206
 30
0.0
 10
35.14734705917554
 20
0.9943605335286624
 30
0.0
 10
35.10284669557436
 20
1.684128351337951
 30
0.0
 10
35.01140907766172
 20
3.054428686887483
 30
0.0
 10
34.96414635097634
 20
3.736435140522217
 30
0.0
 10
34.8205189858737
 20
5.729177874614447
 30
0.0
 10
34.72239781352648
 20
6.983327314086779
 30
0.0
 10
34.62984227310718
 20
8.065087082868152
 30
0.0
  0
SPLINE
  5
E5
330
1F
100
AcDbEntity
  8
외형선
  6
Continuous
 62
     1
370
    15
100
AcDbSpline
210
0.0
220
0.0
230
1.0
 70
     8
 71
     3
 72
     8
 73
     4
 74
     0
 42
0.000000001
 43
0.00000001
 40
0.0
 40
0.0
 40
0.0
 40
0.0
 40
1.0
 40
1.0
 40
1.0
 40
1.0
 10
41.08493398470965
 20
-1.843616757266247
 30
0.0
 10
40.96337967785124
 20
-1.801218814763115
 30
0.0
 10
40.81458060142646
 20
-1.74840275970419
 30
0.0
 10
40.6616071789399
 20
-1.693270173798082
 30
0.0
  0
SPLINE
  5
E6
330
1F
100
AcDbEntity
  8
외형선
  6
Continuous
 62
     1
370
    15
100
AcDbSpline
210
0.0
220
0.0
230
1.0
 70
     8
 71
     3
 72
     8
 73
     4
 74
     0
 42
0.000000001
 43
0.00000001
 40
0.0
 40
0.0
 40
0.0
 40
0.0
 40
1.0
 40
1.0
 40
1.0
 40
1.0
 10
40.0965927090194
 20
6.435285992707917
 30
0.0
 10
40.24512884440352
 20
6.38874127745752
 30
0.0
 10
40.39443036944931
 20
6.322677108010315
 30
0.0
 10
40.51725548234046
 20
6.248659326426902
 30
0.0
  0
SPLINE
  5
E7
330
1F
100
AcDbEntity
  8
외형선
  6
Continuous
 62
     1
370
    15
100
AcDbSpline
210
0.0
220
0.0
230
1.0
 70
     8
 71
     3
 72
    12
 73
     8
 74
     0
 42
0.000000001
 43
0.00000001
 40
0.0
 40
0.0
 40
0.0
 40
0.0
 40
0.2500000000000001
 40
0.2500000000000001
 40
0.5000000000000001
 40
0.5000000000000001
 40
1.0
 40
1.0
 40
1.0
 40
1.0
 10
41.08493398466106
 20
-1.843616756566463
 30
0.0
 10
41.03653434360756
 20
-1.146673414145905
 30
0.0
 10
40.98830745976437
 20
-0.4418469719082481
 30
0.0
 10
40.89418806025959
 20
0.9539349027958447
 30
0.0
 10
40.84945882155602
 20
1.6391085907553
 30
0.0
 10
40.71186820438236
 20
3.679765457377692
 30
0.0
 10
40.61378298109495
 20
5.027484259426672
 30
0.0
 10
40.51725602414059
 20
6.248652472054897
 30
0.0
  0
SPLINE
  5
E8
330
1F
100
AcDbEntity
  8
외형선
  6
Continuous
 62
     1
370
    15
100
AcDbSpline
210
0.0
220
0.0
230
1.0
 70
     8
 71
     3
 72
     8
 73
     4
 74
     0
 42
0.000000001
 43
0.00000001
 40
0.0
 40
0.0
 40
0.0
 40
0.0
 40
1.0
 40
1.0
 40
1.0
 40
1.0
 10
37.72555296263065
 20
-0.6308260637878073
 30
0.0
 10
37.57703195152052
 20
-0.5768659222810375
 30
0.0
 10
37.42774749613349
 20
-0.5260089603475258
 30
0.0
 10
37.30493474205317
 20
-0.4912914386396925
 30
0.0
  0
SPLINE
  5
E9
330
1F
100
AcDbEntity
  8
외형선
  6
Continuous
 62
     1
370
    15
100
AcDbSpline
210
0.0
220
0.0
230
1.0
 70
     8
 71
     3
 72
    12
 73
     8
 74
     0
 42
0.000000001
 43
0.00000001
 40
0.0
 40
0.0
 40
0.0
 40
0.0
 40
0.2500000000000001
 40
0.2500000000000001
 40
0.5000000000000001
 40
0.5000000000000001
 40
1.0
 40
1.0
 40
1.0
 40
1.0
 10
37.30493474204396
 20
-0.4912914384596801
 30
0.0
 10
37.25715465165071
 20
0.2098946126784009
 30
0.0
 10
37.21020521666421
 20
0.909264622662489
 30
0.0
 10
37.11978430533492
 20
2.276193370861611
 30
0.0
 10
37.07373358482482
 20
2.95671527690764
 30
0.0
 10
36.93120383007047
 20
4.96836061820949
 30
0.0
 10
36.83229474428381
 20
6.257329469257839
 30
0.0
 10
36.73762331604156
 20
7.38862654272993
 30
0.0
  0
SPLINE
  5
EA
330
1F
100
AcDbEntity
  8
외형선
  6
Continuous
 62
     1
370
    15
100
AcDbSpline
210
0.0
220
0.0
230
1.0
 70
     8
 71
     3
 72
     8
 73
     4
 74
     0
 42
0.000000001
 43
0.00000001
 40
0.0
 40
0.0
 40
0.0
 40
0.0
 40
1.0
 40
1.0
 40
1.0
 40
1.0
 10
36.73762331574352
 20
7.388626546305259
 30
0.0
 10
36.85912294159957
 20
7.397184321274279
 30
0.0
 10
37.00787199579835
 20
7.377127382865973
 30
0.0
 10
37.16080064095293
 20
7.331663939713814
 30
0.0
  0
SPLINE
  5
EB
330
1F
100
AcDbEntity
  8
외형선
  6
Continuous
 62
     1
370
    15
100
AcDbSpline
210
0.0
220
0.0
230
1.0
 70
     8
 71
     3
 72
    10
 73
     6
 74
     0
 42
0.000000001
 43
0.00000001
 40
0.0
 40
0.0
 40
0.0
 40
0.0
 40
0.5
 40
0.5
 40
1.0
 40
1.0
 40
1.0
 40
1.0
 10
42.77306546748292
 20
-2.44295492214881
 30
0.0
 10
42.52328994776213
 20
-2.343293299451289
 30
0.0
 10
42.21991713815203
 20
-2.238140879942285
 30
0.0
 10
41.61502095735855
 20
-2.028434501349051
 30
0.0
 10
41.32479966434085
 20
-1.927281512191993
 30
0.0
 10
41.08493398470965
 20
-1.843616757266236
 30
0.0
  0
SPLINE
  5
EC
330
1F
100
AcDbEntity
  8
외형선
  6
Continuous
 62
     1
370
    15
100
AcDbSpline
210
0.0
220
0.0
230
1.0
 70
     8
 71
     3
 72
    10
 73
     6
 74
     0
 42
0.000000001
 43
0.00000001
 40
0.0
 40
0.0
 40
0.0
 40
0.0
 40
0.5
 40
0.5
 40
1.0
 40
1.0
 40
1.0
 40
1.0
 10
40.51725548233851
 20
6.248659326424085
 30
0.0
 10
40.7670455663625
 20
6.098128971141721
 30
0.0
 10
41.07047554759643
 20
5.974355148078624
 30
0.0
 10
41.67540964555668
 20
5.789707066475481
 30
0.0
 10
41.96550989924772
 20
5.731119276145632
 30
0.0
 10
42.20530144460547
 20
5.71448067705261
 30
0.0
  0
SPLINE
  5
F4
330
1F
100
AcDbEntity
  8
외형선
  6
Continuous
 62
     1
370
    15
100
AcDbSpline
210
0.0
220
0.0
230
1.0
 70
     8
 71
     3
 72
    10
 73
     6
 74
     0
 42
0.000000001
 43
0.00000001
 40
0.0
 40
0.0
 40
0.0
 40
0.0
 40
0.4999999999999966
 40
0.4999999999999966
 40
1.0
 40
1.0
 40
1.0
 40
1.0
 10
35.05030570259426
 20
7.871825242220119
 30
0.0
 10
35.29998647713769
 20
7.701847052816052
 30
0.0
 10
35.60327838162259
 20
7.573333680915078
 30
0.0
 10
36.20788975569476
 20
7.407362168913028
 30
0.0
 10
36.49790587175808
 20
7.371742149110929
 30
0.0
 10
36.73762331574244
 20
7.388626546304762
 30
0.0
  0
SPLINE
  5
F5
330
1F
100
AcDbEntity
  8
외형선
  6
Continuous
 62
     1
370
    15
100
AcDbSpline
210
0.0
220
0.0
230
1.0
 70
     8
 71
     3
 72
     8
 73
     4
 74
     0
 42
0.000000001
 43
0.00000001
 40
0.0
 40
0.0
 40
0.0
 40
0.0
 40
1.0
 40
1.0
 40
1.0
 40
1.0
 10
34.62984228293178
 20
8.065086968041355
 30
0.0
 10
34.7783132285206
 20
8.023330658929211
 30
0.0
 10
34.92754013505751
 20
7.955401836895499
 30
0.0
 10
35.05030570259616
 20
7.871825242224247
 30
0.0
  0
SPLINE
  5
F6
330
1F
100
AcDbEntity
  8
외형선
  6
Continuous
 62
     1
370
    15
100
AcDbSpline
210
0.0
220
0.0
230
1.0
 70
     8
 71
     3
 72
     8
 73
     4
 74
     0
 42
0.000000001
 43
0.00000001
 40
0.0
 40
0.0
 40
0.0
 40
0.0
 40
1.0
 40
1.0
 40
1.0
 40
1.0
 10
31.27355276597583
 20
8.881834566346146
 30
0.0
 10
31.39491078059483
 20
8.907220378959245
 30
0.0
 10
31.54352879292173
 20
8.899345558422464
 30
0.0
 10
31.69633133502172
 20
8.859552243169798
 30
0.0
  0
SPLINE
  5
F7
330
1F
100
AcDbEntity
  8
외형선
  6
Continuous
 62
     1
370
    15
100
AcDbSpline
210
0.0
220
0.0
230
1.0
 70
     8
 71
     3
 72
    10
 73
     6
 74
     0
 42
0.000000001
 43
0.00000001
 40
0.0
 40
0.0
 40
0.0
 40
0.0
 40
0.5
 40
0.5
 40
1.0
 40
1.0
 40
1.0
 40
1.0
 10
29.58704337478698
 20
9.300459012474036
 30
0.0
 10
29.83655053125623
 20
9.115417312345585
 30
0.0
 10
30.13964593849857
 20
8.985579108827132
 30
0.0
 10
30.74405892913613
 20
8.843257010799299
 30
0.0
 10
31.03401597920332
 20
8.831727978806798
 30
0.0
 10
31.27355276597473
 20
8.88183456634555
 30
0.0
  0
SPLINE
  5
F8
330
1F
100
AcDbEntity
  8
외형선
  6
Continuous
 62
     1
370
    15
100
AcDbSpline
210
0.0
220
0.0
230
1.0
 70
     8
 71
     3
 72
     8
 73
     4
 74
     0
 42
0.000000001
 43
0.00000001
 40
0.0
 40
0.0
 40
0.0
 40
0.0
 40
1.0
 40
1.0
 40
1.0
 40
1.0
 10
29.16659328949832
 20
9.495595824771474
 30
0.0
 10
29.31503828886911
 20
9.459613954775161
 30
0.0
 10
29.46426965283905
 20
9.391511544045972
 30
0.0
 10
29.58704337478895
 20
9.300459012479417
 30
0.0
  0
SPLINE
  5
F9
330
1F
100
AcDbEntity
  8
외형선
  6
Continuous
 62
     1
370
    15
100
AcDbSpline
210
0.0
220
0.0
230
1.0
 70
     8
 71
     3
 72
     8
 73
     4
 74
     0
 42
0.000000001
 43
0.00000001
 40
0.0
 40
0.0
 40
0.0
 40
0.0
 40
1.0
 40
1.0
 40
1.0
 40
1.0
 10
29.16659173438519
 20
9.495596201718321
 30
0.0
 10
28.19181193341254
 20
9.731874948769459
 30
0.0
 10
27.21270883160273
 20
9.957309968450978
 30
0.0
 10
26.23157045857179
 20
10.17085288030475
 30
0.0
  0
SPLINE
  5
FA
330
1F
100
AcDbEntity
  8
외형선
  6
Continuous
 62
     1
370
    15
100
AcDbSpline
210
0.0
220
0.0
230
1.0
 70
     8
 71
     3
 72
     8
 73
     4
 74
     0
 42
0.000000001
 43
0.00000001
 40
0.0
 40
0.0
 40
0.0
 40
0.0
 40
1.0
 40
1.0
 40
1.0
 40
1.0
 10
25.80837644482497
 20
10.15830911687503
 30
0.0
 10
25.9298857297776
 20
10.19979388920112
 30
0.0
 10
26.07864385092451
 20
10.20413706836962
 30
0.0
 10
26.23157126749209
 20
10.17085270424971
 30
0.0
  0
SPLINE
  5
FB
330
1F
100
AcDbEntity
  8
외형선
  6
Continuous
 62
     1
370
    15
100
AcDbSpline
210
0.0
220
0.0
230
1.0
 70
     8
 71
     3
 72
    10
 73
     6
 74
     0
 42
0.000000001
 43
0.00000001
 40
0.0
 40
0.0
 40
0.0
 40
0.0
 40
0.5
 40
0.5
 40
1.0
 40
1.0
 40
1.0
 40
1.0
 10
24.12064208030101
 20
10.50294228567434
 30
0.0
 10
24.37034305935016
 20
10.30731944176239
 30
0.0
 10
24.67366883560163
 20
10.17934663642509
 30
0.0
 10
25.27849253132658
 20
10.06379871573126
 30
0.0
 10
25.56861829070483
 20
10.07645271848498
 30
0.0
 10
25.80837644482441
 20
10.15830911687453
 30
0.0
  0
SPLINE
  5
FC
330
1F
100
AcDbEntity
  8
외형선
  6
Continuous
 62
     1
370
    15
100
AcDbSpline
210
0.0
220
0.0
230
1.0
 70
     8
 71
     3
 72
     8
 73
     4
 74
     0
 42
0.000000001
 43
0.00000001
 40
0.0
 40
0.0
 40
0.0
 40
0.0
 40
1.0
 40
1.0
 40
1.0
 40
1.0
 10
23.69998108056913
 20
10.69480588342625
 30
0.0
 10
23.84850597680568
 20
10.66565498537323
 30
0.0
 10
23.9978111419059
 20
10.59917153388353
 30
0.0
 10
24.12064208030301
 20
10.50294228568091
 30
0.0
  0
SPLINE
  5
FD
330
1F
100
AcDbEntity
  8
외형선
  6
Continuous
 62
     1
370
    15
100
AcDbSpline
210
0.0
220
0.0
230
1.0
 70
     8
 71
     3
 72
     8
 73
     4
 74
     0
 42
0.000000001
 43
0.00000001
 40
0.0
 40
0.0
 40
0.0
 40
0.0
 40
1.0
 40
1.0
 40
1.0
 40
1.0
 10
23.69998123414158
 20
10.69480585328465
 30
0.0
 10
22.71890213424519
 20
10.88736169905397
 30
0.0
 10
21.74442477876523
 20
11.06683579633821
 30
0.0
 10
20.76352377738527
 20
11.23338768080919
 30
0.0
  0
SPLINE
  5
FE
330
1F
100
AcDbEntity
  8
외형선
  6
Continuous
 62
     1
370
    15
100
AcDbSpline
210
0.0
220
0.0
230
1.0
 70
     8
 71
     3
 72
     8
 73
     4
 74
     0
 42
0.000000001
 43
0.00000001
 40
0.0
 40
0.0
 40
0.0
 40
0.0
 40
1.0
 40
1.0
 40
1.0
 40
1.0
 10
20.34018722465004
 20
11.18634970042958
 30
0.0
 10
20.46175148528746
 20
11.24291633744444
 30
0.0
 10
20.61055793710692
 20
11.2593604843035
 30
0.0
 10
20.76352377254251
 20
11.2333876816371
 30
0.0
  0
SPLINE
  5
FF
330
1F
100
AcDbEntity
  8
외형선
  6
Continuous
 62
     1
370
    15
100
AcDbSpline
210
0.0
220
0.0
230
1.0
 70
     8
 71
     3
 72
    10
 73
     6
 74
     0
 42
0.000000001
 43
0.00000001
 40
0.0
 40
0.0
 40
0.0
 40
0.0
 40
0.4999999999999999
 40
0.4999999999999999
 40
1.0
 40
1.0
 40
1.0
 40
1.0
 10
18.6522018597509
 20
11.44888181230308
 30
0.0
 10
18.90195239252974
 20
11.24740345749325
 30
0.0
 10
19.20534498026701
 20
11.12433904553647
 30
0.0
 10
19.81026397943823
 20
11.03827169548488
 30
0.0
 10
20.10039014369976
 20
11.07476662194582
 30
0.0
 10
20.34018722464894
 20
11.18634970042881
 30
0.0
  0
SPLINE
  5
100
330
1F
100
AcDbEntity
  8
외형선
  6
Continuous
 62
     1
370
    15
100
AcDbSpline
210
0.0
220
0.0
230
1.0
 70
     8
 71
     3
 72
     8
 73
     4
 74
     0
 42
0.000000001
 43
0.00000001
 40
0.0
 40
0.0
 40
0.0
 40
0.0
 40
1.0
 40
1.0
 40
1.0
 40
1.0
 10
18.23154168477862
 20
11.63292230937712
 30
0.0
 10
18.38007474590923
 20
11.61126414471675
 30
0.0
 10
18.52937767802057
 20
11.54796634194364
 30
0.0
 10
18.65220185975291
 20
11.44888181231055
 30
0.0
  0
SPLINE
  5
101
330
1F
100
AcDbEntity
  8
외형선
  6
Continuous
 62
     1
370
    15
100
AcDbSpline
210
0.0
220
0.0
230
1.0
 70
     8
 71
     3
 72
     8
 73
     4
 74
     0
 42
0.000000001
 43
0.00000001
 40
0.0
 40
0.0
 40
0.0
 40
0.0
 40
1.0
 40
1.0
 40
1.0
 40
1.0
 10
18.23154229921463
 20
11.63292221978387
 30
0.0
 10
17.24997231890019
 20
11.77604863854309
 30
0.0
 10
16.26975204885594
 20
11.90532056783258
 30
0.0
 10
15.29489063940822
 20
12.02019975733899
 30
0.0
  0
SPLINE
  5
102
330
1F
100
AcDbEntity
  8
외형선
  6
Continuous
 62
     1
370
    15
100
AcDbSpline
210
0.0
220
0.0
230
1.0
 70
     8
 71
     3
 72
     8
 73
     4
 74
     0
 42
0.000000001
 43
0.00000001
 40
0.0
 40
0.0
 40
0.0
 40
0.0
 40
1.0
 40
1.0
 40
1.0
 40
1.0
 10
14.87242784748527
 20
11.93973063638441
 30
0.0
 10
14.99394948139479
 20
12.00999071264118
 30
0.0
 10
15.1427111573298
 20
12.03813397871751
 30
0.0
 10
15.29562759794459
 20
12.0201129102145
 30
0.0
  0
SPLINE
  5
103
330
1F
100
AcDbEntity
  8
외형선
  6
Continuous
 62
     1
370
    15
100
AcDbSpline
210
0.0
220
0.0
230
1.0
 70
     8
 71
     3
 72
    10
 73
     6
 74
     0
 42
0.000000001
 43
0.00000001
 40
0.0
 40
0.0
 40
0.0
 40
0.0
 40
0.5
 40
0.5
 40
1.0
 40
1.0
 40
1.0
 40
1.0
 10
13.18517215564567
 20
12.11389728295929
 30
0.0
 10
13.43482734890992
 20
11.91149014113668
 30
0.0
 10
13.73812230888925
 20
11.79629008494762
 30
0.0
 10
14.34281920176777
 20
11.74174168926967
 30
0.0
 10
14.63277614605576
 20
11.8011713833856
 30
0.0
 10
14.87242784748436
 20
11.93973063638368
 30
0.0
  0
SPLINE
  5
104
330
1F
100
AcDbEntity
  8
외형선
  6
Continuous
 62
     1
370
    15
100
AcDbSpline
210
0.0
220
0.0
230
1.0
 70
     8
 71
     3
 72
     8
 73
     4
 74
     0
 42
0.000000001
 43
0.00000001
 40
0.0
 40
0.0
 40
0.0
 40
0.0
 40
1.0
 40
1.0
 40
1.0
 40
1.0
 10
12.76472430723087
 20
12.28569578424608
 30
0.0
 10
12.91319402996293
 20
12.27202475557717
 30
0.0
 10
13.06241876027506
 20
12.21341920190356
 30
0.0
 10
13.18517215564757
 20
12.11389728296734
 30
0.0
  0
SPLINE
  5
105
330
1F
100
AcDbEntity
  8
외형선
  6
Continuous
 62
     1
370
    15
100
AcDbSpline
210
0.0
220
0.0
230
1.0
 70
     8
 71
     3
 72
     8
 73
     4
 74
     0
 42
0.000000001
 43
0.00000001
 40
0.0
 40
0.0
 40
0.0
 40
0.0
 40
0.2605496245488047
 40
0.2605496245488047
 40
0.2605496245488047
 40
0.2605496245488047
 10
12.76472562314424
 20
12.28569566307729
 30
0.0
 10
12.50988792104708
 20
12.30916101326086
 30
0.0
 10
12.25494890407768
 20
12.33164732058795
 30
0.0
 10
12.0
 20
12.35314809829778
 30
0.0
  0
SPLINE
  5
10C
330
1F
100
AcDbEntity
  8
외형선
  6
Continuous
 62
     1
370
    15
100
AcDbSpline
210
0.0
220
0.0
230
1.0
 70
     8
 71
     3
 72
     9
 73
     5
 74
     0
 42
0.000000001
 43
0.00000001
 40
0.0
 40
0.0
 40
0.0
 40
0.0
 40
0.7739542088407393
 40
1.0
 40
1.0
 40
1.0
 40
1.0
 10
30.01917020402941
 20
9.65884501933076
 30
0.0
 10
29.88586649151072
 20
9.56636589862125
 30
0.0
 10
29.71362928290589
 20
9.446876761340084
 30
0.0
 10
29.51611317677719
 20
9.387706540854325
 30
0.0
 10
29.47146549230062
 20
9.37433136155155
 30
0.0
  0
SPLINE
  5
10D
330
1F
100
AcDbEntity
  8
외형선
  6
Continuous
 62
     1
370
    15
100
AcDbSpline
210
0.0
220
0.0
230
1.0
 70
     8
 71
     3
 72
     8
 73
     4
 74
     0
 42
0.000000001
 43
0.00000001
 40
0.0
 40
0.0
 40
0.0
 40
0.0
 40
1.0
 40
1.0
 40
1.0
 40
1.0
 10
30.4398452170483
 20
9.853472434245601
 30
0.0
 10
30.29130832531059
 20
9.819361463074635
 30
0.0
 10
30.14200562801832
 20
9.751568168251627
 30
0.0
 10
30.01917020402716
 20
9.658845019335734
 30
0.0
  0
SPLINE
  5
10E
330
1F
100
AcDbEntity
  8
외형선
  6
Continuous
 62
     1
370
    15
100
AcDbSpline
210
0.0
220
0.0
230
1.0
 70
     8
 71
     3
 72
     8
 73
     4
 74
     0
 42
0.000000001
 43
0.00000001
 40
0.0
 40
0.0
 40
0.0
 40
0.0
 40
1.0
 40
1.0
 40
1.0
 40
1.0
 10
33.37556213735621
 20
10.4912311318182
 30
0.0
 10
32.39685848735692
 20
10.29074097173351
 30
0.0
 10
31.41655893923652
 20
10.07777129103266
 30
0.0
 10
30.43984408882442
 20
9.853472175152966
 30
0.0
  0
SPLINE
  5
10F
330
1F
100
AcDbEntity
  8
외형선
  6
Continuous
 62
     1
370
    15
100
AcDbSpline
210
0.0
220
0.0
230
1.0
 70
     8
 71
     3
 72
     8
 73
     4
 74
     0
 42
0.000000001
 43
0.00000001
 40
0.0
 40
0.0
 40
0.0
 40
0.0
 40
1.0
 40
1.0
 40
1.0
 40
1.0
 10
33.79870463933104
 20
10.46906661021739
 30
0.0
 10
33.67721882971037
 20
10.51483945902929
 30
0.0
 10
33.5284779357055
 20
10.52255635768715
 30
0.0
 10
33.37556213743002
 20
10.49123113183835
 30
0.0
  0
SPLINE
  5
110
330
1F
100
AcDbEntity
  8
외형선
  6
Continuous
 62
     1
370
    15
100
AcDbSpline
210
0.0
220
0.0
230
1.0
 70
     8
 71
     3
 72
    10
 73
     6
 74
     0
 42
0.000000001
 43
0.00000001
 40
0.0
 40
0.0
 40
0.0
 40
0.0
 40
0.5
 40
0.5
 40
1.0
 40
1.0
 40
1.0
 40
1.0
 10
35.48588528861698
 20
10.79216381692354
 30
0.0
 10
35.23628311911923
 20
10.59432820859606
 30
0.0
 10
34.93306854881617
 20
10.46727868302838
 30
0.0
 10
34.32844248414919
 20
10.35947679319926
 30
0.0
 10
34.0383988120057
 20
10.37875577340953
 30
0.0
 10
33.79870463933226
 20
10.46906661021662
 30
0.0
  0
SPLINE
  5
111
330
1F
100
AcDbEntity
  8
외형선
  6
Continuous
 62
     1
370
    15
100
AcDbSpline
210
0.0
220
0.0
230
1.0
 70
     8
 71
     3
 72
     8
 73
     4
 74
     0
 42
0.000000001
 43
0.00000001
 40
0.0
 40
0.0
 40
0.0
 40
0.0
 40
1.0
 40
1.0
 40
1.0
 40
1.0
 10
35.90635286128595
 20
10.98254484566869
 30
0.0
 10
35.7579033619446
 20
10.95532553509088
 30
0.0
 10
35.60866828321573
 20
10.88948207533154
 30
0.0
 10
35.48588528861472
 20
10.7921638169294
 30
0.0
  0
SPLINE
  5
112
330
1F
100
AcDbEntity
  8
외형선
  6
Continuous
 62
     1
370
    15
100
AcDbSpline
210
0.0
220
0.0
230
1.0
 70
     8
 71
     3
 72
     8
 73
     4
 74
     0
 42
0.000000001
 43
0.00000001
 40
0.0
 40
0.0
 40
0.0
 40
0.0
 40
1.0
 40
1.0
 40
1.0
 40
1.0
 10
38.83983767558767
 20
11.47939911759204
 30
0.0
 10
37.85942512017608
 20
11.32698905432316
 30
0.0
 10
36.87987516852677
 20
11.16104734081227
 30
0.0
 10
35.9063528612682
 20
10.98254484566544
 30
0.0
  0
SPLINE
  5
113
330
1F
100
AcDbEntity
  8
외형선
  6
Continuous
 62
     1
370
    15
100
AcDbSpline
210
0.0
220
0.0
230
1.0
 70
     8
 71
     3
 72
     8
 73
     4
 74
     0
 42
0.000000001
 43
0.00000001
 40
0.0
 40
0.0
 40
0.0
 40
0.0
 40
1.0
 40
1.0
 40
1.0
 40
1.0
 10
39.26263976144794
 20
11.42279702302489
 30
0.0
 10
39.14127170301111
 20
11.48333581209958
 30
0.0
 10
38.99264400853708
 20
11.5031536306591
 30
0.0
 10
38.83983768909286
 20
11.47939911969709
 30
0.0
  0
SPLINE
  5
114
330
1F
100
AcDbEntity
  8
외형선
  6
Continuous
 62
     1
370
    15
100
AcDbSpline
210
0.0
220
0.0
230
1.0
 70
     8
 71
     3
 72
    10
 73
     6
 74
     0
 42
0.000000001
 43
0.00000001
 40
0.0
 40
0.0
 40
0.0
 40
0.0
 40
0.5
 40
0.5
 40
1.0
 40
1.0
 40
1.0
 40
1.0
 10
40.94917591659733
 20
11.66123179684619
 30
0.0
 10
40.6996688823169
 20
11.45908817513913
 30
0.0
 10
40.39655467587174
 20
11.33786640782454
 30
0.0
 10
39.79210207583235
 20
11.260318215347
 30
0.0
 10
39.5021653901492
 20
11.30332084699557
 30
0.0
 10
39.26263976144914
 20
11.42279702302407
 30
0.0
  0
SPLINE
  5
115
330
1F
100
AcDbEntity
  8
외형선
  6
Continuous
 62
     1
370
    15
100
AcDbSpline
210
0.0
220
0.0
230
1.0
 70
     8
 71
     3
 72
     8
 73
     4
 74
     0
 42
0.000000001
 43
0.00000001
 40
0.0
 40
0.0
 40
0.0
 40
0.0
 40
1.0
 40
1.0
 40
1.0
 40
1.0
 10
41.36961640660039
 20
11.84238060925542
 30
0.0
 10
41.22116065663533
 20
11.82285979146835
 30
0.0
 10
41.0719330574023
 20
11.76068619942905
 30
0.0
 10
40.9491759165951
 20
11.66123179685292
 30
0.0
  0
SPLINE
  5
116
330
1F
100
AcDbEntity
  8
외형선
  6
Continuous
 62
     1
370
    15
100
AcDbSpline
210
0.0
220
0.0
230
1.0
 70
     8
 71
     3
 72
     8
 73
     4
 74
     0
 42
0.000000001
 43
0.00000001
 40
0.1887554722649316
 40
0.1887554722649316
 40
0.1887554722649316
 40
0.1887554722649316
 40
1.0
 40
1.0
 40
1.0
 40
1.0
 10
43.75006835027939
 20
12.69993164972061
 30
0.0
 10
42.9560966708511
 20
12.3805148089924
 30
0.0
 10
42.16491919852828
 20
12.16026938108416
 30
0.0
 10
41.36961630749146
 20
11.84238059622343
 30
0.0
  0
SPLINE
  5
11D
330
1F
100
AcDbEntity
  8
외형선
  6
Continuous
 62
     1
370
    15
100
AcDbSpline
210
0.0
220
0.0
230
1.0
 70
     8
 71
     3
 72
     9
 73
     5
 74
     0
 42
0.000000001
 43
0.00000001
 40
0.0
 40
0.0
 40
0.0
 40
0.0
 40
0.7221675798995931
 40
1.0
 40
1.0
 40
1.0
 40
1.0
 10
53.39446029499792
 20
-5.965037320999864
 30
0.0
 10
53.16933674611561
 20
-6.031761382885263
 30
0.0
 10
52.85760363160276
 20
-6.124155535908132
 30
0.0
 10
52.52823852847042
 20
-6.253088398765768
 30
0.0
 10
52.43673022477051
 20
-6.288910128083979
 30
0.0
  0
SPLINE
  5
11E
330
1F
100
AcDbEntity
  8
외형선
  6
Continuous
 62
     1
370
    15
100
AcDbSpline
210
0.0
220
0.0
230
1.0
 70
     8
 71
     3
 72
     8
 73
     4
 74
     0
 42
0.000000001
 43
0.00000001
 40
0.502764468944861
 40
0.502764468944861
 40
0.502764468944861
 40
0.502764468944861
 40
1.0
 40
1.0
 40
1.0
 40
1.0
 10
54.42605976102592
 20
-6.878333468598415
 30
0.0
 10
53.76095812448416
 20
-6.689804560561948
 30
0.0
 10
53.09790337239499
 20
-6.493110338577338
 30
0.0
 10
52.43673022477054
 20
-6.288910128083974
 30
0.0
  0
SPLINE
  5
12B
330
1F
100
AcDbEntity
  8
외형선
  6
Continuous
 62
     1
370
    15
100
AcDbSpline
210
0.0
220
0.0
230
1.0
 70
     8
 71
     3
 72
     8
 73
     4
 74
     0
 42
0.000000001
 43
0.00000001
 40
0.0
 40
0.0
 40
0.0
 40
0.0
 40
1.0
 40
1.0
 40
1.0
 40
1.0
 10
41.92146306339529
 20
-12.69993164972057
 30
0.0
 10
40.9457945147536
 20
-12.70317347851794
 30
0.0
 10
39.96553709710489
 20
-12.70407576760475
 30
0.0
 10
38.98586971884533
 20
-12.6899961401212
 30
0.0
  0
SPLINE
  5
12C
330
1F
100
AcDbEntity
  8
외형선
  6
Continuous
 62
     1
370
    15
100
AcDbSpline
210
0.0
220
0.0
230
1.0
 70
     8
 71
     3
 72
     8
 73
     4
 74
     0
 42
0.000000001
 43
0.00000001
 40
0.0
 40
0.0
 40
0.0
 40
0.0
 40
1.0
 40
1.0
 40
1.0
 40
1.0
 10
38.56260262120767
 20
-12.5399684493307
 30
0.0
 10
38.68413782572841
 20
-12.63518571465512
 30
0.0
 10
38.83292055409864
 20
-12.68779798654934
 30
0.0
 10
38.98587479810182
 20
-12.68999621312621
 30
0.0
  0
SPLINE
  5
12D
330
1F
100
AcDbEntity
  8
외형선
  6
Continuous
 62
     1
370
    15
100
AcDbSpline
210
0.0
220
0.0
230
1.0
 70
     8
 71
     3
 72
    10
 73
     6
 74
     0
 42
0.000000001
 43
0.00000001
 40
0.0
 40
0.0
 40
0.0
 40
0.0
 40
0.5
 40
0.5
 40
1.0
 40
1.0
 40
1.0
 40
1.0
 10
36.87462829021531
 20
-12.49305777897479
 30
0.0
 10
37.12436795071297
 20
-12.30786161707766
 30
0.0
 10
37.42772441718095
 20
-12.22188208900338
 30
0.0
 10
38.0326016875945
 20
-12.24534243197357
 30
0.0
 10
38.32278361263883
 20
-12.35208124200838
 30
0.0
 10
38.5626026212076
 20
-12.53996844933065
 30
0.0
  0
SPLINE
  5
12E
330
1F
100
AcDbEntity
  8
외형선
  6
Continuous
 62
     1
370
    15
100
AcDbSpline
210
0.0
220
0.0
230
1.0
 70
     8
 71
     3
 72
     8
 73
     4
 74
     0
 42
0.000000001
 43
0.00000001
 40
0.0
 40
0.0
 40
0.0
 40
0.0
 40
1.0
 40
1.0
 40
1.0
 40
1.0
 10
36.45391947378157
 20
-12.62022204720019
 30
0.0
 10
36.60244967592718
 20
-12.62628015909923
 30
0.0
 10
36.75177199209628
 20
-12.58416271134177
 30
0.0
 10
36.87462829021847
 20
-12.49305777898335
 30
0.0
  0
SPLINE
  5
12F
330
1F
100
AcDbEntity
  8
외형선
  6
Continuous
 62
     1
370
    15
100
AcDbSpline
210
0.0
220
0.0
230
1.0
 70
     8
 71
     3
 72
     8
 73
     4
 74
     0
 42
0.000000001
 43
0.00000001
 40
0.0
 40
0.0
 40
0.0
 40
0.0
 40
1.0
 40
1.0
 40
1.0
 40
1.0
 10
36.4539179703746
 20
-12.62022198588088
 30
0.0
 10
35.47624256236453
 20
-12.58034545415804
 30
0.0
 10
34.49942837654488
 20
-12.52557729686399
 30
0.0
 10
33.51744762434262
 20
-12.45593445889242
 30
0.0
  0
SPLINE
  5
130
330
1F
100
AcDbEntity
  8
외형선
  6
Continuous
 62
     1
370
    15
100
AcDbSpline
210
0.0
220
0.0
230
1.0
 70
     8
 71
     3
 72
     8
 73
     4
 74
     0
 42
0.000000001
 43
0.00000001
 40
0.0
 40
0.0
 40
0.0
 40
0.0
 40
1.0
 40
1.0
 40
1.0
 40
1.0
 10
33.09414578533598
 20
-12.28197099301512
 30
0.0
 10
33.21569336449387
 20
-12.38407222498799
 30
0.0
 10
33.3644885788697
 20
-12.44508648476125
 30
0.0
 10
33.51744776668713
 20
-12.45593446899447
 30
0.0
  0
SPLINE
  5
131
330
1F
100
AcDbEntity
  8
외형선
  6
Continuous
 62
     1
370
    15
100
AcDbSpline
210
0.0
220
0.0
230
1.0
 70
     8
 71
     3
 72
    10
 73
     6
 74
     0
 42
0.000000001
 43
0.00000001
 40
0.0
 40
0.0
 40
0.0
 40
0.0
 40
0.5
 40
0.5
 40
1.0
 40
1.0
 40
1.0
 40
1.0
 10
31.40632316934013
 20
-12.14129119216914
 30
0.0
 10
31.65603337470266
 20
-11.97116611326375
 30
0.0
 10
31.9593822471432
 20
-11.901373817981
 30
0.0
 10
32.56424510714945
 20
-11.9577021053949
 30
0.0
 10
32.85436368735486
 20
-12.08055153424398
 30
0.0
 10
33.09414578533782
 20
-12.28197099301663
 30
0.0
  0
SPLINE
  5
132
330
1F
100
AcDbEntity
  8
외형선
  6
Continuous
 62
     1
370
    15
100
AcDbSpline
210
0.0
220
0.0
230
1.0
 70
     8
 71
     3
 72
     8
 73
     4
 74
     0
 42
0.000000001
 43
0.00000001
 40
0.0
 40
0.0
 40
0.0
 40
0.0
 40
1.0
 40
1.0
 40
1.0
 40
1.0
 10
30.98570469443551
 20
-12.24389199385047
 30
0.0
 10
31.13421975822368
 20
-12.258237386251
 30
0.0
 10
31.28350883618738
 20
-12.22496337565228
 30
0.0
 10
31.40632316934314
 20
-12.1412911921777
 30
0.0
  0
SPLINE
  5
133
330
1F
100
AcDbEntity
  8
외형선
  6
Continuous
 62
     1
370
    15
100
AcDbSpline
210
0.0
220
0.0
230
1.0
 70
     8
 71
     3
 72
     8
 73
     4
 74
     0
 42
0.000000001
 43
0.00000001
 40
0.0
 40
0.0
 40
0.0
 40
0.0
 40
1.0
 40
1.0
 40
1.0
 40
1.0
 10
30.98570449429462
 20
-12.24389197451907
 30
0.0
 10
30.00425854268621
 20
-12.14909197756313
 30
0.0
 10
29.02950110478467
 20
-12.04002571387235
 30
0.0
 10
28.05029047780352
 20
-11.9166995760781
 30
0.0
  0
SPLINE
  5
134
330
1F
100
AcDbEntity
  8
외형선
  6
Continuous
 62
     1
370
    15
100
AcDbSpline
210
0.0
220
0.0
230
1.0
 70
     8
 71
     3
 72
     8
 73
     4
 74
     0
 42
0.000000001
 43
0.00000001
 40
0.0
 40
0.0
 40
0.0
 40
0.0
 40
1.0
 40
1.0
 40
1.0
 40
1.0
 10
27.62723682591273
 20
-11.72301613695476
 30
0.0
 10
27.74869932206619
 20
-11.82950393445653
 30
0.0
 10
27.89741407706443
 20
-11.89744564305846
 30
0.0
 10
28.05029064104578
 20
-11.91669959664423
 30
0.0
  0
SPLINE
  5
135
330
1F
100
AcDbEntity
  8
외형선
  6
Continuous
 62
     1
370
    15
100
AcDbSpline
210
0.0
220
0.0
230
1.0
 70
     8
 71
     3
 72
    10
 73
     6
 74
     0
 42
0.000000001
 43
0.00000001
 40
0.0
 40
0.0
 40
0.0
 40
0.0
 40
0.5
 40
0.5
 40
1.0
 40
1.0
 40
1.0
 40
1.0
 10
25.94054141421338
 20
-11.49202199166251
 30
0.0
 10
26.19007802621818
 20
-11.34114890699134
 30
0.0
 10
26.49325547727095
 20
-11.28921777596867
 30
0.0
 10
27.09778799001387
 20
-11.37702019479361
 30
0.0
 10
27.38767490280798
 20
-11.51298898977263
 30
0.0
 10
27.6272368259127
 20
-11.72301613695472
 30
0.0
  0
SPLINE
  5
136
330
1F
100
AcDbEntity
  8
외형선
  6
Continuous
 62
     1
370
    15
100
AcDbSpline
210
0.0
220
0.0
230
1.0
 70
     8
 71
     3
 72
     8
 73
     4
 74
     0
 42
0.000000001
 43
0.00000001
 40
0.0
 40
0.0
 40
0.0
 40
0.0
 40
1.0
 40
1.0
 40
1.0
 40
1.0
 10
25.52022292702257
 20
-11.56759335113349
 30
0.0
 10
25.668651852153
 20
-11.5898565599781
 30
0.0
 10
25.81783237923398
 20
-11.56621347193418
 30
0.0
 10
25.94054141421638
 20
-11.49202199167067
 30
0.0
  0
SPLINE
  5
137
330
1F
100
AcDbEntity
  8
외형선
  6
Continuous
 62
     1
370
    15
100
AcDbSpline
210
0.0
220
0.0
230
1.0
 70
     8
 71
     3
 72
     8
 73
     4
 74
     0
 42
0.000000001
 43
0.00000001
 40
0.0
 40
0.0
 40
0.0
 40
0.0
 40
1.0
 40
1.0
 40
1.0
 40
1.0
 10
25.52022329873793
 20
-11.56759340688897
 30
0.0
 10
24.54056147145953
 20
-11.42065159397166
 30
0.0
 10
23.56108211017696
 20
-11.26006156592015
 30
0.0
 10
22.58695059087266
 20
-11.086747239886
 30
0.0
  0
SPLINE
  5
138
330
1F
100
AcDbEntity
  8
외형선
  6
Continuous
 62
     1
370
    15
100
AcDbSpline
210
0.0
220
0.0
230
1.0
 70
     8
 71
     3
 72
     8
 73
     4
 74
     0
 42
0.000000001
 43
0.00000001
 40
0.0
 40
0.0
 40
0.0
 40
0.0
 40
1.0
 40
1.0
 40
1.0
 40
1.0
 10
22.16396122543782
 20
-10.87797889746669
 30
0.0
 10
22.28540034559889
 20
-10.98628553216018
 30
0.0
 10
22.43407985743284
 20
-11.05954897391512
 30
0.0
 10
22.58695057583064
 20
-11.08674723721613
 30
0.0
  0
SPLINE
  5
139
330
1F
100
AcDbEntity
  8
외형선
  6
Continuous
 62
     1
370
    15
100
AcDbSpline
210
0.0
220
0.0
230
1.0
 70
     8
 71
     3
 72
    10
 73
     6
 74
     0
 42
0.000000001
 43
0.00000001
 40
0.0
 40
0.0
 40
0.0
 40
0.0
 40
0.5000000000000001
 40
0.5000000000000001
 40
1.0
 40
1.0
 40
1.0
 40
1.0
 10
20.47687226043932
 20
-10.56163936793118
 30
0.0
 10
20.72652922720968
 20
-10.43375931672206
 30
0.0
 10
21.02980265118612
 20
-10.40113032379822
 30
0.0
 10
21.63443225486048
 20
-10.51846355084557
 30
0.0
 10
21.92437251582835
 20
-10.66429942734248
 30
0.0
 10
22.16396122543777
 20
-10.87797889746666
 30
0.0
  0
SPLINE
  5
13A
330
1F
100
AcDbEntity
  8
외형선
  6
Continuous
 62
     1
370
    15
100
AcDbSpline
210
0.0
220
0.0
230
1.0
 70
     8
 71
     3
 72
     8
 73
     4
 74
     0
 42
0.000000001
 43
0.00000001
 40
0.0
 40
0.0
 40
0.0
 40
0.0
 40
1.0
 40
1.0
 40
1.0
 40
1.0
 10
20.05634949629351
 20
-10.608170042861
 30
0.0
 10
20.204841827839
 20
-10.63785765369332
 30
0.0
 10
20.35409344101168
 20
-10.62452950843513
 30
0.0
 10
20.47687226044243
 20
-10.56163936793928
 30
0.0
  0
SPLINE
  5
13B
330
1F
100
AcDbEntity
  8
외형선
  6
Continuous
 62
     1
370
    15
100
AcDbSpline
210
0.0
220
0.0
230
1.0
 70
     8
 71
     3
 72
     8
 73
     4
 74
     0
 42
0.000000001
 43
0.00000001
 40
0.0
 40
0.0
 40
0.0
 40
0.0
 40
1.0
 40
1.0
 40
1.0
 40
1.0
 10
20.05634949629165
 20
-10.60817004286198
 30
0.0
 10
19.07838219549981
 20
-10.41264807662243
 30
0.0
 10
18.0981425169083
 20
-10.20447633908406
 30
0.0
 10
17.12081041087959
 20
-9.984762773369782
 30
0.0
  0
SPLINE
  5
13C
330
1F
100
AcDbEntity
  8
외형선
  6
Continuous
 62
     1
370
    15
100
AcDbSpline
210
0.0
220
0.0
230
1.0
 70
     8
 71
     3
 72
     8
 73
     4
 74
     0
 42
0.000000001
 43
0.00000001
 40
0.0
 40
0.0
 40
0.0
 40
0.0
 40
1.0
 40
1.0
 40
1.0
 40
1.0
 10
16.69752328266483
 20
-9.766333629624631
 30
0.0
 10
16.8190628829811
 20
-9.873721354768206
 30
0.0
 10
16.96784666781367
 20
-9.950375063081557
 30
0.0
 10
17.12080733395476
 20
-9.984762081653642
 30
0.0
  0
SPLINE
  5
13D
330
1F
100
AcDbEntity
  8
외형선
  6
Continuous
 62
     1
370
    15
100
AcDbSpline
210
0.0
220
0.0
230
1.0
 70
     8
 71
     3
 72
    10
 73
     6
 74
     0
 42
0.000000001
 43
0.00000001
 40
0.0
 40
0.0
 40
0.0
 40
0.0
 40
0.5
 40
0.5
 40
1.0
 40
1.0
 40
1.0
 40
1.0
 10
15.00945717360213
 20
-9.372428677939963
 30
0.0
 10
15.25924750183634
 20
-9.270815718153699
 30
0.0
 10
15.56259759842908
 20
-9.258484812048014
 30
0.0
 10
16.16747312674908
 20
-9.402429664641838
 30
0.0
 10
16.45767187517048
 20
-9.554410133443877
 30
0.0
 10
16.69752328266467
 20
-9.766333629623452
 30
0.0
  0
SPLINE
  5
13E
330
1F
100
AcDbEntity
  8
외형선
  6
Continuous
 62
     1
370
    15
100
AcDbSpline
210
0.0
220
0.0
230
1.0
 70
     8
 71
     3
 72
     8
 73
     4
 74
     0
 42
0.000000001
 43
0.00000001
 40
0.0
 40
0.0
 40
0.0
 40
0.0
 40
1.0
 40
1.0
 40
1.0
 40
1.0
 10
14.58874340015329
 20
-9.388558105485366
 30
0.0
 10
14.73728877620978
 20
-9.425015473281647
 30
0.0
 10
14.88660361440526
 20
-9.422404647227316
 30
0.0
 10
15.0094571736052
 20
-9.372428677947005
 30
0.0
  0
SPLINE
  5
13F
330
1F
100
AcDbEntity
  8
외형선
  6
Continuous
 62
     1
370
    15
100
AcDbSpline
210
0.0
220
0.0
230
1.0
 70
     8
 71
     3
 72
     8
 73
     4
 74
     0
 42
0.000000001
 43
0.00000001
 40
0.0
 40
0.0
 40
0.0
 40
0.0
 40
0.8817776816350765
 40
0.8817776816350765
 40
0.8817776816350765
 40
0.8817776816350765
 10
14.58874568946543
 20
-9.388558667350708
 30
0.0
 10
13.72831495001449
 20
-9.177383882500944
 30
0.0
 10
12.86421527888325
 20
-8.95730792635108
 30
0.0
 10
11.99999999999999
 20
-8.729209634811706
 30
0.0
  0
SPLINE
  5
157
330
1F
100
AcDbEntity
  8
외형선
  6
Continuous
 62
     1
370
    15
100
AcDbSpline
210
0.0
220
0.0
230
1.0
 70
     8
 71
     3
 72
     8
 73
     4
 74
     0
 42
0.000000001
 43
0.00000001
 40
0.0
 40
0.0
 40
0.0
 40
0.0
 40
0.4529471414548057
 40
0.4529471414548057
 40
0.4529471414548057
 40
0.4529471414548057
 10
13.32906074258469
 20
7.68182273883186
 30
0.0
 10
12.88639087222388
 20
7.810023915680539
 30
0.0
 10
12.44321038665644
 20
7.936419337217959
 30
0.0
 10
12.00000000000003
 20
8.060874632299647
 30
0.0
  0
SPLINE
  5
158
330
1F
100
AcDbEntity
  8
외형선
  6
Continuous
 62
     1
370
    15
100
AcDbSpline
210
0.0
220
0.0
230
1.0
 70
     8
 71
     3
 72
     8
 73
     4
 74
     0
 42
0.000000001
 43
0.00000001
 40
0.0
 40
0.0
 40
0.0
 40
0.0
 40
1.0
 40
1.0
 40
1.0
 40
1.0
 10
13.75217371637408
 20
7.45897939400204
 30
0.0
 10
13.63069281868536
 20
7.559316839112873
 30
0.0
 10
13.48196297808184
 20
7.637540883308324
 30
0.0
 10
13.32905342085835
 20
7.681824859274195
 30
0.0
  0
SPLINE
  5
159
330
1F
100
AcDbEntity
  8
외형선
  6
Continuous
 62
     1
370
    15
100
AcDbSpline
210
0.0
220
0.0
230
1.0
 70
     8
 71
     3
 72
    10
 73
     6
 74
     0
 42
0.000000001
 43
0.00000001
 40
0.0
 40
0.0
 40
0.0
 40
0.0
 40
0.5
 40
0.5
 40
1.0
 40
1.0
 40
1.0
 40
1.0
 10
15.4397778199938
 20
6.961117962674684
 30
0.0
 10
15.19007761046237
 20
6.907102121854131
 30
0.0
 10
14.88680346033879
 20
6.927710158588704
 30
0.0
 10
14.28207101799483
 20
7.106891188209254
 30
0.0
 10
13.99193147429542
 20
7.260950886368112
 30
0.0
 10
13.7521737163741
 20
7.458979394002054
 30
0.0
  0
SPLINE
  5
15A
330
1F
100
AcDbEntity
  8
외형선
  6
Continuous
 62
     1
370
    15
100
AcDbSpline
210
0.0
220
0.0
230
1.0
 70
     8
 71
     3
 72
     8
 73
     4
 74
     0
 42
0.000000001
 43
0.00000001
 40
0.0
 40
0.0
 40
0.0
 40
0.0
 40
1.0
 40
1.0
 40
1.0
 40
1.0
 10
15.86042617105171
 20
6.927600665730506
 30
0.0
 10
15.71190261312167
 20
6.972992647614457
 30
0.0
 10
15.56261141767045
 20
6.987689666693052
 30
0.0
 10
15.43977781999055
 20
6.961117962680578
 30
0.0
  0
SPLINE
  5
15B
330
1F
100
AcDbEntity
  8
외형선
  6
Continuous
 62
     1
370
    15
100
AcDbSpline
210
0.0
220
0.0
230
1.0
 70
     8
 71
     3
 72
     8
 73
     4
 74
     0
 42
0.000000001
 43
0.00000001
 40
0.0
 40
0.0
 40
0.0
 40
0.0
 40
1.0
 40
1.0
 40
1.0
 40
1.0
 10
18.79729213156236
 20
6.008673374312797
 30
0.0
 10
17.81665498349882
 20
6.322615580649721
 30
0.0
 10
16.83597282809718
 20
6.629452682468377
 30
0.0
 10
15.86043044044809
 20
6.927599360912031
 30
0.0
  0
SPLINE
  5
15C
330
1F
100
AcDbEntity
  8
외형선
  6
Continuous
 62
     1
370
    15
100
AcDbSpline
210
0.0
220
0.0
230
1.0
 70
     8
 71
     3
 72
     8
 73
     4
 74
     0
 42
0.000000001
 43
0.00000001
 40
0.0
 40
0.0
 40
0.0
 40
0.0
 40
1.0
 40
1.0
 40
1.0
 40
1.0
 10
19.21987047265663
 20
5.790560586554367
 30
0.0
 10
19.09831910681786
 20
5.88329158043399
 30
0.0
 10
18.94952066060308
 20
5.959939328664814
 30
0.0
 10
18.79655329274286
 20
6.008909905607442
 30
0.0
  0
SPLINE
  5
15D
330
1F
100
AcDbEntity
  8
외형선
  6
Continuous
 62
     1
370
    15
100
AcDbSpline
210
0.0
220
0.0
230
1.0
 70
     8
 71
     3
 72
    10
 73
     6
 74
     0
 42
0.000000001
 43
0.00000001
 40
0.0
 40
0.0
 40
0.0
 40
0.0
 40
0.5
 40
0.5
 40
1.0
 40
1.0
 40
1.0
 40
1.0
 10
20.90791208749877
 20
5.245375738697565
 30
0.0
 10
20.6581647006511
 20
5.222291037408461
 30
0.0
 10
20.35479264441735
 20
5.262396296425726
 30
0.0
 10
19.74988545233954
 20
5.457327409270214
 30
0.0
 10
19.45970183804364
 20
5.607594309520912
 30
0.0
 10
19.21987047265663
 20
5.790560586554361
 30
0.0
  0
SPLINE
  5
15E
330
1F
100
AcDbEntity
  8
외형선
  6
Continuous
 62
     1
370
    15
100
AcDbSpline
210
0.0
220
0.0
230
1.0
 70
     8
 71
     3
 72
     8
 73
     4
 74
     0
 42
0.000000001
 43
0.00000001
 40
0.0
 40
0.0
 40
0.0
 40
0.0
 40
1.0
 40
1.0
 40
1.0
 40
1.0
 10
21.32861545947592
 20
5.182486224921195
 30
0.0
 10
21.18008354880632
 20
5.231894875671296
 30
0.0
 10
21.03076343269458
 20
5.256731159243937
 30
0.0
 10
20.90791208749551
 20
5.245375738702649
 30
0.0
  0
SPLINE
  5
15F
330
1F
100
AcDbEntity
  8
외형선
  6
Continuous
 62
     1
370
    15
100
AcDbSpline
210
0.0
220
0.0
230
1.0
 70
     8
 71
     3
 72
     8
 73
     4
 74
     0
 42
0.000000001
 43
0.00000001
 40
0.0
 40
0.0
 40
0.0
 40
0.0
 40
1.0
 40
1.0
 40
1.0
 40
1.0
 10
24.26490129719038
 20
4.18835406377729
 30
0.0
 10
23.28305331804763
 20
4.525435812420779
 30
0.0
 10
22.30761373815503
 20
4.856825672753298
 30
0.0
 10
21.32861546870437
 20
5.182486221852044
 30
0.0
  0
SPLINE
  5
160
330
1F
100
AcDbEntity
  8
외형선
  6
Continuous
 62
     1
370
    15
100
AcDbSpline
210
0.0
220
0.0
230
1.0
 70
     8
 71
     3
 72
     8
 73
     4
 74
     0
 42
0.000000001
 43
0.00000001
 40
0.0
 40
0.0
 40
0.0
 40
0.0
 40
1.0
 40
1.0
 40
1.0
 40
1.0
 10
24.68813699819895
 20
3.97973826717593
 30
0.0
 10
24.56661283540546
 20
4.062610385977134
 30
0.0
 10
24.41783885161723
 20
4.135848523844682
 30
0.0
 10
24.26490129559486
 20
4.188354064328038
 30
0.0
  0
SPLINE
  5
161
330
1F
100
AcDbEntity
  8
외형선
  6
Continuous
 62
     1
370
    15
100
AcDbSpline
210
0.0
220
0.0
230
1.0
 70
     8
 71
     3
 72
    10
 73
     6
 74
     0
 42
0.000000001
 43
0.00000001
 40
0.0
 40
0.0
 40
0.0
 40
0.0
 40
0.5
 40
0.5
 40
1.0
 40
1.0
 40
1.0
 40
1.0
 10
26.37563412296457
 20
3.400174299555691
 30
0.0
 10
26.12597746891412
 20
3.408632436836322
 30
0.0
 10
25.82268010802025
 20
3.467355331455995
 30
0.0
 10
25.217911158356
 20
3.673401992734789
 30
0.0
 10
24.92785768859257
 20
3.816263275234076
 30
0.0
 10
24.68813699819896
 20
3.979738267175898
 30
0.0
  0
SPLINE
  5
162
330
1F
100
AcDbEntity
  8
외형선
  6
Continuous
 62
     1
370
    15
100
AcDbSpline
210
0.0
220
0.0
230
1.0
 70
     8
 71
     3
 72
     8
 73
     4
 74
     0
 42
0.000000001
 43
0.00000001
 40
0.0
 40
0.0
 40
0.0
 40
0.0
 40
1.0
 40
1.0
 40
1.0
 40
1.0
 10
26.7961621092352
 20
3.309572205186716
 30
0.0
 10
26.64767300172775
 20
3.361696172715199
 30
0.0
 10
26.49841648201527
 20
3.39601454642765
 30
0.0
 10
26.37563412296137
 20
3.400174299559707
 30
0.0
  0
SPLINE
  5
163
330
1F
100
AcDbEntity
  8
외형선
  6
Continuous
 62
     1
370
    15
100
AcDbSpline
210
0.0
220
0.0
230
1.0
 70
     8
 71
     3
 72
     8
 73
     4
 74
     0
 42
0.000000001
 43
0.00000001
 40
0.0
 40
0.0
 40
0.0
 40
0.0
 40
1.0
 40
1.0
 40
1.0
 40
1.0
 10
29.73065084579132
 20
2.266762007163422
 30
0.0
 10
28.75302629483744
 20
2.617391815440291
 30
0.0
 10
27.77748256645346
 20
2.965100368194751
 30
0.0
 10
26.79616208467317
 20
3.309572213809384
 30
0.0
  0
SPLINE
  5
164
330
1F
100
AcDbEntity
  8
외형선
  6
Continuous
 62
     1
370
    15
100
AcDbSpline
210
0.0
220
0.0
230
1.0
 70
     8
 71
     3
 72
     8
 73
     4
 74
     0
 42
0.000000001
 43
0.00000001
 40
0.0
 40
0.0
 40
0.0
 40
0.0
 40
1.0
 40
1.0
 40
1.0
 40
1.0
 10
30.1535290230404
 20
2.072837780242796
 30
0.0
 10
30.0321288421494
 20
2.143860058080082
 30
0.0
 10
29.88347171312921
 20
2.211952058508332
 30
0.0
 10
29.73065102131314
 20
2.266761944213671
 30
0.0
  0
SPLINE
  5
165
330
1F
100
AcDbEntity
  8
외형선
  6
Continuous
 62
     1
370
    15
100
AcDbSpline
210
0.0
220
0.0
230
1.0
 70
     8
 71
     3
 72
    10
 73
     6
 74
     0
 42
0.000000001
 43
0.00000001
 40
0.0
 40
0.0
 40
0.0
 40
0.0
 40
0.5
 40
0.5
 40
1.0
 40
1.0
 40
1.0
 40
1.0
 10
31.83964866346073
 20
1.472522914945255
 30
0.0
 10
31.59018775765067
 20
1.512401101402932
 30
0.0
 10
31.28710927226199
 20
1.588392694232458
 30
0.0
 10
30.68276541515431
 20
1.800691697112681
 30
0.0
 10
30.3929736660171
 20
1.932756407749545
 30
0.0
 10
30.15352902304042
 20
2.072837780242796
 30
0.0
  0
SPLINE
  5
166
330
1F
100
AcDbEntity
  8
외형선
  6
Continuous
 62
     1
370
    15
100
AcDbSpline
210
0.0
220
0.0
230
1.0
 70
     8
 71
     3
 72
     8
 73
     4
 74
     0
 42
0.000000001
 43
0.00000001
 40
0.0
 40
0.0
 40
0.0
 40
0.0
 40
1.0
 40
1.0
 40
1.0
 40
1.0
 10
32.25995166606236
 20
1.356247458333653
 30
0.0
 10
32.11152683299501
 20
1.409875483048469
 30
0.0
 10
31.96235051117834
 20
1.452908109388604
 30
0.0
 10
31.8396486634576
 20
1.472522914948189
 30
0.0
  0
SPLINE
  5
167
330
1F
100
AcDbEntity
  8
외형선
  6
Continuous
 62
     1
370
    15
100
AcDbSpline
210
0.0
220
0.0
230
1.0
 70
     8
 71
     3
 72
     8
 73
     4
 74
     0
 42
0.000000001
 43
0.00000001
 40
0.0
 40
0.0
 40
0.0
 40
0.0
 40
1.0
 40
1.0
 40
1.0
 40
1.0
 10
35.61732898061042
 20
0.1169889754701473
 30
0.0
 10
35.49583772199251
 20
0.1745142616305722
 30
0.0
 10
35.34710456200386
 20
0.2358259073748424
 30
0.0
 10
35.19418653969734
 20
0.2915489390640094
 30
0.0
  0
SPLINE
  5
168
330
1F
100
AcDbEntity
  8
외형선
  6
Continuous
 62
     1
370
    15
100
AcDbSpline
210
0.0
220
0.0
230
1.0
 70
     8
 71
     3
 72
    10
 73
     6
 74
     0
 42
0.000000001
 43
0.00000001
 40
0.0
 40
0.0
 40
0.0
 40
0.0
 40
0.5
 40
0.5
 40
1.0
 40
1.0
 40
1.0
 40
1.0
 10
37.30493474205637
 20
-0.4912914386415825
 30
0.0
 10
37.05518666899373
 20
-0.4206910013097107
 30
0.0
 10
36.75181982748966
 20
-0.328927271441927
 30
0.0
 10
36.14704530745002
 20
-0.1149180843125407
 30
0.0
 10
35.85704460292526
 20
0.0034852557156696
 30
0.0
 10
35.61732898061044
 20
0.1169889754701413
 30
0.0
  0
SPLINE
  5
16A
330
1F
100
AcDbEntity
  8
외형선
  6
Continuous
 62
     1
370
    15
100
AcDbSpline
210
0.0
220
0.0
230
1.0
 70
     8
 71
     3
 72
    12
 73
     8
 74
     0
 42
0.000000001
 43
0.00000001
 40
0.0
 40
0.0
 40
0.0
 40
0.0
 40
0.2499999999999999
 40
0.2499999999999999
 40
0.4999999999999998
 40
0.4999999999999998
 40
1.0
 40
1.0
 40
1.0
 40
1.0
 10
35.61732885264312
 20
0.1169908695007558
 30
0.0
 10
35.57009032274404
 20
0.8161634128337097
 30
0.0
 10
35.52500158289025
 20
1.504137309955251
 30
0.0
 10
35.43363372895043
 20
2.866078341953831
 30
0.0
 10
35.38632534058851
 20
3.545036114400913
 30
0.0
 10
35.24232308202346
 20
5.531943096767228
 30
0.0
 10
35.14362624947582
 20
6.786706237028652
 30
0.0
 10
35.05030570259747
 20
7.871825242182367
 30
0.0
  0
SPLINE
  5
16B
330
1F
100
AcDbEntity
  8
외형선
  6
Continuous
 62
     1
370
    15
100
AcDbSpline
210
0.0
220
0.0
230
1.0
 70
     8
 71
     3
 72
    10
 73
     6
 74
     0
 42
0.000000001
 43
0.00000001
 40
0.0
 40
0.0
 40
0.0
 40
0.0
 40
0.5
 40
0.5
 40
1.0
 40
1.0
 40
1.0
 40
1.0
 10
26.79616209177217
 20
3.309572457892377
 30
0.0
 10
26.70230834612502
 20
4.667564963721815
 30
0.0
 10
26.60390373854631
 20
5.984155538029521
 30
0.0
 10
26.41400916659748
 20
8.31793664717669
 30
0.0
 10
26.3263250049174
 20
9.325840182340622
 30
0.0
 10
26.231571117009
 20
10.17085404626283
 30
0.0
  0
SPLINE
  5
16C
330
1F
100
AcDbEntity
  8
외형선
  6
Continuous
 62
     1
370
    15
100
AcDbSpline
210
0.0
220
0.0
230
1.0
 70
     8
 71
     3
 72
    12
 73
     8
 74
     0
 42
0.000000001
 43
0.00000001
 40
0.0
 40
0.0
 40
0.0
 40
0.0
 40
0.5000000000000001
 40
0.5000000000000001
 40
0.75
 40
0.75
 40
1.0
 40
1.0
 40
1.0
 40
1.0
 10
29.73065103104211
 20
2.266761797749258
 30
0.0
 10
29.63949693617999
 20
3.638012126090609
 30
0.0
 10
29.54189616203949
 20
4.998815744783363
 30
0.0
 10
29.39752847773517
 20
6.853057416956736
 30
0.0
 10
29.34977408707498
 20
7.440125770082837
 30
0.0
 10
29.25692899204133
 20
8.530394613718459
 30
0.0
 10
29.21282966667975
 20
9.030683500480595
 30
0.0
 10
29.16659294565724
 20
9.495599282135945
 30
0.0
  0
SPLINE
  5
16D
330
1F
100
AcDbEntity
  8
외형선
  6
Continuous
 62
     1
370
    15
100
AcDbSpline
210
0.0
220
0.0
230
1.0
 70
     8
 71
     3
 72
    14
 73
    10
 74
     0
 42
0.000000001
 43
0.00000001
 40
0.0
 40
0.0
 40
0.0
 40
0.0
 40
0.2500000000000001
 40
0.2500000000000001
 40
0.5000000000000002
 40
0.5000000000000002
 40
0.7500000000000001
 40
0.7500000000000001
 40
1.0
 40
1.0
 40
1.0
 40
1.0
 10
31.83964866345743
 20
1.472522914995735
 30
0.0
 10
31.79419688232584
 20
2.158424208115037
 30
0.0
 10
31.74856103133624
 20
2.838683359531879
 30
0.0
 10
31.65368164942929
 20
4.183793793326001
 30
0.0
 10
31.60521253164666
 20
4.844685691188811
 30
0.0
 10
31.50823663637579
 20
6.114458268770466
 30
0.0
 10
31.45973950842092
 20
6.723212324337981
 30
0.0
 10
31.36475194292542
 20
7.864103196575681
 30
0.0
 10
31.31891397456687
 20
8.393900273959645
 30
0.0
 10
31.27355276601595
 20
8.881834565901794
 30
0.0
  0
SPLINE
  5
16E
330
1F
100
AcDbEntity
  8
외형선
  6
Continuous
 62
     1
370
    15
100
AcDbSpline
210
0.0
220
0.0
230
1.0
 70
     8
 71
     3
 72
    12
 73
     8
 74
     0
 42
0.000000001
 43
0.00000001
 40
0.0
 40
0.0
 40
0.0
 40
0.0
 40
0.5
 40
0.5
 40
0.75
 40
0.75
 40
1.0
 40
1.0
 40
1.0
 40
1.0
 10
30.15352825693179
 20
2.072849248052393
 30
0.0
 10
30.06248128313126
 20
3.43572277023504
 30
0.0
 10
29.96463522111379
 20
4.793113341324485
 30
0.0
 10
29.81944664151854
 20
6.648450730897764
 30
0.0
 10
29.7713464167033
 20
7.236877921257644
 30
0.0
 10
29.67770871679538
 20
8.331287605527272
 30
0.0
 10
29.63331581832865
 20
8.83371409190837
 30
0.0
 10
29.58704337479025
 20
9.300459012441099
 30
0.0
  0
SPLINE
  5
16F
330
1F
100
AcDbEntity
  8
외형선
  6
Continuous
 62
     1
370
    15
100
AcDbSpline
210
0.0
220
0.0
230
1.0
 70
     8
 71
     3
 72
    12
 73
     8
 74
     0
 42
0.000000001
 43
0.00000001
 40
0.0
 40
0.0
 40
0.0
 40
0.0
 40
0.5
 40
0.5
 40
0.75
 40
0.75
 40
1.0
 40
1.0
 40
1.0
 40
1.0
 10
26.37563383611925
 20
3.400178383538306
 30
0.0
 10
26.28107625409098
 20
4.746449323942787
 30
0.0
 10
26.18217702397322
 20
6.047505455279389
 30
0.0
 10
26.03950237388188
 20
7.770069240979955
 30
0.0
 10
25.99322587169392
 20
8.305381932709324
 30
0.0
 10
25.90298973802516
 20
9.288145324347335
 30
0.0
 10
25.85611140729129
 20
9.745901083809242
 30
0.0
 10
25.80837644482606
 20
10.15830911685576
 30
0.0
  0
SPLINE
  5
170
330
1F
100
AcDbEntity
  8
외형선
  6
Continuous
 62
     1
370
    15
100
AcDbSpline
210
0.0
220
0.0
230
1.0
 70
     8
 71
     3
 72
    12
 73
     8
 74
     0
 42
0.000000001
 43
0.00000001
 40
0.0
 40
0.0
 40
0.0
 40
0.0
 40
0.5
 40
0.5
 40
0.75
 40
0.75
 40
1.0
 40
1.0
 40
1.0
 40
1.0
 10
21.32861537334524
 20
5.182487382832778
 30
0.0
 10
21.23228317296708
 20
6.47751432230582
 30
0.0
 10
21.13525019076283
 20
7.674969020822073
 30
0.0
 10
21.00014143646486
 20
9.192985198337194
 30
0.0
 10
20.95443631059354
 20
9.66271324041439
 30
0.0
 10
20.8599518581514
 20
10.51851697596083
 30
0.0
 10
20.81172983379755
 20
10.90243265132884
 30
0.0
 10
20.76352368154109
 20
11.23338830640527
 30
0.0
  0
SPLINE
  5
171
330
1F
100
AcDbEntity
  8
외형선
  6
Continuous
 62
     1
370
    15
100
AcDbSpline
210
0.0
220
0.0
230
1.0
 70
     8
 71
     3
 72
    12
 73
     8
 74
     0
 42
0.000000001
 43
0.00000001
 40
0.0
 40
0.0
 40
0.0
 40
0.0
 40
0.5000000000000002
 40
0.5000000000000002
 40
0.7500000000000001
 40
0.7500000000000001
 40
1.0
 40
1.0
 40
1.0
 40
1.0
 10
24.26490120035184
 20
4.188355396711714
 30
0.0
 10
24.16947699933543
 20
5.523376575953019
 30
0.0
 10
24.07124661112229
 20
6.790527637866975
 30
0.0
 10
23.93163817852025
 20
8.439068303866913
 30
0.0
 10
23.88749992763746
 20
8.943748421821255
 30
0.0
 10
23.79543287624754
 20
9.881887301538473
 30
0.0
 10
23.74795594265694
 20
10.31278857035966
 30
0.0
 10
23.69998094524699
 20
10.69480696097815
 30
0.0
  0
SPLINE
  5
172
330
1F
100
AcDbEntity
  8
외형선
  6
Continuous
 62
     1
370
    15
100
AcDbSpline
210
0.0
220
0.0
230
1.0
 70
     8
 71
     3
 72
    12
 73
     8
 74
     0
 42
0.000000001
 43
0.00000001
 40
0.0
 40
0.0
 40
0.0
 40
0.0
 40
0.5000000000000001
 40
0.5000000000000001
 40
0.75
 40
0.75
 40
1.0
 40
1.0
 40
1.0
 40
1.0
 10
24.68813699810423
 20
3.979738268494943
 30
0.0
 10
24.59251827703989
 20
5.310931457984587
 30
0.0
 10
24.49373153284696
 20
6.579282887265133
 30
0.0
 10
24.35294321820876
 20
8.234395867395001
 30
0.0
 10
24.30842763400021
 20
8.741675458593015
 30
0.0
 10
24.21633461661441
 20
9.683669015657946
 30
0.0
 10
24.16877181937726
 20
10.11740489978474
 30
0.0
 10
24.12064208030098
 20
10.50294228567454
 30
0.0
  0
SPLINE
  5
17C
330
1F
100
AcDbEntity
  8
외형선
  6
Continuous
 62
     1
370
    15
100
AcDbSpline
210
0.0
220
0.0
230
1.0
 70
     8
 71
     3
 72
    10
 73
     6
 74
     0
 42
0.000000001
 43
0.00000001
 40
0.0
 40
0.0
 40
0.0
 40
0.0
 40
0.5
 40
0.5
 40
1.0
 40
1.0
 40
1.0
 40
1.0
 10
20.90791208748262
 20
5.245375738911044
 30
0.0
 10
20.81109888224253
 20
6.525758917377932
 30
0.0
 10
20.71384950811089
 20
7.705146333593554
 30
0.0
 10
20.53388639001751
 20
9.689564520498477
 30
0.0
 10
20.43701753248344
 20
10.54596172563806
 30
0.0
 10
20.34018722464862
 20
11.18634970043108
 30
0.0
  0
SPLINE
  5
17E
330
1F
100
AcDbEntity
  8
외형선
  6
Continuous
 62
     1
370
    15
100
AcDbSpline
210
0.0
220
0.0
230
1.0
 70
     8
 71
     3
 72
    12
 73
     8
 74
     0
 42
0.000000001
 43
0.00000001
 40
0.0
 40
0.0
 40
0.0
 40
0.0
 40
0.2500000000000001
 40
0.2500000000000001
 40
0.5000000000000001
 40
0.5000000000000001
 40
1.0
 40
1.0
 40
1.0
 40
1.0
 10
19.21987047260439
 20
5.790560587229432
 30
0.0
 10
19.17146869158509
 20
6.415759883518152
 30
0.0
 10
19.12322902884534
 20
7.01268294646892
 30
0.0
 10
19.02906455781642
 20
8.126762555754837
 30
0.0
 10
18.98429037768091
 20
8.640058982263513
 30
0.0
 10
18.84679904287082
 20
10.06777430696464
 30
0.0
 10
18.74874349292546
 20
10.87044665740322
 30
0.0
 10
18.65220217828418
 20
11.44887990379202
 30
0.0
  0
SPLINE
  5
17F
330
1F
100
AcDbEntity
  8
외형선
  6
Continuous
 62
     1
370
    15
100
AcDbSpline
210
0.0
220
0.0
230
1.0
 70
     8
 71
     3
 72
    12
 73
     8
 74
     0
 42
0.000000001
 43
0.00000001
 40
0.0
 40
0.0
 40
0.0
 40
0.0
 40
0.2499999999999999
 40
0.2499999999999999
 40
0.4999999999999998
 40
0.4999999999999998
 40
1.0
 40
1.0
 40
1.0
 40
1.0
 10
15.86042667476247
 20
6.927594405266465
 30
0.0
 10
15.81275009518532
 20
7.520154220419189
 30
0.0
 10
15.76582447471259
 20
8.077132441130408
 30
0.0
 10
15.67529240711553
 20
9.101013269239925
 30
0.0
 10
15.63004806856492
 20
9.574622115102397
 30
0.0
 10
15.48865665235201
 20
10.87536035018263
 30
0.0
 10
15.39021439948073
 20
11.56499488619955
 30
0.0
 10
15.29560862644244
 20
12.02020419714808
 30
0.0
  0
SPLINE
  5
180
330
1F
100
AcDbEntity
  8
외형선
  6
Continuous
 62
     1
370
    15
100
AcDbSpline
210
0.0
220
0.0
230
1.0
 70
     8
 71
     3
 72
    12
 73
     8
 74
     0
 42
0.000000001
 43
0.00000001
 40
0.0
 40
0.0
 40
0.0
 40
0.0
 40
0.2500000000000001
 40
0.2500000000000001
 40
0.5000000000000001
 40
0.5000000000000001
 40
1.0
 40
1.0
 40
1.0
 40
1.0
 10
18.79655327991145
 20
6.008910072002512
 30
0.0
 10
18.74840244837775
 20
6.633680974410048
 30
0.0
 10
18.70049533746268
 20
7.229052737487526
 30
0.0
 10
18.60711717180093
 20
8.33836579605132
 30
0.0
 10
18.56282599732991
 20
8.848450335433506
 30
0.0
 10
18.42530126455784
 20
10.26991745498347
 30
0.0
 10
18.32753851419824
 20
11.06445743661343
 30
0.0
 10
18.23154181921328
 20
11.63292151329503
 30
0.0
  0
SPLINE
  5
188
330
1F
100
AcDbEntity
  8
외형선
  6
Continuous
 62
     1
370
    15
100
AcDbSpline
210
0.0
220
0.0
230
1.0
 70
     8
 71
     3
 72
    12
 73
     8
 74
     0
 42
0.000000001
 43
0.00000001
 40
0.0
 40
0.0
 40
0.0
 40
0.0
 40
0.25
 40
0.25
 40
0.5
 40
0.5
 40
1.0
 40
1.0
 40
1.0
 40
1.0
 10
15.43977781996716
 20
6.961117963000356
 30
0.0
 10
15.39197979598033
 20
7.545250488072595
 30
0.0
 10
15.34500285059102
 20
8.093154571540106
 30
0.0
 10
15.25451137275363
 20
9.098078191661283
 30
0.0
 10
15.20853891174633
 20
9.564462957423322
 30
0.0
 10
15.06605867718912
 20
10.83775755734623
 30
0.0
 10
14.96714332101186
 20
11.50615404661533
 30
0.0
 10
14.87242784763516
 20
11.9397306356924
 30
0.0
  0
SPLINE
  5
18A
330
1F
100
AcDbEntity
  8
외형선
  6
Continuous
 62
     1
370
    15
100
AcDbSpline
210
0.0
220
0.0
230
1.0
 70
     8
 71
     3
 72
    12
 73
     8
 74
     0
 42
0.000000001
 43
0.00000001
 40
0.0
 40
0.0
 40
0.0
 40
0.0
 40
0.25
 40
0.25
 40
0.5
 40
0.5
 40
1.0
 40
1.0
 40
1.0
 40
1.0
 10
13.75217371637153
 20
7.458979394032388
 30
0.0
 10
13.70491695376831
 20
8.02152207448536
 30
0.0
 10
13.6597741160389
 20
8.541289166249323
 30
0.0
 10
13.56847649589901
 20
9.50300727714131
 30
0.0
 10
13.52119503568865
 20
9.94824693199975
 30
0.0
 10
13.37724368001493
 20
11.14311674891603
 30
0.0
 10
13.2785394189422
 20
11.74686621896034
 30
0.0
 10
13.18517215564948
 20
12.11389728294415
 30
0.0
  0
SPLINE
  5
18C
330
1F
100
AcDbEntity
  8
외형선
  6
Continuous
 62
     1
370
    15
100
AcDbSpline
210
0.0
220
0.0
230
1.0
 70
     8
 71
     3
 72
    12
 73
     8
 74
     0
 42
0.000000001
 43
0.00000001
 40
0.0
 40
0.0
 40
0.0
 40
0.0
 40
0.2500000000000001
 40
0.2500000000000001
 40
0.5000000000000002
 40
0.5000000000000002
 40
1.0
 40
1.0
 40
1.0
 40
1.0
 10
13.32905500855169
 20
7.681805889820297
 30
0.0
 10
13.28219507733382
 20
8.2416769450006
 30
0.0
 10
13.23765467214737
 20
8.757476789715223
 30
0.0
 10
13.14628434064296
 20
9.714554582071099
 30
0.0
 10
13.0990467628054
 20
10.15642687833177
 30
0.0
 10
12.95546440627623
 20
11.3387569441581
 30
0.0
 10
12.85733115511682
 20
11.93089760190398
 30
0.0
 10
12.76472465969589
 20
12.28569443387226
 30
0.0
  0
SPLINE
  5
191
330
1F
100
AcDbEntity
  8
외형선
  6
Continuous
 62
     1
370
    15
100
AcDbSpline
210
0.0
220
0.0
230
1.0
 70
     8
 71
     3
 72
     8
 73
     4
 74
     0
 42
0.000000001
 43
0.00000001
 40
0.0
 40
0.0
 40
0.0
 40
0.0
 40
1.0
 40
1.0
 40
1.0
 40
1.0
 10
15.1538260128294
 20
-12.66548328843242
 30
0.0
 10
14.1790261551277
 20
-12.63929798398883
 30
0.0
 10
13.19850535769366
 20
-12.59812714991551
 30
0.0
 10
12.0
 20
-12.69993164972064
 30
0.0
  0
SPLINE
  5
193
330
1F
100
AcDbEntity
  8
외형선
  6
Continuous
 62
     1
370
    15
100
AcDbSpline
210
0.0
220
0.0
230
1.0
 70
     8
 71
     3
 72
    12
 73
     8
 74
     0
 42
0.000000001
 43
0.00000001
 40
0.0
 40
0.0
 40
0.0
 40
0.0
 40
0.4999999999999998
 40
0.4999999999999998
 40
0.7499999999999999
 40
0.7499999999999999
 40
1.0
 40
1.0
 40
1.0
 40
1.0
 10
15.15382313495266
 20
-12.66548352432455
 30
0.0
 10
15.05771831278862
 20
-12.56115319037213
 30
0.0
 10
14.96009437356011
 20
-12.21334370305098
 30
0.0
 10
14.82309521708948
 20
-11.38530817670044
 30
0.0
 10
14.77858316159567
 20
-11.05965124135987
 30
0.0
 10
14.68491831793362
 20
-10.29906143255859
 30
0.0
 10
14.63692251211904
 20
-9.866248018244592
 30
0.0
 10
14.58874360478793
 20
-9.388560134480352
 30
0.0
  0
SPLINE
  5
199
330
1F
100
AcDbEntity
  8
외형선
  6
Continuous
 62
     1
370
    15
100
AcDbSpline
210
0.0
220
0.0
230
1.0
 70
     8
 71
     3
 72
     8
 73
     4
 74
     0
 42
0.000000001
 43
0.00000001
 40
0.0
 40
0.0
 40
0.0
 40
0.0
 40
1.0
 40
1.0
 40
1.0
 40
1.0
 10
15.57716261467786
 20
-12.53510483195766
 30
0.0
 10
15.45559082483994
 20
-12.62389917043175
 30
0.0
 10
15.3067963498591
 20
-12.66959241887173
 30
0.0
 10
15.1538228391304
 20
-12.66548320318637
 30
0.0
  0
SPLINE
  5
19A
330
1F
100
AcDbEntity
  8
외형선
  6
Continuous
 62
     1
370
    15
100
AcDbSpline
210
0.0
220
0.0
230
1.0
 70
     8
 71
     3
 72
    12
 73
     8
 74
     0
 42
0.000000001
 43
0.00000001
 40
0.0
 40
0.0
 40
0.0
 40
0.0
 40
0.4999999999999998
 40
0.4999999999999998
 40
0.75
 40
0.75
 40
1.0
 40
1.0
 40
1.0
 40
1.0
 10
15.57716261459142
 20
-12.53510483188198
 30
0.0
 10
15.48075921760054
 20
-12.45070005529947
 30
0.0
 10
15.38247871709392
 20
-12.12322436959073
 30
0.0
 10
15.24419140501608
 20
-11.3222367692813
 30
0.0
 10
15.19972902940224
 20
-11.00624859122548
 30
0.0
 10
15.10595573262821
 20
-10.26480723800343
 30
0.0
 10
15.05783153761161
 20
-9.841316025820378
 30
0.0
 10
15.00945717360196
 20
-9.372428677938242
 30
0.0
  0
SPLINE
  5
19B
330
1F
100
AcDbEntity
  8
외형선
  6
Continuous
 62
     1
370
    15
100
AcDbSpline
210
0.0
220
0.0
230
1.0
 70
     8
 71
     3
 72
    10
 73
     6
 74
     0
 42
0.000000001
 43
0.00000001
 40
0.0
 40
0.0
 40
0.0
 40
0.0
 40
0.3220431718731351
 40
0.6913998317752315
 40
1.0
 40
1.0
 40
1.0
 40
1.0
 10
16.8172142479701
 20
-12.33208921805006
 30
0.0
 10
16.67736876723793
 20
-12.30153018946478
 30
0.0
 10
16.37713218314781
 20
-12.23592250369962
 30
0.0
 10
15.93879288734658
 20
-12.31729718086493
 30
0.0
 10
15.69028244799053
 20
-12.46697346396127
 30
0.0
 10
15.57716261467786
 20
-12.53510483195767
 30
0.0
  0
SPLINE
  5
19D
330
1F
100
AcDbEntity
  8
외형선
  6
Continuous
 62
     1
370
    15
100
AcDbSpline
210
0.0
220
0.0
230
1.0
 70
     8
 71
     3
 72
    12
 73
     8
 74
     0
 42
0.000000001
 43
0.00000001
 40
0.0
 40
0.0
 40
0.0
 40
0.0
 40
0.5
 40
0.5
 40
0.75
 40
0.75
 40
1.0
 40
1.0
 40
1.0
 40
1.0
 10
17.68564841720384
 20
-12.69992464911671
 30
0.0
 10
17.5906030802843
 20
-12.69844174077939
 30
0.0
 10
17.49224051515505
 20
-12.45483520358866
 30
0.0
 10
17.35171765325471
 20
-11.76082559945835
 30
0.0
 10
17.30719380773572
 20
-11.47900768743215
 30
0.0
 10
17.21586403382787
 20
-10.81070203376771
 30
0.0
 10
17.16864758407034
 20
-10.42211170676492
 30
0.0
 10
17.12080753138845
 20
-9.984763886532646
 30
0.0
  0
LINE
  5
1A3
330
1F
100
AcDbEntity
  8
외형선
  6
Continuous
 62
     1
370
    15
100
AcDbLine
 10
33.23227249535786
 20
-12.50922396223625
 30
0.0
 11
33.22350503366751
 21
-12.49479929592236
 31
0.0
  0
LINE
  5
1A6
330
1F
100
AcDbEntity
  8
외형선
  6
Continuous
 62
     1
370
    15
100
AcDbLine
 10
39.02956056646289
 20
-12.68071883452871
 30
0.0
 11
39.0195861857969
 21
-12.68283693051451
 31
0.0
  0
SPLINE
  5
1A7
330
1F
100
AcDbEntity
  8
외형선
  6
Continuous
 62
     1
370
    15
100
AcDbSpline
210
0.0
220
0.0
230
1.0
 70
     8
 71
     3
 72
    12
 73
     8
 74
     0
 42
0.000000001
 43
0.00000001
 40
0.0
 40
0.0
 40
0.0
 40
0.0
 40
0.1746749290700481
 40
0.4145386416937408
 40
0.6513105532788476
 40
0.8884959728821082
 40
1.0
 40
1.0
 40
1.0
 40
1.0
 10
17.22962614230319
 20
-12.51205730833766
 30
0.0
 10
17.19821668171987
 20
-12.48459562066964
 30
0.0
 10
17.12367573187733
 20
-12.41942352777041
 30
0.0
 10
17.00593865807674
 20
-11.99027253346893
 30
0.0
 10
16.88219454634167
 20
-11.28692786022365
 30
0.0
 10
16.78006681612516
 20
-10.50490894269901
 30
0.0
 10
16.71752342807437
 20
-9.945289061239453
 30
0.0
 10
16.69752328266464
 20
-9.76633362962331
 30
0.0
  0
SPLINE
  5
1A8
330
1F
100
AcDbEntity
  8
외형선
  6
Continuous
 62
     1
370
    15
100
AcDbSpline
210
0.0
220
0.0
230
1.0
 70
     8
 71
     3
 72
    10
 73
     6
 74
     0
 42
0.000000001
 43
0.00000001
 40
0.0
 40
0.0
 40
0.0
 40
0.0
 40
0.2400236339217653
 40
0.6224568041668477
 40
0.9999999999999999
 40
0.9999999999999999
 40
0.9999999999999999
 40
0.9999999999999999
 10
20.54979714736945
 20
-12.62645734774467
 30
0.0
 10
20.50998697429196
 20
-12.6304477362257
 30
0.0
 10
20.40674666956755
 20
-12.64079606909904
 30
0.0
 10
20.23915859367516
 20
-11.98553197099796
 30
0.0
 10
20.1170239088008
 20
-11.06531701768382
 30
0.0
 10
20.05634949666411
 20
-10.60817004596877
 30
0.0
  0
SPLINE
  5
1AC
330
1F
100
AcDbEntity
  8
외형선
  6
Continuous
 62
     1
370
    15
100
AcDbSpline
210
0.0
220
0.0
230
1.0
 70
     8
 71
     3
 72
    11
 73
     7
 74
     0
 42
0.000000001
 43
0.00000001
 40
0.0
 40
0.0
 40
0.0
 40
0.0
 40
0.1739477080764255
 40
0.4516705992602754
 40
0.727073861480117
 40
1.0
 40
1.0
 40
1.0
 40
1.0
 10
20.99101435021062
 20
-12.50920003545121
 30
0.0
 10
20.96116229710025
 20
-12.52727186511197
 30
0.0
 10
20.88364880257584
 20
-12.57419696819538
 30
0.0
 10
20.75583551671039
 20
-12.24631493726084
 30
0.0
 10
20.61453130570256
 20
-11.60735358150816
 30
0.0
 10
20.52262020351186
 20
-10.90915938902041
 30
0.0
 10
20.47687226044305
 20
-10.56163936796077
 30
0.0
  0
SPLINE
  5
1AD
330
1F
100
AcDbEntity
  8
외형선
  6
Continuous
 62
     1
370
    15
100
AcDbSpline
210
0.0
220
0.0
230
1.0
 70
     8
 71
     3
 72
    10
 73
     6
 74
     0
 42
0.000000001
 43
0.00000001
 40
0.0
 40
0.0
 40
0.0
 40
0.0
 40
0.3004579119746015
 40
0.6526208011631669
 40
1.0
 40
1.0
 40
1.0
 40
1.0
 10
22.56786505124884
 20
-12.52116407477534
 30
0.0
 10
22.52677241233089
 20
-12.47649324263091
 30
0.0
 10
22.43751561507665
 20
-12.37946429747472
 30
0.0
 10
22.30111253578392
 20
-11.82850984444124
 30
0.0
 10
22.20946943405023
 20
-11.19337479503071
 30
0.0
 10
22.16396122546048
 20
-10.87797889763702
 30
0.0
  0
SPLINE
  5
1AF
330
1F
100
AcDbEntity
  8
외형선
  6
Continuous
 62
     1
370
    15
100
AcDbSpline
210
0.0
220
0.0
230
1.0
 70
     8
 71
     3
 72
    11
 73
     7
 74
     0
 42
0.000000001
 43
0.00000001
 40
0.0
 40
0.0
 40
0.0
 40
0.0
 40
0.0192853323874134
 40
0.3484278443612231
 40
0.6765174022024627
 40
1.0
 40
1.0
 40
1.0
 40
1.0
 10
23.01940875557763
 20
-12.69022457098095
 30
0.0
 10
23.016652697753
 20
-12.69341532290077
 30
0.0
 10
22.96685903760299
 20
-12.75106259550066
 30
0.0
 10
22.86658600664591
 20
-12.53041079241735
 30
0.0
 10
22.72369861880716
 20
-12.03041689051293
 30
0.0
 10
22.63231793645833
 20
-11.39981793351986
 30
0.0
 10
22.58695065018173
 20
-11.08674778923699
 30
0.0
  0
SPLINE
  5
1B0
330
1F
100
AcDbEntity
  8
외형선
  6
Continuous
 62
     1
370
    15
100
AcDbSpline
210
0.0
220
0.0
230
1.0
 70
     8
 71
     3
 72
    10
 73
     6
 74
     0
 42
0.000000001
 43
0.00000001
 40
0.0
 40
0.0
 40
0.0
 40
0.0
 40
0.0575140665761511
 40
0.5307996590823129
 40
1.0
 40
1.0
 40
1.0
 40
1.0
 10
25.88326361924006
 20
-12.67286705868
 30
0.0
 10
25.87640952737257
 20
-12.6815671605174
 30
0.0
 10
25.81315283482477
 20
-12.76186075414043
 30
0.0
 10
25.68840336978668
 20
-12.45513446948533
 30
0.0
 10
25.57612091199077
 20
-11.8625846799216
 30
0.0
 10
25.52022303000803
 20
-11.56759400322895
 30
0.0
  0
SPLINE
  5
1B1
330
1F
100
AcDbEntity
  8
외형선
  6
Continuous
 62
     1
370
    15
100
AcDbSpline
210
0.0
220
0.0
230
1.0
 70
     8
 71
     3
 72
    11
 73
     7
 74
     0
 42
0.000000001
 43
0.00000001
 40
0.0
 40
0.0
 40
0.0
 40
0.0
 40
0.0428781927558538
 40
0.3626169933827559
 40
0.6828290982614746
 40
1.0
 40
1.0
 40
1.0
 40
1.0
 10
26.3359776994149
 20
-12.52747068406
 30
0.0
 10
26.33044430065576
 20
-12.5365298879035
 30
0.0
 10
26.28364884841607
 20
-12.61314275446897
 30
0.0
 10
26.19207616140709
 20
-12.49370478572769
 30
0.0
 10
26.06444161921679
 20
-12.17013247941192
 30
0.0
 10
25.9817099007765
 20
-11.71733866892498
 30
0.0
 10
25.94054141421873
 20
-11.49202199169514
 30
0.0
  0
SPLINE
  5
1B2
330
1F
100
AcDbEntity
  8
외형선
  6
Continuous
 62
     1
370
    15
100
AcDbSpline
210
0.0
220
0.0
230
1.0
 70
     8
 71
     3
 72
     9
 73
     5
 74
     0
 42
0.000000001
 43
0.00000001
 40
0.0
 40
0.0
 40
0.0
 40
0.0
 40
0.4241323341753077
 40
1.0
 40
1.0
 40
1.0
 40
1.0
 10
27.89595739981751
 20
-12.49984336194116
 30
0.0
 10
27.85771614732591
 20
-12.46785111617931
 30
0.0
 10
27.76755265491974
 20
-12.39242124869687
 30
0.0
 10
27.67851229212534
 20
-11.96763614490071
 30
0.0
 10
27.62723682623877
 20
-11.72301613870052
 30
0.0
  0
SPLINE
  5
1B3
330
1F
100
AcDbEntity
  8
외형선
  6
Continuous
 62
     1
370
    15
100
AcDbSpline
210
0.0
220
0.0
230
1.0
 70
     8
 71
     3
 72
    10
 73
     6
 74
     0
 42
0.000000001
 43
0.00000001
 40
0.0
 40
0.0
 40
0.0
 40
0.0
 40
0.0003451620145971
 40
0.5009964701480087
 40
1.0
 40
1.0
 40
1.0
 40
1.0
 10
28.35318081571086
 20
-12.69979695028707
 30
0.0
 10
28.35314670084921
 20
-12.69984185990317
 30
0.0
 10
28.30362959135758
 20
-12.76502736175954
 30
0.0
 10
28.20030004182024
 20
-12.55726631530898
 30
0.0
 10
28.10023882439045
 20
-12.12998721540136
 30
0.0
 10
28.05029068349079
 20
-11.91669981760757
 30
0.0
  0
SPLINE
  5
1B4
330
1F
100
AcDbEntity
  8
외형선
  6
Continuous
 62
     1
370
    15
100
AcDbSpline
210
0.0
220
0.0
230
1.0
 70
     8
 71
     3
 72
     9
 73
     5
 74
     0
 42
0.000000001
 43
0.00000001
 40
0.0
 40
0.0
 40
0.0
 40
0.0
 40
0.1708296289282653
 40
1.0
 40
1.0
 40
1.0
 40
1.0
 10
31.21626072306844
 20
-12.64913786543723
 30
0.0
 10
31.20337877580982
 20
-12.6652527939699
 30
0.0
 10
31.12797062009673
 20
-12.75958612849612
 30
0.0
 10
31.05019440066769
 20
-12.47765817746892
 30
0.0
 10
30.98570466394311
 20
-12.2438918737002
 30
0.0
  0
SPLINE
  5
1B5
330
1F
100
AcDbEntity
  8
외형선
  6
Continuous
 62
     1
370
    15
100
AcDbSpline
210
0.0
220
0.0
230
1.0
 70
     8
 71
     3
 72
    10
 73
     6
 74
     0
 42
0.000000001
 43
0.00000001
 40
0.0
 40
0.0
 40
0.0
 40
0.0
 40
0.0537857758871041
 40
0.5264373655462362
 40
1.0
 40
1.0
 40
1.0
 40
1.0
 10
31.66921972124533
 20
-12.53020647053382
 30
0.0
 10
31.66463015549527
 20
-12.53771974405104
 30
0.0
 10
31.61970900557008
 20
-12.61125717754158
 30
0.0
 10
31.53090416013094
 20
-12.51776192096585
 30
0.0
 10
31.44787720932015
 20
-12.26686344175386
 30
0.0
 10
31.40632376343584
 20
-12.14129341567708
 30
0.0
  0
LINE
  5
1B6
330
1F
100
AcDbEntity
  8
외형선
  6
Continuous
 62
     1
370
    15
100
AcDbLine
 10
33.22350503366751
 20
-12.49479929592236
 30
0.0
 11
33.09414578538175
 21
-12.28197099315441
 31
0.0
  0
SPLINE
  5
1B7
330
1F
100
AcDbEntity
  8
외형선
  6
Continuous
 62
     1
370
    15
100
AcDbSpline
210
0.0
220
0.0
230
1.0
 70
     8
 71
     3
 72
     9
 73
     5
 74
     0
 42
0.000000001
 43
0.00000001
 40
0.0
 40
0.0
 40
0.0
 40
0.0
 40
0.0480597481368499
 40
1.0
 40
1.0
 40
1.0
 40
1.0
 10
33.68600129949284
 20
-12.68949570643335
 30
0.0
 10
33.68336383342411
 20
-12.69294844267205
 30
0.0
 10
33.62848493432571
 20
-12.76479102139025
 30
0.0
 10
33.57159939701882
 20
-12.60656048182491
 30
0.0
 10
33.51744776430751
 20
-12.45593446213864
 30
0.0
  0
LINE
  5
1B8
330
1F
100
AcDbEntity
  8
외형선
  6
Continuous
 62
     1
370
    15
100
AcDbLine
 10
36.55011135953612
 20
-12.67711806222932
 30
0.0
 11
36.45391926990637
 21
-12.6202217114476
 31
0.0
  0
SPLINE
  5
1B9
330
1F
100
AcDbEntity
  8
외형선
  6
Continuous
 62
     1
370
    15
100
AcDbSpline
210
0.0
220
0.0
230
1.0
 70
     8
 71
     3
 72
     9
 73
     5
 74
     0
 42
0.000000001
 43
0.00000001
 40
0.0
 40
0.0
 40
0.0
 40
0.0
 40
0.0669520905646201
 40
1.0
 40
1.0
 40
1.0
 40
1.0
 10
37.00200590072722
 20
-12.53573295518915
 30
0.0
 10
36.99922991877463
 20
-12.54033233311897
 30
0.0
 10
36.95776770408957
 20
-12.60902888749151
 30
0.0
 10
36.91475820935923
 20
-12.54903497427765
 30
0.0
 10
36.87462829021521
 20
-12.4930577789746
 30
0.0
  0
LINE
  5
1BA
330
1F
100
AcDbEntity
  8
외형선
  6
Continuous
 62
     1
370
    15
100
AcDbLine
 10
39.0195861857969
 20
-12.68283693051451
 30
0.0
 11
38.98587411216553
 21
-12.68999581187495
 31
0.0
  0
LINE
  5
1BB
330
1F
100
AcDbEntity
  8
중심선
100
AcDbLine
 10
-52.15000000000002
 20
-0.0000000000000082
 30
0.0
 11
64.44995694470597
 21
0.0000000000000061
 31
0.0
  0
LINE
  5
1BC
330
1F
100
AcDbEntity
  8
참조1
100
AcDbLine
 10
24.70000000000001
 20
-0.3168705809327379
 30
0.0
 11
24.70000000000002
 21
-40.31687058093273
 31
0.0
  0
LINE
  5
1BD
330
1F
100
AcDbEntity
  8
참조1
100
AcDbLine
 10
4.496392344803526
 20
-4.762499999999997
 30
0.0
 11
72.638972688396
 21
-4.762499999999997
 31
0.0
  0
LINE
  5
1BE
330
1F
100
AcDbEntity
  8
참조1
100
AcDbLine
 10
72.638972688396
 20
-4.762499999999997
 30
0.0
 11
72.638972688396
 21
-6.927248606176847
 31
0.0
  0
LINE
  5
1BF
330
1F
100
AcDbEntity
  8
참조1
100
AcDbLine
 10
24.70000000000002
 20
-40.31687058093273
 30
0.0
 11
0.0289501927342979
 21
-40.31687058093273
 31
0.0
  0
CIRCLE
  5
1C0
330
1F
100
AcDbEntity
  8
해칭선
100
AcDbCircle
 10
0.0
 20
0.0
 30
0.0
 40
5.999967708529439
  0
INSERT
  5
1C1
330
1F
100
AcDbEntity
  8
0
  6
Continuous
 62
     7
100
AcDbBlockReference
 66
     1
  2
블럭10
 10
10.7597270678748
 20
-52.36404488257666
 30
0.0
  0
ATTRIB
  5
1C2
330
1C1
100
AcDbEntity
  8
FORMAT
 62
     2
100
AcDbText
 10
0.6180910557381765
 20
-50.28867796974446
 30
0.0
 40
4.233333333333333
  1
E5E45064 [ 3 FLUTE ]
 41
0.75
  7
SLDTEXTSTYLE0
 11
0.6180910557381765
 21
-52.40534463641113
 31
0.0
100
AcDbAttribute
  2
AUTOATTR0
 70
     0
 74
     1
  0
SEQEND
  5
1C3
330
1C1
100
AcDbEntity
  8
0
  6
Continuous
 62
     7
  0
HATCH
  5
1C4
330
1F
100
AcDbEntity
  8
중심선
100
AcDbHatch
 10
0.0
 20
0.0
 30
0.0
210
0.0
220
0.0
230
1.0
  2
SOLID
 70
     1
 71
     0
 91
        1
 92
        0
 93
        4
 72
     1
 10
16.47463637225566
 20
-36.11687058093274
 11
13.02836112841837
 21
-36.11687058093274
 72
     1
 10
13.02836112841837
 20
-36.11687058093274
 11
10.90013126921435
 21
-38.65319616150533
 72
     1
 10
10.90013126921435
 20
-38.65319616150532
 11
14.34643959816478
 21
-38.65315673220283
 72
     1
 10
14.34643959816478
 20
-38.65315673220283
 11
16.47463637225566
 21
-36.11687058093273
 97
        0
 75
     0
 76
     1
 98
        1
 10
24.22499999999999
 20
-0.3168705809327345
  0
HATCH
  5
1C5
330
1F
100
AcDbEntity
  8
중심선
100
AcDbHatch
 10
0.0
 20
0.0
 30
0.0
210
0.0
220
0.0
230
1.0
  2
SOLID
 70
     1
 71
     0
 91
        1
 92
        0
 93
        4
 72
     1
 10
21.48740036329163
 20
-36.11687058093274
 11
18.04112511945435
 21
-36.11687058093274
 72
     1
 10
18.04112511945435
 20
-36.11687058093274
 11
13.50998711109694
 21
-41.51687058093276
 72
     1
 10
13.50998711109694
 20
-41.51687058093276
 11
16.95626235493422
 21
-41.51687058093276
 72
     1
 10
16.95626235493422
 20
-41.51687058093276
 11
21.48740036329163
 21
-36.11687058093274
 97
        0
 75
     0
 76
     1
 98
        1
 10
24.22499999999999
 20
-0.3168705809327345
  0
HATCH
  5
1C6
330
1F
100
AcDbEntity
  8
중심선
100
AcDbHatch
 10
0.0
 20
0.0
 30
0.0
210
0.0
220
0.0
230
1.0
  2
SOLID
 70
     1
 71
     0
 91
        1
 92
        0
 93
        4
 72
     1
 10
26.50016435432756
 20
-36.1168705809327
 11
23.05388911049039
 21
-36.11687058093273
 72
     1
 10
23.05388911049039
 20
-36.11687058093274
 11
16.00545220860114
 21
-44.51687058093276
 72
     1
 10
16.00545220860114
 20
-44.51687058093276
 11
19.45172745243842
 21
-44.51687058093276
 72
     1
 10
19.45172745243842
 20
-44.51687058093276
 11
26.50016435432756
 21
-36.11687058093271
 97
        0
 75
     0
 76
     1
 98
        1
 10
24.22499999999999
 20
-0.3168705809327345
  0
HATCH
  5
1C7
330
1F
100
AcDbEntity
  8
중심선
100
AcDbHatch
 10
0.0
 20
0.0
 30
0.0
210
0.0
220
0.0
230
1.0
  2
SOLID
 70
     1
 71
     0
 91
        1
 92
        0
 93
        6
 72
     3
 10
31.30005478533971
 20
-40.316870580984
 11
3.96005478506228
 21
1.540882976769353E-10
 40
0.3939339440162632
 50
17.09539180608441
 51
320.0019657685082
 73
     0
 72
     1
 10
32.98305444104028
 20
-38.90476458557106
 11
35.28835631474137
 21
-36.97043787552311
 72
     3
 10
31.30005478528686
 20
-40.31687058093289
 11
6.600054785286826
 21
-1.278976924368180E-13
 40
0.6363583540795983
 50
39.99873849337383
 51
368.4976242363722
 73
     1
 72
     1
 10
37.72538727718747
 20
-39.35687058086275
 11
29.98012209212278
 21
-39.35687058086275
 72
     1
 10
29.98012209212278
 20
-39.35687058086275
 11
29.98009704767685
 21
-41.27687058086264
 72
     1
 10
29.98009704767685
 20
-41.27687058086265
 11
34.42147681714889
 21
-41.27687058086261
 97
        0
 75
     0
 76
     1
 98
        1
 10
24.22499999999999
 20
-0.3168705809327345
  0
POINT
  5
1C8
330
1F
100
AcDbEntity
  8
치수문자_일반주서
100
AcDbPoint
 10
-29.48287084771578
 20
-0.8449836681686166
 30
0.0
  0
DIMENSION
  5
1C9
330
1F
100
AcDbEntity
  8
치수문자_일반주서
100
AcDbDimension
  2
_D
 10
81.61881438407619
 20
-12.69993164972051
 30
0.0
 11
81.61881438407605
 21
30.1331294366153
 31
0.0
 70
   160
  1
%%c<>
 71
     2
 42
25.39986329944125
 52
-270.0
  3
SLDDIMSTYLE0
100
AcDbAlignedDimension
 13
56.45
 23
12.69993164972064
 33
0.0
 14
56.45
 24
-12.69993164972061
 34
0.0
 50
90.0000000000002
100
AcDbRotatedDimension
1001
ACAD
1000
DSTYLE
1002
{
1070
   171
1070
     5
1070
   273
1070
     7
1002
}
  0
DIMENSION
  5
1DC
330
1F
100
AcDbEntity
  8
치수문자_일반주서
100
AcDbDimension
  2
_D_1
 10
-67.69293389445025
 20
-12.69993164972074
 30
0.0
 11
-67.69293389445028
 21
-2.478893904774293
 31
0.0
 70
   160
  1
%%c<>
 71
     2
 42
25.39986329944124
 52
-270.0
  3
SLDDIMSTYLE1
100
AcDbAlignedDimension
 13
-42.42084768509804
 23
12.69993164972059
 33
0.0
 14
-42.42084768509802
 24
-12.69993164972064
 34
0.0
 50
90.0000000000002
100
AcDbRotatedDimension
1001
ACAD
1000
DSTYLE
1002
{
1070
   171
1070
     5
1070
   273
1070
     7
1002
}
  0
DIMENSION
  5
1F1
330
1F
100
AcDbEntity
  8
치수문자_일반주서
100
AcDbDimension
  2
_D_2
 10
12.0
 20
33.38897607849717
 30
0.0
 11
34.22499999999999
 21
33.38897607849717
 31
0.0
 70
   160
  1
<>
 71
     2
 42
44.45
  3
SLDDIMSTYLE0
100
AcDbAlignedDimension
 13
56.45
 23
8.223256093301098
 33
0.0
 14
12.0
 24
12.69993164972064
 34
0.0
 50
0.0000000000000092
100
AcDbRotatedDimension
1001
ACAD
1000
DSTYLE
1002
{
1070
   171
1070
     5
1070
   273
1070
     7
1002
}
  0
DIMENSION
  5
205
330
1F
100
AcDbEntity
  8
치수문자_일반주서
100
AcDbDimension
  2
_D_3
 10
-45.15
 20
44.54660986556378
 30
0.0
 11
5.649999999999999
 21
44.54660986556378
 31
0.0
 70
   160
  1
<>
 71
     2
 42
101.6
  3
SLDDIMSTYLE2
100
AcDbAlignedDimension
 13
56.45
 23
9.67265481427537
 33
0.0
 14
-45.15
 24
10.03327933481864
 34
0.0
100
AcDbRotatedDimension
1001
ACAD
1000
DSTYLE
1002
{
1070
   171
1070
     5
1070
   273
1070
     7
1002
}
  0
LINE
  5
219
330
1F
100
AcDbEntity
  8
참조1
100
AcDbLine
 10
98.00129082238857
 20
7.123129419067268
 30
0.0
 11
98.00129082238857
 21
-7.756870580932737
 31
0.0
  0
LINE
  5
21A
330
1F
100
AcDbEntity
  8
참조1
100
AcDbLine
 10
110.7012908223886
 20
5.123129419067268
 30
0.0
 11
98.00129082238857
 21
5.123129419067268
 31
0.0
  0
SOLID
  5
21B
330
1F
100
AcDbEntity
  8
참조1
100
AcDbTrace
 10
98.00129082238857
 20
5.123129419067268
 30
0.0
 11
104.3512908223886
 21
4.107129419067268
 31
0.0
 12
104.3512908223886
 22
6.139129419067268
 32
0.0
 13
104.3512908223886
 23
6.139129419067268
 33
0.0
  0
LINE
  5
21C
330
1F
100
AcDbEntity
  8
참조1
100
AcDbLine
 10
110.7012908223886
 20
-5.756870580932737
 30
0.0
 11
98.00129082238857
 21
-5.756870580932737
 31
0.0
  0
SOLID
  5
21D
330
1F
100
AcDbEntity
  8
참조1
100
AcDbTrace
 10
98.00129082238857
 20
-5.756870580932737
 30
0.0
 11
104.3512908223886
 21
-6.772870580932737
 31
0.0
 12
104.3512908223886
 22
-4.740870580932737
 32
0.0
 13
104.3512908223886
 23
-4.740870580932737
 33
0.0
  0
MTEXT
  5
21E
330
1F
100
AcDbEntity
  8
참조1
100
AcDbMText
 10
107.6014056329511
 20
10.74884698508335
 30
0.0
 40
3.5
 41
0.0
 71
     1
 72
     1
  1
A
  7
SLDTEXTSTYLE0
 73
     1
 44
1.0
  0
MTEXT
  5
21F
330
1F
100
AcDbEntity
  8
참조1
100
AcDbMText
 10
107.6014056329511
 20
-0.1311530149166609
 30
0.0
 40
3.5
 41
0.0
 71
     1
 72
     1
  1
A
  7
SLDTEXTSTYLE0
 73
     1
 44
1.0
  0
INSERT
  5
226
330
1F
100
AcDbEntity
  8
해칭선
100
AcDbBlockReference
  2
SW_DOWELSYMBOL_0
 10
0.0
 20
0.0
 30
0.0
 41
1.999989236176476
 42
1.999989236176476
 43
1.999989236176476
  0
ARC
  5
272
330
1F
100
AcDbEntity
  8
외형선
  6
Continuous
 62
     1
370
    15
100
AcDbCircle
 10
43.75006835027939
 20
0.0000000000000042
 30
0.0
 40
12.69993164972061
100
AcDbArc
 50
270.0
 51
90.0
  0
LINE
  5
273
330
1F
100
AcDbEntity
  8
0
100
AcDbLine
 10
56.45
 20
12.69993164972064
 30
0.0
 11
56.45
 21
26.3816913974702
 31
0.0
  0
SPLINE
  5
275
330
1F
100
AcDbEntity
  8
외형선
  6
Continuous
 62
     1
370
    15
100
AcDbSpline
210
0.0
220
0.0
230
1.0
 70
  1064
 71
     3
 72
     9
 73
     5
 74
     3
 42
0.000000001
 43
0.0000000001
 44
0.0
 40
0.0
 40
0.0
 40
0.0
 40
0.0
 40
5.029392458352039
 40
12.7228490461705
 40
12.7228490461705
 40
12.7228490461705
 40
12.7228490461705
 10
46.84118749224979
 20
4.12834380841575
 30
0.0
 10
48.71415351685351
 20
5.025293434514547
 30
0.0
 10
53.45219378652203
 20
7.294306002011275
 30
0.0
 10
48.69546660506913
 20
10.66293499634891
 30
0.0
 10
45.81909245822509
 20
12.69993164972064
 30
0.0
 11
46.84118749224979
 21
4.12834380841575
 31
0.0
 11
50.97638372367567
 21
6.991024480046713
 31
0.0
 11
45.81909245822509
 21
12.69993164972064
 31
0.0
  0
LINE
  5
2FF
330
1F
100
AcDbEntity
  8
외형선
  6
Continuous
370
    15
100
AcDbLine
 10
12.0
 20
12.69993164972064
 30
0.0
 11
12.0
 21
-12.69993164972064
 31
0.0
  0
ENDSEC
  0
SECTION
  2
OBJECTS
  0
DICTIONARY
  5
C
330
0
100
AcDbDictionary
281
     1
  3
ACAD_DETAILVIEWSTYLE
350
27E
  3
ACAD_GROUP
350
D
  3
ACAD_IMAGE_VARS
350
24A
  3
ACAD_LAYOUT
350
1A
  3
ACAD_MLINESTYLE
350
17
  3
ACAD_PLOTSETTINGS
350
19
  3
ACAD_PLOTSTYLENAME
350
E
  3
ACAD_SCALELIST
350
47
  3
ACAD_SECTIONVIEWSTYLE
350
27F
  3
AcDbVariableDictionary
350
279
  3
APPDATA
350
248
  3
DWGPROPS
350
303
  0
DICTIONARY
  5
27E
102
{ACAD_REACTORS
330
C
102
}
330
C
100
AcDbDictionary
281
     1
  0
DICTIONARY
  5
D
102
{ACAD_REACTORS
330
C
102
}
330
C
100
AcDbDictionary
281
     1
  0
RASTERVARIABLES
  5
24A
102
{ACAD_REACTORS
330
C
102
}
330
C
100
AcDbRasterVariables
 90
        0
 70
     1
 71
     1
 72
     1
  0
DICTIONARY
  5
1A
102
{ACAD_REACTORS
330
C
102
}
330
C
100
AcDbDictionary
281
     1
  3
Layout1
350
1E
  3
Layout2
350
26
  3
Model
350
22
  0
DICTIONARY
  5
17
102
{ACAD_REACTORS
330
C
102
}
330
C
100
AcDbDictionary
281
     1
  3
Standard
350
18
  0
DICTIONARY
  5
19
102
{ACAD_REACTORS
330
C
102
}
330
C
100
AcDbDictionary
281
     1
  0
ACDBDICTIONARYWDFLT
  5
E
102
{ACAD_REACTORS
330
C
102
}
330
C
100
AcDbDictionary
281
     1
  3
Normal
350
F
100
AcDbDictionaryWithDefault
340
F
  0
DICTIONARY
  5
47
102
{ACAD_REACTORS
330
C
102
}
330
C
100
AcDbDictionary
281
     1
  3
A0
350
48
  3
A1
350
49
  3
A2
350
4A
  3
A3
350
4B
  3
A4
350
4C
  3
A5
350
4D
  3
A6
350
4E
  3
A7
350
4F
  3
A8
350
50
  3
A9
350
51
  3
B0
350
52
  3
B1
350
53
  3
B2
350
54
  3
B3
350
55
  3
B4
350
56
  3
B5
350
57
  3
B6
350
58
  3
B7
350
59
  3
B8
350
5A
  3
B9
350
5B
  3
C0
350
5C
  3
C1
350
5D
  3
C2
350
5E
  3
C3
350
5F
  3
C4
350
60
  3
C5
350
61
  3
C6
350
62
  3
C7
350
63
  3
C8
350
64
  3
C9
350
65
  3
D0
350
66
  3
D1
350
67
  3
D2
350
68
  0
DICTIONARY
  5
27F
102
{ACAD_REACTORS
330
C
102
}
330
C
100
AcDbDictionary
281
     1
  0
DICTIONARY
  5
279
102
{ACAD_REACTORS
330
C
102
}
330
C
100
AcDbDictionary
281
     1
  0
DICTIONARY
  5
248
102
{ACAD_REACTORS
330
C
102
}
330
C
100
AcDbDictionary
281
     1
  0
XRECORD
  5
303
102
{ACAD_REACTORS
330
C
102
}
330
C
100
AcDbXrecord
280
     1
  1
DWGPROPS COOKIE
  2

  3

  4

  6

  7

  8
12016016
  9

300
=
301
=
302
=
303
=
304
=
305
=
306
=
307
=
308
=
309
=
 40
0.0
 41
2458298.975895243
 42
2458311.323523368
  1

 90
        0
  0
LAYOUT
  5
1E
102
{ACAD_REACTORS
330
1A
102
}
330
1A
100
AcDbPlotSettings
  1

  2
none_device
  4

  6

 40
0.0
 41
0.0
 42
0.0
 43
0.0
 44
0.0
 45
0.0
 46
0.0
 47
0.0
 48
0.0
 49
0.0
140
0.0
141
0.0
142
1.0
143
1.0
 70
   688
 72
     1
 73
     0
 74
     5
  7

 75
    16
147
1.0
148
0.0
149
0.0
100
AcDbLayout
  1
Layout1
 70
     1
 71
     1
 10
0.0
 20
0.0
 11
420.0
 21
297.0
 12
0.0
 22
0.0
 32
0.0
 14
1.000000000000000E+20
 24
1.000000000000000E+20
 34
1.000000000000000E+20
 15
-1.000000000000000E+20
 25
-1.000000000000000E+20
 35
-1.000000000000000E+20
146
0.0
 13
0.0
 23
0.0
 33
0.0
 16
1.0
 26
0.0
 36
0.0
 17
0.0
 27
1.0
 37
0.0
 76
     0
330
1B
  0
LAYOUT
  5
26
102
{ACAD_REACTORS
330
1A
102
}
330
1A
100
AcDbPlotSettings
  1

  2
none_device
  4

  6

 40
0.0
 41
0.0
 42
0.0
 43
0.0
 44
0.0
 45
0.0
 46
0.0
 47
0.0
 48
0.0
 49
0.0
140
0.0
141
0.0
142
1.0
143
1.0
 70
   688
 72
     1
 73
     0
 74
     5
  7

 75
    16
147
1.0
148
0.0
149
0.0
100
AcDbLayout
  1
Layout2
 70
     1
 71
     2
 10
0.0
 20
0.0
 11
0.0
 21
0.0
 12
0.0
 22
0.0
 32
0.0
 14
0.0
 24
0.0
 34
0.0
 15
0.0
 25
0.0
 35
0.0
146
0.0
 13
0.0
 23
0.0
 33
0.0
 16
1.0
 26
0.0
 36
0.0
 17
0.0
 27
1.0
 37
0.0
 76
     0
330
23
  0
LAYOUT
  5
22
102
{ACAD_REACTORS
330
1A
102
}
330
1A
100
AcDbPlotSettings
  1

  2
none_device
  4
ANSI_A_(11.00_x_8.50_Inches)
  6

 40
6.35
 41
19.05
 42
6.35000508
 43
19.05000254
 44
279.4
 45
215.9
 46
98.76438513735204
 47
90.88064147516121
 48
0.0
 49
0.0
140
0.0
141
0.0
142
0.0787110341538491
143
1.0
 70
  1696
 72
     0
 73
     0
 74
     0
  7

 75
     0
147
0.0235690232323232
148
0.0
149
0.0
100
AcDbLayout
  1
Model
 70
     1
 71
     0
 10
0.0
 20
0.0
 11
420.0
 21
297.0
 12
0.0
 22
0.0
 32
0.0
 14
-72.0679338944503
 24
-50.28867796974447
 34
0.0
 15
110.7012908223886
 25
48.92160986556378
 35
0.0
146
0.0
 13
0.0
 23
0.0
 33
0.0
 16
1.0
 26
0.0
 36
0.0
 17
0.0
 27
1.0
 37
0.0
 76
     0
330
1F
331
29
  0
MLINESTYLE
  5
18
102
{ACAD_REACTORS
330
17
102
}
330
17
100
AcDbMlineStyle
  2
Standard
 70
     0
  3

 62
   256
 51
90.0
 52
90.0
 71
     2
 49
0.5
 62
   256
  6
BYLAYER
 49
-0.5
 62
   256
  6
BYLAYER
  0
ACDBPLACEHOLDER
  5
F
102
{ACAD_REACTORS
330
E
102
}
330
E
  0
SCALE
  5
48
102
{ACAD_REACTORS
330
47
102
}
330
47
100
AcDbScale
 70
     0
300
1:1
140
1.0
141
1.0
290
     1
  0
SCALE
  5
49
102
{ACAD_REACTORS
330
47
102
}
330
47
100
AcDbScale
 70
     0
300
1:2
140
1.0
141
2.0
290
     0
  0
SCALE
  5
4A
102
{ACAD_REACTORS
330
47
102
}
330
47
100
AcDbScale
 70
     0
300
1:4
140
1.0
141
4.0
290
     0
  0
SCALE
  5
4B
102
{ACAD_REACTORS
330
47
102
}
330
47
100
AcDbScale
 70
     0
300
1:5
140
1.0
141
5.0
290
     0
  0
SCALE
  5
4C
102
{ACAD_REACTORS
330
47
102
}
330
47
100
AcDbScale
 70
     0
300
1:8
140
1.0
141
8.0
290
     0
  0
SCALE
  5
4D
102
{ACAD_REACTORS
330
47
102
}
330
47
100
AcDbScale
 70
     0
300
1:10
140
1.0
141
10.0
290
     0
  0
SCALE
  5
4E
102
{ACAD_REACTORS
330
47
102
}
330
47
100
AcDbScale
 70
     0
300
1:16
140
1.0
141
16.0
290
     0
  0
SCALE
  5
4F
102
{ACAD_REACTORS
330
47
102
}
330
47
100
AcDbScale
 70
     0
300
1:20
140
1.0
141
20.0
290
     0
  0
SCALE
  5
50
102
{ACAD_REACTORS
330
47
102
}
330
47
100
AcDbScale
 70
     0
300
1:30
140
1.0
141
30.0
290
     0
  0
SCALE
  5
51
102
{ACAD_REACTORS
330
47
102
}
330
47
100
AcDbScale
 70
     0
300
1:40
140
1.0
141
40.0
290
     0
  0
SCALE
  5
52
102
{ACAD_REACTORS
330
47
102
}
330
47
100
AcDbScale
 70
     0
300
1:50
140
1.0
141
50.0
290
     0
  0
SCALE
  5
53
102
{ACAD_REACTORS
330
47
102
}
330
47
100
AcDbScale
 70
     0
300
1:100
140
1.0
141
100.0
290
     0
  0
SCALE
  5
54
102
{ACAD_REACTORS
330
47
102
}
330
47
100
AcDbScale
 70
     0
300
2:1
140
2.0
141
1.0
290
     0
  0
SCALE
  5
55
102
{ACAD_REACTORS
330
47
102
}
330
47
100
AcDbScale
 70
     0
300
4:1
140
4.0
141
1.0
290
     0
  0
SCALE
  5
56
102
{ACAD_REACTORS
330
47
102
}
330
47
100
AcDbScale
 70
     0
300
8:1
140
8.0
141
1.0
290
     0
  0
SCALE
  5
57
102
{ACAD_REACTORS
330
47
102
}
330
47
100
AcDbScale
 70
     0
300
10:1
140
10.0
141
1.0
290
     0
  0
SCALE
  5
58
102
{ACAD_REACTORS
330
47
102
}
330
47
100
AcDbScale
 70
     0
300
100:1
140
100.0
141
1.0
290
     0
  0
SCALE
  5
59
102
{ACAD_REACTORS
330
47
102
}
330
47
100
AcDbScale
 70
     0
300
1/128" = 1'-0"
140
0.0078125
141
12.0
290
     0
  0
SCALE
  5
5A
102
{ACAD_REACTORS
330
47
102
}
330
47
100
AcDbScale
 70
     0
300
1/64" = 1'-0"
140
0.015625
141
12.0
290
     0
  0
SCALE
  5
5B
102
{ACAD_REACTORS
330
47
102
}
330
47
100
AcDbScale
 70
     0
300
1/32" = 1'-0"
140
0.03125
141
12.0
290
     0
  0
SCALE
  5
5C
102
{ACAD_REACTORS
330
47
102
}
330
47
100
AcDbScale
 70
     0
300
1/16" = 1'-0"
140
0.0625
141
12.0
290
     0
  0
SCALE
  5
5D
102
{ACAD_REACTORS
330
47
102
}
330
47
100
AcDbScale
 70
     0
300
3/32" = 1'-0"
140
0.09375
141
12.0
290
     0
  0
SCALE
  5
5E
102
{ACAD_REACTORS
330
47
102
}
330
47
100
AcDbScale
 70
     0
300
1/8" = 1'-0"
140
0.125
141
12.0
290
     0
  0
SCALE
  5
5F
102
{ACAD_REACTORS
330
47
102
}
330
47
100
AcDbScale
 70
     0
300
3/16" = 1'-0"
140
0.1875
141
12.0
290
     0
  0
SCALE
  5
60
102
{ACAD_REACTORS
330
47
102
}
330
47
100
AcDbScale
 70
     0
300
1/4" = 1'-0"
140
0.25
141
12.0
290
     0
  0
SCALE
  5
61
102
{ACAD_REACTORS
330
47
102
}
330
47
100
AcDbScale
 70
     0
300
3/8" = 1'-0"
140
0.375
141
12.0
290
     0
  0
SCALE
  5
62
102
{ACAD_REACTORS
330
47
102
}
330
47
100
AcDbScale
 70
     0
300
1/2" = 1'-0"
140
0.5
141
12.0
290
     0
  0
SCALE
  5
63
102
{ACAD_REACTORS
330
47
102
}
330
47
100
AcDbScale
 70
     0
300
3/4" = 1'-0"
140
0.75
141
12.0
290
     0
  0
SCALE
  5
64
102
{ACAD_REACTORS
330
47
102
}
330
47
100
AcDbScale
 70
     0
300
1" = 1'-0"
140
1.0
141
12.0
290
     0
  0
SCALE
  5
65
102
{ACAD_REACTORS
330
47
102
}
330
47
100
AcDbScale
 70
     0
300
1-1/2" = 1'-0"
140
1.5
141
12.0
290
     0
  0
SCALE
  5
66
102
{ACAD_REACTORS
330
47
102
}
330
47
100
AcDbScale
 70
     0
300
3" = 1'-0"
140
3.0
141
12.0
290
     0
  0
SCALE
  5
67
102
{ACAD_REACTORS
330
47
102
}
330
47
100
AcDbScale
 70
     0
300
6" = 1'-0"
140
6.0
141
12.0
290
     0
  0
SCALE
  5
68
102
{ACAD_REACTORS
330
47
102
}
330
47
100
AcDbScale
 70
     0
300
1'-0" = 1'-0"
140
12.0
141
12.0
290
     0
  0
ENDSEC
  0
EOF
