  0
SECTION
  2
HEADER
  9
$ACADVER
  1
AC1015
  9
$ACADMAINTVER
 70
     6
  9
$DWGCODEPAGE
  3
ANSI_949
  9
$INSBASE
 10
0.0
 20
0.0
 30
0.0
  9
$EXTMIN
 10
-53.99308703700378
 20
-50.28867796974446
 30
0.0
  9
$EXTMAX
 10
81.43860615089636
 20
36.83400038050159
 30
0.0
  9
$LIMMIN
 10
0.0
 20
0.0
  9
$LIMMAX
 10
420.0
 20
297.0
  9
$ORTHOMODE
 70
     1
  9
$REGENMODE
 70
     1
  9
$FILLMODE
 70
     1
  9
$QTEXTMODE
 70
     0
  9
$MIRRTEXT
 70
     1
  9
$LTSCALE
 40
1.0
  9
$ATTMODE
 70
     1
  9
$TEXTSIZE
 40
3.5
  9
$TRACEWID
 40
1.0
  9
$TEXTSTYLE
  7
Standard
  9
$CLAYER
  8
0
  9
$CELTYPE
  6
ByLayer
  9
$CECOLOR
 62
   256
  9
$CELTSCALE
 40
1.0
  9
$DISPSILH
 70
     0
  9
$DIMSCALE
 40
1.0
  9
$DIMASZ
 40
3.302
  9
$DIMEXO
 40
1.0
  9
$DIMDLI
 40
3.75
  9
$DIMRND
 40
0.0
  9
$DIMDLE
 40
0.0
  9
$DIMEXE
 40
1.0
  9
$DIMTP
 40
0.0
  9
$DIMTM
 40
0.0
  9
$DIMTXT
 40
3.5
  9
$DIMCEN
 40
2.5
  9
$DIMTSZ
 40
0.0
  9
$DIMTOL
 70
     0
  9
$DIMLIM
 70
     0
  9
$DIMTIH
 70
     1
  9
$DIMTOH
 70
     1
  9
$DIMSE1
 70
     0
  9
$DIMSE2
 70
     0
  9
$DIMTAD
 70
     1
  9
$DIMZIN
 70
     0
  9
$DIMBLK
  1

  9
$DIMASO
 70
     1
  9
$DIMSHO
 70
     1
  9
$DIMPOST
  1

  9
$DIMAPOST
  1

  9
$DIMALT
 70
     0
  9
$DIMALTD
 70
     3
  9
$DIMALTF
 40
0.0393700787401575
  9
$DIMLFAC
 40
1.0
  9
$DIMTOFL
 70
     1
  9
$DIMTVP
 40
0.0
  9
$DIMTIX
 70
     0
  9
$DIMSOXD
 70
     0
  9
$DIMSAH
 70
     0
  9
$DIMBLK1
  1

  9
$DIMBLK2
  1

  9
$DIMSTYLE
  2
ISO-25
  9
$DIMCLRD
 70
     0
  9
$DIMCLRE
 70
     0
  9
$DIMCLRT
 70
     0
  9
$DIMTFAC
 40
1.0
  9
$DIMGAP
 40
1.524
  9
$DIMJUST
 70
     0
  9
$DIMSD1
 70
     0
  9
$DIMSD2
 70
     0
  9
$DIMTOLJ
 70
     0
  9
$DIMTZIN
 70
     0
  9
$DIMALTZ
 70
     0
  9
$DIMALTTZ
 70
     0
  9
$DIMUPT
 70
     0
  9
$DIMDEC
 70
     2
  9
$DIMTDEC
 70
     2
  9
$DIMALTU
 70
     2
  9
$DIMALTTD
 70
     3
  9
$DIMTXSTY
  7
Standard
  9
$DIMAUNIT
 70
     0
  9
$DIMADEC
 70
     2
  9
$DIMALTRND
 40
0.0
  9
$DIMAZIN
 70
     0
  9
$DIMDSEP
 70
    44
  9
$DIMATFIT
 70
     3
  9
$DIMFRAC
 70
     0
  9
$DIMLDRBLK
  1

  9
$DIMLUNIT
 70
     2
  9
$DIMLWD
 70
    -2
  9
$DIMLWE
 70
    -2
  9
$DIMTMOVE
 70
     0
  9
$LUNITS
 70
     2
  9
$LUPREC
 70
     2
  9
$SKETCHINC
 40
1.0
  9
$FILLETRAD
 40
10.0
  9
$AUNITS
 70
     0
  9
$AUPREC
 70
     2
  9
$MENU
  1
.
  9
$ELEVATION
 40
0.0
  9
$PELEVATION
 40
0.0
  9
$THICKNESS
 40
0.0
  9
$LIMCHECK
 70
     0
  9
$CHAMFERA
 40
0.0
  9
$CHAMFERB
 40
0.0
  9
$CHAMFERC
 40
0.0
  9
$CHAMFERD
 40
0.0
  9
$SKPOLY
 70
     0
  9
$TDCREATE
 40
2458299.345927072
  9
$TDUCREATE
 40
2458298.970927072
  9
$TDUPDATE
 40
2459710.435299942
  9
$TDUUPDATE
 40
2459710.060299942
  9
$TDINDWG
 40
0.0045325463
  9
$TDUSRTIMER
 40
0.0013091782
  9
$USRTIMER
 70
     1
  9
$ANGBASE
 50
0.0
  9
$ANGDIR
 70
     0
  9
$PDMODE
 70
     0
  9
$PDSIZE
 40
-1.0
  9
$PLINEWID
 40
0.0
  9
$SPLFRAME
 70
     0
  9
$SPLINETYPE
 70
     6
  9
$SPLINESEGS
 70
     8
  9
$HANDSEED
  5
443
  9
$SURFTAB1
 70
     6
  9
$SURFTAB2
 70
     6
  9
$SURFTYPE
 70
     6
  9
$SURFU
 70
     6
  9
$SURFV
 70
     6
  9
$UCSBASE
  2

  9
$UCSNAME
  2

  9
$UCSORG
 10
0.0
 20
0.0
 30
0.0
  9
$UCSXDIR
 10
1.0
 20
0.0
 30
0.0
  9
$UCSYDIR
 10
0.0
 20
1.0
 30
0.0
  9
$UCSORTHOREF
  2

  9
$UCSORTHOVIEW
 70
     0
  9
$UCSORGTOP
 10
0.0
 20
0.0
 30
0.0
  9
$UCSORGBOTTOM
 10
0.0
 20
0.0
 30
0.0
  9
$UCSORGLEFT
 10
0.0
 20
0.0
 30
0.0
  9
$UCSORGRIGHT
 10
0.0
 20
0.0
 30
0.0
  9
$UCSORGFRONT
 10
0.0
 20
0.0
 30
0.0
  9
$UCSORGBACK
 10
0.0
 20
0.0
 30
0.0
  9
$PUCSBASE
  2

  9
$PUCSNAME
  2

  9
$PUCSORG
 10
0.0
 20
0.0
 30
0.0
  9
$PUCSXDIR
 10
1.0
 20
0.0
 30
0.0
  9
$PUCSYDIR
 10
0.0
 20
1.0
 30
0.0
  9
$PUCSORTHOREF
  2

  9
$PUCSORTHOVIEW
 70
     0
  9
$PUCSORGTOP
 10
0.0
 20
0.0
 30
0.0
  9
$PUCSORGBOTTOM
 10
0.0
 20
0.0
 30
0.0
  9
$PUCSORGLEFT
 10
0.0
 20
0.0
 30
0.0
  9
$PUCSORGRIGHT
 10
0.0
 20
0.0
 30
0.0
  9
$PUCSORGFRONT
 10
0.0
 20
0.0
 30
0.0
  9
$PUCSORGBACK
 10
0.0
 20
0.0
 30
0.0
  9
$USERI1
 70
     0
  9
$USERI2
 70
     0
  9
$USERI3
 70
     0
  9
$USERI4
 70
     0
  9
$USERI5
 70
     0
  9
$USERR1
 40
0.0
  9
$USERR2
 40
0.0
  9
$USERR3
 40
0.0
  9
$USERR4
 40
0.0
  9
$USERR5
 40
0.0
  9
$WORLDVIEW
 70
     1
  9
$SHADEDGE
 70
     3
  9
$SHADEDIF
 70
    70
  9
$TILEMODE
 70
     1
  9
$MAXACTVP
 70
    64
  9
$PINSBASE
 10
0.0
 20
0.0
 30
0.0
  9
$PLIMCHECK
 70
     0
  9
$PEXTMIN
 10
1.000000000000000E+20
 20
1.000000000000000E+20
 30
1.000000000000000E+20
  9
$PEXTMAX
 10
-1.000000000000000E+20
 20
-1.000000000000000E+20
 30
-1.000000000000000E+20
  9
$PLIMMIN
 10
0.0
 20
0.0
  9
$PLIMMAX
 10
0.0
 20
0.0
  9
$UNITMODE
 70
     0
  9
$VISRETAIN
 70
     1
  9
$PLINEGEN
 70
     0
  9
$PSLTSCALE
 70
     1
  9
$TREEDEPTH
 70
  3020
  9
$CMLSTYLE
  2
Standard
  9
$CMLJUST
 70
     0
  9
$CMLSCALE
 40
20.0
  9
$PROXYGRAPHICS
 70
     1
  9
$MEASUREMENT
 70
     1
  9
$CELWEIGHT
370
    -1
  9
$ENDCAPS
280
     0
  9
$JOINSTYLE
280
     0
  9
$LWDISPLAY
290
     1
  9
$INSUNITS
 70
     4
  9
$HYPERLINKBASE
  1

  9
$STYLESHEET
  1

  9
$XEDIT
290
     1
  9
$CEPSNTYPE
380
     0
  9
$PSTYLEMODE
290
     1
  9
$FINGERPRINTGUID
  2
{5A1209DF-9DA8-4804-888E-5DDC717EB016}
  9
$VERSIONGUID
  2
{FAEB1C32-E019-11D5-929B-00C0DF256EC4}
  9
$EXTNAMES
290
     1
  9
$PSVPSCALE
 40
0.0
  9
$OLESTARTUP
290
     0
  0
ENDSEC
  0
SECTION
  2
CLASSES
  0
CLASS
  1
ACDBDICTIONARYWDFLT
  2
AcDbDictionaryWithDefault
  3
ObjectDBX Classes
 90
        0
280
     0
281
     0
  0
CLASS
  1
VISUALSTYLE
  2
AcDbVisualStyle
  3
ObjectDBX Classes
 90
     4095
280
     0
281
     0
  0
CLASS
  1
MATERIAL
  2
AcDbMaterial
  3
ObjectDBX Classes
 90
     1153
280
     0
281
     0
  0
CLASS
  1
SCALE
  2
AcDbScale
  3
ObjectDBX Classes
 90
     1153
280
     0
281
     0
  0
CLASS
  1
SUN
  2
AcDbSun
  3
SCENEOE
 90
     1153
280
     0
281
     0
  0
CLASS
  1
ACDBPLACEHOLDER
  2
AcDbPlaceHolder
  3
ObjectDBX Classes
 90
        0
280
     0
281
     0
  0
CLASS
  1
LAYOUT
  2
AcDbLayout
  3
ObjectDBX Classes
 90
        0
280
     0
281
     0
  0
CLASS
  1
TABLESTYLE
  2
AcDbTableStyle
  3
ObjectDBX Classes
 90
     4095
280
     0
281
     0
  0
CLASS
  1
MLEADERSTYLE
  2
AcDbMLeaderStyle
  3
ACDB_MLEADERSTYLE_CLASS
 90
     4095
280
     0
281
     0
  0
CLASS
  1
RASTERVARIABLES
  2
AcDbRasterVariables
  3
ISM
 90
        0
280
     0
281
     0
  0
CLASS
  1
DIMASSOC
  2
AcDbDimAssoc
  3
"AcDbDimAssoc|Product Desc:     AcDim ARX App For Dimension|Company:          Autodesk, Inc.|WEB Address:      www.autodesk.com"
 90
        0
280
     0
281
     0
  0
CLASS
  1
BREAKDATA
  2
AcDbBreakData
  3
ObjectDBX Classes
 90
     1024
280
     0
281
     0
  0
CLASS
  1
SORTENTSTABLE
  2
AcDbSortentsTable
  3
ObjectDBX Classes
 90
        0
280
     0
281
     0
  0
ENDSEC
  0
SECTION
  2
TABLES
  0
TABLE
  2
VPORT
  5
8
330
0
100
AcDbSymbolTable
 70
     1
  0
VPORT
  5
29
330
8
100
AcDbSymbolTableRecord
100
AcDbViewportTableRecord
  2
*Active
 70
     0
 10
0.0
 20
0.0
 11
1.0
 21
1.0
 12
-10.89507009829987
 22
-2.767683467920101
 13
0.0
 23
0.0
 14
10.0
 24
10.0
 15
10.0
 25
10.0
 16
0.0
 26
0.0
 36
1.0
 17
0.0
 27
0.0
 37
0.0
 40
97.93881540445925
 41
1.163027656477438
 42
50.0
 43
0.0
 44
0.0
 50
0.0
 51
0.0
 71
    16
 72
  2000
 73
     1
 74
     3
 75
     0
 76
     0
 77
     0
 78
     0
281
     0
 65
     1
110
0.0
120
0.0
130
0.0
111
1.0
121
0.0
131
0.0
112
0.0
122
1.0
132
0.0
 79
     0
146
0.0
  0
ENDTAB
  0
TABLE
  2
LTYPE
  5
5
330
0
100
AcDbSymbolTable
 70
     6
  0
LTYPE
  5
14
330
5
100
AcDbSymbolTableRecord
100
AcDbLinetypeTableRecord
  2
ByBlock
 70
     0
  3

 72
    65
 73
     0
 40
0.0
  0
LTYPE
  5
15
330
5
100
AcDbSymbolTableRecord
100
AcDbLinetypeTableRecord
  2
ByLayer
 70
     0
  3

 72
    65
 73
     0
 40
0.0
  0
LTYPE
  5
16
330
5
100
AcDbSymbolTableRecord
100
AcDbLinetypeTableRecord
  2
Continuous
 70
     0
  3
Solid line
 72
    65
 73
     0
 40
0.0
  0
LTYPE
  5
6A
330
5
100
AcDbSymbolTableRecord
100
AcDbLinetypeTableRecord
  2
HIDDEN
 70
     0
  3
Hidden __ __ __ __ __ __ __ __ __ __ __ __ __ __
 72
    65
 73
     2
 40
1.905
 49
1.27
 74
     0
 49
-0.635
 74
     0
  0
LTYPE
  5
6B
330
5
100
AcDbSymbolTableRecord
100
AcDbLinetypeTableRecord
  2
PHANTOM
 70
     0
  3
Phantom ______  __  __  ______  __  __  ______
 72
    65
 73
     6
 40
12.7
 49
6.35
 74
     0
 49
-1.27
 74
     0
 49
1.27
 74
     0
 49
-1.27
 74
     0
 49
1.27
 74
     0
 49
-1.27
 74
     0
  0
LTYPE
  5
6C
330
5
100
AcDbSymbolTableRecord
100
AcDbLinetypeTableRecord
  2
CENTER
 70
     0
  3
Center ____ _ ____ _ ____ _ ____ _ ____ _ ____
 72
    65
 73
     4
 40
10.16
 49
6.35
 74
     0
 49
-1.27
 74
     0
 49
1.27
 74
     0
 49
-1.27
 74
     0
  0
LTYPE
  5
6D
330
5
100
AcDbSymbolTableRecord
100
AcDbLinetypeTableRecord
  2
CENTERX2
 70
     0
  3
Center (2x) ________  __  ________  __  _____
 72
    65
 73
     4
 40
20.32
 49
12.7
 74
     0
 49
-2.54
 74
     0
 49
2.54
 74
     0
 49
-2.54
 74
     0
  0
LTYPE
  5
6E
330
5
100
AcDbSymbolTableRecord
100
AcDbLinetypeTableRecord
  2
DOT2
 70
     0
  3
Dot (.5x) ........................................
 72
    65
 73
     2
 40
0.635
 49
0.0
 74
     0
 49
-0.635
 74
     0
  0
ENDTAB
  0
TABLE
  2
LAYER
  5
2
330
0
100
AcDbSymbolTable
 70
    18
  0
LAYER
  5
10
330
2
100
AcDbSymbolTableRecord
100
AcDbLayerTableRecord
  2
0
 70
     0
 62
     7
  6
Continuous
370
    -3
390
F
  0
LAYER
  5
6F
330
2
100
AcDbSymbolTableRecord
100
AcDbLayerTableRecord
  2
FORMAT
 70
     0
 62
     2
  6
Continuous
370
    -3
390
F
  0
LAYER
  5
70
330
2
100
AcDbSymbolTableRecord
100
AcDbLayerTableRecord
  2
외형선
 70
     0
 62
     4
  6
Continuous
370
    30
390
F
  0
LAYER
  5
71
330
2
100
AcDbSymbolTableRecord
100
AcDbLayerTableRecord
  2
숨은선
 70
     0
 62
     2
  6
HIDDEN
370
    15
390
F
  0
LAYER
  5
72
330
2
100
AcDbSymbolTableRecord
100
AcDbLayerTableRecord
  2
중심선
 70
     0
 62
     1
  6
CENTERX2
370
    -3
390
F
  0
LAYER
  5
73
330
2
100
AcDbSymbolTableRecord
100
AcDbLayerTableRecord
  2
파단선
 70
     0
 62
     4
  6
Continuous
370
    -3
390
F
  0
LAYER
  5
74
330
2
100
AcDbSymbolTableRecord
100
AcDbLayerTableRecord
  2
해칭선
 70
     0
 62
   100
  6
Continuous
370
    -3
390
F
  0
LAYER
  5
75
330
2
100
AcDbSymbolTableRecord
100
AcDbLayerTableRecord
  2
가는실선
 70
     0
 62
     4
  6
Continuous
370
    -3
390
F
  0
LAYER
  5
76
330
2
100
AcDbSymbolTableRecord
100
AcDbLayerTableRecord
  2
치수_보조선
 70
     0
 62
     4
  6
Continuous
370
    -3
390
F
  0
LAYER
  5
77
330
2
100
AcDbSymbolTableRecord
100
AcDbLayerTableRecord
  2
치수문자_일반주서
 70
     0
 62
     7
  6
Continuous
370
    15
390
F
  0
LAYER
  5
78
330
2
100
AcDbSymbolTableRecord
100
AcDbLayerTableRecord
  2
개별주서
 70
     0
 62
   100
  6
Continuous
370
    30
390
F
  0
LAYER
  5
79
330
2
100
AcDbSymbolTableRecord
100
AcDbLayerTableRecord
  2
중간선
 70
     0
 62
     2
  6
Continuous
370
    15
390
F
  0
LAYER
  5
7A
330
2
100
AcDbSymbolTableRecord
100
AcDbLayerTableRecord
  2
윤곽선
 70
     0
 62
     3
  6
Continuous
370
    40
390
F
  0
LAYER
  5
7B
330
2
100
AcDbSymbolTableRecord
100
AcDbLayerTableRecord
  2
중심마크
 70
     0
 62
   100
  6
Continuous
370
    30
390
F
  0
LAYER
  5
7C
330
2
100
AcDbSymbolTableRecord
100
AcDbLayerTableRecord
  2
가상선
 70
     0
 62
     4
  6
PHANTOM
370
    -3
390
F
  0
LAYER
  5
7D
330
2
100
AcDbSymbolTableRecord
100
AcDbLayerTableRecord
  2
특수지정선
 70
     0
 62
     5
  6
CENTERX2
370
    60
390
F
  0
LAYER
  5
7E
330
2
100
AcDbSymbolTableRecord
100
AcDbLayerTableRecord
  2
참조1
 70
     0
 62
    -4
  6
Continuous
370
    -3
390
F
  0
LAYER
  5
154
330
2
100
AcDbSymbolTableRecord
100
AcDbLayerTableRecord
  2
Defpoints
 70
     0
 62
     7
  6
Continuous
290
     0
370
    -3
390
F
  0
ENDTAB
  0
TABLE
  2
STYLE
  5
3
330
0
100
AcDbSymbolTable
 70
     2
  0
STYLE
  5
11
330
3
100
AcDbSymbolTableRecord
100
AcDbTextStyleTableRecord
  2
Standard
 70
     0
 40
0.0
 41
1.0
 50
0.0
 71
     0
 42
3.5
  3
txt
  4

  0
STYLE
  5
94
330
3
100
AcDbSymbolTableRecord
100
AcDbTextStyleTableRecord
  2
SLDTEXTSTYLE0
 70
     0
 40
0.0
 41
0.75
 50
0.0
 71
     0
 42
3.5
  3
TXT
  4

  0
ENDTAB
  0
TABLE
  2
VIEW
  5
6
330
0
100
AcDbSymbolTable
 70
     0
  0
ENDTAB
  0
TABLE
  2
UCS
  5
7
330
0
100
AcDbSymbolTable
 70
     0
  0
ENDTAB
  0
TABLE
  2
APPID
  5
9
330
0
100
AcDbSymbolTable
 70
     3
  0
APPID
  5
12
330
9
100
AcDbSymbolTableRecord
100
AcDbRegAppTableRecord
  2
ACAD
 70
     0
  0
APPID
  5
438
330
9
100
AcDbSymbolTableRecord
100
AcDbRegAppTableRecord
  2
ENABLE_CUSTOM_SPLIT
 70
     0
  0
APPID
  5
43F
330
9
100
AcDbSymbolTableRecord
100
AcDbRegAppTableRecord
  2
PE_URL
 70
     0
  0
ENDTAB
  0
TABLE
  2
DIMSTYLE
  5
A
330
0
100
AcDbSymbolTable
 70
     4
100
AcDbDimStyleTable
  0
DIMSTYLE
105
27
330
A
100
AcDbSymbolTableRecord
100
AcDbDimStyleTableRecord
  2
ISO-25
 70
     0
 41
2.5
 42
0.625
 43
3.75
 44
1.25
 73
     0
 74
     0
 77
     1
 78
     8
140
2.5
141
2.5
143
0.03937007874016
147
0.625
171
     3
172
     1
178
     0
271
     2
272
     2
274
     3
278
    44
283
     0
284
     8
340
11
  0
DIMSTYLE
105
D3
102
{ACAD_REACTORS
330
E6
330
3EB
330
404
102
}
330
A
100
AcDbSymbolTableRecord
100
AcDbDimStyleTableRecord
  2
SLDDIMSTYLE0
 70
     0
 41
3.302
 44
0.0
 45
0.000000001
 73
     0
 74
     0
 77
     1
 78
    12
 79
     3
140
3.5
143
0.0393700787401575
147
0.875
148
0.000000001
170
     1
172
     1
173
     1
178
     0
271
     2
272
     2
276
     2
284
    12
289
     0
340
94
  0
DIMSTYLE
105
FB
102
{ACAD_REACTORS
330
FA
102
}
330
A
100
AcDbSymbolTableRecord
100
AcDbDimStyleTableRecord
  2
SLDDIMSTYLE1
 70
     0
 41
3.302
 44
0.0
 45
0.000000001
 73
     0
 74
     0
 77
     1
 78
     4
 79
     1
140
3.5
143
0.0393700787401575
147
0.875
148
0.000000001
170
     1
173
     1
178
     0
271
     2
272
     2
276
     2
284
    12
340
94
  0
DIMSTYLE
105
161
102
{ACAD_REACTORS
102
}
330
A
100
AcDbSymbolTableRecord
100
AcDbDimStyleTableRecord
  2
SLDDIMSTYLE2
 70
     0
 41
3.302
 44
0.0
 45
0.000000001
 73
     0
 74
     0
 77
     1
 78
     4
 79
     1
140
3.5
143
0.0393700787401575
147
0.875
148
0.000000001
170
     1
173
     1
178
     0
271
     2
272
     2
276
     2
284
    12
340
94
  0
ENDTAB
  0
TABLE
  2
BLOCK_RECORD
  5
1
330
0
100
AcDbSymbolTable
 70
    17
  0
BLOCK_RECORD
  5
1F
102
{ACAD_XDICTIONARY
360
43B
102
}
330
1
100
AcDbSymbolTableRecord
100
AcDbBlockTableRecord
  2
*Model_Space
340
22
  0
BLOCK_RECORD
  5
1B
330
1
100
AcDbSymbolTableRecord
100
AcDbBlockTableRecord
  2
*Paper_Space
340
1E
  0
BLOCK_RECORD
  5
23
330
1
100
AcDbSymbolTableRecord
100
AcDbBlockTableRecord
  2
*Paper_Space0
340
26
  0
BLOCK_RECORD
  5
7F
330
1
100
AcDbSymbolTableRecord
100
AcDbBlockTableRecord
  2
블럭10
340
0
102
{BLKREFS
331
CA
102
}
  0
BLOCK_RECORD
  5
D4
330
1
100
AcDbSymbolTableRecord
100
AcDbBlockTableRecord
  2
_D
340
0
  0
BLOCK_RECORD
  5
E7
330
1
100
AcDbSymbolTableRecord
100
AcDbBlockTableRecord
  2
_D_1
340
0
  0
BLOCK_RECORD
  5
FC
330
1
100
AcDbSymbolTableRecord
100
AcDbBlockTableRecord
  2
_D_2
340
0
  0
BLOCK_RECORD
  5
110
330
1
100
AcDbSymbolTableRecord
100
AcDbBlockTableRecord
  2
_D_3
340
0
  0
BLOCK_RECORD
  5
129
330
1
100
AcDbSymbolTableRecord
100
AcDbBlockTableRecord
  2
SW_DOWELSYMBOL_0
340
0
102
{BLKREFS
331
12F
102
}
  0
BLOCK_RECORD
  5
29D
330
1
100
AcDbSymbolTableRecord
100
AcDbBlockTableRecord
  2
*D7
340
0
  0
BLOCK_RECORD
  5
2AC
330
1
100
AcDbSymbolTableRecord
100
AcDbBlockTableRecord
  2
*D8
340
0
  0
BLOCK_RECORD
  5
2B8
330
1
100
AcDbSymbolTableRecord
100
AcDbBlockTableRecord
  2
*D9
340
0
  0
BLOCK_RECORD
  5
2C5
330
1
100
AcDbSymbolTableRecord
100
AcDbBlockTableRecord
  2
*D10
340
0
  0
BLOCK_RECORD
  5
3B3
330
1
100
AcDbSymbolTableRecord
100
AcDbBlockTableRecord
  2
*D11
340
0
  0
BLOCK_RECORD
  5
3C2
330
1
100
AcDbSymbolTableRecord
100
AcDbBlockTableRecord
  2
*D12
340
0
  0
BLOCK_RECORD
  5
3CE
330
1
100
AcDbSymbolTableRecord
100
AcDbBlockTableRecord
  2
*D13
340
0
  0
BLOCK_RECORD
  5
3DB
330
1
100
AcDbSymbolTableRecord
100
AcDbBlockTableRecord
  2
*D14
340
0
  0
BLOCK_RECORD
  5
3EE
330
1
100
AcDbSymbolTableRecord
100
AcDbBlockTableRecord
  2
*D15
340
0
  0
BLOCK_RECORD
  5
407
330
1
100
AcDbSymbolTableRecord
100
AcDbBlockTableRecord
  2
*D16
340
0
  0
ENDTAB
  0
ENDSEC
  0
SECTION
  2
BLOCKS
  0
BLOCK
  5
20
330
1F
100
AcDbEntity
  8
0
100
AcDbBlockBegin
  2
*Model_Space
 70
     0
 10
0.0
 20
0.0
 30
0.0
  3
*Model_Space
  1
*Model_Space
  0
ENDBLK
  5
21
330
1F
100
AcDbEntity
  8
0
100
AcDbBlockEnd
  0
BLOCK
  5
1C
330
1B
100
AcDbEntity
 67
     1
  8
0
100
AcDbBlockBegin
  2
*Paper_Space
 70
     0
 10
0.0
 20
0.0
 30
0.0
  3
*Paper_Space
  1
*Paper_Space
  0
ENDBLK
  5
1D
330
1B
100
AcDbEntity
 67
     1
  8
0
100
AcDbBlockEnd
  0
BLOCK
  5
24
330
23
100
AcDbEntity
  8
0
100
AcDbBlockBegin
  2
*Paper_Space0
 70
     0
 10
0.0
 20
0.0
 30
0.0
  3
*Paper_Space0
  1
*Paper_Space0
  0
ENDBLK
  5
25
330
23
100
AcDbEntity
  8
0
100
AcDbBlockEnd
  0
BLOCK
  5
80
330
7F
100
AcDbEntity
  8
0
100
AcDbBlockBegin
  2
블럭10
 70
     2
 10
0.0
 20
0.0
 30
0.0
  3
블럭10
  1
블럭10
  0
ELLIPSE
  5
82
330
7F
100
AcDbEntity
  8
중심선
100
AcDbEllipse
 10
20.54032771741204
 20
12.0471743016438
 30
0.0
 11
6.600054785286829
 21
-1.261213355974178E-13
 31
0.0
210
0.0
220
0.0
230
1.0
 40
0.636358354079598
 41
0.9219305317359503
 42
6.513795318482858
  0
ELLIPSE
  5
83
330
7F
100
AcDbEntity
  8
중심선
100
AcDbEllipse
 10
20.54032771746488
 20
12.04717430159265
 30
0.0
 11
3.960054785062283
 21
1.540847449632565E-10
 31
0.0
210
0.0
220
0.0
230
1.0
 40
0.3939339440162632
 41
1.131841032648279
 42
5.62031148352944
  0
LINE
  5
84
330
7F
100
AcDbEntity
  8
중심선
100
AcDbLine
 10
2.268634060543552
 20
16.24717430164393
 30
0.0
 11
5.714909304380834
 21
16.24717430164393
 31
0.0
  0
LINE
  5
85
330
7F
100
AcDbEntity
  8
중심선
100
AcDbLine
 10
5.245725140726316
 20
7.84717430164391
 30
0.0
 11
8.692000384563599
 21
7.84717430164391
 31
0.0
  0
LINE
  5
86
330
7F
100
AcDbEntity
  8
중심선
100
AcDbLine
 10
15.74043728645272
 20
16.24717430164393
 30
0.0
 11
8.692000384563599
 21
7.84717430164391
 31
0.0
  0
LINE
  5
87
330
7F
100
AcDbEntity
  8
중심선
100
AcDbLine
 10
0.1404042013395286
 20
13.71084872107135
 30
0.0
 11
3.58671253028996
 21
13.71088815037384
 31
0.0
  0
LINE
  5
88
330
7F
100
AcDbEntity
  8
중심선
100
AcDbLine
 10
2.750260043222114
 20
10.84717430164391
 30
0.0
 11
6.196535287059397
 21
10.84717430164391
 31
0.0
  0
LINE
  5
89
330
7F
100
AcDbEntity
  8
중심선
100
AcDbLine
 10
12.29416204261559
 20
16.24717430164393
 30
0.0
 11
5.245725140726316
 21
7.84717430164391
 31
0.0
  0
LINE
  5
8A
330
7F
100
AcDbEntity
  8
중심선
100
AcDbLine
 10
10.72767329541681
 20
16.24717430164393
 30
0.0
 11
6.196535287059397
 21
10.84717430164391
 31
0.0
  0
LINE
  5
8B
330
7F
100
AcDbEntity
  8
중심선
100
AcDbLine
 10
7.28139805157953
 20
16.24717430164393
 30
0.0
 11
2.750260043222114
 21
10.84717430164391
 31
0.0
  0
LINE
  5
8C
330
7F
100
AcDbEntity
  8
중심선
100
AcDbLine
 10
5.714909304380834
 20
16.24717430164393
 30
0.0
 11
3.58671253028996
 21
13.71088815037384
 31
0.0
  0
LINE
  5
8D
330
7F
100
AcDbEntity
  8
중심선
100
AcDbLine
 10
2.268634060543552
 20
16.24717430164393
 30
0.0
 11
0.1404042013395286
 21
13.71084872107135
 31
0.0
  0
LINE
  5
8E
330
7F
100
AcDbEntity
  8
중심선
100
AcDbLine
 10
7.28139805157953
 20
16.24717430164393
 30
0.0
 11
10.72767329541681
 21
16.24717430164393
 31
0.0
  0
LINE
  5
8F
330
7F
100
AcDbEntity
  8
중심선
100
AcDbLine
 10
12.29416204261559
 20
16.24717430164393
 30
0.0
 11
15.74043728645272
 21
16.24717430164393
 31
0.0
  0
LINE
  5
90
330
7F
100
AcDbEntity
  8
중심선
100
AcDbLine
 10
19.22036997980202
 20
11.08717430171403
 30
0.0
 11
23.66174974927406
 21
11.08717430171406
 31
0.0
  0
LINE
  5
91
330
7F
100
AcDbEntity
  8
중심선
100
AcDbLine
 10
19.22039502424796
 20
13.00717430171391
 30
0.0
 11
19.22036997980202
 21
11.08717430171403
 31
0.0
  0
LINE
  5
92
330
7F
100
AcDbEntity
  8
중심선
100
AcDbLine
 10
19.22039502424796
 20
13.00717430171391
 30
0.0
 11
26.96566020931264
 21
13.00717430171391
 31
0.0
  0
LINE
  5
93
330
7F
100
AcDbEntity
  8
중심선
100
AcDbLine
 10
22.22332737316547
 20
13.45928029700563
 30
0.0
 11
24.52862924686651
 21
15.39360700705356
 31
0.0
  0
ATTDEF
  5
95
330
7F
100
AcDbEntity
  8
FORMAT
 62
     2
100
AcDbText
 10
-9.522313950597932
 20
2.075366912832191
 30
0.0
 40
4.233333333333333
  1
EH969012 [ 3 FLUTE ]
 41
0.75
  7
SLDTEXTSTYLE0
 11
-9.522313950597932
 21
-0.0412997538344756
 31
0.0
100
AcDbAttributeDefinition
  3

  2
AUTOATTR0
 70
     0
 74
     1
  0
ENDBLK
  5
81
330
7F
100
AcDbEntity
  8
0
100
AcDbBlockEnd
  0
BLOCK
  5
D5
330
D4
100
AcDbEntity
  8
0
100
AcDbBlockBegin
  2
_D
 70
     0
 10
0.0
 20
0.0
 30
0.0
  3
_D
  1
_D
  0
SOLID
  5
D7
330
D4
100
AcDbEntity
  8
치수문자_일반주서
100
AcDbTrace
 10
44.20484277555872
 20
3.491870580932776
 30
0.0
 11
44.71284277555872
 21
6.793870580932776
 31
0.0
 12
43.69684277555871
 22
6.793870580932776
 32
0.0
 13
43.69684277555871
 23
6.793870580932776
 33
0.0
  0
SOLID
  5
D8
330
D4
100
AcDbEntity
  8
치수문자_일반주서
100
AcDbTrace
 10
44.20484277555872
 20
-2.858129419067271
 30
0.0
 11
43.69684277555871
 21
-6.16012941906727
 31
0.0
 12
44.71284277555872
 22
-6.16012941906727
 32
0.0
 13
44.71284277555872
 23
-6.16012941906727
 33
0.0
  0
LINE
  5
D9
330
D4
100
AcDbEntity
  8
치수문자_일반주서
100
AcDbLine
 10
33.411961059516
 20
6.59234009084037
 30
0.0
 11
33.411961059516
 21
5.88140260527587
 31
0.0
  0
LINE
  5
DA
330
D4
100
AcDbEntity
  8
치수문자_일반주서
100
AcDbLine
 10
33.411961059516
 20
5.88140260527587
 30
0.0
 11
38.96821105057531
 21
5.881402605275914
 31
0.0
  0
LINE
  5
DB
330
D4
100
AcDbEntity
  8
치수문자_일반주서
100
AcDbLine
 10
38.96821105057531
 20
5.881402605275914
 30
0.0
 11
38.9682110505753
 21
6.592340090840414
 31
0.0
  0
LINE
  5
DC
330
D4
100
AcDbEntity
  8
치수문자_일반주서
100
AcDbLine
 10
33.41196105951591
 20
17.42107295297763
 30
0.0
 11
33.4119610595159
 21
18.13201043854213
 31
0.0
  0
LINE
  5
DD
330
D4
100
AcDbEntity
  8
치수문자_일반주서
100
AcDbLine
 10
33.4119610595159
 20
18.13201043854213
 30
0.0
 11
38.96821105057521
 21
18.13201043854217
 31
0.0
  0
LINE
  5
DE
330
D4
100
AcDbEntity
  8
치수문자_일반주서
100
AcDbLine
 10
38.96821105057521
 20
18.13201043854217
 30
0.0
 11
38.96821105057521
 21
17.42107295297767
 31
0.0
  0
LINE
  5
DF
330
D4
100
AcDbEntity
  8
치수문자_일반주서
100
AcDbLine
 10
8.884832729811915
 20
3.491870580932755
 30
0.0
 11
45.20484277555872
 21
3.491870580932776
 31
0.0
  0
LINE
  5
E0
330
D4
100
AcDbEntity
  8
치수문자_일반주서
100
AcDbLine
 10
44.20484277555872
 20
3.491870580932776
 30
0.0
 11
44.20484277555872
 21
19.17162021721468
 31
0.0
  0
LINE
  5
E1
330
D4
100
AcDbEntity
  8
치수문자_일반주서
100
AcDbLine
 10
44.20484277555872
 20
3.491870580932776
 30
0.0
 11
44.20484277555872
 21
-2.858129419067271
 31
0.0
  0
LINE
  5
E2
330
D4
100
AcDbEntity
  8
치수문자_일반주서
100
AcDbLine
 10
44.20484277555872
 20
-2.858129419067271
 30
0.0
 11
44.20484277555872
 21
-9.20812941906727
 31
0.0
  0
MTEXT
  5
E3
330
D4
100
AcDbEntity
  8
치수문자_일반주서
100
AcDbMText
 10
34.4564741359964
 20
7.48101199145175
 30
0.0
 40
3.5
 41
0.0
 71
     1
 72
     1
  1
0.25
  7
SLDTEXTSTYLE0
 11
-7.932373437343760E-15
 21
1.0
 31
0.0
 73
     1
 44
1.0
  0
MTEXT
  5
E4
330
D4
100
AcDbEntity
  8
치수문자_일반주서
100
AcDbMText
 10
39.69310568635689
 20
4.841792826603464
 30
0.0
 40
3.5
 41
0.0
 71
     1
 72
     1
  1
%%c
  7
SLDTEXTSTYLE0
 11
-7.932373437343760E-15
 21
1.0
 31
0.0
 73
     1
 44
1.0
  0
MTEXT
  5
E5
330
D4
100
AcDbEntity
  8
치수문자_일반주서
100
AcDbMText
 10
39.69310568635684
 20
10.12023022497754
 30
0.0
 40
3.5
 41
0.0
 71
     1
 72
     1
  1
6.35
  7
SLDTEXTSTYLE0
 11
-7.932373437343760E-15
 21
1.0
 31
0.0
 73
     1
 44
1.0
  0
ENDBLK
  5
D6
330
D4
100
AcDbEntity
  8
0
100
AcDbBlockEnd
  0
BLOCK
  5
E8
330
E7
100
AcDbEntity
  8
0
100
AcDbBlockBegin
  2
_D_1
 70
     0
 10
0.0
 20
0.0
 30
0.0
  3
_D_1
  1
_D_1
  0
LINE
  5
EA
330
E7
100
AcDbEntity
  8
치수문자_일반주서
 62
     0
370
    -2
100
AcDbLine
 10
-38.8705870370037
 20
3.174999999999983
 30
0.0
 11
-49.61808703700375
 21
3.174999999999944
 31
0.0
  0
LINE
  5
EB
330
E7
100
AcDbEntity
  8
치수문자_일반주서
 62
     0
370
    -2
100
AcDbLine
 10
-38.8705870370037
 20
-3.175000000000011
 30
0.0
 11
-49.61808703700373
 21
-3.17500000000005
 31
0.0
  0
LINE
  5
EC
330
E7
100
AcDbEntity
  8
치수문자_일반주서
 62
     0
370
    -2
100
AcDbLine
 10
-49.61808703700373
 20
-0.1270000000000562
 30
0.0
 11
-49.61808703700374
 21
0.1269999999999496
 31
0.0
  0
SOLID
  5
ED
330
E7
100
AcDbEntity
  8
치수문자_일반주서
 62
     0
100
AcDbTrace
 10
-49.0677537036704
 20
-0.1270000000000543
 30
0.0
 11
-50.16842037033707
 21
-0.127000000000058
 31
0.0
 12
-49.61808703700375
 22
3.174999999999944
 32
0.0
 13
-49.61808703700375
 23
3.174999999999944
 33
0.0
  0
SOLID
  5
EE
330
E7
100
AcDbEntity
  8
치수문자_일반주서
 62
     0
100
AcDbTrace
 10
-50.16842037033707
 20
0.1269999999999477
 30
0.0
 11
-49.06775370367041
 21
0.1269999999999515
 31
0.0
 12
-49.61808703700373
 22
-3.17500000000005
 32
0.0
 13
-49.61808703700373
 23
-3.17500000000005
 33
0.0
  0
MTEXT
  5
EF
330
E7
100
AcDbEntity
  8
치수문자_일반주서
 62
     0
100
AcDbMText
 10
-53.99308703700373
 20
-0.50867217381034
 30
0.0
 40
3.5
 41
0.0
 71
     2
 72
     1
  1
\A1;%%c6.35 [1/4]
  7
SLDTEXTSTYLE0
 11
-3.356894814614649E-15
 21
1.0
 31
0.0
 73
     1
 44
1.0
  0
POINT
  5
F0
330
E7
100
AcDbEntity
  8
Defpoints
 62
     0
100
AcDbPoint
 10
-38.8080870370037
 20
3.174999999999983
 30
0.0
  0
POINT
  5
F1
330
E7
100
AcDbEntity
  8
Defpoints
 62
     0
100
AcDbPoint
 10
-38.8080870370037
 20
-3.175000000000011
 30
0.0
  0
POINT
  5
F2
330
E7
100
AcDbEntity
  8
Defpoints
 62
     0
100
AcDbPoint
 10
-49.61808703700373
 20
-3.175000000000051
 30
0.0
  0
ENDBLK
  5
E9
330
E7
100
AcDbEntity
  8
0
100
AcDbBlockEnd
  0
BLOCK
  5
FD
330
FC
100
AcDbEntity
  8
0
100
AcDbBlockBegin
  2
_D_2
 70
     0
 10
0.0
 20
0.0
 30
0.0
  3
_D_2
  1
_D_2
  0
LINE
  5
FF
330
FC
100
AcDbEntity
  8
치수문자_일반주서
 62
     0
370
    -2
100
AcDbLine
 10
19.11941296299633
 20
2.44375
 30
0.0
 11
19.11941296299633
 21
18.55816981532517
 31
0.0
  0
LINE
  5
100
330
FC
100
AcDbEntity
  8
치수문자_일반주서
 62
     0
370
    -2
100
AcDbLine
 10
6.419412962996328
 20
2.82887843541446
 30
0.0
 11
6.419412962996328
 21
18.55816981532517
 31
0.0
  0
LINE
  5
101
330
FC
100
AcDbEntity
  8
치수문자_일반주서
 62
     0
370
    -2
100
AcDbLine
 10
15.81741296299633
 20
18.55816981532517
 30
0.0
 11
9.721412962996329
 21
18.55816981532517
 31
0.0
  0
SOLID
  5
102
330
FC
100
AcDbEntity
  8
치수문자_일반주서
 62
     0
100
AcDbTrace
 10
15.81741296299633
 20
18.00783648199183
 30
0.0
 11
15.81741296299633
 21
19.1085031486585
 31
0.0
 12
19.11941296299633
 22
18.55816981532517
 32
0.0
 13
19.11941296299633
 23
18.55816981532517
 33
0.0
  0
SOLID
  5
103
330
FC
100
AcDbEntity
  8
치수문자_일반주서
 62
     0
100
AcDbTrace
 10
9.721412962996329
 20
19.1085031486585
 30
0.0
 11
9.721412962996329
 21
18.00783648199183
 31
0.0
 12
6.419412962996328
 22
18.55816981532517
 32
0.0
 13
6.419412962996328
 23
18.55816981532517
 33
0.0
  0
MTEXT
  5
104
330
FC
100
AcDbEntity
  8
치수문자_일반주서
 62
     0
100
AcDbMText
 10
12.76941296299633
 20
22.93316981532517
 30
0.0
 40
3.5
 41
0.0
 71
     2
 72
     1
  1
\A1;12.70 [1/2]
  7
SLDTEXTSTYLE0
 73
     1
 44
1.0
  0
POINT
  5
105
330
FC
100
AcDbEntity
  8
Defpoints
 62
     0
100
AcDbPoint
 10
19.11941296299633
 20
2.38125
 30
0.0
  0
POINT
  5
106
330
FC
100
AcDbEntity
  8
Defpoints
 62
     0
100
AcDbPoint
 10
6.419412962996328
 20
2.76637843541446
 30
0.0
  0
POINT
  5
107
330
FC
100
AcDbEntity
  8
Defpoints
 62
     0
100
AcDbPoint
 10
6.419412962996328
 20
18.55816981532517
 30
0.0
  0
ENDBLK
  5
FE
330
FC
100
AcDbEntity
  8
0
100
AcDbBlockEnd
  0
BLOCK
  5
111
330
110
100
AcDbEntity
  8
0
100
AcDbBlockBegin
  2
_D_3
 70
     0
 10
0.0
 20
0.0
 30
0.0
  3
_D_3
  1
_D_3
  0
LINE
  5
113
330
110
100
AcDbEntity
  8
치수문자_일반주서
 62
     0
370
    -2
100
AcDbLine
 10
22.7
 20
0.1175390038726327
 30
0.0
 11
22.7
 21
46.46425074455671
 31
0.0
  0
LINE
  5
114
330
110
100
AcDbEntity
  8
치수문자_일반주서
 62
     0
370
    -2
100
AcDbLine
 10
-36.03750000000002
 20
0.0624999999999964
 30
0.0
 11
-36.03750000000002
 21
46.46425074455671
 31
0.0
  0
LINE
  5
115
330
110
100
AcDbEntity
  8
치수문자_일반주서
 62
     0
370
    -2
100
AcDbLine
 10
19.398
 20
46.46425074455671
 30
0.0
 11
-32.73550000000002
 21
46.46425074455671
 31
0.0
  0
SOLID
  5
116
330
110
100
AcDbEntity
  8
치수문자_일반주서
 62
     0
100
AcDbTrace
 10
19.398
 20
45.91391741122337
 30
0.0
 11
19.398
 21
47.01458407789004
 31
0.0
 12
22.7
 22
46.46425074455671
 32
0.0
 13
22.7
 23
46.46425074455671
 33
0.0
  0
SOLID
  5
117
330
110
100
AcDbEntity
  8
치수문자_일반주서
 62
     0
100
AcDbTrace
 10
-32.73550000000002
 20
47.01458407789004
 30
0.0
 11
-32.73550000000002
 21
45.91391741122337
 31
0.0
 12
-36.03750000000002
 22
46.46425074455671
 32
0.0
 13
-36.03750000000002
 23
46.46425074455671
 33
0.0
  0
MTEXT
  5
118
330
110
100
AcDbEntity
  8
치수문자_일반주서
 62
     0
100
AcDbMText
 10
-6.668750000000014
 20
50.83925074455671
 30
0.0
 40
3.5
 41
0.0
 71
     2
 72
     1
  1
\A1;58.74 [2.31]
  7
SLDTEXTSTYLE0
 73
     1
 44
1.0
  0
POINT
  5
119
330
110
100
AcDbEntity
  8
Defpoints
 62
     0
100
AcDbPoint
 10
22.7
 20
0.0550390038726327
 30
0.0
  0
POINT
  5
11A
330
110
100
AcDbEntity
  8
Defpoints
 62
     0
100
AcDbPoint
 10
-36.03750000000002
 20
-0.0000000000000036
 30
0.0
  0
POINT
  5
11B
330
110
100
AcDbEntity
  8
Defpoints
 62
     0
100
AcDbPoint
 10
-36.03750000000002
 20
46.46425074455671
 30
0.0
  0
ENDBLK
  5
112
330
110
100
AcDbEntity
  8
0
100
AcDbBlockEnd
  0
BLOCK
  5
12A
330
129
100
AcDbEntity
  8
0
100
AcDbBlockBegin
  2
SW_DOWELSYMBOL_0
 70
     0
 10
0.0
 20
0.0
 30
0.0
  3
SW_DOWELSYMBOL_0
  1
SW_DOWELSYMBOL_0
  0
CIRCLE
  5
12C
330
129
100
AcDbEntity
  8
해칭선
 62
     0
100
AcDbCircle
 10
0.0
 20
0.0
 30
0.0
 40
3.000000000000004
  0
HATCH
  5
12D
330
129
100
AcDbEntity
  8
0
  6
Continuous
 62
     0
370
     0
100
AcDbHatch
 10
0.0
 20
0.0
 30
0.0
210
0.0
220
0.0
230
1.0
  2
SOLID
 70
     1
 71
     0
 91
        1
 92
        0
 93
        3
 72
     2
 10
0.0000000000000104
 20
-0.0000000000000035
 40
3.000000000000004
 50
0.0
 51
90.0
 73
     1
 72
     1
 10
0.0000000000000104
 20
3.000000000000001
 11
0.0000000000000104
 21
-0.0000000000000036
 72
     1
 10
0.0000000000000104
 20
-0.0000000000000035
 11
3.000000000000015
 21
-0.0000000000000035
 97
        0
 75
     0
 76
     1
 98
        1
 10
0.0
 20
0.0
  0
HATCH
  5
12E
330
129
100
AcDbEntity
  8
0
  6
Continuous
 62
     0
370
     0
100
AcDbHatch
 10
0.0
 20
0.0
 30
0.0
210
0.0
220
0.0
230
1.0
  2
SOLID
 70
     1
 71
     0
 91
        1
 92
        0
 93
        3
 72
     2
 10
0.0000000000000104
 20
-0.0000000000000035
 40
3.000000000000004
 50
180.0
 51
270.0000000000007
 73
     1
 72
     1
 10
0.0000000000000104
 20
-3.000000000000008
 11
0.0000000000000104
 21
-0.0000000000000036
 72
     1
 10
0.0000000000000104
 20
-0.0000000000000035
 11
-2.999999999999994
 21
-0.0000000000000035
 97
        0
 75
     0
 76
     1
 98
        1
 10
0.0
 20
0.0
  0
ENDBLK
  5
12B
330
129
100
AcDbEntity
  8
0
100
AcDbBlockEnd
  0
BLOCK
  5
29E
330
29D
100
AcDbEntity
  8
0
100
AcDbBlockBegin
  2
*D7
 70
     1
 10
0.0
 20
0.0
 30
0.0
  3
*D7
  1
*D8
  0
LINE
  5
2A0
330
29D
100
AcDbEntity
  8
치수문자_일반주서
 62
     0
370
    -2
100
AcDbLine
 10
58.1254780054519
 20
15.49617217381036
 30
0.0
 11
94.38298805119874
 21
15.4961721738105
 31
0.0
  0
LINE
  5
2A1
330
29D
100
AcDbEntity
  8
치수문자_일반주서
 62
     0
370
    -2
100
AcDbLine
 10
72.93789761712544
 20
9.146172173810339
 30
0.0
 11
94.38298805119877
 21
9.14617217381042
 31
0.0
  0
LINE
  5
2A2
330
29D
100
AcDbEntity
  8
치수문자_일반주서
 62
     0
370
    -2
100
AcDbLine
 10
94.38298805119874
 20
15.4961721738105
 30
0.0
 11
94.3829880511986
 21
48.13142217381048
 31
0.0
  0
LINE
  5
2A3
330
29D
100
AcDbEntity
  8
치수문자_일반주서
 62
     0
370
    -2
100
AcDbLine
 10
94.38298805119874
 20
15.4961721738105
 30
0.0
 11
94.38298805119877
 21
9.14617217381042
 31
0.0
  0
LINE
  5
2A4
330
29D
100
AcDbEntity
  8
치수문자_일반주서
 62
     0
370
    -2
100
AcDbLine
 10
94.38298805119872
 20
18.7981721738105
 30
0.0
 11
94.38298805119871
 21
22.1001721738105
 31
0.0
  0
LINE
  5
2A5
330
29D
100
AcDbEntity
  8
치수문자_일반주서
 62
     0
370
    -2
100
AcDbLine
 10
94.38298805119878
 20
5.844172173810421
 30
0.0
 11
94.3829880511988
 21
2.542172173810421
 31
0.0
  0
SOLID
  5
2A6
330
29D
100
AcDbEntity
  8
치수문자_일반주서
 62
     0
100
AcDbTrace
 10
93.8326547178654
 20
18.79817217381049
 30
0.0
 11
94.93332138453205
 21
18.7981721738105
 31
0.0
 12
94.38298805119874
 22
15.4961721738105
 32
0.0
 13
94.38298805119874
 23
15.4961721738105
 33
0.0
  0
SOLID
  5
2A7
330
29D
100
AcDbEntity
  8
치수문자_일반주서
 62
     0
100
AcDbTrace
 10
94.9333213845321
 20
5.844172173810423
 30
0.0
 11
93.83265471786545
 21
5.844172173810418
 31
0.0
 12
94.38298805119877
 22
9.14617217381042
 32
0.0
 13
94.38298805119877
 23
9.14617217381042
 33
0.0
  0
MTEXT
  5
2A8
330
29D
100
AcDbEntity
  8
치수문자_일반주서
 62
     0
100
AcDbMText
 10
90.00798805119865
 20
35.44392217381046
 30
0.0
 40
3.5
 41
0.0
 71
     2
 72
     1
  1
\A1;%%c6.35 [1/4]
  7
SLDTEXTSTYLE0
 11
-4.475859752819474E-15
 21
1.0
 31
0.0
 73
     1
 44
1.0
  0
POINT
  5
2A9
330
29D
100
AcDbEntity
  8
Defpoints
 62
     0
100
AcDbPoint
 10
58.0629780054519
 20
15.49617217381036
 30
0.0
  0
POINT
  5
2AA
330
29D
100
AcDbEntity
  8
Defpoints
 62
     0
100
AcDbPoint
 10
72.87539761712544
 20
9.146172173810339
 30
0.0
  0
POINT
  5
2AB
330
29D
100
AcDbEntity
  8
Defpoints
 62
     0
100
AcDbPoint
 10
94.38298805119875
 20
9.146172173810418
 30
0.0
  0
ENDBLK
  5
29F
330
29D
100
AcDbEntity
  8
0
100
AcDbBlockEnd
  0
BLOCK
  5
2AD
330
2AC
100
AcDbEntity
  8
0
100
AcDbBlockBegin
  2
*D8
 70
     1
 10
0.0
 20
0.0
 30
0.0
  3
*D8
  1
*D9
  0
LINE
  5
2AF
330
2AC
100
AcDbEntity
  8
치수문자_일반주서
 62
     0
370
    -2
100
AcDbLine
 10
15.12250000000007
 20
15.49617217381032
 30
0.0
 11
4.375000000000022
 21
15.49617217381028
 31
0.0
  0
LINE
  5
2B0
330
2AC
100
AcDbEntity
  8
치수문자_일반주서
 62
     0
370
    -2
100
AcDbLine
 10
15.12250000000007
 20
9.146172173810328
 30
0.0
 11
4.375000000000044
 21
9.146172173810289
 31
0.0
  0
LINE
  5
2B1
330
2AC
100
AcDbEntity
  8
치수문자_일반주서
 62
     0
370
    -2
100
AcDbLine
 10
4.375000000000034
 20
12.19417217381028
 30
0.0
 11
4.375000000000033
 21
12.44817217381029
 31
0.0
  0
SOLID
  5
2B2
330
2AC
100
AcDbEntity
  8
치수문자_일반주서
 62
     0
100
AcDbTrace
 10
4.925333333333367
 20
12.19417217381029
 30
0.0
 11
3.824666666666701
 21
12.19417217381028
 31
0.0
 12
4.375000000000022
 22
15.49617217381028
 32
0.0
 13
4.375000000000022
 23
15.49617217381028
 33
0.0
  0
SOLID
  5
2B3
330
2AC
100
AcDbEntity
  8
치수문자_일반주서
 62
     0
100
AcDbTrace
 10
3.8246666666667
 20
12.44817217381029
 30
0.0
 11
4.925333333333366
 21
12.44817217381029
 31
0.0
 12
4.375000000000044
 22
9.146172173810289
 32
0.0
 13
4.375000000000044
 23
9.146172173810289
 33
0.0
  0
MTEXT
  5
2B4
330
2AC
100
AcDbEntity
  8
치수문자_일반주서
 62
     0
100
AcDbMText
 10
0.0000000000000355
 20
11.8125
 30
0.0
 40
3.5
 41
0.0
 71
     2
 72
     1
  1
\A1;%%c6.35 [1/4]
  7
SLDTEXTSTYLE0
 11
-3.496765431890259E-15
 21
1.0
 31
0.0
 73
     1
 44
1.0
  0
POINT
  5
2B5
330
2AC
100
AcDbEntity
  8
Defpoints
 62
     0
100
AcDbPoint
 10
15.18500000000007
 20
15.49617217381032
 30
0.0
  0
POINT
  5
2B6
330
2AC
100
AcDbEntity
  8
Defpoints
 62
     0
100
AcDbPoint
 10
15.18500000000007
 20
9.146172173810328
 30
0.0
  0
POINT
  5
2B7
330
2AC
100
AcDbEntity
  8
Defpoints
 62
     0
100
AcDbPoint
 10
4.375000000000036
 20
9.146172173810287
 30
0.0
  0
ENDBLK
  5
2AE
330
2AC
100
AcDbEntity
  8
0
100
AcDbBlockEnd
  0
BLOCK
  5
2B9
330
2B8
100
AcDbEntity
  8
0
100
AcDbBlockBegin
  2
*D9
 70
     1
 10
0.0
 20
0.0
 30
0.0
  3
*D9
  1
*D10
  0
LINE
  5
2BB
330
2B8
100
AcDbEntity
  8
치수문자_일반주서
 62
     0
370
    -2
100
AcDbLine
 10
77.87500000000009
 20
14.40327880320626
 30
0.0
 11
77.87500000000009
 21
32.85748422510201
 31
0.0
  0
LINE
  5
2BC
330
2B8
100
AcDbEntity
  8
치수문자_일반주서
 62
     0
370
    -2
100
AcDbLine
 10
58.82500000000007
 20
15.52836409100161
 30
0.0
 11
58.82500000000007
 21
32.85748422510201
 31
0.0
  0
LINE
  5
2BD
330
2B8
100
AcDbEntity
  8
치수문자_일반주서
 62
     0
370
    -2
100
AcDbLine
 10
58.82500000000007
 20
32.85748422510201
 30
0.0
 11
30.36675000000008
 21
32.85748422510201
 31
0.0
  0
LINE
  5
2BE
330
2B8
100
AcDbEntity
  8
치수문자_일반주서
 62
     0
370
    -2
100
AcDbLine
 10
74.57300000000009
 20
32.85748422510201
 30
0.0
 11
62.12700000000007
 21
32.85748422510201
 31
0.0
  0
SOLID
  5
2BF
330
2B8
100
AcDbEntity
  8
치수문자_일반주서
 62
     0
100
AcDbTrace
 10
74.57300000000009
 20
32.30715089176867
 30
0.0
 11
74.57300000000009
 21
33.40781755843534
 31
0.0
 12
77.87500000000009
 22
32.85748422510201
 32
0.0
 13
77.87500000000009
 23
32.85748422510201
 33
0.0
  0
SOLID
  5
2C0
330
2B8
100
AcDbEntity
  8
치수문자_일반주서
 62
     0
100
AcDbTrace
 10
62.12700000000007
 20
33.40781755843534
 30
0.0
 11
62.12700000000007
 21
32.30715089176867
 31
0.0
 12
58.82500000000007
 22
32.85748422510201
 32
0.0
 13
58.82500000000007
 23
32.85748422510201
 33
0.0
  0
MTEXT
  5
2C1
330
2B8
100
AcDbEntity
  8
치수문자_일반주서
 62
     0
100
AcDbMText
 10
42.83550000000008
 20
37.23248422510201
 30
0.0
 40
3.5
 41
0.0
 71
     2
 72
     1
  1
\A1;19.05 [3/4]
  7
SLDTEXTSTYLE0
 73
     1
 44
1.0
  0
POINT
  5
2C2
330
2B8
100
AcDbEntity
  8
Defpoints
 62
     0
100
AcDbPoint
 10
77.87500000000009
 20
14.34077880320626
 30
0.0
  0
POINT
  5
2C3
330
2B8
100
AcDbEntity
  8
Defpoints
 62
     0
100
AcDbPoint
 10
58.82500000000007
 20
15.46586409100161
 30
0.0
  0
POINT
  5
2C4
330
2B8
100
AcDbEntity
  8
Defpoints
 62
     0
100
AcDbPoint
 10
58.82500000000007
 20
32.85748422510201
 30
0.0
  0
ENDBLK
  5
2BA
330
2B8
100
AcDbEntity
  8
0
100
AcDbBlockEnd
  0
BLOCK
  5
2C6
330
2C5
100
AcDbEntity
  8
0
100
AcDbBlockBegin
  2
*D10
 70
     1
 10
0.0
 20
0.0
 30
0.0
  3
*D10
  1
*D11
  0
LINE
  5
2C8
330
2C5
100
AcDbEntity
  8
치수문자_일반주서
 62
     0
370
    -2
100
AcDbLine
 10
77.87500000000009
 20
14.40327880320626
 30
0.0
 11
77.87500000000009
 21
48.33815896683026
 31
0.0
  0
LINE
  5
2C9
330
2C5
100
AcDbEntity
  8
치수문자_일반주서
 62
     0
370
    -2
100
AcDbLine
 10
14.37500000000007
 20
14.74867217381033
 30
0.0
 11
14.37500000000007
 21
48.33815896683026
 31
0.0
  0
LINE
  5
2CA
330
2C5
100
AcDbEntity
  8
치수문자_일반주서
 62
     0
370
    -2
100
AcDbLine
 10
74.57300000000008
 20
48.33815896683026
 30
0.0
 11
17.67700000000007
 21
48.33815896683026
 31
0.0
  0
SOLID
  5
2CB
330
2C5
100
AcDbEntity
  8
치수문자_일반주서
 62
     0
100
AcDbTrace
 10
74.57300000000008
 20
47.78782563349692
 30
0.0
 11
74.57300000000008
 21
48.88849230016359
 31
0.0
 12
77.87500000000009
 22
48.33815896683026
 32
0.0
 13
77.87500000000009
 23
48.33815896683026
 33
0.0
  0
SOLID
  5
2CC
330
2C5
100
AcDbEntity
  8
치수문자_일반주서
 62
     0
100
AcDbTrace
 10
17.67700000000007
 20
48.88849230016359
 30
0.0
 11
17.67700000000007
 21
47.78782563349692
 31
0.0
 12
14.37500000000007
 22
48.33815896683026
 32
0.0
 13
14.37500000000007
 23
48.33815896683026
 33
0.0
  0
MTEXT
  5
2CD
330
2C5
100
AcDbEntity
  8
치수문자_일반주서
 62
     0
100
AcDbMText
 10
48.90128672569759
 20
52.71315896683026
 30
0.0
 40
3.5
 41
0.0
 71
     2
 72
     1
  1
\A1;63.50 [2 1/2]
  7
SLDTEXTSTYLE0
 73
     1
 44
1.0
  0
POINT
  5
2CE
330
2C5
100
AcDbEntity
  8
Defpoints
 62
     0
100
AcDbPoint
 10
77.87500000000009
 20
14.34077880320626
 30
0.0
  0
POINT
  5
2CF
330
2C5
100
AcDbEntity
  8
Defpoints
 62
     0
100
AcDbPoint
 10
14.37500000000007
 20
14.68617217381033
 30
0.0
  0
POINT
  5
2D0
330
2C5
100
AcDbEntity
  8
Defpoints
 62
     0
100
AcDbPoint
 10
14.37500000000007
 20
48.33815896683026
 30
0.0
  0
ENDBLK
  5
2C7
330
2C5
100
AcDbEntity
  8
0
100
AcDbBlockEnd
  0
BLOCK
  5
3B4
330
3B3
100
AcDbEntity
  8
0
100
AcDbBlockBegin
  2
*D11
 70
     1
 10
0.0
 20
0.0
 30
0.0
  3
*D11
  1
*D12
  0
LINE
  5
3B6
330
3B3
100
AcDbEntity
  8
치수문자_일반주서
 62
     0
370
    -2
100
AcDbLine
 10
98.62828344431063
 20
-34.04383149941889
 30
0.0
 11
134.8857934900575
 21
-34.04383149941875
 31
0.0
  0
LINE
  5
3B7
330
3B3
100
AcDbEntity
  8
치수문자_일반주서
 62
     0
370
    -2
100
AcDbLine
 10
113.4407030559842
 20
-40.39383149941891
 30
0.0
 11
134.8857934900575
 21
-40.39383149941882
 31
0.0
  0
LINE
  5
3B8
330
3B3
100
AcDbEntity
  8
치수문자_일반주서
 62
     0
370
    -2
100
AcDbLine
 10
134.8857934900575
 20
-34.04383149941875
 30
0.0
 11
134.8857934900573
 21
-1.408581499418759
 31
0.0
  0
LINE
  5
3B9
330
3B3
100
AcDbEntity
  8
치수문자_일반주서
 62
     0
370
    -2
100
AcDbLine
 10
134.8857934900575
 20
-34.04383149941875
 30
0.0
 11
134.8857934900575
 21
-40.39383149941882
 31
0.0
  0
LINE
  5
3BA
330
3B3
100
AcDbEntity
  8
치수문자_일반주서
 62
     0
370
    -2
100
AcDbLine
 10
134.8857934900574
 20
-30.74183149941875
 30
0.0
 11
134.8857934900574
 21
-27.43983149941875
 31
0.0
  0
LINE
  5
3BB
330
3B3
100
AcDbEntity
  8
치수문자_일반주서
 62
     0
370
    -2
100
AcDbLine
 10
134.8857934900575
 20
-43.69583149941882
 30
0.0
 11
134.8857934900576
 21
-46.99783149941882
 31
0.0
  0
SOLID
  5
3BC
330
3B3
100
AcDbEntity
  8
치수문자_일반주서
 62
     0
100
AcDbTrace
 10
134.3354601567241
 20
-30.74183149941875
 30
0.0
 11
135.4361268233908
 21
-30.74183149941875
 31
0.0
 12
134.8857934900575
 22
-34.04383149941875
 32
0.0
 13
134.8857934900575
 23
-34.04383149941875
 33
0.0
  0
SOLID
  5
3BD
330
3B3
100
AcDbEntity
  8
치수문자_일반주서
 62
     0
100
AcDbTrace
 10
135.4361268233909
 20
-43.69583149941882
 30
0.0
 11
134.3354601567242
 21
-43.69583149941882
 31
0.0
 12
134.8857934900575
 22
-40.39383149941882
 32
0.0
 13
134.8857934900575
 23
-40.39383149941882
 33
0.0
  0
MTEXT
  5
3BE
330
3B3
100
AcDbEntity
  8
치수문자_일반주서
 62
     0
100
AcDbMText
 10
130.5107934900574
 20
-14.09608149941878
 30
0.0
 40
3.5
 41
0.0
 71
     2
 72
     1
  1
\A1;%%c6.35 [1/4]
  7
SLDTEXTSTYLE0
 11
-4.475859752819473E-15
 21
1.0
 31
0.0
 73
     1
 44
1.0
  0
POINT
  5
3BF
330
3B3
100
AcDbEntity
  8
Defpoints
 62
     0
100
AcDbPoint
 10
98.56578344431063
 20
-34.04383149941889
 30
0.0
  0
POINT
  5
3C0
330
3B3
100
AcDbEntity
  8
Defpoints
 62
     0
100
AcDbPoint
 10
113.3782030559842
 20
-40.39383149941891
 30
0.0
  0
POINT
  5
3C1
330
3B3
100
AcDbEntity
  8
Defpoints
 62
     0
100
AcDbPoint
 10
134.8857934900575
 20
-40.39383149941883
 30
0.0
  0
ENDBLK
  5
3B5
330
3B3
100
AcDbEntity
  8
0
100
AcDbBlockEnd
  0
BLOCK
  5
3C3
330
3C2
100
AcDbEntity
  8
0
100
AcDbBlockBegin
  2
*D12
 70
     1
 10
0.0
 20
0.0
 30
0.0
  3
*D12
  1
*D13
  0
LINE
  5
3C5
330
3C2
100
AcDbEntity
  8
치수문자_일반주서
 62
     0
370
    -2
100
AcDbLine
 10
55.6253054388588
 20
-34.04383149941892
 30
0.0
 11
44.87780543885876
 21
-34.04383149941896
 31
0.0
  0
LINE
  5
3C6
330
3C2
100
AcDbEntity
  8
치수문자_일반주서
 62
     0
370
    -2
100
AcDbLine
 10
55.6253054388588
 20
-40.39383149941892
 30
0.0
 11
44.87780543885878
 21
-40.39383149941896
 31
0.0
  0
LINE
  5
3C7
330
3C2
100
AcDbEntity
  8
치수문자_일반주서
 62
     0
370
    -2
100
AcDbLine
 10
44.87780543885877
 20
-37.34583149941896
 30
0.0
 11
44.87780543885876
 21
-37.09183149941896
 31
0.0
  0
SOLID
  5
3C8
330
3C2
100
AcDbEntity
  8
치수문자_일반주서
 62
     0
100
AcDbTrace
 10
45.42813877219211
 20
-37.34583149941896
 30
0.0
 11
44.32747210552544
 21
-37.34583149941896
 31
0.0
 12
44.87780543885876
 22
-34.04383149941896
 32
0.0
 13
44.87780543885876
 23
-34.04383149941896
 33
0.0
  0
SOLID
  5
3C9
330
3C2
100
AcDbEntity
  8
치수문자_일반주서
 62
     0
100
AcDbTrace
 10
44.32747210552543
 20
-37.09183149941896
 30
0.0
 11
45.4281387721921
 21
-37.09183149941896
 31
0.0
 12
44.87780543885878
 22
-40.39383149941896
 32
0.0
 13
44.87780543885878
 23
-40.39383149941896
 33
0.0
  0
MTEXT
  5
3CA
330
3C2
100
AcDbEntity
  8
치수문자_일반주서
 62
     0
100
AcDbMText
 10
40.50280543885877
 20
-37.72750367322924
 30
0.0
 40
3.5
 41
0.0
 71
     2
 72
     1
  1
\A1;%%c6.35 [1/4]
  7
SLDTEXTSTYLE0
 11
-3.356894814614650E-15
 21
1.0
 31
0.0
 73
     1
 44
1.0
  0
POINT
  5
3CB
330
3C2
100
AcDbEntity
  8
Defpoints
 62
     0
100
AcDbPoint
 10
55.6878054388588
 20
-34.04383149941892
 30
0.0
  0
POINT
  5
3CC
330
3C2
100
AcDbEntity
  8
Defpoints
 62
     0
100
AcDbPoint
 10
55.6878054388588
 20
-40.39383149941892
 30
0.0
  0
POINT
  5
3CD
330
3C2
100
AcDbEntity
  8
Defpoints
 62
     0
100
AcDbPoint
 10
44.87780543885878
 20
-40.39383149941896
 30
0.0
  0
ENDBLK
  5
3C4
330
3C2
100
AcDbEntity
  8
0
100
AcDbBlockEnd
  0
BLOCK
  5
3CF
330
3CE
100
AcDbEntity
  8
0
100
AcDbBlockBegin
  2
*D13
 70
     1
 10
0.0
 20
0.0
 30
0.0
  3
*D13
  1
*D14
  0
LINE
  5
3D1
330
3CE
100
AcDbEntity
  8
치수문자_일반주서
 62
     0
370
    -2
100
AcDbLine
 10
118.3778054388588
 20
-35.13672487002298
 30
0.0
 11
118.3778054388588
 21
-16.68251944812724
 31
0.0
  0
LINE
  5
3D2
330
3CE
100
AcDbEntity
  8
치수문자_일반주서
 62
     0
370
    -2
100
AcDbLine
 10
99.3278054388588
 20
-34.01163958222763
 30
0.0
 11
99.3278054388588
 21
-16.68251944812724
 31
0.0
  0
LINE
  5
3D3
330
3CE
100
AcDbEntity
  8
치수문자_일반주서
 62
     0
370
    -2
100
AcDbLine
 10
99.3278054388588
 20
-16.68251944812724
 30
0.0
 11
70.86955543885881
 21
-16.68251944812724
 31
0.0
  0
LINE
  5
3D4
330
3CE
100
AcDbEntity
  8
치수문자_일반주서
 62
     0
370
    -2
100
AcDbLine
 10
115.0758054388588
 20
-16.68251944812724
 30
0.0
 11
102.6298054388588
 21
-16.68251944812724
 31
0.0
  0
SOLID
  5
3D5
330
3CE
100
AcDbEntity
  8
치수문자_일반주서
 62
     0
100
AcDbTrace
 10
115.0758054388588
 20
-17.23285278146057
 30
0.0
 11
115.0758054388588
 21
-16.1321861147939
 31
0.0
 12
118.3778054388588
 22
-16.68251944812724
 32
0.0
 13
118.3778054388588
 23
-16.68251944812724
 33
0.0
  0
SOLID
  5
3D6
330
3CE
100
AcDbEntity
  8
치수문자_일반주서
 62
     0
100
AcDbTrace
 10
102.6298054388588
 20
-16.1321861147939
 30
0.0
 11
102.6298054388588
 21
-17.23285278146057
 31
0.0
 12
99.3278054388588
 22
-16.68251944812724
 32
0.0
 13
99.3278054388588
 23
-16.68251944812724
 33
0.0
  0
MTEXT
  5
3D7
330
3CE
100
AcDbEntity
  8
치수문자_일반주서
 62
     0
100
AcDbMText
 10
83.33830543885881
 20
-12.30751944812724
 30
0.0
 40
3.5
 41
0.0
 71
     2
 72
     1
  1
\A1;19.05 [3/4]
  7
SLDTEXTSTYLE0
 73
     1
 44
1.0
  0
POINT
  5
3D8
330
3CE
100
AcDbEntity
  8
Defpoints
 62
     0
100
AcDbPoint
 10
118.3778054388588
 20
-35.19922487002298
 30
0.0
  0
POINT
  5
3D9
330
3CE
100
AcDbEntity
  8
Defpoints
 62
     0
100
AcDbPoint
 10
99.3278054388588
 20
-34.07413958222763
 30
0.0
  0
POINT
  5
3DA
330
3CE
100
AcDbEntity
  8
Defpoints
 62
     0
100
AcDbPoint
 10
99.3278054388588
 20
-16.68251944812724
 30
0.0
  0
ENDBLK
  5
3D0
330
3CE
100
AcDbEntity
  8
0
100
AcDbBlockEnd
  0
BLOCK
  5
3DC
330
3DB
100
AcDbEntity
  8
0
100
AcDbBlockBegin
  2
*D14
 70
     1
 10
0.0
 20
0.0
 30
0.0
  3
*D14
  1
*D15
  0
LINE
  5
3DE
330
3DB
100
AcDbEntity
  8
치수문자_일반주서
 62
     0
370
    -2
100
AcDbLine
 10
118.3778054388588
 20
-35.13672487002298
 30
0.0
 11
118.3778054388588
 21
-1.201844706398987
 31
0.0
  0
LINE
  5
3DF
330
3DB
100
AcDbEntity
  8
치수문자_일반주서
 62
     0
370
    -2
100
AcDbLine
 10
54.87780543885881
 20
-34.79133149941891
 30
0.0
 11
54.87780543885881
 21
-1.201844706398987
 31
0.0
  0
LINE
  5
3E0
330
3DB
100
AcDbEntity
  8
치수문자_일반주서
 62
     0
370
    -2
100
AcDbLine
 10
115.0758054388588
 20
-1.201844706398987
 30
0.0
 11
58.17980543885881
 21
-1.201844706398987
 31
0.0
  0
SOLID
  5
3E1
330
3DB
100
AcDbEntity
  8
치수문자_일반주서
 62
     0
100
AcDbTrace
 10
115.0758054388588
 20
-1.75217803973232
 30
0.0
 11
115.0758054388588
 21
-0.6515113730656534
 31
0.0
 12
118.3778054388588
 22
-1.201844706398987
 32
0.0
 13
118.3778054388588
 23
-1.201844706398987
 33
0.0
  0
SOLID
  5
3E2
330
3DB
100
AcDbEntity
  8
치수문자_일반주서
 62
     0
100
AcDbTrace
 10
58.17980543885881
 20
-0.6515113730656534
 30
0.0
 11
58.17980543885881
 21
-1.75217803973232
 31
0.0
 12
54.87780543885881
 22
-1.201844706398987
 32
0.0
 13
54.87780543885881
 23
-1.201844706398987
 33
0.0
  0
MTEXT
  5
3E3
330
3DB
100
AcDbEntity
  8
치수문자_일반주서
 62
     0
100
AcDbMText
 10
89.40409216455632
 20
3.173155293601013
 30
0.0
 40
3.5
 41
0.0
 71
     2
 72
     1
  1
\A1;63.50 [2 1/2]
  7
SLDTEXTSTYLE0
 73
     1
 44
1.0
  0
POINT
  5
3E4
330
3DB
100
AcDbEntity
  8
Defpoints
 62
     0
100
AcDbPoint
 10
118.3778054388588
 20
-35.19922487002298
 30
0.0
  0
POINT
  5
3E5
330
3DB
100
AcDbEntity
  8
Defpoints
 62
     0
100
AcDbPoint
 10
54.87780543885881
 20
-34.85383149941891
 30
0.0
  0
POINT
  5
3E6
330
3DB
100
AcDbEntity
  8
Defpoints
 62
     0
100
AcDbPoint
 10
54.87780543885881
 20
-1.201844706398987
 30
0.0
  0
ENDBLK
  5
3DD
330
3DB
100
AcDbEntity
  8
0
100
AcDbBlockEnd
  0
BLOCK
  5
3EF
330
3EE
100
AcDbEntity
  8
0
100
AcDbBlockBegin
  2
*D15
 70
     1
 10
0.0
 20
0.0
 30
0.0
  3
*D15
  1
*D16
  0
LINE
  5
3F1
330
3EE
100
AcDbEntity
  8
치수문자_일반주서
 62
     0
370
    -2
100
AcDbLine
 10
19.18191296299633
 20
-2.381250000000003
 30
0.0
 11
31.65323272680477
 21
-2.381250000000001
 31
0.0
  0
LINE
  5
3F2
330
3EE
100
AcDbEntity
  8
치수문자_일반주서
 62
     0
370
    -2
100
AcDbLine
 10
19.18191296299633
 20
2.38125
 30
0.0
 11
31.65323272680477
 21
2.381250000000001
 31
0.0
  0
LINE
  5
3F3
330
3EE
100
AcDbEntity
  8
치수문자_일반주서
 62
     0
370
    -2
100
AcDbLine
 10
31.65323272680477
 20
2.381250000000001
 30
0.0
 11
31.65323272680477
 21
34.36025
 31
0.0
  0
LINE
  5
3F4
330
3EE
100
AcDbEntity
  8
치수문자_일반주서
 62
     0
370
    -2
100
AcDbLine
 10
31.65323272680477
 20
-2.381250000000001
 30
0.0
 11
31.65323272680477
 21
2.381250000000001
 31
0.0
  0
LINE
  5
3F5
330
3EE
100
AcDbEntity
  8
치수문자_일반주서
 62
     0
370
    -2
100
AcDbLine
 10
31.65323272680477
 20
-5.683250000000001
 30
0.0
 11
31.65323272680477
 21
-8.98525
 31
0.0
  0
LINE
  5
3F6
330
3EE
100
AcDbEntity
  8
치수문자_일반주서
 62
     0
370
    -2
100
AcDbLine
 10
31.65323272680477
 20
5.683250000000001
 30
0.0
 11
31.65323272680477
 21
8.98525
 31
0.0
  0
SOLID
  5
3F7
330
3EE
100
AcDbEntity
  8
치수문자_일반주서
 62
     0
100
AcDbTrace
 10
32.2035660601381
 20
-5.683250000000001
 30
0.0
 11
31.10289939347143
 21
-5.683250000000001
 31
0.0
 12
31.65323272680477
 22
-2.381250000000001
 32
0.0
 13
31.65323272680477
 23
-2.381250000000001
 33
0.0
  0
SOLID
  5
3F8
330
3EE
100
AcDbEntity
  8
치수문자_일반주서
 62
     0
100
AcDbTrace
 10
31.10289939347143
 20
5.683250000000001
 30
0.0
 11
32.2035660601381
 21
5.683250000000001
 31
0.0
 12
31.65323272680477
 22
2.381250000000001
 32
0.0
 13
31.65323272680477
 23
2.381250000000001
 33
0.0
  0
MTEXT
  5
3F9
330
3EE
100
AcDbEntity
  8
치수문자_일반주서
 62
     0
100
AcDbMText
 10
29.02823272680477
 20
21.67275
 30
0.0
 40
3.5
 41
0.0
 71
     5
 72
     1
  1
\A1;4.76 [3/16]
  7
SLDTEXTSTYLE0
 11
0.0
 21
1.0
 31
0.0
 73
     1
 44
1.0
  0
POINT
  5
3FA
330
3EE
100
AcDbEntity
  8
Defpoints
 62
     0
100
AcDbPoint
 10
19.11941296299633
 20
-2.381250000000003
 30
0.0
  0
POINT
  5
3FB
330
3EE
100
AcDbEntity
  8
Defpoints
 62
     0
100
AcDbPoint
 10
19.11941296299633
 20
2.38125
 30
0.0
  0
POINT
  5
3FD
330
3EE
100
AcDbEntity
  8
Defpoints
 62
     0
100
AcDbPoint
 10
31.65323272680477
 20
2.381249999999999
 30
0.0
  0
ENDBLK
  5
3F0
330
3EE
100
AcDbEntity
  8
0
100
AcDbBlockEnd
  0
BLOCK
  5
408
330
407
100
AcDbEntity
  8
0
100
AcDbBlockBegin
  2
*D16
 70
     1
 10
0.0
 20
0.0
 30
0.0
  3
*D16
  1
*D17
  0
LINE
  5
40A
330
407
100
AcDbEntity
  8
치수문자_일반주서
 62
     0
370
    -2
100
AcDbLine
 10
19.11941296299633
 20
1.61874999999999
 30
0.0
 11
19.11941296299633
 21
32.45900038050159
 31
0.0
  0
LINE
  5
40B
330
407
100
AcDbEntity
  8
치수문자_일반주서
 62
     0
370
    -2
100
AcDbLine
 10
-38.03058703700366
 20
2.427499999999994
 30
0.0
 11
-38.03058703700366
 21
32.45900038050159
 31
0.0
  0
LINE
  5
40C
330
407
100
AcDbEntity
  8
치수문자_일반주서
 62
     0
370
    -2
100
AcDbLine
 10
15.81741296299633
 20
32.45900038050159
 30
0.0
 11
-34.72858703700366
 21
32.45900038050159
 31
0.0
  0
SOLID
  5
40D
330
407
100
AcDbEntity
  8
치수문자_일반주서
 62
     0
100
AcDbTrace
 10
15.81741296299633
 20
31.90866704716826
 30
0.0
 11
15.81741296299633
 21
33.00933371383493
 31
0.0
 12
19.11941296299633
 22
32.45900038050159
 32
0.0
 13
19.11941296299633
 23
32.45900038050159
 33
0.0
  0
SOLID
  5
40E
330
407
100
AcDbEntity
  8
치수문자_일반주서
 62
     0
100
AcDbTrace
 10
-34.72858703700366
 20
33.00933371383493
 30
0.0
 11
-34.72858703700366
 21
31.90866704716826
 31
0.0
 12
-38.03058703700366
 22
32.45900038050159
 32
0.0
 13
-38.03058703700366
 23
32.45900038050159
 33
0.0
  0
MTEXT
  5
40F
330
407
100
AcDbEntity
  8
치수문자_일반주서
 62
     0
100
AcDbMText
 10
-9.455587037003664
 20
35.08400038050159
 30
0.0
 40
3.5
 41
0.0
 71
     5
 72
     1
  1
\A1;57.15 [2 1/4]
  7
SLDTEXTSTYLE0
 73
     1
 44
1.0
  0
POINT
  5
410
330
407
100
AcDbEntity
  8
Defpoints
 62
     0
100
AcDbPoint
 10
19.11941296299633
 20
0.0000000000000018
 30
0.0
  0
POINT
  5
411
330
407
100
AcDbEntity
  8
Defpoints
 62
     0
100
AcDbPoint
 10
-38.03058703700366
 20
2.364999999999994
 30
0.0
  0
POINT
  5
412
330
407
100
AcDbEntity
  8
Defpoints
 62
     0
100
AcDbPoint
 10
-38.03058703700366
 20
32.45900038050159
 30
0.0
  0
ENDBLK
  5
409
330
407
100
AcDbEntity
  8
0
100
AcDbBlockEnd
  0
ENDSEC
  0
SECTION
  2
ENTITIES
  0
LINE
  5
96
330
1F
100
AcDbEntity
  8
외형선
  6
Continuous
370
    15
100
AcDbLine
 10
2.000000000000003
 20
3.175
 30
0.0
 11
-37.22058703700367
 21
3.174999999999994
 31
0.0
  0
LINE
  5
98
330
1F
100
AcDbEntity
  8
외형선
  6
Continuous
370
    15
100
AcDbLine
 10
-38.80808703700369
 20
-3.175000000000006
 30
0.0
 11
2.000000000000012
 21
-3.175
 31
0.0
  0
LINE
  5
99
330
1F
100
AcDbEntity
  8
외형선
  6
Continuous
370
    15
100
AcDbLine
 10
-37.22058703700367
 20
3.174999999999994
 30
0.0
 11
-38.03058703700366
 21
2.364999999999994
 31
0.0
  0
LINE
  5
9A
330
1F
100
AcDbEntity
  8
외형선
  6
Continuous
370
    15
100
AcDbLine
 10
-38.03058703700366
 20
-2.365000000000005
 30
0.0
 11
-37.22058703700367
 21
-3.175000000000006
 31
0.0
  0
LINE
  5
A6
330
1F
100
AcDbEntity
  8
외형선
  6
Continuous
370
    15
100
AcDbLine
 10
-37.22058703700367
 20
3.174999999999995
 30
0.0
 11
-37.22058703700367
 21
-3.175000000000005
 31
0.0
  0
LINE
  5
A8
330
1F
100
AcDbEntity
  8
외형선
  6
Continuous
370
    15
100
AcDbLine
 10
-38.03058703700366
 20
2.364999999999994
 30
0.0
 11
-38.03058703700366
 21
-2.365000000000005
 31
0.0
  0
LINE
  5
C4
330
1F
100
AcDbEntity
  8
중심선
100
AcDbLine
 10
-42.61808703700367
 20
-0.0000000000000057
 30
0.0
 11
22.11941296299635
 21
0.0000000000000022
 31
0.0
  0
LINE
  5
C5
330
1F
100
AcDbEntity
  8
참조1
100
AcDbLine
 10
-11.7064346714922
 20
-0.3168705809327326
 30
0.0
 11
-11.7064346714922
 21
-40.31687058093273
 31
0.0
  0
LINE
  5
C6
330
1F
100
AcDbEntity
  8
참조1
100
AcDbLine
 10
-24.76629232668867
 20
-3.174999999999992
 30
0.0
 11
43.3762880169038
 21
-3.174999999999992
 31
0.0
  0
LINE
  5
C7
330
1F
100
AcDbEntity
  8
참조1
100
AcDbLine
 10
43.3762880169038
 20
-3.174999999999992
 30
0.0
 11
43.37628801690379
 21
-6.927248606176842
 31
0.0
  0
LINE
  5
C8
330
1F
100
AcDbEntity
  8
참조1
100
AcDbLine
 10
-11.7064346714922
 20
-40.31687058093273
 30
0.0
 11
-29.2337344787579
 21
-40.31687058093273
 31
0.0
  0
CIRCLE
  5
C9
330
1F
100
AcDbEntity
  8
해칭선
100
AcDbCircle
 10
0.0
 20
0.0
 30
0.0
 40
3.000000000000005
  0
INSERT
  5
CA
330
1F
100
AcDbEntity
  8
0
  6
Continuous
 62
     7
100
AcDbBlockReference
 66
     1
  2
블럭10
 10
-25.6467076036174
 20
-52.36404488257666
 30
0.0
  0
ATTRIB
  5
CB
330
CA
100
AcDbEntity
  8
FORMAT
 62
     2
100
AcDbText
 10
-35.16902155421534
 20
-50.28867796974446
 30
0.0
 40
4.233333333333333
  1
EH969012 [ 3 FLUTE ]
 41
0.75
  7
SLDTEXTSTYLE0
 11
-35.16902155421534
 21
-52.40534463641113
 31
0.0
100
AcDbAttribute
  2
AUTOATTR0
 70
     0
 74
     1
  0
SEQEND
  5
CC
330
CA
100
AcDbEntity
  8
0
  6
Continuous
 62
     7
  0
HATCH
  5
CD
330
1F
100
AcDbEntity
  8
중심선
100
AcDbHatch
 10
0.0
 20
0.0
 30
0.0
210
0.0
220
0.0
230
1.0
  2
SOLID
 70
     1
 71
     0
 91
        1
 92
        0
 93
        4
 72
     1
 10
-19.93179829923655
 20
-36.11687058093273
 11
-23.37807354307383
 21
-36.11687058093273
 72
     1
 10
-23.37807354307383
 20
-36.11687058093273
 11
-25.50630340227788
 21
-38.65319616150532
 72
     1
 10
-25.50630340227788
 20
-38.65319616150532
 11
-22.05999507332742
 21
-38.65315673220283
 72
     1
 10
-22.05999507332742
 20
-38.65315673220283
 11
-19.93179829923655
 21
-36.11687058093273
 97
        0
 75
     0
 76
     1
 98
        1
 10
-5.037684671492205
 20
-0.3168705809327291
  0
HATCH
  5
CE
330
1F
100
AcDbEntity
  8
중심선
100
AcDbHatch
 10
0.0
 20
0.0
 30
0.0
210
0.0
220
0.0
230
1.0
  2
SOLID
 70
     1
 71
     0
 91
        1
 92
        0
 93
        4
 72
     1
 10
-14.91903430820057
 20
-36.11687058093275
 11
-18.36530955203788
 21
-36.11687058093273
 72
     1
 10
-18.36530955203788
 20
-36.11687058093273
 11
-22.89644756039527
 21
-41.51687058093275
 72
     1
 10
-22.89644756039527
 20
-41.51687058093275
 11
-19.45017231655799
 21
-41.51687058093275
 72
     1
 10
-19.45017231655799
 20
-41.51687058093275
 11
-14.91903430820057
 21
-36.11687058093275
 97
        0
 75
     0
 76
     1
 98
        1
 10
-5.037684671492205
 20
-0.3168705809327291
  0
HATCH
  5
CF
330
1F
100
AcDbEntity
  8
중심선
100
AcDbHatch
 10
0.0
 20
0.0
 30
0.0
210
0.0
220
0.0
230
1.0
  2
SOLID
 70
     1
 71
     0
 91
        1
 92
        0
 93
        4
 72
     1
 10
-9.9062703171647
 20
-36.11687058093273
 11
-13.35254556100182
 21
-36.11687058093273
 72
     1
 10
-13.35254556100182
 20
-36.11687058093273
 11
-20.40098246289106
 21
-44.51687058093275
 72
     1
 10
-20.40098246289106
 20
-44.51687058093275
 11
-16.95470721905378
 21
-44.51687058093275
 72
     1
 10
-16.95470721905378
 20
-44.51687058093275
 11
-9.9062703171647
 21
-36.11687058093273
 97
        0
 75
     0
 76
     1
 98
        1
 10
-5.037684671492205
 20
-0.3168705809327291
  0
HATCH
  5
D0
330
1F
100
AcDbEntity
  8
중심선
100
AcDbHatch
 10
0.0
 20
0.0
 30
0.0
210
0.0
220
0.0
230
1.0
  2
SOLID
 70
     1
 71
     0
 91
        1
 92
        0
 93
        6
 72
     3
 10
-5.106379886152503
 20
-40.316870580984
 11
3.960054785062284
 21
1.540882976769353E-10
 40
0.3939339440162627
 50
17.0953918060844
 51
320.0019657685077
 73
     0
 72
     1
 10
-3.423380230451935
 20
-38.90476458557103
 11
-1.118078356750869
 21
-36.97043787552311
 72
     3
 10
-5.10637988620535
 20
-40.31687058093288
 11
6.60005478528683
 21
-1.278976924368180E-13
 40
0.636358354079598
 50
39.99873849337411
 51
368.4976242363724
 73
     1
 72
     1
 10
1.318952605695261
 20
-39.35687058086275
 11
-6.426312579369426
 21
-39.35687058086275
 72
     1
 10
-6.426312579369426
 20
-39.35687058086275
 11
-6.42633762381536
 21
-41.27687058086264
 72
     1
 10
-6.42633762381536
 20
-41.27687058086264
 11
-1.984957854343324
 21
-41.27687058086261
 97
        0
 75
     0
 76
     1
 98
        1
 10
-5.037684671492205
 20
-0.3168705809327291
  0
POINT
  5
D1
330
1F
100
AcDbEntity
  8
치수문자_일반주서
100
AcDbPoint
 10
-3.580587037003656
 20
-0.3168705809327344
 30
0.0
  0
DIMENSION
  5
E6
330
1F
100
AcDbEntity
  8
치수문자_일반주서
100
AcDbDimension
  2
_D_1
 10
-49.61808703700373
 20
-3.17500000000005
 30
0.0
 11
-49.61808703700373
 21
-0.5086721738103255
 31
0.0
 70
   160
  1
%%c<>
 71
     2
 42
6.349999999999994
 52
-270.0
  3
SLDDIMSTYLE0
100
AcDbAlignedDimension
 13
-38.8080870370037
 23
3.174999999999983
 33
0.0
 14
-38.8080870370037
 24
-3.175000000000011
 34
0.0
 50
90.0000000000002
100
AcDbRotatedDimension
1001
ACAD
1000
DSTYLE
1002
{
1070
   171
1070
     6
1070
   273
1070
     7
1002
}
  0
DIMENSION
  5
FA
330
1F
100
AcDbEntity
  8
치수문자_일반주서
100
AcDbDimension
  2
_D_2
 10
6.419412962996328
 20
18.55816981532517
 30
0.0
 11
12.76941296299633
 21
18.55816981532517
 31
0.0
 70
   160
  1
<>
 71
     2
 42
12.7
  3
SLDDIMSTYLE1
100
AcDbAlignedDimension
 13
19.11941296299633
 23
2.38125
 33
0.0
 14
6.419412962996328
 24
2.76637843541446
 34
0.0
 50
0.000000000000016
100
AcDbRotatedDimension
1001
ACAD
1000
DSTYLE
1002
{
1070
   171
1070
     6
1070
   273
1070
     7
1002
}
  0
LINE
  5
122
330
1F
100
AcDbEntity
  8
참조1
100
AcDbLine
 10
68.73860615089637
 20
7.123129419067273
 30
0.0
 11
68.73860615089637
 21
-7.756870580932731
 31
0.0
  0
LINE
  5
123
330
1F
100
AcDbEntity
  8
참조1
100
AcDbLine
 10
81.43860615089636
 20
5.123129419067273
 30
0.0
 11
68.73860615089637
 21
5.123129419067273
 31
0.0
  0
SOLID
  5
124
330
1F
100
AcDbEntity
  8
참조1
100
AcDbTrace
 10
68.73860615089637
 20
5.123129419067273
 30
0.0
 11
75.08860615089637
 21
4.107129419067273
 31
0.0
 12
75.08860615089637
 22
6.139129419067273
 32
0.0
 13
75.08860615089637
 23
6.139129419067273
 33
0.0
  0
LINE
  5
125
330
1F
100
AcDbEntity
  8
참조1
100
AcDbLine
 10
81.43860615089636
 20
-5.756870580932731
 30
0.0
 11
68.73860615089637
 21
-5.756870580932731
 31
0.0
  0
SOLID
  5
126
330
1F
100
AcDbEntity
  8
참조1
100
AcDbTrace
 10
68.73860615089637
 20
-5.756870580932731
 30
0.0
 11
75.08860615089637
 21
-6.772870580932731
 31
0.0
 12
75.08860615089637
 22
-4.740870580932731
 32
0.0
 13
75.08860615089637
 23
-4.740870580932731
 33
0.0
  0
MTEXT
  5
127
330
1F
100
AcDbEntity
  8
참조1
100
AcDbMText
 10
78.33872096145893
 20
10.74884698508335
 30
0.0
 40
3.5
 41
0.0
 71
     1
 72
     1
  1
A
  7
SLDTEXTSTYLE0
 73
     1
 44
1.0
  0
MTEXT
  5
128
330
1F
100
AcDbEntity
  8
참조1
100
AcDbMText
 10
78.33872096145893
 20
-0.1311530149166555
 30
0.0
 40
3.5
 41
0.0
 71
     1
 72
     1
  1
A
  7
SLDTEXTSTYLE0
 73
     1
 44
1.0
  0
INSERT
  5
12F
330
1F
100
AcDbEntity
  8
해칭선
100
AcDbBlockReference
  2
SW_DOWELSYMBOL_0
 10
0.0
 20
0.0
 30
0.0
  0
SPLINE
  5
2D6
330
1F
100
AcDbEntity
  8
외형선
  6
Continuous
 62
     1
370
    15
100
AcDbSpline
210
0.0
220
0.0
230
1.0
 70
     8
 71
     3
 72
     9
 73
     5
 74
     0
 42
0.000000001
 43
0.00000001
 40
0.0
 40
0.0
 40
0.0
 40
0.0
 40
0.4095337262416169
 40
1.0
 40
1.0
 40
1.0
 40
1.0
 10
13.34280269463293
 20
2.296152436068104
 30
0.0
 10
13.33943380705913
 20
2.297087680926188
 30
0.0
 10
13.33120765287957
 20
2.299371363070441
 30
0.0
 10
13.32485077934957
 20
2.297613554015988
 30
0.0
 10
13.32109725992357
 20
2.296575627053619
 30
0.0
  0
LINE
  5
2D7
330
1F
100
AcDbEntity
  8
외형선
  6
Continuous
 62
     1
370
    15
100
AcDbLine
 10
6.419412962996326
 20
-2.381250000000003
 30
0.0
 11
6.584896571164031
 21
-2.381250000000003
 31
0.0
  0
SPLINE
  5
2D8
330
1F
100
AcDbEntity
  8
외형선
  6
Continuous
 62
     1
370
    15
100
AcDbSpline
210
0.0
220
0.0
230
1.0
 70
     8
 71
     3
 72
     9
 73
     5
 74
     0
 42
0.000000001
 43
0.00000001
 40
0.0
 40
0.0
 40
0.0
 40
0.0
 40
0.6452232092879404
 40
1.0
 40
1.0
 40
1.0
 40
1.0
 10
13.31323436597885
 20
2.308095530867724
 30
0.0
 10
13.30120483605762
 20
2.319794621919931
 30
0.0
 10
13.28256085402458
 20
2.337926472857389
 30
0.0
 10
13.26249370960033
 20
2.348548689455824
 30
0.0
 10
13.25537435250272
 20
2.352317205370865
 30
0.0
  0
LINE
  5
2D9
330
1F
100
AcDbEntity
  8
외형선
  6
Continuous
 62
     1
370
    15
100
AcDbLine
 10
12.89949845146996
 20
2.38125
 30
0.0
 11
11.96705949971739
 21
2.38125
 31
0.0
  0
SPLINE
  5
2DA
330
1F
100
AcDbEntity
  8
외형선
  6
Continuous
 62
     1
370
    15
100
AcDbSpline
210
0.0
220
0.0
230
1.0
 70
     8
 71
     3
 72
     9
 73
     5
 74
     0
 42
0.000000001
 43
0.00000001
 40
0.0
 40
0.0
 40
0.0
 40
0.0
 40
0.2458910454161847
 40
1.0
 40
1.0
 40
1.0
 40
1.0
 10
14.43906102886921
 20
-2.269360557389498
 30
0.0
 10
14.45652150005118
 20
-2.267302867077668
 30
0.0
 10
14.527530475398
 20
-2.258934565953291
 30
0.0
 10
14.58303431033046
 20
-2.294716846984948
 30
0.0
 10
14.62489024926678
 20
-2.321700585526352
 30
0.0
  0
SPLINE
  5
2DB
330
1F
100
AcDbEntity
  8
외형선
  6
Continuous
 62
     1
370
    15
100
AcDbSpline
210
0.0
220
0.0
230
1.0
 70
     8
 71
     3
 72
     9
 73
     5
 74
     0
 42
0.000000001
 43
0.00000001
 40
0.0
 40
0.0
 40
0.0
 40
0.0
 40
0.4976375884036065
 40
1.0
 40
1.0
 40
1.0
 40
1.0
 10
14.63144507402869
 20
-2.327682848515488
 30
0.0
 10
14.65180117723468
 20
-2.341259958580303
 30
0.0
 10
14.69270665479578
 20
-2.368543086666287
 30
0.0
 10
14.73968669736166
 20
-2.374639601495298
 30
0.0
 10
14.76328770484194
 20
-2.377702261387136
 30
0.0
  0
LINE
  5
2DC
330
1F
100
AcDbEntity
  8
외형선
  6
Continuous
 62
     1
370
    15
100
AcDbLine
 10
14.77960711513198
 20
-2.381250000000003
 30
0.0
 11
15.95981523654873
 21
-2.381250000000003
 31
0.0
  0
SPLINE
  5
2DD
330
1F
100
AcDbEntity
  8
외형선
  6
Continuous
 62
     1
370
    15
100
AcDbSpline
210
0.0
220
0.0
230
1.0
 70
     8
 71
     3
 72
     9
 73
     5
 74
     0
 42
0.000000001
 43
0.00000001
 40
0.0
 40
0.0
 40
0.0
 40
0.0
 40
0.5030935009822227
 40
1.0
 40
1.0
 40
1.0
 40
1.0
 10
6.587687983833484
 20
-2.381167835276444
 30
0.0
 10
6.61173481290431
 20
-2.378998548701113
 30
0.0
 10
6.659532745145278
 20
-2.374686653256029
 30
0.0
 10
6.701366783257535
 20
-2.348410362386241
 30
0.0
 10
6.722154388675684
 20
-2.335353502682971
 30
0.0
  0
SPLINE
  5
2DE
330
1F
100
AcDbEntity
  8
외형선
  6
Continuous
 62
     1
370
    15
100
AcDbSpline
210
0.0
220
0.0
230
1.0
 70
     8
 71
     3
 72
    11
 73
     7
 74
     0
 42
0.000000001
 43
0.00000001
 40
0.0
 40
0.0
 40
0.0
 40
0.0
 40
0.2066597974344531
 40
0.443597319211895
 40
0.7095001306040642
 40
1.0
 40
1.0
 40
1.0
 40
1.0
 10
6.732646232212951
 20
-2.327986549536967
 30
0.0
 10
6.75500740442859
 20
-2.313222014652305
 30
0.0
 10
6.803005883922119
 20
-2.281529793061268
 30
0.0
 10
6.90711315583733
 20
-2.255915645185113
 30
0.0
 10
7.031766786424719
 20
-2.26632454738239
 30
0.0
 10
7.098510691453819
 20
-2.307648824267518
 30
0.0
 10
7.133357927751214
 20
-2.329224379980169
 30
0.0
  0
SPLINE
  5
2DF
330
1F
100
AcDbEntity
  8
외형선
  6
Continuous
 62
     1
370
    15
100
AcDbSpline
210
0.0
220
0.0
230
1.0
 70
     8
 71
     3
 72
     9
 73
     5
 74
     0
 42
0.000000001
 43
0.00000001
 40
0.0
 40
0.0
 40
0.0
 40
0.0
 40
0.502285213669884
 40
1.0
 40
1.0
 40
1.0
 40
1.0
 10
11.9673293640286
 20
2.381249903768348
 30
0.0
 10
11.94143822938495
 20
2.37899664362289
 30
0.0
 10
11.88989155044831
 20
2.374510626347976
 30
0.0
 10
11.84429409804886
 20
2.344656199692479
 30
0.0
 10
11.8215995717707
 20
2.329797210108629
 30
0.0
  0
SPLINE
  5
2E0
330
1F
100
AcDbEntity
  8
외형선
  6
Continuous
 62
     1
370
    15
100
AcDbSpline
210
0.0
220
0.0
230
1.0
 70
     8
 71
     3
 72
    11
 73
     7
 74
     0
 42
0.000000001
 43
0.00000001
 40
0.0
 40
0.0
 40
0.0
 40
0.0
 40
0.2108864921541461
 40
0.4492130373489052
 40
0.7139512007769594
 40
1.0
 40
1.0
 40
1.0
 40
1.0
 10
11.81863077466174
 20
2.327420729449293
 30
0.0
 10
11.79658863358209
 20
2.312818525893681
 30
0.0
 10
11.74963628000591
 20
2.281714114491115
 30
0.0
 10
11.64535095421825
 20
2.255859188804016
 30
0.0
 10
11.52019129331131
 20
2.266256778336823
 30
0.0
 10
11.45187263444071
 20
2.308848330411712
 30
0.0
 10
11.41639163786736
 20
2.330968066633182
 30
0.0
  0
SPLINE
  5
2E1
330
1F
100
AcDbEntity
  8
외형선
  6
Continuous
 62
     1
370
    15
100
AcDbSpline
210
0.0
220
0.0
230
1.0
 70
     8
 71
     3
 72
     9
 73
     5
 74
     0
 42
0.000000001
 43
0.00000001
 40
0.0
 40
0.0
 40
0.0
 40
0.0
 40
0.4977258612866295
 40
1.0
 40
1.0
 40
1.0
 40
1.0
 10
7.132874329509897
 20
-2.328843379554067
 30
0.0
 10
7.155761383161157
 20
-2.343971586580318
 30
0.0
 10
7.201744635050283
 20
-2.374366243966926
 30
0.0
 10
7.25366987109441
 20
-2.378948467196154
 30
0.0
 10
7.279750574305972
 20
-2.381249999422012
 30
0.0
  0
LINE
  5
2E2
330
1F
100
AcDbEntity
  8
외형선
  6
Continuous
 62
     1
370
    15
100
AcDbLine
 10
7.2797377944705
 20
-2.381250000000003
 30
0.0
 11
8.460020587315178
 21
-2.381250000000003
 31
0.0
  0
SPLINE
  5
2E3
330
1F
100
AcDbEntity
  8
외형선
  6
Continuous
 62
     1
370
    15
100
AcDbSpline
210
0.0
220
0.0
230
1.0
 70
     8
 71
     3
 72
     9
 73
     5
 74
     0
 42
0.000000001
 43
0.00000001
 40
0.0
 40
0.0
 40
0.0
 40
0.0
 40
0.5037885271402524
 40
1.0
 40
1.0
 40
1.0
 40
1.0
 10
15.96017578112693
 20
-2.381249995745116
 30
0.0
 10
15.9860561355905
 20
-2.379000917355932
 30
0.0
 10
16.03742760014225
 20
-2.374536587050607
 30
0.0
 10
16.08297289146931
 20
-2.344557010012921
 30
0.0
 10
16.10557298756053
 20
-2.32968079993534
 30
0.0
  0
SPLINE
  5
2E4
330
1F
100
AcDbEntity
  8
외형선
  6
Continuous
 62
     1
370
    15
100
AcDbSpline
210
0.0
220
0.0
230
1.0
 70
     8
 71
     3
 72
     9
 73
     5
 74
     0
 42
0.000000001
 43
0.00000001
 40
0.0
 40
0.0
 40
0.0
 40
0.0
 40
0.4961052862075698
 40
1.0
 40
1.0
 40
1.0
 40
1.0
 10
11.4199965828476
 20
2.328112809364476
 30
0.0
 10
11.39709635776583
 20
2.343431819867752
 30
0.0
 10
11.35093634754532
 20
2.374310367081754
 30
0.0
 10
11.29896382549328
 20
2.378924749613502
 30
0.0
 10
11.27277514636878
 20
2.381249912578666
 30
0.0
  0
SPLINE
  5
2E5
330
1F
100
AcDbEntity
  8
외형선
  6
Continuous
 62
     1
370
    15
100
AcDbSpline
210
0.0
220
0.0
230
1.0
 70
     8
 71
     3
 72
    11
 73
     7
 74
     0
 42
0.000000001
 43
0.00000001
 40
0.0
 40
0.0
 40
0.0
 40
0.0
 40
0.2324881621677189
 40
0.4787076779197832
 40
0.7358471613228835
 40
1.0
 40
1.0
 40
1.0
 40
1.0
 10
16.10615393493995
 20
-2.329217984075606
 30
0.0
 10
16.13263533950863
 20
-2.31198833553102
 30
0.0
 10
16.18716220905294
 20
-2.276511410730842
 30
0.0
 10
16.29836482577155
 20
-2.255070437088983
 30
0.0
 10
16.41702708931355
 20
-2.271070839133224
 30
0.0
 10
16.47800213329975
 20
-2.309945475143303
 30
0.0
 10
16.50889982788527
 20
-2.329644298662566
 30
0.0
  0
LINE
  5
2E6
330
1F
100
AcDbEntity
  8
외형선
  6
Continuous
 62
     1
370
    15
100
AcDbLine
 10
11.27255577820517
 20
2.38125
 30
0.0
 11
10.22276403642211
 21
2.38125
 31
0.0
  0
SPLINE
  5
2E7
330
1F
100
AcDbEntity
  8
외형선
  6
Continuous
 62
     1
370
    15
100
AcDbSpline
210
0.0
220
0.0
230
1.0
 70
     8
 71
     3
 72
     9
 73
     5
 74
     0
 42
0.000000001
 43
0.00000001
 40
0.0
 40
0.0
 40
0.0
 40
0.0
 40
0.4977336291360194
 40
1.0
 40
1.0
 40
1.0
 40
1.0
 10
16.52233965600535
 20
-2.337681233964383
 30
0.0
 10
16.54282020143486
 20
-2.350252149974616
 30
0.0
 10
16.58396780374788
 20
-2.375508462336016
 30
0.0
 10
16.63119112434054
 20
-2.379330137956935
 30
0.0
 10
16.65490981019475
 20
-2.381249637101669
 30
0.0
  0
LINE
  5
2E8
330
1F
100
AcDbEntity
  8
외형선
  6
Continuous
 62
     1
370
    15
100
AcDbLine
 10
16.65472038686827
 20
-2.381250000000003
 30
0.0
 11
17.21770072257489
 21
-2.381250000000003
 31
0.0
  0
LINE
  5
2E9
102
{ACAD_REACTORS
330
437
102
}
330
1F
100
AcDbEntity
  8
외형선
  6
Continuous
 62
     1
370
    15
100
AcDbLine
 10
19.11941296299633
 20
1.55624999999999
 30
0.0
 11
18.68776382465327
 21
1.987899138343045
 31
0.0
  0
SPLINE
  5
2EA
330
1F
100
AcDbEntity
  8
외형선
  6
Continuous
 62
     1
370
    15
100
AcDbSpline
210
0.0
220
0.0
230
1.0
 70
     8
 71
     3
 72
     9
 73
     5
 74
     0
 42
0.000000001
 43
0.00000001
 40
0.0
 40
0.0
 40
0.0
 40
0.0
 40
0.5027134342747511
 40
1.0
 40
1.0
 40
1.0
 40
1.0
 10
8.48166638563388
 20
-2.375097842622403
 30
0.0
 10
8.504891818210403
 20
-2.371891572559066
 30
0.0
 10
8.551091961260163
 20
-2.365513644608989
 30
0.0
 10
8.591221389996129
 20
-2.338340388296936
 30
0.0
 10
8.611177215796753
 20
-2.32482749298594
 30
0.0
  0
LINE
  5
2EB
330
1F
100
AcDbEntity
  8
외형선
  6
Continuous
 62
     1
370
    15
100
AcDbLine
 10
8.725967659259247
 20
-2.272668132993347
 30
0.0
 11
8.760791202847564
 21
-2.269049595099824
 31
0.0
  0
SPLINE
  5
2EC
330
1F
100
AcDbEntity
  8
외형선
  6
Continuous
 62
     1
370
    15
100
AcDbSpline
210
0.0
220
0.0
230
1.0
 70
     8
 71
     3
 72
     9
 73
     5
 74
     0
 42
0.000000001
 43
0.00000001
 40
0.0
 40
0.0
 40
0.0
 40
0.0
 40
0.5598549951184294
 40
1.0
 40
1.0
 40
1.0
 40
1.0
 10
10.0140928183225
 20
2.365550271998194
 30
0.0
 10
10.00218722245941
 20
2.361526782542717
 30
0.0
 10
9.980921723416083
 20
2.354340119048493
 30
0.0
 10
9.961516608377801
 20
2.338160936121119
 30
0.0
 10
9.95297554392456
 20
2.331039749572567
 30
0.0
  0
SPLINE
  5
2F9
330
1F
100
AcDbEntity
  8
외형선
  6
Continuous
 62
     1
370
    15
100
AcDbSpline
210
0.0
220
0.0
230
1.0
 70
     8
 71
     3
 72
    14
 73
    10
 74
     0
 42
0.000000001
 43
0.00000001
 40
0.0
 40
0.0
 40
0.0
 40
0.0
 40
0.0000595225487355
 40
0.0000595225487355
 40
0.0000595225487355
 40
0.000119011091862
 40
0.000119011091862
 40
0.000119011091862
 40
0.0002056064112891
 40
0.0002056064112891
 40
0.0002056064112891
 40
0.0002056064112891
 10
10.13183236434718
 20
-1.130136303335648
 30
0.0
 10
10.12122640772335
 20
-1.127583825639684
 30
0.0
 10
10.10994439529747
 20
-1.124289659717719
 30
0.0
 10
10.09826116057502
 20
-1.1203570628795
 30
0.0
 10
10.08658210144027
 20
-1.116425871551244
 30
0.0
 10
10.07442294769445
 20
-1.111830845242247
 30
0.0
 10
10.06202580912059
 20
-1.106683288557137
 30
0.0
 10
10.04404105553152
 20
-1.099215634790441
 30
0.0
 10
10.02535025529441
 20
-1.090495350640461
 30
0.0
 10
10.00664877284384
 20
-1.08090075570133
 30
0.0
  0
SPLINE
  5
2FA
330
1F
100
AcDbEntity
  8
외형선
  6
Continuous
 62
     1
370
    15
100
AcDbSpline
210
0.0
220
0.0
230
1.0
 70
     8
 71
     3
 72
    12
 73
     8
 74
     0
 42
0.000000001
 43
0.00000001
 40
0.0
 40
0.0
 40
0.0
 40
0.0
 40
0.5
 40
0.5
 40
0.75
 40
0.75
 40
1.0
 40
1.0
 40
1.0
 40
1.0
 10
10.00664894929649
 20
-1.080902046139692
 30
0.0
 10
9.973267824768067
 20
-0.8367782788491249
 30
0.0
 10
9.93719278292833
 20
-0.5640993605194149
 30
0.0
 10
9.883782394786204
 20
-0.1473112636711927
 30
0.0
 10
9.866109893531112
 20
-0.0072427072122929
 30
0.0
 10
9.83181564995112
 20
0.2687620359439711
 30
0.0
 10
9.815520519259843
 20
0.4038500963061073
 30
0.0
 10
9.798350884839616
 20
0.5385384273417193
 30
0.0
  0
SPLINE
  5
2FB
330
1F
100
AcDbEntity
  8
외형선
  6
Continuous
 62
     1
370
    15
100
AcDbSpline
210
0.0
220
0.0
230
1.0
 70
     8
 71
     3
 72
     8
 73
     4
 74
     0
 42
0.000000001
 43
0.00000001
 40
0.0
 40
0.0
 40
0.0
 40
0.0
 40
1.0
 40
1.0
 40
1.0
 40
1.0
 10
9.79835082118583
 20
0.5385389266870595
 30
0.0
 10
9.841233601095363
 20
0.5144764551527663
 30
0.0
 10
9.884864817055183
 20
0.4885132859876
 30
0.0
 10
9.922262168994118
 20
0.4662074334473152
 30
0.0
  0
SPLINE
  5
2FC
330
1F
100
AcDbEntity
  8
외형선
  6
Continuous
 62
     1
370
    15
100
AcDbSpline
210
0.0
220
0.0
230
1.0
 70
     8
 71
     3
 72
    12
 73
     8
 74
     0
 42
0.000000001
 43
0.00000001
 40
0.0
 40
0.0
 40
0.0
 40
0.0
 40
0.5000000000000002
 40
0.5000000000000002
 40
0.7500000000000001
 40
0.7500000000000001
 40
1.0
 40
1.0
 40
1.0
 40
1.0
 10
10.13183236691951
 20
-1.130136321528448
 30
0.0
 10
10.09823874277637
 20
-0.892542939059461
 30
0.0
 10
10.06258784875816
 20
-0.6268880363488387
 30
0.0
 10
10.00868116137138
 20
-0.2155142090913893
 30
0.0
 10
9.99077105680133
 20
-0.0766809723570825
 30
0.0
 10
9.955890791441186
 20
0.1979020994141498
 30
0.0
 10
9.939386935825747
 20
0.3324292522914254
 30
0.0
 10
9.922262168994758
 20
0.4662074334421993
 30
0.0
  0
SPLINE
  5
2FD
330
1F
100
AcDbEntity
  8
외형선
  6
Continuous
 62
     1
370
    15
100
AcDbSpline
210
0.0
220
0.0
230
1.0
 70
     8
 71
     3
 72
     8
 73
     4
 74
     0
 42
0.000000001
 43
0.00000001
 40
0.0
 40
0.0
 40
0.0
 40
0.0
 40
1.0
 40
1.0
 40
1.0
 40
1.0
 10
18.16712207560846
 20
-0.8287994373343333
 30
0.0
 10
18.12416870906331
 20
-0.8055011052802081
 30
0.0
 10
18.080488919363
 20
-0.7786620696059225
 30
0.0
 10
18.04301594048143
 20
-0.7533204846721668
 30
0.0
  0
SPLINE
  5
2FE
330
1F
100
AcDbEntity
  8
외형선
  6
Continuous
 62
     1
370
    15
100
AcDbSpline
210
0.0
220
0.0
230
1.0
 70
     8
 71
     3
 72
    12
 73
     8
 74
     0
 42
0.000000001
 43
0.00000001
 40
0.0
 40
0.0
 40
0.0
 40
0.0
 40
0.5000000000000002
 40
0.5000000000000002
 40
0.7500000000000001
 40
0.7500000000000001
 40
1.0
 40
1.0
 40
1.0
 40
1.0
 10
18.04301585696866
 20
-0.7533198672449126
 30
0.0
 10
18.00773307354893
 20
-0.4924659205141859
 30
0.0
 10
17.97100630307085
 20
-0.2121271402856389
 30
0.0
 10
17.91875771244427
 20
0.1992289059364003
 30
0.0
 10
17.902276520567
 20
0.3335798372947698
 30
0.0
 10
17.86806163687828
 20
0.6008122985500881
 30
0.0
 10
17.85037256096282
 20
0.733535543472434
 30
0.0
 10
17.83249654439754
 20
0.8621714399610303
 30
0.0
  0
SPLINE
  5
2FF
330
1F
100
AcDbEntity
  8
외형선
  6
Continuous
 62
     1
370
    15
100
AcDbSpline
210
0.0
220
0.0
230
1.0
 70
     8
 71
     3
 72
    14
 73
    10
 74
     0
 42
0.000000001
 43
0.00000001
 40
0.0
 40
0.0
 40
0.0
 40
0.0
 40
0.0000598831550977
 40
0.0000598831550977
 40
0.0000598831550977
 40
0.0001197305539647
 40
0.0001197305539647
 40
0.0001197305539647
 40
0.0002065173991057
 40
0.0002065173991057
 40
0.0002065173991057
 40
0.0002065173991057
 10
17.83249654439558
 20
0.8621714399760156
 30
0.0
 10
17.84317513765393
 20
0.8583157364210825
 30
0.0
 10
17.85453116579168
 20
0.8538211075440989
 30
0.0
 10
17.86628639287415
 20
0.8488095301038276
 30
0.0
 10
17.87803723542997
 20
0.8437998219081697
 30
0.0
 10
17.89026652898059
 20
0.838240212583151
 30
0.0
 10
17.90273061020597
 20
0.8322572813250408
 30
0.0
 10
17.92074521515763
 20
0.8236100219628062
 30
0.0
 10
17.93945360842172
 20
0.813976875298521
 30
0.0
 10
17.95816974279566
 20
0.8037714451720523
 30
0.0
  0
SPLINE
  5
300
330
1F
100
AcDbEntity
  8
외형선
  6
Continuous
 62
     1
370
    15
100
AcDbSpline
210
0.0
220
0.0
230
1.0
 70
     8
 71
     3
 72
    12
 73
     8
 74
     0
 42
0.000000001
 43
0.00000001
 40
0.0
 40
0.0
 40
0.0
 40
0.0
 40
0.5000000000000002
 40
0.5000000000000002
 40
0.7500000000000001
 40
0.7500000000000001
 40
1.0
 40
1.0
 40
1.0
 40
1.0
 10
18.16712207803665
 20
-0.8287994554952798
 30
0.0
 10
18.13232338419126
 20
-0.5684901341309336
 30
0.0
 10
18.09583944975776
 20
-0.2867364994406439
 30
0.0
 10
18.04350026375858
 20
0.1301397301881044
 30
0.0
 10
18.02680914148642
 20
0.2671221372510564
 30
0.0
 10
17.99325642770743
 20
0.537526312544748
 30
0.0
 10
17.9758435966408
 20
0.6724036931756663
 30
0.0
 10
17.95816964116427
 20
0.8037722005858887
 30
0.0
  0
SPLINE
  5
301
330
1F
100
AcDbEntity
  8
외형선
  6
Continuous
 62
     1
370
    15
100
AcDbSpline
210
0.0
220
0.0
230
1.0
 70
     8
 71
     3
 72
     8
 73
     4
 74
     0
 42
0.000000001
 43
0.00000001
 40
0.0
 40
0.0
 40
0.0
 40
0.0
 40
1.0
 40
1.0
 40
1.0
 40
1.0
 10
10.75463962338845
 20
-1.446215579767221
 30
0.0
 10
10.71169488852301
 20
-1.426533285849126
 30
0.0
 10
10.668017408346
 20
-1.399873499381621
 30
0.0
 10
10.63056266735068
 20
-1.369683780203951
 30
0.0
  0
SPLINE
  5
302
330
1F
100
AcDbEntity
  8
외형선
  6
Continuous
 62
     1
370
    15
100
AcDbSpline
210
0.0
220
0.0
230
1.0
 70
     8
 71
     3
 72
    12
 73
     8
 74
     0
 42
0.000000001
 43
0.00000001
 40
0.0
 40
0.0
 40
0.0
 40
0.0
 40
0.2500000000000001
 40
0.2500000000000001
 40
0.5000000000000001
 40
0.5000000000000001
 40
1.0
 40
1.0
 40
1.0
 40
1.0
 10
10.63056266734885
 20
-1.369683780192596
 30
0.0
 10
10.61301575521784
 20
-1.258100028955469
 30
0.0
 10
10.59630442725776
 20
-1.141283286138895
 30
0.0
 10
10.56237392125851
 20
-0.8962742568176703
 30
0.0
 10
10.54477916873527
 20
-0.7670673721843366
 30
0.0
 10
10.49126897501656
 20
-0.367561245347738
 30
0.0
 10
10.45466860526899
 20
-0.0854848962882509
 30
0.0
 10
10.42044309953453
 20
0.1865474208619906
 30
0.0
  0
SPLINE
  5
303
330
1F
100
AcDbEntity
  8
외형선
  6
Continuous
 62
     1
370
    15
100
AcDbSpline
210
0.0
220
0.0
230
1.0
 70
     8
 71
     3
 72
    14
 73
    10
 74
     0
 42
0.000000001
 43
0.00000001
 40
0.0
 40
0.0
 40
0.0
 40
0.0
 40
0.0000597273539772
 40
0.0000597273539772
 40
0.0000597273539772
 40
0.0001194186070663
 40
0.0001194186070663
 40
0.0001194186070663
 40
0.0002063343225984
 40
0.0002063343225984
 40
0.0002063343225984
 40
0.0002063343225984
 10
10.42044274881838
 20
0.1865502084395052
 30
0.0
 10
10.43107846166799
 20
0.180008397936489
 30
0.0
 10
10.44238985568918
 20
0.173123367115827
 30
0.0
 10
10.45409925495776
 20
0.1660477609251307
 30
0.0
 10
10.46580423805539
 20
0.1589748232817873
 30
0.0
 10
10.47798499268489
 20
0.1516617272159868
 30
0.0
 10
10.4904025999871
 20
0.1442645265505495
 30
0.0
 10
10.50842279769443
 20
0.1335298483449838
 30
0.0
 10
10.52714851341187
 20
0.1224970214216148
 30
0.0
 10
10.54588937336801
 20
0.1116478854035909
 30
0.0
  0
SPLINE
  5
304
330
1F
100
AcDbEntity
  8
외형선
  6
Continuous
 62
     1
370
    15
100
AcDbSpline
210
0.0
220
0.0
230
1.0
 70
     8
 71
     3
 72
    10
 73
     6
 74
     0
 42
0.000000001
 43
0.00000001
 40
0.0
 40
0.0
 40
0.0
 40
0.0
 40
0.5000000000000001
 40
0.5000000000000001
 40
1.0
 40
1.0
 40
1.0
 40
1.0
 10
10.7546396018902
 20
-1.446215444186728
 30
0.0
 10
10.71956916794685
 20
-1.225040977175263
 30
0.0
 10
10.68712722562442
 20
-0.9804022744865089
 30
0.0
 10
10.61669035174612
 20
-0.4485096535448259
 30
0.0
 10
10.58026378807458
 20
-0.1646057947538475
 30
0.0
 10
10.54588936262983
 20
0.1116479717038805
 30
0.0
  0
SPLINE
  5
305
330
1F
100
AcDbEntity
  8
외형선
  6
Continuous
 62
     1
370
    15
100
AcDbSpline
210
0.0
220
0.0
230
1.0
 70
     8
 71
     3
 72
    10
 73
     6
 74
     0
 42
0.000000001
 43
0.00000001
 40
0.0
 40
0.0
 40
0.0
 40
0.0
 40
0.5
 40
0.5
 40
1.0
 40
1.0
 40
1.0
 40
1.0
 10
12.02838594336331
 20
-1.952663508014006
 30
0.0
 10
11.81532555703246
 20
-1.882449758947794
 30
0.0
 10
11.60475305008202
 20
-1.804751523875965
 30
0.0
 10
11.181119486629
 20
-1.635409505768345
 30
0.0
 10
10.96708528318872
 20
-1.543583003752283
 30
0.0
 10
10.75463927836486
 20
-1.446215421637107
 30
0.0
  0
SPLINE
  5
306
330
1F
100
AcDbEntity
  8
외형선
  6
Continuous
 62
     1
370
    15
100
AcDbSpline
210
0.0
220
0.0
230
1.0
 70
     8
 71
     3
 72
    10
 73
     6
 74
     0
 42
0.000000001
 43
0.00000001
 40
0.0
 40
0.0
 40
0.0
 40
0.0
 40
0.5
 40
0.5
 40
1.0
 40
1.0
 40
1.0
 40
1.0
 10
11.81945581781691
 20
-0.6166569222902973
 30
0.0
 10
11.60695347338882
 20
-0.4982175994744376
 30
0.0
 10
11.39697103956187
 20
-0.3778016009613916
 30
0.0
 10
10.97098142090572
 20
-0.1337879005474045
 30
0.0
 10
10.7570188512289
 20
-0.0105755576834677
 30
0.0
 10
10.54588917684411
 20
0.1116479991718355
 30
0.0
  0
SPLINE
  5
307
330
1F
100
AcDbEntity
  8
외형선
  6
Continuous
 62
     1
370
    15
100
AcDbSpline
210
0.0
220
0.0
230
1.0
 70
     8
 71
     3
 72
    12
 73
     8
 74
     0
 42
0.000000001
 43
0.00000001
 40
0.0
 40
0.0
 40
0.0
 40
0.0
 40
0.5
 40
0.5
 40
0.75
 40
0.75
 40
1.0
 40
1.0
 40
1.0
 40
1.0
 10
12.02838242582309
 20
-1.952663743182179
 30
0.0
 10
11.99340401766078
 20
-1.793532453828186
 30
0.0
 10
11.95695033881747
 20
-1.591128074205622
 30
0.0
 10
11.90495961753903
 20
-1.250295143985469
 30
0.0
 10
11.88853086234952
 20
-1.131834162830893
 30
0.0
 10
11.85469109262599
 20
-0.8826376923803503
 30
0.0
 10
11.83717911386486
 20
-0.7515216774080153
 30
0.0
 10
11.81945775185175
 20
-0.6166559764493877
 30
0.0
  0
LINE
  5
308
330
1F
100
AcDbEntity
  8
외형선
  6
Continuous
 62
     1
370
    15
100
AcDbLine
 10
18.29441296299624
 20
-0.8973413173675135
 30
0.0
 11
18.29441296299631
 21
0.6180351187319593
 31
0.0
  0
SPLINE
  5
309
330
1F
100
AcDbEntity
  8
외형선
  6
Continuous
 62
     1
370
    15
100
AcDbSpline
210
0.0
220
0.0
230
1.0
 70
     8
 71
     3
 72
     8
 73
     4
 74
     0
 42
0.000000001
 43
0.00000001
 40
0.0
 40
0.0
 40
0.0
 40
0.0
 40
1.0
 40
1.0
 40
1.0
 40
1.0
 10
18.29441296299624
 20
-0.8973413173675135
 30
0.0
 10
18.2519045569204
 20
-0.8746191546092428
 30
0.0
 10
18.2094642328071
 20
-0.8517662433767237
 30
0.0
 10
18.16712207544215
 20
-0.8287994372439096
 30
0.0
  0
SPLINE
  5
30A
330
1F
100
AcDbEntity
  8
외형선
  6
Continuous
 62
     1
370
    15
100
AcDbSpline
210
0.0
220
0.0
230
1.0
 70
     8
 71
     3
 72
     8
 73
     4
 74
     0
 42
0.000000001
 43
0.00000001
 40
0.0
 40
0.0
 40
0.0
 40
0.0
 40
1.0
 40
1.0
 40
1.0
 40
1.0
 10
18.29441296299631
 20
0.6180351187319593
 30
0.0
 10
18.18177389388961
 20
0.6808088820746567
 30
0.0
 10
18.07016910594805
 20
0.742701054015277
 30
0.0
 10
17.95816953086151
 20
0.8037715607343392
 30
0.0
  0
SPLINE
  5
30B
330
1F
100
AcDbEntity
  8
외형선
  6
Continuous
 62
     1
370
    15
100
AcDbSpline
210
0.0
220
0.0
230
1.0
 70
     8
 71
     3
 72
    10
 73
     6
 74
     0
 42
0.000000001
 43
0.00000001
 40
0.0
 40
0.0
 40
0.0
 40
0.0
 40
0.5
 40
0.5
 40
1.0
 40
1.0
 40
1.0
 40
1.0
 10
10.00664877129197
 20
-1.080900754905167
 30
0.0
 10
9.793790432199325
 20
-0.9716960675876942
 30
0.0
 10
9.581129680045814
 20
-0.8582168720912486
 30
0.0
 10
9.160177850410044
 20
-0.6261813876908215
 30
0.0
 10
8.946678975369274
 20
-0.5066661823706662
 30
0.0
 10
8.733932741595702
 20
-0.3857477393653364
 30
0.0
  0
SPLINE
  5
30C
330
1F
100
AcDbEntity
  8
외형선
  6
Continuous
 62
     1
370
    15
100
AcDbSpline
210
0.0
220
0.0
230
1.0
 70
     8
 71
     3
 72
    12
 73
     8
 74
     0
 42
0.000000001
 43
0.00000001
 40
0.0
 40
0.0
 40
0.0
 40
0.0
 40
0.2500000000000001
 40
0.2500000000000001
 40
0.5000000000000001
 40
0.5000000000000001
 40
1.0
 40
1.0
 40
1.0
 40
1.0
 10
8.733934843372488
 20
-0.3857470022821952
 30
0.0
 10
8.716117416454772
 20
-0.2477349869985739
 30
0.0
 10
8.698330258954975
 20
-0.1078016492578877
 30
0.0
 10
8.663622807564842
 20
0.1694530049514631
 30
0.0
 10
8.647145932794665
 20
0.3055825404231234
 30
0.0
 10
8.596510334921923
 20
0.710586794626443
 30
0.0
 10
8.560304766167969
 20
0.9778836300880149
 30
0.0
 10
8.524850232758176
 20
1.217846637753857
 30
0.0
  0
SPLINE
  5
30D
330
1F
100
AcDbEntity
  8
외형선
  6
Continuous
 62
     1
370
    15
100
AcDbSpline
210
0.0
220
0.0
230
1.0
 70
     8
 71
     3
 72
    10
 73
     6
 74
     0
 42
0.000000001
 43
0.00000001
 40
0.0
 40
0.0
 40
0.0
 40
0.0
 40
0.5
 40
0.5
 40
1.0
 40
1.0
 40
1.0
 40
1.0
 10
9.79835082112299
 20
0.5385389267217198
 30
0.0
 10
9.585432420145958
 20
0.6580121272329995
 30
0.0
 10
9.375475113543892
 20
0.7747950684453491
 30
0.0
 10
8.950957787836309
 20
1.002147813026076
 30
0.0
 10
8.736900060908802
 20
1.112592862202823
 30
0.0
 10
8.524850266652829
 20
1.217846398164659
 30
0.0
  0
SPLINE
  5
30E
330
1F
100
AcDbEntity
  8
외형선
  6
Continuous
 62
     1
370
    15
100
AcDbSpline
210
0.0
220
0.0
230
1.0
 70
     8
 71
     3
 72
    10
 73
     6
 74
     0
 42
0.000000001
 43
0.00000001
 40
0.0
 40
0.0
 40
0.0
 40
0.0
 40
0.5
 40
0.5
 40
1.0
 40
1.0
 40
1.0
 40
1.0
 10
17.41772862427338
 20
-0.4116241372492987
 30
0.0
 10
17.20487900032765
 20
-0.2909069094019623
 30
0.0
 10
16.99460268691429
 20
-0.1690460364680329
 30
0.0
 10
16.57123854186147
 20
0.075582610734215
 30
0.0
 10
16.35739601307763
 20
0.1984961453895044
 30
0.0
 10
16.14518858833866
 20
0.319825675247265
 30
0.0
  0
SPLINE
  5
30F
330
1F
100
AcDbEntity
  8
외형선
  6
Continuous
 62
     1
370
    15
100
AcDbSpline
210
0.0
220
0.0
230
1.0
 70
     8
 71
     3
 72
    12
 73
     8
 74
     0
 42
0.000000001
 43
0.00000001
 40
0.0
 40
0.0
 40
0.0
 40
0.0
 40
0.4999999999999999
 40
0.4999999999999999
 40
0.7499999999999998
 40
0.7499999999999998
 40
1.0
 40
1.0
 40
1.0
 40
1.0
 10
16.14518902920643
 20
0.3198244745859631
 30
0.0
 10
16.11198343637129
 20
0.5909555736980598
 30
0.0
 10
16.07621391116956
 20
0.8624229826694352
 30
0.0
 10
16.02269426369417
 20
1.234224374172966
 30
0.0
 10
16.00493128154055
 20
1.352160763254011
 30
0.0
 10
15.97036128518291
 20
1.571050308904026
 30
0.0
 10
15.95400447593031
 20
1.671243486688524
 30
0.0
 10
15.93696190495526
 20
1.763938348632016
 30
0.0
  0
SPLINE
  5
310
330
1F
100
AcDbEntity
  8
외형선
  6
Continuous
 62
     1
370
    15
100
AcDbSpline
210
0.0
220
0.0
230
1.0
 70
     8
 71
     3
 72
    10
 73
     6
 74
     0
 42
0.000000001
 43
0.00000001
 40
0.0
 40
0.0
 40
0.0
 40
0.0
 40
0.5
 40
0.5
 40
1.0
 40
1.0
 40
1.0
 40
1.0
 10
17.20864221062487
 20
1.195161793615106
 30
0.0
 10
16.99649762954851
 20
1.30105933012848
 30
0.0
 10
16.78677246141519
 20
1.401833576295607
 30
0.0
 10
16.36134389859451
 20
1.592424661786402
 30
0.0
 10
16.14771749264633
 20
1.681870308397186
 30
0.0
 10
15.93696177668969
 20
1.763939159778423
 30
0.0
  0
SPLINE
  5
311
330
1F
100
AcDbEntity
  8
외형선
  6
Continuous
 62
     1
370
    15
100
AcDbSpline
210
0.0
220
0.0
230
1.0
 70
     8
 71
     3
 72
    12
 73
     8
 74
     0
 42
0.000000001
 43
0.00000001
 40
0.0
 40
0.0
 40
0.0
 40
0.0
 40
0.2500000000000002
 40
0.2500000000000002
 40
0.5000000000000003
 40
0.5000000000000003
 40
1.0
 40
1.0
 40
1.0
 40
1.0
 10
17.41772853495426
 20
-0.4116234449368444
 30
0.0
 10
17.39991036459379
 20
-0.273873351183334
 30
0.0
 10
17.38209618548128
 20
-0.1339985322890636
 30
0.0
 10
17.34728620179723
 20
0.1435384721330655
 30
0.0
 10
17.33068512998383
 20
0.2801327257531545
 30
0.0
 10
17.28028134219356
 20
0.6853103962984681
 30
0.0
 10
17.24414023329013
 20
0.9535469105994769
 30
0.0
 10
17.20864225843584
 20
1.195161774862071
 30
0.0
  0
SPLINE
  5
312
330
1F
100
AcDbEntity
  8
외형선
  6
Continuous
 62
     1
370
    15
100
AcDbSpline
210
0.0
220
0.0
230
1.0
 70
     8
 71
     3
 72
    10
 73
     6
 74
     0
 42
0.000000001
 43
0.00000001
 40
0.0
 40
0.0
 40
0.0
 40
0.0
 40
0.5
 40
0.5
 40
1.0
 40
1.0
 40
1.0
 40
1.0
 10
7.98456575171715
 20
0.0456751377672253
 30
0.0
 10
7.77227680613067
 20
0.1680151731008612
 30
0.0
 10
7.558786208146764
 20
0.2904000563180693
 30
0.0
 10
7.136954570239006
 20
0.5309380632931555
 30
0.0
 10
6.925962652768455
 20
0.649602823190981
 30
0.0
 10
6.713291326569739
 20
0.7655391733334289
 30
0.0
  0
SPLINE
  5
313
330
1F
100
AcDbEntity
  8
외형선
  6
Continuous
 62
     1
370
    15
100
AcDbSpline
210
0.0
220
0.0
230
1.0
 70
     8
 71
     3
 72
    12
 73
     8
 74
     0
 42
0.000000001
 43
0.00000001
 40
0.0
 40
0.0
 40
0.0
 40
0.0
 40
0.4999999999999998
 40
0.4999999999999998
 40
0.7499999999999999
 40
0.7499999999999999
 40
1.0
 40
1.0
 40
1.0
 40
1.0
 10
6.713292937707275
 20
0.7655394668492184
 30
0.0
 10
6.678079458423563
 20
1.029366784153459
 30
0.0
 10
6.641695276323156
 20
1.279700697482545
 30
0.0
 10
6.590236810237649
 20
1.602232140951577
 30
0.0
 10
6.573961642612652
 20
1.700527613409519
 30
0.0
 10
6.539724095428377
 20
1.882379930534987
 30
0.0
 10
6.522079001519153
 20
1.965135167166742
 30
0.0
 10
6.504300159043475
 20
2.037473210014176
 30
0.0
  0
SPLINE
  5
314
330
1F
100
AcDbEntity
  8
외형선
  6
Continuous
 62
     1
370
    15
100
AcDbSpline
210
0.0
220
0.0
230
1.0
 70
     8
 71
     3
 72
    10
 73
     6
 74
     0
 42
0.000000001
 43
0.00000001
 40
0.0
 40
0.0
 40
0.0
 40
0.0
 40
0.5000000000000003
 40
0.5000000000000003
 40
1.0
 40
1.0
 40
1.0
 40
1.0
 10
7.776087149717818
 20
1.567528989929236
 30
0.0
 10
7.563331075937463
 20
1.659731972542182
 30
0.0
 10
7.352166605961096
 20
1.745478424302802
 30
0.0
 10
6.930256098801245
 20
1.902514200402712
 30
0.0
 10
6.716692437641222
 20
1.974113122810293
 30
0.0
 10
6.504300569623901
 20
2.037473037914274
 30
0.0
  0
SPLINE
  5
315
330
1F
100
AcDbEntity
  8
외형선
  6
Continuous
 62
     1
370
    15
100
AcDbSpline
210
0.0
220
0.0
230
1.0
 70
     8
 71
     3
 72
    12
 73
     8
 74
     0
 42
0.000000001
 43
0.00000001
 40
0.0
 40
0.0
 40
0.0
 40
0.0
 40
0.2500000000000001
 40
0.2500000000000001
 40
0.5000000000000001
 40
0.5000000000000001
 40
1.0
 40
1.0
 40
1.0
 40
1.0
 10
7.984568455804571
 20
0.0456750919833899
 30
0.0
 10
7.967228977513351
 20
0.1843414771353897
 30
0.0
 10
7.950795098626352
 20
0.3203602758234458
 30
0.0
 10
7.916918172558733
 20
0.590526831467229
 30
0.0
 10
7.899388484457554
 20
0.7248695350743892
 30
0.0
 10
7.846177434843178
 20
1.116114675381467
 30
0.0
 10
7.809918203902762
 20
1.360421593545445
 30
0.0
 10
7.776087267318169
 20
1.567528243146333
 30
0.0
  0
SPLINE
  5
316
330
1F
100
AcDbEntity
  8
외형선
  6
Continuous
 62
     1
370
    15
100
AcDbSpline
210
0.0
220
0.0
230
1.0
 70
     8
 71
     3
 72
    10
 73
     6
 74
     0
 42
0.000000001
 43
0.00000001
 40
0.0
 40
0.0
 40
0.0
 40
0.0
 40
0.5
 40
0.5
 40
1.0
 40
1.0
 40
1.0
 40
1.0
 10
10.63056266735063
 20
-1.369683780203908
 30
0.0
 10
10.55415437135862
 20
-1.308096249826059
 30
0.0
 10
10.46416082977569
 20
-1.258175827049031
 30
0.0
 10
10.2889071920421
 20
-1.177972537238639
 30
0.0
 10
10.20381859518896
 20
-1.147460836629244
 30
0.0
 10
10.13183236434718
 20
-1.130136303335648
 30
0.0
  0
SPLINE
  5
317
330
1F
100
AcDbEntity
  8
외형선
  6
Continuous
 62
     1
370
    15
100
AcDbSpline
210
0.0
220
0.0
230
1.0
 70
     8
 71
     3
 72
    10
 73
     6
 74
     0
 42
0.000000001
 43
0.00000001
 40
0.0
 40
0.0
 40
0.0
 40
0.0
 40
0.5
 40
0.5
 40
1.0
 40
1.0
 40
1.0
 40
1.0
 10
9.922262168994132
 20
0.4662074334472015
 30
0.0
 10
9.99857278066572
 20
0.420691556975874
 30
0.0
 10
10.08861167304272
 20
0.3738299854799924
 30
0.0
 10
10.26373289746263
 20
0.2788318039287238
 30
0.0
 10
10.34862094179912
 20
0.2307263401336632
 30
0.0
 10
10.42044274881969
 20
0.1865502084387733
 30
0.0
  0
SPLINE
  5
318
330
1F
100
AcDbEntity
  8
외형선
  6
Continuous
 62
     1
370
    15
100
AcDbSpline
210
0.0
220
0.0
230
1.0
 70
     8
 71
     3
 72
    14
 73
    10
 74
     0
 42
0.000000001
 43
0.00000001
 40
0.0
 40
0.0
 40
0.0
 40
0.0
 40
0.0000598179652038
 40
0.0000598179652038
 40
0.0000598179652038
 40
0.0001196006192282
 40
0.0001196006192282
 40
0.0001196006192282
 40
0.0002062959812327
 40
0.0002062959812327
 40
0.0002062959812327
 40
0.0002062959812327
 10
17.54340133730858
 20
-0.4798516621830027
 30
0.0
 10
17.53272784971362
 20
-0.4744157447274455
 30
0.0
 10
17.52137611560046
 20
-0.4685094353712751
 30
0.0
 10
17.5096236180863
 20
-0.4622734987052377
 30
0.0
 10
17.4978754561113
 20
-0.4560398624989484
 30
0.0
 10
17.48564725886723
 20
-0.4494349389664843
 30
0.0
 10
17.47318251084337
 20
-0.4425993835532518
 30
0.0
 10
17.45516665322824
 20
-0.4327196496982788
 30
0.0
 10
17.43645276048974
 20
-0.4222434927170094
 30
0.0
 10
17.41772862452512
 20
-0.4116241373920753
 30
0.0
  0
SPLINE
  5
319
330
1F
100
AcDbEntity
  8
외형선
  6
Continuous
 62
     1
370
    15
100
AcDbSpline
210
0.0
220
0.0
230
1.0
 70
     8
 71
     3
 72
     8
 73
     4
 74
     0
 42
0.000000001
 43
0.00000001
 40
0.0
 40
0.0
 40
0.0
 40
0.0
 40
1.0
 40
1.0
 40
1.0
 40
1.0
 10
17.20864225924694
 20
1.19516176934433
 30
0.0
 10
17.25159764353163
 20
1.173719461555968
 30
0.0
 10
17.29531435646197
 20
1.146754817393051
 30
0.0
 10
17.33280998936335
 20
1.118412562250575
 30
0.0
  0
SPLINE
  5
31A
330
1F
100
AcDbEntity
  8
외형선
  6
Continuous
 62
     1
370
    15
100
AcDbSpline
210
0.0
220
0.0
230
1.0
 70
     8
 71
     3
 72
    10
 73
     6
 74
     0
 42
0.000000001
 43
0.00000001
 40
0.0
 40
0.0
 40
0.0
 40
0.0
 40
0.5000000000000001
 40
0.5000000000000001
 40
1.0
 40
1.0
 40
1.0
 40
1.0
 10
17.54340133730227
 20
-0.4798516621352471
 30
0.0
 10
17.50754472482219
 20
-0.2088759598215058
 30
0.0
 10
17.47162491665952
 20
0.0722877623010793
 30
0.0
 10
17.40484769364881
 20
0.6073644319358911
 30
0.0
 10
17.36864134081324
 20
0.8752478461425275
 30
0.0
 10
17.33280998936423
 20
1.118412562250277
 30
0.0
  0
SPLINE
  5
31B
330
1F
100
AcDbEntity
  8
외형선
  6
Continuous
 62
     1
370
    15
100
AcDbSpline
210
0.0
220
0.0
230
1.0
 70
     8
 71
     3
 72
     8
 73
     4
 74
     0
 42
0.000000001
 43
0.00000001
 40
0.0
 40
0.0
 40
0.0
 40
0.0
 40
1.0
 40
1.0
 40
1.0
 40
1.0
 10
8.733935112499672
 20
-0.3857490869144451
 30
0.0
 10
8.69096128143348
 20
-0.3613240803272158
 30
0.0
 10
8.647247636695646
 20
-0.3358073652657163
 30
0.0
 10
8.609759781509801
 20
-0.3150109751522985
 30
0.0
  0
SPLINE
  5
31C
330
1F
100
AcDbEntity
  8
외형선
  6
Continuous
 62
     1
370
    15
100
AcDbSpline
210
0.0
220
0.0
230
1.0
 70
     8
 71
     3
 72
    12
 73
     8
 74
     0
 42
0.000000001
 43
0.00000001
 40
0.0
 40
0.0
 40
0.0
 40
0.0
 40
0.2499999999999999
 40
0.2499999999999999
 40
0.4999999999999998
 40
0.4999999999999998
 40
1.0
 40
1.0
 40
1.0
 40
1.0
 10
8.60975971052114
 20
-0.3150104318763818
 30
0.0
 10
8.591831287533417
 20
-0.1778041874293814
 30
0.0
 10
8.57400065970318
 20
-0.0391956684364852
 30
0.0
 10
8.539345754256495
 20
0.234380073864961
 30
0.0
 10
8.522939615050284
 20
0.3682632625738113
 30
0.0
 10
8.471343885185426
 20
0.7684561924474513
 30
0.0
 10
8.434721402234622
 20
1.030269150828991
 30
0.0
 10
8.39918274792823
 20
1.262774727997004
 30
0.0
  0
SPLINE
  5
31D
330
1F
100
AcDbEntity
  8
외형선
  6
Continuous
 62
     1
370
    15
100
AcDbSpline
210
0.0
220
0.0
230
1.0
 70
     8
 71
     3
 72
    14
 73
    10
 74
     0
 42
0.000000001
 43
0.00000001
 40
0.0
 40
0.0
 40
0.0
 40
0.0
 40
0.0000599407267249
 40
0.0000599407267249
 40
0.0000599407267249
 40
0.0001198460344548
 40
0.0001198460344548
 40
0.0001198460344548
 40
0.0002065114527757
 40
0.0002065114527757
 40
0.0002065114527757
 40
0.0002065114527757
 10
8.399182747918083
 20
1.262774728066993
 30
0.0
 10
8.409864922302084
 20
1.260841802002139
 30
0.0
 10
8.421226242570391
 20
1.25810774712071
 30
0.0
 10
8.432989301905003
 20
1.254669923010374
 30
0.0
 10
8.444748014861823
 20
1.25123336915481
 30
0.0
 10
8.456987825797235
 20
1.247071118056843
 30
0.0
 10
8.469465475809876
 20
1.242289598558321
 30
0.0
 10
8.487457309542002
 20
1.235395006730775
 30
0.0
 10
8.506146714722853
 20
1.227130137311774
 30
0.0
 10
8.52485026827626
 20
1.217846397358854
 30
0.0
  0
SPLINE
  5
31E
330
1F
100
AcDbEntity
  8
외형선
  6
Continuous
 62
     1
370
    15
100
AcDbSpline
210
0.0
220
0.0
230
1.0
 70
     8
 71
     3
 72
    14
 73
    10
 74
     0
 42
0.000000001
 43
0.00000001
 40
0.0
 40
0.0
 40
0.0
 40
0.0
 40
0.0000598147031544
 40
0.0000598147031544
 40
0.0000598147031544
 40
0.0001195939822173
 40
0.0001195939822173
 40
0.0001195939822173
 40
0.0002063227486297
 40
0.0002063227486297
 40
0.0002063227486297
 40
0.0002063227486297
 10
16.48443355729338
 20
-2.303307465169881
 30
0.0
 10
16.49510624936435
 20
-2.312115381357345
 30
0.0
 10
16.50645694328427
 20
-2.319899414991093
 30
0.0
 10
16.51820799594087
 20
-2.326562317768734
 30
0.0
 10
16.52995470036479
 20
-2.333222755077778
 30
0.0
 10
16.54218101307165
 20
-2.33880952291709
 30
0.0
 10
16.5546434117286
 20
-2.343253036752409
 30
0.0
 10
16.57266379785706
 20
-2.349678271354798
 30
0.0
 10
16.59138170328708
 20
-2.353778982312315
 30
0.0
 10
16.61010901556963
 20
-2.355365986664283
 30
0.0
  0
SPLINE
  5
31F
330
1F
100
AcDbEntity
  8
외형선
  6
Continuous
 62
     1
370
    15
100
AcDbSpline
210
0.0
220
0.0
230
1.0
 70
     8
 71
     3
 72
    10
 73
     6
 74
     0
 42
0.000000001
 43
0.00000001
 40
0.0
 40
0.0
 40
0.0
 40
0.0
 40
0.5
 40
0.5
 40
1.0
 40
1.0
 40
1.0
 40
1.0
 10
15.98491207471188
 20
-2.235821706771881
 30
0.0
 10
16.06136542425983
 20
-2.19237859596067
 30
0.0
 10
16.15156226853177
 20
-2.180590522959791
 30
0.0
 10
16.32711383977262
 20
-2.206606540215597
 30
0.0
 10
16.41230208526532
 20
-2.243779095389798
 30
0.0
 10
16.48443355729449
 20
-2.30330746516598
 30
0.0
  0
SPLINE
  5
320
330
1F
100
AcDbEntity
  8
외형선
  6
Continuous
 62
     1
370
    15
100
AcDbSpline
210
0.0
220
0.0
230
1.0
 70
     8
 71
     3
 72
     8
 73
     4
 74
     0
 42
0.000000001
 43
0.00000001
 40
0.0
 40
0.0
 40
0.0
 40
0.0
 40
1.0
 40
1.0
 40
1.0
 40
1.0
 10
15.86081381873573
 20
-2.253410617594384
 30
0.0
 10
15.90374003802345
 20
-2.261463013485746
 30
0.0
 10
15.94742065970693
 20
-2.257125465288149
 30
0.0
 10
15.98491207471191
 20
-2.235821706771867
 30
0.0
  0
SPLINE
  5
321
330
1F
100
AcDbEntity
  8
외형선
  6
Continuous
 62
     1
370
    15
100
AcDbSpline
210
0.0
220
0.0
230
1.0
 70
     8
 71
     3
 72
    10
 73
     6
 74
     0
 42
0.000000001
 43
0.00000001
 40
0.0
 40
0.0
 40
0.0
 40
0.0
 40
0.5
 40
0.5
 40
1.0
 40
1.0
 40
1.0
 40
1.0
 10
15.8608139199449
 20
-2.253410636580108
 30
0.0
 10
15.650384267073
 20
-2.213936795571649
 30
0.0
 10
15.43686242166873
 20
-2.165328069924322
 30
0.0
 10
15.0111874621745
 20
-2.051368808094119
 30
0.0
 10
14.80118268787788
 20
-1.986287657580001
 30
0.0
 10
14.58922912989399
 20
-1.913422724285675
 30
0.0
  0
SPLINE
  5
322
330
1F
100
AcDbEntity
  8
외형선
  6
Continuous
 62
     1
370
    15
100
AcDbSpline
210
0.0
220
0.0
230
1.0
 70
     8
 71
     3
 72
    14
 73
    10
 74
     0
 42
0.000000001
 43
0.00000001
 40
0.0
 40
0.0
 40
0.0
 40
0.0
 40
0.0000598177848094
 40
0.0000598177848094
 40
0.0000598177848094
 40
0.0001196001651144
 40
0.0001196001651144
 40
0.0001196001651144
 40
0.0002063253200241
 40
0.0002063253200241
 40
0.0002063253200241
 40
0.0002063253200241
 10
14.46385217578614
 20
-1.834746508930089
 30
0.0
 10
14.47452226792151
 20
-1.845188976852208
 30
0.0
 10
14.48586986908952
 20
-1.854937634336261
 30
0.0
 10
14.49761731576055
 20
-1.863839231152093
 30
0.0
 10
14.50936041818839
 20
-1.872737536129102
 30
0.0
 10
14.52158259185539
 20
-1.880850882190935
 30
0.0
 10
14.53404032205861
 20
-1.888050770444118
 30
0.0
 10
14.55205229184115
 20
-1.898460706085595
 30
0.0
 10
14.57076044665016
 20
-1.907074088774196
 30
0.0
 10
14.58947709901931
 20
-1.913507967316492
 30
0.0
  0
SPLINE
  5
323
330
1F
100
AcDbEntity
  8
외형선
  6
Continuous
 62
     1
370
    15
100
AcDbSpline
210
0.0
220
0.0
230
1.0
 70
     8
 71
     3
 72
    10
 73
     6
 74
     0
 42
0.000000001
 43
0.00000001
 40
0.0
 40
0.0
 40
0.0
 40
0.0
 40
0.5
 40
0.5
 40
1.0
 40
1.0
 40
1.0
 40
1.0
 10
13.964193347889
 20
-1.645981195915099
 30
0.0
 10
14.04069927396781
 20
-1.631314546326473
 30
0.0
 10
14.13094300618377
 20
-1.643693540006262
 30
0.0
 10
14.30654501408167
 20
-1.710388642852253
 30
0.0
 10
14.39173683125174
 20
-1.764169595209006
 30
0.0
 10
14.46385217578725
 20
-1.834746508927077
 30
0.0
  0
SPLINE
  5
324
330
1F
100
AcDbEntity
  8
외형선
  6
Continuous
 62
     1
370
    15
100
AcDbSpline
210
0.0
220
0.0
230
1.0
 70
     8
 71
     3
 72
     8
 73
     4
 74
     0
 42
0.000000001
 43
0.00000001
 40
0.0
 40
0.0
 40
0.0
 40
0.0
 40
1.0
 40
1.0
 40
1.0
 40
1.0
 10
13.83999454055145
 20
-1.62631243733079
 30
0.0
 10
13.88295127420468
 20
-1.64447074662109
 30
0.0
 10
13.92667874066738
 20
-1.653172973425343
 30
0.0
 10
13.964193347889
 20
-1.645981195915099
 30
0.0
  0
SPLINE
  5
325
330
1F
100
AcDbEntity
  8
외형선
  6
Continuous
 62
     1
370
    15
100
AcDbSpline
210
0.0
220
0.0
230
1.0
 70
     8
 71
     3
 72
    10
 73
     6
 74
     0
 42
0.000000001
 43
0.00000001
 40
0.0
 40
0.0
 40
0.0
 40
0.0
 40
0.5
 40
0.5
 40
1.0
 40
1.0
 40
1.0
 40
1.0
 10
13.84068211602918
 20
-1.626603058271308
 30
0.0
 10
13.62907015584313
 20
-1.537167731669848
 30
0.0
 10
13.41770829720343
 20
-1.441315483301446
 30
0.0
 10
12.99119806714534
 20
-1.238323393146929
 30
0.0
 10
12.77903318081462
 20
-1.131651319816691
 30
0.0
 10
12.56781342048324
 20
-1.021091592066172
 30
0.0
  0
SPLINE
  5
326
330
1F
100
AcDbEntity
  8
외형선
  6
Continuous
 62
     1
370
    15
100
AcDbSpline
210
0.0
220
0.0
230
1.0
 70
     8
 71
     3
 72
    14
 73
    10
 74
     0
 42
0.000000001
 43
0.00000001
 40
0.0
 40
0.0
 40
0.0
 40
0.0
 40
0.0000597022120422
 40
0.0000597022120422
 40
0.0000597022120422
 40
0.0001193692808302
 40
0.0001193692808302
 40
0.0001193692808302
 40
0.0002061025932118
 40
0.0002061025932118
 40
0.0002061025932118
 40
0.0002061025932118
 10
12.44267950640589
 20
-0.9342520414561415
 30
0.0
 10
12.45331814081365
 20
-0.9438621436009393
 30
0.0
 10
12.46463276783571
 20
-0.9532738957993496
 30
0.0
 10
12.47634654543024
 20
-0.9623142351733245
 30
0.0
 10
12.48805601537746
 20
-0.9713512500353625
 30
0.0
 10
12.50024364614094
 20
-0.9800789498834996
 30
0.0
 10
12.51266642716996
 20
-0.9883401770732059
 30
0.0
 10
12.53066375492524
 20
-1.000308512749919
 30
0.0
 10
12.54935896504365
 20
-1.011432103842915
 30
0.0
 10
12.56806159398786
 20
-1.021221493245698
 30
0.0
  0
SPLINE
  5
327
330
1F
100
AcDbEntity
  8
외형선
  6
Continuous
 62
     1
370
    15
100
AcDbSpline
210
0.0
220
0.0
230
1.0
 70
     8
 71
     3
 72
    10
 73
     6
 74
     0
 42
0.000000001
 43
0.00000001
 40
0.0
 40
0.0
 40
0.0
 40
0.0
 40
0.5000000000000001
 40
0.5000000000000001
 40
1.0
 40
1.0
 40
1.0
 40
1.0
 10
11.94359327266056
 20
-0.6688223789675556
 30
0.0
 10
12.02003493659503
 20
-0.6863163504293377
 30
0.0
 10
12.11020407940854
 20
-0.7198813190003372
 30
0.0
 10
12.28562563375908
 20
-0.8114987609900917
 30
0.0
 10
12.37070666540734
 20
-0.8692374609036131
 30
0.0
 10
12.44267950640707
 20
-0.9342520414548128
 30
0.0
  0
SPLINE
  5
328
330
1F
100
AcDbEntity
  8
외형선
  6
Continuous
 62
     1
370
    15
100
AcDbSpline
210
0.0
220
0.0
230
1.0
 70
     8
 71
     3
 72
     8
 73
     4
 74
     0
 42
0.000000001
 43
0.00000001
 40
0.0
 40
0.0
 40
0.0
 40
0.0
 40
1.0
 40
1.0
 40
1.0
 40
1.0
 10
11.81945803879298
 20
-0.6166581601624808
 30
0.0
 10
11.86240397552147
 20
-0.6405943042874975
 30
0.0
 10
11.90611075491436
 20
-0.6602443593115419
 30
0.0
 10
11.94359327266059
 20
-0.6688223789675556
 30
0.0
  0
SPLINE
  5
329
330
1F
100
AcDbEntity
  8
외형선
  6
Continuous
 62
     1
370
    15
100
AcDbSpline
210
0.0
220
0.0
230
1.0
 70
     8
 71
     3
 72
    10
 73
     6
 74
     0
 42
0.000000001
 43
0.00000001
 40
0.0
 40
0.0
 40
0.0
 40
0.0
 40
0.5
 40
0.5
 40
1.0
 40
1.0
 40
1.0
 40
1.0
 10
7.899972534241919
 20
1.491874826636816
 30
0.0
 10
7.976464068529247
 20
1.428797092735826
 30
0.0
 10
8.066711366888448
 20
1.379518329134753
 30
0.0
 10
8.242152696444045
 20
1.303208345026298
 30
0.0
 10
8.327137961921416
 20
1.275811141783953
 30
0.0
 10
8.399182747919319
 20
1.262774728064392
 30
0.0
  0
SPLINE
  5
32A
330
1F
100
AcDbEntity
  8
외형선
  6
Continuous
 62
     1
370
    15
100
AcDbSpline
210
0.0
220
0.0
230
1.0
 70
     8
 71
     3
 72
     8
 73
     4
 74
     0
 42
0.000000001
 43
0.00000001
 40
0.0
 40
0.0
 40
0.0
 40
0.0
 40
1.0
 40
1.0
 40
1.0
 40
1.0
 10
7.776087144997967
 20
1.567528991975115
 30
0.0
 10
7.81896626403853
 20
1.548946290230211
 30
0.0
 10
7.862583546681244
 20
1.522707161615577
 30
0.0
 10
7.899972534241777
 20
1.491874826637064
 30
0.0
  0
SPLINE
  5
32B
330
1F
100
AcDbEntity
  8
외형선
  6
Continuous
 62
     1
370
    15
100
AcDbSpline
210
0.0
220
0.0
230
1.0
 70
     8
 71
     3
 72
    11
 73
     7
 74
     0
 42
0.000000001
 43
0.00000001
 40
0.0000716725200436
 40
0.0000716725200436
 40
0.0000716725200436
 40
0.0000716725200436
 40
0.0001197832812076
 40
0.0001197832812076
 40
0.0001197832812076
 40
0.0002064072599392
 40
0.0002064072599392
 40
0.0002064072599392
 40
0.0002064072599392
 10
6.419412962996312
 20
2.048623852908611
 30
0.0
 10
6.429007352685496
 20
2.049124327871381
 30
0.0
 10
6.438881410502199
 20
2.048953433590141
 30
0.0
 10
6.448908834187485
 20
2.048130445167955
 30
0.0
 10
6.466903584643213
 20
2.046653548235112
 30
0.0
 10
6.48559546398699
 20
2.043053071336557
 30
0.0
 10
6.504300172202627
 20
2.037473156471427
 30
0.0
  0
LINE
  5
32F
330
1F
100
AcDbEntity
  8
외형선
  6
Continuous
 62
     1
370
    15
100
AcDbLine
 10
7.238098755923269
 20
1.782772642186649
 30
0.0
 11
7.311916227510644
 21
1.812553844892895
 31
0.0
  0
SPLINE
  5
330
330
1F
100
AcDbEntity
  8
외형선
  6
Continuous
 62
     1
370
    15
100
AcDbSpline
210
0.0
220
0.0
230
1.0
 70
     8
 71
     3
 72
    14
 73
    10
 74
     0
 42
0.000000001
 43
0.00000001
 40
0.0
 40
0.0
 40
0.0
 40
0.0
 40
0.0000598673516999
 40
0.0000598673516999
 40
0.0000598673516999
 40
0.0001196987311885
 40
0.0001196987311885
 40
0.0001196987311885
 40
0.0002065555655554
 40
0.0002065555655554
 40
0.0002065555655554
 40
0.0002065555655554
 10
7.43753627761408
 20
1.830972060267235
 30
0.0
 10
7.426861390131287
 20
1.832482541485382
 30
0.0
 10
7.415509140996485
 20
1.832981896607662
 30
0.0
 10
7.403757882136582
 20
1.832514968572943
 30
0.0
 10
7.392011032529489
 20
1.832048215736797
 30
0.0
 10
7.379785969222092
 20
1.830613980048134
 30
0.0
 10
7.367326300928377
 20
1.828274782183178
 30
0.0
 10
7.349298852825279
 20
1.824890280515936
 30
0.0
 10
7.330576743220995
 20
1.81956663225555
 30
0.0
 10
7.311847103059514
 20
1.812527867593323
 30
0.0
  0
SPLINE
  5
331
330
1F
100
AcDbEntity
  8
외형선
  6
Continuous
 62
     1
370
    15
100
AcDbSpline
210
0.0
220
0.0
230
1.0
 70
     8
 71
     3
 72
    10
 73
     6
 74
     0
 42
0.000000001
 43
0.00000001
 40
0.0
 40
0.0
 40
0.0
 40
0.0
 40
0.5
 40
0.5
 40
1.0
 40
1.0
 40
1.0
 40
1.0
 10
7.936753496035744
 20
1.993458688852533
 30
0.0
 10
7.86031508510471
 20
1.926955177615418
 30
0.0
 10
7.770116590179435
 20
1.882755917723968
 30
0.0
 10
7.594652814174176
 20
1.829895059740564
 30
0.0
 10
7.509569044864032
 20
1.820779527353173
 30
0.0
 10
7.43753627761408
 20
1.830972060267235
 30
0.0
  0
SPLINE
  5
332
330
1F
100
AcDbEntity
  8
외형선
  6
Continuous
 62
     1
370
    15
100
AcDbSpline
210
0.0
220
0.0
230
1.0
 70
     8
 71
     3
 72
     8
 73
     4
 74
     0
 42
0.000000001
 43
0.00000001
 40
0.0
 40
0.0
 40
0.0
 40
0.0
 40
1.0
 40
1.0
 40
1.0
 40
1.0
 10
8.060696624133563
 20
2.061335403020684
 30
0.0
 10
8.017811296114154
 20
2.048946668884304
 30
0.0
 10
7.974171282612041
 20
2.026013188085691
 30
0.0
 10
7.936753496036084
 20
1.993458688852832
 30
0.0
  0
SPLINE
  5
333
330
1F
100
AcDbEntity
  8
외형선
  6
Continuous
 62
     1
370
    15
100
AcDbSpline
210
0.0
220
0.0
230
1.0
 70
     8
 71
     3
 72
    10
 73
     6
 74
     0
 42
0.000000001
 43
0.00000001
 40
0.0
 40
0.0
 40
0.0
 40
0.0
 40
0.5
 40
0.5
 40
1.0
 40
1.0
 40
1.0
 40
1.0
 10
9.332342559045124
 20
2.325935599273001
 30
0.0
 10
9.121497683612937
 20
2.299754487262745
 30
0.0
 10
8.907854363718222
 20
2.264218589989752
 30
0.0
 10
8.482538667526477
 20
2.17554422639808
 30
0.0
 10
8.27289117997703
 20
2.122634144257595
 30
0.0
 10
8.060701643556477
 20
2.061336853032393
 30
0.0
  0
SPLINE
  5
334
330
1F
100
AcDbEntity
  8
외형선
  6
Continuous
 62
     1
370
    15
100
AcDbSpline
210
0.0
220
0.0
230
1.0
 70
     8
 71
     3
 72
    14
 73
    10
 74
     0
 42
0.000000001
 43
0.00000001
 40
0.0
 40
0.0
 40
0.0
 40
0.0
 40
0.0000599918728439
 40
0.0000599918728439
 40
0.0000599918728439
 40
0.0001199474051182
 40
0.0001199474051182
 40
0.0001199474051182
 40
0.0002067434241313
 40
0.0002067434241313
 40
0.0002067434241313
 40
0.0002067434241313
 10
9.458064802315642
 20
2.30214191269514
 30
0.0
 10
9.447372862889104
 20
2.308360539118474
 30
0.0
 10
9.436003531415544
 20
2.313458431901863
 30
0.0
 10
9.424235881490212
 20
2.317397129850639
 30
0.0
 10
9.412472681842225
 20
2.321334338266815
 30
0.0
 10
9.400233102099754
 20
2.324140697586855
 30
0.0
 10
9.387755865944648
 20
2.325806594278737
 30
0.0
 10
9.369752559350225
 20
2.328210303603931
 30
0.0
 10
9.351051432008681
 20
2.328258744899592
 30
0.0
 10
9.332334533807973
 20
2.3259346027558
 30
0.0
  0
SPLINE
  5
335
330
1F
100
AcDbEntity
  8
외형선
  6
Continuous
 62
     1
370
    15
100
AcDbSpline
210
0.0
220
0.0
230
1.0
 70
     8
 71
     3
 72
    10
 73
     6
 74
     0
 42
0.000000001
 43
0.00000001
 40
0.0
 40
0.0
 40
0.0
 40
0.0
 40
0.5
 40
0.5
 40
1.0
 40
1.0
 40
1.0
 40
1.0
 10
9.957806098634231
 20
2.336759359845408
 30
0.0
 10
9.881237981516174
 20
2.278163142248664
 30
0.0
 10
9.790922455945017
 20
2.249965246275798
 30
0.0
 10
9.615292003699503
 20
2.241301700952156
 30
0.0
 10
9.53015210542578
 20
2.260214626164361
 30
0.0
 10
9.458064802315642
 20
2.30214191269514
 30
0.0
  0
SPLINE
  5
336
330
1F
100
AcDbEntity
  8
외형선
  6
Continuous
 62
     1
370
    15
100
AcDbSpline
210
0.0
220
0.0
230
1.0
 70
     8
 71
     3
 72
     8
 73
     4
 74
     0
 42
0.000000001
 43
0.00000001
 40
0.0
 40
0.0
 40
0.0
 40
0.0
 40
1.0
 40
1.0
 40
1.0
 40
1.0
 10
10.08193784510595
 20
2.379855165091789
 30
0.0
 10
10.0389861282389
 20
2.379008443944918
 30
0.0
 10
9.995282951084713
 20
2.365439728172013
 30
0.0
 10
9.957806098634572
 20
2.336759359845671
 30
0.0
  0
SPLINE
  5
337
330
1F
100
AcDbEntity
  8
외형선
  6
Continuous
 62
     1
370
    15
100
AcDbSpline
210
0.0
220
0.0
230
1.0
 70
     8
 71
     3
 72
    10
 73
     6
 74
     0
 42
0.000000001
 43
0.00000001
 40
0.0
 40
0.0
 40
0.0
 40
0.0
 40
0.5
 40
0.5
 40
1.0
 40
1.0
 40
1.0
 40
1.0
 10
11.35333232713462
 20
2.292435494740252
 30
0.0
 10
11.14160743791886
 20
2.325521373302833
 30
0.0
 10
10.92790759050581
 20
2.349586952605668
 30
0.0
 10
10.5041342687887
 20
2.378810290362124
 30
0.0
 10
10.29450843012386
 20
2.384045636810774
 30
0.0
 10
10.0819378881648
 20
2.37985516594061
 30
0.0
  0
SPLINE
  5
338
330
1F
100
AcDbEntity
  8
외형선
  6
Continuous
 62
     1
370
    15
100
AcDbSpline
210
0.0
220
0.0
230
1.0
 70
     8
 71
     3
 72
    14
 73
    10
 74
     0
 42
0.000000001
 43
0.00000001
 40
0.0
 40
0.0
 40
0.0
 40
0.0
 40
0.0000598761154231
 40
0.0000598761154231
 40
0.0000598761154231
 40
0.0001197173629555
 40
0.0001197173629555
 40
0.0001197173629555
 40
0.0002062730336386
 40
0.0002062730336386
 40
0.0002062730336386
 40
0.0002062730336386
 10
11.47883882820785
 20
2.231953031960024
 30
0.0
 10
11.46817086327291
 20
2.241420058832012
 30
0.0
 10
11.45682438503455
 20
2.24992691554464
 30
0.0
 10
11.44507601667322
 20
2.257358078480499
 30
0.0
 10
11.43333192834796
 20
2.264786534176969
 30
0.0
 10
11.42110664639582
 20
2.271191866605007
 30
0.0
 10
11.40864319607747
 20
2.276485344987157
 30
0.0
 10
11.39067556693252
 20
2.284116558979099
 30
0.0
 10
11.37200968417386
 20
2.28951682364277
 30
0.0
 10
11.35332966481293
 20
2.292435910776127
 30
0.0
  0
SPLINE
  5
339
330
1F
100
AcDbEntity
  8
외형선
  6
Continuous
 62
     1
370
    15
100
AcDbSpline
210
0.0
220
0.0
230
1.0
 70
     8
 71
     3
 72
    10
 73
     6
 74
     0
 42
0.000000001
 43
0.00000001
 40
0.0
 40
0.0
 40
0.0
 40
0.0
 40
0.5
 40
0.5
 40
1.0
 40
1.0
 40
1.0
 40
1.0
 10
11.97837557220007
 20
2.13001867893785
 30
0.0
 10
11.90180383041871
 20
2.093173716373065
 30
0.0
 10
11.8115056683612
 20
2.0876592863138
 30
0.0
 10
11.63596206343038
 20
2.12539981805252
 30
0.0
 10
11.55091117313227
 20
2.167994176612501
 30
0.0
 10
11.47883882820785
 20
2.231953031960024
 30
0.0
  0
SPLINE
  5
33A
330
1F
100
AcDbEntity
  8
외형선
  6
Continuous
 62
     1
370
    15
100
AcDbSpline
210
0.0
220
0.0
230
1.0
 70
     8
 71
     3
 72
     8
 73
     4
 74
     0
 42
0.000000001
 43
0.00000001
 40
0.0
 40
0.0
 40
0.0
 40
0.0
 40
1.0
 40
1.0
 40
1.0
 40
1.0
 10
12.10253466979983
 20
2.138179795429656
 30
0.0
 10
12.05956905624468
 20
2.149067144723481
 30
0.0
 10
12.01585789524394
 20
2.148054507263722
 30
0.0
 10
11.97837557220044
 20
2.130018678938021
 30
0.0
  0
SPLINE
  5
33B
330
1F
100
AcDbEntity
  8
외형선
  6
Continuous
 62
     1
370
    15
100
AcDbSpline
210
0.0
220
0.0
230
1.0
 70
     8
 71
     3
 72
    10
 73
     6
 74
     0
 42
0.000000001
 43
0.00000001
 40
0.0
 40
0.0
 40
0.0
 40
0.0
 40
0.5
 40
0.5
 40
1.0
 40
1.0
 40
1.0
 40
1.0
 10
13.37475761208659
 20
1.719256815119222
 30
0.0
 10
13.16228115685846
 20
1.803985129714049
 30
0.0
 10
12.94865340712775
 20
1.882003050994114
 30
0.0
 10
12.52666235790636
 20
2.021953290375349
 30
0.0
 10
12.31536277738383
 20
2.084249831495021
 30
0.0
 10
12.102534707082
 20
2.138179785982578
 30
0.0
  0
SPLINE
  5
33C
330
1F
100
AcDbEntity
  8
외형선
  6
Continuous
 62
     1
370
    15
100
AcDbSpline
210
0.0
220
0.0
230
1.0
 70
     8
 71
     3
 72
    14
 73
    10
 74
     0
 42
0.000000001
 43
0.00000001
 40
0.0
 40
0.0
 40
0.0
 40
0.0
 40
0.0000595233148439
 40
0.0000595233148439
 40
0.0000595233148439
 40
0.0001190118208921
 40
0.0001190118208921
 40
0.0001190118208921
 40
0.0002057626075662
 40
0.0002057626075662
 40
0.0002057626075662
 40
0.0002057626075662
 10
13.50077137159509
 20
1.636300831076823
 30
0.0
 10
13.49016961257073
 20
1.646732389461099
 30
0.0
 10
13.47889146892376
 20
1.656589547748388
 30
0.0
 10
13.46721221237777
 20
1.665709504362104
 30
0.0
 10
13.45553722289273
 20
1.674826128964873
 30
0.0
 10
13.4433823190443
 20
1.683268929941177
 30
0.0
 10
13.43098962005615
 20
1.690898272133281
 30
0.0
 10
13.41297920352555
 20
1.701986061069752
 30
0.0
 10
13.39426068469318
 20
1.711478104738119
 30
0.0
 10
13.37553031975089
 20
1.718948654414268
 30
0.0
  0
SPLINE
  5
33D
330
1F
100
AcDbEntity
  8
외형선
  6
Continuous
 62
     1
370
    15
100
AcDbSpline
210
0.0
220
0.0
230
1.0
 70
     8
 71
     3
 72
    10
 73
     6
 74
     0
 42
0.000000001
 43
0.00000001
 40
0.0
 40
0.0
 40
0.0
 40
0.0
 40
0.5000000000000002
 40
0.5000000000000002
 40
1.0
 40
1.0
 40
1.0
 40
1.0
 10
13.99931276789354
 20
1.421922987386074
 30
0.0
 10
13.9229032795318
 20
1.415526757677688
 30
0.0
 10
13.8328095516149
 20
1.433996540463972
 30
0.0
 10
13.65769413345158
 20
1.50931875252899
 30
0.0
 10
13.57270995882653
 20
1.565517145929511
 30
0.0
 10
13.50077137159509
 20
1.636300831076823
 30
0.0
  0
SPLINE
  5
33E
330
1F
100
AcDbEntity
  8
외형선
  6
Continuous
 62
     1
370
    15
100
AcDbSpline
210
0.0
220
0.0
230
1.0
 70
     8
 71
     3
 72
     8
 73
     4
 74
     0
 42
0.000000001
 43
0.00000001
 40
0.0
 40
0.0
 40
0.0
 40
0.0
 40
1.0
 40
1.0
 40
1.0
 40
1.0
 10
14.12333720599782
 20
1.393226415369589
 30
0.0
 10
14.08041044071573
 20
1.413279085843775
 30
0.0
 10
14.03674672791613
 20
1.425056579984647
 30
0.0
 10
13.99931276789388
 20
1.421922987386103
 30
0.0
  0
SPLINE
  5
33F
330
1F
100
AcDbEntity
  8
외형선
  6
Continuous
 62
     1
370
    15
100
AcDbSpline
210
0.0
220
0.0
230
1.0
 70
     8
 71
     3
 72
    10
 73
     6
 74
     0
 42
0.000000001
 43
0.00000001
 40
0.0
 40
0.0
 40
0.0
 40
0.0
 40
0.5
 40
0.5
 40
1.0
 40
1.0
 40
1.0
 40
1.0
 10
15.39705338281473
 20
0.7406651567697997
 30
0.0
 10
15.18401771610349
 20
0.8572378079477394
 30
0.0
 10
14.97138010485406
 20
0.9707756410120174
 30
0.0
 10
14.54992875703227
 20
1.188630973571398
 30
0.0
 10
14.33622753772107
 20
1.293777513677745
 30
0.0
 10
14.1233371937344
 20
1.393226421098474
 30
0.0
  0
SPLINE
  5
340
330
1F
100
AcDbEntity
  8
외형선
  6
Continuous
 62
     1
370
    15
100
AcDbSpline
210
0.0
220
0.0
230
1.0
 70
     8
 71
     3
 72
    14
 73
    10
 74
     0
 42
0.000000001
 43
0.00000001
 40
0.0
 40
0.0
 40
0.0
 40
0.0
 40
0.0000597287811539
 40
0.0000597287811539
 40
0.0000597287811539
 40
0.0001194223814588
 40
0.0001194223814588
 40
0.0001194223814588
 40
0.0002061404682933
 40
0.0002061404682933
 40
0.0002061404682933
 40
0.0002061404682933
 10
15.52260603772587
 20
0.6551572929268081
 30
0.0
 10
15.51195426674857
 20
0.6641584458135048
 30
0.0
 10
15.50062467342664
 20
0.673098511360144
 30
0.0
 10
15.48889405062476
 20
0.681805621635994
 30
0.0
 10
15.47716774538352
 20
0.6905095271820363
 30
0.0
 10
15.46496128009478
 20
0.6990400370533569
 30
0.0
 10
15.45251770099359
 20
0.7072384170043184
 30
0.0
 10
15.4345013121961
 20
0.7191084103161449
 30
0.0
 10
15.41578336113836
 20
0.7304161528027384
 30
0.0
 10
15.39705429130457
 20
0.7406646596461277
 30
0.0
  0
SPLINE
  5
341
330
1F
100
AcDbEntity
  8
외형선
  6
Continuous
 62
     1
370
    15
100
AcDbSpline
210
0.0
220
0.0
230
1.0
 70
     8
 71
     3
 72
    10
 73
     6
 74
     0
 42
0.000000001
 43
0.00000001
 40
0.0
 40
0.0
 40
0.0
 40
0.0
 40
0.5000000000000029
 40
0.5000000000000029
 40
1.0
 40
1.0
 40
1.0
 40
1.0
 10
16.02140539761798
 20
0.3786520546953573
 30
0.0
 10
15.94502484814286
 20
0.4042562317028801
 30
0.0
 10
15.85501396709871
 20
0.4426335092849092
 30
0.0
 10
15.67973386459092
 20
0.537738555651635
 30
0.0
 10
15.5946565952526
 20
0.5942718227780892
 30
0.0
 10
15.52260603772587
 20
0.6551572929268081
 30
0.0
  0
SPLINE
  5
342
330
1F
100
AcDbEntity
  8
외형선
  6
Continuous
 62
     1
370
    15
100
AcDbSpline
210
0.0
220
0.0
230
1.0
 70
     8
 71
     3
 72
     8
 73
     4
 74
     0
 42
0.000000001
 43
0.00000001
 40
0.0
 40
0.0
 40
0.0
 40
0.0
 40
1.0
 40
1.0
 40
1.0
 40
1.0
 10
16.14518890428357
 20
0.31982549460563
 30
0.0
 10
16.10233693368425
 20
0.3443260957515397
 30
0.0
 10
16.05876127071225
 20
0.3661296731001391
 30
0.0
 10
16.02140539761833
 20
0.3786520546952366
 30
0.0
  0
SPLINE
  5
343
330
1F
100
AcDbEntity
  8
외형선
  6
Continuous
 62
     1
370
    15
100
AcDbSpline
210
0.0
220
0.0
230
1.0
 70
     8
 71
     3
 72
    10
 73
     6
 74
     0
 42
0.000000001
 43
0.00000001
 40
0.0
 40
0.0
 40
0.0
 40
0.0
 40
0.5
 40
0.5
 40
1.0
 40
1.0
 40
1.0
 40
1.0
 10
18.04301594048108
 20
-0.7533204846719253
 30
0.0
 10
17.9665538939262
 20
-0.7016120402190902
 30
0.0
 10
17.87636320102106
 20
-0.6526948493491682
 30
0.0
 10
17.70078928496418
 20
-0.5602304605272943
 30
0.0
 10
17.6155690242371
 20
-0.516606058120666
 30
0.0
 10
17.5434013373086
 20
-0.4798516621830027
 30
0.0
  0
SPLINE
  5
344
330
1F
100
AcDbEntity
  8
외형선
  6
Continuous
 62
     1
370
    15
100
AcDbSpline
210
0.0
220
0.0
230
1.0
 70
     8
 71
     3
 72
    10
 73
     6
 74
     0
 42
0.000000001
 43
0.00000001
 40
0.0
 40
0.0
 40
0.0
 40
0.0
 40
0.5
 40
0.5
 40
1.0
 40
1.0
 40
1.0
 40
1.0
 10
19.11066342298271
 20
-1.075761100043217
 30
0.0
 10
18.98731027867599
 20
-1.055135703649648
 30
0.0
 10
18.85376796216633
 20
-1.03049443518021
 30
0.0
 10
18.57926546615377
 20
-0.9712149886103996
 30
0.0
 10
18.43788835478605
 20
-0.9367105985666209
 30
0.0
 10
18.29441296299633
 20
-0.8973413173675562
 30
0.0
  0
SPLINE
  5
345
330
1F
100
AcDbEntity
  8
외형선
  6
Continuous
 62
     1
370
    15
100
AcDbSpline
210
0.0
220
0.0
230
1.0
 70
     8
 71
     3
 72
    11
 73
     7
 74
     0
 42
0.000000001
 43
0.00000001
 40
0.0
 40
0.0
 40
0.0
 40
0.0
 40
0.0579851010294325
 40
0.3363230945527663
 40
0.6227398144458205
 40
0.9999999999999999
 40
0.9999999999999999
 40
0.9999999999999999
 40
0.9999999999999999
 10
18.92019413120991
 20
-1.039578045438185
 30
0.0
 10
18.9117287643685
 20
-1.038934710855153
 30
0.0
 10
18.86262824851041
 20
-1.035203264777473
 30
0.0
 10
18.75024287827412
 20
-1.054754587969947
 30
0.0
 10
18.56963503564745
 20
-1.102639269327967
 30
0.0
 10
18.42873792366178
 20
-1.164906265728598
 30
0.0
 10
18.3486464361089
 20
-1.200301287648452
 30
0.0
  0
SPLINE
  5
346
330
1F
100
AcDbEntity
  8
외형선
  6
Continuous
 62
     1
370
    15
100
AcDbSpline
210
0.0
220
0.0
230
1.0
 70
     8
 71
     3
 72
     8
 73
     4
 74
     0
 42
0.000000001
 43
0.00000001
 40
0.0
 40
0.0
 40
0.0
 40
0.0
 40
1.0
 40
1.0
 40
1.0
 40
1.0
 10
19.11941296299633
 20
-1.392098215593429
 30
0.0
 10
18.85570984138316
 20
-1.351849250065748
 30
0.0
 10
18.59905546057784
 20
-1.286981632182873
 30
0.0
 10
18.34864643610922
 20
-1.200301287647116
 30
0.0
  0
LINE
  5
347
330
1F
100
AcDbEntity
  8
외형선
  6
Continuous
 62
     1
370
    15
100
AcDbLine
 10
19.11941296299633
 20
-1.494485300161309
 30
0.0
 11
19.11941296299633
 21
-1.392098215593429
 31
0.0
  0
SPLINE
  5
348
330
1F
100
AcDbEntity
  8
외형선
  6
Continuous
 62
     1
370
    15
100
AcDbSpline
210
0.0
220
0.0
230
1.0
 70
     8
 71
     3
 72
    10
 73
     6
 74
     0
 42
0.000000001
 43
0.00000001
 40
0.0
 40
0.0
 40
0.0
 40
0.0
 40
0.5
 40
0.5
 40
1.0
 40
1.0
 40
1.0
 40
1.0
 10
18.39203105496095
 20
-2.195704345432483
 30
0.0
 10
18.51058237934854
 20
-2.069407520218534
 30
0.0
 10
18.63081979253421
 20
-1.945404445520809
 30
0.0
 10
18.87800883895798
 20
-1.705521130078787
 30
0.0
 10
19.00062927366263
 20
-1.594281749208258
 30
0.0
 10
19.11941296299633
 20
-1.494485300161309
 30
0.0
  0
SPLINE
  5
349
330
1F
100
AcDbEntity
  8
외형선
  6
Continuous
 62
     1
370
    15
100
AcDbSpline
210
0.0
220
0.0
230
1.0
 70
     8
 71
     3
 72
     8
 73
     4
 74
     0
 42
0.000000001
 43
0.00000001
 40
0.0
 40
0.0
 40
0.0
 40
0.0
 40
1.0
 40
1.0
 40
1.0
 40
1.0
 10
18.00660072039626
 20
-2.299653410944509
 30
0.0
 10
18.12203763393429
 20
-2.205742300476666
 30
0.0
 10
18.2683075024306
 20
-2.176841326857706
 30
0.0
 10
18.39203105496098
 20
-2.195704345432426
 30
0.0
  0
SPLINE
  5
34A
330
1F
100
AcDbEntity
  8
외형선
  6
Continuous
 62
     1
370
    15
100
AcDbSpline
210
0.0
220
0.0
230
1.0
 70
     8
 71
     3
 72
     8
 73
     4
 74
     0
 42
0.000000001
 43
0.00000001
 40
0.0
 40
0.0
 40
0.0
 40
0.0
 40
1.0
 40
1.0
 40
1.0
 40
1.0
 10
17.88280151462466
 20
-2.350462857555734
 30
0.0
 10
17.92565865252959
 20
-2.346491117181196
 30
0.0
 10
17.96923631836732
 20
-2.330050381713712
 30
0.0
 10
18.00660072039626
 20
-2.299653410944495
 30
0.0
  0
SPLINE
  5
34B
330
1F
100
AcDbEntity
  8
외형선
  6
Continuous
 62
     1
370
    15
100
AcDbSpline
210
0.0
220
0.0
230
1.0
 70
     8
 71
     3
 72
    10
 73
     6
 74
     0
 42
0.000000001
 43
0.00000001
 40
0.0
 40
0.0
 40
0.0
 40
0.0
 40
0.5
 40
0.5
 40
1.0
 40
1.0
 40
1.0
 40
1.0
 10
17.88280153349926
 20
-2.350462855806435
 30
0.0
 10
17.67112281884833
 20
-2.370079959572459
 30
0.0
 10
17.45716136830782
 20
-2.380397714229354
 30
0.0
 10
17.03227641647697
 20
-2.38200044178661
 30
0.0
 10
16.82257748271469
 20
-2.373378284201622
 30
0.0
 10
16.60986421818694
 20
-2.355345237750037
 30
0.0
  0
LINE
  5
34C
330
1F
100
AcDbEntity
  8
외형선
  6
Continuous
 62
     1
370
    15
100
AcDbLine
 10
11.55885100342609
 20
-1.782737673259029
 30
0.0
 11
11.22079116988227
 21
-1.9097971480469
 31
0.0
  0
SPLINE
  5
34D
330
1F
100
AcDbEntity
  8
외형선
  6
Continuous
 62
     1
370
    15
100
AcDbSpline
210
0.0
220
0.0
230
1.0
 70
     8
 71
     3
 72
    14
 73
    10
 74
     0
 42
0.000000001
 43
0.00000001
 40
0.0
 40
0.0
 40
0.0
 40
0.0
 40
0.0000597754389019
 40
0.0000597754389019
 40
0.0000597754389019
 40
0.000119515748689
 40
0.000119515748689
 40
0.000119515748689
 40
0.0002061887171295
 40
0.0002061887171295
 40
0.0002061887171295
 40
0.0002061887171295
 10
11.09520937976364
 20
-1.922405793210595
 30
0.0
 10
11.10587314598075
 20
-1.924603398558156
 30
0.0
 10
11.11721451354654
 20
-1.92576480071616
 30
0.0
 10
11.12895628377908
 20
-1.925922438767253
 30
0.0
 10
11.14069374158414
 20
-1.926080018922243
 30
0.0
 10
11.15291081184798
 20
-1.925236903682412
 30
0.0
 10
11.16536411856138
 20
-1.923444513844055
 30
0.0
 10
11.18337138770331
 20
-1.920852748703326
 30
0.0
 10
11.20207662951054
 20
-1.91624003000299
 30
0.0
 10
11.22079122126027
 20
-1.909797130358919
 30
0.0
  0
SPLINE
  5
34E
330
1F
100
AcDbEntity
  8
외형선
  6
Continuous
 62
     1
370
    15
100
AcDbSpline
210
0.0
220
0.0
230
1.0
 70
     8
 71
     3
 72
    10
 73
     6
 74
     0
 42
0.000000001
 43
0.00000001
 40
0.0
 40
0.0
 40
0.0
 40
0.0
 40
0.5
 40
0.5
 40
1.0
 40
1.0
 40
1.0
 40
1.0
 10
10.59555696065666
 20
-2.069633015658107
 30
0.0
 10
10.67204657949085
 20
-2.003234633294988
 30
0.0
 10
10.76226477240382
 20
-1.960533115345507
 30
0.0
 10
10.93785865257501
 20
-1.912923996894102
 30
0.0
 10
11.02307399055756
 20
-1.907540021224237
 30
0.0
 10
11.09520937976503
 20
-1.922405793207411
 30
0.0
  0
SPLINE
  5
34F
330
1F
100
AcDbEntity
  8
외형선
  6
Continuous
 62
     1
370
    15
100
AcDbSpline
210
0.0
220
0.0
230
1.0
 70
     8
 71
     3
 72
     8
 73
     4
 74
     0
 42
0.000000001
 43
0.00000001
 40
0.0
 40
0.0
 40
0.0
 40
0.0
 40
1.0
 40
1.0
 40
1.0
 40
1.0
 10
10.47132135562169
 20
-2.135278922135975
 30
0.0
 10
10.51428595991384
 20
-2.124239565924577
 30
0.0
 10
10.55801901510002
 20
-2.102218599168446
 30
0.0
 10
10.59555696065666
 20
-2.069633015658107
 30
0.0
  0
SPLINE
  5
350
330
1F
100
AcDbEntity
  8
외형선
  6
Continuous
 62
     1
370
    15
100
AcDbSpline
210
0.0
220
0.0
230
1.0
 70
     8
 71
     3
 72
    10
 73
     6
 74
     0
 42
0.000000001
 43
0.00000001
 40
0.0
 40
0.0
 40
0.0
 40
0.0
 40
0.5000000000000007
 40
0.5000000000000007
 40
1.0
 40
1.0
 40
1.0
 40
1.0
 10
10.4713213157761
 20
-2.13527893237393
 30
0.0
 10
10.26087587718397
 20
-2.189350933020188
 30
0.0
 10
10.04728000210602
 20
-2.23521169168975
 30
0.0
 10
9.621347843965276
 20
-2.308676097666628
 30
0.0
 10
9.411159080015146
 20
-2.336233337108909
 30
0.0
 10
9.19915140485417
 20
-2.354528074699126
 30
0.0
  0
SPLINE
  5
351
330
1F
100
AcDbEntity
  8
외형선
  6
Continuous
 62
     1
370
    15
100
AcDbSpline
210
0.0
220
0.0
230
1.0
 70
     8
 71
     3
 72
    14
 73
    10
 74
     0
 42
0.000000001
 43
0.00000001
 40
0.0
 40
0.0
 40
0.0
 40
0.0
 40
0.0000596097711309
 40
0.0000596097711309
 40
0.0000596097711309
 40
0.0001191848096989
 40
0.0001191848096989
 40
0.0001191848096989
 40
0.0002058569968923
 40
0.0002058569968923
 40
0.0002058569968923
 40
0.0002058569968923
 10
9.073852251721213
 20
-2.325163969216271
 30
0.0
 10
9.084476718772542
 20
-2.331913184977084
 30
0.0
 10
9.095777063443514
 20
-2.337558188403869
 30
0.0
 10
9.107477191155574
 20
-2.342046723963088
 30
0.0
 10
9.119173059045004
 20
-2.346533625320896
 30
0.0
 10
9.131347656783428
 20
-2.349896820175503
 30
0.0
 10
9.143758214477224
 20
-2.352110479333612
 30
0.0
 10
9.161752571016997
 20
-2.35532011528482
 30
0.0
 10
9.180447930782798
 20
-2.356142049994568
 30
0.0
 10
9.199151404837401
 20
-2.354528074700576
 30
0.0
  0
SPLINE
  5
352
330
1F
100
AcDbEntity
  8
외형선
  6
Continuous
 62
     1
370
    15
100
AcDbSpline
210
0.0
220
0.0
230
1.0
 70
     8
 71
     3
 72
    10
 73
     6
 74
     0
 42
0.000000001
 43
0.00000001
 40
0.0
 40
0.0
 40
0.0
 40
0.0
 40
0.5
 40
0.5
 40
1.0
 40
1.0
 40
1.0
 40
1.0
 10
8.574927489192468
 20
-2.341236390087525
 30
0.0
 10
8.651321334429563
 20
-2.284942073922744
 30
0.0
 10
8.741436864493515
 20
-2.259423779404892
 30
0.0
 10
8.91680415256139
 20
-2.256980064326904
 30
0.0
 10
9.001887854884494
 20
-2.279448429882188
 30
0.0
 10
9.07385225172262
 20
-2.325163969212505
 30
0.0
  0
SPLINE
  5
353
330
1F
100
AcDbEntity
  8
외형선
  6
Continuous
 62
     1
370
    15
100
AcDbSpline
210
0.0
220
0.0
230
1.0
 70
     8
 71
     3
 72
     8
 73
     4
 74
     0
 42
0.000000001
 43
0.00000001
 40
0.0
 40
0.0
 40
0.0
 40
0.0
 40
1.0
 40
1.0
 40
1.0
 40
1.0
 10
8.450792459872595
 20
-2.380088902358041
 30
0.0
 10
8.49373005171477
 20
-2.380864581085924
 30
0.0
 10
8.537437129388048
 20
-2.36886288488448
 30
0.0
 10
8.574927489192468
 20
-2.341236390087525
 30
0.0
  0
SPLINE
  5
354
330
1F
100
AcDbEntity
  8
외형선
  6
Continuous
 62
     1
370
    15
100
AcDbSpline
210
0.0
220
0.0
230
1.0
 70
     8
 71
     3
 72
    10
 73
     6
 74
     0
 42
0.000000001
 43
0.00000001
 40
0.0
 40
0.0
 40
0.0
 40
0.0
 40
0.5
 40
0.5
 40
1.0
 40
1.0
 40
1.0
 40
1.0
 10
8.450793296501907
 20
-2.380088917471917
 30
0.0
 10
8.238970855692862
 20
-2.376262315142278
 30
0.0
 10
8.02760011948137
 20
-2.362987696234272
 30
0.0
 10
7.600815900309835
 20
-2.317617489074338
 30
0.0
 10
7.388351974893248
 20
-2.285601209866195
 30
0.0
 10
7.177063894011362
 20
-2.244737176932391
 30
0.0
  0
SPLINE
  5
355
330
1F
100
AcDbEntity
  8
외형선
  6
Continuous
 62
     1
370
    15
100
AcDbSpline
210
0.0
220
0.0
230
1.0
 70
     8
 71
     3
 72
    14
 73
    10
 74
     0
 42
0.000000001
 43
0.00000001
 40
0.0
 40
0.0
 40
0.0
 40
0.0
 40
0.0000596859426484
 40
0.0000596859426484
 40
0.0000596859426484
 40
0.000119336134498
 40
0.000119336134498
 40
0.000119336134498
 40
0.0002062471436958
 40
0.0002062471436958
 40
0.0002062471436958
 40
0.0002062471436958
 10
7.051591960392025
 20
-2.180230631341908
 30
0.0
 10
7.062227583220698
 20
-2.189951537937554
 30
0.0
 10
7.073539306574184
 20
-2.198755397821395
 30
0.0
 10
7.08524981596424
 20
-2.206519708543433
 30
0.0
 10
7.096955946854444
 20
-2.214281116229224
 30
0.0
 10
7.109139795034303
 20
-2.221057756469159
 30
0.0
 10
7.121558382079962
 20
-2.226755038565821
 30
0.0
 10
7.13959137658646
 20
-2.235028045500777
 30
0.0
 10
7.158324086587222
 20
-2.241112816638158
 30
0.0
 10
7.17706384798364
 20
-2.244737168030434
 30
0.0
  0
SPLINE
  5
356
330
1F
100
AcDbEntity
  8
외형선
  6
Continuous
 62
     1
370
    15
100
AcDbSpline
210
0.0
220
0.0
230
1.0
 70
     8
 71
     3
 72
    10
 73
     6
 74
     0
 42
0.000000001
 43
0.00000001
 40
0.0
 40
0.0
 40
0.0
 40
0.0
 40
0.5
 40
0.5
 40
1.0
 40
1.0
 40
1.0
 40
1.0
 10
6.553425006345685
 20
-2.061799035499811
 30
0.0
 10
6.62969811361473
 20
-2.028675426513979
 30
0.0
 10
6.719710064775819
 20
-2.026234941445048
 30
0.0
 10
6.894826854133862
 20
-2.069499556191638
 30
0.0
 10
6.979742489047688
 20
-2.114560570342115
 30
0.0
 10
7.051591960393574
 20
-2.18023063133827
 30
0.0
  0
SPLINE
  5
357
330
1F
100
AcDbEntity
  8
외형선
  6
Continuous
 62
     1
370
    15
100
AcDbSpline
210
0.0
220
0.0
230
1.0
 70
     8
 71
     3
 72
     8
 73
     4
 74
     0
 42
0.000000001
 43
0.00000001
 40
0.0
 40
0.0
 40
0.0
 40
0.0
 40
1.0
 40
1.0
 40
1.0
 40
1.0
 10
6.429550209200593
 20
-2.064986689367012
 30
0.0
 10
6.472415048342378
 20
-2.077302395192512
 30
0.0
 10
6.516035196755674
 20
-2.078036546691586
 30
0.0
 10
6.553425006345685
 20
-2.061799035499811
 30
0.0
  0
SPLINE
  5
358
330
1F
100
AcDbEntity
  8
외형선
  6
Continuous
 62
     1
370
    15
100
AcDbSpline
210
0.0
220
0.0
230
1.0
 70
     8
 71
     3
 72
     8
 73
     4
 74
     0
 42
0.000000001
 43
0.00000001
 40
0.0
 40
0.0
 40
0.0
 40
0.0
 40
0.0079499734092692
 40
0.0079499734092692
 40
0.0079499734092692
 40
0.0079499734092692
 10
6.429550648146724
 20
-2.064986815482748
 30
0.0
 10
6.426170768945931
 20
-2.064015726105184
 30
0.0
 10
6.422791548101096
 20
-2.063042630461895
 30
0.0
 10
6.419412962996326
 20
-2.0620675293494
 30
0.0
  0
SPLINE
  5
35E
330
1F
100
AcDbEntity
  8
외형선
  6
Continuous
 62
     1
370
    15
100
AcDbSpline
210
0.0
220
0.0
230
1.0
 70
     8
 71
     3
 72
     8
 73
     4
 74
     0
 42
0.000000001
 43
0.00000001
 40
0.0
 40
0.0
 40
0.0
 40
0.0
 40
0.3391495678618582
 40
0.3391495678618582
 40
0.3391495678618582
 40
0.3391495678618582
 10
6.589181885745469
 20
0.8138118299813533
 30
0.0
 10
6.537222592075858
 20
0.8228254447556713
 30
0.0
 10
6.47893998624533
 20
0.8401136091581298
 30
0.0
 10
6.419412962996341
 20
0.8643377341939162
 30
0.0
  0
SPLINE
  5
35F
330
1F
100
AcDbEntity
  8
외형선
  6
Continuous
 62
     1
370
    15
100
AcDbSpline
210
0.0
220
0.0
230
1.0
 70
     8
 71
     3
 72
     8
 73
     4
 74
     0
 42
0.000000001
 43
0.00000001
 40
0.0
 40
0.0
 40
0.0
 40
0.0
 40
1.0
 40
1.0
 40
1.0
 40
1.0
 10
6.713293106384804
 20
0.7655382030790951
 30
0.0
 10
6.670343032614291
 20
0.7889521517933877
 30
0.0
 10
6.626648828312519
 20
0.8073122692055881
 30
0.0
 10
6.589181885745554
 20
0.8138118299813462
 30
0.0
  0
SPLINE
  5
360
330
1F
100
AcDbEntity
  8
외형선
  6
Continuous
 62
     1
370
    15
100
AcDbSpline
210
0.0
220
0.0
230
1.0
 70
     8
 71
     3
 72
    14
 73
    10
 74
     0
 42
0.000000001
 43
0.00000001
 40
0.0
 40
0.0
 40
0.0
 40
0.0
 40
0.0000598197297954
 40
0.0000598197297954
 40
0.0000598197297954
 40
0.0001196046223699
 40
0.0001196046223699
 40
0.0001196046223699
 40
0.0002061783936656
 40
0.0002061783936656
 40
0.0002061783936656
 40
0.0002061783936656
 10
8.110095138493172
 20
-0.0316769400148553
 30
0.0
 10
8.099430675957926
 20
-0.0246117716714247
 30
0.0
 10
8.088087934859495
 20
-0.0172791170549909
 30
0.0
 10
8.076343556273223
 20
-0.0098371432007207
 30
0.0
 10
8.064603455347417
 20
-0.0023978799400348
 30
0.0
 10
8.05238244833955
 20
0.0052010159982591
 30
0.0
 10
8.039923647683288
 20
0.012806716615251
 30
0.0
 10
8.02194225505091
 20
0.0237837835747489
 30
0.0
 10
8.003261844328629
 20
0.0349007626141206
 30
0.0
 10
7.984568659629411
 20
0.0456734619658894
 30
0.0
  0
SPLINE
  5
361
330
1F
100
AcDbEntity
  8
외형선
  6
Continuous
 62
     1
370
    15
100
AcDbSpline
210
0.0
220
0.0
230
1.0
 70
     8
 71
     3
 72
    10
 73
     6
 74
     0
 42
0.000000001
 43
0.00000001
 40
0.0
 40
0.0
 40
0.0
 40
0.0
 40
0.5
 40
0.5
 40
1.0
 40
1.0
 40
1.0
 40
1.0
 10
8.60975978150973
 20
-0.3150109751522701
 30
0.0
 10
8.533168744731377
 20
-0.2725220924958203
 30
0.0
 10
8.442874281207942
 20
-0.226541809006954
 30
0.0
 10
8.267390235998441
 20
-0.1298924292346309
 30
0.0
 10
8.182243760631287
 20
-0.0794751445157482
 30
0.0
 10
8.110095138493172
 20
-0.0316769400148553
 30
0.0
  0
SPLINE
  5
362
330
1F
100
AcDbEntity
  8
외형선
  6
Continuous
 62
     1
370
    15
100
AcDbSpline
210
0.0
220
0.0
230
1.0
 70
     8
 71
     3
 72
    14
 73
    10
 74
     0
 42
0.000000001
 43
0.00000001
 40
0.0
 40
0.0
 40
0.0
 40
0.0
 40
0.0000596719197559
 40
0.0000596719197559
 40
0.0000596719197559
 40
0.0001193086515235
 40
0.0001193086515235
 40
0.0001193086515235
 40
0.0002060620743157
 40
0.0002060620743157
 40
0.0002060620743157
 40
0.0002060620743157
 10
12.15389293325763
 20
-1.962575672008449
 30
0.0
 10
12.14325081301001
 20
-1.965088151570442
 30
0.0
 10
12.1319314038223
 20
-1.966554466571737
 30
0.0
 10
12.12021139745927
 20
-1.967001805853856
 30
0.0
 10
12.10849570848789
 20
-1.967448980346064
 30
0.0
 10
12.09630037290264
 20
-1.966882256176775
 30
0.0
 10
12.08386836688585
 20
-1.965348553694562
 30
0.0
 10
12.0658444879583
 20
-1.963124997189462
 30
0.0
 10
12.04711825862331
 20
-1.958836724353014
 30
0.0
 10
12.02838209539356
 20
-1.952662239920167
 30
0.0
  0
SPLINE
  5
363
330
1F
100
AcDbEntity
  8
외형선
  6
Continuous
 62
     1
370
    15
100
AcDbSpline
210
0.0
220
0.0
230
1.0
 70
     8
 71
     3
 72
    10
 73
     6
 74
     0
 42
0.000000001
 43
0.00000001
 40
0.0
 40
0.0
 40
0.0
 40
0.0
 40
0.5
 40
0.5
 40
1.0
 40
1.0
 40
1.0
 40
1.0
 10
12.65243575420889
 20
-2.102245015555284
 30
0.0
 10
12.57616452372182
 20
-2.036023557724144
 30
0.0
 10
12.4861639636794
 20
-1.994105744022385
 30
0.0
 10
12.31093288563411
 20
-1.949130918088622
 30
0.0
 10
12.22588728928653
 20
-1.945578650372462
 30
0.0
 10
12.15389293325763
 20
-1.962575672008449
 30
0.0
  0
SPLINE
  5
364
330
1F
100
AcDbEntity
  8
외형선
  6
Continuous
 62
     1
370
    15
100
AcDbSpline
210
0.0
220
0.0
230
1.0
 70
     8
 71
     3
 72
     8
 73
     4
 74
     0
 42
0.000000001
 43
0.00000001
 40
0.0
 40
0.0
 40
0.0
 40
0.0
 40
1.0
 40
1.0
 40
1.0
 40
1.0
 10
12.77625408226228
 20
-2.166497973447315
 30
0.0
 10
12.73339060089894
 20
-2.156207551298359
 30
0.0
 10
12.68980473310749
 20
-2.134690122898143
 30
0.0
 10
12.65243575420895
 20
-2.102245015555334
 30
0.0
  0
SPLINE
  5
365
330
1F
100
AcDbEntity
  8
외형선
  6
Continuous
 62
     1
370
    15
100
AcDbSpline
210
0.0
220
0.0
230
1.0
 70
     8
 71
     3
 72
    10
 73
     6
 74
     0
 42
0.000000001
 43
0.00000001
 40
0.0
 40
0.0
 40
0.0
 40
0.0
 40
0.5
 40
0.5
 40
1.0
 40
1.0
 40
1.0
 40
1.0
 10
14.04912552100668
 20
-2.364313106520691
 30
0.0
 10
13.83648562010679
 20
-2.349719376839034
 30
0.0
 10
13.62681567357331
 20
-2.325834960707689
 30
0.0
 10
13.20172165234144
 20
-2.259622542801148
 30
0.0
 10
12.98778378897009
 20
-2.217280792663638
 30
0.0
 10
12.77625536531
 20
-2.166498281474049
 30
0.0
  0
SPLINE
  5
366
330
1F
100
AcDbEntity
  8
외형선
  6
Continuous
 62
     1
370
    15
100
AcDbSpline
210
0.0
220
0.0
230
1.0
 70
     8
 71
     3
 72
    14
 73
    10
 74
     0
 42
0.000000001
 43
0.00000001
 40
0.0
 40
0.0
 40
0.0
 40
0.0
 40
0.000059811590572
 40
0.000059811590572
 40
0.000059811590572
 40
0.0001195877242642
 40
0.0001195877242642
 40
0.0001195877242642
 40
0.0002063277559059
 40
0.0002063277559059
 40
0.0002063277559059
 40
0.0002063277559059
 10
14.1747983366028
 20
-2.332468995993815
 30
0.0
 10
14.1641265402313
 20
-2.339469756043159
 30
0.0
 10
14.15277681331365
 20
-2.345365710128243
 30
0.0
 10
14.14102682313051
 20
-2.350100883373636
 30
0.0
 10
14.1292811847755
 20
-2.35483430285924
 30
0.0
 10
14.11705604438512
 20
-2.358441403307858
 30
0.0
 10
14.10459491800035
 20
-2.360892716189008
 30
0.0
 10
14.08657310471196
 20
-2.364437909592177
 30
0.0
 10
14.06785377706374
 20
-2.365598449848286
 30
0.0
 10
14.04912521210344
 20
-2.364313085320299
 30
0.0
  0
SPLINE
  5
367
330
1F
100
AcDbEntity
  8
외형선
  6
Continuous
 62
     1
370
    15
100
AcDbSpline
210
0.0
220
0.0
230
1.0
 70
     8
 71
     3
 72
    10
 73
     6
 74
     0
 42
0.000000001
 43
0.00000001
 40
0.0
 40
0.0
 40
0.0
 40
0.0
 40
0.2321091225835326
 40
0.8379797439220962
 40
1.0
 40
1.0
 40
1.0
 40
1.0
 10
14.43910221537905
 20
-2.266697276841783
 30
0.0
 10
14.41713691953828
 20
-2.264683803525977
 30
0.0
 10
14.33783597359111
 20
-2.257414593962843
 30
0.0
 10
14.24748760406092
 20
-2.288743317853176
 30
0.0
 10
14.18746313144552
 20
-2.324850584605508
 30
0.0
 10
14.1747983366028
 20
-2.332468995993822
 30
0.0
  0
SPLINE
  5
368
330
1F
100
AcDbEntity
  8
외형선
  6
Continuous
 62
     1
370
    15
100
AcDbSpline
210
0.0
220
0.0
230
1.0
 70
     8
 71
     3
 72
    10
 73
     6
 74
     0
 42
0.000000001
 43
0.00000001
 40
0.0
 40
0.0
 40
0.0
 40
0.0
 40
0.5
 40
0.5
 40
1.0
 40
1.0
 40
1.0
 40
1.0
 10
17.33280998936429
 20
1.11841256224985
 30
0.0
 10
17.40934040959538
 20
1.060564633610688
 30
0.0
 10
17.49961457971336
 20
1.010788598467178
 30
0.0
 10
17.67522829235463
 20
0.9246909252026105
 30
0.0
 10
17.76039672837595
 20
0.8882044117541801
 30
0.0
 10
17.83249654439696
 20
0.8621714399742606
 30
0.0
  0
SPLINE
  5
369
330
1F
100
AcDbEntity
  8
외형선
  6
Continuous
 62
     1
370
    15
100
AcDbSpline
210
0.0
220
0.0
230
1.0
 70
     8
 71
     3
 72
    12
 73
     8
 74
     0
 42
0.000000001
 43
0.00000001
 40
0.0
 40
0.0
 40
0.0
 40
0.0
 40
0.2500000000000001
 40
0.2500000000000001
 40
0.5000000000000001
 40
0.5000000000000001
 40
1.0
 40
1.0
 40
1.0
 40
1.0
 10
8.110095138492731
 20
-0.0316769400114163
 30
0.0
 10
8.09248196909055
 20
0.1060151831178535
 30
0.0
 10
8.0755360942212
 20
0.2421138544454768
 30
0.0
 10
8.041872097643498
 20
0.5099068418942698
 30
0.0
 10
8.024377670863482
 20
0.6436334722947725
 30
0.0
 10
7.971047639211073
 20
1.034718771399666
 30
0.0
 10
7.934399556407322
 20
1.281226541289057
 30
0.0
 10
7.899972564850054
 20
1.491874639354157
 30
0.0
  0
SPLINE
  5
36A
330
1F
100
AcDbEntity
  8
외형선
  6
Continuous
 62
     1
370
    15
100
AcDbSpline
210
0.0
220
0.0
230
1.0
 70
     8
 71
     3
 72
     8
 73
     4
 74
     0
 42
0.000000001
 43
0.00000001
 40
0.0
 40
0.0
 40
0.0
 40
0.0
 40
1.0
 40
1.0
 40
1.0
 40
1.0
 10
17.49204902554882
 20
2.251296103987022
 30
0.0
 10
17.44913997380236
 20
2.243246998598343
 30
0.0
 10
17.40548899116338
 20
2.223450992238979
 30
0.0
 10
17.36807142663626
 20
2.191518830806791
 30
0.0
  0
SPLINE
  5
36B
330
1F
100
AcDbEntity
  8
외형선
  6
Continuous
 62
     1
370
    15
100
AcDbSpline
210
0.0
220
0.0
230
1.0
 70
     8
 71
     3
 72
    10
 73
     6
 74
     0
 42
0.000000001
 43
0.00000001
 40
0.0
 40
0.0
 40
0.0
 40
0.0
 40
0.5
 40
0.5
 40
1.0
 40
1.0
 40
1.0
 40
1.0
 10
18.29441296299624
 20
2.35886635336633
 30
0.0
 10
18.16044947183016
 20
2.348291508764013
 30
0.0
 10
18.02800472709914
 20
2.334040522748757
 30
0.0
 10
17.76095723485758
 20
2.298160699102552
 30
0.0
 10
17.62649797291338
 20
2.276516628424253
 30
0.0
 10
17.49205555328269
 20
2.251297328490834
 30
0.0
  0
SPLINE
  5
36C
330
1F
100
AcDbEntity
  8
외형선
  6
Continuous
 62
     1
370
    15
100
AcDbSpline
210
0.0
220
0.0
230
1.0
 70
     8
 71
     3
 72
    10
 73
     6
 74
     0
 42
0.000000001
 43
0.00000001
 40
0.0
 40
0.0
 40
0.0
 40
0.0
 40
0.5
 40
0.5
 40
1.0
 40
1.0
 40
1.0
 40
1.0
 10
19.11066342298271
 20
1.522243903619986
 30
0.0
 10
18.98731027867599
 20
1.675922184281993
 30
0.0
 10
18.85376796216633
 20
1.820289796659486
 30
0.0
 10
18.57926546615377
 20
2.097692202485809
 30
0.0
 10
18.43788835478605
 20
2.230537968230996
 30
0.0
 10
18.29441296299633
 20
2.35886635336633
 30
0.0
  0
SPLINE
  5
36D
330
1F
100
AcDbEntity
  8
외형선
  6
Continuous
 62
     1
370
    15
100
AcDbSpline
210
0.0
220
0.0
230
1.0
 70
     8
 71
     3
 72
    12
 73
     8
 74
     0
 42
0.000000001
 43
0.00000001
 40
0.0
 40
0.0
 40
0.0
 40
0.0
 40
0.2499999999999999
 40
0.2499999999999999
 40
0.4999999999999999
 40
0.4999999999999999
 40
1.0
 40
1.0
 40
1.0
 40
1.0
 10
19.11066342299365
 20
1.522243903615595
 30
0.0
 10
19.07114599707205
 20
1.435227094624387
 30
0.0
 10
19.02484620615906
 20
1.35457561600237
 30
0.0
 10
18.91791647242729
 20
1.206721677092928
 30
0.0
 10
18.85663611126601
 20
1.139248326632944
 30
0.0
 10
18.65983771005812
 20
0.967189278205729
 30
0.0
 10
18.50680134137206
 20
0.8887680131175335
 30
0.0
 10
18.34864643610903
 20
0.8471538628105355
 30
0.0
  0
SPLINE
  5
36E
102
{ACAD_REACTORS
330
437
102
}
330
1F
100
AcDbEntity
  8
외형선
  6
Continuous
 62
     1
370
    15
100
AcDbSpline
210
0.0
220
0.0
230
1.0
 70
     8
 71
     3
 72
     8
 73
     4
 74
     0
 42
0.000000001
 43
0.00000001
 40
0.0
 40
0.0
 40
0.0
 40
0.0
 40
1.0
 40
1.0
 40
1.0
 40
1.0
 10
19.11941296299633
 20
0.4593441065733179
 30
0.0
 10
18.85570984138318
 20
0.6027889274864497
 30
0.0
 10
18.59905546057785
 20
0.7314990474322434
 30
0.0
 10
18.34864643610926
 20
0.8471538628116155
 30
0.0
  0
LINE
  5
36F
102
{ACAD_REACTORS
330
437
102
}
330
1F
100
AcDbEntity
  8
외형선
  6
Continuous
 62
     1
370
    15
100
AcDbLine
 10
19.11941296299633
 20
0.371316044775468
 30
0.0
 11
19.11941296299633
 21
0.4593441065733179
 31
0.0
  0
SPLINE
  5
370
102
{ACAD_REACTORS
330
437
102
}
330
1F
100
AcDbEntity
  8
외형선
  6
Continuous
 62
     1
370
    15
100
AcDbSpline
210
0.0
220
0.0
230
1.0
 70
     8
 71
     3
 72
    12
 73
     8
 74
     0
 42
0.000000001
 43
0.00000001
 40
0.0
 40
0.0
 40
0.0
 40
0.0
 40
0.500000000000002
 40
0.500000000000002
 40
0.750000000000001
 40
0.750000000000001
 40
1.0
 40
1.0
 40
1.0
 40
1.0
 10
18.29441296299631
 20
0.6180351187319593
 30
0.0
 10
18.42836673415291
 20
0.5249142566942089
 30
0.0
 10
18.563932572886
 20
0.4535204895023161
 30
0.0
 10
18.77333177750954
 20
0.386588545838733
 30
0.0
 10
18.84397836975648
 20
0.3712796978799693
 30
0.0
 10
18.98294342661344
 20
0.3577190172565911
 30
0.0
 10
19.05184085778987
 20
0.3591699962319046
 30
0.0
 10
19.11941296299633
 20
0.371316044775468
 30
0.0
  0
SPLINE
  5
371
330
1F
100
AcDbEntity
  8
외형선
  6
Continuous
 62
     1
370
    15
100
AcDbSpline
210
0.0
220
0.0
230
1.0
 70
     8
 71
     3
 72
    14
 73
    10
 74
     0
 42
0.000000001
 43
0.00000001
 40
0.0
 40
0.0
 40
0.0
 40
0.0
 40
0.0000598183488296
 40
0.0000598183488296
 40
0.0000598183488296
 40
0.0001196010627532
 40
0.0001196010627532
 40
0.0001196010627532
 40
0.0002063524379207
 40
0.0002063524379207
 40
0.0002063524379207
 40
0.0002063524379207
 10
15.81149927821942
 20
1.785051392162052
 30
0.0
 10
15.82215432045352
 20
1.786234105874647
 30
0.0
 10
15.83348548375056
 20
1.786420985982061
 30
0.0
 10
15.84521506595778
 20
1.785661589579823
 30
0.0
 10
15.85694028373814
 20
1.784902475739236
 30
0.0
 10
15.86914273304393
 20
1.783193453428814
 30
0.0
 10
15.88157998390657
 20
1.780602367901962
 30
0.0
 10
15.89956758663477
 20
1.776854962819732
 30
0.0
 10
15.91825683236341
 20
1.77122291614426
 30
0.0
 10
15.93696175421116
 20
1.763939168531627
 30
0.0
  0
SPLINE
  5
372
330
1F
100
AcDbEntity
  8
외형선
  6
Continuous
 62
     1
370
    15
100
AcDbSpline
210
0.0
220
0.0
230
1.0
 70
     8
 71
     3
 72
    10
 73
     6
 74
     0
 42
0.000000001
 43
0.00000001
 40
0.0
 40
0.0
 40
0.0
 40
0.0
 40
0.5
 40
0.5
 40
1.0
 40
1.0
 40
1.0
 40
1.0
 10
15.31223024973905
 20
1.954801155649284
 30
0.0
 10
15.38872822639187
 20
1.888335561373288
 30
0.0
 10
15.4789561962673
 20
1.843437399102902
 30
0.0
 10
15.65443559608201
 20
1.788017464718876
 30
0.0
 10
15.7395137837222
 20
1.777060975079705
 30
0.0
 10
15.81149927822075
 20
1.785051392158755
 30
0.0
  0
SPLINE
  5
373
330
1F
100
AcDbEntity
  8
외형선
  6
Continuous
 62
     1
370
    15
100
AcDbSpline
210
0.0
220
0.0
230
1.0
 70
     8
 71
     3
 72
     8
 73
     4
 74
     0
 42
0.000000001
 43
0.00000001
 40
0.0
 40
0.0
 40
0.0
 40
0.0
 40
1.0
 40
1.0
 40
1.0
 40
1.0
 10
15.18808914192939
 20
2.023758756276783
 30
0.0
 10
15.23104350584955
 20
2.010718064177076
 30
0.0
 10
15.27475108100301
 20
1.987365091742588
 30
0.0
 10
15.312230249738
 20
1.954801155650179
 30
0.0
  0
SPLINE
  5
374
330
1F
100
AcDbEntity
  8
외형선
  6
Continuous
 62
     1
370
    15
100
AcDbSpline
210
0.0
220
0.0
230
1.0
 70
     8
 71
     3
 72
    10
 73
     6
 74
     0
 42
0.000000001
 43
0.00000001
 40
0.0
 40
0.0
 40
0.0
 40
0.0
 40
0.5
 40
0.5
 40
1.0
 40
1.0
 40
1.0
 40
1.0
 10
15.1880891422703
 20
2.023758756173143
 30
0.0
 10
14.97517061660745
 20
2.088399567546452
 30
0.0
 10
14.76524069681532
 20
2.144712255633563
 30
0.0
 10
14.34057060913511
 20
2.240340120593052
 30
0.0
 10
14.1264910737873
 20
2.279521232293823
 30
0.0
 10
13.91447517258112
 20
2.309385917166941
 30
0.0
  0
SPLINE
  5
375
330
1F
100
AcDbEntity
  8
외형선
  6
Continuous
 62
     1
370
    15
100
AcDbSpline
210
0.0
220
0.0
230
1.0
 70
     8
 71
     3
 72
    14
 73
    10
 74
     0
 42
0.000000001
 43
0.00000001
 40
0.0
 40
0.0
 40
0.0
 40
0.0
 40
0.0000596960215432
 40
0.0000596960215432
 40
0.0000596960215432
 40
0.0001193569614997
 40
0.0001193569614997
 40
0.0001193569614997
 40
0.0002060843719489
 40
0.0002060843719489
 40
0.0002060843719489
 40
0.0002060843719489
 10
13.78935419642336
 20
2.288042288144907
 30
0.0
 10
13.79998312567669
 20
2.293989218031036
 30
0.0
 10
13.81128948914678
 20
2.29882315803504
 30
0.0
 10
13.82299732992295
 20
2.302509183541764
 30
0.0
 10
13.83470087036032
 20
2.306193855155924
 30
0.0
 10
13.84688488087435
 20
2.30875791903066
 30
0.0
 10
13.85930696926612
 20
2.310191428696831
 30
0.0
 10
13.87730380354976
 20
2.312268264337709
 30
0.0
 10
13.89600504351139
 20
2.311988236026514
 30
0.0
 10
13.91471994999878
 20
2.309351433689151
 30
0.0
  0
SPLINE
  5
376
330
1F
100
AcDbEntity
  8
외형선
  6
Continuous
 62
     1
370
    15
100
AcDbSpline
210
0.0
220
0.0
230
1.0
 70
     8
 71
     3
 72
    10
 73
     6
 74
     0
 42
0.000000001
 43
0.00000001
 40
0.0
 40
0.0
 40
0.0
 40
0.0
 40
0.5
 40
0.5
 40
1.0
 40
1.0
 40
1.0
 40
1.0
 10
13.29106164053044
 20
2.331211629373412
 30
0.0
 10
13.36742533238259
 20
2.271749576977618
 30
0.0
 10
13.4575050080933
 20
2.242270754912218
 30
0.0
 10
13.63265163559633
 20
2.230626800739919
 30
0.0
 10
13.71749471816616
 20
2.247836612793256
 30
0.0
 10
13.78935419642478
 20
2.288042288140594
 30
0.0
  0
SPLINE
  5
377
330
1F
100
AcDbEntity
  8
외형선
  6
Continuous
 62
     1
370
    15
100
AcDbSpline
210
0.0
220
0.0
230
1.0
 70
     8
 71
     3
 72
     8
 73
     4
 74
     0
 42
0.000000001
 43
0.00000001
 40
0.0
 40
0.0
 40
0.0
 40
0.0
 40
1.0
 40
1.0
 40
1.0
 40
1.0
 10
13.16710826143653
 20
2.376226795602433
 30
0.0
 10
13.21000907371758
 20
2.374623402466247
 30
0.0
 10
13.25365238206154
 20
2.360341065538391
 30
0.0
 10
13.2910616405294
 20
2.33121162937413
 30
0.0
  0
LINE
  5
378
330
1F
100
AcDbEntity
  8
외형선
  6
Continuous
 62
     1
370
    15
100
AcDbLine
 10
13.16711185543985
 20
2.376226661277704
 30
0.0
 11
12.89949845146996
 21
2.372919830519413
 31
0.0
  0
SPLINE
  5
37C
330
1F
100
AcDbEntity
  8
외형선
  6
Continuous
 62
     1
370
    15
100
AcDbSpline
210
0.0
220
0.0
230
1.0
 70
     8
 71
     3
 72
     9
 73
     5
 74
     0
 42
0.000000001
 43
0.00000001
 40
0.0
 40
0.0
 40
0.0
 40
0.0
 40
0.3498903351245823
 40
1.0
 40
1.0
 40
1.0
 40
1.0
 10
15.88230481216957
 20
1.780417484784485
 30
0.0
 10
15.9827944382005
 20
1.820582967507909
 30
0.0
 10
16.26999764429972
 20
1.935377457927663
 30
0.0
 10
16.55750563137347
 20
2.019603302334608
 30
0.0
 10
16.74441735249901
 20
2.074359337815862
 30
0.0
  0
SPLINE
  5
37D
330
1F
100
AcDbEntity
  8
외형선
  6
Continuous
 62
     1
370
    15
100
AcDbSpline
210
0.0
220
0.0
230
1.0
 70
     8
 71
     3
 72
    14
 73
    10
 74
     0
 42
0.000000001
 43
0.00000001
 40
0.0
 40
0.0
 40
0.0
 40
0.0
 40
0.0000596527631402
 40
0.0000596527631402
 40
0.0000596527631402
 40
0.000119270517081
 40
0.000119270517081
 40
0.000119270517081
 40
0.0002060035460457
 40
0.0002060035460457
 40
0.0002060035460457
 40
0.0002060035460457
 10
16.86971376147246
 20
2.076042329931503
 30
0.0
 10
16.85909248830252
 20
2.079504567390649
 30
0.0
 10
16.84779405125954
 20
2.081889567644999
 30
0.0
 10
16.83609419954838
 20
2.083208457029704
 30
0.0
 10
16.82439863911359
 20
2.084526862671644
 30
0.0
 10
16.81222272382167
 20
2.08479023288968
 30
0.0
 10
16.79980874812949
 20
2.084030839804135
 30
0.0
 10
16.78180966022273
 20
2.082929791820681
 30
0.0
 10
16.76310513647412
 20
2.079658926871196
 30
0.0
 10
16.74438725293674
 20
2.074350802062105
 30
0.0
  0
SPLINE
  5
37E
330
1F
100
AcDbEntity
  8
외형선
  6
Continuous
 62
     1
370
    15
100
AcDbSpline
210
0.0
220
0.0
230
1.0
 70
     8
 71
     3
 72
    10
 73
     6
 74
     0
 42
0.000000001
 43
0.00000001
 40
0.0
 40
0.0
 40
0.0
 40
0.0
 40
0.5
 40
0.5
 40
1.0
 40
1.0
 40
1.0
 40
1.0
 10
17.36807142663599
 20
2.191518830806564
 30
0.0
 10
17.29169190292049
 20
2.126336521048606
 30
0.0
 10
17.20160105642408
 20
2.087313541629199
 30
0.0
 10
17.02644063637346
 20
2.050736149199557
 30
0.0
 10
16.94158765753788
 20
2.052613453625375
 30
0.0
 10
16.86971376147367
 20
2.076042329930657
 30
0.0
  0
LINE
  5
37F
102
{ACAD_REACTORS
330
437
102
}
330
1F
100
AcDbEntity
  8
외형선
  6
Continuous
 62
     1
370
    15
100
AcDbLine
 10
19.11941296299633
 20
0.371316044775468
 30
0.0
 11
19.11941296299633
 21
-1.066685934937732
 31
0.0
  0
SPLINE
  5
380
330
1F
100
AcDbEntity
  8
외형선
  6
Continuous
 62
     1
370
    15
100
AcDbSpline
210
0.0
220
0.0
230
1.0
 70
     8
 71
     3
 72
     8
 73
     4
 74
     0
 42
0.000000001
 43
0.00000001
 40
0.000000298923855
 40
0.000000298923855
 40
0.000000298923855
 40
0.000000298923855
 40
0.0000177306358404
 40
0.0000177306358404
 40
0.0000177306358404
 40
0.0000177306358404
 10
19.11941296299633
 20
-1.066685934937732
 30
0.0
 10
19.11649720614104
 20
-1.069711185197954
 30
0.0
 10
19.11358068905624
 20
-1.072736239774714
 30
0.0
 10
19.11066342298568
 20
-1.075761100050103
 30
0.0
  0
SPLINE
  5
381
330
1F
100
AcDbEntity
  8
외형선
  6
Continuous
 62
     1
370
    15
100
AcDbSpline
210
0.0
220
0.0
230
1.0
 70
     8
 71
     3
 72
    12
 73
     8
 74
     0
 42
0.000000001
 43
0.00000001
 40
0.0
 40
0.0
 40
0.0
 40
0.0
 40
0.4999999999999997
 40
0.4999999999999997
 40
0.7499999999999997
 40
0.7499999999999997
 40
1.0
 40
1.0
 40
1.0
 40
1.0
 10
16.02140526919404
 20
0.3786530757502282
 30
0.0
 10
15.98769109425521
 20
0.6467029954316734
 30
0.0
 10
15.95128504926344
 20
0.9138330161156523
 30
0.0
 10
15.89750806739272
 20
1.27552534307081
 30
0.0
 10
15.8797348579081
 20
1.389617473497003
 30
0.0
 10
15.84529496857391
 20
1.600138992133472
 30
0.0
 10
15.82886048684349
 20
1.696313939788729
 30
0.0
 10
15.81149926483557
 20
1.785051460569597
 30
0.0
  0
SPLINE
  5
382
330
1F
100
AcDbEntity
  8
외형선
  6
Continuous
 62
     1
370
    15
100
AcDbSpline
210
0.0
220
0.0
230
1.0
 70
     8
 71
     3
 72
    12
 73
     8
 74
     0
 42
0.000000001
 43
0.00000001
 40
0.0
 40
0.0
 40
0.0
 40
0.0
 40
0.2500000000000001
 40
0.2500000000000001
 40
0.5000000000000001
 40
0.5000000000000001
 40
1.0
 40
1.0
 40
1.0
 40
1.0
 10
14.12333719448528
 20
1.393226489740818
 30
0.0
 10
14.10588965777746
 20
1.505933709435317
 30
0.0
 10
14.08920133414157
 20
1.609935039464068
 30
0.0
 10
14.05563757494253
 20
1.801416110918445
 30
0.0
 10
14.03821978375702
 20
1.88979577917503
 30
0.0
 10
13.98518573425182
 20
2.125463715347186
 30
0.0
 10
13.94882456071543
 20
2.24212083424647
 30
0.0
 10
13.91470015474939
 20
2.309390461063976
 30
0.0
  0
SPLINE
  5
383
330
1F
100
AcDbEntity
  8
외형선
  6
Continuous
 62
     1
370
    15
100
AcDbSpline
210
0.0
220
0.0
230
1.0
 70
     8
 71
     3
 72
    12
 73
     8
 74
     0
 42
0.000000001
 43
0.00000001
 40
0.0
 40
0.0
 40
0.0
 40
0.0
 40
0.5000000000000001
 40
0.5000000000000001
 40
0.75
 40
0.75
 40
1.0
 40
1.0
 40
1.0
 40
1.0
 10
15.39705418259916
 20
0.7406654782770081
 30
0.0
 10
15.36191662092258
 20
1.005278764988396
 30
0.0
 10
15.32550333362169
 20
1.257230403773291
 30
0.0
 10
15.27385582147873
 20
1.582983030070173
 30
0.0
 10
15.25755723127957
 20
1.682329337915873
 30
0.0
 10
15.2234521973813
 20
1.86620048652066
 30
0.0
 10
15.20585051335342
 20
1.950129451590064
 30
0.0
 10
15.18808901408291
 20
2.023759286259341
 30
0.0
  0
SPLINE
  5
384
330
1F
100
AcDbEntity
  8
외형선
  6
Continuous
 62
     1
370
    15
100
AcDbSpline
210
0.0
220
0.0
230
1.0
 70
     8
 71
     3
 72
    12
 73
     8
 74
     0
 42
0.000000001
 43
0.00000001
 40
0.0
 40
0.0
 40
0.0
 40
0.0
 40
0.4999999999999999
 40
0.4999999999999999
 40
0.7499999999999999
 40
0.7499999999999999
 40
1.0
 40
1.0
 40
1.0
 40
1.0
 10
15.52260603771847
 20
0.6551572929825005
 30
0.0
 10
15.48748181804927
 20
0.9192024873048643
 30
0.0
 10
15.45075208483615
 20
1.173087672327006
 30
0.0
 10
15.39825849136136
 20
1.504162573912793
 30
0.0
 10
15.38163348464183
 20
1.605577257336583
 30
0.0
 10
15.34766248322021
 20
1.792714671876587
 30
0.0
 10
15.33006048843675
 20
1.87873799090596
 30
0.0
 10
15.31223024974012
 20
1.954801155644687
 30
0.0
  0
SPLINE
  5
385
330
1F
100
AcDbEntity
  8
외형선
  6
Continuous
 62
     1
370
    15
100
AcDbSpline
210
0.0
220
0.0
230
1.0
 70
     8
 71
     3
 72
    12
 73
     8
 74
     0
 42
0.000000001
 43
0.00000001
 40
0.0
 40
0.0
 40
0.0
 40
0.0
 40
0.4999999999999998
 40
0.4999999999999998
 40
0.7499999999999999
 40
0.7499999999999999
 40
1.0
 40
1.0
 40
1.0
 40
1.0
 10
12.15389293325353
 20
-1.962575671990814
 30
0.0
 10
12.11896584945851
 20
-1.812874690843665
 30
0.0
 10
12.08223570978367
 20
-1.618953064361422
 30
0.0
 10
12.02944518026235
 20
-1.287803546758455
 30
0.0
 10
12.01253627975918
 20
-1.171665651111313
 30
0.0
 10
11.97886214784682
 20
-0.9292461195733006
 30
0.0
 10
11.96136672360127
 20
-0.8011444660116576
 30
0.0
 10
11.94359327266229
 20
-0.6688223789803667
 30
0.0
  0
SPLINE
  5
386
330
1F
100
AcDbEntity
  8
외형선
  6
Continuous
 62
     1
370
    15
100
AcDbSpline
210
0.0
220
0.0
230
1.0
 70
     8
 71
     3
 72
    12
 73
     8
 74
     0
 42
0.000000001
 43
0.00000001
 40
0.0
 40
0.0
 40
0.0
 40
0.0
 40
0.5
 40
0.5
 40
0.75
 40
0.75
 40
0.8091628122383638
 40
0.8091628122383638
 40
0.8091628122383638
 40
0.8091628122383638
 10
6.589181815818244
 20
0.8138123384520162
 30
0.0
 10
6.553553382085334
 20
1.072881823666669
 30
0.0
 10
6.517008950938469
 20
1.316411124221623
 30
0.0
 10
6.465749360984554
 20
1.626813742303503
 30
0.0
 10
6.449265499252882
 20
1.721481121805275
 30
0.0
 10
6.427728633283387
 20
1.829161670838693
 30
0.0
 10
6.42358113735312
 20
1.849285993425204
 30
0.0
 10
6.419412962996326
 20
1.868900402076014
 30
0.0
  0
SPLINE
  5
387
330
1F
100
AcDbEntity
  8
외형선
  6
Continuous
 62
     1
370
    15
100
AcDbSpline
210
0.0
220
0.0
230
1.0
 70
     8
 71
     3
 72
    12
 73
     8
 74
     0
 42
0.000000001
 43
0.00000001
 40
0.0
 40
0.0
 40
0.0
 40
0.0
 40
0.5
 40
0.5
 40
0.75
 40
0.75
 40
1.0
 40
1.0
 40
1.0
 40
1.0
 10
12.65243543983638
 20
-2.102243893443558
 30
0.0
 10
12.61903876832887
 20
-1.983038714967088
 30
0.0
 10
12.58277944415237
 20
-1.816969799523926
 30
0.0
 10
12.52890434715057
 20
-1.515921357619683
 30
0.0
 10
12.51104730184691
 20
-1.407196827177992
 30
0.0
 10
12.4763500866161
 20
-1.178558757643104
 30
0.0
 10
12.45991997257088
 20
-1.059724568467581
 30
0.0
 10
12.4426794816497
 20
-0.9342518612884669
 30
0.0
  0
SPLINE
  5
388
330
1F
100
AcDbEntity
  8
외형선
  6
Continuous
 62
     1
370
    15
100
AcDbSpline
210
0.0
220
0.0
230
1.0
 70
     8
 71
     3
 72
    14
 73
    10
 74
     0
 42
0.000000001
 43
0.00000001
 40
0.0
 40
0.0
 40
0.0
 40
0.0
 40
0.25
 40
0.25
 40
0.5
 40
0.5
 40
0.75
 40
0.75
 40
1.0
 40
1.0
 40
1.0
 40
1.0
 10
12.77625469707092
 20
-2.166500062375129
 30
0.0
 10
12.75948486892113
 20
-2.109521573518429
 30
0.0
 10
12.742703821983
 20
-2.041789062668969
 30
0.0
 10
12.70771799240404
 20
-1.88416753756824
 30
0.0
 10
12.68983704962376
 20
-1.794633731136835
 30
0.0
 10
12.65411889008564
 20
-1.597860993946093
 30
0.0
 10
12.63628594851164
 20
-1.490646095509939
 30
0.0
 10
12.6014848900705
 20
-1.26390105583753
 30
0.0
 10
12.58495891726964
 20
-1.145494188086894
 30
0.0
 10
12.56804807134481
 20
-1.021122040359438
 30
0.0
  0
SPLINE
  5
389
330
1F
100
AcDbEntity
  8
외형선
  6
Continuous
 62
     1
370
    15
100
AcDbSpline
210
0.0
220
0.0
230
1.0
 70
     8
 71
     3
 72
    10
 73
     6
 74
     0
 42
0.000000001
 43
0.00000001
 40
0.0
 40
0.0
 40
0.0
 40
0.0
 40
0.5
 40
0.5
 40
1.0
 40
1.0
 40
1.0
 40
1.0
 10
14.04912509319478
 20
-2.364312974178888
 30
0.0
 10
14.01350544821164
 20
-2.331020000081517
 30
0.0
 10
13.9781954095843
 20
-2.247964813536137
 30
0.0
 10
13.91161417189283
 20
-2.000909224450546
 30
0.0
 10
13.87561698917373
 20
-1.830773333077965
 30
0.0
 10
13.84005531572071
 20
-1.626661300849983
 30
0.0
  0
SPLINE
  5
38C
330
1F
100
AcDbEntity
  8
외형선
  6
Continuous
 62
     1
370
    15
100
AcDbSpline
210
0.0
220
0.0
230
1.0
 70
     8
 71
     3
 72
    12
 73
     8
 74
     0
 42
0.000000001
 43
0.00000001
 40
0.0
 40
0.0
 40
0.0
 40
0.0
 40
0.25
 40
0.25
 40
0.5
 40
0.5
 40
1.0
 40
1.0
 40
1.0
 40
1.0
 10
13.99931276789247
 20
1.421922987392647
 30
0.0
 10
13.98187042184581
 20
1.531010805826724
 30
0.0
 10
13.96536138969267
 20
1.63093990538887
 30
0.0
 10
13.93114376797414
 20
1.815657033462833
 30
0.0
 10
13.91344818240479
 20
1.900216067309606
 30
0.0
 10
13.85978624277258
 20
2.123403962364015
 30
0.0
 10
13.823293648133
 20
2.230351732857193
 30
0.0
 10
13.78935444821927
 20
2.288041860140658
 30
0.0
  0
SPLINE
  5
38D
330
1F
100
AcDbEntity
  8
외형선
  6
Continuous
 62
     1
370
    15
100
AcDbSpline
210
0.0
220
0.0
230
1.0
 70
     8
 71
     3
 72
    12
 73
     8
 74
     0
 42
0.000000001
 43
0.00000001
 40
0.0
 40
0.0
 40
0.0
 40
0.0
 40
0.5
 40
0.5
 40
0.75
 40
0.75
 40
1.0
 40
1.0
 40
1.0
 40
1.0
 10
13.50077134294127
 20
1.636300997054326
 30
0.0
 10
13.46732563539595
 20
1.830035700496672
 30
0.0
 10
13.43105107289743
 20
1.995213103730854
 30
0.0
 10
13.37721085236896
 20
2.173847796735706
 30
0.0
 10
13.35937468440008
 20
2.222059774169373
 30
0.0
 10
13.32473468745365
 20
2.294386802261505
 30
0.0
 10
13.30831781285355
 20
2.318553126946034
 30
0.0
 10
13.29106164053187
 20
2.331211629372268
 30
0.0
  0
SPLINE
  5
391
330
1F
100
AcDbEntity
  8
외형선
  6
Continuous
 62
     1
370
    15
100
AcDbSpline
210
0.0
220
0.0
230
1.0
 70
     8
 71
     3
 72
    10
 73
     6
 74
     0
 42
0.000000001
 43
0.00000001
 40
0.0
 40
0.0
 40
0.0
 40
0.0
 40
0.5
 40
0.5
 40
1.0
 40
1.0
 40
1.0
 40
1.0
 10
14.17479833659504
 20
-2.332468995988635
 30
0.0
 10
14.13898709862597
 20
-2.308522381453764
 30
0.0
 10
14.10271342646777
 20
-2.234162465589528
 30
0.0
 10
14.03566414599639
 20
-2.003870179198821
 30
0.0
 10
14.00006568214757
 20
-1.842905589613218
 30
0.0
 10
13.96419334788896
 20
-1.645981195914886
 30
0.0
  0
SPLINE
  5
392
330
1F
100
AcDbEntity
  8
외형선
  6
Continuous
 62
     1
370
    15
100
AcDbSpline
210
0.0
220
0.0
230
1.0
 70
     8
 71
     3
 72
    12
 73
     8
 74
     0
 42
0.000000001
 43
0.00000001
 40
0.0
 40
0.0
 40
0.0
 40
0.0
 40
0.5000000000000001
 40
0.5000000000000001
 40
0.75
 40
0.75
 40
1.0
 40
1.0
 40
1.0
 40
1.0
 10
13.3754650868164
 20
1.71931682816541
 30
0.0
 10
13.34178998838707
 20
1.90935044857749
 30
0.0
 10
13.30559823052236
 20
2.068618498618654
 30
0.0
 10
13.25232802674433
 20
2.236983961018814
 30
0.0
 10
13.23475286478652
 20
2.281555096935057
 30
0.0
 10
13.20074025497299
 20
2.346556893182899
 30
0.0
 10
13.18438764286156
 20
2.367234174888934
 30
0.0
 10
13.16710886367796
 20
2.376226482185685
 30
0.0
  0
LINE
  5
393
330
1F
100
AcDbEntity
  8
외형선
  6
Continuous
 62
     1
370
    15
100
AcDbLine
 10
14.63228394341294
 20
-2.315955775079112
 30
0.0
 11
14.62534929640735
 21
-2.312004246202158
 31
0.0
  0
LINE
  5
394
330
1F
100
AcDbEntity
  8
외형선
  6
Continuous
 62
     1
370
    15
100
AcDbLine
 10
14.77960711513198
 20
-2.369211391737694
 30
0.0
 11
14.76269443771518
 21
-2.362494897624509
 31
0.0
  0
LINE
  5
395
330
1F
100
AcDbEntity
  8
외형선
  6
Continuous
 62
     1
370
    15
100
AcDbLine
 10
6.731617360143965
 20
-2.316103052771831
 30
0.0
 11
6.720804678699047
 21
-2.321502958099289
 31
0.0
  0
LINE
  5
396
330
1F
100
AcDbEntity
  8
외형선
  6
Continuous
 62
     1
370
    15
100
AcDbLine
 10
11.82415793574053
 20
2.32290849657081
 30
0.0
 11
11.81942279708793
 21
2.316971771844627
 31
0.0
  0
SPLINE
  5
397
102
{ACAD_REACTORS
330
437
102
}
330
1F
100
AcDbEntity
  8
외형선
  6
Continuous
 62
     1
370
    15
100
AcDbSpline
210
0.0
220
0.0
230
1.0
 70
     8
 71
     3
 72
     8
 73
     4
 74
     0
 42
0.000000001
 43
0.00000001
 40
0.000000298923855
 40
0.000000298923855
 40
0.000000298923855
 40
0.000000298923855
 40
0.0000177306358404
 40
0.0000177306358404
 40
0.0000177306358404
 40
0.0000177306358404
 10
19.11941296299633
 20
1.514704972046941
 30
0.0
 10
19.11649720614104
 20
1.517219257138683
 30
0.0
 10
19.11358068905624
 20
1.519732228860966
 30
0.0
 10
19.11066342298568
 20
1.522243903614273
 30
0.0
  0
LINE
  5
398
102
{ACAD_REACTORS
330
437
102
}
330
1F
100
AcDbEntity
  8
외형선
  6
Continuous
 62
     1
370
    15
100
AcDbLine
 10
19.11941296299633
 20
0.4593441065733179
 30
0.0
 11
19.11941296299633
 21
1.514704972046941
 31
0.0
  0
LINE
  5
399
330
1F
100
AcDbEntity
  8
외형선
  6
Continuous
 62
     1
370
    15
100
AcDbLine
 10
16.1055629249093
 20
-2.322334332914687
 30
0.0
 11
16.10287554938373
 21
-2.324376038443988
 31
0.0
  0
LINE
  5
39A
102
{ACAD_REACTORS
330
437
102
}
330
1F
100
AcDbEntity
  8
외형선
  6
Continuous
 62
     1
370
    15
100
AcDbLine
 10
19.11941296299633
 20
1.55624999999999
 30
0.0
 11
19.11941296299633
 21
1.514704972046941
 31
0.0
  0
LINE
  5
39B
330
1F
100
AcDbEntity
  8
외형선
  6
Continuous
 62
     1
370
    15
100
AcDbLine
 10
19.11941296299633
 20
-1.066685934937732
 30
0.0
 11
19.11941296299633
 21
-1.392098215593429
 31
0.0
  0
SPLINE
  5
39C
330
1F
100
AcDbEntity
  8
외형선
  6
Continuous
 62
     1
370
    15
100
AcDbSpline
210
0.0
220
0.0
230
1.0
 70
     8
 71
     3
 72
    10
 73
     6
 74
     0
 42
0.000000001
 43
0.00000001
 40
0.0
 40
0.0
 40
0.0
 40
0.0
 40
0.1092473713906748
 40
0.557910288633931
 40
1.0
 40
1.0
 40
1.0
 40
1.0
 10
6.584896571164031
 20
-2.369435233984526
 30
0.0
 10
6.579280051025074
 20
-2.372946281820967
 30
0.0
 10
6.550597307157127
 20
-2.390876687714504
 30
0.0
 10
6.496920985957893
 20
-2.301905421394204
 30
0.0
 10
6.451896501911002
 20
-2.143570604976483
 30
0.0
 10
6.429550386370757
 20
-2.064987403489235
 30
0.0
  0
SPLINE
  5
39D
330
1F
100
AcDbEntity
  8
외형선
  6
Continuous
 62
     1
370
    15
100
AcDbSpline
210
0.0
220
0.0
230
1.0
 70
     8
 71
     3
 72
     9
 73
     5
 74
     0
 42
0.000000001
 43
0.00000001
 40
0.0
 40
0.0
 40
0.0
 40
0.0
 40
0.6166646501124459
 40
1.0
 40
1.0
 40
1.0
 40
1.0
 10
12.10253475766269
 20
2.138179491720854
 30
0.0
 10
12.07455226336513
 20
2.22357447452682
 30
0.0
 10
12.02917509719796
 20
2.362053277860844
 30
0.0
 10
11.98427232110277
 20
2.370926473263927
 30
0.0
 10
11.96705949971739
 20
2.374327882728386
 30
0.0
  0
SPLINE
  5
39E
330
1F
100
AcDbEntity
  8
외형선
  6
Continuous
 62
     1
370
    15
100
AcDbSpline
210
0.0
220
0.0
230
1.0
 70
     8
 71
     3
 72
    11
 73
     7
 74
     0
 42
0.000000001
 43
0.00000001
 40
0.0
 40
0.0
 40
0.0
 40
0.0
 40
0.0998417275592161
 40
0.49614730626704
 40
0.8885876366942743
 40
0.9999999999999999
 40
0.9999999999999999
 40
0.9999999999999999
 40
0.9999999999999999
 10
14.62534929640735
 20
-2.312004246202158
 30
0.0
 10
14.61989197717322
 20
-2.309703299750489
 30
0.0
 10
14.59277271247667
 20
-2.298269118754584
 30
0.0
 10
14.54431360240694
 20
-2.170546306022808
 30
0.0
 10
14.49738600925556
 20
-1.992774084583411
 30
0.0
 10
14.46992449144112
 20
-1.86336218516889
 30
0.0
 10
14.46385217578671
 20
-1.834746508934566
 30
0.0
  0
SPLINE
  5
39F
330
1F
100
AcDbEntity
  8
외형선
  6
Continuous
 62
     1
370
    15
100
AcDbSpline
210
0.0
220
0.0
230
1.0
 70
     8
 71
     3
 72
    11
 73
     7
 74
     0
 42
0.000000001
 43
0.00000001
 40
0.0
 40
0.0
 40
0.0
 40
0.0
 40
0.1840116269320038
 40
0.5702095041587741
 40
0.9522885795275964
 40
1.0
 40
1.0
 40
1.0
 40
1.0
 10
14.76269443771518
 20
-2.362494897624509
 30
0.0
 10
14.75194428387325
 20
-2.360890502893733
 30
0.0
 10
14.71863204163062
 20
-2.355918854421504
 30
0.0
 10
14.66271525012238
 20
-2.219300867305074
 30
0.0
 10
14.61723325865301
 20
-2.042858729063633
 30
0.0
 10
14.5922309283332
 20
-1.926340500916767
 30
0.0
 10
14.58945539768228
 20
-1.913405710060269
 30
0.0
  0
SPLINE
  5
3A0
330
1F
100
AcDbEntity
  8
외형선
  6
Continuous
 62
     1
370
    15
100
AcDbSpline
210
0.0
220
0.0
230
1.0
 70
     8
 71
     3
 72
     9
 73
     5
 74
     0
 42
0.000000001
 43
0.00000001
 40
0.0
 40
0.0
 40
0.0
 40
0.0
 40
0.2315735742349799
 40
1.0
 40
1.0
 40
1.0
 40
1.0
 10
15.95981523654873
 20
-2.365434466422593
 30
0.0
 10
15.95227868234169
 20
-2.370144857938677
 30
0.0
 10
15.91973371587946
 20
-2.390485656890598
 30
0.0
 10
15.88641603277588
 20
-2.312973259207611
 30
0.0
 10
15.86081384463383
 20
-2.2534106845036
 30
0.0
  0
SPLINE
  5
3A1
330
1F
100
AcDbEntity
  8
외형선
  6
Continuous
 62
     1
370
    15
100
AcDbSpline
210
0.0
220
0.0
230
1.0
 70
     8
 71
     3
 72
    10
 73
     6
 74
     0
 42
0.000000001
 43
0.00000001
 40
0.0
 40
0.0
 40
0.0
 40
0.0
 40
0.2055507328811561
 40
0.6055521925001719
 40
1.0
 40
1.0
 40
1.0
 40
1.0
 10
6.720804678699047
 20
-2.321502958099289
 30
0.0
 10
6.709456920169026
 20
-2.33000295014307
 30
0.0
 10
6.676026438255925
 20
-2.35504391568086
 30
0.0
 10
6.618345210805125
 20
-2.275828216695581
 30
0.0
 10
6.574963959763445
 20
-2.132808726271514
 30
0.0
 10
6.553424964048767
 20
-2.061798874840592
 30
0.0
  0
SPLINE
  5
3A2
330
1F
100
AcDbEntity
  8
외형선
  6
Continuous
 62
     1
370
    15
100
AcDbSpline
210
0.0
220
0.0
230
1.0
 70
     8
 71
     3
 72
     9
 73
     5
 74
     0
 42
0.000000001
 43
0.00000001
 40
0.0
 40
0.0
 40
0.0
 40
0.0
 40
0.3316399614963508
 40
0.9999999999999999
 40
0.9999999999999999
 40
0.9999999999999999
 40
0.9999999999999999
 10
7.133818123326102
 20
-2.319819593314777
 30
0.0
 10
7.124658970633882
 20
-2.314971372806967
 30
0.0
 10
7.097041211148871
 20
-2.300352445443893
 30
0.0
 10
7.069799339068745
 20
-2.228352510587478
 30
0.0
 10
7.051591960396359
 20
-2.180230631354598
 30
0.0
  0
SPLINE
  5
3A3
330
1F
100
AcDbEntity
  8
외형선
  6
Continuous
 62
     1
370
    15
100
AcDbSpline
210
0.0
220
0.0
230
1.0
 70
     8
 71
     3
 72
    11
 73
     7
 74
     0
 42
0.000000001
 43
0.00000001
 40
0.0
 40
0.0
 40
0.0
 40
0.0
 40
0.2461354062714552
 40
0.4892590750564044
 40
0.9215881895527317
 40
1.0
 40
1.0
 40
1.0
 40
1.0
 10
11.97837557219955
 20
2.130018678939563
 30
0.0
 10
11.96550678469547
 20
2.168212631012216
 30
0.0
 10
11.9399266734603
 20
2.244133190134092
 30
0.0
 10
11.89355962004545
 20
2.325489139860685
 30
0.0
 10
11.85503115860164
 20
2.365331614579211
 30
0.0
 10
11.82826693015482
 20
2.328554695405223
 30
0.0
 10
11.82415793574053
 20
2.32290849657081
 30
0.0
  0
SPLINE
  5
3A4
330
1F
100
AcDbEntity
  8
외형선
  6
Continuous
 62
     1
370
    15
100
AcDbSpline
210
0.0
220
0.0
230
1.0
 70
     8
 71
     3
 72
     9
 73
     5
 74
     0
 42
0.000000001
 43
0.00000001
 40
0.0
 40
0.0
 40
0.0
 40
0.0
 40
0.6166423971573592
 40
1.0
 40
1.0
 40
1.0
 40
1.0
 10
11.47883879094095
 20
2.231953120262921
 30
0.0
 10
11.46591142926408
 20
2.26157767829165
 30
0.0
 10
11.44494731499548
 20
2.309619392849874
 30
0.0
 10
11.42377050403919
 20
2.317843494933405
 30
0.0
 10
11.41565221255513
 20
2.320996266993695
 30
0.0
  0
SPLINE
  5
3A5
330
1F
100
AcDbEntity
  8
외형선
  6
Continuous
 62
     1
370
    15
100
AcDbSpline
210
0.0
220
0.0
230
1.0
 70
     8
 71
     3
 72
     9
 73
     5
 74
     0
 42
0.000000001
 43
0.00000001
 40
0.0
 40
0.0
 40
0.0
 40
0.0
 40
0.4944493996724582
 40
1.0
 40
1.0
 40
1.0
 40
1.0
 10
7.279730203832565
 20
-2.380408256008985
 30
0.0
 10
7.26274741393764
 20
-2.375074095314312
 30
0.0
 10
7.228400542637652
 20
-2.364286013261414
 30
0.0
 10
7.194302265373786
 20
-2.284880637673959
 30
0.0
 10
7.177063860832924
 20
-2.244737202376478
 30
0.0
  0
LINE
  5
3A6
330
1F
100
AcDbEntity
  8
외형선
  6
Continuous
 62
     1
370
    15
100
AcDbLine
 10
8.460020587315178
 20
-2.374786011510346
 30
0.0
 11
8.450792474794305
 21
-2.380088906036655
 31
0.0
  0
SPLINE
  5
3A7
330
1F
100
AcDbEntity
  8
외형선
  6
Continuous
 62
     1
370
    15
100
AcDbSpline
210
0.0
220
0.0
230
1.0
 70
     8
 71
     3
 72
    10
 73
     6
 74
     0
 42
0.000000001
 43
0.00000001
 40
0.0
 40
0.0
 40
0.0
 40
0.0
 40
0.1881023818384134
 40
0.5940907457900506
 40
1.0
 40
1.0
 40
1.0
 40
1.0
 10
16.10287554938373
 20
-2.324376038443988
 30
0.0
 10
16.09565607024575
 20
-2.331067194564661
 30
0.0
 10
16.07285452088002
 20
-2.352200121702922
 30
0.0
 10
16.03289289826048
 20
-2.3282133822771
 30
0.0
 10
16.0009046687024
 20
-2.26661698955551
 30
0.0
 10
15.98491211235915
 20
-2.235821794111709
 30
0.0
  0
SPLINE
  5
3A8
330
1F
100
AcDbEntity
  8
외형선
  6
Continuous
 62
     1
370
    15
100
AcDbSpline
210
0.0
220
0.0
230
1.0
 70
     8
 71
     3
 72
     9
 73
     5
 74
     0
 42
0.000000001
 43
0.00000001
 40
0.0
 40
0.0
 40
0.0
 40
0.0
 40
0.3638159428607256
 40
1.0
 40
1.0
 40
1.0
 40
1.0
 10
11.35333003327139
 20
2.29243510990988
 30
0.0
 10
11.34364711216092
 20
2.312099491034792
 30
0.0
 10
11.3170322226805
 20
2.366149846745684
 30
0.0
 10
11.28993524245272
 20
2.372228568258975
 30
0.0
 10
11.2726965756352
 20
2.376095753973515
 30
0.0
  0
LINE
  5
3A9
330
1F
100
AcDbEntity
  8
외형선
  6
Continuous
 62
     1
370
    15
100
AcDbLine
 10
16.50933490597175
 20
-2.320798326350336
 30
0.0
 11
16.48443355729988
 21
-2.303307465179146
 31
0.0
  0
LINE
  5
3AA
330
1F
100
AcDbEntity
  8
외형선
  6
Continuous
 62
     1
370
    15
100
AcDbLine
 10
16.65484212324059
 20
-2.378784157594368
 30
0.0
 11
16.61008741927858
 21
-2.355341054616937
 31
0.0
  0
DIMENSION
  5
3EB
330
1F
100
AcDbEntity
  8
치수문자_일반주서
100
AcDbDimension
  2
*D15
 10
31.65323272680477
 20
2.381250000000001
 30
0.0
 11
31.65323272680477
 21
21.67275
 31
0.0
 70
   160
 71
     5
 42
4.762500000000003
  3
SLDDIMSTYLE0
100
AcDbAlignedDimension
 13
19.11941296299633
 23
-2.381250000000003
 33
0.0
 14
19.11941296299633
 24
2.38125
 34
0.0
 50
90.0
100
AcDbRotatedDimension
1001
ACAD
1000
DSTYLE
1002
{
1070
   171
1070
     6
1070
   273
1070
     7
1002
}
  0
LINE
  5
3FE
330
1F
100
AcDbEntity
  8
외형선
  6
Continuous
370
    15
100
AcDbLine
 10
6.41941296299633
 20
2.38125
 30
0.0
 11
6.41941296299633
 21
-2.381250000000003
 31
0.0
  0
DIMENSION
  5
404
102
{ACAD_XDICTIONARY
360
436
102
}
330
1F
100
AcDbEntity
  8
치수문자_일반주서
100
AcDbDimension
  2
*D16
 10
-38.03058703700366
 20
32.45900038050159
 30
0.0
 11
-9.455587037003664
 21
35.08400038050159
 31
0.0
 70
    32
 71
     5
 42
57.14999999999998
  3
SLDDIMSTYLE0
100
AcDbAlignedDimension
 13
19.11941296299633
 23
0.0000000000000018
 33
0.0
 14
-38.03058703700366
 24
2.364999999999994
 34
0.0
100
AcDbRotatedDimension
1001
ACAD
1000
DSTYLE
1002
{
1070
   171
1070
     6
1070
   273
1070
     7
1002
}
1001
ENABLE_CUSTOM_SPLIT
1070
     1
  0
ARC
  5
439
330
1F
100
AcDbEntity
  8
외형선
  6
Continuous
370
    15
100
AcDbCircle
 10
6.419412962996332
 20
15.08125
 30
0.0
 40
12.7
100
AcDbArc
 50
249.6358651936822
 51
270.0
1001
PE_URL
1000

  0
ARC
  5
43D
330
1F
100
AcDbEntity
  8
외형선
  6
Continuous
370
    15
100
AcDbCircle
 10
6.419412962996328
 20
-15.08125
 30
0.0
 40
12.7
100
AcDbArc
 50
90.0
 51
110.3641348063178
1001
PE_URL
1000

  0
LINE
  5
43E
330
1F
100
AcDbEntity
  8
외형선
  6
Continuous
370
    15
100
AcDbLine
 10
2.000000000000001
 20
3.174999999999999
 30
0.0
 11
2.000000000000001
 21
-3.174999999999999
 31
0.0
1001
PE_URL
1000

  0
ENDSEC
  0
SECTION
  2
OBJECTS
  0
DICTIONARY
  5
C
330
0
100
AcDbDictionary
281
     1
  3
ACAD_GROUP
350
D
  3
ACAD_IMAGE_VARS
350
153
  3
ACAD_LAYOUT
350
1A
  3
ACAD_MLINESTYLE
350
17
  3
ACAD_PLOTSETTINGS
350
19
  3
ACAD_PLOTSTYLENAME
350
E
  3
ACAD_SCALELIST
350
47
  3
APPDATA
350
151
  3
DWGPROPS
350
442
  0
DICTIONARY
  5
43B
330
1F
100
AcDbDictionary
280
     1
281
     1
  3
ACAD_SORTENTS
360
43C
  3
DIM_BOUNDING_BOXES_V1
360
441
  0
DICTIONARY
  5
436
330
404
100
AcDbDictionary
280
     1
281
     1
  3
ACAD_CUSTOM_BREAKDATA
360
437
  0
DICTIONARY
  5
D
102
{ACAD_REACTORS
330
C
102
}
330
C
100
AcDbDictionary
281
     1
  0
RASTERVARIABLES
  5
153
102
{ACAD_REACTORS
330
C
102
}
330
C
100
AcDbRasterVariables
 90
        0
 70
     1
 71
     1
 72
     1
  0
DICTIONARY
  5
1A
102
{ACAD_REACTORS
330
C
102
}
330
C
100
AcDbDictionary
281
     1
  3
Layout1
350
1E
  3
Layout2
350
26
  3
Model
350
22
  0
DICTIONARY
  5
17
102
{ACAD_REACTORS
330
C
102
}
330
C
100
AcDbDictionary
281
     1
  3
Standard
350
18
  0
DICTIONARY
  5
19
102
{ACAD_REACTORS
330
C
102
}
330
C
100
AcDbDictionary
281
     1
  0
ACDBDICTIONARYWDFLT
  5
E
102
{ACAD_REACTORS
330
C
102
}
330
C
100
AcDbDictionary
281
     1
  3
Normal
350
F
100
AcDbDictionaryWithDefault
340
F
  0
DICTIONARY
  5
47
102
{ACAD_REACTORS
330
C
102
}
330
C
100
AcDbDictionary
281
     1
  3
A0
350
48
  3
A1
350
49
  3
A2
350
4A
  3
A3
350
4B
  3
A4
350
4C
  3
A5
350
4D
  3
A6
350
4E
  3
A7
350
4F
  3
A8
350
50
  3
A9
350
51
  3
B0
350
52
  3
B1
350
53
  3
B2
350
54
  3
B3
350
55
  3
B4
350
56
  3
B5
350
57
  3
B6
350
58
  3
B7
350
59
  3
B8
350
5A
  3
B9
350
5B
  3
C0
350
5C
  3
C1
350
5D
  3
C2
350
5E
  3
C3
350
5F
  3
C4
350
60
  3
C5
350
61
  3
C6
350
62
  3
C7
350
63
  3
C8
350
64
  3
C9
350
65
  3
D0
350
66
  3
D1
350
67
  3
D2
350
68
  0
DICTIONARY
  5
151
102
{ACAD_REACTORS
330
C
102
}
330
C
100
AcDbDictionary
281
     1
  0
XRECORD
  5
442
102
{ACAD_REACTORS
330
C
102
}
330
C
100
AcDbXrecord
280
     1
  1
DWGPROPS COOKIE
  2

  3

  4

  6

  7

  8
12014074
  9

300
=
301
=
302
=
303
=
304
=
305
=
306
=
307
=
308
=
309
=
 40
0.0
 41
2458298.970927072
 42
2459710.060299942
  1

 90
        0
  0
SORTENTSTABLE
  5
43C
102
{ACAD_REACTORS
330
43B
102
}
330
43B
100
AcDbSortentsTable
330
1F
  0
DICTIONARY
  5
441
102
{ACAD_REACTORS
330
43B
102
}
330
43B
100
AcDbDictionary
281
     1
  0
BREAKDATA
  5
437
102
{ACAD_REACTORS
330
436
102
}
330
436
100
AcDbBreakData
 70
     0
330
404
 90
        8
100
AcDbBreakPointRef
 71
     0
 72
     0
 91
       -1
 10
0.0
 20
0.0
 30
0.0
 11
0.0
 21
0.0
 31
0.0
331
37F
 73
     2
 92
        0
100
AcDbBreakPointRef
 71
     0
 72
     0
 91
       -1
 10
0.0
 20
0.0
 30
0.0
 11
0.0
 21
0.0
 31
0.0
331
2E9
 73
     2
 92
        0
100
AcDbBreakPointRef
 71
     0
 72
     0
 91
       -1
 10
0.0
 20
0.0
 30
0.0
 11
0.0
 21
0.0
 31
0.0
331
36E
 73
     2
 92
        0
100
AcDbBreakPointRef
 71
     0
 72
     0
 91
       -1
 10
0.0
 20
0.0
 30
0.0
 11
0.0
 21
0.0
 31
0.0
331
370
 73
     2
 92
        0
100
AcDbBreakPointRef
 71
     0
 72
     0
 91
       -1
 10
0.0
 20
0.0
 30
0.0
 11
0.0
 21
0.0
 31
0.0
331
397
 73
     2
 92
        0
100
AcDbBreakPointRef
 71
     0
 72
     0
 91
       -1
 10
0.0
 20
0.0
 30
0.0
 11
0.0
 21
0.0
 31
0.0
331
39A
 73
     2
 92
        0
100
AcDbBreakPointRef
 71
     0
 72
     0
 91
       -1
 10
0.0
 20
0.0
 30
0.0
 11
0.0
 21
0.0
 31
0.0
331
398
 73
     2
 92
        0
100
AcDbBreakPointRef
 71
     0
 72
     0
 91
       -1
 10
0.0
 20
0.0
 30
0.0
 11
0.0
 21
0.0
 31
0.0
331
36F
 73
     2
 92
        0
  0
LAYOUT
  5
1E
102
{ACAD_REACTORS
330
1A
102
}
330
1A
100
AcDbPlotSettings
  1

  2
none_device
  4

  6

 40
0.0
 41
0.0
 42
0.0
 43
0.0
 44
0.0
 45
0.0
 46
0.0
 47
0.0
 48
0.0
 49
0.0
140
0.0
141
0.0
142
1.0
143
1.0
 70
   688
 72
     1
 73
     0
 74
     5
  7

 75
    16
147
1.0
148
0.0
149
0.0
100
AcDbLayout
  1
Layout1
 70
     1
 71
     1
 10
0.0
 20
0.0
 11
420.0
 21
297.0
 12
0.0
 22
0.0
 32
0.0
 14
1.000000000000000E+20
 24
1.000000000000000E+20
 34
1.000000000000000E+20
 15
-1.000000000000000E+20
 25
-1.000000000000000E+20
 35
-1.000000000000000E+20
146
0.0
 13
0.0
 23
0.0
 33
0.0
 16
1.0
 26
0.0
 36
0.0
 17
0.0
 27
1.0
 37
0.0
 76
     0
330
1B
  0
LAYOUT
  5
26
102
{ACAD_REACTORS
330
1A
102
}
330
1A
100
AcDbPlotSettings
  1

  2
none_device
  4

  6

 40
0.0
 41
0.0
 42
0.0
 43
0.0
 44
0.0
 45
0.0
 46
0.0
 47
0.0
 48
0.0
 49
0.0
140
0.0
141
0.0
142
1.0
143
1.0
 70
   688
 72
     1
 73
     0
 74
     5
  7

 75
    16
147
1.0
148
0.0
149
0.0
100
AcDbLayout
  1
Layout2
 70
     1
 71
     2
 10
0.0
 20
0.0
 11
0.0
 21
0.0
 12
0.0
 22
0.0
 32
0.0
 14
0.0
 24
0.0
 34
0.0
 15
0.0
 25
0.0
 35
0.0
146
0.0
 13
0.0
 23
0.0
 33
0.0
 16
1.0
 26
0.0
 36
0.0
 17
0.0
 27
1.0
 37
0.0
 76
     0
330
23
  0
LAYOUT
  5
22
102
{ACAD_REACTORS
330
1A
102
}
330
1A
100
AcDbPlotSettings
  1

  2
none_device
  4
ANSI_A_(11.00_x_8.50_Inches)
  6

 40
6.35
 41
19.05
 42
6.35000508
 43
19.05000254
 44
279.4
 45
215.9
 46
104.7392001083598
 47
82.58703643778266
 48
0.0
 49
0.0
140
0.0
141
0.0
142
0.0759908789109562
143
1.0
 70
  1696
 72
     0
 73
     0
 74
     0
  7

 75
     0
147
0.0235690232323232
148
0.0
149
0.0
100
AcDbLayout
  1
Model
 70
     1
 71
     0
 10
0.0
 20
0.0
 11
420.0
 21
297.0
 12
0.0
 22
0.0
 32
0.0
 14
-53.99308703700378
 24
-50.28867796974446
 34
0.0
 15
81.43860615089636
 25
36.83400038050159
 35
0.0
146
0.0
 13
0.0
 23
0.0
 33
0.0
 16
1.0
 26
0.0
 36
0.0
 17
0.0
 27
1.0
 37
0.0
 76
     0
330
1F
331
29
  0
MLINESTYLE
  5
18
102
{ACAD_REACTORS
330
17
102
}
330
17
100
AcDbMlineStyle
  2
Standard
 70
     0
  3

 62
   256
 51
90.0
 52
90.0
 71
     2
 49
0.5
 62
   256
  6
BYLAYER
 49
-0.5
 62
   256
  6
BYLAYER
  0
ACDBPLACEHOLDER
  5
F
102
{ACAD_REACTORS
330
E
102
}
330
E
  0
SCALE
  5
48
102
{ACAD_REACTORS
330
47
102
}
330
47
100
AcDbScale
 70
     0
300
1:1
140
1.0
141
1.0
290
     1
  0
SCALE
  5
49
102
{ACAD_REACTORS
330
47
102
}
330
47
100
AcDbScale
 70
     0
300
1:2
140
1.0
141
2.0
290
     0
  0
SCALE
  5
4A
102
{ACAD_REACTORS
330
47
102
}
330
47
100
AcDbScale
 70
     0
300
1:4
140
1.0
141
4.0
290
     0
  0
SCALE
  5
4B
102
{ACAD_REACTORS
330
47
102
}
330
47
100
AcDbScale
 70
     0
300
1:5
140
1.0
141
5.0
290
     0
  0
SCALE
  5
4C
102
{ACAD_REACTORS
330
47
102
}
330
47
100
AcDbScale
 70
     0
300
1:8
140
1.0
141
8.0
290
     0
  0
SCALE
  5
4D
102
{ACAD_REACTORS
330
47
102
}
330
47
100
AcDbScale
 70
     0
300
1:10
140
1.0
141
10.0
290
     0
  0
SCALE
  5
4E
102
{ACAD_REACTORS
330
47
102
}
330
47
100
AcDbScale
 70
     0
300
1:16
140
1.0
141
16.0
290
     0
  0
SCALE
  5
4F
102
{ACAD_REACTORS
330
47
102
}
330
47
100
AcDbScale
 70
     0
300
1:20
140
1.0
141
20.0
290
     0
  0
SCALE
  5
50
102
{ACAD_REACTORS
330
47
102
}
330
47
100
AcDbScale
 70
     0
300
1:30
140
1.0
141
30.0
290
     0
  0
SCALE
  5
51
102
{ACAD_REACTORS
330
47
102
}
330
47
100
AcDbScale
 70
     0
300
1:40
140
1.0
141
40.0
290
     0
  0
SCALE
  5
52
102
{ACAD_REACTORS
330
47
102
}
330
47
100
AcDbScale
 70
     0
300
1:50
140
1.0
141
50.0
290
     0
  0
SCALE
  5
53
102
{ACAD_REACTORS
330
47
102
}
330
47
100
AcDbScale
 70
     0
300
1:100
140
1.0
141
100.0
290
     0
  0
SCALE
  5
54
102
{ACAD_REACTORS
330
47
102
}
330
47
100
AcDbScale
 70
     0
300
2:1
140
2.0
141
1.0
290
     0
  0
SCALE
  5
55
102
{ACAD_REACTORS
330
47
102
}
330
47
100
AcDbScale
 70
     0
300
4:1
140
4.0
141
1.0
290
     0
  0
SCALE
  5
56
102
{ACAD_REACTORS
330
47
102
}
330
47
100
AcDbScale
 70
     0
300
8:1
140
8.0
141
1.0
290
     0
  0
SCALE
  5
57
102
{ACAD_REACTORS
330
47
102
}
330
47
100
AcDbScale
 70
     0
300
10:1
140
10.0
141
1.0
290
     0
  0
SCALE
  5
58
102
{ACAD_REACTORS
330
47
102
}
330
47
100
AcDbScale
 70
     0
300
100:1
140
100.0
141
1.0
290
     0
  0
SCALE
  5
59
102
{ACAD_REACTORS
330
47
102
}
330
47
100
AcDbScale
 70
     0
300
1/128" = 1'-0"
140
0.0078125
141
12.0
290
     0
  0
SCALE
  5
5A
102
{ACAD_REACTORS
330
47
102
}
330
47
100
AcDbScale
 70
     0
300
1/64" = 1'-0"
140
0.015625
141
12.0
290
     0
  0
SCALE
  5
5B
102
{ACAD_REACTORS
330
47
102
}
330
47
100
AcDbScale
 70
     0
300
1/32" = 1'-0"
140
0.03125
141
12.0
290
     0
  0
SCALE
  5
5C
102
{ACAD_REACTORS
330
47
102
}
330
47
100
AcDbScale
 70
     0
300
1/16" = 1'-0"
140
0.0625
141
12.0
290
     0
  0
SCALE
  5
5D
102
{ACAD_REACTORS
330
47
102
}
330
47
100
AcDbScale
 70
     0
300
3/32" = 1'-0"
140
0.09375
141
12.0
290
     0
  0
SCALE
  5
5E
102
{ACAD_REACTORS
330
47
102
}
330
47
100
AcDbScale
 70
     0
300
1/8" = 1'-0"
140
0.125
141
12.0
290
     0
  0
SCALE
  5
5F
102
{ACAD_REACTORS
330
47
102
}
330
47
100
AcDbScale
 70
     0
300
3/16" = 1'-0"
140
0.1875
141
12.0
290
     0
  0
SCALE
  5
60
102
{ACAD_REACTORS
330
47
102
}
330
47
100
AcDbScale
 70
     0
300
1/4" = 1'-0"
140
0.25
141
12.0
290
     0
  0
SCALE
  5
61
102
{ACAD_REACTORS
330
47
102
}
330
47
100
AcDbScale
 70
     0
300
3/8" = 1'-0"
140
0.375
141
12.0
290
     0
  0
SCALE
  5
62
102
{ACAD_REACTORS
330
47
102
}
330
47
100
AcDbScale
 70
     0
300
1/2" = 1'-0"
140
0.5
141
12.0
290
     0
  0
SCALE
  5
63
102
{ACAD_REACTORS
330
47
102
}
330
47
100
AcDbScale
 70
     0
300
3/4" = 1'-0"
140
0.75
141
12.0
290
     0
  0
SCALE
  5
64
102
{ACAD_REACTORS
330
47
102
}
330
47
100
AcDbScale
 70
     0
300
1" = 1'-0"
140
1.0
141
12.0
290
     0
  0
SCALE
  5
65
102
{ACAD_REACTORS
330
47
102
}
330
47
100
AcDbScale
 70
     0
300
1-1/2" = 1'-0"
140
1.5
141
12.0
290
     0
  0
SCALE
  5
66
102
{ACAD_REACTORS
330
47
102
}
330
47
100
AcDbScale
 70
     0
300
3" = 1'-0"
140
3.0
141
12.0
290
     0
  0
SCALE
  5
67
102
{ACAD_REACTORS
330
47
102
}
330
47
100
AcDbScale
 70
     0
300
6" = 1'-0"
140
6.0
141
12.0
290
     0
  0
SCALE
  5
68
102
{ACAD_REACTORS
330
47
102
}
330
47
100
AcDbScale
 70
     0
300
1'-0" = 1'-0"
140
12.0
141
12.0
290
     0
  0
ENDSEC
  0
EOF
