  0
SECTION
  2
HEADER
  9
$ACADVER
  1
AC1015
  9
$ACADMAINTVER
 70
     6
  9
$DWGCODEPAGE
  3
ANSI_949
  9
$INSBASE
 10
0.0
 20
0.0
 30
0.0
  9
$EXTMIN
 10
-54.98500000000006
 20
-49.97180738881173
 30
0.0
  9
$EXTMAX
 10
86.47629082238858
 20
44.09363385053561
 30
0.0
  9
$LIMMIN
 10
0.0
 20
0.0
  9
$LIMMAX
 10
420.0
 20
297.0
  9
$ORTHOMODE
 70
     1
  9
$REGENMODE
 70
     1
  9
$FILLMODE
 70
     1
  9
$QTEXTMODE
 70
     0
  9
$MIRRTEXT
 70
     1
  9
$LTSCALE
 40
1.0
  9
$ATTMODE
 70
     1
  9
$TEXTSIZE
 40
3.5
  9
$TRACEWID
 40
1.0
  9
$TEXTSTYLE
  7
Standard
  9
$CLAYER
  8
0
  9
$CELTYPE
  6
ByLayer
  9
$CECOLOR
 62
   256
  9
$CELTSCALE
 40
1.0
  9
$DISPSILH
 70
     0
  9
$DIMSCALE
 40
1.0
  9
$DIMASZ
 40
3.302
  9
$DIMEXO
 40
1.0
  9
$DIMDLI
 40
3.75
  9
$DIMRND
 40
0.0
  9
$DIMDLE
 40
0.0
  9
$DIMEXE
 40
1.0
  9
$DIMTP
 40
0.0
  9
$DIMTM
 40
0.0
  9
$DIMTXT
 40
3.5
  9
$DIMCEN
 40
2.5
  9
$DIMTSZ
 40
0.0
  9
$DIMTOL
 70
     0
  9
$DIMLIM
 70
     0
  9
$DIMTIH
 70
     1
  9
$DIMTOH
 70
     1
  9
$DIMSE1
 70
     0
  9
$DIMSE2
 70
     0
  9
$DIMTAD
 70
     1
  9
$DIMZIN
 70
     0
  9
$DIMBLK
  1

  9
$DIMASO
 70
     1
  9
$DIMSHO
 70
     1
  9
$DIMPOST
  1

  9
$DIMAPOST
  1

  9
$DIMALT
 70
     0
  9
$DIMALTD
 70
     3
  9
$DIMALTF
 40
0.0393700787401575
  9
$DIMLFAC
 40
1.0
  9
$DIMTOFL
 70
     1
  9
$DIMTVP
 40
0.0
  9
$DIMTIX
 70
     0
  9
$DIMSOXD
 70
     0
  9
$DIMSAH
 70
     0
  9
$DIMBLK1
  1

  9
$DIMBLK2
  1

  9
$DIMSTYLE
  2
ISO-25
  9
$DIMCLRD
 70
     0
  9
$DIMCLRE
 70
     0
  9
$DIMCLRT
 70
     0
  9
$DIMTFAC
 40
1.0
  9
$DIMGAP
 40
1.524
  9
$DIMJUST
 70
     0
  9
$DIMSD1
 70
     0
  9
$DIMSD2
 70
     0
  9
$DIMTOLJ
 70
     0
  9
$DIMTZIN
 70
     0
  9
$DIMALTZ
 70
     0
  9
$DIMALTTZ
 70
     0
  9
$DIMUPT
 70
     0
  9
$DIMDEC
 70
     2
  9
$DIMTDEC
 70
     2
  9
$DIMALTU
 70
     2
  9
$DIMALTTD
 70
     3
  9
$DIMTXSTY
  7
Standard
  9
$DIMAUNIT
 70
     0
  9
$DIMADEC
 70
     2
  9
$DIMALTRND
 40
0.0
  9
$DIMAZIN
 70
     0
  9
$DIMDSEP
 70
    44
  9
$DIMATFIT
 70
     3
  9
$DIMFRAC
 70
     0
  9
$DIMLDRBLK
  1

  9
$DIMLUNIT
 70
     2
  9
$DIMLWD
 70
    -2
  9
$DIMLWE
 70
    -2
  9
$DIMTMOVE
 70
     0
  9
$LUNITS
 70
     2
  9
$LUPREC
 70
     2
  9
$SKETCHINC
 40
1.0
  9
$FILLETRAD
 40
10.0
  9
$AUNITS
 70
     0
  9
$AUPREC
 70
     2
  9
$MENU
  1
.
  9
$ELEVATION
 40
0.0
  9
$PELEVATION
 40
0.0
  9
$THICKNESS
 40
0.0
  9
$LIMCHECK
 70
     0
  9
$CHAMFERA
 40
0.0
  9
$CHAMFERB
 40
0.0
  9
$CHAMFERC
 40
0.0
  9
$CHAMFERD
 40
0.0
  9
$SKPOLY
 70
     0
  9
$TDCREATE
 40
2458299.347449525
  9
$TDUCREATE
 40
2458298.972449525
  9
$TDUPDATE
 40
2459710.437479768
  9
$TDUUPDATE
 40
2459710.062479768
  9
$TDINDWG
 40
0.0028004282
  9
$TDUSRTIMER
 40
0.0003378241
  9
$USRTIMER
 70
     1
  9
$ANGBASE
 50
0.0
  9
$ANGDIR
 70
     0
  9
$PDMODE
 70
     0
  9
$PDSIZE
 40
-1.0
  9
$PLINEWID
 40
0.0
  9
$SPLFRAME
 70
     0
  9
$SPLINETYPE
 70
     6
  9
$SPLINESEGS
 70
     8
  9
$HANDSEED
  5
63F
  9
$SURFTAB1
 70
     6
  9
$SURFTAB2
 70
     6
  9
$SURFTYPE
 70
     6
  9
$SURFU
 70
     6
  9
$SURFV
 70
     6
  9
$UCSBASE
  2

  9
$UCSNAME
  2

  9
$UCSORG
 10
0.0
 20
0.0
 30
0.0
  9
$UCSXDIR
 10
1.0
 20
0.0
 30
0.0
  9
$UCSYDIR
 10
0.0
 20
1.0
 30
0.0
  9
$UCSORTHOREF
  2

  9
$UCSORTHOVIEW
 70
     0
  9
$UCSORGTOP
 10
0.0
 20
0.0
 30
0.0
  9
$UCSORGBOTTOM
 10
0.0
 20
0.0
 30
0.0
  9
$UCSORGLEFT
 10
0.0
 20
0.0
 30
0.0
  9
$UCSORGRIGHT
 10
0.0
 20
0.0
 30
0.0
  9
$UCSORGFRONT
 10
0.0
 20
0.0
 30
0.0
  9
$UCSORGBACK
 10
0.0
 20
0.0
 30
0.0
  9
$PUCSBASE
  2

  9
$PUCSNAME
  2

  9
$PUCSORG
 10
0.0
 20
0.0
 30
0.0
  9
$PUCSXDIR
 10
1.0
 20
0.0
 30
0.0
  9
$PUCSYDIR
 10
0.0
 20
1.0
 30
0.0
  9
$PUCSORTHOREF
  2

  9
$PUCSORTHOVIEW
 70
     0
  9
$PUCSORGTOP
 10
0.0
 20
0.0
 30
0.0
  9
$PUCSORGBOTTOM
 10
0.0
 20
0.0
 30
0.0
  9
$PUCSORGLEFT
 10
0.0
 20
0.0
 30
0.0
  9
$PUCSORGRIGHT
 10
0.0
 20
0.0
 30
0.0
  9
$PUCSORGFRONT
 10
0.0
 20
0.0
 30
0.0
  9
$PUCSORGBACK
 10
0.0
 20
0.0
 30
0.0
  9
$USERI1
 70
     0
  9
$USERI2
 70
     0
  9
$USERI3
 70
     0
  9
$USERI4
 70
     0
  9
$USERI5
 70
     0
  9
$USERR1
 40
0.0
  9
$USERR2
 40
0.0
  9
$USERR3
 40
0.0
  9
$USERR4
 40
0.0
  9
$USERR5
 40
0.0
  9
$WORLDVIEW
 70
     1
  9
$SHADEDGE
 70
     3
  9
$SHADEDIF
 70
    70
  9
$TILEMODE
 70
     1
  9
$MAXACTVP
 70
    64
  9
$PINSBASE
 10
0.0
 20
0.0
 30
0.0
  9
$PLIMCHECK
 70
     0
  9
$PEXTMIN
 10
1.000000000000000E+20
 20
1.000000000000000E+20
 30
1.000000000000000E+20
  9
$PEXTMAX
 10
-1.000000000000000E+20
 20
-1.000000000000000E+20
 30
-1.000000000000000E+20
  9
$PLIMMIN
 10
0.0
 20
0.0
  9
$PLIMMAX
 10
0.0
 20
0.0
  9
$UNITMODE
 70
     0
  9
$VISRETAIN
 70
     1
  9
$PLINEGEN
 70
     0
  9
$PSLTSCALE
 70
     1
  9
$TREEDEPTH
 70
  3020
  9
$CMLSTYLE
  2
Standard
  9
$CMLJUST
 70
     0
  9
$CMLSCALE
 40
20.0
  9
$PROXYGRAPHICS
 70
     1
  9
$MEASUREMENT
 70
     1
  9
$CELWEIGHT
370
    -1
  9
$ENDCAPS
280
     0
  9
$JOINSTYLE
280
     0
  9
$LWDISPLAY
290
     1
  9
$INSUNITS
 70
     4
  9
$HYPERLINKBASE
  1

  9
$STYLESHEET
  1

  9
$XEDIT
290
     1
  9
$CEPSNTYPE
380
     0
  9
$PSTYLEMODE
290
     1
  9
$FINGERPRINTGUID
  2
{4A35A3B2-BF50-43FD-B132-081F0159FDD6}
  9
$VERSIONGUID
  2
{FAEB1C32-E019-11D5-929B-00C0DF256EC4}
  9
$EXTNAMES
290
     1
  9
$PSVPSCALE
 40
0.0
  9
$OLESTARTUP
290
     0
  0
ENDSEC
  0
SECTION
  2
CLASSES
  0
CLASS
  1
ACDBDICTIONARYWDFLT
  2
AcDbDictionaryWithDefault
  3
ObjectDBX Classes
 90
        0
280
     0
281
     0
  0
CLASS
  1
VISUALSTYLE
  2
AcDbVisualStyle
  3
ObjectDBX Classes
 90
     4095
280
     0
281
     0
  0
CLASS
  1
MATERIAL
  2
AcDbMaterial
  3
ObjectDBX Classes
 90
     1153
280
     0
281
     0
  0
CLASS
  1
SCALE
  2
AcDbScale
  3
ObjectDBX Classes
 90
     1153
280
     0
281
     0
  0
CLASS
  1
SUN
  2
AcDbSun
  3
SCENEOE
 90
     1153
280
     0
281
     0
  0
CLASS
  1
ACDBPLACEHOLDER
  2
AcDbPlaceHolder
  3
ObjectDBX Classes
 90
        0
280
     0
281
     0
  0
CLASS
  1
LAYOUT
  2
AcDbLayout
  3
ObjectDBX Classes
 90
        0
280
     0
281
     0
  0
CLASS
  1
TABLESTYLE
  2
AcDbTableStyle
  3
ObjectDBX Classes
 90
     4095
280
     0
281
     0
  0
CLASS
  1
MLEADERSTYLE
  2
AcDbMLeaderStyle
  3
ACDB_MLEADERSTYLE_CLASS
 90
     4095
280
     0
281
     0
  0
CLASS
  1
RASTERVARIABLES
  2
AcDbRasterVariables
  3
ISM
 90
        0
280
     0
281
     0
  0
ENDSEC
  0
SECTION
  2
TABLES
  0
TABLE
  2
VPORT
  5
8
330
0
100
AcDbSymbolTable
 70
     1
  0
VPORT
  5
29
330
8
100
AcDbSymbolTableRecord
100
AcDbViewportTableRecord
  2
*Active
 70
     0
 10
0.0
 20
0.0
 11
1.0
 21
1.0
 12
7.880663527583422
 22
-12.10057670284989
 13
0.0
 23
0.0
 14
10.0
 24
10.0
 15
10.0
 25
10.0
 16
0.0
 26
0.0
 36
1.0
 17
0.0
 27
0.0
 37
0.0
 40
162.1164758519714
 41
1.163027656477438
 42
50.0
 43
0.0
 44
0.0
 50
0.0
 51
0.0
 71
    16
 72
  2000
 73
     1
 74
     3
 75
     0
 76
     0
 77
     0
 78
     0
281
     0
 65
     1
110
0.0
120
0.0
130
0.0
111
1.0
121
0.0
131
0.0
112
0.0
122
1.0
132
0.0
 79
     0
146
0.0
  0
ENDTAB
  0
TABLE
  2
LTYPE
  5
5
330
0
100
AcDbSymbolTable
 70
     6
  0
LTYPE
  5
14
330
5
100
AcDbSymbolTableRecord
100
AcDbLinetypeTableRecord
  2
ByBlock
 70
     0
  3

 72
    65
 73
     0
 40
0.0
  0
LTYPE
  5
15
330
5
100
AcDbSymbolTableRecord
100
AcDbLinetypeTableRecord
  2
ByLayer
 70
     0
  3

 72
    65
 73
     0
 40
0.0
  0
LTYPE
  5
16
330
5
100
AcDbSymbolTableRecord
100
AcDbLinetypeTableRecord
  2
Continuous
 70
     0
  3
Solid line
 72
    65
 73
     0
 40
0.0
  0
LTYPE
  5
6A
330
5
100
AcDbSymbolTableRecord
100
AcDbLinetypeTableRecord
  2
HIDDEN
 70
     0
  3
Hidden __ __ __ __ __ __ __ __ __ __ __ __ __ __
 72
    65
 73
     2
 40
1.905
 49
1.27
 74
     0
 49
-0.635
 74
     0
  0
LTYPE
  5
6B
330
5
100
AcDbSymbolTableRecord
100
AcDbLinetypeTableRecord
  2
PHANTOM
 70
     0
  3
Phantom ______  __  __  ______  __  __  ______
 72
    65
 73
     6
 40
12.7
 49
6.35
 74
     0
 49
-1.27
 74
     0
 49
1.27
 74
     0
 49
-1.27
 74
     0
 49
1.27
 74
     0
 49
-1.27
 74
     0
  0
LTYPE
  5
6C
330
5
100
AcDbSymbolTableRecord
100
AcDbLinetypeTableRecord
  2
CENTER
 70
     0
  3
Center ____ _ ____ _ ____ _ ____ _ ____ _ ____
 72
    65
 73
     4
 40
10.16
 49
6.35
 74
     0
 49
-1.27
 74
     0
 49
1.27
 74
     0
 49
-1.27
 74
     0
  0
LTYPE
  5
6D
330
5
100
AcDbSymbolTableRecord
100
AcDbLinetypeTableRecord
  2
CENTERX2
 70
     0
  3
Center (2x) ________  __  ________  __  _____
 72
    65
 73
     4
 40
20.32
 49
12.7
 74
     0
 49
-2.54
 74
     0
 49
2.54
 74
     0
 49
-2.54
 74
     0
  0
LTYPE
  5
6E
330
5
100
AcDbSymbolTableRecord
100
AcDbLinetypeTableRecord
  2
DOT2
 70
     0
  3
Dot (.5x) ........................................
 72
    65
 73
     2
 40
0.635
 49
0.0
 74
     0
 49
-0.635
 74
     0
  0
ENDTAB
  0
TABLE
  2
LAYER
  5
2
330
0
100
AcDbSymbolTable
 70
    18
  0
LAYER
  5
10
330
2
100
AcDbSymbolTableRecord
100
AcDbLayerTableRecord
  2
0
 70
     0
 62
     7
  6
Continuous
370
    -3
390
F
  0
LAYER
  5
6F
330
2
100
AcDbSymbolTableRecord
100
AcDbLayerTableRecord
  2
FORMAT
 70
     0
 62
     2
  6
Continuous
370
    -3
390
F
  0
LAYER
  5
70
330
2
100
AcDbSymbolTableRecord
100
AcDbLayerTableRecord
  2
외형선
 70
     0
 62
     4
  6
Continuous
370
    30
390
F
  0
LAYER
  5
71
330
2
100
AcDbSymbolTableRecord
100
AcDbLayerTableRecord
  2
숨은선
 70
     0
 62
     2
  6
HIDDEN
370
    15
390
F
  0
LAYER
  5
72
330
2
100
AcDbSymbolTableRecord
100
AcDbLayerTableRecord
  2
중심선
 70
     0
 62
     1
  6
CENTERX2
370
    -3
390
F
  0
LAYER
  5
73
330
2
100
AcDbSymbolTableRecord
100
AcDbLayerTableRecord
  2
파단선
 70
     0
 62
     4
  6
Continuous
370
    -3
390
F
  0
LAYER
  5
74
330
2
100
AcDbSymbolTableRecord
100
AcDbLayerTableRecord
  2
해칭선
 70
     0
 62
   100
  6
Continuous
370
    -3
390
F
  0
LAYER
  5
75
330
2
100
AcDbSymbolTableRecord
100
AcDbLayerTableRecord
  2
가는실선
 70
     0
 62
     4
  6
Continuous
370
    -3
390
F
  0
LAYER
  5
76
330
2
100
AcDbSymbolTableRecord
100
AcDbLayerTableRecord
  2
치수_보조선
 70
     0
 62
     4
  6
Continuous
370
    -3
390
F
  0
LAYER
  5
77
330
2
100
AcDbSymbolTableRecord
100
AcDbLayerTableRecord
  2
치수문자_일반주서
 70
     0
 62
     7
  6
Continuous
370
    15
390
F
  0
LAYER
  5
78
330
2
100
AcDbSymbolTableRecord
100
AcDbLayerTableRecord
  2
개별주서
 70
     0
 62
   100
  6
Continuous
370
    30
390
F
  0
LAYER
  5
79
330
2
100
AcDbSymbolTableRecord
100
AcDbLayerTableRecord
  2
중간선
 70
     0
 62
     2
  6
Continuous
370
    15
390
F
  0
LAYER
  5
7A
330
2
100
AcDbSymbolTableRecord
100
AcDbLayerTableRecord
  2
윤곽선
 70
     0
 62
     3
  6
Continuous
370
    40
390
F
  0
LAYER
  5
7B
330
2
100
AcDbSymbolTableRecord
100
AcDbLayerTableRecord
  2
중심마크
 70
     0
 62
   100
  6
Continuous
370
    30
390
F
  0
LAYER
  5
7C
330
2
100
AcDbSymbolTableRecord
100
AcDbLayerTableRecord
  2
가상선
 70
     0
 62
     4
  6
PHANTOM
370
    -3
390
F
  0
LAYER
  5
7D
330
2
100
AcDbSymbolTableRecord
100
AcDbLayerTableRecord
  2
특수지정선
 70
     0
 62
     5
  6
CENTERX2
370
    60
390
F
  0
LAYER
  5
7E
330
2
100
AcDbSymbolTableRecord
100
AcDbLayerTableRecord
  2
참조1
 70
     0
 62
    -4
  6
Continuous
370
    -3
390
F
  0
LAYER
  5
15F
330
2
100
AcDbSymbolTableRecord
100
AcDbLayerTableRecord
  2
Defpoints
 70
     0
 62
     7
  6
Continuous
290
     0
370
    -3
390
F
  0
ENDTAB
  0
TABLE
  2
STYLE
  5
3
330
0
100
AcDbSymbolTable
 70
     2
  0
STYLE
  5
11
330
3
100
AcDbSymbolTableRecord
100
AcDbTextStyleTableRecord
  2
Standard
 70
     0
 40
0.0
 41
1.0
 50
0.0
 71
     0
 42
3.5
  3
txt
  4

  0
STYLE
  5
94
330
3
100
AcDbSymbolTableRecord
100
AcDbTextStyleTableRecord
  2
SLDTEXTSTYLE0
 70
     0
 40
0.0
 41
0.75
 50
0.0
 71
     0
 42
3.5
  3
TXT
  4

  0
ENDTAB
  0
TABLE
  2
VIEW
  5
6
330
0
100
AcDbSymbolTable
 70
     0
  0
ENDTAB
  0
TABLE
  2
UCS
  5
7
330
0
100
AcDbSymbolTable
 70
     0
  0
ENDTAB
  0
TABLE
  2
APPID
  5
9
330
0
100
AcDbSymbolTable
 70
     1
  0
APPID
  5
12
330
9
100
AcDbSymbolTableRecord
100
AcDbRegAppTableRecord
  2
ACAD
 70
     0
  0
ENDTAB
  0
TABLE
  2
DIMSTYLE
  5
A
330
0
100
AcDbSymbolTable
 70
     4
100
AcDbDimStyleTable
  0
DIMSTYLE
105
27
330
A
100
AcDbSymbolTableRecord
100
AcDbDimStyleTableRecord
  2
ISO-25
 70
     0
 41
2.5
 42
0.625
 43
3.75
 44
1.25
 73
     0
 74
     0
 77
     1
 78
     8
140
2.5
141
2.5
143
0.03937007874016
147
0.625
171
     3
172
     1
178
     0
271
     2
272
     2
274
     3
278
    44
283
     0
284
     8
340
11
  0
DIMSTYLE
105
DF
102
{ACAD_REACTORS
330
DE
330
106
330
11A
102
}
330
A
100
AcDbSymbolTableRecord
100
AcDbDimStyleTableRecord
  2
SLDDIMSTYLE0
 70
     0
 41
3.302
 44
0.0
 45
0.000000001
 73
     0
 74
     0
 77
     1
 78
     4
 79
     1
140
3.5
143
0.0393700787401575
147
0.875
148
0.000000001
170
     1
173
     1
178
     0
271
     2
272
     2
276
     2
284
    12
340
94
  0
DIMSTYLE
105
F2
102
{ACAD_REACTORS
330
F1
102
}
330
A
100
AcDbSymbolTableRecord
100
AcDbDimStyleTableRecord
  2
SLDDIMSTYLE1
 70
     0
 41
3.302
 44
0.0
 45
0.000000001
 73
     0
 74
     0
 77
     1
 78
     4
 79
     1
140
3.5
143
0.0393700787401575
147
0.875
148
0.000000001
170
     1
172
     1
173
     1
178
     0
271
     2
272
     2
276
     2
284
    12
289
     0
340
94
  0
DIMSTYLE
105
16C
102
{ACAD_REACTORS
102
}
330
A
100
AcDbSymbolTableRecord
100
AcDbDimStyleTableRecord
  2
SLDDIMSTYLE2
 70
     0
 41
3.302
 44
0.0
 45
0.000000001
 73
     0
 74
     0
 77
     1
 78
     4
 79
     1
140
3.5
143
0.0393700787401575
147
0.875
148
0.000000001
170
     1
173
     1
178
     0
271
     2
272
     2
276
     2
284
    12
340
94
  0
ENDTAB
  0
TABLE
  2
BLOCK_RECORD
  5
1
330
0
100
AcDbSymbolTable
 70
    15
  0
BLOCK_RECORD
  5
1F
102
{ACAD_XDICTIONARY
360
63C
102
}
330
1
100
AcDbSymbolTableRecord
100
AcDbBlockTableRecord
  2
*Model_Space
340
22
  0
BLOCK_RECORD
  5
1B
330
1
100
AcDbSymbolTableRecord
100
AcDbBlockTableRecord
  2
*Paper_Space
340
1E
  0
BLOCK_RECORD
  5
23
330
1
100
AcDbSymbolTableRecord
100
AcDbBlockTableRecord
  2
*Paper_Space0
340
26
  0
BLOCK_RECORD
  5
7F
330
1
100
AcDbSymbolTableRecord
100
AcDbBlockTableRecord
  2
블럭10
340
0
102
{BLKREFS
331
D6
102
}
  0
BLOCK_RECORD
  5
E0
330
1
100
AcDbSymbolTableRecord
100
AcDbBlockTableRecord
  2
_D
340
0
  0
BLOCK_RECORD
  5
F3
330
1
100
AcDbSymbolTableRecord
100
AcDbBlockTableRecord
  2
_D_1
340
0
  0
BLOCK_RECORD
  5
107
330
1
100
AcDbSymbolTableRecord
100
AcDbBlockTableRecord
  2
_D_2
340
0
  0
BLOCK_RECORD
  5
11B
330
1
100
AcDbSymbolTableRecord
100
AcDbBlockTableRecord
  2
_D_3
340
0
  0
BLOCK_RECORD
  5
134
330
1
100
AcDbSymbolTableRecord
100
AcDbBlockTableRecord
  2
SW_DOWELSYMBOL_0
340
0
102
{BLKREFS
331
13A
102
}
  0
BLOCK_RECORD
  5
3BA
330
1
100
AcDbSymbolTableRecord
100
AcDbBlockTableRecord
  2
*D7
340
0
  0
BLOCK_RECORD
  5
3C7
330
1
100
AcDbSymbolTableRecord
100
AcDbBlockTableRecord
  2
*D8
340
0
  0
BLOCK_RECORD
  5
3D3
330
1
100
AcDbSymbolTableRecord
100
AcDbBlockTableRecord
  2
*D9
340
0
  0
BLOCK_RECORD
  5
3DF
330
1
100
AcDbSymbolTableRecord
100
AcDbBlockTableRecord
  2
*D10
340
0
  0
BLOCK_RECORD
  5
5E2
330
1
100
AcDbSymbolTableRecord
100
AcDbBlockTableRecord
  2
*D11
340
0
  0
BLOCK_RECORD
  5
5EF
330
1
100
AcDbSymbolTableRecord
100
AcDbBlockTableRecord
  2
*D12
340
0
  0
BLOCK_RECORD
  5
5FB
330
1
100
AcDbSymbolTableRecord
100
AcDbBlockTableRecord
  2
*D13
340
0
  0
BLOCK_RECORD
  5
607
330
1
100
AcDbSymbolTableRecord
100
AcDbBlockTableRecord
  2
*D14
340
0
  0
ENDTAB
  0
ENDSEC
  0
SECTION
  2
BLOCKS
  0
BLOCK
  5
20
330
1F
100
AcDbEntity
  8
0
100
AcDbBlockBegin
  2
*Model_Space
 70
     0
 10
0.0
 20
0.0
 30
0.0
  3
*Model_Space
  1
*Model_Space
  0
ENDBLK
  5
21
330
1F
100
AcDbEntity
  8
0
100
AcDbBlockEnd
  0
BLOCK
  5
1C
330
1B
100
AcDbEntity
 67
     1
  8
0
100
AcDbBlockBegin
  2
*Paper_Space
 70
     0
 10
0.0
 20
0.0
 30
0.0
  3
*Paper_Space
  1
*Paper_Space
  0
ENDBLK
  5
1D
330
1B
100
AcDbEntity
 67
     1
  8
0
100
AcDbBlockEnd
  0
BLOCK
  5
24
330
23
100
AcDbEntity
  8
0
100
AcDbBlockBegin
  2
*Paper_Space0
 70
     0
 10
0.0
 20
0.0
 30
0.0
  3
*Paper_Space0
  1
*Paper_Space0
  0
ENDBLK
  5
25
330
23
100
AcDbEntity
  8
0
100
AcDbBlockEnd
  0
BLOCK
  5
80
330
7F
100
AcDbEntity
  8
0
100
AcDbBlockBegin
  2
블럭10
 70
     2
 10
0.0
 20
0.0
 30
0.0
  3
블럭10
  1
블럭10
  0
ELLIPSE
  5
82
330
7F
100
AcDbEntity
  8
중심선
100
AcDbEllipse
 10
20.54032771741204
 20
12.0471743016438
 30
0.0
 11
6.600054785286829
 21
-1.261213355974178E-13
 31
0.0
210
0.0
220
0.0
230
1.0
 40
0.636358354079598
 41
0.9219305317359503
 42
6.513795318482858
  0
ELLIPSE
  5
83
330
7F
100
AcDbEntity
  8
중심선
100
AcDbEllipse
 10
20.54032771746488
 20
12.04717430159265
 30
0.0
 11
3.960054785062283
 21
1.540847449632565E-10
 31
0.0
210
0.0
220
0.0
230
1.0
 40
0.3939339440162632
 41
1.131841032648279
 42
5.62031148352944
  0
LINE
  5
84
330
7F
100
AcDbEntity
  8
중심선
100
AcDbLine
 10
2.268634060543552
 20
16.24717430164393
 30
0.0
 11
5.714909304380834
 21
16.24717430164393
 31
0.0
  0
LINE
  5
85
330
7F
100
AcDbEntity
  8
중심선
100
AcDbLine
 10
5.245725140726316
 20
7.84717430164391
 30
0.0
 11
8.692000384563599
 21
7.84717430164391
 31
0.0
  0
LINE
  5
86
330
7F
100
AcDbEntity
  8
중심선
100
AcDbLine
 10
15.74043728645272
 20
16.24717430164393
 30
0.0
 11
8.692000384563599
 21
7.84717430164391
 31
0.0
  0
LINE
  5
87
330
7F
100
AcDbEntity
  8
중심선
100
AcDbLine
 10
0.1404042013395286
 20
13.71084872107135
 30
0.0
 11
3.58671253028996
 21
13.71088815037384
 31
0.0
  0
LINE
  5
88
330
7F
100
AcDbEntity
  8
중심선
100
AcDbLine
 10
2.750260043222114
 20
10.84717430164391
 30
0.0
 11
6.196535287059397
 21
10.84717430164391
 31
0.0
  0
LINE
  5
89
330
7F
100
AcDbEntity
  8
중심선
100
AcDbLine
 10
12.29416204261559
 20
16.24717430164393
 30
0.0
 11
5.245725140726316
 21
7.84717430164391
 31
0.0
  0
LINE
  5
8A
330
7F
100
AcDbEntity
  8
중심선
100
AcDbLine
 10
10.72767329541681
 20
16.24717430164393
 30
0.0
 11
6.196535287059397
 21
10.84717430164391
 31
0.0
  0
LINE
  5
8B
330
7F
100
AcDbEntity
  8
중심선
100
AcDbLine
 10
7.28139805157953
 20
16.24717430164393
 30
0.0
 11
2.750260043222114
 21
10.84717430164391
 31
0.0
  0
LINE
  5
8C
330
7F
100
AcDbEntity
  8
중심선
100
AcDbLine
 10
5.714909304380834
 20
16.24717430164393
 30
0.0
 11
3.58671253028996
 21
13.71088815037384
 31
0.0
  0
LINE
  5
8D
330
7F
100
AcDbEntity
  8
중심선
100
AcDbLine
 10
2.268634060543552
 20
16.24717430164393
 30
0.0
 11
0.1404042013395286
 21
13.71084872107135
 31
0.0
  0
LINE
  5
8E
330
7F
100
AcDbEntity
  8
중심선
100
AcDbLine
 10
7.28139805157953
 20
16.24717430164393
 30
0.0
 11
10.72767329541681
 21
16.24717430164393
 31
0.0
  0
LINE
  5
8F
330
7F
100
AcDbEntity
  8
중심선
100
AcDbLine
 10
12.29416204261559
 20
16.24717430164393
 30
0.0
 11
15.74043728645272
 21
16.24717430164393
 31
0.0
  0
LINE
  5
90
330
7F
100
AcDbEntity
  8
중심선
100
AcDbLine
 10
19.22036997980202
 20
11.08717430171403
 30
0.0
 11
23.66174974927406
 21
11.08717430171406
 31
0.0
  0
LINE
  5
91
330
7F
100
AcDbEntity
  8
중심선
100
AcDbLine
 10
19.22039502424796
 20
13.00717430171391
 30
0.0
 11
19.22036997980202
 21
11.08717430171403
 31
0.0
  0
LINE
  5
92
330
7F
100
AcDbEntity
  8
중심선
100
AcDbLine
 10
19.22039502424796
 20
13.00717430171391
 30
0.0
 11
26.96566020931264
 21
13.00717430171391
 31
0.0
  0
LINE
  5
93
330
7F
100
AcDbEntity
  8
중심선
100
AcDbLine
 10
22.22332737316547
 20
13.45928029700563
 30
0.0
 11
24.52862924686651
 21
15.39360700705356
 31
0.0
  0
ATTDEF
  5
95
330
7F
100
AcDbEntity
  8
FORMAT
 62
     2
100
AcDbText
 10
-9.522313950597932
 20
2.075366912832191
 30
0.0
 40
4.233333333333333
  1
EH969032 [ 4 FLUTE ]
 41
0.75
  7
SLDTEXTSTYLE0
 11
-9.522313950597932
 21
-0.0412997538344756
 31
0.0
100
AcDbAttributeDefinition
  3

  2
AUTOATTR0
 70
     0
 74
     1
  0
ENDBLK
  5
81
330
7F
100
AcDbEntity
  8
0
100
AcDbBlockEnd
  0
BLOCK
  5
E1
330
E0
100
AcDbEntity
  8
0
100
AcDbBlockBegin
  2
_D
 70
     0
 10
0.0
 20
0.0
 30
0.0
  3
_D
  1
_D
  0
LINE
  5
E3
330
E0
100
AcDbEntity
  8
치수문자_일반주서
 62
     0
370
    -2
100
AcDbLine
 10
6.957806826579453
 20
6.350000000000003
 30
0.0
 11
52.76460935071218
 21
6.350000000000172
 31
0.0
  0
LINE
  5
E4
330
E0
100
AcDbEntity
  8
치수문자_일반주서
 62
     0
370
    -2
100
AcDbLine
 10
25.48750041513762
 20
-6.350000000000003
 30
0.0
 11
52.76460935071222
 21
-6.349999999999902
 31
0.0
  0
LINE
  5
E5
330
E0
100
AcDbEntity
  8
치수문자_일반주서
 62
     0
370
    -2
100
AcDbLine
 10
52.76460935071218
 20
6.350000000000172
 30
0.0
 11
52.76460935071208
 21
36.77700000000016
 31
0.0
  0
LINE
  5
E6
330
E0
100
AcDbEntity
  8
치수문자_일반주서
 62
     0
370
    -2
100
AcDbLine
 10
52.76460935071219
 20
3.048000000000172
 30
0.0
 11
52.76460935071221
 21
-3.047999999999902
 31
0.0
  0
SOLID
  5
E7
330
E0
100
AcDbEntity
  8
치수문자_일반주서
 62
     0
100
AcDbTrace
 10
53.31494268404553
 20
3.048000000000174
 30
0.0
 11
52.21427601737886
 21
3.04800000000017
 31
0.0
 12
52.76460935071218
 22
6.350000000000172
 32
0.0
 13
52.76460935071218
 23
6.350000000000172
 33
0.0
  0
SOLID
  5
E8
330
E0
100
AcDbEntity
  8
치수문자_일반주서
 62
     0
100
AcDbTrace
 10
52.21427601737887
 20
-3.047999999999904
 30
0.0
 11
53.31494268404554
 21
-3.0479999999999
 31
0.0
 12
52.76460935071222
 22
-6.349999999999902
 32
0.0
 13
52.76460935071222
 23
-6.349999999999902
 33
0.0
  0
MTEXT
  5
E9
330
E0
100
AcDbEntity
  8
치수문자_일반주서
 62
     0
100
AcDbMText
 10
48.38960935071212
 20
23.43325000000015
 30
0.0
 40
3.5
 41
0.0
 71
     2
 72
     1
  1
\A1;%%c12.70 [1/2]
  7
SLDTEXTSTYLE0
 11
-3.356894814614627E-15
 21
1.0
 31
0.0
 73
     1
 44
1.0
  0
POINT
  5
EA
330
E0
100
AcDbEntity
  8
Defpoints
 62
     0
100
AcDbPoint
 10
6.895306826579453
 20
6.350000000000003
 30
0.0
  0
POINT
  5
EB
330
E0
100
AcDbEntity
  8
Defpoints
 62
     0
100
AcDbPoint
 10
25.42500041513762
 20
-6.350000000000003
 30
0.0
  0
POINT
  5
EC
330
E0
100
AcDbEntity
  8
Defpoints
 62
     0
100
AcDbPoint
 10
52.76460935071222
 20
-6.349999999999901
 30
0.0
  0
ENDBLK
  5
E2
330
E0
100
AcDbEntity
  8
0
100
AcDbBlockEnd
  0
BLOCK
  5
F4
330
F3
100
AcDbEntity
  8
0
100
AcDbBlockBegin
  2
_D_1
 70
     0
 10
0.0
 20
0.0
 30
0.0
  3
_D_1
  1
_D_1
  0
LINE
  5
F6
330
F3
100
AcDbEntity
  8
치수문자_일반주서
 62
     0
370
    -2
100
AcDbLine
 10
-39.8625
 20
6.349999999999991
 30
0.0
 11
-50.61000000000003
 21
6.34999999999995
 31
0.0
  0
LINE
  5
F7
330
F3
100
AcDbEntity
  8
치수문자_일반주서
 62
     0
370
    -2
100
AcDbLine
 10
-39.8625
 20
-6.349999999999998
 30
0.0
 11
-50.60999999999999
 21
-6.350000000000039
 31
0.0
  0
LINE
  5
F8
330
F3
100
AcDbEntity
  8
치수문자_일반주서
 62
     0
370
    -2
100
AcDbLine
 10
-50.61000000000002
 20
3.04799999999995
 30
0.0
 11
-50.61000000000001
 21
-3.048000000000039
 31
0.0
  0
SOLID
  5
F9
330
F3
100
AcDbEntity
  8
치수문자_일반주서
 62
     0
100
AcDbTrace
 10
-50.05966666666669
 20
3.047999999999952
 30
0.0
 11
-51.16033333333336
 21
3.047999999999948
 31
0.0
 12
-50.61000000000003
 22
6.34999999999995
 32
0.0
 13
-50.61000000000003
 23
6.34999999999995
 33
0.0
  0
SOLID
  5
FA
330
F3
100
AcDbEntity
  8
치수문자_일반주서
 62
     0
100
AcDbTrace
 10
-51.16033333333334
 20
-3.04800000000004
 30
0.0
 11
-50.05966666666667
 21
-3.048000000000037
 31
0.0
 12
-50.60999999999999
 22
-6.350000000000039
 32
0.0
 13
-50.60999999999999
 23
-6.350000000000039
 33
0.0
  0
MTEXT
  5
FB
330
F3
100
AcDbEntity
  8
치수문자_일반주서
 62
     0
100
AcDbMText
 10
-54.98500000000001
 20
-1.017344347620641
 30
0.0
 40
3.5
 41
0.0
 71
     2
 72
     1
  1
\A1;%%c12.70 [1/2]
  7
SLDTEXTSTYLE0
 11
-3.356894814614650E-15
 21
1.0
 31
0.0
 73
     1
 44
1.0
  0
POINT
  5
FC
330
F3
100
AcDbEntity
  8
Defpoints
 62
     0
100
AcDbPoint
 10
-39.8
 20
6.349999999999991
 30
0.0
  0
POINT
  5
FD
330
F3
100
AcDbEntity
  8
Defpoints
 62
     0
100
AcDbPoint
 10
-39.8
 20
-6.349999999999998
 30
0.0
  0
POINT
  5
FE
330
F3
100
AcDbEntity
  8
Defpoints
 62
     0
100
AcDbPoint
 10
-50.61
 20
-6.350000000000038
 30
0.0
  0
ENDBLK
  5
F5
330
F3
100
AcDbEntity
  8
0
100
AcDbBlockEnd
  0
BLOCK
  5
108
330
107
100
AcDbEntity
  8
0
100
AcDbBlockBegin
  2
_D_2
 70
     0
 10
0.0
 20
0.0
 30
0.0
  3
_D_2
  1
_D_2
  0
LINE
  5
10A
330
107
100
AcDbEntity
  8
치수문자_일반주서
 62
     0
370
    -2
100
AcDbLine
 10
35.39999999999999
 20
5.783753686911627
 30
0.0
 11
35.39999999999999
 21
23.04896884953977
 31
0.0
  0
LINE
  5
10B
330
107
100
AcDbEntity
  8
치수문자_일반주서
 62
     0
370
    -2
100
AcDbLine
 10
9.999999999999988
 20
5.668515432150452
 30
0.0
 11
9.999999999999988
 21
23.04896884953977
 31
0.0
  0
LINE
  5
10C
330
107
100
AcDbEntity
  8
치수문자_일반주서
 62
     0
370
    -2
100
AcDbLine
 10
32.09799999999999
 20
23.04896884953977
 30
0.0
 11
13.30199999999999
 21
23.04896884953977
 31
0.0
  0
SOLID
  5
10D
330
107
100
AcDbEntity
  8
치수문자_일반주서
 62
     0
100
AcDbTrace
 10
32.09799999999999
 20
22.49863551620643
 30
0.0
 11
32.09799999999999
 21
23.5993021828731
 31
0.0
 12
35.39999999999999
 22
23.04896884953977
 32
0.0
 13
35.39999999999999
 23
23.04896884953977
 33
0.0
  0
SOLID
  5
10E
330
107
100
AcDbEntity
  8
치수문자_일반주서
 62
     0
100
AcDbTrace
 10
13.30199999999999
 20
23.5993021828731
 30
0.0
 11
13.30199999999999
 21
22.49863551620643
 31
0.0
 12
9.999999999999988
 22
23.04896884953977
 32
0.0
 13
9.999999999999988
 23
23.04896884953977
 33
0.0
  0
MTEXT
  5
10F
330
107
100
AcDbEntity
  8
치수문자_일반주서
 62
     0
100
AcDbMText
 10
22.69999999999999
 20
27.42396884953977
 30
0.0
 40
3.5
 41
0.0
 71
     2
 72
     1
  1
\A1;25.40 [1]
  7
SLDTEXTSTYLE0
 73
     1
 44
1.0
  0
POINT
  5
110
330
107
100
AcDbEntity
  8
Defpoints
 62
     0
100
AcDbPoint
 10
35.39999999999999
 20
5.721253686911627
 30
0.0
  0
POINT
  5
111
330
107
100
AcDbEntity
  8
Defpoints
 62
     0
100
AcDbPoint
 10
9.999999999999988
 20
5.606015432150452
 30
0.0
  0
POINT
  5
112
330
107
100
AcDbEntity
  8
Defpoints
 62
     0
100
AcDbPoint
 10
9.999999999999988
 20
23.04896884953977
 30
0.0
  0
ENDBLK
  5
109
330
107
100
AcDbEntity
  8
0
100
AcDbBlockEnd
  0
BLOCK
  5
11C
330
11B
100
AcDbEntity
  8
0
100
AcDbBlockBegin
  2
_D_3
 70
     0
 10
0.0
 20
0.0
 30
0.0
  3
_D_3
  1
_D_3
  0
LINE
  5
11E
330
11B
100
AcDbEntity
  8
치수문자_일반주서
 62
     0
370
    -2
100
AcDbLine
 10
35.39999999999999
 20
5.783753686911627
 30
0.0
 11
35.39999999999998
 21
39.71863385053561
 31
0.0
  0
LINE
  5
11F
330
11B
100
AcDbEntity
  8
치수문자_일반주서
 62
     0
370
    -2
100
AcDbLine
 10
-40.8
 20
5.41249999999999
 30
0.0
 11
-40.80000000000001
 21
39.71863385053561
 31
0.0
  0
LINE
  5
120
330
11B
100
AcDbEntity
  8
치수문자_일반주서
 62
     0
370
    -2
100
AcDbLine
 10
32.09799999999998
 20
39.71863385053561
 30
0.0
 11
-37.49800000000001
 21
39.71863385053561
 31
0.0
  0
SOLID
  5
121
330
11B
100
AcDbEntity
  8
치수문자_일반주서
 62
     0
100
AcDbTrace
 10
32.09799999999998
 20
39.16830051720228
 30
0.0
 11
32.09799999999998
 21
40.26896718386894
 31
0.0
 12
35.39999999999998
 22
39.71863385053561
 32
0.0
 13
35.39999999999998
 23
39.71863385053561
 33
0.0
  0
SOLID
  5
122
330
11B
100
AcDbEntity
  8
치수문자_일반주서
 62
     0
100
AcDbTrace
 10
-37.49800000000001
 20
40.26896718386894
 30
0.0
 11
-37.49800000000001
 21
39.16830051720228
 31
0.0
 12
-40.80000000000001
 22
39.71863385053561
 32
0.0
 13
-40.80000000000001
 23
39.71863385053561
 33
0.0
  0
MTEXT
  5
123
330
11B
100
AcDbEntity
  8
치수문자_일반주서
 62
     0
100
AcDbMText
 10
0.6315440708370023
 20
44.09363385053561
 30
0.0
 40
3.5
 41
0.0
 71
     2
 72
     1
  1
\A1;76.20 [3]
  7
SLDTEXTSTYLE0
 73
     1
 44
1.0
  0
POINT
  5
124
330
11B
100
AcDbEntity
  8
Defpoints
 62
     0
100
AcDbPoint
 10
35.39999999999999
 20
5.721253686911627
 30
0.0
  0
POINT
  5
125
330
11B
100
AcDbEntity
  8
Defpoints
 62
     0
100
AcDbPoint
 10
-40.8
 20
5.34999999999999
 30
0.0
  0
POINT
  5
126
330
11B
100
AcDbEntity
  8
Defpoints
 62
     0
100
AcDbPoint
 10
-40.8
 20
39.71863385053561
 30
0.0
  0
ENDBLK
  5
11D
330
11B
100
AcDbEntity
  8
0
100
AcDbBlockEnd
  0
BLOCK
  5
135
330
134
100
AcDbEntity
  8
0
100
AcDbBlockBegin
  2
SW_DOWELSYMBOL_0
 70
     0
 10
0.0
 20
0.0
 30
0.0
  3
SW_DOWELSYMBOL_0
  1
SW_DOWELSYMBOL_0
  0
CIRCLE
  5
137
330
134
100
AcDbEntity
  8
해칭선
 62
     0
100
AcDbCircle
 10
0.0
 20
0.0
 30
0.0
 40
3.000000000000004
  0
HATCH
  5
138
330
134
100
AcDbEntity
  8
0
  6
Continuous
 62
     0
370
     0
100
AcDbHatch
 10
0.0
 20
0.0
 30
0.0
210
0.0
220
0.0
230
1.0
  2
SOLID
 70
     1
 71
     0
 91
        1
 92
        0
 93
        3
 72
     2
 10
0.0000000000000104
 20
-0.0000000000000035
 40
3.000000000000004
 50
0.0
 51
90.0
 73
     1
 72
     1
 10
0.0000000000000104
 20
3.000000000000001
 11
0.0000000000000104
 21
-0.0000000000000036
 72
     1
 10
0.0000000000000104
 20
-0.0000000000000035
 11
3.000000000000015
 21
-0.0000000000000035
 97
        0
 75
     0
 76
     1
 98
        1
 10
0.0
 20
0.0
  0
HATCH
  5
139
330
134
100
AcDbEntity
  8
0
  6
Continuous
 62
     0
370
     0
100
AcDbHatch
 10
0.0
 20
0.0
 30
0.0
210
0.0
220
0.0
230
1.0
  2
SOLID
 70
     1
 71
     0
 91
        1
 92
        0
 93
        3
 72
     2
 10
0.0000000000000104
 20
-0.0000000000000035
 40
3.000000000000004
 50
180.0
 51
270.0000000000007
 73
     1
 72
     1
 10
0.0000000000000104
 20
-3.000000000000008
 11
0.0000000000000104
 21
-0.0000000000000036
 72
     1
 10
0.0000000000000104
 20
-0.0000000000000035
 11
-2.999999999999994
 21
-0.0000000000000035
 97
        0
 75
     0
 76
     1
 98
        1
 10
0.0
 20
0.0
  0
ENDBLK
  5
136
330
134
100
AcDbEntity
  8
0
100
AcDbBlockEnd
  0
BLOCK
  5
3BB
330
3BA
100
AcDbEntity
  8
0
100
AcDbBlockBegin
  2
*D7
 70
     1
 10
0.0
 20
0.0
 30
0.0
  3
*D7
  1
*D8
  0
LINE
  5
3BD
330
3BA
100
AcDbEntity
  8
치수문자_일반주서
 62
     0
370
    -2
100
AcDbLine
 10
52.50237071021036
 20
17.77550826071549
 30
0.0
 11
94.59305984671326
 21
17.77550826071565
 31
0.0
  0
LINE
  5
3BE
330
3BA
100
AcDbEntity
  8
치수문자_일반주서
 62
     0
370
    -2
100
AcDbLine
 10
70.24736665099867
 20
8.25050820185589
 30
0.0
 11
94.59305984671329
 21
8.250508201855979
 31
0.0
  0
LINE
  5
3BF
330
3BA
100
AcDbEntity
  8
치수문자_일반주서
 62
     0
370
    -2
100
AcDbLine
 10
94.59305984671326
 20
17.77550826071565
 30
0.0
 11
94.59305984671317
 21
47.54625826071564
 31
0.0
  0
LINE
  5
3C0
330
3BA
100
AcDbEntity
  8
치수문자_일반주서
 62
     0
370
    -2
100
AcDbLine
 10
94.59305984671327
 20
14.47350826071565
 30
0.0
 11
94.59305984671327
 21
11.55250820185598
 31
0.0
  0
SOLID
  5
3C1
330
3BA
100
AcDbEntity
  8
치수문자_일반주서
 62
     0
100
AcDbTrace
 10
95.1433931800466
 20
14.47350826071565
 30
0.0
 11
94.04272651337995
 21
14.47350826071565
 31
0.0
 12
94.59305984671326
 22
17.77550826071565
 32
0.0
 13
94.59305984671326
 23
17.77550826071565
 33
0.0
  0
SOLID
  5
3C2
330
3BA
100
AcDbEntity
  8
치수문자_일반주서
 62
     0
100
AcDbTrace
 10
94.04272651337995
 20
11.55250820185598
 30
0.0
 11
95.1433931800466
 21
11.55250820185598
 31
0.0
 12
94.59305984671329
 22
8.250508201855979
 32
0.0
 13
94.59305984671329
 23
8.250508201855979
 33
0.0
  0
MTEXT
  5
3C3
330
3BA
100
AcDbEntity
  8
치수문자_일반주서
 62
     0
100
AcDbMText
 10
90.21805984671322
 20
34.42125826071562
 30
0.0
 40
3.5
 41
0.0
 71
     2
 72
     1
  1
\A1;%%c9.53 [3/8]
  7
SLDTEXTSTYLE0
 11
-2.983906483440658E-15
 21
1.0
 31
0.0
 73
     1
 44
1.0
  0
POINT
  5
3C4
330
3BA
100
AcDbEntity
  8
Defpoints
 62
     0
100
AcDbPoint
 10
52.43987071021036
 20
17.77550826071549
 30
0.0
  0
POINT
  5
3C5
330
3BA
100
AcDbEntity
  8
Defpoints
 62
     0
100
AcDbPoint
 10
70.18486665099867
 20
8.25050820185589
 30
0.0
  0
POINT
  5
3C6
330
3BA
100
AcDbEntity
  8
Defpoints
 62
     0
100
AcDbPoint
 10
94.59305984671332
 20
8.25050820185598
 30
0.0
  0
ENDBLK
  5
3BC
330
3BA
100
AcDbEntity
  8
0
100
AcDbBlockEnd
  0
BLOCK
  5
3C8
330
3C7
100
AcDbEntity
  8
0
100
AcDbBlockBegin
  2
*D8
 70
     1
 10
0.0
 20
0.0
 30
0.0
  3
*D8
  1
*D9
  0
LINE
  5
3CA
330
3C7
100
AcDbEntity
  8
치수문자_일반주서
 62
     0
370
    -2
100
AcDbLine
 10
15.12250000000008
 20
17.77550826071548
 30
0.0
 11
4.375000000000031
 21
17.77550826071544
 31
0.0
  0
LINE
  5
3CB
330
3C7
100
AcDbEntity
  8
치수문자_일반주서
 62
     0
370
    -2
100
AcDbLine
 10
15.12250000000008
 20
8.250508260715474
 30
0.0
 11
4.375000000000064
 21
8.250508260715435
 31
0.0
  0
LINE
  5
3CC
330
3C7
100
AcDbEntity
  8
치수문자_일반주서
 62
     0
370
    -2
100
AcDbLine
 10
4.375000000000043
 20
14.47350826071544
 30
0.0
 11
4.375000000000052
 21
11.55250826071543
 31
0.0
  0
SOLID
  5
3CD
330
3C7
100
AcDbEntity
  8
치수문자_일반주서
 62
     0
100
AcDbTrace
 10
4.925333333333376
 20
14.47350826071544
 30
0.0
 11
3.82466666666671
 21
14.47350826071544
 31
0.0
 12
4.375000000000031
 22
17.77550826071544
 32
0.0
 13
4.375000000000031
 23
17.77550826071544
 33
0.0
  0
SOLID
  5
3CE
330
3C7
100
AcDbEntity
  8
치수문자_일반주서
 62
     0
100
AcDbTrace
 10
3.824666666666719
 20
11.55250826071543
 30
0.0
 11
4.925333333333386
 21
11.55250826071544
 31
0.0
 12
4.375000000000064
 22
8.250508260715435
 32
0.0
 13
4.375000000000064
 23
8.250508260715435
 33
0.0
  0
MTEXT
  5
3CF
330
3C7
100
AcDbEntity
  8
치수문자_일반주서
 62
     0
100
AcDbMText
 10
0.0000000000000497
 20
12.25
 30
0.0
 40
3.5
 41
0.0
 71
     2
 72
     1
  1
\A1;%%c9.53 [3/8]
  7
SLDTEXTSTYLE0
 11
-3.450141892798384E-15
 21
1.0
 31
0.0
 73
     1
 44
1.0
  0
POINT
  5
3D0
330
3C7
100
AcDbEntity
  8
Defpoints
 62
     0
100
AcDbPoint
 10
15.18500000000008
 20
17.77550826071548
 30
0.0
  0
POINT
  5
3D1
330
3C7
100
AcDbEntity
  8
Defpoints
 62
     0
100
AcDbPoint
 10
15.18500000000008
 20
8.250508260715474
 30
0.0
  0
POINT
  5
3D2
330
3C7
100
AcDbEntity
  8
Defpoints
 62
     0
100
AcDbPoint
 10
4.375000000000064
 20
8.250508260715433
 30
0.0
  0
ENDBLK
  5
3C9
330
3C7
100
AcDbEntity
  8
0
100
AcDbBlockEnd
  0
BLOCK
  5
3D4
330
3D3
100
AcDbEntity
  8
0
100
AcDbBlockBegin
  2
*D9
 70
     1
 10
0.0
 20
0.0
 30
0.0
  3
*D9
  1
*D10
  0
LINE
  5
3D6
330
3D3
100
AcDbEntity
  8
치수문자_일반주서
 62
     0
370
    -2
100
AcDbLine
 10
77.68499999054495
 20
17.39939246468938
 30
0.0
 11
77.68499737862508
 21
34.66460762731734
 31
0.0
  0
LINE
  5
3D7
330
3D3
100
AcDbEntity
  8
치수문자_일반주서
 62
     0
370
    -2
100
AcDbLine
 10
55.45999999054495
 20
17.6668475162271
 30
0.0
 11
55.45999741908678
 21
34.66460426507028
 31
0.0
  0
LINE
  5
3D8
330
3D3
100
AcDbEntity
  8
치수문자_일반주서
 62
     0
370
    -2
100
AcDbLine
 10
74.38299737862512
 20
34.66460712778349
 30
0.0
 11
58.76199741908675
 21
34.66460476460413
 31
0.0
  0
SOLID
  5
3D9
330
3D3
100
AcDbEntity
  8
치수문자_일반주서
 62
     0
100
AcDbTrace
 10
74.38299746188076
 20
34.11427379445016
 30
0.0
 11
74.38299729536948
 21
35.21494046111682
 31
0.0
 12
77.68499737862508
 22
34.66460762731734
 32
0.0
 13
77.68499737862508
 23
34.66460762731734
 33
0.0
  0
SOLID
  5
3DA
330
3D3
100
AcDbEntity
  8
치수문자_일반주서
 62
     0
100
AcDbTrace
 10
58.7619973358311
 20
35.21493809793746
 30
0.0
 11
58.76199750234239
 21
34.1142714312708
 31
0.0
 12
55.45999741908678
 22
34.66460426507028
 32
0.0
 13
55.45999741908678
 23
34.66460426507028
 33
0.0
  0
MTEXT
  5
3DB
330
3D3
100
AcDbEntity
  8
치수문자_일반주서
 62
     0
100
AcDbMText
 10
66.57249673699627
 20
39.03960594619376
 30
0.0
 40
3.5
 41
0.0
 71
     2
 72
     1
  1
\A1;22.22 [7/8]
  7
SLDTEXTSTYLE0
 11
0.9999999999999887
 21
1.512822075541859E-7
 31
0.0
 73
     1
 44
1.0
  0
POINT
  5
3DC
330
3D3
100
AcDbEntity
  8
Defpoints
 62
     0
100
AcDbPoint
 10
77.68500000000009
 20
17.33689246468938
 30
0.0
  0
POINT
  5
3DD
330
3D3
100
AcDbEntity
  8
Defpoints
 62
     0
100
AcDbPoint
 10
55.46000000000009
 20
17.6043475162271
 30
0.0
  0
POINT
  5
3DE
330
3D3
100
AcDbEntity
  8
Defpoints
 62
     0
100
AcDbPoint
 10
55.45999741908678
 20
34.66460426507028
 30
0.0
  0
ENDBLK
  5
3D5
330
3D3
100
AcDbEntity
  8
0
100
AcDbBlockEnd
  0
BLOCK
  5
3E0
330
3DF
100
AcDbEntity
  8
0
100
AcDbBlockBegin
  2
*D10
 70
     1
 10
0.0
 20
0.0
 30
0.0
  3
*D10
  1
*D11
  0
LINE
  5
3E2
330
3DF
100
AcDbEntity
  8
치수문자_일반주서
 62
     0
370
    -2
100
AcDbLine
 10
77.68500000000009
 20
17.39939246468938
 30
0.0
 11
77.68500000000009
 21
51.33427262831337
 31
0.0
  0
LINE
  5
3E3
330
3DF
100
AcDbEntity
  8
치수문자_일반주서
 62
     0
370
    -2
100
AcDbLine
 10
14.18500000000009
 20
16.83800826071547
 30
0.0
 11
14.18500000000009
 21
51.33427262831337
 31
0.0
  0
LINE
  5
3E4
330
3DF
100
AcDbEntity
  8
치수문자_일반주서
 62
     0
370
    -2
100
AcDbLine
 10
74.3830000000001
 20
51.33427262831337
 30
0.0
 11
17.48700000000009
 21
51.33427262831337
 31
0.0
  0
SOLID
  5
3E5
330
3DF
100
AcDbEntity
  8
치수문자_일반주서
 62
     0
100
AcDbTrace
 10
74.3830000000001
 20
50.78393929498004
 30
0.0
 11
74.3830000000001
 21
51.88460596164671
 31
0.0
 12
77.68500000000009
 22
51.33427262831337
 32
0.0
 13
77.68500000000009
 23
51.33427262831337
 33
0.0
  0
SOLID
  5
3E6
330
3DF
100
AcDbEntity
  8
치수문자_일반주서
 62
     0
100
AcDbTrace
 10
17.48700000000009
 20
51.88460596164671
 30
0.0
 11
17.48700000000009
 21
50.78393929498004
 31
0.0
 12
14.18500000000009
 22
51.33427262831337
 32
0.0
 13
14.18500000000009
 23
51.33427262831337
 33
0.0
  0
MTEXT
  5
3E7
330
3DF
100
AcDbEntity
  8
치수문자_일반주서
 62
     0
100
AcDbMText
 10
48.7112867256976
 20
55.70927262831337
 30
0.0
 40
3.5
 41
0.0
 71
     2
 72
     1
  1
\A1;63.50 [2 1/2]
  7
SLDTEXTSTYLE0
 73
     1
 44
1.0
  0
POINT
  5
3E8
330
3DF
100
AcDbEntity
  8
Defpoints
 62
     0
100
AcDbPoint
 10
77.68500000000009
 20
17.33689246468938
 30
0.0
  0
POINT
  5
3E9
330
3DF
100
AcDbEntity
  8
Defpoints
 62
     0
100
AcDbPoint
 10
14.18500000000009
 20
16.77550826071547
 30
0.0
  0
POINT
  5
3EA
330
3DF
100
AcDbEntity
  8
Defpoints
 62
     0
100
AcDbPoint
 10
14.18500000000009
 20
51.33427262831337
 30
0.0
  0
ENDBLK
  5
3E1
330
3DF
100
AcDbEntity
  8
0
100
AcDbBlockEnd
  0
BLOCK
  5
5E3
330
5E2
100
AcDbEntity
  8
0
100
AcDbBlockBegin
  2
*D11
 70
     1
 10
0.0
 20
0.0
 30
0.0
  3
*D11
  1
*D12
  0
LINE
  5
5E5
330
5E2
100
AcDbEntity
  8
치수문자_일반주서
 62
     0
370
    -2
100
AcDbLine
 10
119.9733694225108
 20
-39.24781633145794
 30
0.0
 11
162.0640585590137
 21
-39.24781633145778
 31
0.0
  0
LINE
  5
5E6
330
5E2
100
AcDbEntity
  8
치수문자_일반주서
 62
     0
370
    -2
100
AcDbLine
 10
137.7183653632991
 20
-48.77281639031754
 30
0.0
 11
162.0640585590138
 21
-48.77281639031746
 31
0.0
  0
LINE
  5
5E7
330
5E2
100
AcDbEntity
  8
치수문자_일반주서
 62
     0
370
    -2
100
AcDbLine
 10
162.0640585590137
 20
-39.24781633145778
 30
0.0
 11
162.0640585590137
 21
-9.477066331457792
 31
0.0
  0
LINE
  5
5E8
330
5E2
100
AcDbEntity
  8
치수문자_일반주서
 62
     0
370
    -2
100
AcDbLine
 10
162.0640585590137
 20
-42.54981633145778
 30
0.0
 11
162.0640585590138
 21
-45.47081639031746
 31
0.0
  0
SOLID
  5
5E9
330
5E2
100
AcDbEntity
  8
치수문자_일반주서
 62
     0
100
AcDbTrace
 10
162.6143918923471
 20
-42.54981633145778
 30
0.0
 11
161.5137252256804
 21
-42.54981633145778
 31
0.0
 12
162.0640585590137
 22
-39.24781633145778
 32
0.0
 13
162.0640585590137
 23
-39.24781633145778
 33
0.0
  0
SOLID
  5
5EA
330
5E2
100
AcDbEntity
  8
치수문자_일반주서
 62
     0
100
AcDbTrace
 10
161.5137252256804
 20
-45.47081639031746
 30
0.0
 11
162.6143918923471
 21
-45.47081639031746
 31
0.0
 12
162.0640585590138
 22
-48.77281639031746
 32
0.0
 13
162.0640585590138
 23
-48.77281639031746
 33
0.0
  0
MTEXT
  5
5EB
330
5E2
100
AcDbEntity
  8
치수문자_일반주서
 62
     0
100
AcDbMText
 10
157.6890585590137
 20
-22.60206633145781
 30
0.0
 40
3.5
 41
0.0
 71
     2
 72
     1
  1
\A1;%%c9.53 [3/8]
  7
SLDTEXTSTYLE0
 11
-2.983906483440658E-15
 21
1.0
 31
0.0
 73
     1
 44
1.0
  0
POINT
  5
5EC
330
5E2
100
AcDbEntity
  8
Defpoints
 62
     0
100
AcDbPoint
 10
119.9108694225108
 20
-39.24781633145794
 30
0.0
  0
POINT
  5
5ED
330
5E2
100
AcDbEntity
  8
Defpoints
 62
     0
100
AcDbPoint
 10
137.6558653632991
 20
-48.77281639031754
 30
0.0
  0
POINT
  5
5EE
330
5E2
100
AcDbEntity
  8
Defpoints
 62
     0
100
AcDbPoint
 10
162.0640585590137
 20
-48.77281639031745
 30
0.0
  0
ENDBLK
  5
5E4
330
5E2
100
AcDbEntity
  8
0
100
AcDbBlockEnd
  0
BLOCK
  5
5F0
330
5EF
100
AcDbEntity
  8
0
100
AcDbBlockBegin
  2
*D12
 70
     1
 10
0.0
 20
0.0
 30
0.0
  3
*D12
  1
*D13
  0
LINE
  5
5F2
330
5EF
100
AcDbEntity
  8
치수문자_일반주서
 62
     0
370
    -2
100
AcDbLine
 10
82.59349871230054
 20
-39.24781633145795
 30
0.0
 11
71.8459987123005
 21
-39.247816331458
 31
0.0
  0
LINE
  5
5F3
330
5EF
100
AcDbEntity
  8
치수문자_일반주서
 62
     0
370
    -2
100
AcDbLine
 10
82.59349871230054
 20
-48.77281633145796
 30
0.0
 11
71.84599871230053
 21
-48.772816331458
 31
0.0
  0
LINE
  5
5F4
330
5EF
100
AcDbEntity
  8
치수문자_일반주서
 62
     0
370
    -2
100
AcDbLine
 10
71.84599871230051
 20
-42.549816331458
 30
0.0
 11
71.84599871230051
 21
-45.470816331458
 31
0.0
  0
SOLID
  5
5F5
330
5EF
100
AcDbEntity
  8
치수문자_일반주서
 62
     0
100
AcDbTrace
 10
72.39633204563384
 20
-42.549816331458
 30
0.0
 11
71.29566537896719
 21
-42.549816331458
 31
0.0
 12
71.8459987123005
 22
-39.247816331458
 32
0.0
 13
71.8459987123005
 23
-39.247816331458
 33
0.0
  0
SOLID
  5
5F6
330
5EF
100
AcDbEntity
  8
치수문자_일반주서
 62
     0
100
AcDbTrace
 10
71.29566537896719
 20
-45.470816331458
 30
0.0
 11
72.39633204563384
 21
-45.470816331458
 31
0.0
 12
71.84599871230053
 22
-48.772816331458
 32
0.0
 13
71.84599871230053
 23
-48.772816331458
 33
0.0
  0
MTEXT
  5
5F7
330
5EF
100
AcDbEntity
  8
치수문자_일반주서
 62
     0
100
AcDbMText
 10
67.47099871230051
 20
-44.77332459217343
 30
0.0
 40
3.5
 41
0.0
 71
     2
 72
     1
  1
\A1;%%c9.53 [3/8]
  7
SLDTEXTSTYLE0
 11
-2.983906501879684E-15
 21
1.0
 31
0.0
 73
     1
 44
1.0
  0
POINT
  5
5F8
330
5EF
100
AcDbEntity
  8
Defpoints
 62
     0
100
AcDbPoint
 10
82.65599871230054
 20
-39.24781633145795
 30
0.0
  0
POINT
  5
5F9
330
5EF
100
AcDbEntity
  8
Defpoints
 62
     0
100
AcDbPoint
 10
82.65599871230054
 20
-48.77281633145796
 30
0.0
  0
POINT
  5
5FA
330
5EF
100
AcDbEntity
  8
Defpoints
 62
     0
100
AcDbPoint
 10
71.84599871230051
 20
-48.772816331458
 30
0.0
  0
ENDBLK
  5
5F1
330
5EF
100
AcDbEntity
  8
0
100
AcDbBlockEnd
  0
BLOCK
  5
5FC
330
5FB
100
AcDbEntity
  8
0
100
AcDbBlockBegin
  2
*D13
 70
     1
 10
0.0
 20
0.0
 30
0.0
  3
*D13
  1
*D14
  0
LINE
  5
5FE
330
5FB
100
AcDbEntity
  8
치수문자_일반주서
 62
     0
370
    -2
100
AcDbLine
 10
145.1559987028454
 20
-39.62393212748405
 30
0.0
 11
145.1559960909255
 21
-22.35871696485609
 31
0.0
  0
LINE
  5
5FF
330
5FB
100
AcDbEntity
  8
치수문자_일반주서
 62
     0
370
    -2
100
AcDbLine
 10
122.9309987028454
 20
-39.35647707594633
 30
0.0
 11
122.9309961313872
 21
-22.35872032710315
 31
0.0
  0
LINE
  5
600
330
5FB
100
AcDbEntity
  8
치수문자_일반주서
 62
     0
370
    -2
100
AcDbLine
 10
141.8539960909256
 20
-22.35871746438994
 30
0.0
 11
126.2329961313872
 21
-22.3587198275693
 31
0.0
  0
SOLID
  5
601
330
5FB
100
AcDbEntity
  8
치수문자_일반주서
 62
     0
100
AcDbTrace
 10
141.8539961741812
 20
-22.90905079772327
 30
0.0
 11
141.8539960076699
 21
-21.80838413105662
 31
0.0
 12
145.1559960909255
 22
-22.35871696485609
 32
0.0
 13
145.1559960909255
 23
-22.35871696485609
 33
0.0
  0
SOLID
  5
602
330
5FB
100
AcDbEntity
  8
치수문자_일반주서
 62
     0
100
AcDbTrace
 10
126.2329960481316
 20
-21.80838649423597
 30
0.0
 11
126.2329962146428
 21
-22.90905316090263
 31
0.0
 12
122.9309961313872
 22
-22.35872032710315
 32
0.0
 13
122.9309961313872
 23
-22.35872032710315
 33
0.0
  0
MTEXT
  5
603
330
5FB
100
AcDbEntity
  8
치수문자_일반주서
 62
     0
100
AcDbMText
 10
134.0434954492967
 20
-17.98371864597967
 30
0.0
 40
3.5
 41
0.0
 71
     2
 72
     1
  1
\A1;22.22 [7/8]
  7
SLDTEXTSTYLE0
 11
0.9999999999999887
 21
1.512822075541860E-7
 31
0.0
 73
     1
 44
1.0
  0
POINT
  5
604
330
5FB
100
AcDbEntity
  8
Defpoints
 62
     0
100
AcDbPoint
 10
145.1559987123005
 20
-39.68643212748405
 30
0.0
  0
POINT
  5
605
330
5FB
100
AcDbEntity
  8
Defpoints
 62
     0
100
AcDbPoint
 10
122.9309987123005
 20
-39.41897707594633
 30
0.0
  0
POINT
  5
606
330
5FB
100
AcDbEntity
  8
Defpoints
 62
     0
100
AcDbPoint
 10
122.9309961313872
 20
-22.35872032710315
 30
0.0
  0
ENDBLK
  5
5FD
330
5FB
100
AcDbEntity
  8
0
100
AcDbBlockEnd
  0
BLOCK
  5
608
330
607
100
AcDbEntity
  8
0
100
AcDbBlockBegin
  2
*D14
 70
     1
 10
0.0
 20
0.0
 30
0.0
  3
*D14
  1
*D15
  0
LINE
  5
60A
330
607
100
AcDbEntity
  8
치수문자_일반주서
 62
     0
370
    -2
100
AcDbLine
 10
145.1559987123005
 20
-39.62393212748405
 30
0.0
 11
145.1559987123005
 21
-5.689051963860059
 31
0.0
  0
LINE
  5
60B
330
607
100
AcDbEntity
  8
치수문자_일반주서
 62
     0
370
    -2
100
AcDbLine
 10
81.65599871230054
 20
-40.18531633145796
 30
0.0
 11
81.65599871230054
 21
-5.689051963860059
 31
0.0
  0
LINE
  5
60C
330
607
100
AcDbEntity
  8
치수문자_일반주서
 62
     0
370
    -2
100
AcDbLine
 10
141.8539987123006
 20
-5.689051963860059
 30
0.0
 11
84.95799871230054
 21
-5.689051963860059
 31
0.0
  0
SOLID
  5
60D
330
607
100
AcDbEntity
  8
치수문자_일반주서
 62
     0
100
AcDbTrace
 10
141.8539987123006
 20
-6.239385297193393
 30
0.0
 11
141.8539987123006
 21
-5.138718630526726
 31
0.0
 12
145.1559987123005
 22
-5.689051963860059
 32
0.0
 13
145.1559987123005
 23
-5.689051963860059
 33
0.0
  0
SOLID
  5
60E
330
607
100
AcDbEntity
  8
치수문자_일반주서
 62
     0
100
AcDbTrace
 10
84.95799871230054
 20
-5.138718630526726
 30
0.0
 11
84.95799871230054
 21
-6.239385297193393
 31
0.0
 12
81.65599871230054
 22
-5.689051963860059
 32
0.0
 13
81.65599871230054
 23
-5.689051963860059
 33
0.0
  0
MTEXT
  5
60F
330
607
100
AcDbEntity
  8
치수문자_일반주서
 62
     0
100
AcDbMText
 10
116.182285437998
 20
-1.314051963860059
 30
0.0
 40
3.5
 41
0.0
 71
     2
 72
     1
  1
\A1;63.50 [2 1/2]
  7
SLDTEXTSTYLE0
 73
     1
 44
1.0
  0
POINT
  5
610
330
607
100
AcDbEntity
  8
Defpoints
 62
     0
100
AcDbPoint
 10
145.1559987123005
 20
-39.68643212748405
 30
0.0
  0
POINT
  5
611
330
607
100
AcDbEntity
  8
Defpoints
 62
     0
100
AcDbPoint
 10
81.65599871230054
 20
-40.24781633145796
 30
0.0
  0
POINT
  5
612
330
607
100
AcDbEntity
  8
Defpoints
 62
     0
100
AcDbPoint
 10
81.65599871230054
 20
-5.689051963860059
 30
0.0
  0
ENDBLK
  5
609
330
607
100
AcDbEntity
  8
0
100
AcDbBlockEnd
  0
ENDSEC
  0
SECTION
  2
ENTITIES
  0
LINE
  5
96
330
1F
100
AcDbEntity
  8
외형선
  6
Continuous
370
    15
100
AcDbLine
 10
6.894303250897592
 20
6.349999999999996
 30
0.0
 11
-39.8
 21
6.34999999999999
 31
0.0
  0
LINE
  5
97
330
1F
100
AcDbEntity
  8
외형선
  6
Continuous
370
    15
100
AcDbLine
 10
-39.8
 20
-6.350000000000009
 30
0.0
 11
6.894303250897559
 21
-6.350000000000003
 31
0.0
  0
LINE
  5
98
330
1F
100
AcDbEntity
  8
외형선
  6
Continuous
370
    15
100
AcDbLine
 10
-39.8
 20
6.34999999999999
 30
0.0
 11
-40.8
 21
5.34999999999999
 31
0.0
  0
LINE
  5
99
330
1F
100
AcDbEntity
  8
외형선
  6
Continuous
370
    15
100
AcDbLine
 10
-40.8
 20
-5.35000000000001
 30
0.0
 11
-39.8
 21
-6.35000000000001
 31
0.0
  0
SPLINE
  5
A2
330
1F
100
AcDbEntity
  8
외형선
  6
Continuous
370
    15
100
AcDbSpline
210
0.0
220
0.0
230
1.0
 70
     8
 71
     3
 72
    14
 73
    10
 74
     0
 42
0.000000001
 43
0.00000001
 40
0.0
 40
0.0
 40
0.0
 40
0.0
 40
0.25
 40
0.25
 40
0.5
 40
0.5
 40
0.75
 40
0.75
 40
1.0
 40
1.0
 40
1.0
 40
1.0
 10
9.999999999999988
 20
3.7677612280562
 30
0.0
 10
9.705375595178669
 20
4.004636230523177
 30
0.0
 10
9.408974837470673
 20
4.229786530804176
 30
0.0
 10
8.821174641084323
 20
4.650203886839827
 30
0.0
 10
8.530135326891598
 20
4.845503917821039
 30
0.0
 10
7.940178188056795
 20
5.20541854901613
 30
0.0
 10
7.643920814573934
 20
5.369351753700138
 30
0.0
 10
7.057388844173184
 20
5.660637312746449
 30
0.0
 10
6.765428579223763
 20
5.788387041892769
 30
0.0
 10
6.470210358140726
 20
5.897551084165015
 30
0.0
  0
SPLINE
  5
A3
330
1F
100
AcDbEntity
  8
외형선
  6
Continuous
370
    15
100
AcDbSpline
210
0.0
220
0.0
230
1.0
 70
    24
 71
     3
 72
    24
 73
    20
 74
     0
 42
0.000000001
 43
0.00000001
 40
0.0
 40
0.0
 40
0.0
 40
0.0
 40
0.0625000000000001
 40
0.0625000000000001
 40
0.1250000000000003
 40
0.1250000000000003
 40
0.2500000000000004
 40
0.2500000000000004
 40
0.3750000000000004
 40
0.3750000000000004
 40
0.5000000000000004
 40
0.5000000000000004
 40
0.6250000000000004
 40
0.6250000000000004
 40
0.7500000000000002
 40
0.7500000000000002
 40
0.8750000000000001
 40
0.8750000000000001
 40
1.0
 40
1.0
 40
1.0
 40
1.0
 10
9.999999999999988
 20
3.767761228063248
 30
0.0
 10
9.999999999999988
 20
3.689320214778028
 30
0.0
 10
9.999999999999988
 20
3.610625019737301
 30
0.0
 10
9.999999999999988
 20
3.453905449575513
 30
0.0
 10
9.999999999999988
 20
3.372545740845379
 30
0.0
 10
9.999999999999988
 20
3.109066912338678
 30
0.0
 10
9.999999999999988
 20
2.911200562210825
 30
0.0
 10
9.999999999999988
 20
2.464571461335233
 30
0.0
 10
9.999999999999988
 20
2.215665972465549
 30
0.0
 10
9.999999999999988
 20
1.664994750658027
 30
0.0
 10
9.999999999999988
 20
1.363046944688053
 30
0.0
 10
9.999999999999988
 20
0.7140111164502982
 30
0.0
 10
9.999999999999988
 20
0.3668009698060957
 30
0.0
 10
9.999999999999988
 20
-0.3503075946601967
 30
0.0
 10
9.999999999999988
 20
-0.7200931827307522
 30
0.0
 10
9.999999999999988
 20
-1.444329667353212
 30
0.0
 10
9.999999999999988
 20
-1.798337180956967
 30
0.0
 10
9.999999999999988
 20
-2.445626910608329
 30
0.0
 10
9.999999999999988
 20
-2.738342425724976
 30
0.0
 10
9.999999999999988
 20
-2.982463910006516
 30
0.0
  0
SPLINE
  5
A4
330
1F
100
AcDbEntity
  8
외형선
  6
Continuous
370
    15
100
AcDbSpline
210
0.0
220
0.0
230
1.0
 70
     8
 71
     3
 72
    14
 73
    10
 74
     0
 42
0.000000001
 43
0.00000001
 40
0.0
 40
0.0
 40
0.0
 40
0.0
 40
0.25
 40
0.25
 40
0.5
 40
0.5
 40
0.75
 40
0.75
 40
1.0
 40
1.0
 40
1.0
 40
1.0
 10
9.999999999999988
 20
-2.982463910006516
 30
0.0
 10
9.705375595178669
 20
-2.72266752191566
 30
0.0
 10
9.408974837470673
 20
-2.452699847630584
 30
0.0
 10
8.821174641084323
 20
-1.900254920156696
 30
0.0
 10
8.530135326891598
 20
-1.617949773431565
 30
0.0
 10
7.940178188056795
 20
-1.042226473639151
 30
0.0
 10
7.643920814573934
 20
-0.7496463614110236
 30
0.0
 10
7.057388844173184
 20
-0.1635234849620289
 30
0.0
 10
6.76542857922376
 20
0.1305710720250789
 30
0.0
 10
6.470210358140728
 20
0.4243846471383068
 30
0.0
  0
LINE
  5
A5
330
1F
100
AcDbEntity
  8
외형선
  6
Continuous
370
    15
100
AcDbLine
 10
9.999999999999988
 20
-2.982463910006516
 30
0.0
 11
9.999999999999988
 21
-5.111406394372096
 31
0.0
  0
SPLINE
  5
A6
330
1F
100
AcDbEntity
  8
외형선
  6
Continuous
370
    15
100
AcDbSpline
210
0.0
220
0.0
230
1.0
 70
     8
 71
     3
 72
    14
 73
    10
 74
     0
 42
0.000000001
 43
0.00000001
 40
0.0
 40
0.0
 40
0.0
 40
0.0
 40
0.25
 40
0.25
 40
0.5
 40
0.5
 40
0.75
 40
0.75
 40
1.0
 40
1.0
 40
1.0
 40
1.0
 10
9.999999999999988
 20
-5.111406394365036
 30
0.0
 10
9.705375595178669
 20
-4.936799176442646
 30
0.0
 10
9.408974837470677
 20
-4.745298882358038
 30
0.0
 10
8.821174641084323
 20
-4.334115756402984
 30
0.0
 10
8.530135326891598
 20
-4.114639544966662
 30
0.0
 10
7.940178188056798
 20
-3.648668871270909
 30
0.0
 10
7.643920814573934
 20
-3.402777261289089
 30
0.0
 10
7.057388844173184
 20
-2.892406706957289
 30
0.0
 10
6.765428579223763
 20
-2.627506266611319
 30
0.0
 10
6.470210358140729
 20
-2.354015974810592
 30
0.0
  0
LINE
  5
A7
330
1F
100
AcDbEntity
  8
외형선
  6
Continuous
370
    15
100
AcDbLine
 10
6.470210358140728
 20
-2.354005323584953
 30
0.0
 11
6.470210358140728
 21
-6.335805615689163
 31
0.0
  0
SPLINE
  5
A8
330
1F
100
AcDbEntity
  8
외형선
  6
Continuous
370
    15
100
AcDbSpline
210
0.0
220
0.0
230
1.0
 70
     8
 71
     3
 72
    14
 73
    10
 74
     0
 42
0.000000001
 43
0.00000001
 40
0.0
 40
0.0
 40
0.0
 40
0.0
 40
0.2500000000000001
 40
0.2500000000000001
 40
0.5000000000000001
 40
0.5000000000000001
 40
0.7500000000000001
 40
0.7500000000000001
 40
1.0
 40
1.0
 40
1.0
 40
1.0
 10
9.999999999999988
 20
-5.606015432150459
 30
0.0
 10
9.705375595178669
 20
-5.74423006263245
 30
0.0
 10
9.408974837470677
 20
-5.864573218616583
 30
0.0
 10
8.821174641084323
 20
-6.066134421318256
 30
0.0
 10
8.530135326891598
 20
-6.1474714585166
 30
0.0
 10
7.940178188056798
 20
-6.270799851715019
 30
0.0
 10
7.643920814573934
 20
-6.312437063269057
 30
0.0
 10
7.057388844173184
 20
-6.354690505034486
 30
0.0
 10
6.765428579223763
 20
-6.355483059766952
 30
0.0
 10
6.470210358140728
 20
-6.335802843466112
 30
0.0
  0
SPLINE
  5
A9
330
1F
100
AcDbEntity
  8
외형선
  6
Continuous
370
    15
100
AcDbSpline
210
0.0
220
0.0
230
1.0
 70
     8
 71
     3
 72
    11
 73
     7
 74
     0
 42
0.000000001
 43
0.00000001
 40
0.0
 40
0.0
 40
0.0
 40
0.0
 40
0.2846996564065056
 40
0.5683244353969694
 40
0.852933188381226
 40
1.0
 40
1.0
 40
1.0
 40
1.0
 10
9.999999999999988
 20
5.606015432150452
 30
0.0
 10
9.704826892817836
 20
5.734114690715318
 30
0.0
 10
9.115595098157222
 20
5.989829571855523
 30
0.0
 10
8.2348372243125
 20
6.224333203879323
 30
0.0
 10
7.492682664744249
 20
6.345574018952067
 30
0.0
 10
7.046360117905047
 20
6.337481394706145
 30
0.0
 10
6.894303250897592
 20
6.334724332358705
 30
0.0
  0
LINE
  5
AA
330
1F
100
AcDbEntity
  8
외형선
  6
Continuous
370
    15
100
AcDbLine
 10
9.999999999999988
 20
5.606015432150452
 30
0.0
 11
9.999999999999988
 21
3.767761228063163
 31
0.0
  0
LINE
  5
AB
330
1F
100
AcDbEntity
  8
외형선
  6
Continuous
370
    15
100
AcDbLine
 10
6.470210358140726
 20
5.897555335605881
 30
0.0
 11
6.470210358140728
 21
0.4243432575187647
 31
0.0
  0
LINE
  5
AC
330
1F
100
AcDbEntity
  8
외형선
  6
Continuous
370
    15
100
AcDbLine
 10
-39.8
 20
6.34999999999999
 30
0.0
 11
-39.8
 21
-6.350000000000001
 31
0.0
  0
LINE
  5
AD
330
1F
100
AcDbEntity
  8
외형선
  6
Continuous
370
    15
100
AcDbLine
 10
-40.8
 20
5.34999999999999
 30
0.0
 11
-40.8
 21
-5.350000000000016
 31
0.0
  0
SPLINE
  5
AE
330
1F
100
AcDbEntity
  8
외형선
  6
Continuous
370
    15
100
AcDbSpline
210
0.0
220
0.0
230
1.0
 70
    24
 71
     3
 72
     9
 73
     5
 74
     0
 42
0.000000001
 43
0.00000001
 40
0.0
 40
0.0
 40
0.0
 40
0.0
 40
0.49921776293312
 40
1.0
 40
1.0
 40
1.0
 40
1.0
 10
9.999999999999988
 20
-5.164850210841472
 30
0.0
 10
9.999999999999988
 20
-5.232458330742076
 30
0.0
 10
9.999999999999988
 20
-5.36788644432397
 30
0.0
 10
9.999999999999988
 20
-5.526556357883105
 30
0.0
 10
9.999999999999988
 20
-5.606015432150459
 30
0.0
  0
SPLINE
  5
B2
330
1F
100
AcDbEntity
  8
외형선
  6
Continuous
370
    15
100
AcDbSpline
210
0.0
220
0.0
230
1.0
 70
    24
 71
     3
 72
    24
 73
    20
 74
     0
 42
0.000000001
 43
0.00000001
 40
0.0
 40
0.0
 40
0.0
 40
0.0
 40
0.0625
 40
0.0625
 40
0.125
 40
0.125
 40
0.25
 40
0.25
 40
0.3749999999999999
 40
0.3749999999999999
 40
0.4999999999999999
 40
0.4999999999999999
 40
0.6249999999999999
 40
0.6249999999999999
 40
0.75
 40
0.75
 40
0.875
 40
0.875
 40
1.0
 40
1.0
 40
1.0
 40
1.0
 10
9.999999999999988
 20
3.767761228063248
 30
0.0
 10
9.999999999999988
 20
3.689320214778038
 30
0.0
 10
9.999999999999988
 20
3.610625019737323
 30
0.0
 10
9.999999999999988
 20
3.453905449575553
 30
0.0
 10
9.999999999999988
 20
3.372545740845428
 30
0.0
 10
9.999999999999988
 20
3.109066912338768
 30
0.0
 10
9.999999999999988
 20
2.911200562210948
 30
0.0
 10
9.999999999999988
 20
2.464571461335437
 30
0.0
 10
9.999999999999988
 20
2.215665972465799
 30
0.0
 10
9.999999999999988
 20
1.664994750658382
 30
0.0
 10
9.999999999999988
 20
1.363046944688467
 30
0.0
 10
9.999999999999988
 20
0.7140111164508363
 30
0.0
 10
9.999999999999988
 20
0.366800969806699
 30
0.0
 10
9.999999999999988
 20
-0.3503075946594804
 30
0.0
 10
9.999999999999988
 20
-0.7200931827299868
 30
0.0
 10
9.999999999999988
 20
-1.444329667352382
 30
0.0
 10
9.999999999999988
 20
-1.798337180956125
 30
0.0
 10
9.999999999999988
 20
-2.445626910607511
 30
0.0
 10
9.999999999999988
 20
-2.738342425724193
 30
0.0
 10
9.999999999999988
 20
-2.982463910005797
 30
0.0
  0
SPLINE
  5
C2
330
1F
100
AcDbEntity
  8
외형선
  6
Continuous
370
    15
100
AcDbSpline
210
0.0
220
0.0
230
1.0
 70
    24
 71
     3
 72
     9
 73
     5
 74
     0
 42
0.000000001
 43
0.00000001
 40
0.0
 40
0.0
 40
0.0
 40
0.0
 40
0.4992177629341465
 40
1.0
 40
1.0
 40
1.0
 40
1.0
 10
9.999999999999988
 20
-5.164850210841472
 30
0.0
 10
9.999999999999988
 20
-5.232458330742075
 30
0.0
 10
9.999999999999988
 20
-5.367886444323684
 30
0.0
 10
9.999999999999988
 20
-5.526556357882466
 30
0.0
 10
9.999999999999988
 20
-5.606015432149478
 30
0.0
  0
LINE
  5
D0
330
1F
100
AcDbEntity
  8
중심선
100
AcDbLine
 10
-43.8
 20
-0.0000000000000053
 30
0.0
 11
38.40000000000001
 21
0.0000000000000047
 31
0.0
  0
LINE
  5
D1
330
1F
100
AcDbEntity
  8
참조1
100
AcDbLine
 10
-2.699999999999998
 20
-0.0000000000000035
 30
0.0
 11
-2.699999999999989
 21
-40.0
 31
0.0
  0
LINE
  5
D2
330
1F
100
AcDbEntity
  8
참조1
100
AcDbLine
 10
-19.72860765519647
 20
-6.033129419067262
 30
0.0
 11
48.413972688396
 21
-6.033129419067262
 31
0.0
  0
LINE
  5
D3
330
1F
100
AcDbEntity
  8
참조1
100
AcDbLine
 10
48.413972688396
 20
-6.033129419067262
 30
0.0
 11
48.413972688396
 21
-6.610378025244112
 31
0.0
  0
LINE
  5
D4
330
1F
100
AcDbEntity
  8
참조1
100
AcDbLine
 10
-2.699999999999989
 20
-40.0
 30
0.0
 11
-24.19604980726569
 21
-40.0
 31
0.0
  0
CIRCLE
  5
D5
330
1F
100
AcDbEntity
  8
해칭선
100
AcDbCircle
 10
0.0
 20
-0.0000000000000001
 30
0.0
 40
3.000000000000005
  0
INSERT
  5
D6
330
1F
100
AcDbEntity
  8
0
  6
Continuous
 62
     7
100
AcDbBlockReference
 66
     1
  2
블럭10
 10
-16.6402729321252
 20
-52.04717430164393
 30
0.0
  0
ATTRIB
  5
D7
330
D6
100
AcDbEntity
  8
FORMAT
 62
     2
100
AcDbText
 10
-26.16258688272313
 20
-49.97180738881173
 30
0.0
 40
4.233333333333333
  1
EH969032 [ 4 FLUTE ]
 41
0.75
  7
SLDTEXTSTYLE0
 11
-26.16258688272313
 21
-52.0884740554784
 31
0.0
100
AcDbAttribute
  2
AUTOATTR0
 70
     0
 74
     1
  0
SEQEND
  5
D8
330
D6
100
AcDbEntity
  8
0
  6
Continuous
 62
     7
  0
HATCH
  5
D9
330
1F
100
AcDbEntity
  8
중심선
100
AcDbHatch
 10
0.0
 20
0.0
 30
0.0
210
0.0
220
0.0
230
1.0
  2
SOLID
 70
     1
 71
     0
 91
        1
 92
        0
 93
        4
 72
     1
 10
-10.92536362774435
 20
-35.8
 11
-14.37163887158163
 21
-35.8
 72
     1
 10
-14.37163887158163
 20
-35.8
 11
-16.49986873078565
 21
-38.33632558057259
 72
     1
 10
-16.49986873078565
 20
-38.33632558057259
 11
-13.0535604018352
 21
-38.3362861512701
 72
     1
 10
-13.0535604018352
 20
-38.3362861512701
 11
-10.92536362774435
 21
-35.8
 97
        0
 75
     0
 76
     1
 98
        1
 10
0.0
 20
0.0
  0
HATCH
  5
DA
330
1F
100
AcDbEntity
  8
중심선
100
AcDbHatch
 10
0.0
 20
0.0
 30
0.0
210
0.0
220
0.0
230
1.0
  2
SOLID
 70
     1
 71
     0
 91
        1
 92
        0
 93
        4
 72
     1
 10
-5.912599636708399
 20
-35.80000000000003
 11
-9.358874880545653
 21
-35.80000000000003
 72
     1
 10
-9.358874880545653
 20
-35.80000000000003
 11
-13.89001288890307
 21
-41.20000000000002
 72
     1
 10
-13.89001288890307
 20
-41.20000000000002
 11
-10.44373764506579
 21
-41.20000000000002
 72
     1
 10
-10.44373764506579
 20
-41.20000000000002
 11
-5.912599636708399
 21
-35.80000000000003
 97
        0
 75
     0
 76
     1
 98
        1
 10
0.0
 20
0.0
  0
HATCH
  5
DB
330
1F
100
AcDbEntity
  8
중심선
100
AcDbHatch
 10
0.0
 20
0.0
 30
0.0
210
0.0
220
0.0
230
1.0
  2
SOLID
 70
     1
 71
     0
 91
        1
 92
        0
 93
        4
 72
     1
 10
-0.8998356456725032
 20
-35.8
 11
-4.346110889509647
 21
-35.8
 72
     1
 10
-4.346110889509647
 20
-35.8
 11
-11.39454779139887
 21
-44.20000000000002
 72
     1
 10
-11.39454779139887
 20
-44.20000000000002
 11
-7.948272547561586
 21
-44.20000000000002
 72
     1
 10
-7.948272547561586
 20
-44.20000000000002
 11
-0.8998356456725034
 21
-35.8
 97
        0
 75
     0
 76
     1
 98
        1
 10
0.0
 20
0.0
  0
HATCH
  5
DC
330
1F
100
AcDbEntity
  8
중심선
100
AcDbHatch
 10
0.0
 20
0.0
 30
0.0
210
0.0
220
0.0
230
1.0
  2
SOLID
 70
     1
 71
     0
 91
        1
 92
        0
 93
        6
 72
     3
 10
3.900054785339696
 20
-40.00000000005127
 11
3.960054785062284
 21
1.540850780301639E-10
 40
0.3939339440162633
 50
17.09539180608434
 51
320.0019657685073
 73
     0
 72
     1
 10
5.583054441040291
 20
-38.58789400463827
 11
7.888356314741357
 21
-36.65356729459035
 72
     3
 10
3.90005478528685
 20
-40.00000000000015
 11
6.600054785286829
 21
-1.249000902703301E-13
 40
0.6363583540795982
 50
39.99873849337412
 51
368.4976242363724
 73
     1
 72
     1
 10
10.32538727718746
 20
-39.03999999993002
 11
2.580122092122772
 21
-39.03999999993002
 72
     1
 10
2.580122092122772
 20
-39.03999999993002
 11
2.580097047676838
 21
-40.95999999992991
 72
     1
 10
2.580097047676838
 20
-40.95999999992991
 11
7.021476817148875
 21
-40.95999999992988
 97
        0
 75
     0
 76
     1
 98
        1
 10
0.0
 20
0.0
  0
POINT
  5
DD
330
1F
100
AcDbEntity
  8
치수문자_일반주서
100
AcDbPoint
 10
0.0000000000000033
 20
-0.3168705809327382
 30
0.0
  0
DIMENSION
  5
DE
330
1F
100
AcDbEntity
  8
치수문자_일반주서
100
AcDbDimension
  2
_D
 10
52.76460935071222
 20
-6.349999999999902
 30
0.0
 11
52.76460935071212
 21
23.43325000000016
 31
0.0
 70
   160
  1
%%c<>
 71
     2
 42
12.70000000000007
 52
-270.0
  3
SLDDIMSTYLE0
100
AcDbAlignedDimension
 13
6.895306826579453
 23
6.350000000000003
 33
0.0
 14
25.42500041513762
 24
-6.350000000000003
 34
0.0
 50
90.0000000000002
100
AcDbRotatedDimension
1001
ACAD
1000
DSTYLE
1002
{
1070
   171
1070
     6
1070
   273
1070
     7
1002
}
  0
DIMENSION
  5
F1
330
1F
100
AcDbEntity
  8
치수문자_일반주서
100
AcDbDimension
  2
_D_1
 10
-50.60999999999999
 20
-6.350000000000039
 30
0.0
 11
-50.61000000000001
 21
-1.017344347620627
 31
0.0
 70
   160
  1
%%c<>
 71
     2
 42
12.69999999999999
 52
-270.0
  3
SLDDIMSTYLE1
100
AcDbAlignedDimension
 13
-39.8
 23
6.349999999999991
 33
0.0
 14
-39.8
 24
-6.349999999999998
 34
0.0
 50
90.0000000000002
100
AcDbRotatedDimension
1001
ACAD
1000
DSTYLE
1002
{
1070
   171
1070
     6
1070
   273
1070
     7
1002
}
  0
DIMENSION
  5
106
330
1F
100
AcDbEntity
  8
치수문자_일반주서
100
AcDbDimension
  2
_D_2
 10
9.999999999999988
 20
23.04896884953977
 30
0.0
 11
22.69999999999999
 21
23.04896884953977
 31
0.0
 70
   160
  1
<>
 71
     2
 42
25.40000000000001
  3
SLDDIMSTYLE0
100
AcDbAlignedDimension
 13
35.39999999999999
 23
5.721253686911627
 33
0.0
 14
9.999999999999988
 24
5.606015432150452
 34
0.0
 50
0.000000000000008
100
AcDbRotatedDimension
1001
ACAD
1000
DSTYLE
1002
{
1070
   171
1070
     6
1070
   273
1070
     7
1002
}
  0
DIMENSION
  5
11A
330
1F
100
AcDbEntity
  8
치수문자_일반주서
100
AcDbDimension
  2
_D_3
 10
-40.80000000000001
 20
39.71863385053561
 30
0.0
 11
0.6315440708370023
 21
39.71863385053561
 31
0.0
 70
   160
  1
<>
 71
     2
 42
76.19999999999999
  3
SLDDIMSTYLE0
100
AcDbAlignedDimension
 13
35.39999999999999
 23
5.721253686911627
 33
0.0
 14
-40.8
 24
5.34999999999999
 34
0.0
100
AcDbRotatedDimension
1001
ACAD
1000
DSTYLE
1002
{
1070
   171
1070
     6
1070
   273
1070
     7
1002
}
  0
LINE
  5
12D
330
1F
100
AcDbEntity
  8
참조1
100
AcDbLine
 10
73.77629082238857
 20
7.440000000000002
 30
0.0
 11
73.77629082238857
 21
-7.440000000000002
 31
0.0
  0
LINE
  5
12E
330
1F
100
AcDbEntity
  8
참조1
100
AcDbLine
 10
86.47629082238858
 20
5.440000000000002
 30
0.0
 11
73.77629082238857
 21
5.440000000000002
 31
0.0
  0
SOLID
  5
12F
330
1F
100
AcDbEntity
  8
참조1
100
AcDbTrace
 10
73.77629082238857
 20
5.440000000000002
 30
0.0
 11
80.12629082238857
 21
4.424000000000002
 31
0.0
 12
80.12629082238857
 22
6.456000000000002
 32
0.0
 13
80.12629082238857
 23
6.456000000000002
 33
0.0
  0
LINE
  5
130
330
1F
100
AcDbEntity
  8
참조1
100
AcDbLine
 10
86.47629082238858
 20
-5.440000000000002
 30
0.0
 11
73.77629082238857
 21
-5.440000000000002
 31
0.0
  0
SOLID
  5
131
330
1F
100
AcDbEntity
  8
참조1
100
AcDbTrace
 10
73.77629082238857
 20
-5.440000000000002
 30
0.0
 11
80.12629082238857
 21
-6.456000000000002
 31
0.0
 12
80.12629082238857
 22
-4.424000000000002
 32
0.0
 13
80.12629082238857
 23
-4.424000000000002
 33
0.0
  0
MTEXT
  5
132
330
1F
100
AcDbEntity
  8
참조1
100
AcDbMText
 10
83.37640563295113
 20
11.06571756601608
 30
0.0
 40
3.5
 41
0.0
 71
     1
 72
     1
  1
A
  7
SLDTEXTSTYLE0
 73
     1
 44
1.0
  0
MTEXT
  5
133
330
1F
100
AcDbEntity
  8
참조1
100
AcDbMText
 10
83.37640563295113
 20
0.1857175660160736
 30
0.0
 40
3.5
 41
0.0
 71
     1
 72
     1
  1
A
  7
SLDTEXTSTYLE0
 73
     1
 44
1.0
  0
INSERT
  5
13A
330
1F
100
AcDbEntity
  8
해칭선
100
AcDbBlockReference
  2
SW_DOWELSYMBOL_0
 10
0.0
 20
-0.0000000000000001
 30
0.0
  0
LINE
  5
3F2
330
1F
100
AcDbEntity
  8
외형선
  6
Continuous
 62
     1
370
    15
100
AcDbLine
 10
27.06031926870346
 20
6.235247477889063
 30
0.0
 11
27.00219232241311
 21
6.274001051982248
 31
0.0
  0
LINE
  5
3F3
330
1F
100
AcDbEntity
  8
외형선
  6
Continuous
 62
     1
370
    15
100
AcDbLine
 10
17.07754213015237
 20
6.225868438680971
 30
0.0
 11
17.00219316681224
 21
6.274001051982248
 31
0.0
  0
SPLINE
  5
3F5
330
1F
100
AcDbEntity
  8
외형선
  6
Continuous
 62
     1
370
    15
100
AcDbSpline
210
0.0
220
0.0
230
1.0
 70
     8
 71
     3
 72
     9
 73
     5
 74
     0
 42
0.000000001
 43
0.00000001
 40
0.0
 40
0.0
 40
0.0
 40
0.0
 40
0.4982452857612906
 40
1.0
 40
1.0
 40
1.0
 40
1.0
 10
27.00219232241311
 20
6.274001051982248
 30
0.0
 10
26.96873215887679
 20
6.295910678948369
 30
0.0
 10
26.90157615260337
 20
6.339884255000664
 30
0.0
 10
26.82320067508674
 20
6.346620257480221
 30
0.0
 10
26.78387540976205
 20
6.350000078479448
 30
0.0
  0
SPLINE
  5
3F6
330
1F
100
AcDbEntity
  8
외형선
  6
Continuous
 62
     1
370
    15
100
AcDbSpline
210
0.0
220
0.0
230
1.0
 70
     8
 71
     3
 72
     9
 73
     5
 74
     0
 42
0.000000001
 43
0.00000001
 40
0.0
 40
0.0
 40
0.0
 40
0.0
 40
0.4982464040356857
 40
1.0
 40
1.0
 40
1.0
 40
1.0
 10
17.00219316681224
 20
6.274001051982248
 30
0.0
 10
16.96873253079564
 20
6.295910678666305
 30
0.0
 10
16.90157572696207
 20
6.339884155457292
 30
0.0
 10
16.8232002099128
 20
6.346620229237538
 30
0.0
 10
16.78387501239776
 20
6.350000078479448
 30
0.0
  0
SPLINE
  5
3F8
330
1F
100
AcDbEntity
  8
외형선
  6
Continuous
 62
     1
370
    15
100
AcDbSpline
210
0.0
220
0.0
230
1.0
 70
     8
 71
     3
 72
    11
 73
     7
 74
     0
 42
0.000000001
 43
0.00000001
 40
0.0
 40
0.0
 40
0.0
 40
0.0
 40
0.15185436487732
 40
0.4390224248099825
 40
0.7262120466483682
 40
1.0
 40
1.0
 40
1.0
 40
1.0
 10
14.07651407917338
 20
-6.232342993219701
 30
0.0
 10
14.10970281522991
 20
-6.211540960680663
 30
0.0
 10
14.20565395493991
 20
-6.151400715297255
 30
0.0
 10
14.39887588732258
 20
-6.125830532036302
 30
0.0
 10
14.62123299399859
 20
-6.158431379331146
 30
0.0
 10
14.74267337094539
 20
-6.236935789895324
 30
0.0
 10
14.80194296340146
 20
-6.275250265995664
 30
0.0
  0
LINE
  5
3F9
330
1F
100
AcDbEntity
  8
외형선
  6
Continuous
 62
     1
370
    15
100
AcDbLine
 10
26.78382077217102
 20
6.350000078479448
 30
0.0
 11
26.01748385429382
 21
6.350000078479448
 31
0.0
  0
SPLINE
  5
3FA
330
1F
100
AcDbEntity
  8
외형선
  6
Continuous
 62
     1
370
    15
100
AcDbSpline
210
0.0
220
0.0
230
1.0
 70
     8
 71
     3
 72
    11
 73
     7
 74
     0
 42
0.000000001
 43
0.00000001
 40
0.0
 40
0.0
 40
0.0
 40
0.0
 40
0.1608565760231981
 40
0.4449419076331294
 40
0.7290496258620677
 40
1.0
 40
1.0
 40
1.0
 40
1.0
 10
24.06997162501016
 20
-6.236208602786062
 30
0.0
 10
24.10543763751905
 20
-6.213898095483043
 30
0.0
 10
24.20353941024094
 20
-6.152185482140878
 30
0.0
 10
24.39930870911532
 20
-6.125774708912884
 30
0.0
 10
24.62168895824108
 20
-6.158650431761414
 30
0.0
 10
24.74301715637508
 20
-6.237135012062579
 30
0.0
 10
24.80224324663478
 20
-6.275447085499762
 30
0.0
  0
LINE
  5
3FB
330
1F
100
AcDbEntity
  8
외형선
  6
Continuous
 62
     1
370
    15
100
AcDbLine
 10
16.7837930560112
 20
6.350000078479448
 30
0.0
 11
16.0174524128437
 21
6.350000078479448
 31
0.0
  0
SPLINE
  5
3FC
330
1F
100
AcDbEntity
  8
외형선
  6
Continuous
 62
     1
370
    15
100
AcDbSpline
210
0.0
220
0.0
230
1.0
 70
     8
 71
     3
 72
    11
 73
     7
 74
     0
 42
0.000000001
 43
0.00000001
 40
0.0
 40
0.0
 40
0.0
 40
0.0
 40
0.1740496112098005
 40
0.453634295661995
 40
0.7332440473059452
 40
0.9999999999999999
 40
0.9999999999999999
 40
0.9999999999999999
 40
0.9999999999999999
 10
34.05972995758056
 20
-6.242082143823309
 30
0.0
 10
34.09862715794448
 20
-6.217474580438177
 30
0.0
 10
34.20000689655858
 20
-6.153338644674931
 30
0.0
 10
34.3996456858894
 20
-6.125642016999704
 30
0.0
 10
34.62208358843528
 20
-6.158847240801704
 30
0.0
 10
34.74329731231457
 20
-6.237295833350883
 30
0.0
 10
34.8024783372879
 20
-6.275597338875142
 30
0.0
  0
SPLINE
  5
3FE
330
1F
100
AcDbEntity
  8
외형선
  6
Continuous
 62
     1
370
    15
100
AcDbSpline
210
0.0
220
0.0
230
1.0
 70
     8
 71
     3
 72
     9
 73
     5
 74
     0
 42
0.000000001
 43
0.00000001
 40
0.0
 40
0.0
 40
0.0
 40
0.0
 40
0.4989205591095898
 40
1.0
 40
1.0
 40
1.0
 40
1.0
 10
14.8000449279944
 20
-6.273878738284109
 30
0.0
 10
14.83396399872861
 20
-6.296065030523094
 30
0.0
 10
14.90194891158685
 20
-6.340533617423132
 30
0.0
 10
14.9813390373834
 20
-6.346711002648857
 30
0.0
 10
15.02111979722976
 20
-6.349806363383932
 30
0.0
  0
SPLINE
  5
3FF
330
1F
100
AcDbEntity
  8
외형선
  6
Continuous
 62
     1
370
    15
100
AcDbSpline
210
0.0
220
0.0
230
1.0
 70
     8
 71
     3
 72
     9
 73
     5
 74
     0
 42
0.000000001
 43
0.00000001
 40
0.0
 40
0.0
 40
0.0
 40
0.0
 40
0.498918315462715
 40
1.0
 40
1.0
 40
1.0
 40
1.0
 10
24.80003787477809
 20
-6.273873150348662
 30
0.0
 10
24.83394730025642
 20
-6.29605572866353
 30
0.0
 10
24.90191318650956
 20
-6.340517071587567
 30
0.0
 10
24.98128589563003
 20
-6.346711674531489
 30
0.0
 10
25.02105810642242
 20
-6.349815676609677
 30
0.0
  0
SPLINE
  5
400
330
1F
100
AcDbEntity
  8
외형선
  6
Continuous
 62
     1
370
    15
100
AcDbSpline
210
0.0
220
0.0
230
1.0
 70
     8
 71
     3
 72
     9
 73
     5
 74
     0
 42
0.000000001
 43
0.00000001
 40
0.0
 40
0.0
 40
0.0
 40
0.0
 40
0.8682769192448677
 40
1.0
 40
1.0
 40
1.0
 40
1.0
 10
34.80004448095956
 20
-6.273878738284109
 30
0.0
 10
34.82924899546088
 20
-6.295686350486163
 30
0.0
 10
34.86288401886641
 20
-6.320802314896467
 30
0.0
 10
34.90242929036818
 20
-6.328711874968858
 30
0.0
 10
34.90763831535974
 20
-6.329753746589033
 30
0.0
  0
SPLINE
  5
401
330
1F
100
AcDbEntity
  8
외형선
  6
Continuous
 62
     1
370
    15
100
AcDbSpline
210
0.0
220
0.0
230
1.0
 70
     8
 71
     3
 72
     9
 73
     5
 74
     0
 42
0.000000001
 43
0.00000001
 40
0.0
 40
0.0
 40
0.0
 40
0.0
 40
0.5010863366244599
 40
0.9999999999999999
 40
0.9999999999999999
 40
0.9999999999999999
 40
0.9999999999999999
 10
26.01620732148486
 20
6.34981691837311
 30
0.0
 10
25.97712378017549
 20
6.346194491772566
 30
0.0
 10
25.89912616089764
 20
6.338965345144965
 30
0.0
 10
25.83256596458746
 20
6.295176240552999
 30
0.0
 10
25.79935817321139
 20
6.27332925796509
 30
0.0
  0
SPLINE
  5
402
330
1F
100
AcDbEntity
  8
외형선
  6
Continuous
 62
     1
370
    15
100
AcDbSpline
210
0.0
220
0.0
230
1.0
 70
     8
 71
     3
 72
     9
 73
     5
 74
     0
 42
0.000000001
 43
0.00000001
 40
0.0
 40
0.0
 40
0.0
 40
0.0
 40
0.5010994702795778
 40
1.0
 40
1.0
 40
1.0
 40
1.0
 10
16.01640436450639
 20
6.349845478932062
 30
0.0
 10
15.97722832442328
 20
6.346216631645698
 30
0.0
 10
15.89904815779649
 20
6.338974861295506
 30
0.0
 10
15.83229724611961
 20
6.29497729680162
 30
0.0
 10
15.79899518092471
 20
6.2730268885692
 30
0.0
  0
LINE
  5
404
330
1F
100
AcDbEntity
  8
외형선
  6
Continuous
 62
     1
370
    15
100
AcDbLine
 10
15.01725418766337
 20
-6.350000078479452
 30
0.0
 11
15.7824077049891
 21
-6.350000078479452
 31
0.0
  0
LINE
  5
405
330
1F
100
AcDbEntity
  8
외형선
  6
Continuous
 62
     1
370
    15
100
AcDbLine
 10
25.01721112330752
 20
-6.350000078479452
 30
0.0
 11
25.78243293762207
 21
-6.350000078479452
 31
0.0
  0
SPLINE
  5
406
330
1F
100
AcDbEntity
  8
외형선
  6
Continuous
 62
     1
370
    15
100
AcDbSpline
210
0.0
220
0.0
230
1.0
 70
     8
 71
     3
 72
    11
 73
     7
 74
     0
 42
0.000000001
 43
0.00000001
 40
0.0
 40
0.0
 40
0.0
 40
0.0
 40
0.2448146100909787
 40
0.5001278439751721
 40
0.7553836794704902
 40
1.0
 40
1.0
 40
1.0
 40
1.0
 10
25.80194104115167
 20
6.275249645113947
 30
0.0
 10
25.74330866857482
 20
6.237283728844468
 30
0.0
 10
25.62352953417964
 20
6.159723766874295
 30
0.0
 10
25.40121925382805
 20
6.124891354369995
 30
0.0
 10
25.17890424063878
 20
6.159733985383555
 30
0.0
 10
25.05899780320114
 20
6.237367658655367
 30
0.0
 10
25.0003206570943
 20
6.275358299414316
 30
0.0
  0
LINE
  5
407
330
1F
100
AcDbEntity
  8
외형선
  6
Continuous
 62
     1
370
    15
100
AcDbLine
 10
34.91834231615066
 20
-6.324991583824156
 30
0.0
 11
35.40000000000001
 21
-5.843333279093114
 31
0.0
  0
SPLINE
  5
408
330
1F
100
AcDbEntity
  8
외형선
  6
Continuous
 62
     1
370
    15
100
AcDbSpline
210
0.0
220
0.0
230
1.0
 70
     8
 71
     3
 72
    11
 73
     7
 74
     0
 42
0.000000001
 43
0.00000001
 40
0.0
 40
0.0
 40
0.0
 40
0.0
 40
0.2448246109549875
 40
0.5001290878413069
 40
0.7553765372865742
 40
1.0
 40
1.0
 40
1.0
 40
1.0
 10
15.80185868740081
 20
6.275194386641183
 30
0.0
 10
15.74323299806214
 20
6.237240772794914
 30
0.0
 10
15.62347211120256
 20
6.159708917646961
 30
0.0
 10
15.4011705984246
 20
6.12489175604737
 30
0.0
 10
15.1788635322957
 20
6.159748799249856
 30
0.0
 10
15.05897540394067
 20
6.237378804773295
 30
0.0
 10
15.00030535856881
 20
6.275368854403498
 30
0.0
  0
SPLINE
  5
40A
330
1F
100
AcDbEntity
  8
외형선
  6
Continuous
 62
     1
370
    15
100
AcDbSpline
210
0.0
220
0.0
230
1.0
 70
     8
 71
     3
 72
     9
 73
     5
 74
     0
 42
0.000000001
 43
0.00000001
 40
0.0
 40
0.0
 40
0.0
 40
0.0
 40
0.5019270478503162
 40
1.0
 40
1.0
 40
1.0
 40
1.0
 10
15.78188616434732
 20
-6.349876523017882
 30
0.0
 10
15.82153740522795
 20
-6.346732621241471
 30
0.0
 10
15.90053542107608
 20
-6.340468958444502
 30
0.0
 10
15.96838313027555
 20
-6.296108723616924
 30
0.0
 10
16.00217623909312
 20
-6.274014090498296
 30
0.0
  0
SPLINE
  5
40C
330
1F
100
AcDbEntity
  8
외형선
  6
Continuous
 62
     1
370
    15
100
AcDbSpline
210
0.0
220
0.0
230
1.0
 70
     8
 71
     3
 72
     9
 73
     5
 74
     0
 42
0.000000001
 43
0.00000001
 40
0.0
 40
0.0
 40
0.0
 40
0.0
 40
0.5019525694865505
 40
1.0
 40
1.0
 40
1.0
 40
1.0
 10
25.78159102201461
 20
-6.349837407469748
 30
0.0
 10
25.82129212721957
 20
-6.346734021722595
 30
0.0
 10
25.90038546714523
 20
-6.340551394247795
 30
0.0
 10
25.96833718384592
 20
-6.296133716996037
 30
0.0
 10
26.00218036174774
 20
-6.274011606971426
 30
0.0
  0
LINE
  5
40D
330
1F
100
AcDbEntity
  8
외형선
  6
Continuous
 62
     1
370
    15
100
AcDbLine
 10
35.40000000000001
 20
5.843333279093111
 30
0.0
 11
34.9285744468371
 21
6.314757590492571
 31
0.0
  0
SPLINE
  5
40E
330
1F
100
AcDbEntity
  8
외형선
  6
Continuous
 62
     1
370
    15
100
AcDbSpline
210
0.0
220
0.0
230
1.0
 70
     8
 71
     3
 72
     9
 73
     5
 74
     0
 42
0.000000001
 43
0.00000001
 40
0.0
 40
0.0
 40
0.0
 40
0.0
 40
0.4984825658930221
 40
0.9999999999999999
 40
0.9999999999999999
 40
0.9999999999999999
 40
0.9999999999999999
 10
25.00241923729577
 20
6.273822238047922
 30
0.0
 10
24.96934070921832
 20
6.295529073635558
 30
0.0
 10
24.90298226392715
 20
6.339074900657105
 30
0.0
 10
24.82531007977348
 20
6.346222806000378
 30
0.0
 10
24.78635612527528
 20
6.349807605147364
 30
0.0
  0
SPLINE
  5
40F
330
1F
100
AcDbEntity
  8
외형선
  6
Continuous
 62
     1
370
    15
100
AcDbSpline
210
0.0
220
0.0
230
1.0
 70
     8
 71
     3
 72
     9
 73
     5
 74
     0
 42
0.000000001
 43
0.00000001
 40
0.0
 40
0.0
 40
0.0
 40
0.0
 40
0.4985380946158935
 40
1.0
 40
1.0
 40
1.0
 40
1.0
 10
15.0019395192464
 20
6.274197871486345
 30
0.0
 10
14.96894137822814
 20
6.295805782444356
 30
0.0
 10
14.90275156971679
 20
6.339148329766951
 30
0.0
 10
14.82522451901325
 20
6.346248421421366
 30
0.0
 10
14.78634765644866
 20
6.349808846910799
 30
0.0
  0
SPLINE
  5
411
330
1F
100
AcDbEntity
  8
외형선
  6
Continuous
 62
     1
370
    15
100
AcDbSpline
210
0.0
220
0.0
230
1.0
 70
     8
 71
     3
 72
     9
 73
     5
 74
     0
 42
0.000000001
 43
0.00000001
 40
0.0
 40
0.0
 40
0.0
 40
0.0
 40
0.4939020030540943
 40
1.0
 40
1.0
 40
1.0
 40
1.0
 10
15.99950644771257
 20
-6.275879219174383
 30
0.0
 10
16.05862506472709
 20
-6.23663992004701
 30
0.0
 10
16.17832212335206
 20
-6.157192380080103
 30
0.0
 10
16.32402739503427
 20
-6.144083614387936
 30
0.0
 10
16.39776854117709
 20
-6.137449294328688
 30
0.0
  0
SPLINE
  5
412
330
1F
100
AcDbEntity
  8
외형선
  6
Continuous
 62
     1
370
    15
100
AcDbSpline
210
0.0
220
0.0
230
1.0
 70
     8
 71
     3
 72
     9
 73
     5
 74
     0
 42
0.000000001
 43
0.00000001
 40
0.0
 40
0.0
 40
0.0
 40
0.0
 40
0.2099876162790711
 40
0.9999999999999999
 40
0.9999999999999999
 40
0.9999999999999999
 40
0.9999999999999999
 10
34.92650815248489
 20
6.315549214680994
 30
0.0
 10
34.91757838384028
 20
6.32081339365187
 30
0.0
 10
34.87505316829267
 20
6.345882390882077
 30
0.0
 10
34.82530737771182
 20
6.348103328413268
 30
0.0
 10
34.78600758711497
 20
6.349857896566393
 30
0.0
  0
LINE
  5
413
330
1F
100
AcDbEntity
  8
외형선
  6
Continuous
 62
     1
370
    15
100
AcDbLine
 10
34.78374509414035
 20
6.350000078479448
 30
0.0
 11
34.01860771973925
 21
6.350000078479448
 31
0.0
  0
SPLINE
  5
414
330
1F
100
AcDbEntity
  8
외형선
  6
Continuous
 62
     1
370
    15
100
AcDbSpline
210
0.0
220
0.0
230
1.0
 70
     8
 71
     3
 72
     9
 73
     5
 74
     0
 42
0.000000001
 43
0.00000001
 40
0.0
 40
0.0
 40
0.0
 40
0.0
 40
0.5051284949534123
 40
1.0
 40
1.0
 40
1.0
 40
1.0
 10
25.99969186782836
 20
-6.275763735175131
 30
0.0
 10
26.05880271448909
 20
-6.236401572703384
 30
0.0
 10
26.17582412043105
 20
-6.158476524195931
 30
0.0
 10
26.31819608368547
 20
-6.145474797985711
 30
0.0
 10
26.38865191141763
 20
-6.139040614167852
 30
0.0
  0
LINE
  5
415
330
1F
100
AcDbEntity
  8
외형선
  6
Continuous
 62
     1
370
    15
100
AcDbLine
 10
24.78282827536264
 20
6.350000078479448
 30
0.0
 11
24.01862594882646
 21
6.350000078479448
 31
0.0
  0
LINE
  5
416
330
1F
100
AcDbEntity
  8
외형선
  6
Continuous
 62
     1
370
    15
100
AcDbLine
 10
14.78287196060019
 20
6.350000078479448
 30
0.0
 11
14.01863796909648
 21
6.350000078479448
 31
0.0
  0
SPLINE
  5
426
330
1F
100
AcDbEntity
  8
외형선
  6
Continuous
 62
     1
370
    15
100
AcDbSpline
210
0.0
220
0.0
230
1.0
 70
     8
 71
     3
 72
    14
 73
    10
 74
     0
 42
0.000000001
 43
0.00000001
 40
0.0
 40
0.0
 40
0.0
 40
0.0
 40
0.0000774639406452
 40
0.0000774639406452
 40
0.0000774639406452
 40
0.0001596261908222
 40
0.0001596261908222
 40
0.0001596261908222
 40
0.0002439474106489
 40
0.0002439474106489
 40
0.0002439474106489
 40
0.0002439474106489
 10
15.56494550095586
 20
-1.51152743834131
 30
0.0
 10
15.54433632539163
 20
-1.492927442924382
 30
0.0
 10
15.52251499555341
 20
-1.472832479554653
 30
0.0
 10
15.50006892889353
 20
-1.4518047979153
 30
0.0
 10
15.4762601286581
 20
-1.429500494932013
 30
0.0
 10
15.45158554442056
 20
-1.405981535617612
 30
0.0
 10
15.42652075172079
 20
-1.38180718862258
 30
0.0
 10
15.40079828151234
 20
-1.356998528609508
 30
0.0
 10
15.37449063762246
 20
-1.331333628038577
 30
0.0
 10
15.34805184317866
 20
-1.305339577365223
 30
0.0
  0
SPLINE
  5
427
330
1F
100
AcDbEntity
  8
외형선
  6
Continuous
 62
     1
370
    15
100
AcDbSpline
210
0.0
220
0.0
230
1.0
 70
     8
 71
     3
 72
    12
 73
     8
 74
     0
 42
0.000000001
 43
0.00000001
 40
0.0
 40
0.0
 40
0.0
 40
0.0
 40
0.2500000000000001
 40
0.2500000000000001
 40
0.5
 40
0.5
 40
1.0
 40
1.0
 40
1.0
 40
1.0
 10
15.34805176569707
 20
-1.305338002195297
 30
0.0
 10
15.33630054300689
 20
-1.066440213043462
 30
0.0
 10
15.32483916441534
 20
-0.8265975418958489
 30
0.0
 10
15.30071702499099
 20
-0.3362725803173544
 30
0.0
 10
15.28832020969974
 20
-0.0875505096753014
 30
0.0
 10
15.25047377532433
 20
0.6618157283870418
 30
0.0
 10
15.22436367594158
 20
1.165605237693435
 30
0.0
 10
15.19845684113652
 20
1.652386266936234
 30
0.0
  0
SPLINE
  5
428
330
1F
100
AcDbEntity
  8
외형선
  6
Continuous
 62
     1
370
    15
100
AcDbSpline
210
0.0
220
0.0
230
1.0
 70
     8
 71
     3
 72
    14
 73
    10
 74
     0
 42
0.000000001
 43
0.00000001
 40
0.0
 40
0.0
 40
0.0
 40
0.0
 40
0.0000835178459695
 40
0.0000835178459695
 40
0.0000835178459695
 40
0.0001566789112429
 40
0.0001566789112429
 40
0.0001566789112429
 40
0.0002323646009647
 40
0.0002323646009647
 40
0.0002323646009647
 40
0.0002323646009647
 10
15.19845641318877
 20
1.652394307993754
 30
0.0
 10
15.2246785879931
 20
1.627027339266392
 30
0.0
 10
15.25118836211881
 20
1.600983102939539
 30
0.0
 10
15.27751049968122
 20
1.574821711880163
 30
0.0
 10
15.30057589740004
 20
1.551897172099488
 30
0.0
 10
15.3236501360686
 20
1.52873072552204
 30
0.0
 10
15.34628600688685
 20
1.505848968968381
 30
0.0
 10
15.36966840562072
 20
1.482212575221277
 30
0.0
 10
15.39281038860513
 20
1.458649070313734
 30
0.0
 10
15.41485403495331
 20
1.436139851113354
 30
0.0
  0
SPLINE
  5
429
330
1F
100
AcDbEntity
  8
외형선
  6
Continuous
 62
     1
370
    15
100
AcDbSpline
210
0.0
220
0.0
230
1.0
 70
     8
 71
     3
 72
    12
 73
     8
 74
     0
 42
0.000000001
 43
0.00000001
 40
0.0
 40
0.0
 40
0.0
 40
0.0
 40
0.25
 40
0.25
 40
0.5
 40
0.5
 40
1.0
 40
1.0
 40
1.0
 40
1.0
 10
15.56494550095572
 20
-1.511527438338609
 30
0.0
 10
15.55285053798805
 20
-1.273474394285371
 30
0.0
 10
15.5413711810425
 20
-1.0360137886949
 30
0.0
 10
15.51743974903572
 20
-0.5511216734900997
 30
0.0
 10
15.50509951709519
 20
-0.3043803570976407
 30
0.0
 10
15.46729902471653
 20
0.4413574812926713
 30
0.0
 10
15.44105142388039
 20
0.9458681484270541
 30
0.0
 10
15.41485403495507
 20
1.43613985108192
 30
0.0
  0
SPLINE
  5
42A
330
1F
100
AcDbEntity
  8
외형선
  6
Continuous
 62
     1
370
    15
100
AcDbSpline
210
0.0
220
0.0
230
1.0
 70
     8
 71
     3
 72
    14
 73
    10
 74
     0
 42
0.000000001
 43
0.00000001
 40
0.0
 40
0.0
 40
0.0
 40
0.0
 40
0.0000770831688956
 40
0.0000770831688956
 40
0.0000770831688956
 40
0.000158879815403
 40
0.000158879815403
 40
0.000158879815403
 40
0.0002428445135846
 40
0.0002428445135846
 40
0.0002428445135846
 40
0.0002428445135846
 10
25.56619396978501
 20
-1.536070909905432
 30
0.0
 10
25.54562641296316
 20
-1.517740007545582
 30
0.0
 10
25.52383894858058
 20
-1.497923833461086
 30
0.0
 10
25.50141389472193
 20
-1.477177706013789
 30
0.0
 10
25.47761665594517
 20
-1.455162126846473
 30
0.0
 10
25.4529309169855
 20
-1.431942658561395
 30
0.0
 10
25.42786063370331
 20
-1.408047039527125
 30
0.0
 10
25.40212682542428
 20
-1.383518984857189
 30
0.0
 10
25.37581395184016
 20
-1.358113130563096
 30
0.0
 10
25.34938245459718
 20
-1.332355902961629
 30
0.0
  0
SPLINE
  5
42B
330
1F
100
AcDbEntity
  8
외형선
  6
Continuous
 62
     1
370
    15
100
AcDbSpline
210
0.0
220
0.0
230
1.0
 70
     8
 71
     3
 72
    12
 73
     8
 74
     0
 42
0.000000001
 43
0.00000001
 40
0.0
 40
0.0
 40
0.0
 40
0.0
 40
0.2500000000000001
 40
0.2500000000000001
 40
0.5000000000000001
 40
0.5000000000000001
 40
1.0
 40
1.0
 40
1.0
 40
1.0
 10
25.34938239406192
 20
-1.332354675469573
 30
0.0
 10
25.33760350639405
 20
-1.09350448717302
 30
0.0
 10
25.32617791899789
 20
-0.8540694893744656
 30
0.0
 10
25.30210806632853
 20
-0.3643163638317743
 30
0.0
 10
25.28973338606049
 20
-0.1157914796813612
 30
0.0
 10
25.25193914927472
 20
0.6332788438761356
 30
0.0
 10
25.22584453033479
 20
1.137272689038157
 30
0.0
 10
25.19993179856197
 20
1.624658242235783
 30
0.0
  0
SPLINE
  5
42C
330
1F
100
AcDbEntity
  8
외형선
  6
Continuous
 62
     1
370
    15
100
AcDbSpline
210
0.0
220
0.0
230
1.0
 70
     8
 71
     3
 72
    14
 73
    10
 74
     0
 42
0.000000001
 43
0.00000001
 40
0.0
 40
0.0
 40
0.0
 40
0.0
 40
0.0000829593681411
 40
0.0000829593681411
 40
0.0000829593681411
 40
0.0001559742325412
 40
0.0001559742325412
 40
0.0001559742325412
 40
0.0002315418283832
 40
0.0002315418283832
 40
0.0002315418283832
 40
0.0002315418283832
 10
25.19993174257771
 20
1.624659295229081
 30
0.0
 10
25.22603949564239
 20
1.599490433266746
 30
0.0
 10
25.25244428736962
 20
1.573674924755893
 30
0.0
 10
25.27867269344252
 20
1.547768086612494
 30
0.0
 10
25.30176358297139
 20
1.52496029814271
 30
0.0
 10
25.32487208102011
 20
1.501929317499689
 30
0.0
 10
25.34754356812438
 20
1.479206261186805
 30
0.0
 10
25.37097242410865
 20
1.455724113261185
 30
0.0
 10
25.39416521694553
 20
1.432338765041793
 30
0.0
 10
25.4162480067197
 20
1.410039952604885
 30
0.0
  0
SPLINE
  5
42D
330
1F
100
AcDbEntity
  8
외형선
  6
Continuous
 62
     1
370
    15
100
AcDbSpline
210
0.0
220
0.0
230
1.0
 70
     8
 71
     3
 72
    12
 73
     8
 74
     0
 42
0.000000001
 43
0.00000001
 40
0.0
 40
0.0
 40
0.0
 40
0.0
 40
0.25
 40
0.25
 40
0.5
 40
0.5
 40
1.0
 40
1.0
 40
1.0
 40
1.0
 10
25.56619396978489
 20
-1.536070909901737
 30
0.0
 10
25.55407813335861
 20
-1.298167390318005
 30
0.0
 10
25.54258436010041
 20
-1.06083383356482
 30
0.0
 10
25.51871139025802
 20
-0.5766719997143622
 30
0.0
 10
25.50639701464575
 20
-0.3302185568495287
 30
0.0
 10
25.46866145602197
 20
0.4149247732950004
 30
0.0
 10
25.44243994879311
 20
0.9194050306741861
 30
0.0
 10
25.41624800672294
 20
1.410039952543856
 30
0.0
  0
SPLINE
  5
42E
330
1F
100
AcDbEntity
  8
외형선
  6
Continuous
 62
     1
370
    15
100
AcDbSpline
210
0.0
220
0.0
230
1.0
 70
     8
 71
     3
 72
    14
 73
    10
 74
     0
 42
0.000000001
 43
0.00000001
 40
0.0
 40
0.0
 40
0.0
 40
0.0
 40
0.0000825708095055
 40
0.0000825708095055
 40
0.0000825708095055
 40
0.0001555326320944
 40
0.0001555326320944
 40
0.0001555326320944
 40
0.0002310552253596
 40
0.0002310552253596
 40
0.0002310552253596
 40
0.0002310552253596
 10
34.54667015679714
 20
-0.563880856503941
 30
0.0
 10
34.52067702191649
 20
-0.5380774027874209
 30
0.0
 10
34.49439035704423
 20
-0.5121168194699719
 30
0.0
 10
34.46828163624641
 20
-0.4866038142561833
 30
0.0
 10
34.44520518707628
 20
-0.4640538941528602
 30
0.0
 10
34.42211287051159
 20
-0.4417023233887659
 30
0.0
 10
34.39946085736826
 20
-0.420140676561003
 30
0.0
 10
34.37604905656035
 20
-0.397855814839046
 30
0.0
 10
34.35287644974774
 20
-0.3761946284623915
 30
0.0
 10
34.33081756897686
 20
-0.3562351499892228
 30
0.0
  0
SPLINE
  5
42F
330
1F
100
AcDbEntity
  8
외형선
  6
Continuous
 62
     1
370
    15
100
AcDbSpline
210
0.0
220
0.0
230
1.0
 70
     8
 71
     3
 72
    10
 73
     6
 74
     0
 42
0.000000001
 43
0.00000001
 40
0.0
 40
0.0
 40
0.0
 40
0.0
 40
0.5000000000000001
 40
0.5000000000000001
 40
1.0
 40
1.0
 40
1.0
 40
1.0
 10
34.33081757079955
 20
-0.3562351863540397
 30
0.0
 10
34.3063147100303
 20
0.1323669422568886
 30
0.0
 10
34.2805888492987
 20
0.6323070535770314
 30
0.0
 10
34.22875343216716
 20
1.613379988955481
 30
0.0
 10
34.20266405865495
 20
2.094124421168496
 30
0.0
 10
34.17748264087604
 20
2.545544605515405
 30
0.0
  0
SPLINE
  5
430
330
1F
100
AcDbEntity
  8
외형선
  6
Continuous
 62
     1
370
    15
100
AcDbSpline
210
0.0
220
0.0
230
1.0
 70
     8
 71
     3
 72
    14
 73
    10
 74
     0
 42
0.000000001
 43
0.00000001
 40
0.0
 40
0.0
 40
0.0
 40
0.0
 40
0.0000773236163103
 40
0.0000773236163103
 40
0.0000773236163103
 40
0.0001592876546558
 40
0.0001592876546558
 40
0.0001592876546558
 40
0.0002434134918074
 40
0.0002434134918074
 40
0.0002434134918074
 40
0.0002434134918074
 10
34.17748264087304
 20
2.545544605522887
 30
0.0
 10
34.19811615411864
 20
2.53085674405108
 30
0.0
 10
34.21997269153982
 20
2.51429454733699
 30
0.0
 10
34.24246796703575
 20
2.496397769828024
 30
0.0
 10
34.26631445348905
 20
2.477425996732742
 30
0.0
 10
34.2910491869192
 20
2.456820354168465
 30
0.0
 10
34.31616930520655
 20
2.435086308763788
 30
0.0
 10
34.34195108412424
 20
2.41277979144573
 30
0.0
 10
34.36831220375284
 20
2.389135249888399
 30
0.0
 10
34.39479417722534
 20
2.364638414211343
 30
0.0
  0
SPLINE
  5
431
330
1F
100
AcDbEntity
  8
외형선
  6
Continuous
 62
     1
370
    15
100
AcDbSpline
210
0.0
220
0.0
230
1.0
 70
     8
 71
     3
 72
    10
 73
     6
 74
     0
 42
0.000000001
 43
0.00000001
 40
0.0
 40
0.0
 40
0.0
 40
0.0
 40
0.5
 40
0.5
 40
1.0
 40
1.0
 40
1.0
 40
1.0
 10
34.54667056110731
 20
-0.5638890696009594
 30
0.0
 10
34.52268129872454
 20
-0.0765735718466002
 30
0.0
 10
34.49736279452573
 20
0.424727487693845
 30
0.0
 10
34.44602852798058
 20
1.414782293406178
 30
0.0
 10
34.42003189312097
 20
1.903155310532058
 30
0.0
 10
34.39477534012203
 20
2.364982861586741
 30
0.0
  0
SPLINE
  5
432
330
1F
100
AcDbEntity
  8
외형선
  6
Continuous
 62
     1
370
    15
100
AcDbSpline
210
0.0
220
0.0
230
1.0
 70
     8
 71
     3
 72
    14
 73
    10
 74
     0
 42
0.000000001
 43
0.00000001
 40
0.0
 40
0.0
 40
0.0
 40
0.0
 40
0.0000833544657104
 40
0.0000833544657104
 40
0.0000833544657104
 40
0.0001564333610495
 40
0.0001564333610495
 40
0.0001564333610495
 40
0.0002320617510058
 40
0.0002320617510058
 40
0.0002320617510058
 40
0.0002320617510058
 10
24.5453757234772
 20
-0.5375983187192175
 30
0.0
 10
24.51926167076086
 20
-0.5114154036184698
 30
0.0
 10
24.49286425203723
 20
-0.4850706739347698
 30
0.0
 10
24.46662470404549
 20
-0.4592110498926643
 30
0.0
 10
24.44361295045941
 20
-0.4365324848323252
 30
0.0
 10
24.4205753459669
 20
-0.4140701226317474
 30
0.0
 10
24.39796375754024
 20
-0.3924159052685622
 30
0.0
 10
24.37459858615423
 20
-0.3700400115288415
 30
0.0
 10
24.35145854300577
 20
-0.3483070437148809
 30
0.0
 10
24.32941588685596
 20
-0.3282987643134858
 30
0.0
  0
SPLINE
  5
433
330
1F
100
AcDbEntity
  8
외형선
  6
Continuous
 62
     1
370
    15
100
AcDbSpline
210
0.0
220
0.0
230
1.0
 70
     8
 71
     3
 72
    10
 73
     6
 74
     0
 42
0.000000001
 43
0.00000001
 40
0.0
 40
0.0
 40
0.0
 40
0.0
 40
0.5
 40
0.5
 40
1.0
 40
1.0
 40
1.0
 40
1.0
 10
24.32941588985735
 20
-0.3282988241095791
 30
0.0
 10
24.30486344026823
 20
0.1608013277622022
 30
0.0
 10
24.27910534294729
 20
0.6608651349406942
 30
0.0
 10
24.22724856394179
 20
1.64135345350458
 30
0.0
 10
24.20117011601811
 20
2.121389752702159
 30
0.0
 10
24.17601970398873
 20
2.571755776552906
 30
0.0
  0
SPLINE
  5
434
330
1F
100
AcDbEntity
  8
외형선
  6
Continuous
 62
     1
370
    15
100
AcDbSpline
210
0.0
220
0.0
230
1.0
 70
     8
 71
     3
 72
    14
 73
    10
 74
     0
 42
0.000000001
 43
0.00000001
 40
0.0
 40
0.0
 40
0.0
 40
0.0
 40
0.0000774290020068
 40
0.0000774290020068
 40
0.0000774290020068
 40
0.000159655336858
 40
0.000159655336858
 40
0.000159655336858
 40
0.0002440432775616
 40
0.0002440432775616
 40
0.0002440432775616
 40
0.0002440432775616
 10
24.1760197039901
 20
2.571755776557306
 30
0.0
 10
24.19665974994355
 20
2.557118949374685
 30
0.0
 10
24.2185157902416
 20
2.540586063037531
 30
0.0
 10
24.24099991940388
 20
2.522699081114001
 30
0.0
 10
24.2648782719606
 20
2.503702941327421
 30
0.0
 10
24.28963579921724
 20
2.483045270632503
 30
0.0
 10
24.3147665383372
 20
2.461235450507476
 30
0.0
 10
24.34055736912969
 20
2.438852766982921
 30
0.0
 10
24.36691409144705
 20
2.415107334377228
 30
0.0
 10
24.39337991294365
 20
2.390485814827117
 30
0.0
  0
SPLINE
  5
435
330
1F
100
AcDbEntity
  8
외형선
  6
Continuous
 62
     1
370
    15
100
AcDbSpline
210
0.0
220
0.0
230
1.0
 70
     8
 71
     3
 72
    10
 73
     6
 74
     0
 42
0.000000001
 43
0.00000001
 40
0.0
 40
0.0
 40
0.0
 40
0.0
 40
0.4999999999999999
 40
0.4999999999999999
 40
1.0
 40
1.0
 40
1.0
 40
1.0
 10
24.54537571709047
 20
-0.537598189102651
 30
0.0
 10
24.52133130122006
 20
-0.0496244758454464
 30
0.0
 10
24.49597228607009
 20
0.4520030405359792
 30
0.0
 10
24.44459648188472
 20
1.441917890219871
 30
0.0
 10
24.41859891464374
 20
1.929823706141464
 30
0.0
 10
24.3933612714492
 20
2.390826331449874
 30
0.0
  0
SPLINE
  5
436
330
1F
100
AcDbEntity
  8
외형선
  6
Continuous
 62
     1
370
    15
100
AcDbSpline
210
0.0
220
0.0
230
1.0
 70
     8
 71
     3
 72
    14
 73
    10
 74
     0
 42
0.000000001
 43
0.00000001
 40
0.0
 40
0.0
 40
0.0
 40
0.0
 40
0.0000825981393153
 40
0.0000825981393153
 40
0.0000825981393153
 40
0.0001555663176032
 40
0.0001555663176032
 40
0.0001555663176032
 40
0.0002310937605346
 40
0.0002310937605346
 40
0.0002310937605346
 40
0.0002310937605346
 10
14.54405209049542
 20
-0.5107485727734212
 30
0.0
 10
14.51804989635868
 20
-0.4849186205614712
 30
0.0
 10
14.49175473336273
 20
-0.458955221848255
 30
0.0
 10
14.4656382425748
 20
-0.4334654473337861
 30
0.0
 10
14.44256050866638
 20
-0.4109415087844666
 30
0.0
 10
14.41946746449203
 20
-0.3886363260755401
 30
0.0
 10
14.39681495727321
 20
-0.3671437030092958
 30
0.0
 10
14.37340315005138
 20
-0.344930658640399
 30
0.0
 10
14.350230914038
 20
-0.3233663036357639
 30
0.0
 10
14.32817205267056
 20
-0.3035318091202993
 30
0.0
  0
SPLINE
  5
437
330
1F
100
AcDbEntity
  8
외형선
  6
Continuous
 62
     1
370
    15
100
AcDbSpline
210
0.0
220
0.0
230
1.0
 70
     8
 71
     3
 72
    10
 73
     6
 74
     0
 42
0.000000001
 43
0.00000001
 40
0.0
 40
0.0
 40
0.0
 40
0.0
 40
0.5
 40
0.5
 40
1.0
 40
1.0
 40
1.0
 40
1.0
 10
14.32817205267033
 20
-0.3035318091188072
 30
0.0
 10
14.30358651399202
 20
0.1857928959487952
 30
0.0
 10
14.27781181509677
 20
0.6857391443081742
 30
0.0
 10
14.22595941921002
 20
1.665290363197884
 30
0.0
 10
14.19990195491001
 20
2.144508140563576
 30
0.0
 10
14.17478859853056
 20
2.593790777882796
 30
0.0
  0
SPLINE
  5
438
330
1F
100
AcDbEntity
  8
외형선
  6
Continuous
 62
     1
370
    15
100
AcDbSpline
210
0.0
220
0.0
230
1.0
 70
     8
 71
     3
 72
    14
 73
    10
 74
     0
 42
0.000000001
 43
0.00000001
 40
0.0
 40
0.0
 40
0.0
 40
0.0
 40
0.0000773409744664
 40
0.0000773409744664
 40
0.0000773409744664
 40
0.0001593059771871
 40
0.0001593059771871
 40
0.0001593059771871
 40
0.0002434322609844
 40
0.0002434322609844
 40
0.0002434322609844
 40
0.0002434322609844
 10
14.17478859852706
 20
2.593790777894335
 30
0.0
 10
14.19542265699825
 20
2.579290580327681
 30
0.0
 10
14.2172800362926
 20
2.562898059374691
 30
0.0
 10
14.23977659962107
 20
2.545151945604696
 30
0.0
 10
14.26361940646037
 20
2.5263438656065
 30
0.0
 10
14.28835059275476
 20
2.505882409864385
 30
0.0
 10
14.31346770999499
 20
2.484271440021368
 30
0.0
 10
14.33924623027842
 20
2.46209139367634
 30
0.0
 10
14.36560460199316
 20
2.438551991931378
 30
0.0
 10
14.39208455081762
 20
2.414136547222407
 30
0.0
  0
SPLINE
  5
439
330
1F
100
AcDbEntity
  8
외형선
  6
Continuous
 62
     1
370
    15
100
AcDbSpline
210
0.0
220
0.0
230
1.0
 70
     8
 71
     3
 72
    10
 73
     6
 74
     0
 42
0.000000001
 43
0.00000001
 40
0.0
 40
0.0
 40
0.0
 40
0.0
 40
0.5000000000000001
 40
0.5000000000000001
 40
1.0
 40
1.0
 40
1.0
 40
1.0
 10
14.54405239792904
 20
-0.5107548060240302
 30
0.0
 10
14.51997498136852
 20
-0.0225824748018139
 30
0.0
 10
14.49460051773498
 20
0.478877741101863
 30
0.0
 10
14.44323339322164
 20
1.467714474433409
 30
0.0
 10
14.41725995405848
 20
1.954710524923159
 30
0.0
 10
14.39206321511383
 20
2.414525905624438
 30
0.0
  0
SPLINE
  5
43A
330
1F
100
AcDbEntity
  8
외형선
  6
Continuous
 62
     1
370
    15
100
AcDbSpline
210
0.0
220
0.0
230
1.0
 70
     8
 71
     3
 72
     8
 73
     4
 74
     0
 42
0.000000001
 43
0.00000001
 40
0.0
 40
0.0
 40
0.0
 40
0.0
 40
1.0
 40
1.0
 40
1.0
 40
1.0
 10
25.34938245082235
 20
-1.3323558992831
 30
0.0
 10
25.07999723664871
 20
-1.069842723768288
 30
0.0
 10
24.81092862905702
 20
-0.8038514837675435
 30
0.0
 10
24.54537569753815
 20
-0.5375982927117616
 30
0.0
  0
SPLINE
  5
43B
330
1F
100
AcDbEntity
  8
외형선
  6
Continuous
 62
     1
370
    15
100
AcDbSpline
210
0.0
220
0.0
230
1.0
 70
     8
 71
     3
 72
     8
 73
     4
 74
     0
 42
0.000000001
 43
0.00000001
 40
0.0
 40
0.0
 40
0.0
 40
0.0
 40
1.0
 40
1.0
 40
1.0
 40
1.0
 10
25.19993168901916
 20
1.624659346861379
 30
0.0
 10
24.92908346499685
 20
1.885767284152253
 30
0.0
 10
24.66091775896293
 20
2.141602232578594
 30
0.0
 10
24.39287344517301
 20
2.390956978795147
 30
0.0
  0
SPLINE
  5
43C
330
1F
100
AcDbEntity
  8
외형선
  6
Continuous
 62
     1
370
    15
100
AcDbSpline
210
0.0
220
0.0
230
1.0
 70
     8
 71
     3
 72
     8
 73
     4
 74
     0
 42
0.000000001
 43
0.00000001
 40
0.0
 40
0.0
 40
0.0
 40
0.0
 40
1.0
 40
1.0
 40
1.0
 40
1.0
 10
17.45443516391778
 20
-3.259274264194821
 30
0.0
 10
17.18568753367781
 20
-3.027942609869881
 30
0.0
 10
16.91820811554807
 20
-2.788183627740656
 30
0.0
 10
16.64730301870832
 20
-2.54049105139208
 30
0.0
  0
SPLINE
  5
43D
330
1F
100
AcDbEntity
  8
외형선
  6
Continuous
 62
     1
370
    15
100
AcDbSpline
210
0.0
220
0.0
230
1.0
 70
     8
 71
     3
 72
    10
 73
     6
 74
     0
 42
0.000000001
 43
0.00000001
 40
0.0
 40
0.0
 40
0.0
 40
0.0
 40
0.5000000000000001
 40
0.5000000000000001
 40
1.0
 40
1.0
 40
1.0
 40
1.0
 10
16.64730305976564
 20
-2.54049180562154
 30
0.0
 10
16.621676222517
 20
-2.078321513590906
 30
0.0
 10
16.59679136516495
 20
-1.596457376036155
 30
0.0
 10
16.55034394977243
 20
-0.6351552049823522
 30
0.0
 10
16.52556472449478
 20
-0.1339426122973163
 30
0.0
 10
16.49996453249283
 20
0.3693176784709793
 30
0.0
  0
SPLINE
  5
43E
330
1F
100
AcDbEntity
  8
외형선
  6
Continuous
 62
     1
370
    15
100
AcDbSpline
210
0.0
220
0.0
230
1.0
 70
     8
 71
     3
 72
     8
 73
     4
 74
     0
 42
0.000000001
 43
0.00000001
 40
0.0
 40
0.0
 40
0.0
 40
0.0
 40
1.0
 40
1.0
 40
1.0
 40
1.0
 10
17.30563132674316
 20
-0.4365283169525879
 30
0.0
 10
17.03908057633699
 20
-0.1690311205546903
 30
0.0
 10
16.77016262629924
 20
0.1004278716673158
 30
0.0
 10
16.49996586158422
 20
0.3693185209567547
 30
0.0
  0
SPLINE
  5
43F
330
1F
100
AcDbEntity
  8
외형선
  6
Continuous
 62
     1
370
    15
100
AcDbSpline
210
0.0
220
0.0
230
1.0
 70
     8
 71
     3
 72
    10
 73
     6
 74
     0
 42
0.000000001
 43
0.00000001
 40
0.0
 40
0.0
 40
0.0
 40
0.0
 40
0.5
 40
0.5
 40
1.0
 40
1.0
 40
1.0
 40
1.0
 10
17.45395581937233
 20
-3.259295417235271
 30
0.0
 10
17.42792390239486
 20
-2.824801891394485
 30
0.0
 10
17.40203708956419
 20
-2.359747148634709
 30
0.0
 10
17.3526557370049
 20
-1.40963073774452
 30
0.0
 10
17.33010201739804
 20
-0.9313718052381985
 30
0.0
 10
17.30563062554804
 20
-0.4365283690839431
 30
0.0
  0
LINE
  5
440
330
1F
100
AcDbEntity
  8
외형선
  6
Continuous
 62
     1
370
    15
100
AcDbLine
 10
34.89333320061364
 20
-0.9072571216772032
 30
0.0
 11
34.89333320061364
 21
1.896507417162256
 31
0.0
  0
SPLINE
  5
441
330
1F
100
AcDbEntity
  8
외형선
  6
Continuous
 62
     1
370
    15
100
AcDbSpline
210
0.0
220
0.0
230
1.0
 70
     8
 71
     3
 72
     8
 73
     4
 74
     0
 42
0.000000001
 43
0.00000001
 40
0.0
 40
0.0
 40
0.0
 40
0.0
 40
1.0
 40
1.0
 40
1.0
 40
1.0
 10
34.89333316246668
 20
-0.907257123493528
 30
0.0
 10
34.77799168475558
 20
-0.7932615700176895
 30
0.0
 10
34.66235389025646
 20
-0.6787203956466624
 30
0.0
 10
34.54667627466582
 20
-0.5638869297272234
 30
0.0
  0
SPLINE
  5
442
330
1F
100
AcDbEntity
  8
외형선
  6
Continuous
 62
     1
370
    15
100
AcDbSpline
210
0.0
220
0.0
230
1.0
 70
     8
 71
     3
 72
     8
 73
     4
 74
     0
 42
0.000000001
 43
0.00000001
 40
0.0
 40
0.0
 40
0.0
 40
0.0
 40
1.0
 40
1.0
 40
1.0
 40
1.0
 10
34.89333316246816
 20
1.896507415028063
 30
0.0
 10
34.72734620306905
 20
2.054692888716263
 30
0.0
 10
34.56074528420933
 20
2.211131948573704
 30
0.0
 10
34.39429590250953
 20
2.365099330377122
 30
0.0
  0
SPLINE
  5
443
330
1F
100
AcDbEntity
  8
외형선
  6
Continuous
 62
     1
370
    15
100
AcDbSpline
210
0.0
220
0.0
230
1.0
 70
     8
 71
     3
 72
     8
 73
     4
 74
     0
 42
0.000000001
 43
0.00000001
 40
0.0
 40
0.0
 40
0.0
 40
0.0
 40
1.0
 40
1.0
 40
1.0
 40
1.0
 10
15.34805184950598
 20
-1.305339583586131
 30
0.0
 10
15.08219531041108
 20
-1.043955186381608
 30
0.0
 10
14.81313007423701
 20
-0.7780441340915074
 30
0.0
 10
14.54405645321338
 20
-0.5107529065920728
 30
0.0
  0
SPLINE
  5
444
330
1F
100
AcDbEntity
  8
외형선
  6
Continuous
 62
     1
370
    15
100
AcDbSpline
210
0.0
220
0.0
230
1.0
 70
     8
 71
     3
 72
     8
 73
     4
 74
     0
 42
0.000000001
 43
0.00000001
 40
0.0
 40
0.0
 40
0.0
 40
0.0
 40
1.0
 40
1.0
 40
1.0
 40
1.0
 10
15.19846113053864
 20
1.652389744490991
 30
0.0
 10
14.93104940506764
 20
1.911080215816342
 30
0.0
 10
14.66101012949993
 20
2.166185307588401
 30
0.0
 10
14.39158023430726
 20
2.414601537665683
 30
0.0
  0
SPLINE
  5
449
330
1F
100
AcDbEntity
  8
외형선
  6
Continuous
 62
     1
370
    15
100
AcDbSpline
210
0.0
220
0.0
230
1.0
 70
     8
 71
     3
 72
     8
 73
     4
 74
     0
 42
0.000000001
 43
0.00000001
 40
0.0
 40
0.0
 40
0.0
 40
0.0
 40
1.0
 40
1.0
 40
1.0
 40
1.0
 10
27.45572380479634
 20
-3.280807007689146
 30
0.0
 10
27.18652995141004
 20
-3.050975683375353
 30
0.0
 10
26.9164676325831
 20
-2.812071309002751
 30
0.0
 10
26.64877516042673
 20
-2.567004678578447
 30
0.0
  0
SPLINE
  5
44A
330
1F
100
AcDbEntity
  8
외형선
  6
Continuous
 62
     1
370
    15
100
AcDbSpline
210
0.0
220
0.0
230
1.0
 70
     8
 71
     3
 72
    10
 73
     6
 74
     0
 42
0.000000001
 43
0.00000001
 40
0.0
 40
0.0
 40
0.0
 40
0.0
 40
0.4999999999999999
 40
0.4999999999999999
 40
1.0
 40
1.0
 40
1.0
 40
1.0
 10
26.64877520323474
 20
-2.567005442571932
 30
0.0
 10
26.62311501570075
 20
-2.105485187157589
 30
0.0
 10
26.59817653944943
 20
-1.623852425865577
 30
0.0
 10
26.55159484075084
 20
-0.6622475290231888
 30
0.0
 10
26.52697453631199
 20
-0.1621617884628092
 30
0.0
 10
26.50139589497899
 20
0.3411655743101692
 30
0.0
  0
SPLINE
  5
44B
330
1F
100
AcDbEntity
  8
외형선
  6
Continuous
 62
     1
370
    15
100
AcDbSpline
210
0.0
220
0.0
230
1.0
 70
     8
 71
     3
 72
     8
 73
     4
 74
     0
 42
0.000000001
 43
0.00000001
 40
0.0
 40
0.0
 40
0.0
 40
0.0
 40
1.0
 40
1.0
 40
1.0
 40
1.0
 10
27.30689908045379
 20
-0.4626812065978482
 30
0.0
 10
27.0375910186158
 20
-0.1949856932474373
 30
0.0
 10
26.76801683205217
 20
0.0740376791876914
 30
0.0
 10
26.50139589413952
 20
0.3411655701076642
 30
0.0
  0
SPLINE
  5
44C
330
1F
100
AcDbEntity
  8
외형선
  6
Continuous
 62
     1
370
    15
100
AcDbSpline
210
0.0
220
0.0
230
1.0
 70
     8
 71
     3
 72
    10
 73
     6
 74
     0
 42
0.000000001
 43
0.00000001
 40
0.0
 40
0.0
 40
0.0
 40
0.0
 40
0.5
 40
0.5
 40
1.0
 40
1.0
 40
1.0
 40
1.0
 10
27.45524750499449
 20
-3.280827978652005
 30
0.0
 10
27.42922559180024
 20
-2.847577360562488
 30
0.0
 10
27.4033297658623
 20
-2.383478019495973
 30
0.0
 10
27.35389518030634
 20
-1.434561831096885
 30
0.0
 10
27.33133639486524
 20
-0.9568062374069355
 30
0.0
 10
27.30692288718801
 20
-0.4626717903500418
 30
0.0
  0
SPLINE
  5
44D
330
1F
100
AcDbEntity
  8
외형선
  6
Continuous
 62
     1
370
    15
100
AcDbSpline
210
0.0
220
0.0
230
1.0
 70
     8
 71
     3
 72
     9
 73
     5
 74
     0
 42
0.000000001
 43
0.00000001
 40
0.0
 40
0.0
 40
0.0
 40
0.0
 40
0.9198297076636267
 40
1.0
 40
1.0
 40
1.0
 40
1.0
 10
30.15343525409698
 20
-5.450015266736356
 30
0.0
 10
30.23099180626322
 20
-5.369601678393662
 30
0.0
 10
30.31530801340474
 20
-5.282179422216548
 30
0.0
 10
30.40316368209343
 20
-5.235385857066076
 30
0.0
 10
30.41020709673562
 20
-5.231634403268499
 30
0.0
  0
SPLINE
  5
44E
330
1F
100
AcDbEntity
  8
외형선
  6
Continuous
 62
     1
370
    15
100
AcDbSpline
210
0.0
220
0.0
230
1.0
 70
     8
 71
     3
 72
    14
 73
    10
 74
     0
 42
0.000000001
 43
0.00000001
 40
0.0
 40
0.0
 40
0.0
 40
0.0
 40
0.0000836926509638
 40
0.0000836926509638
 40
0.0000836926509638
 40
0.0001568235353281
 40
0.0001568235353281
 40
0.0001568235353281
 40
0.0002324950665655
 40
0.0002324950665655
 40
0.0002324950665655
 40
0.0002324950665655
 10
29.93704306484101
 20
-5.61134772336227
 30
0.0
 10
29.96326177511192
 20
-5.598996898888513
 30
0.0
 10
29.98976779519304
 20
-5.584088286568187
 30
0.0
 10
30.01611522418755
 20
-5.566743409392798
 30
0.0
 10
30.03914501476551
 20
-5.551582579505633
 30
0.0
 10
30.06220055473959
 20
-5.534456606433138
 30
0.0
 10
30.08483164097133
 20
-5.515431600664582
 30
0.0
 10
30.10821373044418
 20
-5.495775257944414
 30
0.0
 10
30.13137186214253
 20
-5.473895411623956
 30
0.0
 10
30.1534355375258
 20
-5.450015352780666
 30
0.0
  0
SPLINE
  5
44F
330
1F
100
AcDbEntity
  8
외형선
  6
Continuous
 62
     1
370
    15
100
AcDbSpline
210
0.0
220
0.0
230
1.0
 70
     8
 71
     3
 72
     8
 73
     4
 74
     0
 42
0.000000001
 43
0.00000001
 40
0.0
 40
0.0
 40
0.0
 40
0.0
 40
1.0
 40
1.0
 40
1.0
 40
1.0
 10
29.93694096194806
 20
-5.61139582008917
 30
0.0
 10
29.67053190661286
 20
-5.736888778076475
 30
0.0
 10
29.40056636714481
 20
-5.847873904901162
 30
0.0
 10
29.13027521909494
 20
-5.942791568734661
 30
0.0
  0
SPLINE
  5
450
330
1F
100
AcDbEntity
  8
외형선
  6
Continuous
 62
     1
370
    15
100
AcDbSpline
210
0.0
220
0.0
230
1.0
 70
     8
 71
     3
 72
    14
 73
    10
 74
     0
 42
0.000000001
 43
0.00000001
 40
0.0
 40
0.0
 40
0.0
 40
0.0
 40
0.0000771920700499
 40
0.0000771920700499
 40
0.0000771920700499
 40
0.0001591328833914
 40
0.0001591328833914
 40
0.0001591328833914
 40
0.0002432398638302
 40
0.0002432398638302
 40
0.0002432398638302
 40
0.0002432398638302
 10
28.91357624522762
 20
-5.951539715827038
 30
0.0
 10
28.93417949018347
 20
-5.958747043524339
 30
0.0
 10
28.95600385572552
 20
-5.963131407617309
 30
0.0
 10
28.97846526815458
 20
-5.96493854635524
 30
0.0
 10
29.00230947615446
 20
-5.96685693826795
 30
0.0
 10
29.0270423302648
 20
-5.965887333555356
 30
0.0
 10
29.05215903358105
 20
-5.962242000241899
 30
0.0
 10
29.07793888095013
 20
-5.958500420973023
 30
0.0
 10
29.1042968542502
 20
-5.951916266429036
 30
0.0
 10
29.13077329834077
 20
-5.942616640885602
 30
0.0
  0
SPLINE
  5
451
330
1F
100
AcDbEntity
  8
외형선
  6
Continuous
 62
     1
370
    15
100
AcDbSpline
210
0.0
220
0.0
230
1.0
 70
     8
 71
     3
 72
    10
 73
     6
 74
     0
 42
0.000000001
 43
0.00000001
 40
0.0
 40
0.0
 40
0.0
 40
0.0
 40
0.5
 40
0.5
 40
1.0
 40
1.0
 40
1.0
 40
1.0
 10
28.04800128160416
 20
-6.168424382243002
 30
0.0
 10
28.18660869724467
 20
-6.043506562722582
 30
0.0
 10
28.34329941469715
 20
-5.973729631808778
 30
0.0
 10
28.64147946401822
 20
-5.90617432325365
 30
0.0
 10
28.78703977798286
 20
-5.907275339652484
 30
0.0
 10
28.91357624522864
 20
-5.951539715825488
 30
0.0
  0
SPLINE
  5
452
330
1F
100
AcDbEntity
  8
외형선
  6
Continuous
 62
     1
370
    15
100
AcDbSpline
210
0.0
220
0.0
230
1.0
 70
     8
 71
     3
 72
    14
 73
    10
 74
     0
 42
0.000000001
 43
0.00000001
 40
0.0
 40
0.0
 40
0.0
 40
0.0
 40
0.0000828077821379
 40
0.0000828077821379
 40
0.0000828077821379
 40
0.0001558367657269
 40
0.0001558367657269
 40
0.0001558367657269
 40
0.0002314123918217
 40
0.0002314123918217
 40
0.0002314123918217
 40
0.0002314123918217
 10
27.83242390677448
 20
-6.273341348607685
 30
0.0
 10
27.85843545142216
 20
-6.269307914574581
 30
0.0
 10
27.88473298201946
 20
-6.26240634078803
 30
0.0
 10
27.91084500627919
 20
-6.25253512039056
 30
0.0
 10
27.93387986195548
 20
-6.243827172858685
 30
0.0
 10
27.95692431547018
 20
-6.232749212169976
 30
0.0
 10
27.97952659703289
 20
-6.219161126999621
 30
0.0
 10
28.00288233076812
 20
-6.205120079934089
 30
0.0
 10
28.02599507556333
 20
-6.188257139832727
 30
0.0
 10
28.04800128160413
 20
-6.168424382243058
 30
0.0
  0
SPLINE
  5
453
330
1F
100
AcDbEntity
  8
외형선
  6
Continuous
 62
     1
370
    15
100
AcDbSpline
210
0.0
220
0.0
230
1.0
 70
     8
 71
     3
 72
     8
 73
     4
 74
     0
 42
0.000000001
 43
0.00000001
 40
0.0
 40
0.0
 40
0.0
 40
0.0
 40
1.0
 40
1.0
 40
1.0
 40
1.0
 10
27.83240688939403
 20
-6.273343987352758
 30
0.0
 10
27.56536637808616
 20
-6.314751431829248
 30
0.0
 10
27.29595459017289
 20
-6.339540726180955
 30
0.0
 10
27.02738663049734
 20
-6.347320200862681
 30
0.0
  0
SPLINE
  5
454
330
1F
100
AcDbEntity
  8
외형선
  6
Continuous
 62
     1
370
    15
100
AcDbSpline
210
0.0
220
0.0
230
1.0
 70
     8
 71
     3
 72
    14
 73
    10
 74
     0
 42
0.000000001
 43
0.00000001
 40
0.0
 40
0.0
 40
0.0
 40
0.0
 40
0.0000773960648032
 40
0.0000773960648032
 40
0.0000773960648032
 40
0.000159308161792
 40
0.000159308161792
 40
0.000159308161792
 40
0.0002433787086392
 40
0.0002433787086392
 40
0.0002433787086392
 40
0.0002433787086392
 10
26.81069113347714
 20
-6.278746720851585
 30
0.0
 10
26.83133507059303
 20
-6.294188551424595
 30
0.0
 10
26.85320276150664
 20
-6.306938833636066
 30
0.0
 10
26.87571052082707
 20
-6.317065474826078
 30
0.0
 10
26.8995329638678
 20
-6.327783615601843
 30
0.0
 10
26.92424248713595
 20
-6.335641611984412
 30
0.0
 10
26.94933849297665
 20
-6.340676560430522
 30
0.0
 10
26.97509480384808
 20
-6.345843984211923
 30
0.0
 10
27.00143129442337
 20
-6.348074100029065
 30
0.0
 10
27.02789025729517
 20
-6.347305592726341
 30
0.0
  0
SPLINE
  5
455
330
1F
100
AcDbEntity
  8
외형선
  6
Continuous
 62
     1
370
    15
100
AcDbSpline
210
0.0
220
0.0
230
1.0
 70
     8
 71
     3
 72
    10
 73
     6
 74
     0
 42
0.000000001
 43
0.00000001
 40
0.0
 40
0.0
 40
0.0
 40
0.0
 40
0.5
 40
0.5
 40
1.0
 40
1.0
 40
1.0
 40
1.0
 10
25.94327263112531
 20
-6.214175289751295
 30
0.0
 10
26.08258834265762
 20
-6.12812535689565
 30
0.0
 10
26.23986446618052
 20
-6.104485978821229
 30
0.0
 10
26.53811961053753
 20
-6.132324201579904
 30
0.0
 10
26.6838958013358
 20
-6.183902795228205
 30
0.0
 10
26.8106911334766
 20
-6.278746720851143
 30
0.0
  0
SPLINE
  5
456
330
1F
100
AcDbEntity
  8
외형선
  6
Continuous
 62
     1
370
    15
100
AcDbSpline
210
0.0
220
0.0
230
1.0
 70
     8
 71
     3
 72
    14
 73
    10
 74
     0
 42
0.000000001
 43
0.00000001
 40
0.0
 40
0.0
 40
0.0
 40
0.0
 40
0.0000830902061258
 40
0.0000830902061258
 40
0.0000830902061258
 40
0.0001561462835063
 40
0.0001561462835063
 40
0.0001561462835063
 40
0.0002317446088393
 40
0.0002317446088393
 40
0.0002317446088393
 40
0.0002317446088393
 10
25.72694970719705
 20
-6.25191532391443
 30
0.0
 10
25.75309219234181
 20
-6.256482016489356
 30
0.0
 10
25.77952555413517
 20
-6.258150505933996
 30
0.0
 10
25.80577574920502
 20
-6.256609404031662
 30
0.0
 10
25.82886270862828
 20
-6.255254010024428
 30
0.0
 10
25.85196190949005
 20
-6.251406760170594
 30
0.0
 10
25.87462134068467
 20
-6.244721453243497
 30
0.0
 10
25.89803431509354
 20
-6.237813825304611
 30
0.0
 10
25.92120718272161
 20
-6.227804264779889
 30
0.0
 10
25.94327263112523
 20
-6.214175289751322
 30
0.0
  0
SPLINE
  5
457
330
1F
100
AcDbEntity
  8
외형선
  6
Continuous
 62
     1
370
    15
100
AcDbSpline
210
0.0
220
0.0
230
1.0
 70
     8
 71
     3
 72
     8
 73
     4
 74
     0
 42
0.000000001
 43
0.00000001
 40
0.0
 40
0.0
 40
0.0
 40
0.0
 40
1.0
 40
1.0
 40
1.0
 40
1.0
 10
25.72745833642752
 20
-6.25200415386942
 30
0.0
 10
25.45855755609937
 20
-6.205052229420941
 30
0.0
 10
25.18844453886813
 20
-6.141222724365347
 30
0.0
 10
24.92035989406593
 20
-6.061331534841171
 30
0.0
  0
SPLINE
  5
458
330
1F
100
AcDbEntity
  8
외형선
  6
Continuous
 62
     1
370
    15
100
AcDbSpline
210
0.0
220
0.0
230
1.0
 70
     8
 71
     3
 72
    14
 73
    10
 74
     0
 42
0.000000001
 43
0.00000001
 40
0.0
 40
0.0
 40
0.0
 40
0.0
 40
0.0000777380005401
 40
0.0000777380005401
 40
0.0000777380005401
 40
0.0001598285635507
 40
0.0001598285635507
 40
0.0001598285635507
 40
0.0002440683946728
 40
0.0002440683946728
 40
0.0002440683946728
 40
0.0002440683946728
 10
24.70286238706165
 20
-5.922153555711899
 30
0.0
 10
24.72356885435569
 20
-5.9442522960813
 30
0.0
 10
24.74550214582287
 20
-5.964078272629861
 30
0.0
 10
24.76807725683303
 20
-5.981515793024782
 30
0.0
 10
24.79191812564081
 20
-5.999931013037652
 30
0.0
 10
24.81664439926856
 20
-6.015815487857067
 30
0.0
 10
24.84175880523246
 20
-6.029032490432881
 30
0.0
 10
24.86752978853811
 20
-6.042595031120525
 30
0.0
 10
24.8938815961047
 20
-6.053440807966849
 30
0.0
 10
24.92035990226841
 20
-6.061331537287073
 30
0.0
  0
SPLINE
  5
459
330
1F
100
AcDbEntity
  8
외형선
  6
Continuous
 62
     1
370
    15
100
AcDbSpline
210
0.0
220
0.0
230
1.0
 70
     8
 71
     3
 72
    10
 73
     6
 74
     0
 42
0.000000001
 43
0.00000001
 40
0.0
 40
0.0
 40
0.0
 40
0.0
 40
0.5
 40
0.5
 40
1.0
 40
1.0
 40
1.0
 40
1.0
 10
23.83583869126419
 20
-5.582331230782755
 30
0.0
 10
23.97515094870842
 20
-5.544449826169481
 30
0.0
 10
24.13279859362233
 20
-5.569141655923969
 30
0.0
 10
24.43129920897518
 20
-5.689992315405418
 30
0.0
 10
24.57634152368424
 20
-5.787125611476709
 30
0.0
 10
24.7028623870604
 20
-5.922153555710677
 30
0.0
  0
SPLINE
  5
45A
330
1F
100
AcDbEntity
  8
외형선
  6
Continuous
 62
     1
370
    15
100
AcDbSpline
210
0.0
220
0.0
230
1.0
 70
     8
 71
     3
 72
    14
 73
    10
 74
     0
 42
0.000000001
 43
0.00000001
 40
0.0
 40
0.0
 40
0.0
 40
0.0
 40
0.0000826216054695
 40
0.0000826216054695
 40
0.0000826216054695
 40
0.0001555938486495
 40
0.0001555938486495
 40
0.0001555938486495
 40
0.0002311245824471
 40
0.0002311245824471
 40
0.0002311245824471
 40
0.0002311245824471
 10
23.61993046327543
 20
-5.549149700214285
 30
0.0
 10
23.64594003431713
 20
-5.561751031742544
 30
0.0
 10
23.67224255950639
 20
-5.571761312331516
 30
0.0
 10
23.69836626715865
 20
-5.578700064894234
 30
0.0
 10
23.72144513911038
 20
-5.584830074616873
 30
0.0
 10
23.74453923361712
 20
-5.588603760670678
 30
0.0
 10
23.76719285760864
 20
-5.589511040725254
 30
0.0
 10
23.79060554452248
 20
-5.590448721330743
 30
0.0
 10
23.81377867948918
 20
-5.58832972831692
 30
0.0
 10
23.8358386912682
 20
-5.582331230788354
 30
0.0
  0
SPLINE
  5
45B
330
1F
100
AcDbEntity
  8
외형선
  6
Continuous
 62
     1
370
    15
100
AcDbSpline
210
0.0
220
0.0
230
1.0
 70
     8
 71
     3
 72
     8
 73
     4
 74
     0
 42
0.000000001
 43
0.00000001
 40
0.0
 40
0.0
 40
0.0
 40
0.0
 40
1.0
 40
1.0
 40
1.0
 40
1.0
 10
23.61992909969623
 20
-5.549149039578081
 30
0.0
 10
23.35069350554928
 20
-5.418707507882429
 30
0.0
 10
23.08143401310774
 20
-5.273343706343516
 30
0.0
 10
22.81535794499469
 20
-5.114963200058574
 30
0.0
  0
SPLINE
  5
45C
330
1F
100
AcDbEntity
  8
외형선
  6
Continuous
 62
     1
370
    15
100
AcDbSpline
210
0.0
220
0.0
230
1.0
 70
     8
 71
     3
 72
    14
 73
    10
 74
     0
 42
0.000000001
 43
0.00000001
 40
0.0
 40
0.0
 40
0.0
 40
0.0
 40
0.0000774535624717
 40
0.0000774535624717
 40
0.0000774535624717
 40
0.0001596009968579
 40
0.0001596009968579
 40
0.0001596009968579
 40
0.0002439075868753
 40
0.0002439075868753
 40
0.0002439075868753
 40
0.0002439075868753
 10
22.59900672355609
 20
-4.920515021561284
 30
0.0
 10
22.61961096738235
 20
-4.946751231262985
 30
0.0
 10
22.64142711885093
 20
-4.971407802919229
 30
0.0
 10
22.6638678752944
 20
-4.994198018217864
 30
0.0
 10
22.68766995778539
 20
-5.018370758824571
 30
0.0
 10
22.71233803180151
 20
-5.040621429410769
 30
0.0
 10
22.73740020618637
 20
-5.060643119007137
 30
0.0
 10
22.76312010929401
 20
-5.081190255443188
 30
0.0
 10
22.78942535315598
 20
-5.099528793347381
 30
0.0
 10
22.81586162829801
 20
-5.115262997395616
 30
0.0
  0
SPLINE
  5
45D
330
1F
100
AcDbEntity
  8
외형선
  6
Continuous
 62
     1
370
    15
100
AcDbSpline
210
0.0
220
0.0
230
1.0
 70
     8
 71
     3
 72
    10
 73
     6
 74
     0
 42
0.000000001
 43
0.00000001
 40
0.0
 40
0.0
 40
0.0
 40
0.0
 40
0.5
 40
0.5
 40
1.0
 40
1.0
 40
1.0
 40
1.0
 10
21.73291633033439
 20
-4.345072799849609
 30
0.0
 10
21.87194911980082
 20
-4.359552078680421
 30
0.0
 10
22.02935372314797
 20
-4.429348853782831
 30
0.0
 10
22.32773095413537
 20
-4.628491608269426
 30
0.0
 10
22.47293733515859
 20
-4.759985815109485
 30
0.0
 10
22.59900672355561
 20
-4.920515021561014
 30
0.0
  0
SPLINE
  5
45E
330
1F
100
AcDbEntity
  8
외형선
  6
Continuous
 62
     1
370
    15
100
AcDbSpline
210
0.0
220
0.0
230
1.0
 70
     8
 71
     3
 72
    14
 73
    10
 74
     0
 42
0.000000001
 43
0.00000001
 40
0.0
 40
0.0
 40
0.0
 40
0.0
 40
0.0000828533876865
 40
0.0000828533876865
 40
0.0000828533876865
 40
0.0001558412638074
 40
0.0001558412638074
 40
0.0001558412638074
 40
0.000231386972449
 40
0.000231386972449
 40
0.000231386972449
 40
0.000231386972449
 10
21.51677544440343
 20
-4.244388638674933
 30
0.0
 10
21.54284528677245
 20
-4.26373232141931
 30
0.0
 10
21.56921244356126
 20
-4.281050941249843
 30
0.0
 10
21.59540422211778
 20
-4.295737846912628
 30
0.0
 10
21.6184836640443
 20
-4.308679525752537
 30
0.0
 10
21.64158140191866
 20
-4.319664166379225
 30
0.0
 10
21.66424193288448
 20
-4.328070416721401
 30
0.0
 10
21.68766123834952
 20
-4.336758145392727
 30
0.0
 10
21.71084459266622
 20
-4.342774184931463
 30
0.0
 10
21.73291633033434
 20
-4.345072799849602
 30
0.0
  0
SPLINE
  5
45F
330
1F
100
AcDbEntity
  8
외형선
  6
Continuous
 62
     1
370
    15
100
AcDbSpline
210
0.0
220
0.0
230
1.0
 70
     8
 71
     3
 72
     8
 73
     4
 74
     0
 42
0.000000001
 43
0.00000001
 40
0.0
 40
0.0
 40
0.0
 40
0.0
 40
1.0
 40
1.0
 40
1.0
 40
1.0
 10
21.51677544428224
 20
-4.244388638586165
 30
0.0
 10
21.24588313802206
 20
-4.04338800512638
 30
0.0
 10
20.97833780433293
 20
-3.831714702478925
 30
0.0
 10
20.70968464884358
 20
-3.610010123100948
 30
0.0
  0
SPLINE
  5
460
330
1F
100
AcDbEntity
  8
외형선
  6
Continuous
 62
     1
370
    15
100
AcDbSpline
210
0.0
220
0.0
230
1.0
 70
     8
 71
     3
 72
    14
 73
    10
 74
     0
 42
0.000000001
 43
0.00000001
 40
0.0
 40
0.0
 40
0.0
 40
0.0
 40
0.0000775366881741
 40
0.0000775366881741
 40
0.0000775366881741
 40
0.0001597617016645
 40
0.0001597617016645
 40
0.0001597617016645
 40
0.0002441440457806
 40
0.0002441440457806
 40
0.0002441440457806
 40
0.0002441440457806
 10
20.49263063230622
 20
-3.381581983522493
 30
0.0
 10
20.51331166950611
 20
-3.409141935202646
 30
0.0
 10
20.53521042120663
 20
-3.43597176827434
 30
0.0
 10
20.55773831752577
 20
-3.461642125325737
 30
0.0
 10
20.58162972450696
 20
-3.488866191833238
 30
0.0
 10
20.60639933033123
 20
-3.514981499213475
 30
0.0
 10
20.63154255375021
 20
-3.539565253869837
 30
0.0
 10
20.65734484711466
 20
-3.564793413325474
 30
0.0
 10
20.68371318074846
 20
-3.588578306867189
 30
0.0
 10
20.71019141902925
 20
-3.610428322835601
 30
0.0
  0
SPLINE
  5
461
330
1F
100
AcDbEntity
  8
외형선
  6
Continuous
 62
     1
370
    15
100
AcDbSpline
210
0.0
220
0.0
230
1.0
 70
     8
 71
     3
 72
    10
 73
     6
 74
     0
 42
0.000000001
 43
0.00000001
 40
0.0
 40
0.0
 40
0.0
 40
0.0
 40
0.5
 40
0.5
 40
1.0
 40
1.0
 40
1.0
 40
1.0
 10
19.62508086395978
 20
-2.631510551776329
 30
0.0
 10
19.76415857170041
 20
-2.697038356902587
 30
0.0
 10
19.92167776838416
 20
-2.804925271256157
 30
0.0
 10
20.22053881238698
 20
-3.06141427238517
 30
0.0
 10
20.3661257679096
 20
-3.212999145225935
 30
0.0
 10
20.49263063230571
 20
-3.381581983522237
 30
0.0
  0
SPLINE
  5
462
330
1F
100
AcDbEntity
  8
외형선
  6
Continuous
 62
     1
370
    15
100
AcDbSpline
210
0.0
220
0.0
230
1.0
 70
     8
 71
     3
 72
    14
 73
    10
 74
     0
 42
0.000000001
 43
0.00000001
 40
0.0
 40
0.0
 40
0.0
 40
0.0
 40
0.0000830869303063
 40
0.0000830869303063
 40
0.0000830869303063
 40
0.0001561265071296
 40
0.0001561265071296
 40
0.0001561265071296
 40
0.000231719408637
 40
0.000231719408637
 40
0.000231719408637
 40
0.000231719408637
 10
19.40885802869552
 20
-2.47373428839981
 30
0.0
 10
19.43496058035801
 20
-2.497791571603853
 30
0.0
 10
19.46136488949687
 20
-2.520612177567485
 30
0.0
 10
19.48759785398297
 20
-2.541532569232741
 30
0.0
 10
19.51066520506653
 20
-2.559928432178535
 30
0.0
 10
19.53375409583835
 20
-2.576977670176055
 30
0.0
 10
19.55641043831618
 20
-2.592018115484726
 30
0.0
 10
19.57982348065223
 20
-2.607560897074888
 30
0.0
 10
19.60300515327463
 20
-2.621109367496243
 30
0.0
 10
19.62508086396024
 20
-2.63151055177905
 30
0.0
  0
SPLINE
  5
463
330
1F
100
AcDbEntity
  8
외형선
  6
Continuous
 62
     1
370
    15
100
AcDbSpline
210
0.0
220
0.0
230
1.0
 70
     8
 71
     3
 72
     8
 73
     4
 74
     0
 42
0.000000001
 43
0.00000001
 40
0.0
 40
0.0
 40
0.0
 40
0.0
 40
1.0
 40
1.0
 40
1.0
 40
1.0
 10
19.40885802882524
 20
-2.473734288521475
 30
0.0
 10
19.13926075706293
 20
-2.2252613422106
 30
0.0
 10
18.87300374574413
 20
-1.97114520572279
 30
0.0
 10
18.60267642307899
 20
-1.711104240028723
 30
0.0
  0
SPLINE
  5
464
330
1F
100
AcDbEntity
  8
외형선
  6
Continuous
 62
     1
370
    15
100
AcDbSpline
210
0.0
220
0.0
230
1.0
 70
     8
 71
     3
 72
    14
 73
    10
 74
     0
 42
0.000000001
 43
0.00000001
 40
0.0
 40
0.0
 40
0.0
 40
0.0
 40
0.0000770274230941
 40
0.0000770274230941
 40
0.0000770274230941
 40
0.0001589830361792
 40
0.0001589830361792
 40
0.0001589830361792
 40
0.0002431111891845
 40
0.0002431111891845
 40
0.0002431111891845
 40
0.0002431111891845
 10
18.38625319574466
 20
-1.47479672022841
 30
0.0
 10
18.40680234669948
 20
-1.500484269195111
 30
0.0
 10
18.42856841721305
 20
-1.526374287671749
 30
0.0
 10
18.45096746294589
 20
-1.5519440843196
 30
0.0
 10
18.47480030204504
 20
-1.579150638410111
 30
0.0
 10
18.49952084449332
 20
-1.606190141146128
 30
0.0
 10
18.52462141668419
 20
-1.632552244640847
 30
0.0
 10
18.55038665480176
 20
-1.659612419550625
 30
0.0
 10
18.57672638291847
 20
-1.686142060583576
 30
0.0
 10
18.60317986638636
 20
-1.71158852250518
 30
0.0
  0
SPLINE
  5
465
330
1F
100
AcDbEntity
  8
외형선
  6
Continuous
 62
     1
370
    15
100
AcDbSpline
210
0.0
220
0.0
230
1.0
 70
     8
 71
     3
 72
    10
 73
     6
 74
     0
 42
0.000000001
 43
0.00000001
 40
0.0
 40
0.0
 40
0.0
 40
0.0
 40
0.5
 40
0.5
 40
1.0
 40
1.0
 40
1.0
 40
1.0
 10
17.52152285803645
 20
-0.63432304335616
 30
0.0
 10
17.6599656407996
 20
-0.7434283660701324
 30
0.0
 10
17.81685274285299
 20
-0.8772186982284025
 30
0.0
 10
18.11482109770624
 20
-1.162309627397973
 30
0.0
 10
18.26007450962552
 20
-1.31706654512996
 30
0.0
 10
18.38625319574412
 20
-1.474796720228311
 30
0.0
  0
SPLINE
  5
466
330
1F
100
AcDbEntity
  8
외형선
  6
Continuous
 62
     1
370
    15
100
AcDbSpline
210
0.0
220
0.0
230
1.0
 70
     8
 71
     3
 72
    14
 73
    10
 74
     0
 42
0.000000001
 43
0.00000001
 40
0.0
 40
0.0
 40
0.0
 40
0.0
 40
0.0000832058996124
 40
0.0000832058996124
 40
0.0000832058996124
 40
0.000156254481429
 40
0.000156254481429
 40
0.000156254481429
 40
0.00023185982547
 40
0.00023185982547
 40
0.00023185982547
 40
0.00023185982547
 10
17.30563058622211
 20
-0.4365275737993085
 30
0.0
 10
17.33170225479025
 20
-0.462691816088258
 30
0.0
 10
17.3580795719543
 20
-0.4885461157440344
 30
0.0
 10
17.38429040344791
 20
-0.5134428142112866
 30
0.0
 10
17.40730823127611
 20
-0.5353065967071144
 30
0.0
 10
17.43035128075194
 20
-0.5565776536284358
 30
0.0
 10
17.45296608534834
 20
-0.5766238603474305
 30
0.0
 10
17.47633699758918
 20
-0.5973402957247187
 30
0.0
 10
17.49948102919679
 20
-0.6169521064192252
 30
0.0
 10
17.52152285803637
 20
-0.6343230433561458
 30
0.0
  0
SPLINE
  5
467
330
1F
100
AcDbEntity
  8
외형선
  6
Continuous
 62
     1
370
    15
100
AcDbSpline
210
0.0
220
0.0
230
1.0
 70
     8
 71
     3
 72
    14
 73
    10
 74
     0
 42
0.000000001
 43
0.00000001
 40
0.0
 40
0.0
 40
0.0
 40
0.0
 40
0.0000773417724628
 40
0.0000773417724628
 40
0.0000773417724628
 40
0.0001593047083674
 40
0.0001593047083674
 40
0.0001593047083674
 40
0.0002434282543285
 40
0.0002434282543285
 40
0.0002434282543285
 40
0.0002434282543285
 10
16.28258088342695
 20
0.5896066725498643
 30
0.0
 10
16.30323207065654
 20
0.5683046252143897
 30
0.0
 10
16.32510521965891
 20
0.5458970757316466
 30
0.0
 10
16.34761512454866
 20
0.5229458138895653
 30
0.0
 10
16.37147123299899
 20
0.4986219531598993
 30
0.0
 10
16.39621301500724
 20
0.473514326495719
 30
0.0
 10
16.42133727482251
 20
0.4481575155494698
 30
0.0
 10
16.44712295671961
 20
0.4221331603727181
 30
0.0
 10
16.47348483308868
 20
0.3956715412206807
 30
0.0
 10
16.49996441648155
 20
0.3693199590737082
 30
0.0
  0
SPLINE
  5
468
330
1F
100
AcDbEntity
  8
외형선
  6
Continuous
 62
     1
370
    15
100
AcDbSpline
210
0.0
220
0.0
230
1.0
 70
     8
 71
     3
 72
    10
 73
     6
 74
     0
 42
0.000000001
 43
0.00000001
 40
0.0
 40
0.0
 40
0.0
 40
0.0
 40
0.5
 40
0.5
 40
1.0
 40
1.0
 40
1.0
 40
1.0
 10
15.4148540349534
 20
1.436139851113305
 30
0.0
 10
15.55375353424707
 20
1.294306724821988
 30
0.0
 10
15.7109086949417
 20
1.147731892470242
 30
0.0
 10
16.00981295547782
 20
0.8626863510790641
 30
0.0
 10
16.15573960589613
 20
0.7204455859741563
 30
0.0
 10
16.28258088342644
 20
0.5896066725498288
 30
0.0
  0
SPLINE
  5
469
330
1F
100
AcDbEntity
  8
외형선
  6
Continuous
 62
     1
370
    15
100
AcDbSpline
210
0.0
220
0.0
230
1.0
 70
     8
 71
     3
 72
    10
 73
     6
 74
     0
 42
0.000000001
 43
0.00000001
 40
0.0
 40
0.0
 40
0.0
 40
0.0
 40
0.5
 40
0.5
 40
1.0
 40
1.0
 40
1.0
 40
1.0
 10
13.30867607681559
 20
3.349063764712598
 30
0.0
 10
13.44767735322062
 20
3.191376070573783
 30
0.0
 10
13.60457124246991
 20
3.049106964367654
 30
0.0
 10
13.90256246311806
 20
2.796397154683862
 30
0.0
 10
14.04815001431014
 20
2.68278366764154
 30
0.0
 10
14.17478859853044
 20
2.593790777884978
 30
0.0
  0
SPLINE
  5
46A
330
1F
100
AcDbEntity
  8
외형선
  6
Continuous
 62
     1
370
    15
100
AcDbSpline
210
0.0
220
0.0
230
1.0
 70
     8
 71
     3
 72
    14
 73
    10
 74
     0
 42
0.000000001
 43
0.00000001
 40
0.0
 40
0.0
 40
0.0
 40
0.0
 40
0.0000825863271163
 40
0.0000825863271163
 40
0.0000825863271163
 40
0.00015557414617
 40
0.00015557414617
 40
0.00015557414617
 40
0.000231116554271
 40
0.000231116554271
 40
0.000231116554271
 40
0.000231116554271
 10
13.09303946995606
 20
3.558209949247187
 30
0.0
 10
13.11901693817727
 20
3.536732187793584
 30
0.0
 10
13.14528274921135
 20
3.513703196106961
 30
0.0
 10
13.1713657587526
 20
3.489529795676618
 30
0.0
 10
13.19442345447796
 20
3.468160217488562
 30
0.0
 10
13.21749291596406
 20
3.445752975855707
 30
0.0
 10
13.24011996290433
 20
3.42268329365861
 30
0.0
 10
13.26350398030975
 20
3.398841832974044
 30
0.0
 10
13.28664566670269
 20
3.374055798321808
 30
0.0
 10
13.30867607681553
 20
3.349063764712656
 30
0.0
  0
SPLINE
  5
46B
330
1F
100
AcDbEntity
  8
외형선
  6
Continuous
 62
     1
370
    15
100
AcDbSpline
210
0.0
220
0.0
230
1.0
 70
     8
 71
     3
 72
     8
 73
     4
 74
     0
 42
0.000000001
 43
0.00000001
 40
0.0
 40
0.0
 40
0.0
 40
0.0
 40
1.0
 40
1.0
 40
1.0
 40
1.0
 10
13.09304041190406
 20
3.558209170456112
 30
0.0
 10
12.82522859298924
 20
3.779631787041454
 30
0.0
 10
12.55597050854776
 20
3.991952517570761
 30
0.0
 10
12.28847648669889
 20
4.192651987949448
 30
0.0
  0
SPLINE
  5
46C
330
1F
100
AcDbEntity
  8
외형선
  6
Continuous
 62
     1
370
    15
100
AcDbSpline
210
0.0
220
0.0
230
1.0
 70
     8
 71
     3
 72
    14
 73
    10
 74
     0
 42
0.000000001
 43
0.00000001
 40
0.0
 40
0.0
 40
0.0
 40
0.0
 40
0.0000775382967483
 40
0.0000775382967483
 40
0.0000775382967483
 40
0.0001594812728163
 40
0.0001594812728163
 40
0.0001594812728163
 40
0.0002435785256555
 40
0.0002435785256555
 40
0.0002435785256555
 40
0.0002435785256555
 10
12.0718586846886
 20
4.312080265580031
 30
0.0
 10
12.09251357009969
 20
4.305904315367494
 30
0.0
 10
12.11439344264504
 20
4.29725001056609
 30
0.0
 10
12.13691505998675
 20
4.286575108600347
 30
0.0
 10
12.16071761760806
 20
4.275293060544643
 30
0.0
 10
12.18540661619865
 20
4.261675645838183
 30
0.0
 10
12.21048404473409
 20
4.246137208134941
 30
0.0
 10
12.23621970908186
 20
4.230190915369933
 30
0.0
 10
12.26253705550052
 20
4.212115478072592
 30
0.0
 10
12.28898006286694
 20
4.192274145071027
 30
0.0
  0
SPLINE
  5
46D
330
1F
100
AcDbEntity
  8
외형선
  6
Continuous
 62
     1
370
    15
100
AcDbSpline
210
0.0
220
0.0
230
1.0
 70
     8
 71
     3
 72
    10
 73
     6
 74
     0
 42
0.000000001
 43
0.00000001
 40
0.0
 40
0.0
 40
0.0
 40
0.0
 40
0.5
 40
0.5
 40
1.0
 40
1.0
 40
1.0
 40
1.0
 10
11.20472498623783
 20
4.894453141284524
 30
0.0
 10
11.34408852447463
 20
4.737540609903023
 30
0.0
 10
11.5017116019052
 20
4.615465025125788
 30
0.0
 10
11.80014728245404
 20
4.423086295246928
 30
0.0
 10
11.94528796402786
 20
4.349925765740872
 30
0.0
 10
12.07185868468806
 20
4.312080265579768
 30
0.0
  0
SPLINE
  5
46E
330
1F
100
AcDbEntity
  8
외형선
  6
Continuous
 62
     1
370
    15
100
AcDbSpline
210
0.0
220
0.0
230
1.0
 70
     8
 71
     3
 72
    14
 73
    10
 74
     0
 42
0.000000001
 43
0.00000001
 40
0.0
 40
0.0
 40
0.0
 40
0.0
 40
0.0000829377392772
 40
0.0000829377392772
 40
0.0000829377392772
 40
0.000155953834336
 40
0.000155953834336
 40
0.000155953834336
 40
0.0002315199252157
 40
0.0002315199252157
 40
0.0002315199252157
 40
0.0002315199252157
 10
10.988451295975
 20
5.075488490922811
 30
0.0
 10
11.01455957924829
 20
5.059851104698696
 30
0.0
 10
11.0409611383217
 20
5.041940384179847
 30
0.0
 10
11.06718249617753
 20
5.02197003152533
 30
0.0
 10
11.09027360716751
 20
5.004383694761637
 30
0.0
 10
11.11337926250112
 20
4.985082505790652
 30
0.0
 10
11.13604548763842
 20
4.964240748395023
 30
0.0
 10
11.15946814666778
 20
4.942703444583104
 30
0.0
 10
11.18265182654928
 20
4.919305806523434
 30
0.0
 10
11.20472498623774
 20
4.894453141284581
 30
0.0
  0
SPLINE
  5
46F
330
1F
100
AcDbEntity
  8
외형선
  6
Continuous
 62
     1
370
    15
100
AcDbSpline
210
0.0
220
0.0
230
1.0
 70
     8
 71
     3
 72
     8
 73
     4
 74
     0
 42
0.000000001
 43
0.00000001
 40
0.0
 40
0.0
 40
0.0
 40
0.0
 40
1.0
 40
1.0
 40
1.0
 40
1.0
 10
10.98845148554496
 20
5.075488377378187
 30
0.0
 10
10.7186012955486
 20
5.237113397597485
 30
0.0
 10
10.44846950944011
 20
5.385079454555468
 30
0.0
 10
10.18129541024054
 20
5.517748499994839
 30
0.0
  0
SPLINE
  5
470
330
1F
100
AcDbEntity
  8
외형선
  6
Continuous
 62
     1
370
    15
100
AcDbSpline
210
0.0
220
0.0
230
1.0
 70
     8
 71
     3
 72
    14
 73
    10
 74
     0
 42
0.000000001
 43
0.00000001
 40
0.0
 40
0.0
 40
0.0
 40
0.0
 40
0.0000778903512788
 40
0.0000778903512788
 40
0.0000778903512788
 40
0.0001601756228243
 40
0.0001601756228243
 40
0.0001601756228243
 40
0.0002446068003834
 40
0.0002446068003834
 40
0.0002446068003834
 40
0.0002446068003834
 10
9.96422086881929
 20
5.564546043061364
 30
0.0
 10
9.984947253132724
 20
5.567424485912718
 30
0.0
 10
10.00688422568921
 20
5.567477503945137
 30
0.0
 10
10.02945896324711
 20
5.565059612298379
 30
0.0
 10
10.05330944147933
 20
5.562505081068916
 30
0.0
 10
10.07804459120796
 20
5.557177700233959
 30
0.0
 10
10.10316972408261
 20
5.549362356619136
 30
0.0
 10
10.12894910618987
 20
5.541343504326827
 30
0.0
 10
10.15531062313268
 20
5.530653320576471
 30
0.0
 10
10.18180213500411
 20
5.517496862195197
 30
0.0
  0
LINE
  5
476
330
1F
100
AcDbEntity
  8
외형선
  6
Continuous
 62
     1
370
    15
100
AcDbLine
 10
10.45676560103893
 20
5.366812149683634
 30
0.0
 11
10.61023824810981
 21
5.450256168842317
 31
0.0
  0
SPLINE
  5
477
330
1F
100
AcDbEntity
  8
외형선
  6
Continuous
 62
     1
370
    15
100
AcDbSpline
210
0.0
220
0.0
230
1.0
 70
     8
 71
     3
 72
    14
 73
    10
 74
     0
 42
0.000000001
 43
0.00000001
 40
0.0
 40
0.0
 40
0.0
 40
0.0
 40
0.000077130012124
 40
0.000077130012124
 40
0.000077130012124
 40
0.0001590028628162
 40
0.0001590028628162
 40
0.0001590028628162
 40
0.0002430429222846
 40
0.0002430429222846
 40
0.0002430429222846
 40
0.0002430429222846
 10
10.82717224797502
 20
5.501068380731136
 30
0.0
 10
10.80658784080665
 20
5.503463193555179
 30
0.0
 10
10.78478466660461
 20
5.503090281539494
 30
0.0
 10
10.76234641545854
 20
5.500279148494295
 30
0.0
 10
10.73852744707533
 20
5.49729503495138
 30
0.0
 10
10.71382221274896
 20
5.491544494139783
 30
0.0
 10
10.68873557302654
 20
5.483322412970049
 30
0.0
 10
10.66298576152913
 20
5.474882978969336
 30
0.0
 10
10.63666035411071
 20
5.463784054839744
 30
0.0
 10
10.610219385377
 20
5.450246572767677
 30
0.0
  0
SPLINE
  5
478
330
1F
100
AcDbEntity
  8
외형선
  6
Continuous
 62
     1
370
    15
100
AcDbSpline
210
0.0
220
0.0
230
1.0
 70
     8
 71
     3
 72
    10
 73
     6
 74
     0
 42
0.000000001
 43
0.00000001
 40
0.0
 40
0.0
 40
0.0
 40
0.0
 40
0.4999999999999998
 40
0.4999999999999998
 40
1.0
 40
1.0
 40
1.0
 40
1.0
 10
11.69379453223379
 20
5.861390380954768
 30
0.0
 10
11.55508384766056
 20
5.721006625541841
 30
0.0
 10
11.39794681103875
 20
5.629384008636089
 30
0.0
 10
11.09937436215434
 20
5.512962741739011
 30
0.0
 10
10.95370730857154
 20
5.486347151048273
 30
0.0
 10
10.82717224797493
 20
5.501068380731065
 30
0.0
  0
SPLINE
  5
479
330
1F
100
AcDbEntity
  8
외형선
  6
Continuous
 62
     1
370
    15
100
AcDbSpline
210
0.0
220
0.0
230
1.0
 70
     8
 71
     3
 72
    14
 73
    10
 74
     0
 42
0.000000001
 43
0.00000001
 40
0.0
 40
0.0
 40
0.0
 40
0.0
 40
0.0000837488933482
 40
0.0000837488933482
 40
0.0000837488933482
 40
0.0001568516194433
 40
0.0001568516194433
 40
0.0001568516194433
 40
0.0002324908142074
 40
0.0002324908142074
 40
0.0002324908142074
 40
0.0002324908142074
 10
11.91011944791525
 20
5.998689142820945
 30
0.0
 10
11.8838650446326
 20
5.990034719771481
 30
0.0
 10
11.85732464946843
 20
5.97861977564054
 30
0.0
 10
11.83097386561285
 20
5.964460912095719
 30
0.0
 10
11.80796542030773
 20
5.952097961557344
 30
0.0
 10
11.78493746720195
 20
5.937562908548466
 30
0.0
 10
11.7623293187577
 20
5.920821226914307
 30
0.0
 10
11.73897191840998
 20
5.903524712722203
 30
0.0
 10
11.71583727304402
 20
5.883698992177103
 30
0.0
 10
11.69379453223413
 20
5.861390380955095
 30
0.0
  0
SPLINE
  5
47A
330
1F
100
AcDbEntity
  8
외형선
  6
Continuous
 62
     1
370
    15
100
AcDbSpline
210
0.0
220
0.0
230
1.0
 70
     8
 71
     3
 72
     8
 73
     4
 74
     0
 42
0.000000001
 43
0.00000001
 40
0.0
 40
0.0
 40
0.0
 40
0.0
 40
1.0
 40
1.0
 40
1.0
 40
1.0
 10
12.71725222750441
 20
6.214233088737126
 30
0.0
 10
12.44706579882287
 20
6.158849804642694
 30
0.0
 10
12.17694231322647
 20
6.086643834082595
 30
0.0
 10
11.91011946672088
 20
5.998689149019947
 30
0.0
  0
SPLINE
  5
47B
330
1F
100
AcDbEntity
  8
외형선
  6
Continuous
 62
     1
370
    15
100
AcDbSpline
210
0.0
220
0.0
230
1.0
 70
     8
 71
     3
 72
    14
 73
    10
 74
     0
 42
0.000000001
 43
0.00000001
 40
0.0
 40
0.0
 40
0.0
 40
0.0
 40
0.0000774078181156
 40
0.0000774078181156
 40
0.0000774078181156
 40
0.0001594054633182
 40
0.0001594054633182
 40
0.0001594054633182
 40
0.00024356194113
 40
0.00024356194113
 40
0.00024356194113
 40
0.00024356194113
 10
12.93425108851598
 20
6.186919276020001
 30
0.0
 10
12.91358370784993
 20
6.198083769128781
 30
0.0
 10
12.89169300957868
 20
6.206442742285732
 30
0.0
 10
12.86916443357508
 20
6.212163827898303
 30
0.0
 10
12.84529872648732
 20
6.218224475203813
 30
0.0
 10
12.82054674358598
 20
6.221370640834317
 30
0.0
 10
12.79541105576259
 20
6.221736294685721
 30
0.0
 10
12.76961446483547
 20
6.222111562826067
 30
0.0
 10
12.74324054298875
 20
6.21956224811416
 30
0.0
 10
12.71674723684037
 20
6.214129555346384
 30
0.0
  0
SPLINE
  5
47C
330
1F
100
AcDbEntity
  8
외형선
  6
Continuous
 62
     1
370
    15
100
AcDbSpline
210
0.0
220
0.0
230
1.0
 70
     8
 71
     3
 72
    10
 73
     6
 74
     0
 42
0.000000001
 43
0.00000001
 40
0.0
 40
0.0
 40
0.0
 40
0.0
 40
0.5
 40
0.5
 40
1.0
 40
1.0
 40
1.0
 40
1.0
 10
13.80179331248418
 20
6.275150144397346
 30
0.0
 10
13.6627258473733
 20
6.16675382586258
 30
0.0
 10
13.50577883207088
 20
6.117609064322204
 30
0.0
 10
13.20703535113494
 20
6.093650807243359
 30
0.0
 10
13.06112631998956
 20
6.118381435141581
 30
0.0
 10
12.93425108851607
 20
6.186919276019902
 30
0.0
  0
SPLINE
  5
47D
330
1F
100
AcDbEntity
  8
외형선
  6
Continuous
 62
     1
370
    15
100
AcDbSpline
210
0.0
220
0.0
230
1.0
 70
     8
 71
     3
 72
    14
 73
    10
 74
     0
 42
0.000000001
 43
0.00000001
 40
0.0
 40
0.0
 40
0.0
 40
0.0
 40
0.000083155873603
 40
0.000083155873603
 40
0.000083155873603
 40
0.0001562494772865
 40
0.0001562494772865
 40
0.0001562494772865
 40
0.0002318792123164
 40
0.0002318792123164
 40
0.0002318792123164
 40
0.0002318792123164
 10
14.01794742998103
 20
6.349985403293127
 30
0.0
 10
13.99181432622224
 20
6.349929368836458
 30
0.0
 10
13.96539308435895
 20
6.346942493008521
 30
0.0
 10
13.93915749209446
 20
6.340825019761747
 30
0.0
 10
13.9160896221343
 20
6.335446178837595
 30
0.0
 10
13.89301166627339
 20
6.327611182886359
 30
0.0
 10
13.87037366083799
 20
6.317080391365488
 30
0.0
 10
13.84698493094713
 20
6.306200376378252
 30
0.0
 10
13.82383731792213
 20
6.292332373420644
 30
0.0
 10
13.80179331248452
 20
6.275150144397573
 30
0.0
  0
SPLINE
  5
47E
330
1F
100
AcDbEntity
  8
외형선
  6
Continuous
 62
     1
370
    15
100
AcDbSpline
210
0.0
220
0.0
230
1.0
 70
     8
 71
     3
 72
     8
 73
     4
 74
     0
 42
0.000000001
 43
0.00000001
 40
0.0
 40
0.0
 40
0.0
 40
0.0
 40
1.0
 40
1.0
 40
1.0
 40
1.0
 10
14.82336676140081
 20
6.300951838902359
 30
0.0
 10
14.55493622633812
 20
6.334169700714201
 30
0.0
 10
14.28538967833449
 20
6.350558851410172
 30
0.0
 10
14.01794743173618
 20
6.349985403296872
 30
0.0
  0
SPLINE
  5
47F
330
1F
100
AcDbEntity
  8
외형선
  6
Continuous
 62
     1
370
    15
100
AcDbSpline
210
0.0
220
0.0
230
1.0
 70
     8
 71
     3
 72
    14
 73
    10
 74
     0
 42
0.000000001
 43
0.00000001
 40
0.0
 40
0.0
 40
0.0
 40
0.0
 40
0.0000770930279773
 40
0.0000770930279773
 40
0.0000770930279773
 40
0.0001589506381587
 40
0.0001589506381587
 40
0.0001589506381587
 40
0.0002429778054309
 40
0.0002429778054309
 40
0.0002429778054309
 40
0.0002429778054309
 10
15.03960192342472
 20
6.198588957101302
 30
0.0
 10
15.01905969237295
 20
6.217283499534711
 30
0.0
 10
14.99729618405577
 20
6.23346258466537
 30
0.0
 10
14.97489271165548
 20
6.24710683966874
 30
0.0
 10
14.95110374367814
 20
6.261594894892967
 30
0.0
 10
14.92642268876641
 20
6.273331177890862
 30
0.0
 10
14.90135317018808
 20
6.282271783000718
 30
0.0
 10
14.87562013653964
 20
6.291449019149505
 30
0.0
 10
14.84930391611973
 20
6.297744213097937
 30
0.0
 10
14.82286444937158
 20
6.301013979510232
 30
0.0
  0
SPLINE
  5
480
330
1F
100
AcDbEntity
  8
외형선
  6
Continuous
 62
     1
370
    15
100
AcDbSpline
210
0.0
220
0.0
230
1.0
 70
     8
 71
     3
 72
    10
 73
     6
 74
     0
 42
0.000000001
 43
0.00000001
 40
0.0
 40
0.0
 40
0.0
 40
0.0
 40
0.4999999999999999
 40
0.4999999999999999
 40
1.0
 40
1.0
 40
1.0
 40
1.0
 10
15.90485745968899
 20
6.004486113390096
 30
0.0
 10
15.76586170116498
 20
5.939885142209087
 30
0.0
 10
15.60870833330195
 20
5.938445112010622
 30
0.0
 10
15.3112820553054
 20
6.010082106298379
 30
0.0
 10
15.1659797831715
 20
6.083578262511709
 30
0.0
 10
15.03960192342477
 20
6.198588957101231
 30
0.0
  0
SPLINE
  5
481
330
1F
100
AcDbEntity
  8
외형선
  6
Continuous
 62
     1
370
    15
100
AcDbSpline
210
0.0
220
0.0
230
1.0
 70
     8
 71
     3
 72
    14
 73
    10
 74
     0
 42
0.000000001
 43
0.00000001
 40
0.0
 40
0.0
 40
0.0
 40
0.0
 40
0.0000827925012577
 40
0.0000827925012577
 40
0.0000827925012577
 40
0.0001557857620513
 40
0.0001557857620513
 40
0.0001557857620513
 40
0.000231332152489
 40
0.000231332152489
 40
0.000231332152489
 40
0.000231332152489
 10
16.12083522765143
 20
6.009525793787711
 30
0.0
 10
16.09478082683386
 20
6.017919882935482
 30
0.0
 10
16.06843577860689
 20
6.023523712666333
 30
0.0
 10
16.04227255295125
 20
6.025941710002352
 30
0.0
 10
16.0191996086452
 20
6.028074104478494
 30
0.0
 10
15.99611366060448
 20
6.027742887018379
 30
0.0
 10
15.97346891812258
 20
6.024520113314248
 30
0.0
 10
15.95006724394016
 20
6.021189613961107
 30
0.0
 10
15.92690645303482
 20
6.01473381014588
 30
0.0
 10
15.90485745968936
 20
6.004486113390238
 30
0.0
  0
SPLINE
  5
482
330
1F
100
AcDbEntity
  8
외형선
  6
Continuous
 62
     1
370
    15
100
AcDbSpline
210
0.0
220
0.0
230
1.0
 70
     8
 71
     3
 72
     8
 73
     4
 74
     0
 42
0.000000001
 43
0.00000001
 40
0.0
 40
0.0
 40
0.0
 40
0.0
 40
1.0
 40
1.0
 40
1.0
 40
1.0
 10
16.92677900195854
 20
5.702373550612117
 30
0.0
 10
16.65916660748527
 20
5.820186610339627
 30
0.0
 10
16.38927207638863
 20
5.923061972984408
 30
0.0
 10
16.1203278780918
 20
6.009689230541307
 30
0.0
  0
SPLINE
  5
483
330
1F
100
AcDbEntity
  8
외형선
  6
Continuous
 62
     1
370
    15
100
AcDbSpline
210
0.0
220
0.0
230
1.0
 70
     8
 71
     3
 72
    14
 73
    10
 74
     0
 42
0.000000001
 43
0.00000001
 40
0.0
 40
0.0
 40
0.0
 40
0.0
 40
0.0000778530641429
 40
0.0000778530641429
 40
0.0000778530641429
 40
0.0001599575290303
 40
0.0001599575290303
 40
0.0001599575290303
 40
0.0002442073705367
 40
0.0002442073705367
 40
0.0002442073705367
 40
0.0002442073705367
 10
17.14429943140845
 20
5.535241921050671
 30
0.0
 10
17.12357055043556
 20
5.559649422248038
 30
0.0
 10
17.10161407379811
 20
5.582067817605244
 30
0.0
 10
17.07901519796001
 20
5.602297699024719
 30
0.0
 10
17.05518029285959
 20
5.623634039260368
 30
0.0
 10
17.03046150395916
 20
5.642689248436406
 30
0.0
 10
17.0053543501188
 20
5.659249126454052
 30
0.0
 10
16.97959215504757
 20
5.676241048778602
 30
0.0
 10
16.95324930570537
 20
5.690720325502754
 30
0.0
 10
16.92677900052685
 20
5.702373551242426
 30
0.0
  0
SPLINE
  5
484
330
1F
100
AcDbEntity
  8
외형선
  6
Continuous
 62
     1
370
    15
100
AcDbSpline
210
0.0
220
0.0
230
1.0
 70
     8
 71
     3
 72
    10
 73
     6
 74
     0
 42
0.000000001
 43
0.00000001
 40
0.0
 40
0.0
 40
0.0
 40
0.0
 40
0.4999999999999998
 40
0.4999999999999998
 40
1.0
 40
1.0
 40
1.0
 40
1.0
 10
18.01213628056444
 20
5.079110277614982
 30
0.0
 10
17.87268219354083
 20
5.065371980279126
 30
0.0
 10
17.71489726192148
 20
5.111783557921855
 30
0.0
 10
17.41605548737021
 20
5.271426096629641
 30
0.0
 10
17.27085091009618
 20
5.38623217124225
 30
0.0
 10
17.14429943141228
 20
5.535241921046188
 30
0.0
  0
SPLINE
  5
485
330
1F
100
AcDbEntity
  8
외형선
  6
Continuous
 62
     1
370
    15
100
AcDbSpline
210
0.0
220
0.0
230
1.0
 70
     8
 71
     3
 72
    14
 73
    10
 74
     0
 42
0.000000001
 43
0.00000001
 40
0.0
 40
0.0
 40
0.0
 40
0.0
 40
0.0000829145819587
 40
0.0000829145819587
 40
0.0000829145819587
 40
0.0001559281636592
 40
0.0001559281636592
 40
0.0001559281636592
 40
0.0002314932362198
 40
0.0002314932362198
 40
0.0002314932362198
 40
0.0002314932362198
 10
18.22842105888431
 20
5.013704973106323
 30
0.0
 10
18.2023197716069
 20
5.029668904242174
 30
0.0
 10
18.17592367457407
 20
5.043266326459916
 30
0.0
 10
18.14970613558429
 20
5.053949324757172
 30
0.0
 10
18.12661277554425
 20
5.063359297450726
 30
0.0
 10
18.10350358595013
 20
5.070570755390493
 30
0.0
 10
18.08083297015852
 20
5.07501470852649
 30
0.0
 10
18.05740531426945
 20
5.079607058633544
 30
0.0
 10
18.03421553848161
 20
5.081285412217996
 30
0.0
 10
18.01213628056475
 20
5.079110277615017
 30
0.0
  0
SPLINE
  5
486
330
1F
100
AcDbEntity
  8
외형선
  6
Continuous
 62
     1
370
    15
100
AcDbSpline
210
0.0
220
0.0
230
1.0
 70
     8
 71
     3
 72
     8
 73
     4
 74
     0
 42
0.000000001
 43
0.00000001
 40
0.0
 40
0.0
 40
0.0
 40
0.0
 40
1.0
 40
1.0
 40
1.0
 40
1.0
 10
19.03509840914798
 20
4.479653917088585
 30
0.0
 10
18.76860203582026
 20
4.669646956830748
 30
0.0
 10
18.4986324460909
 20
4.848439715050405
 30
0.0
 10
18.22842105889261
 20
5.013704973101214
 30
0.0
  0
SPLINE
  5
487
330
1F
100
AcDbEntity
  8
외형선
  6
Continuous
 62
     1
370
    15
100
AcDbSpline
210
0.0
220
0.0
230
1.0
 70
     8
 71
     3
 72
    14
 73
    10
 74
     0
 42
0.000000001
 43
0.00000001
 40
0.0
 40
0.0
 40
0.0
 40
0.0
 40
0.0000774960109368
 40
0.0000774960109368
 40
0.0000774960109368
 40
0.0001598077124528
 40
0.0001598077124528
 40
0.0001598077124528
 40
0.0002442799016994
 40
0.0002442799016994
 40
0.0002442799016994
 40
0.0002442799016994
 10
19.25184986886173
 20
4.266251025439979
 30
0.0
 10
19.23121718957181
 20
4.293479580614944
 30
0.0
 10
19.20937073057498
 20
4.319505411867413
 30
0.0
 10
19.18689904487015
 20
4.343971828209947
 30
0.0
 10
19.16302974126375
 20
4.369959923963451
 30
0.0
 10
19.13828437020614
 20
4.394375800151616
 30
0.0
 10
19.11316878400455
 20
4.416862756312641
 30
0.0
 10
19.08739448173451
 20
4.439939486458401
 30
0.0
 10
19.06106262033059
 20
4.461144968547851
 30
0.0
 10
19.03459272320329
 20
4.480014419003939
 30
0.0
  0
SPLINE
  5
488
330
1F
100
AcDbEntity
  8
외형선
  6
Continuous
 62
     1
370
    15
100
AcDbSpline
210
0.0
220
0.0
230
1.0
 70
     8
 71
     3
 72
    10
 73
     6
 74
     0
 42
0.000000001
 43
0.00000001
 40
0.0
 40
0.0
 40
0.0
 40
0.0
 40
0.5
 40
0.5
 40
1.0
 40
1.0
 40
1.0
 40
1.0
 10
20.11710872687691
 20
3.601964038965528
 30
0.0
 10
19.97831093696557
 20
3.640213924636563
 30
0.0
 10
19.82105225292849
 20
3.728687139488516
 30
0.0
 10
19.52294269418015
 20
3.957284504982043
 30
0.0
 10
19.37787543020709
 20
4.099937484560202
 30
0.0
 10
19.25184986886184
 20
4.266251025439901
 30
0.0
  0
SPLINE
  5
489
330
1F
100
AcDbEntity
  8
외형선
  6
Continuous
 62
     1
370
    15
100
AcDbSpline
210
0.0
220
0.0
230
1.0
 70
     8
 71
     3
 72
    14
 73
    10
 74
     0
 42
0.000000001
 43
0.00000001
 40
0.0
 40
0.0
 40
0.0
 40
0.0
 40
0.0000824378100892
 40
0.0000824378100892
 40
0.0000824378100892
 40
0.0001553457867585
 40
0.0001553457867585
 40
0.0001553457867585
 40
0.0002308262083566
 40
0.0002308262083566
 40
0.0002308262083566
 40
0.0002308262083566
 10
20.33265896591958
 20
3.473808141376602
 30
0.0
 10
20.30672655494668
 20
3.495474668850067
 30
0.0
 10
20.28049758727859
 20
3.515468291801457
 30
0.0
 10
20.25444224146181
 20
3.533152863568661
 30
0.0
 10
20.23139311165715
 20
3.548797023238174
 30
0.0
 10
20.20832477388483
 20
3.562739246380191
 30
0.0
 10
20.18569536372231
 20
3.574328684474184
 30
0.0
 10
20.16230303020466
 20
3.586308846538929
 30
0.0
 10
20.13914763038766
 20
3.595890559408369
 30
0.0
 10
20.11710872687725
 20
3.601964038965436
 30
0.0
  0
SPLINE
  5
48A
330
1F
100
AcDbEntity
  8
외형선
  6
Continuous
 62
     1
370
    15
100
AcDbSpline
210
0.0
220
0.0
230
1.0
 70
     8
 71
     3
 72
     8
 73
     4
 74
     0
 42
0.000000001
 43
0.00000001
 40
0.0
 40
0.0
 40
0.0
 40
0.0
 40
1.0
 40
1.0
 40
1.0
 40
1.0
 10
21.13756781552816
 20
2.772096503715789
 30
0.0
 10
20.86904001491327
 20
3.014170492542024
 30
0.0
 10
20.60276687726465
 20
3.248133001136965
 30
0.0
 10
20.33265896760812
 20
3.473808139965814
 30
0.0
  0
SPLINE
  5
48B
330
1F
100
AcDbEntity
  8
외형선
  6
Continuous
 62
     1
370
    15
100
AcDbSpline
210
0.0
220
0.0
230
1.0
 70
     8
 71
     3
 72
    14
 73
    10
 74
     0
 42
0.000000001
 43
0.00000001
 40
0.0
 40
0.0
 40
0.0
 40
0.0
 40
0.000077378626905
 40
0.000077378626905
 40
0.000077378626905
 40
0.0001594761366277
 40
0.0001594761366277
 40
0.0001594761366277
 40
0.0002437349360168
 40
0.0002437349360168
 40
0.0002437349360168
 40
0.0002437349360168
 10
21.35483323774942
 20
2.536198985574438
 30
0.0
 10
21.33419437732032
 20
2.563296467743166
 30
0.0
 10
21.31233838063931
 20
2.590092014524232
 30
0.0
 10
21.28985206137545
 20
2.616105658945949
 30
0.0
 10
21.26599324606393
 20
2.64370709653799
 30
0.0
 10
21.24125422877414
 20
2.67062617197064
 30
0.0
 10
21.21613984766954
 20
2.696393538111467
 30
0.0
 10
21.19036500861244
 20
2.722838534404113
 30
0.0
 10
21.16402182919221
 20
2.748248587062593
 30
0.0
 10
21.13756781552029
 20
2.772096503722909
 30
0.0
  0
SPLINE
  5
48C
330
1F
100
AcDbEntity
  8
외형선
  6
Continuous
 62
     1
370
    15
100
AcDbSpline
210
0.0
220
0.0
230
1.0
 70
     8
 71
     3
 72
    10
 73
     6
 74
     0
 42
0.000000001
 43
0.00000001
 40
0.0
 40
0.0
 40
0.0
 40
0.0
 40
0.5
 40
0.5
 40
1.0
 40
1.0
 40
1.0
 40
1.0
 10
22.22209139693966
 20
1.732704050620222
 30
0.0
 10
22.0830869504337
 20
1.819616643596846
 30
0.0
 10
21.92565699564505
 20
1.941213152998651
 30
0.0
 10
21.62688165919822
 20
2.214854053850958
 30
0.0
 10
21.48129745990936
 20
2.370159682351337
 30
0.0
 10
21.35483323774948
 20
2.536198985574404
 30
0.0
  0
SPLINE
  5
48D
330
1F
100
AcDbEntity
  8
외형선
  6
Continuous
 62
     1
370
    15
100
AcDbSpline
210
0.0
220
0.0
230
1.0
 70
     8
 71
     3
 72
    14
 73
    10
 74
     0
 42
0.000000001
 43
0.00000001
 40
0.0
 40
0.0
 40
0.0
 40
0.0
 40
0.0000832572665079
 40
0.0000832572665079
 40
0.0000832572665079
 40
0.0001563193097535
 40
0.0001563193097535
 40
0.0001563193097535
 40
0.0002319315841865
 40
0.0002319315841865
 40
0.0002319315841865
 40
0.0002319315841865
 10
22.43843856482285
 20
1.554019093944761
 30
0.0
 10
22.41229520053755
 20
1.579409881470619
 30
0.0
 10
22.38584867476722
 20
1.603980072040636
 30
0.0
 10
22.35957272168544
 20
1.627063236596031
 30
0.0
 10
22.33650755408603
 20
1.647325757903624
 30
0.0
 10
22.31342008594494
 20
1.666577351560734
 30
0.0
 10
22.2907635856849
 20
1.684161613275209
 30
0.0
 10
22.26735159202356
 20
1.702332231820586
 30
0.0
 10
22.24416950671189
 20
1.71889970251077
 30
0.0
 10
22.22209139694001
 20
1.732704050620023
 30
0.0
  0
SPLINE
  5
48E
330
1F
100
AcDbEntity
  8
외형선
  6
Continuous
 62
     1
370
    15
100
AcDbSpline
210
0.0
220
0.0
230
1.0
 70
     8
 71
     3
 72
     8
 73
     4
 74
     0
 42
0.000000001
 43
0.00000001
 40
0.0
 40
0.0
 40
0.0
 40
0.0
 40
1.0
 40
1.0
 40
1.0
 40
1.0
 10
23.24524104563368
 20
0.7592036792438053
 30
0.0
 10
22.97453117162612
 20
1.027503820318317
 30
0.0
 10
22.70776661922976
 20
1.292444059945753
 30
0.0
 10
22.43843855843754
 20
1.554019100146208
 30
0.0
  0
SPLINE
  5
48F
330
1F
100
AcDbEntity
  8
외형선
  6
Continuous
 62
     1
370
    15
100
AcDbSpline
210
0.0
220
0.0
230
1.0
 70
     8
 71
     3
 72
    14
 73
    10
 74
     0
 42
0.000000001
 43
0.00000001
 40
0.0
 40
0.0
 40
0.0
 40
0.0
 40
0.0000773191756061
 40
0.0000773191756061
 40
0.0000773191756061
 40
0.000159364880685
 40
0.000159364880685
 40
0.000159364880685
 40
0.0002435732354891
 40
0.0002435732354891
 40
0.0002435732354891
 40
0.0002435732354891
 10
23.4626749680394
 20
0.526573657892415
 30
0.0
 10
23.44203182164832
 20
0.550607827340835
 30
0.0
 10
23.42016855695814
 20
0.5752707340696348
 30
0.0
 10
23.39767132693196
 20
0.6000132718232096
 30
0.0
 10
23.37379770747738
 20
0.626269567819749
 30
0.0
 10
23.34903941018321
 20
0.6528030540362282
 30
0.0
 10
23.32390150160531
 20
0.6790856015606879
 30
0.0
 10
23.29810172475455
 20
0.7060601551158232
 30
0.0
 10
23.27172871919281
 20
0.7329517865899873
 30
0.0
 10
23.24524104739017
 20
0.7592036775029751
 30
0.0
  0
SPLINE
  5
490
330
1F
100
AcDbEntity
  8
외형선
  6
Continuous
 62
     1
370
    15
100
AcDbSpline
210
0.0
220
0.0
230
1.0
 70
     8
 71
     3
 72
    10
 73
     6
 74
     0
 42
0.000000001
 43
0.00000001
 40
0.0
 40
0.0
 40
0.0
 40
0.0
 40
0.5
 40
0.5
 40
1.0
 40
1.0
 40
1.0
 40
1.0
 10
24.32941588685562
 20
-0.3282987643132015
 30
0.0
 10
24.19068675330256
 20
-0.2023733201935995
 30
0.0
 10
24.03348014985427
 20
-0.0607998732813455
 30
0.0
 10
23.73487584933905
 20
0.2281934701514546
 30
0.0
 10
23.589245922817
 20
0.3792110554701383
 30
0.0
 10
23.46267496803948
 20
0.5265736578924007
 30
0.0
  0
SPLINE
  5
491
330
1F
100
AcDbEntity
  8
외형선
  6
Continuous
 62
     1
370
    15
100
AcDbSpline
210
0.0
220
0.0
230
1.0
 70
     8
 71
     3
 72
    10
 73
     6
 74
     0
 42
0.000000001
 43
0.00000001
 40
0.0
 40
0.0
 40
0.0
 40
0.0
 40
0.5
 40
0.5
 40
1.0
 40
1.0
 40
1.0
 40
1.0
 10
26.43254248085943
 20
-2.350795217128888
 30
0.0
 10
26.29375292544633
 20
-2.199680411441803
 30
0.0
 10
26.13696196267184
 20
-2.05306580486605
 30
0.0
 10
25.83852669279027
 20
-1.779561599468698
 30
0.0
 10
25.6928006494757
 20
-1.648909527715985
 30
0.0
 10
25.56619396978495
 20
-1.536070909905347
 30
0.0
  0
SPLINE
  5
492
330
1F
100
AcDbEntity
  8
외형선
  6
Continuous
 62
     1
370
    15
100
AcDbSpline
210
0.0
220
0.0
230
1.0
 70
     8
 71
     3
 72
    14
 73
    10
 74
     0
 42
0.000000001
 43
0.00000001
 40
0.0
 40
0.0
 40
0.0
 40
0.0
 40
0.0000833153722638
 40
0.0000833153722638
 40
0.0000833153722638
 40
0.0001564280557901
 40
0.0001564280557901
 40
0.0001564280557901
 40
0.000232073269123
 40
0.000232073269123
 40
0.000232073269123
 40
0.000232073269123
 10
26.64877516077504
 20
-2.567004678897318
 30
0.0
 10
26.62260355558091
 20
-2.543045144115267
 30
0.0
 10
26.59614416530217
 20
-2.517983666450943
 30
0.0
 10
26.56987135806795
 20
-2.492316831559001
 30
0.0
 10
26.54680878102723
 20
-2.469786184117729
 30
0.0
 10
26.52373667889977
 20
-2.446639325313631
 30
0.0
 10
26.5011040547508
 20
-2.423337986946271
 30
0.0
 10
26.47772219271046
 20
-2.399265273350463
 30
0.0
 10
26.45458128555528
 20
-2.374791184831734
 30
0.0
 10
26.43254248085977
 20
-2.350795217129245
 30
0.0
  0
SPLINE
  5
493
330
1F
100
AcDbEntity
  8
외형선
  6
Continuous
 62
     1
370
    15
100
AcDbSpline
210
0.0
220
0.0
230
1.0
 70
     8
 71
     3
 72
    14
 73
    10
 74
     0
 42
0.000000001
 43
0.00000001
 40
0.0
 40
0.0
 40
0.0
 40
0.0
 40
0.000077533889074
 40
0.000077533889074
 40
0.000077533889074
 40
0.0001595467110041
 40
0.0001595467110041
 40
0.0001595467110041
 40
0.0002437143151144
 40
0.0002437143151144
 40
0.0002437143151144
 40
0.0002437143151144
 10
27.67274319751819
 20
-3.434588393888359
 30
0.0
 10
27.65205611075028
 20
-3.423768466238724
 30
0.0
 10
27.63014391266087
 20
-3.41075327290899
 30
0.0
 10
27.60759179677406
 20
-3.396052232285987
 30
0.0
 10
27.58373539119016
 20
-3.380500964752285
 30
0.0
 10
27.5589928253357
 20
-3.362954112513802
 30
0.0
 10
27.53386440451847
 20
-3.343880527812259
 30
0.0
 10
27.5080766961401
 20
-3.324306514642436
 30
0.0
 10
27.48170981666182
 20
-3.302994256282075
 30
0.0
 10
27.45522043288101
 20
-3.280377231020366
 30
0.0
  0
SPLINE
  5
494
330
1F
100
AcDbEntity
  8
외형선
  6
Continuous
 62
     1
370
    15
100
AcDbSpline
210
0.0
220
0.0
230
1.0
 70
     8
 71
     3
 72
    10
 73
     6
 74
     0
 42
0.000000001
 43
0.00000001
 40
0.0
 40
0.0
 40
0.0
 40
0.0
 40
0.5
 40
0.5
 40
1.0
 40
1.0
 40
1.0
 40
1.0
 10
28.54049169254008
 20
-4.120353763448604
 30
0.0
 10
28.40113113605223
 20
-3.960646491039844
 30
0.0
 10
28.24376978173804
 20
-3.825721061137499
 30
0.0
 10
27.94543100416481
 20
-3.597211552570782
 30
0.0
 10
27.79961973120398
 20
-3.5009483860088
 30
0.0
 10
27.67274319751828
 20
-3.434588393888324
 30
0.0
  0
SPLINE
  5
495
330
1F
100
AcDbEntity
  8
외형선
  6
Continuous
 62
     1
370
    15
100
AcDbSpline
210
0.0
220
0.0
230
1.0
 70
     8
 71
     3
 72
    14
 73
    10
 74
     0
 42
0.000000001
 43
0.00000001
 40
0.0
 40
0.0
 40
0.0
 40
0.0
 40
0.0000829717421466
 40
0.0000829717421466
 40
0.0000829717421466
 40
0.000156015378072
 40
0.000156015378072
 40
0.000156015378072
 40
0.0002316037227236
 40
0.0002316037227236
 40
0.0002316037227236
 40
0.0002316037227236
 10
28.75668245744901
 20
-4.319451639921835
 30
0.0
 10
28.73057670333431
 20
-4.300360495390221
 30
0.0
 10
28.70418040086729
 20
-4.279352395780846
 30
0.0
 10
28.6779669745941
 20
-4.256750787803453
 30
0.0
 10
28.65488350913374
 20
-4.236847878826259
 30
0.0
 10
28.63178775087504
 20
-4.215576363298352
 30
0.0
 10
28.6091322183013
 20
-4.193221239337488
 30
0.0
 10
28.58572237152878
 20
-4.170121803259276
 30
0.0
 10
28.56255297697517
 20
-4.145636007232325
 30
0.0
 10
28.54049169254036
 20
-4.120353763448974
 30
0.0
  0
SPLINE
  5
496
330
1F
100
AcDbEntity
  8
외형선
  6
Continuous
 62
     1
370
    15
100
AcDbSpline
210
0.0
220
0.0
230
1.0
 70
     8
 71
     3
 72
     8
 73
     4
 74
     0
 42
0.000000001
 43
0.00000001
 40
0.0
 40
0.0
 40
0.0
 40
0.0
 40
1.0
 40
1.0
 40
1.0
 40
1.0
 10
29.56201467742942
 20
-4.872150533842946
 30
0.0
 10
29.29453740408868
 20
-4.700643465965099
 30
0.0
 10
29.02502316416453
 20
-4.515689003440739
 30
0.0
 10
28.75669119782625
 20
-4.319458031757618
 30
0.0
  0
SPLINE
  5
497
330
1F
100
AcDbEntity
  8
외형선
  6
Continuous
 62
     1
370
    15
100
AcDbSpline
210
0.0
220
0.0
230
1.0
 70
     8
 71
     3
 72
    14
 73
    10
 74
     0
 42
0.000000001
 43
0.00000001
 40
0.0
 40
0.0
 40
0.0
 40
0.0
 40
0.0000773908863454
 40
0.0000773908863454
 40
0.0000773908863454
 40
0.0001593559399926
 40
0.0001593559399926
 40
0.0001593559399926
 40
0.0002434816197803
 40
0.0002434816197803
 40
0.0002434816197803
 40
0.0002434816197803
 10
29.77890672236804
 20
-4.959139270656292
 30
0.0
 10
29.75830896870118
 20
-4.957154422791993
 30
0.0
 10
29.73648749252566
 20
-4.952514033009605
 30
0.0
 10
29.71402446890925
 20
-4.945619822554695
 30
0.0
 10
29.69023247920454
 20
-4.938317734155303
 30
0.0
 10
29.66555082845237
 20
-4.928437332461995
 30
0.0
 10
29.64047950795045
 20
-4.916339861313842
 30
0.0
 10
29.61474825810059
 20
-4.903923959541136
 30
0.0
 10
29.58843356328093
 20
-4.889090453063316
 30
0.0
 10
29.56199238974732
 20
-4.872136242899883
 30
0.0
  0
SPLINE
  5
498
330
1F
100
AcDbEntity
  8
외형선
  6
Continuous
 62
     1
370
    15
100
AcDbSpline
210
0.0
220
0.0
230
1.0
 70
     8
 71
     3
 72
    10
 73
     6
 74
     0
 42
0.000000001
 43
0.00000001
 40
0.0
 40
0.0
 40
0.0
 40
0.0
 40
0.5
 40
0.5
 40
1.0
 40
1.0
 40
1.0
 40
1.0
 10
30.64384518748632
 20
-5.43694487418824
 30
0.0
 10
30.50486604611415
 20
-5.286494062416322
 30
0.0
 10
30.34758796001735
 20
-5.178409270276232
 30
0.0
 10
30.0497423823377
 20
-5.022057323878832
 30
0.0
 10
29.90504840223166
 20
-4.971294578847774
 30
0.0
 10
29.77890672236812
 20
-4.959139270656221
 30
0.0
  0
SPLINE
  5
499
330
1F
100
AcDbEntity
  8
외형선
  6
Continuous
 62
     1
370
    15
100
AcDbSpline
210
0.0
220
0.0
230
1.0
 70
     8
 71
     3
 72
    14
 73
    10
 74
     0
 42
0.000000001
 43
0.00000001
 40
0.0
 40
0.0
 40
0.0
 40
0.0
 40
0.0000826141340682
 40
0.0000826141340682
 40
0.0000826141340682
 40
0.0001555642151511
 40
0.0001555642151511
 40
0.0001555642151511
 40
0.0002310760197407
 40
0.0002310760197407
 40
0.0002310760197407
 40
0.0002310760197407
 10
30.85970373268224
 20
-5.597798680475362
 30
0.0
 10
30.83369650988998
 20
-5.585562258152776
 30
0.0
 10
30.80739637927561
 20
-5.570810535736767
 30
0.0
 10
30.78127498887064
 20
-5.553658477219455
 30
0.0
 10
30.75820313258241
 20
-5.538508830779334
 30
0.0
 10
30.73511592478186
 20
-5.521384773795203
 30
0.0
 10
30.71246959469012
 20
-5.502362850378487
 30
0.0
 10
30.68906332250554
 20
-5.482702608954736
 30
0.0
 10
30.66589681068014
 20
-5.460816691049613
 30
0.0
 10
30.64384518748667
 20
-5.436944874188582
 30
0.0
  0
SPLINE
  5
49A
330
1F
100
AcDbEntity
  8
외형선
  6
Continuous
 62
     1
370
    15
100
AcDbSpline
210
0.0
220
0.0
230
1.0
 70
     8
 71
     3
 72
     8
 73
     4
 74
     0
 42
0.000000001
 43
0.00000001
 40
0.0
 40
0.0
 40
0.0
 40
0.0
 40
1.0
 40
1.0
 40
1.0
 40
1.0
 10
31.66592989539773
 20
-5.932116968850705
 30
0.0
 10
31.39915701216906
 20
-5.836506854894067
 30
0.0
 10
31.12917032197295
 20
-5.72460159238585
 30
0.0
 10
30.85920297890251
 20
-5.597563058062986
 30
0.0
  0
SPLINE
  5
49B
330
1F
100
AcDbEntity
  8
외형선
  6
Continuous
 62
     1
370
    15
100
AcDbSpline
210
0.0
220
0.0
230
1.0
 70
     8
 71
     3
 72
    14
 73
    10
 74
     0
 42
0.000000001
 43
0.00000001
 40
0.0
 40
0.0
 40
0.0
 40
0.0
 40
0.0000777611987397
 40
0.0000777611987397
 40
0.0000777611987397
 40
0.0001600952667048
 40
0.0001600952667048
 40
0.0001600952667048
 40
0.0002445796503277
 40
0.0002445796503277
 40
0.0002445796503277
 40
0.0002445796503277
 10
31.88293428124566
 20
-5.9427067303327
 30
0.0
 10
31.86223245120145
 20
-5.949756353966576
 30
0.0
 10
31.84031584698296
 20
-5.953952116592601
 30
0.0
 10
31.81777485852753
 20
-5.955553344238139
 30
0.0
 10
31.79390659854979
 20
-5.95724885629623
 30
0.0
 10
31.76917541440348
 20
-5.9560466779983
 30
0.0
 10
31.74405307757316
 20
-5.952184895359251
 30
0.0
 10
31.71827551444899
 20
-5.948222391933625
 30
0.0
 10
31.6919149490836
 20
-5.941431764677587
 30
0.0
 10
31.66542329449711
 20
-5.931935387402886
 30
0.0
  0
SPLINE
  5
49C
330
1F
100
AcDbEntity
  8
외형선
  6
Continuous
 62
     1
370
    15
100
AcDbSpline
210
0.0
220
0.0
230
1.0
 70
     8
 71
     3
 72
    10
 73
     6
 74
     0
 42
0.000000001
 43
0.00000001
 40
0.0
 40
0.0
 40
0.0
 40
0.0
 40
0.5
 40
0.5
 40
1.0
 40
1.0
 40
1.0
 40
1.0
 10
32.75061948953125
 20
-6.16326454283451
 30
0.0
 10
32.61132764666633
 20
-6.037801881085654
 30
0.0
 10
32.45364945519943
 20
-5.967674470947896
 30
0.0
 10
32.15476953608637
 20
-5.899233457406266
 30
0.0
 10
32.0093076970956
 20
-5.899672611263354
 30
0.0
 10
31.88293428124571
 20
-5.942706730332616
 30
0.0
  0
SPLINE
  5
49D
330
1F
100
AcDbEntity
  8
외형선
  6
Continuous
 62
     1
370
    15
100
AcDbSpline
210
0.0
220
0.0
230
1.0
 70
     8
 71
     3
 72
    14
 73
    10
 74
     0
 42
0.000000001
 43
0.00000001
 40
0.0
 40
0.0
 40
0.0
 40
0.0
 40
0.0000829750602977
 40
0.0000829750602977
 40
0.0000829750602977
 40
0.000155992230152
 40
0.000155992230152
 40
0.000155992230152
 40
0.0002315624337211
 40
0.0002315624337211
 40
0.0002315624337211
 40
0.0002315624337211
 10
32.96693187546649
 20
-6.268923341758748
 30
0.0
 10
32.9408242706964
 20
-6.264774592345516
 30
0.0
 10
32.91441881608926
 20
-6.257760863409869
 30
0.0
 10
32.88818890617533
 20
-6.247777231846269
 30
0.0
 10
32.86510032131238
 20
-6.238989251813051
 30
0.0
 10
32.84199346108969
 20
-6.227841196070584
 30
0.0
 10
32.81932295058677
 20
-6.214189083552368
 30
0.0
 10
32.79589505302548
 20
-6.200080874849673
 30
0.0
 10
32.77270248887216
 20
-6.183155096507432
 30
0.0
 10
32.75061948953153
 20
-6.163264542834794
 30
0.0
  0
SPLINE
  5
49E
330
1F
100
AcDbEntity
  8
외형선
  6
Continuous
 62
     1
370
    15
100
AcDbSpline
210
0.0
220
0.0
230
1.0
 70
     8
 71
     3
 72
     8
 73
     4
 74
     0
 42
0.000000001
 43
0.00000001
 40
0.0
 40
0.0
 40
0.0
 40
0.0
 40
1.0
 40
1.0
 40
1.0
 40
1.0
 10
33.77341692130499
 20
-6.346608782677022
 30
0.0
 10
33.50491311752767
 20
-6.33780821840706
 30
0.0
 10
33.23762000030197
 20
-6.311938287246447
 30
0.0
 10
32.9669318783041
 20
-6.268923342209659
 30
0.0
  0
SPLINE
  5
49F
330
1F
100
AcDbEntity
  8
외형선
  6
Continuous
 62
     1
370
    15
100
AcDbSpline
210
0.0
220
0.0
230
1.0
 70
     8
 71
     3
 72
    14
 73
    10
 74
     0
 42
0.000000001
 43
0.00000001
 40
0.0
 40
0.0
 40
0.0
 40
0.0
 40
0.0000773594054991
 40
0.0000773594054991
 40
0.0000773594054991
 40
0.000159536098487
 40
0.000159536098487
 40
0.000159536098487
 40
0.0002438761953797
 40
0.0002438761953797
 40
0.0002438761953797
 40
0.0002438761953797
 10
33.99072334248631
 20
-6.27885448592451
 30
0.0
 10
33.9700965753198
 20
-6.294206953370859
 30
0.0
 10
33.94825350252356
 20
-6.306861768282571
 30
0.0
 10
33.92578139030567
 20
-6.316894073077092
 30
0.0
 10
33.90190882387989
 20
-6.327551587612801
 30
0.0
 10
33.87715553039088
 20
-6.335328441236924
 30
0.0
 10
33.85202778638978
 20
-6.340273369436146
 30
0.0
 10
33.82623911079377
 20
-6.345348363401753
 30
0.0
 10
33.79988298119935
 20
-6.34747624250137
 30
0.0
 10
33.77341692005793
 20
-6.34660878263618
 30
0.0
  0
LINE
  5
4A0
330
1F
100
AcDbEntity
  8
외형선
  6
Continuous
 62
     1
370
    15
100
AcDbLine
 10
34.0609915892283
 20
-6.244425351421041
 30
0.0
 11
33.99072268009185
 21
-6.278854484359426
 31
0.0
  0
SPLINE
  5
4A1
330
1F
100
AcDbEntity
  8
외형선
  6
Continuous
 62
     1
370
    15
100
AcDbSpline
210
0.0
220
0.0
230
1.0
 70
     8
 71
     3
 72
     8
 73
     4
 74
     0
 42
0.000000001
 43
0.00000001
 40
0.0
 40
0.0
 40
0.0
 40
0.0
 40
1.0
 40
1.0
 40
1.0
 40
1.0
 10
35.13193034475525
 20
-1.140204273725514
 30
0.0
 10
35.05281679743625
 20
-1.063910241093181
 30
0.0
 10
34.97326939685731
 20
-0.9862591104265077
 30
0.0
 10
34.89333316246668
 20
-0.907257123493528
 30
0.0
  0
SPLINE
  5
4A2
330
1F
100
AcDbEntity
  8
외형선
  6
Continuous
 62
     1
370
    15
100
AcDbSpline
210
0.0
220
0.0
230
1.0
 70
    24
 71
     3
 72
    18
 73
    14
 74
     0
 42
0.000000001
 43
0.00000001
 40
0.0
 40
0.0
 40
0.0
 40
0.0
 40
0.2499999999999994
 40
0.2499999999999994
 40
0.4999999999999993
 40
0.4999999999999993
 40
0.6249999999999994
 40
0.6249999999999994
 40
0.7499999999999997
 40
0.7499999999999997
 40
0.8749999999999998
 40
0.8749999999999998
 40
1.0
 40
1.0
 40
1.0
 40
1.0
 10
35.13193034475528
 20
-1.140204273725528
 30
0.0
 10
35.128661058753
 20
-1.142493452428879
 30
0.0
 10
35.10435887544006
 20
-1.15951002437957
 30
0.0
 10
34.99653004633321
 20
-1.235012583356499
 30
0.0
 10
34.91392346357603
 20
-1.29285433530883
 30
0.0
 10
34.72003025924058
 20
-1.428619818592117
 30
0.0
 10
34.64542101729828
 20
-1.480861772221373
 30
0.0
 10
34.47271890702896
 20
-1.601789091696686
 30
0.0
 10
34.37361156366463
 20
-1.6711848006125
 30
0.0
 10
34.15998043933645
 20
-1.820770924263306
 30
0.0
 10
34.04333439693355
 20
-1.902447362454835
 30
0.0
 10
33.79631859148827
 20
-2.075409691484579
 30
0.0
 10
33.66929676886393
 20
-2.164351329203291
 30
0.0
 10
33.53907988288303
 20
-2.255530174369297
 30
0.0
  0
SPLINE
  5
4A3
330
1F
100
AcDbEntity
  8
외형선
  6
Continuous
 62
     1
370
    15
100
AcDbSpline
210
0.0
220
0.0
230
1.0
 70
     8
 71
     3
 72
     8
 73
     4
 74
     0
 42
0.000000001
 43
0.00000001
 40
0.0
 40
0.0
 40
0.0
 40
0.0
 40
1.0
 40
1.0
 40
1.0
 40
1.0
 10
35.39999982913334
 20
-3.206617734408487
 30
0.0
 10
34.77571630794383
 20
-2.938711671296514
 30
0.0
 10
34.15538591673614
 20
-2.621975756200682
 30
0.0
 10
33.53907988288307
 20
-2.25553017436914
 30
0.0
  0
LINE
  5
4A4
330
1F
100
AcDbEntity
  8
외형선
  6
Continuous
 62
     1
370
    15
100
AcDbLine
 10
35.40000000000001
 20
-5.674337347348539
 30
0.0
 11
35.40000000000001
 21
-3.206617819766207
 31
0.0
  0
SPLINE
  5
4A5
330
1F
100
AcDbEntity
  8
외형선
  6
Continuous
 62
     1
370
    15
100
AcDbSpline
210
0.0
220
0.0
230
1.0
 70
     8
 71
     3
 72
     8
 73
     4
 74
     0
 42
0.000000001
 43
0.00000001
 40
0.0
 40
0.0
 40
0.0
 40
0.0
 40
1.0
 40
1.0
 40
1.0
 40
1.0
 10
34.89433836313258
 20
-6.059475181525412
 30
0.0
 10
35.05805998683778
 20
-5.94495170129994
 30
0.0
 10
35.22576406558692
 20
-5.816850403932959
 30
0.0
 10
35.39999982913334
 20
-5.674337079841107
 30
0.0
  0
SPLINE
  5
4A6
330
1F
100
AcDbEntity
  8
외형선
  6
Continuous
 62
     1
370
    15
100
AcDbSpline
210
0.0
220
0.0
230
1.0
 70
     8
 71
     3
 72
    14
 73
    10
 74
     0
 42
0.000000001
 43
0.00000001
 40
0.0
 40
0.0
 40
0.0
 40
0.0
 40
0.0000773473858978
 40
0.0000773473858978
 40
0.0000773473858978
 40
0.0001594188433251
 40
0.0001594188433251
 40
0.0001594188433251
 40
0.0002147000697039
 40
0.0002147000697039
 40
0.0002147000697039
 40
0.0002147000697039
 10
34.70414698455811
 20
-5.930369890487581
 30
0.0
 10
34.72479618986928
 20
-5.952306344352534
 30
0.0
 10
34.74666515529039
 20
-5.971976336535802
 30
0.0
 10
34.76916733185762
 20
-5.989267411993707
 30
0.0
 10
34.79304500909145
 20
-6.007615446797145
 30
0.0
 10
34.81780643553843
 20
-6.023418322830862
 30
0.0
 10
34.84294652047997
 20
-6.036545161753038
 30
0.0
 10
34.85988615375102
 20
-6.045390153242421
 30
0.0
 10
34.87706043964855
 20
-6.053053063856508
 30
0.0
 10
34.89433836311396
 20
-6.059475181517739
 30
0.0
  0
SPLINE
  5
4A7
330
1F
100
AcDbEntity
  8
외형선
  6
Continuous
 62
     1
370
    15
100
AcDbSpline
210
0.0
220
0.0
230
1.0
 70
     8
 71
     3
 72
    10
 73
     6
 74
     0
 42
0.000000001
 43
0.00000001
 40
0.0
 40
0.0
 40
0.0
 40
0.0
 40
0.5
 40
0.5
 40
1.0
 40
1.0
 40
1.0
 40
1.0
 10
33.83726477796508
 20
-5.595243244212211
 30
0.0
 10
33.97605177206943
 20
-5.557132243801375
 30
0.0
 10
34.13331361163775
 20
-5.580751297259608
 30
0.0
 10
34.43196497506863
 20
-5.699594049222211
 30
0.0
 10
34.57758769949722
 20
-5.795921039981151
 30
0.0
 10
34.70414698455675
 20
-5.930369890486586
 30
0.0
  0
SPLINE
  5
4A8
330
1F
100
AcDbEntity
  8
외형선
  6
Continuous
 62
     1
370
    15
100
AcDbSpline
210
0.0
220
0.0
230
1.0
 70
     8
 71
     3
 72
    14
 73
    10
 74
     0
 42
0.000000001
 43
0.00000001
 40
0.0
 40
0.0
 40
0.0
 40
0.0
 40
0.0000832671960582
 40
0.0000832671960582
 40
0.0000832671960582
 40
0.0001563480838711
 40
0.0001563480838711
 40
0.0001563480838711
 40
0.000231980942129
 40
0.000231980942129
 40
0.000231980942129
 40
0.000231980942129
 10
33.6212638033302
 20
-5.562239161896853
 30
0.0
 10
33.64735285611587
 20
-5.574901291515443
 30
0.0
 10
33.67374791175921
 20
-5.584947216975179
 30
0.0
 10
33.69997645390693
 20
-5.591884239846562
 30
0.0
 10
33.72300317221416
 20
-5.597974432379941
 30
0.0
 10
33.74605507159512
 20
-5.601708739969679
 30
0.0
 10
33.76867954106401
 20
-5.602573009548051
 30
0.0
 10
33.79205874700746
 20
-5.603466110554975
 30
0.0
 10
33.81521161304584
 20
-5.60129905789074
 30
0.0
 10
33.83726477796508
 20
-5.595243244212211
 30
0.0
  0
SPLINE
  5
4A9
330
1F
100
AcDbEntity
  8
외형선
  6
Continuous
 62
     1
370
    15
100
AcDbSpline
210
0.0
220
0.0
230
1.0
 70
     8
 71
     3
 72
     8
 73
     4
 74
     0
 42
0.000000001
 43
0.00000001
 40
0.0
 40
0.0
 40
0.0
 40
0.0
 40
1.0
 40
1.0
 40
1.0
 40
1.0
 10
33.62126810280565
 20
-5.56224124861299
 30
0.0
 10
33.35512515810548
 20
-5.433070902520596
 30
0.0
 10
33.08643368878019
 20
-5.288616497531867
 30
0.0
 10
32.81658673203508
 20
-5.130089315556708
 30
0.0
  0
SPLINE
  5
4AA
330
1F
100
AcDbEntity
  8
외형선
  6
Continuous
 62
     1
370
    15
100
AcDbSpline
210
0.0
220
0.0
230
1.0
 70
     8
 71
     3
 72
    14
 73
    10
 74
     0
 42
0.000000001
 43
0.00000001
 40
0.0
 40
0.0
 40
0.0
 40
0.0
 40
0.0000770342714237
 40
0.0000770342714237
 40
0.0000770342714237
 40
0.000158817207471
 40
0.000158817207471
 40
0.000158817207471
 40
0.0002427697860885
 40
0.0002427697860885
 40
0.0002427697860885
 40
0.0002427697860885
 10
32.60035007663311
 20
-4.93745626271078
 30
0.0
 10
32.62090414596647
 20
-4.963499046700177
 30
0.0
 10
32.64267732247747
 20
-4.987959860010688
 30
0.0
 10
32.66508748058188
 20
-5.010549818469569
 30
0.0
 10
32.68887994801705
 20
-5.034533176752488
 30
0.0
 10
32.71356096653814
 20
-5.056581391822175
 30
0.0
 10
32.73862600362671
 20
-5.076396247321801
 30
0.0
 10
32.76435503503599
 20
-5.096736015330938
 30
0.0
 10
32.79066271078414
 20
-5.114861345887978
 30
0.0
 10
32.8170881983789
 20
-5.130383896698268
 30
0.0
  0
SPLINE
  5
4AB
330
1F
100
AcDbEntity
  8
외형선
  6
Continuous
 62
     1
370
    15
100
AcDbSpline
210
0.0
220
0.0
230
1.0
 70
     8
 71
     3
 72
    10
 73
     6
 74
     0
 42
0.000000001
 43
0.00000001
 40
0.0
 40
0.0
 40
0.0
 40
0.0
 40
0.5
 40
0.5
 40
1.0
 40
1.0
 40
1.0
 40
1.0
 10
31.73424248386441
 20
-4.363808844726107
 30
0.0
 10
31.87288111095565
 20
-4.37855090227667
 30
0.0
 10
32.02975162411855
 20
-4.448129950538172
 30
0.0
 10
32.32814483191859
 20
-4.646239505263101
 30
0.0
 10
32.47381371122897
 20
-4.777129897279435
 30
0.0
 10
32.60035007663149
 20
-4.937456262709743
 30
0.0
  0
SPLINE
  5
4AC
330
1F
100
AcDbEntity
  8
외형선
  6
Continuous
 62
     1
370
    15
100
AcDbSpline
210
0.0
220
0.0
230
1.0
 70
     8
 71
     3
 72
    14
 73
    10
 74
     0
 42
0.000000001
 43
0.00000001
 40
0.0
 40
0.0
 40
0.0
 40
0.0
 40
0.0000833824095523
 40
0.0000833824095523
 40
0.0000833824095523
 40
0.0001565116228858
 40
0.0001565116228858
 40
0.0001565116228858
 40
0.0002321707171019
 40
0.0002321707171019
 40
0.0002321707171019
 40
0.0002321707171019
 10
31.51803142791956
 20
-4.262772964695947
 30
0.0
 10
31.54421159709127
 20
-4.282213409918703
 30
0.0
 10
31.57067892315802
 20
-4.299612859832961
 30
0.0
 10
31.59695894363985
 20
-4.314365066984648
 30
0.0
 10
31.62001460969926
 20
-4.327307292884504
 30
0.0
 10
31.64307923126571
 20
-4.338297865487049
 30
0.0
 10
31.66570463084777
 20
-4.346720945822929
 30
0.0
 10
31.68907808529439
 20
-4.355422515216913
 30
0.0
 10
31.71221054522768
 20
-4.361466091381336
 30
0.0
 10
31.73424248386438
 20
-4.363808844726114
 30
0.0
  0
SPLINE
  5
4AD
330
1F
100
AcDbEntity
  8
외형선
  6
Continuous
 62
     1
370
    15
100
AcDbSpline
210
0.0
220
0.0
230
1.0
 70
     8
 71
     3
 72
     8
 73
     4
 74
     0
 42
0.000000001
 43
0.00000001
 40
0.0
 40
0.0
 40
0.0
 40
0.0
 40
1.0
 40
1.0
 40
1.0
 40
1.0
 10
31.51803157399538
 20
-4.262773073165383
 30
0.0
 10
31.25077663580489
 20
-4.064319241328227
 30
0.0
 10
30.98090720716774
 20
-3.853805947907075
 30
0.0
 10
30.71165418059532
 20
-3.633678927127582
 30
0.0
  0
SPLINE
  5
4AE
330
1F
100
AcDbEntity
  8
외형선
  6
Continuous
 62
     1
370
    15
100
AcDbSpline
210
0.0
220
0.0
230
1.0
 70
     8
 71
     3
 72
    14
 73
    10
 74
     0
 42
0.000000001
 43
0.00000001
 40
0.0
 40
0.0
 40
0.0
 40
0.0
 40
0.0000774961348493
 40
0.0000774961348493
 40
0.0000774961348493
 40
0.0001594976869409
 40
0.0001594976869409
 40
0.0001594976869409
 40
0.0002436551162732
 40
0.0002436551162732
 40
0.0002436551162732
 40
0.0002436551162732
 10
30.49413179466255
 20
-3.405860232846037
 30
0.0
 10
30.51481367183097
 20
-3.433398923635464
 30
0.0
 10
30.53672020260406
 20
-3.460190683188982
 30
0.0
 10
30.55926616594794
 20
-3.485805352400432
 30
0.0
 10
30.58312435142391
 20
-3.512910848831408
 30
0.0
 10
30.60786873925055
 20
-3.538892472979724
 30
0.0
 10
30.63299844372209
 20
-3.563326226404078
 30
0.0
 10
30.65878790516665
 20
-3.588401465255215
 30
0.0
 10
30.68515609848852
 20
-3.612015477769281
 30
0.0
 10
30.71164595834383
 20
-3.633672205047921
 30
0.0
  0
SPLINE
  5
4AF
330
1F
100
AcDbEntity
  8
외형선
  6
Continuous
 62
     1
370
    15
100
AcDbSpline
210
0.0
220
0.0
230
1.0
 70
     8
 71
     3
 72
    10
 73
     6
 74
     0
 42
0.000000001
 43
0.00000001
 40
0.0
 40
0.0
 40
0.0
 40
0.0
 40
0.5
 40
0.5
 40
1.0
 40
1.0
 40
1.0
 40
1.0
 10
29.62632946817591
 20
-2.653476434596703
 30
0.0
 10
29.76564658778826
 20
-2.718874207248132
 30
0.0
 10
29.92282105648706
 20
-2.82761769324068
 30
0.0
 10
30.2213431595139
 20
-3.085074964075757
 30
0.0
 10
30.3672248541089
 20
-3.236878908448714
 30
0.0
 10
30.49413179466096
 20
-3.405860232845325
 30
0.0
  0
SPLINE
  5
4B0
330
1F
100
AcDbEntity
  8
외형선
  6
Continuous
 62
     1
370
    15
100
AcDbSpline
210
0.0
220
0.0
230
1.0
 70
     8
 71
     3
 72
    14
 73
    10
 74
     0
 42
0.000000001
 43
0.00000001
 40
0.0
 40
0.0
 40
0.0
 40
0.0
 40
0.0000830495909199
 40
0.0000830495909199
 40
0.0000830495909199
 40
0.000156110092928
 40
0.000156110092928
 40
0.000156110092928
 40
0.0002317122725225
 40
0.0002317122725225
 40
0.0002317122725225
 40
0.0002317122725225
 10
29.4101005576711
 20
-2.496269541700356
 30
0.0
 10
29.43622431826528
 20
-2.520246305897599
 30
0.0
 10
29.46263809395028
 20
-2.542984221122671
 30
0.0
 10
29.48886816867121
 20
-2.563824704478276
 30
0.0
 10
29.51195008053289
 20
-2.582163889748867
 30
0.0
 10
29.53504367914254
 20
-2.599155984247793
 30
0.0
 10
29.55769721535213
 20
-2.614142646085921
 30
0.0
 10
29.58110393165696
 20
-2.629627581362952
 30
0.0
 10
29.6042700860791
 20
-2.643121393815106
 30
0.0
 10
29.62632946817603
 20
-2.653476434597037
 30
0.0
  0
SPLINE
  5
4B1
330
1F
100
AcDbEntity
  8
외형선
  6
Continuous
 62
     1
370
    15
100
AcDbSpline
210
0.0
220
0.0
230
1.0
 70
     8
 71
     3
 72
     8
 73
     4
 74
     0
 42
0.000000001
 43
0.00000001
 40
0.0
 40
0.0
 40
0.0
 40
0.0
 40
1.0
 40
1.0
 40
1.0
 40
1.0
 10
29.41014126888236
 20
-2.496306906992422
 30
0.0
 10
29.14287685495625
 20
-2.251008356655176
 30
0.0
 10
28.87419177085979
 20
-1.998642953877285
 30
0.0
 10
28.60727603344636
 20
-1.742214400945576
 30
0.0
  0
SPLINE
  5
4B2
330
1F
100
AcDbEntity
  8
외형선
  6
Continuous
 62
     1
370
    15
100
AcDbSpline
210
0.0
220
0.0
230
1.0
 70
     8
 71
     3
 72
    14
 73
    10
 74
     0
 42
0.000000001
 43
0.00000001
 40
0.0
 40
0.0
 40
0.0
 40
0.0
 40
0.0000773650336785
 40
0.0000773650336785
 40
0.0000773650336785
 40
0.0001593215177383
 40
0.0001593215177383
 40
0.0001593215177383
 40
0.0002434392264819
 40
0.0002434392264819
 40
0.0002434392264819
 40
0.0002434392264819
 10
28.38764468009704
 20
-1.502244330067688
 30
0.0
 10
28.40824574127273
 20
-1.528134196145933
 30
0.0
 10
28.43007042486916
 20
-1.554209337144491
 30
0.0
 10
28.45253630426983
 20
-1.579943033363711
 30
0.0
 10
28.47633674846192
 20
-1.607205416010713
 30
0.0
 10
28.50102689358092
 20
-1.634279483952261
 30
0.0
 10
28.52610616174666
 20
-1.660656169238676
 30
0.0
 10
28.5518458304348
 20
-1.687727419319769
 30
0.0
 10
28.57816849095268
 20
-1.714246532973155
 30
0.0
 10
28.60461676930259
 20
-1.739659430011484
 30
0.0
  0
SPLINE
  5
4B3
330
1F
100
AcDbEntity
  8
외형선
  6
Continuous
 62
     1
370
    15
100
AcDbSpline
210
0.0
220
0.0
230
1.0
 70
     8
 71
     3
 72
    10
 73
     6
 74
     0
 42
0.000000001
 43
0.00000001
 40
0.0
 40
0.0
 40
0.0
 40
0.0
 40
0.5
 40
0.5
 40
1.0
 40
1.0
 40
1.0
 40
1.0
 10
27.52272841319327
 20
-0.6586172062645784
 30
0.0
 10
27.66170240805163
 20
-0.7671029018497804
 30
0.0
 10
27.81895537148946
 20
-0.9011654272088789
 30
0.0
 10
28.11669003023822
 20
-1.187694816777329
 30
0.0
 10
28.26142400197974
 20
-1.343619663848655
 30
0.0
 10
28.38764468009545
 20
-1.502244330067376
 30
0.0
  0
SPLINE
  5
4B4
330
1F
100
AcDbEntity
  8
외형선
  6
Continuous
 62
     1
370
    15
100
AcDbSpline
210
0.0
220
0.0
230
1.0
 70
     8
 71
     3
 72
    14
 73
    10
 74
     0
 42
0.000000001
 43
0.00000001
 40
0.0
 40
0.0
 40
0.0
 40
0.0
 40
0.0000825869607741
 40
0.0000825869607741
 40
0.0000825869607741
 40
0.0001555341615876
 40
0.0001555341615876
 40
0.0001555341615876
 40
0.0002310431946713
 40
0.0002310431946713
 40
0.0002310431946713
 40
0.0002310431946713
 10
27.30692460599058
 20
-0.4627065792913624
 30
0.0
 10
27.33292254485959
 20
-0.4885488426244236
 30
0.0
 10
27.35921252820932
 20
-0.5140798340955384
 30
0.0
 10
27.38532307379679
 20
-0.5386608059761981
 30
0.0
 10
27.40839200216344
 20
-0.5603783406634034
 30
0.0
 10
27.43147567398627
 20
-0.5814999594946768
 30
0.0
 10
27.45411791519827
 20
-0.6013936883508875
 30
0.0
 10
27.47752004213711
 20
-0.6219550613890502
 30
0.0
 10
27.50068176955724
 20
-0.6414071845435088
 30
0.0
 10
27.52272841319318
 20
-0.658617206264543
 30
0.0
  0
SPLINE
  5
4B5
330
1F
100
AcDbEntity
  8
외형선
  6
Continuous
 62
     1
370
    15
100
AcDbSpline
210
0.0
220
0.0
230
1.0
 70
     8
 71
     3
 72
    14
 73
    10
 74
     0
 42
0.000000001
 43
0.00000001
 40
0.0
 40
0.0
 40
0.0
 40
0.0
 40
0.0000778659879493
 40
0.0000778659879493
 40
0.0000778659879493
 40
0.0001601109222593
 40
0.0001601109222593
 40
0.0001601109222593
 40
0.0002445019073243
 40
0.0002445019073243
 40
0.0002445019073243
 40
0.0002445019073243
 10
26.28391908246103
 20
0.5637863736520872
 30
0.0
 10
26.30463797018918
 20
0.5421575479985294
 30
0.0
 10
26.32656736682221
 20
0.5194082212345081
 30
0.0
 10
26.34913339707116
 20
0.4961284516071361
 30
0.0
 10
26.37297045810211
 20
0.4715374498548089
 30
0.0
 10
26.39769192924637
 20
0.4461843655587446
 30
0.0
 10
26.42280356661469
 20
0.4206034540950599
 30
0.0
 10
26.44856941728127
 20
0.3943561037123702
 30
0.0
 10
26.47491761873194
 20
0.367694191303295
 30
0.0
 10
26.50139589524857
 20
0.3411655689963611
 30
0.0
  0
SPLINE
  5
4B6
330
1F
100
AcDbEntity
  8
외형선
  6
Continuous
 62
     1
370
    15
100
AcDbSpline
210
0.0
220
0.0
230
1.0
 70
     8
 71
     3
 72
    10
 73
     6
 74
     0
 42
0.000000001
 43
0.00000001
 40
0.0
 40
0.0
 40
0.0
 40
0.0
 40
0.5
 40
0.5
 40
1.0
 40
1.0
 40
1.0
 40
1.0
 10
25.41624800671973
 20
1.410039952604835
 30
0.0
 10
25.55558071775814
 20
1.269344233379472
 30
0.0
 10
25.71328538730636
 20
1.123431995532778
 30
0.0
 10
26.01215271871336
 20
0.8383927960885003
 30
0.0
 10
26.15757953132051
 20
0.6956745406516112
 30
0.0
 10
26.28391908245944
 20
0.5637863736519806
 30
0.0
  0
SPLINE
  5
4B7
330
1F
100
AcDbEntity
  8
외형선
  6
Continuous
 62
     1
370
    15
100
AcDbSpline
210
0.0
220
0.0
230
1.0
 70
     8
 71
     3
 72
    10
 73
     6
 74
     0
 42
0.000000001
 43
0.00000001
 40
0.0
 40
0.0
 40
0.0
 40
0.0
 40
0.5
 40
0.5
 40
1.0
 40
1.0
 40
1.0
 40
1.0
 10
23.31007779377019
 20
3.324834999920634
 30
0.0
 10
23.448893042791
 20
3.167816341149469
 30
0.0
 10
23.60618124679964
 20
3.026358652734916
 30
0.0
 10
23.90452405514255
 20
2.774734028677032
 30
0.0
 10
24.04979886023115
 20
2.661264912392782
 30
0.0
 10
24.17601970398819
 20
2.571755776556985
 30
0.0
  0
SPLINE
  5
4B8
330
1F
100
AcDbEntity
  8
외형선
  6
Continuous
 62
     1
370
    15
100
AcDbSpline
210
0.0
220
0.0
230
1.0
 70
     8
 71
     3
 72
    14
 73
    10
 74
     0
 42
0.000000001
 43
0.00000001
 40
0.0
 40
0.0
 40
0.0
 40
0.0
 40
0.0000825819180158
 40
0.0000825819180158
 40
0.0000825819180158
 40
0.0001555412285124
 40
0.0001555412285124
 40
0.0001555412285124
 40
0.0002310672323797
 40
0.0002310672323797
 40
0.0002310672323797
 40
0.0002310672323797
 10
23.09443070491962
 20
3.534104960381499
 30
0.0
 10
23.12038489526485
 20
3.512543876354771
 30
0.0
 10
23.14663825106267
 20
3.489454418512311
 30
0.0
 10
23.17272022773934
 20
3.465242678132578
 30
0.0
 10
23.19576907067036
 20
3.443846577368519
 30
0.0
 10
23.21883888314169
 20
3.421430264048022
 30
0.0
 10
23.2414728746078
 20
3.398370680795653
 30
0.0
 10
23.26486772791107
 20
3.374535929058093
 30
0.0
 10
23.28802853442371
 20
3.349775668571299
 30
0.0
 10
23.31007779377019
 20
3.324834999920641
 30
0.0
  0
SPLINE
  5
4B9
330
1F
100
AcDbEntity
  8
외형선
  6
Continuous
 62
     1
370
    15
100
AcDbSpline
210
0.0
220
0.0
230
1.0
 70
     8
 71
     3
 72
     8
 73
     4
 74
     0
 42
0.000000001
 43
0.00000001
 40
0.0
 40
0.0
 40
0.0
 40
0.0
 40
1.0
 40
1.0
 40
1.0
 40
1.0
 10
23.0944306996319
 20
3.534104964773535
 30
0.0
 10
22.82495703208356
 20
3.757966480346299
 30
0.0
 10
22.55928245281003
 20
3.971280627869406
 30
0.0
 10
22.28967686121054
 20
4.174359489117891
 30
0.0
  0
SPLINE
  5
4BA
330
1F
100
AcDbEntity
  8
외형선
  6
Continuous
 62
     1
370
    15
100
AcDbSpline
210
0.0
220
0.0
230
1.0
 70
     8
 71
     3
 72
    14
 73
    10
 74
     0
 42
0.000000001
 43
0.00000001
 40
0.0
 40
0.0
 40
0.0
 40
0.0
 40
0.0000772263700246
 40
0.0000772263700246
 40
0.0000772263700246
 40
0.0001591959330456
 40
0.0001591959330456
 40
0.0001591959330456
 40
0.0002433305003152
 40
0.0002433305003152
 40
0.0002433305003152
 40
0.0002433305003152
 10
22.0730936459291
 20
4.294244941960033
 30
0.0
 10
22.09370004600938
 20
4.288047437381274
 30
0.0
 10
22.11552428501607
 20
4.279381672224404
 30
0.0
 10
22.13798126529396
 20
4.268703126151907
 30
0.0
 10
22.16181857515825
 20
4.257368217874843
 30
0.0
 10
22.18653944249481
 20
4.243686473879579
 30
0.0
 10
22.21163878144298
 20
4.228078322606921
 30
0.0
 10
22.23740025559484
 20
4.212058419198315
 30
0.0
 10
22.26373388351162
 20
4.19390237382733
 30
0.0
 10
22.29018061431625
 20
4.173980025700908
 30
0.0
  0
SPLINE
  5
4BB
330
1F
100
AcDbEntity
  8
외형선
  6
Continuous
 62
     1
370
    15
100
AcDbSpline
210
0.0
220
0.0
230
1.0
 70
     8
 71
     3
 72
    10
 73
     6
 74
     0
 42
0.000000001
 43
0.00000001
 40
0.0
 40
0.0
 40
0.0
 40
0.0
 40
0.5
 40
0.5
 40
1.0
 40
1.0
 40
1.0
 40
1.0
 10
21.20620537869617
 20
4.876464746397916
 30
0.0
 10
21.34505554480056
 20
4.719726729571621
 30
0.0
 10
21.50233571689707
 20
4.597413255135097
 30
0.0
 10
21.80099732122746
 20
4.405039317335708
 30
0.0
 10
21.94661083959024
 20
4.332285442402204
 30
0.0
 10
22.0730936459275
 20
4.294244941959173
 30
0.0
  0
SPLINE
  5
4BC
330
1F
100
AcDbEntity
  8
외형선
  6
Continuous
 62
     1
370
    15
100
AcDbSpline
210
0.0
220
0.0
230
1.0
 70
     8
 71
     3
 72
    14
 73
    10
 74
     0
 42
0.000000001
 43
0.00000001
 40
0.0
 40
0.0
 40
0.0
 40
0.0
 40
0.0000834553143057
 40
0.0000834553143057
 40
0.0000834553143057
 40
0.000156552508307
 40
0.000156552508307
 40
0.000156552508307
 40
0.000232196946043
 40
0.000232196946043
 40
0.000232196946043
 40
0.000232196946043
 10
20.98987013133722
 20
5.058811970149216
 30
0.0
 10
21.01603571023704
 20
5.042922148597578
 30
0.0
 10
21.04250723154842
 20
5.024762331235943
 30
0.0
 10
21.06881077945862
 20
5.004545157007543
 30
0.0
 10
21.09185667074739
 20
4.986831850763695
 30
0.0
 10
21.11492692580832
 20
4.967421235003558
 30
0.0
 10
21.13756954537489
 20
4.946485954596371
 30
0.0
 10
21.16096587926986
 20
4.924853792772
 30
0.0
 10
21.18413549078396
 20
4.901377863608973
 30
0.0
 10
21.20620537869612
 20
4.87646474639793
 30
0.0
  0
SPLINE
  5
4BD
330
1F
100
AcDbEntity
  8
외형선
  6
Continuous
 62
     1
370
    15
100
AcDbSpline
210
0.0
220
0.0
230
1.0
 70
     8
 71
     3
 72
     8
 73
     4
 74
     0
 42
0.000000001
 43
0.00000001
 40
0.0
 40
0.0
 40
0.0
 40
0.0
 40
1.0
 40
1.0
 40
1.0
 40
1.0
 10
20.98987013131638
 20
5.058811970160784
 30
0.0
 10
20.72223915185954
 20
5.22133879678004
 30
0.0
 10
20.45380859208585
 20
5.370420366390195
 30
0.0
 10
20.18309891848223
 20
5.504960565481875
 30
0.0
  0
SPLINE
  5
4BE
330
1F
100
AcDbEntity
  8
외형선
  6
Continuous
 62
     1
370
    15
100
AcDbSpline
210
0.0
220
0.0
230
1.0
 70
     8
 71
     3
 72
    14
 73
    10
 74
     0
 42
0.000000001
 43
0.00000001
 40
0.0
 40
0.0
 40
0.0
 40
0.0
 40
0.0000773525174901
 40
0.0000773525174901
 40
0.0000773525174901
 40
0.0001593666076984
 40
0.0001593666076984
 40
0.0001593666076984
 40
0.0002435416583165
 40
0.0002435416583165
 40
0.0002435416583165
 40
0.0002435416583165
 10
19.96561483263388
 20
5.552038821221801
 30
0.0
 10
19.98627074996917
 20
5.554883547975637
 30
0.0
 10
20.00814844188658
 20
5.554942947828382
 30
0.0
 10
20.03066209501499
 20
5.552542644138613
 30
0.0
 10
20.05453372568293
 20
5.549997559036421
 30
0.0
 10
20.07929097942152
 20
5.544671385124213
 30
0.0
 10
20.10442989337726
 20
5.536853019269779
 30
0.0
 10
20.13023037485262
 20
5.52882890161098
 30
0.0
 10
20.15660618962439
 20
5.518127206214652
 30
0.0
 10
20.18309891837676
 20
5.504960565535479
 30
0.0
  0
SPLINE
  5
4BF
330
1F
100
AcDbEntity
  8
외형선
  6
Continuous
 62
     1
370
    15
100
AcDbSpline
210
0.0
220
0.0
230
1.0
 70
     8
 71
     3
 72
    10
 73
     6
 74
     0
 42
0.000000001
 43
0.00000001
 40
0.0
 40
0.0
 40
0.0
 40
0.0
 40
0.5
 40
0.5
 40
1.0
 40
1.0
 40
1.0
 40
1.0
 10
19.09836941649614
 20
5.899569853661207
 30
0.0
 10
19.23710681197442
 20
5.760338132202798
 30
0.0
 10
19.39430371280971
 20
5.670624127218298
 30
0.0
 10
19.69305940748523
 20
5.558630262498449
 30
0.0
 10
19.83886514449428
 20
5.534582892099956
 30
0.0
 10
19.9656148326324
 20
5.552038821220551
 30
0.0
  0
SPLINE
  5
4C0
330
1F
100
AcDbEntity
  8
외형선
  6
Continuous
 62
     1
370
    15
100
AcDbSpline
210
0.0
220
0.0
230
1.0
 70
     8
 71
     3
 72
    14
 73
    10
 74
     0
 42
0.000000001
 43
0.00000001
 40
0.0
 40
0.0
 40
0.0
 40
0.0
 40
0.0000833669051654
 40
0.0000833669051654
 40
0.0000833669051654
 40
0.0001565124894995
 40
0.0001565124894995
 40
0.0001565124894995
 40
0.0002321864126548
 40
0.0002321864126548
 40
0.0002321864126548
 40
0.0002321864126548
 10
18.88225950877474
 20
6.033811931605139
 30
0.0
 10
18.90842164379332
 20
6.025635881399981
 30
0.0
 10
18.93487008142488
 20
6.014694652315145
 30
0.0
 10
18.96113067807888
 20
6.000995151555061
 30
0.0
 10
18.98417876578656
 20
5.988971536888956
 30
0.0
 10
19.00723520533466
 20
5.974743351352268
 30
0.0
 10
19.02985262182707
 20
5.958272517279336
 30
0.0
 10
19.05321718986547
 20
5.941257579986428
 30
0.0
 10
19.07633706753571
 20
5.921680704617836
 30
0.0
 10
19.09836941649612
 20
5.899569853661236
 30
0.0
  0
SPLINE
  5
4C1
330
1F
100
AcDbEntity
  8
외형선
  6
Continuous
 62
     1
370
    15
100
AcDbSpline
210
0.0
220
0.0
230
1.0
 70
     8
 71
     3
 72
     8
 73
     4
 74
     0
 42
0.000000001
 43
0.00000001
 40
0.0
 40
0.0
 40
0.0
 40
0.0
 40
1.0
 40
1.0
 40
1.0
 40
1.0
 10
18.88276803043077
 20
6.033652990965245
 30
0.0
 10
18.61603228382207
 20
6.117032982624666
 30
0.0
 10
18.34644792480886
 20
6.184583008382412
 30
0.0
 10
18.07723502490571
 20
6.235343350632492
 30
0.0
  0
SPLINE
  5
4C2
330
1F
100
AcDbEntity
  8
외형선
  6
Continuous
 62
     1
370
    15
100
AcDbSpline
210
0.0
220
0.0
230
1.0
 70
     8
 71
     3
 72
    14
 73
    10
 74
     0
 42
0.000000001
 43
0.00000001
 40
0.0
 40
0.0
 40
0.0
 40
0.0
 40
0.0000770314278225
 40
0.0000770314278225
 40
0.0000770314278225
 40
0.0001587825001185
 40
0.0001587825001185
 40
0.0001587825001185
 40
0.0002427040194491
 40
0.0002427040194491
 40
0.0002427040194491
 40
0.0002427040194491
 10
17.86111706687196
 20
6.203950132989897
 30
0.0
 10
17.88165795979366
 20
6.215519694225017
 30
0.0
 10
17.90341895615662
 20
6.224307677965806
 30
0.0
 10
17.92581914480825
 20
6.230466356150886
 30
0.0
 10
17.94959263460199
 20
6.23700260793222
 30
0.0
 10
17.97425648045878
 20
6.240627010907199
 30
0.0
 10
17.99930739890575
 20
6.241458873549847
 30
0.0
 10
18.0250224345444
 20
6.242312789447086
 30
0.0
 10
18.05131914783592
 20
6.240231823360121
 30
0.0
 10
18.07773649013693
 20
6.235248779638406
 30
0.0
  0
SPLINE
  5
4C3
330
1F
100
AcDbEntity
  8
외형선
  6
Continuous
 62
     1
370
    15
100
AcDbSpline
210
0.0
220
0.0
230
1.0
 70
     8
 71
     3
 72
    10
 73
     6
 74
     0
 42
0.000000001
 43
0.00000001
 40
0.0
 40
0.0
 40
0.0
 40
0.0
 40
0.1891080617344023
 40
0.644195128763617
 40
1.0
 40
1.0
 40
1.0
 40
1.0
 10
17.08164243300753
 20
6.232891852657
 30
0.0
 10
17.13094182018044
 20
6.20443896176454
 30
0.0
 10
17.29887979583596
 20
6.107514412149579
 30
0.0
 10
17.58220353889398
 20
6.093400405900775
 30
0.0
 10
17.77605754098891
 20
6.170235992107829
 30
0.0
 10
17.86111720800399
 20
6.203950072328249
 30
0.0
  0
LINE
  5
4C4
330
1F
100
AcDbEntity
  8
외형선
  6
Continuous
 62
     1
370
    15
100
AcDbLine
 10
20.43669848044711
 20
5.364719157417619
 30
0.0
 11
20.61142080426216
 21
5.46283150712649
 31
0.0
  0
SPLINE
  5
4C5
330
1F
100
AcDbEntity
  8
외형선
  6
Continuous
 62
     1
370
    15
100
AcDbSpline
210
0.0
220
0.0
230
1.0
 70
     8
 71
     3
 72
    14
 73
    10
 74
     0
 42
0.000000001
 43
0.00000001
 40
0.0
 40
0.0
 40
0.0
 40
0.0
 40
0.0000776939415621
 40
0.0000776939415621
 40
0.0000776939415621
 40
0.0001596856301558
 40
0.0001596856301558
 40
0.0001596856301558
 40
0.0002438272400891
 40
0.0002438272400891
 40
0.0002438272400891
 40
0.0002438272400891
 10
20.82845850773329
 20
5.513435030430594
 30
0.0
 10
20.80779244219157
 20
5.515859718185121
 30
0.0
 10
20.78590054856584
 20
5.515495471479143
 30
0.0
 10
20.76336580626715
 20
5.512676772638885
 30
0.0
 10
20.7395827507872
 20
5.509701931834828
 30
0.0
 10
20.7149144713432
 20
5.503974306609743
 30
0.0
 10
20.68985645795242
 20
5.495783167249877
 30
0.0
 10
20.66414247735729
 20
5.487377600724451
 30
0.0
 10
20.63784605663519
 20
5.476322862185925
 30
0.0
 10
20.61142133989843
 20
5.462831673166649
 30
0.0
  0
SPLINE
  5
4C6
330
1F
100
AcDbEntity
  8
외형선
  6
Continuous
 62
     1
370
    15
100
AcDbSpline
210
0.0
220
0.0
230
1.0
 70
     8
 71
     3
 72
    10
 73
     6
 74
     0
 42
0.000000001
 43
0.00000001
 40
0.0
 40
0.0
 40
0.0
 40
0.0
 40
0.5
 40
0.5
 40
1.0
 40
1.0
 40
1.0
 40
1.0
 10
21.6952151778914
 20
5.871231193724671
 30
0.0
 10
21.55595868578725
 20
5.730955408075546
 30
0.0
 10
21.39836842407347
 20
5.640089496785629
 30
0.0
 10
21.09981988852123
 20
5.524904592182134
 30
0.0
 10
20.95470987065476
 20
5.498622335045924
 30
0.0
 10
20.82845850773335
 20
5.513435030430552
 30
0.0
  0
SPLINE
  5
4C7
330
1F
100
AcDbEntity
  8
외형선
  6
Continuous
 62
     1
370
    15
100
AcDbSpline
210
0.0
220
0.0
230
1.0
 70
     8
 71
     3
 72
    14
 73
    10
 74
     0
 42
0.000000001
 43
0.00000001
 40
0.0
 40
0.0
 40
0.0
 40
0.0
 40
0.0000828815058489
 40
0.0000828815058489
 40
0.0000828815058489
 40
0.0001558799033047
 40
0.0001558799033047
 40
0.0001558799033047
 40
0.0002314326539582
 40
0.0002314326539582
 40
0.0002314326539582
 40
0.0002314326539582
 10
21.91144199844503
 20
6.007127695983722
 30
0.0
 10
21.88535264851753
 20
5.99869811597617
 30
0.0
 10
21.85896793350894
 20
5.987542954745757
 30
0.0
 10
21.83276096683007
 20
5.973670358024913
 30
0.0
 10
21.80967257605203
 20
5.961448572187502
 30
0.0
 10
21.78656772089271
 20
5.947035680643034
 30
0.0
 10
21.76390133413101
 20
5.930399842475085
 30
0.0
 10
21.74047707554788
 20
5.913207769513032
 30
0.0
 10
21.71729037009358
 20
5.893467966191908
 30
0.0
 10
21.6952151778924
 20
5.871231193725672
 30
0.0
  0
SPLINE
  5
4C8
330
1F
100
AcDbEntity
  8
외형선
  6
Continuous
 62
     1
370
    15
100
AcDbSpline
210
0.0
220
0.0
230
1.0
 70
     8
 71
     3
 72
     8
 73
     4
 74
     0
 42
0.000000001
 43
0.00000001
 40
0.0
 40
0.0
 40
0.0
 40
0.0
 40
1.0
 40
1.0
 40
1.0
 40
1.0
 10
22.71812906175611
 20
6.219601708730467
 30
0.0
 10
22.45162258272764
 20
6.16551769077085
 30
0.0
 10
22.18188301036235
 20
6.094508338032343
 30
0.0
 10
21.91144199839319
 20
6.007127695966669
 30
0.0
  0
SPLINE
  5
4C9
330
1F
100
AcDbEntity
  8
외형선
  6
Continuous
 62
     1
370
    15
100
AcDbSpline
210
0.0
220
0.0
230
1.0
 70
     8
 71
     3
 72
    14
 73
    10
 74
     0
 42
0.000000001
 43
0.00000001
 40
0.0
 40
0.0
 40
0.0
 40
0.0
 40
0.0000776604921931
 40
0.0000776604921931
 40
0.0000776604921931
 40
0.000160008545253
 40
0.000160008545253
 40
0.000160008545253
 40
0.000244511452984
 40
0.000244511452984
 40
0.000244511452984
 40
0.000244511452984
 10
22.9357201681316
 20
6.191678018122333
 30
0.0
 10
22.91502610351792
 20
6.202948744525658
 30
0.0
 10
22.89311588904652
 20
6.211399337092283
 30
0.0
 10
22.87057931609336
 20
6.217202678231105
 30
0.0
 10
22.8466810039145
 20
6.223356677710286
 30
0.0
 10
22.82190784969449
 20
6.226580409586981
 30
0.0
 10
22.79676423180003
 20
6.2270147540795
 30
0.0
 10
22.77096317869594
 20
6.22746045546439
 30
0.0
 10
22.74459992125289
 20
6.224973624776689
 30
0.0
 10
22.71812906996859
 20
6.219601710397095
 30
0.0
  0
SPLINE
  5
4CA
330
1F
100
AcDbEntity
  8
외형선
  6
Continuous
 62
     1
370
    15
100
AcDbSpline
210
0.0
220
0.0
230
1.0
 70
     8
 71
     3
 72
    10
 73
     6
 74
     0
 42
0.000000001
 43
0.00000001
 40
0.0
 40
0.0
 40
0.0
 40
0.0
 40
0.5000000000000001
 40
0.5000000000000001
 40
1.0
 40
1.0
 40
1.0
 40
1.0
 10
23.8030705261247
 20
6.275962417118018
 30
0.0
 10
23.66392844545534
 20
6.167963830149143
 30
0.0
 10
23.50635732305047
 20
6.119410160527197
 30
0.0
 10
23.20757342267571
 20
6.09719425504335
 30
0.0
 10
23.06211271874351
 20
6.122840122621563
 30
0.0
 10
22.93572016813169
 20
6.191678018122297
 30
0.0
  0
SPLINE
  5
4CB
330
1F
100
AcDbEntity
  8
외형선
  6
Continuous
 62
     1
370
    15
100
AcDbSpline
210
0.0
220
0.0
230
1.0
 70
     8
 71
     3
 72
    14
 73
    10
 74
     0
 42
0.000000001
 43
0.00000001
 40
0.0
 40
0.0
 40
0.0
 40
0.0
 40
0.000082861837543
 40
0.000082861837543
 40
0.000082861837543
 40
0.0001558642973654
 40
0.0001558642973654
 40
0.0001558642973654
 40
0.0002314240929223
 40
0.0002314240929223
 40
0.0002314240929223
 40
0.0002314240929223
 10
24.0191714995648
 20
6.349990887782576
 30
0.0
 10
23.99311291552012
 20
6.350034974005434
 30
0.0
 10
23.96675544139253
 20
6.347164252998313
 30
0.0
 10
23.9405715472948
 20
6.341170517978187
 30
0.0
 10
23.91749678592898
 20
6.335888492135782
 30
0.0
 10
23.89440239582355
 20
6.32814550357992
 30
0.0
 10
23.87174364933062
 20
6.317695873286163
 30
0.0
 10
23.84832647127685
 20
6.306896473890413
 30
0.0
 10
23.82514364419776
 20
6.293095016762893
 30
0.0
 10
23.80307052612576
 20
6.275962417118821
 30
0.0
  0
SPLINE
  5
4CC
330
1F
100
AcDbEntity
  8
외형선
  6
Continuous
 62
     1
370
    15
100
AcDbSpline
210
0.0
220
0.0
230
1.0
 70
     8
 71
     3
 72
     8
 73
     4
 74
     0
 42
0.000000001
 43
0.00000001
 40
0.0
 40
0.0
 40
0.0
 40
0.0
 40
1.0
 40
1.0
 40
1.0
 40
1.0
 10
24.82476418816698
 20
6.297308112712509
 30
0.0
 10
24.55553481424606
 20
6.331956352345268
 30
0.0
 10
24.28937799279543
 20
6.349533749466483
 30
0.0
 10
24.01917149370197
 20
6.349990887792474
 30
0.0
  0
SPLINE
  5
4CD
330
1F
100
AcDbEntity
  8
외형선
  6
Continuous
 62
     1
370
    15
100
AcDbSpline
210
0.0
220
0.0
230
1.0
 70
     8
 71
     3
 72
    14
 73
    10
 74
     0
 42
0.000000001
 43
0.00000001
 40
0.0
 40
0.0
 40
0.0
 40
0.0
 40
0.0000769679142255
 40
0.0000769679142255
 40
0.0000769679142255
 40
0.0001589488452356
 40
0.0001589488452356
 40
0.0001589488452356
 40
0.0002431051268656
 40
0.0002431051268656
 40
0.0002431051268656
 40
0.0002431051268656
 10
25.0409911476814
 20
6.193938682982131
 30
0.0
 10
25.02047331287138
 20
6.212701131478932
 30
0.0
 10
24.99874101112041
 20
6.228956847377455
 30
0.0
 10
24.97637803937714
 20
6.242686433782248
 30
0.0
 10
24.95255795611651
 20
6.257310603371652
 30
0.0
 10
24.92785114225801
 20
6.269176407059456
 30
0.0
 10
24.90276638053969
 20
6.278243280151623
 30
0.0
 10
24.87701665194895
 20
6.287550505147864
 30
0.0
 10
24.85069456142374
 20
6.29397306262525
 30
0.0
 10
24.82426097350176
 20
6.297372853912806
 30
0.0
  0
SPLINE
  5
4CE
330
1F
100
AcDbEntity
  8
외형선
  6
Continuous
 62
     1
370
    15
100
AcDbSpline
210
0.0
220
0.0
230
1.0
 70
     8
 71
     3
 72
    10
 73
     6
 74
     0
 42
0.000000001
 43
0.00000001
 40
0.0
 40
0.0
 40
0.0
 40
0.0
 40
0.5
 40
0.5
 40
1.0
 40
1.0
 40
1.0
 40
1.0
 10
25.90606343416717
 20
5.99741176463303
 30
0.0
 10
25.76745861727584
 20
5.933568745402853
 30
0.0
 10
25.61043044353604
 20
5.932186680701337
 30
0.0
 10
25.31234388736757
 20
6.004454572732635
 30
0.0
 10
25.16709379232039
 20
6.078624645353104
 30
0.0
 10
25.04099114768146
 20
6.193938682982095
 30
0.0
  0
SPLINE
  5
4CF
330
1F
100
AcDbEntity
  8
외형선
  6
Continuous
 62
     1
370
    15
100
AcDbSpline
210
0.0
220
0.0
230
1.0
 70
     8
 71
     3
 72
    14
 73
    10
 74
     0
 42
0.000000001
 43
0.00000001
 40
0.0
 40
0.0
 40
0.0
 40
0.0
 40
0.0000830786860627
 40
0.0000830786860627
 40
0.0000830786860627
 40
0.0001561032829013
 40
0.0001561032829013
 40
0.0001561032829013
 40
0.0002316854736493
 40
0.0002316854736493
 40
0.0002316854736493
 40
0.0002316854736493
 10
26.12208386595866
 20
6.001413522651257
 30
0.0
 10
26.09600887606748
 20
6.009956287458659
 30
0.0
 10
26.06963074363189
 20
6.015704769247381
 30
0.0
 10
26.04342189168203
 20
6.018250869078267
 30
0.0
 10
26.02037824795598
 20
6.020489479815831
 30
0.0
 10
25.9973115109397
 20
6.02026713016543
 30
0.0
 10
25.97467608733034
 20
6.017148192299233
 30
0.0
 10
25.95128331405015
 20
6.013924899126616
 30
0.0
 10
25.92812042646056
 20
6.007571476356683
 30
0.0
 10
25.90606343416816
 20
5.997411764633492
 30
0.0
  0
SPLINE
  5
4D0
330
1F
100
AcDbEntity
  8
외형선
  6
Continuous
 62
     1
370
    15
100
AcDbSpline
210
0.0
220
0.0
230
1.0
 70
     8
 71
     3
 72
     8
 73
     4
 74
     0
 42
0.000000001
 43
0.00000001
 40
0.0
 40
0.0
 40
0.0
 40
0.0
 40
1.0
 40
1.0
 40
1.0
 40
1.0
 10
26.92826364092348
 20
5.689539217956986
 30
0.0
 10
26.65768760938365
 20
5.80942953571016
 30
0.0
 10
26.39070921514066
 20
5.913405765791774
 30
0.0
 10
26.12208220306157
 20
6.001414067454556
 30
0.0
  0
SPLINE
  5
4D1
330
1F
100
AcDbEntity
  8
외형선
  6
Continuous
 62
     1
370
    15
100
AcDbSpline
210
0.0
220
0.0
230
1.0
 70
     8
 71
     3
 72
    14
 73
    10
 74
     0
 42
0.000000001
 43
0.00000001
 40
0.0
 40
0.0
 40
0.0
 40
0.0
 40
0.0000773663713737
 40
0.0000773663713737
 40
0.0000773663713737
 40
0.0001593865460783
 40
0.0001593865460783
 40
0.0001593865460783
 40
0.0002435671462538
 40
0.0002435671462538
 40
0.0002435671462538
 40
0.0002435671462538
 10
27.14572820787739
 20
5.52218854287989
 30
0.0
 10
27.12506916087769
 20
5.54650293073423
 30
0.0
 10
27.10318915266858
 20
5.568852419503971
 30
0.0
 10
27.08067431050457
 20
5.589036593471102
 30
0.0
 10
27.05680390445254
 20
5.610436007462591
 30
0.0
 10
27.03204932954499
 20
5.629556437881144
 30
0.0
 10
27.00691455941588
 20
5.646183891381564
 30
0.0
 10
26.98111853748101
 20
5.66324878407867
 30
0.0
 10
26.95474881945656
 20
5.677803823457674
 30
0.0
 10
26.92826364306406
 20
5.689539217008533
 30
0.0
  0
SPLINE
  5
4D2
330
1F
100
AcDbEntity
  8
외형선
  6
Continuous
 62
     1
370
    15
100
AcDbSpline
210
0.0
220
0.0
230
1.0
 70
     8
 71
     3
 72
    10
 73
     6
 74
     0
 42
0.000000001
 43
0.00000001
 40
0.0
 40
0.0
 40
0.0
 40
0.0
 40
0.5000000000000002
 40
0.5000000000000002
 40
1.0
 40
1.0
 40
1.0
 40
1.0
 10
28.01344604039393
 20
5.06423754876933
 30
0.0
 10
27.87455952544174
 20
5.051805389297025
 30
0.0
 10
27.71722966163877
 20
5.098455733862069
 30
0.0
 10
27.41831338898574
 20
5.258224031646921
 30
0.0
 10
27.27247707349595
 20
5.373013168101432
 30
0.0
 10
27.14572820787742
 20
5.522188542879862
 30
0.0
  0
SPLINE
  5
4D3
330
1F
100
AcDbEntity
  8
외형선
  6
Continuous
 62
     1
370
    15
100
AcDbSpline
210
0.0
220
0.0
230
1.0
 70
     8
 71
     3
 72
    14
 73
    10
 74
     0
 42
0.000000001
 43
0.00000001
 40
0.0
 40
0.0
 40
0.0
 40
0.0
 40
0.0000837880697946
 40
0.0000837880697946
 40
0.0000837880697946
 40
0.0001569022270286
 40
0.0001569022270286
 40
0.0001569022270286
 40
0.0002325508250212
 40
0.0002325508250212
 40
0.0002325508250212
 40
0.0002325508250212
 10
28.22983146997858
 20
4.996754353077379
 30
0.0
 10
28.2035654072411
 20
5.013044287723134
 30
0.0
 10
28.17701323998599
 20
5.026953678580371
 30
0.0
 10
28.1506508052817
 20
5.037929232670914
 30
0.0
 10
28.12763932102603
 20
5.047509675182576
 30
0.0
 10
28.10460633848847
 20
5.054907434574924
 30
0.0
 10
28.0819937667351
 20
5.059541300650652
 30
0.0
 10
28.05863248516439
 20
5.064328595582717
 30
0.0
 10
28.03549380760912
 20
5.066211112279833
 30
0.0
 10
28.01344604039493
 20
5.064237548769414
 30
0.0
  0
SPLINE
  5
4D4
330
1F
100
AcDbEntity
  8
외형선
  6
Continuous
 62
     1
370
    15
100
AcDbSpline
210
0.0
220
0.0
230
1.0
 70
     8
 71
     3
 72
     8
 73
     4
 74
     0
 42
0.000000001
 43
0.00000001
 40
0.0
 40
0.0
 40
0.0
 40
0.0
 40
1.0
 40
1.0
 40
1.0
 40
1.0
 10
29.03645793600943
 20
4.460384128925911
 30
0.0
 10
28.76642752860589
 20
4.651929054475618
 30
0.0
 10
28.49647135067624
 20
4.831387426920388
 30
0.0
 10
28.22982108598437
 20
4.996760793115393
 30
0.0
  0
SPLINE
  5
4D5
330
1F
100
AcDbEntity
  8
외형선
  6
Continuous
 62
     1
370
    15
100
AcDbSpline
210
0.0
220
0.0
230
1.0
 70
     8
 71
     3
 72
    14
 73
    10
 74
     0
 42
0.000000001
 43
0.00000001
 40
0.0
 40
0.0
 40
0.0
 40
0.0
 40
0.0000771803178637
 40
0.0000771803178637
 40
0.0000771803178637
 40
0.0001591068977165
 40
0.0001591068977165
 40
0.0001591068977165
 40
0.0002431999810359
 40
0.0002431999810359
 40
0.0002431999810359
 40
0.0002431999810359
 10
29.25310205479936
 20
4.247949725249251
 30
0.0
 10
29.23250531325978
 20
4.275060184505586
 30
0.0
 10
29.21068725129443
 20
4.300979979124842
 30
0.0
 10
29.18823156380138
 20
4.325347714527384
 30
0.0
 10
29.1643939536473
 20
4.351215039989777
 30
0.0
 10
29.13966710968093
 20
4.375520020080404
 30
0.0
 10
29.11455561634016
 20
4.397898624587173
 30
0.0
 10
29.08878091569516
 20
4.420868259414805
 30
0.0
 10
29.06242721394411
 20
4.441964379059138
 30
0.0
 10
29.03595422321134
 20
4.460741421562753
 30
0.0
  0
SPLINE
  5
4D6
330
1F
100
AcDbEntity
  8
외형선
  6
Continuous
 62
     1
370
    15
100
AcDbSpline
210
0.0
220
0.0
230
1.0
 70
     8
 71
     3
 72
    10
 73
     6
 74
     0
 42
0.000000001
 43
0.00000001
 40
0.0
 40
0.0
 40
0.0
 40
0.0
 40
0.5
 40
0.5
 40
1.0
 40
1.0
 40
1.0
 40
1.0
 10
30.11844219298424
 20
3.579223444723747
 30
0.0
 10
29.97977964809305
 20
3.618903059355072
 30
0.0
 10
29.82318862499217
 20
3.708811805888191
 30
0.0
 10
29.52514287333925
 20
3.938565099255535
 30
0.0
 10
29.37961722981131
 20
4.081424137165813
 30
0.0
 10
29.25310205479936
 20
4.247949725249223
 30
0.0
  0
SPLINE
  5
4D7
330
1F
100
AcDbEntity
  8
외형선
  6
Continuous
 62
     1
370
    15
100
AcDbSpline
210
0.0
220
0.0
230
1.0
 70
     8
 71
     3
 72
    14
 73
    10
 74
     0
 42
0.000000001
 43
0.00000001
 40
0.0
 40
0.0
 40
0.0
 40
0.0
 40
0.0000827794072153
 40
0.0000827794072153
 40
0.0000827794072153
 40
0.0001557865667158
 40
0.0001557865667158
 40
0.0001557865667158
 40
0.0002313442461552
 40
0.0002313442461552
 40
0.0002313442461552
 40
0.0002313442461552
 10
30.33405781569612
 20
3.449463434583302
 30
0.0
 10
30.30804402842343
 20
3.471306450446479
 30
0.0
 10
30.28174352073241
 20
3.49148683391144
 30
0.0
 10
30.25562787509107
 20
3.509368066541251
 30
0.0
 10
30.23258884535519
 20
3.525142757924699
 30
0.0
 10
30.20953953085955
 20
3.539233526707848
 30
0.0
 10
30.18693256152934
 20
3.55099316912177
 30
0.0
 10
30.1635707609715
 20
3.563145457944389
 30
0.0
 10
30.140451760214
 20
3.572925196364183
 30
0.0
 10
30.11844219298523
 20
3.579223444723462
 30
0.0
  0
SPLINE
  5
4D8
330
1F
100
AcDbEntity
  8
외형선
  6
Continuous
 62
     1
370
    15
100
AcDbSpline
210
0.0
220
0.0
230
1.0
 70
     8
 71
     3
 72
     8
 73
     4
 74
     0
 42
0.000000001
 43
0.00000001
 40
0.0
 40
0.0
 40
0.0
 40
0.0
 40
1.0
 40
1.0
 40
1.0
 40
1.0
 10
31.13931633734756
 20
2.749321258938695
 30
0.0
 10
30.87152046975054
 20
2.990117348857056
 30
0.0
 10
30.60263817362229
 20
3.223908316413238
 30
0.0
 10
30.33586616033241
 20
3.447944898736
 30
0.0
  0
SPLINE
  5
4D9
330
1F
100
AcDbEntity
  8
외형선
  6
Continuous
 62
     1
370
    15
100
AcDbSpline
210
0.0
220
0.0
230
1.0
 70
     8
 71
     3
 72
    14
 73
    10
 74
     0
 42
0.000000001
 43
0.00000001
 40
0.0
 40
0.0
 40
0.0
 40
0.0
 40
0.0000774624984094
 40
0.0000774624984094
 40
0.0000774624984094
 40
0.0001593997408489
 40
0.0001593997408489
 40
0.0001593997408489
 40
0.000243493468287
 40
0.000243493468287
 40
0.000243493468287
 40
0.000243493468287
 10
31.35606150153858
 20
2.514161407724524
 30
0.0
 10
31.33540427142329
 20
2.54127404328628
 30
0.0
 10
31.31352261616458
 20
2.568089378377588
 30
0.0
 10
31.29100042891692
 20
2.594123454698166
 30
0.0
 10
31.26717575934304
 20
2.621663109669528
 30
0.0
 10
31.24246438799556
 20
2.648525464611156
 30
0.0
 10
31.21736613788385
 20
2.674238964696813
 30
0.0
 10
31.19160833361015
 20
2.700628187031073
 30
0.0
 10
31.16527014582472
 20
2.725985154791773
 30
0.0
 10
31.13880864485866
 20
2.749777755211654
 30
0.0
  0
SPLINE
  5
4DA
330
1F
100
AcDbEntity
  8
외형선
  6
Continuous
 62
     1
370
    15
100
AcDbSpline
210
0.0
220
0.0
230
1.0
 70
     8
 71
     3
 72
    10
 73
     6
 74
     0
 42
0.000000001
 43
0.00000001
 40
0.0
 40
0.0
 40
0.0
 40
0.0
 40
0.5
 40
0.5
 40
1.0
 40
1.0
 40
1.0
 40
1.0
 10
32.22359237154653
 20
1.704904950335405
 30
0.0
 10
32.08421570660136
 20
1.792712876779818
 30
0.0
 10
31.92667983330653
 20
1.915598867366116
 30
0.0
 10
31.62855123376578
 20
2.191788600639522
 30
0.0
 10
31.48284625974266
 20
2.347756283475293
 30
0.0
 10
31.35606150153858
 20
2.514161407724502
 30
0.0
  0
SPLINE
  5
4DB
330
1F
100
AcDbEntity
  8
외형선
  6
Continuous
 62
     1
370
    15
100
AcDbSpline
210
0.0
220
0.0
230
1.0
 70
     8
 71
     3
 72
    14
 73
    10
 74
     0
 42
0.000000001
 43
0.00000001
 40
0.0
 40
0.0
 40
0.0
 40
0.0
 40
0.0000830504317212
 40
0.0000830504317212
 40
0.0000830504317212
 40
0.0001560965660686
 40
0.0001560965660686
 40
0.0001560965660686
 40
0.0002316868328412
 40
0.0002316868328412
 40
0.0002316868328412
 40
0.0002316868328412
 10
32.43991824807522
 20
1.526102384968639
 30
0.0
 10
32.41378290136905
 20
1.551403514434882
 30
0.0
 10
32.38735601636569
 20
1.575906683706636
 30
0.0
 10
32.3611115328303
 20
1.598951407126962
 30
0.0
 10
32.33802174501843
 20
1.61922605925495
 30
0.0
 10
32.31491911509709
 20
1.638506964899258
 30
0.0
 10
32.29225618442408
 20
1.656140808085995
 30
0.0
 10
32.26883894282567
 20
1.674361574507182
 30
0.0
 10
32.24566152630828
 20
1.691001283471381
 30
0.0
 10
32.22359237154756
 20
1.704904950334766
 30
0.0
  0
SPLINE
  5
4DC
330
1F
100
AcDbEntity
  8
외형선
  6
Continuous
 62
     1
370
    15
100
AcDbSpline
210
0.0
220
0.0
230
1.0
 70
     8
 71
     3
 72
     8
 73
     4
 74
     0
 42
0.000000001
 43
0.00000001
 40
0.0
 40
0.0
 40
0.0
 40
0.0
 40
1.0
 40
1.0
 40
1.0
 40
1.0
 10
33.24649378597811
 20
0.7348971589772841
 30
0.0
 10
32.97883093505171
 20
1.000913524641733
 30
0.0
 10
32.70889443002558
 20
1.265711685718502
 30
0.0
 10
32.43991825304197
 20
1.526102380161292
 30
0.0
  0
SPLINE
  5
4DD
330
1F
100
AcDbEntity
  8
외형선
  6
Continuous
 62
     1
370
    15
100
AcDbSpline
210
0.0
220
0.0
230
1.0
 70
     8
 71
     3
 72
    14
 73
    10
 74
     0
 42
0.000000001
 43
0.00000001
 40
0.0
 40
0.0
 40
0.0
 40
0.0
 40
0.0000777933285381
 40
0.0000777933285381
 40
0.0000777933285381
 40
0.0001599066355668
 40
0.0001599066355668
 40
0.0001599066355668
 40
0.0002441677400592
 40
0.0002441677400592
 40
0.0002441677400592
 40
0.0002441677400592
 10
33.4639785241799
 20
0.5013664493108949
 30
0.0
 10
33.44326725163869
 20
0.5255749396125979
 30
0.0
 10
33.42132883251085
 20
0.5504219188919792
 30
0.0
 10
33.39874825168319
 20
0.5753507886786922
 30
0.0
 10
33.37491189482207
 20
0.6016660301206558
 30
0.0
 10
33.35019050128863
 20
0.6282592529067885
 30
0.0
 10
33.32508055951669
 20
0.6546033314563802
 30
0.0
 10
33.2993147944042
 20
0.6816354666233495
 30
0.0
 10
33.27296797605
 20
0.7085858206585072
 30
0.0
 10
33.24649378273836
 20
0.7348971621971303
 30
0.0
  0
SPLINE
  5
4DE
330
1F
100
AcDbEntity
  8
외형선
  6
Continuous
 62
     1
370
    15
100
AcDbSpline
210
0.0
220
0.0
230
1.0
 70
     8
 71
     3
 72
    10
 73
     6
 74
     0
 42
0.000000001
 43
0.00000001
 40
0.0
 40
0.0
 40
0.0
 40
0.0
 40
0.5
 40
0.5
 40
1.0
 40
1.0
 40
1.0
 40
1.0
 10
34.33081756897585
 20
-0.3562351499883205
 30
0.0
 10
34.19155393635737
 20
-0.2302256073370669
 30
0.0
 10
34.03392639939617
 20
-0.0882953168039206
 30
0.0
 10
33.73540836722318
 20
0.2017451201599288
 30
0.0
 10
33.59038545902554
 20
0.3536149748328812
 30
0.0
 10
33.46397852417994
 20
0.5013664493108949
 30
0.0
  0
SPLINE
  5
4DF
330
1F
100
AcDbEntity
  8
외형선
  6
Continuous
 62
     1
370
    15
100
AcDbSpline
210
0.0
220
0.0
230
1.0
 70
     8
 71
     3
 72
    10
 73
     6
 74
     0
 42
0.000000001
 43
0.00000001
 40
0.0
 40
0.0
 40
0.0
 40
0.0
 40
0.5
 40
0.5
 40
1.0
 40
1.0
 40
1.0
 40
1.0
 10
16.43114379287004
 20
-2.325406112612255
 30
0.0
 10
16.29209815365748
 20
-2.175250283927524
 30
0.0
 10
16.13467898453554
 20
-2.029509882297133
 30
0.0
 10
15.83626663211244
 20
-1.756299013795298
 30
0.0
 10
15.69103841634741
 20
-1.625327606673322
 30
0.0
 10
15.56494550095512
 20
-1.511527438340656
 30
0.0
  0
SPLINE
  5
4E0
330
1F
100
AcDbEntity
  8
외형선
  6
Continuous
 62
     1
370
    15
100
AcDbSpline
210
0.0
220
0.0
230
1.0
 70
     8
 71
     3
 72
    12
 73
     8
 74
     0
 42
0.000000001
 43
0.00000001
 40
0.0
 40
0.0
 40
0.0
 40
0.0
 40
0.2500000000000001
 40
0.2500000000000001
 40
0.5000000000000001
 40
0.5000000000000001
 40
1.0
 40
1.0
 40
1.0
 40
1.0
 10
16.43114379287004
 20
-2.325406112612368
 30
0.0
 10
16.41834217051319
 20
-2.092731654028567
 30
0.0
 10
16.4057598555748
 20
-1.855818526754283
 30
0.0
 10
16.38127880550572
 20
-1.378850626109588
 30
0.0
 10
16.36964601540349
 20
-1.140588791441266
 30
0.0
 10
16.33395362049489
 20
-0.4145516600783151
 30
0.0
 10
16.30857101970533
 20
0.0883587027719857
 30
0.0
 10
16.28258088285783
 20
0.5896066835161677
 30
0.0
  0
SPLINE
  5
4E1
330
1F
100
AcDbEntity
  8
외형선
  6
Continuous
 62
     1
370
    15
100
AcDbSpline
210
0.0
220
0.0
230
1.0
 70
     8
 71
     3
 72
     9
 73
     5
 74
     0
 42
0.000000001
 43
0.00000001
 40
0.0
 40
0.0
 40
0.0
 40
0.0
 40
0.8530114299624526
 40
1.0
 40
1.0
 40
1.0
 40
1.0
 10
20.15197702646255
 20
-5.463896319270132
 30
0.0
 10
20.22984363949634
 20
-5.38453037900234
 30
0.0
 10
20.32112801189594
 20
-5.291488319447202
 30
0.0
 10
20.41579921773145
 20
-5.242270107853015
 30
0.0
 10
20.42971480290094
 20
-5.235035593310995
 30
0.0
  0
SPLINE
  5
4E2
330
1F
100
AcDbEntity
  8
외형선
  6
Continuous
 62
     1
370
    15
100
AcDbSpline
210
0.0
220
0.0
230
1.0
 70
     8
 71
     3
 72
    14
 73
    10
 74
     0
 42
0.000000001
 43
0.00000001
 40
0.0
 40
0.0
 40
0.0
 40
0.0
 40
0.0000829214104977
 40
0.0000829214104977
 40
0.0000829214104977
 40
0.0001559360992371
 40
0.0001559360992371
 40
0.0001559360992371
 40
0.0002315020119649
 40
0.0002315020119649
 40
0.0002315020119649
 40
0.0002315020119649
 10
19.93568513550044
 20
-5.623697820431401
 30
0.0
 10
19.9617887104965
 20
-5.611615927930783
 30
0.0
 10
19.98818701888549
 20
-5.596996490334986
 30
0.0
 10
20.01440665212785
 20
-5.579949514184234
 30
0.0
 10
20.03750031488251
 20
-5.564934921318892
 30
0.0
 10
20.0606097227243
 20
-5.547936627349825
 30
0.0
 10
20.08328052810937
 20
-5.529024037536642
 30
0.0
 10
20.10670828920856
 20
-5.509479975101113
 30
0.0
 10
20.12989811898133
 20
-5.487695494872382
 30
0.0
 10
20.15197748542456
 20
-5.463896120915363
 30
0.0
  0
SPLINE
  5
4E3
330
1F
100
AcDbEntity
  8
외형선
  6
Continuous
 62
     1
370
    15
100
AcDbSpline
210
0.0
220
0.0
230
1.0
 70
     8
 71
     3
 72
     8
 73
     4
 74
     0
 42
0.000000001
 43
0.00000001
 40
0.0
 40
0.0
 40
0.0
 40
0.0
 40
1.0
 40
1.0
 40
1.0
 40
1.0
 10
19.93568513566551
 20
-5.623697820353753
 30
0.0
 10
19.66548722593679
 20
-5.74875739935362
 30
0.0
 10
19.39549804913414
 20
-5.858550824031097
 30
0.0
 10
19.12894987448421
 20
-5.951967602065961
 30
0.0
  0
SPLINE
  5
4E4
330
1F
100
AcDbEntity
  8
외형선
  6
Continuous
 62
     1
370
    15
100
AcDbSpline
210
0.0
220
0.0
230
1.0
 70
     8
 71
     3
 72
    14
 73
    10
 74
     0
 42
0.000000001
 43
0.00000001
 40
0.0
 40
0.0
 40
0.0
 40
0.0
 40
0.0000775198821982
 40
0.0000775198821982
 40
0.0000775198821982
 40
0.0001598392384471
 40
0.0001598392384471
 40
0.0001598392384471
 40
0.0002443182005128
 40
0.0002443182005128
 40
0.0002443182005128
 40
0.0002443182005128
 10
18.91217150233804
 20
-5.960351374293365
 30
0.0
 10
18.93281007805651
 20
-5.967642518889802
 30
0.0
 10
18.95466249466795
 20
-5.972089332258318
 30
0.0
 10
18.97714000104752
 20
-5.973944422933782
 30
0.0
 10
19.00101039343899
 20
-5.975914469859701
 30
0.0
 10
19.02575634884333
 20
-5.97497840145955
 30
0.0
 10
19.050872260894
 20
-5.97135592245277
 30
0.0
 10
19.07664655448328
 20
-5.96763848478801
 30
0.0
 10
19.10298190353938
 20
-5.96107044421913
 30
0.0
 10
19.12945626411439
 20
-5.951790110201015
 30
0.0
  0
SPLINE
  5
4E5
330
1F
100
AcDbEntity
  8
외형선
  6
Continuous
 62
     1
370
    15
100
AcDbSpline
210
0.0
220
0.0
230
1.0
 70
     8
 71
     3
 72
    10
 73
     6
 74
     0
 42
0.000000001
 43
0.00000001
 40
0.0
 40
0.0
 40
0.0
 40
0.0
 40
0.5
 40
0.5
 40
1.0
 40
1.0
 40
1.0
 40
1.0
 10
18.04677471573765
 20
-6.173117967578206
 30
0.0
 10
18.1856024902212
 20
-6.04855695789942
 30
0.0
 10
18.34288765540864
 20
-5.979586159136529
 30
0.0
 10
18.64104028427999
 20
-5.913834166497407
 30
0.0
 10
18.78612688417305
 20
-5.915822645703456
 30
0.0
 10
18.91217150233787
 20
-5.960351374293223
 30
0.0
  0
SPLINE
  5
4E6
330
1F
100
AcDbEntity
  8
외형선
  6
Continuous
 62
     1
370
    15
100
AcDbSpline
210
0.0
220
0.0
230
1.0
 70
     8
 71
     3
 72
    14
 73
    10
 74
     0
 42
0.000000001
 43
0.00000001
 40
0.0
 40
0.0
 40
0.0
 40
0.0
 40
0.0000824051285108
 40
0.0000824051285108
 40
0.0000824051285108
 40
0.0001553131775159
 40
0.0001553131775159
 40
0.0001553131775159
 40
0.0002307930382258
 40
0.0002307930382258
 40
0.0002307930382258
 40
0.0002307930382258
 10
17.83125136633946
 20
-6.277084956715695
 30
0.0
 10
17.85717436654823
 20
-6.273175524078381
 30
0.0
 10
17.88339370685553
 20
-6.266417648327531
 30
0.0
 10
17.90943937276446
 20
-6.256701525739912
 30
0.0
 10
17.93248904496791
 20
-6.2481030340939
 30
0.0
 10
17.95555786224059
 20
-6.237129554647337
 30
0.0
 10
17.97818738191966
 20
-6.223633170452642
 30
0.0
 10
18.00157980512545
 20
-6.209681785920052
 30
0.0
 10
18.02473494841688
 20
-6.19289279780058
 30
0.0
 10
18.04677471573765
 20
-6.173117967578234
 30
0.0
  0
SPLINE
  5
4E7
330
1F
100
AcDbEntity
  8
외형선
  6
Continuous
 62
     1
370
    15
100
AcDbSpline
210
0.0
220
0.0
230
1.0
 70
     8
 71
     3
 72
     8
 73
     4
 74
     0
 42
0.000000001
 43
0.00000001
 40
0.0
 40
0.0
 40
0.0
 40
0.0
 40
1.0
 40
1.0
 40
1.0
 40
1.0
 10
17.83175691924216
 20
-6.277008694920736
 30
0.0
 10
17.56133868875945
 20
-6.317811336373124
 30
0.0
 10
17.29471589229054
 20
-6.341474930719626
 30
0.0
 10
17.02595860140845
 20
-6.348086446556151
 30
0.0
  0
SPLINE
  5
4E8
330
1F
100
AcDbEntity
  8
외형선
  6
Continuous
 62
     1
370
    15
100
AcDbSpline
210
0.0
220
0.0
230
1.0
 70
     8
 71
     3
 72
    14
 73
    10
 74
     0
 42
0.000000001
 43
0.00000001
 40
0.0
 40
0.0
 40
0.0
 40
0.0
 40
0.0000773716945668
 40
0.0000773716945668
 40
0.0000773716945668
 40
0.0001594667864407
 40
0.0001594667864407
 40
0.0001594667864407
 40
0.0002437234058219
 40
0.0002437234058219
 40
0.0002437234058219
 40
0.0002437234058219
 10
16.80922182289762
 20
-6.278486039332391
 30
0.0
 10
16.82985756164165
 20
-6.29402521988578
 30
0.0
 10
16.85171026067151
 20
-6.306874560146963
 30
0.0
 10
16.87419317312633
 20
-6.317102970791806
 30
0.0
 10
16.89804979858828
 20
-6.327956340537183
 30
0.0
 10
16.92278658697383
 20
-6.335938894700147
 30
0.0
 10
16.94789865795251
 20
-6.341092160283322
 30
0.0
 10
16.97367121845541
 20
-6.346380965381995
 30
0.0
 10
17.00001204433331
 20
-6.348726837458967
 30
0.0
 10
17.02646359965651
 20
-6.34807400322566
 30
0.0
  0
SPLINE
  5
4E9
330
1F
100
AcDbEntity
  8
외형선
  6
Continuous
 62
     1
370
    15
100
AcDbSpline
210
0.0
220
0.0
230
1.0
 70
     8
 71
     3
 72
    10
 73
     6
 74
     0
 42
0.000000001
 43
0.00000001
 40
0.0
 40
0.0
 40
0.0
 40
0.0
 40
0.2853505746322941
 40
0.717416989181348
 40
0.9999999999999999
 40
0.9999999999999999
 40
0.9999999999999999
 40
0.9999999999999999
 10
15.942021493117
 20
-6.210676083962126
 30
0.0
 10
16.01975033884647
 20
-6.176196846903052
 30
0.0
 10
16.21517309048325
 20
-6.089510529652527
 30
0.0
 10
16.51266263180169
 20
-6.111622752315666
 30
0.0
 10
16.6920259081348
 20
-6.214679189999684
 30
0.0
 10
16.76294881502786
 20
-6.255429238080977
 30
0.0
  0
SPLINE
  5
4EA
330
1F
100
AcDbEntity
  8
외형선
  6
Continuous
 62
     1
370
    15
100
AcDbSpline
210
0.0
220
0.0
230
1.0
 70
     8
 71
     3
 72
    14
 73
    10
 74
     0
 42
0.000000001
 43
0.00000001
 40
0.0
 40
0.0
 40
0.0
 40
0.0
 40
0.0000832444233647
 40
0.0000832444233647
 40
0.0000832444233647
 40
0.0001563038117358
 40
0.0001563038117358
 40
0.0001563038117358
 40
0.0002319137414355
 40
0.0002319137414355
 40
0.0002319137414355
 40
0.0002319137414355
 10
15.72568055600899
 20
-6.2475447806854
 30
0.0
 10
15.7518215702677
 20
-6.252228906912334
 30
0.0
 10
15.77826559882279
 20
-6.254015019435853
 30
0.0
 10
15.80453894189568
 20
-6.252580352586846
 30
0.0
 10
15.82760452307834
 20
-6.251320846912817
 30
0.0
 10
15.85069231130131
 20
-6.247570332785598
 30
0.0
 10
15.87334895245319
 20
-6.240975072583594
 30
0.0
 10
15.89676121353638
 20
-6.234159854355708
 30
0.0
 10
15.91994340148112
 20
-6.224235337332813
 30
0.0
 10
15.94202135154344
 20
-6.210675950613149
 30
0.0
  0
SPLINE
  5
4EB
330
1F
100
AcDbEntity
  8
외형선
  6
Continuous
 62
     1
370
    15
100
AcDbSpline
210
0.0
220
0.0
230
1.0
 70
     8
 71
     3
 72
     8
 73
     4
 74
     0
 42
0.000000001
 43
0.00000001
 40
0.0
 40
0.0
 40
0.0
 40
0.0
 40
1.0
 40
1.0
 40
1.0
 40
1.0
 10
15.72568807869734
 20
-6.247546128646305
 30
0.0
 10
15.45628935772952
 20
-6.199273738791701
 30
0.0
 10
15.18956813509344
 20
-6.134310771615089
 30
0.0
 10
14.91886963155723
 20
-6.05257062377879
 30
0.0
  0
SPLINE
  5
4EC
330
1F
100
AcDbEntity
  8
외형선
  6
Continuous
 62
     1
370
    15
100
AcDbSpline
210
0.0
220
0.0
230
1.0
 70
     8
 71
     3
 72
    14
 73
    10
 74
     0
 42
0.000000001
 43
0.00000001
 40
0.0
 40
0.0
 40
0.0
 40
0.0
 40
0.0000773288887893
 40
0.0000773288887893
 40
0.0000773288887893
 40
0.000159379621328
 40
0.000159379621328
 40
0.000159379621328
 40
0.0002435927059399
 40
0.0002435927059399
 40
0.0002435927059399
 40
0.0002435927059399
 10
14.70141723127354
 20
-5.912794447499747
 30
0.0
 10
14.72206309761409
 20
-5.934865409640876
 30
0.0
 10
14.7439290897673
 20
-5.954684975196271
 30
0.0
 10
14.7664289565595
 20
-5.972135700690073
 30
0.0
 10
14.79030385003036
 20
-5.990652886413981
 30
0.0
 10
14.81506321917495
 20
-6.00663754379063
 30
0.0
 10
14.84020204970118
 20
-6.019953957170172
 30
0.0
 10
14.86600264316407
 20
-6.033620916244912
 30
0.0
 10
14.89237627524786
 20
-6.044570667116586
 30
0.0
 10
14.91886446814072
 20
-6.052569064632548
 30
0.0
  0
SPLINE
  5
4ED
330
1F
100
AcDbEntity
  8
외형선
  6
Continuous
 62
     1
370
    15
100
AcDbSpline
210
0.0
220
0.0
230
1.0
 70
     8
 71
     3
 72
    10
 73
     6
 74
     0
 42
0.000000001
 43
0.00000001
 40
0.0
 40
0.0
 40
0.0
 40
0.0
 40
0.5
 40
0.5
 40
1.0
 40
1.0
 40
1.0
 40
1.0
 10
13.83459398791495
 20
-5.570955917268604
 30
0.0
 10
13.97334228880313
 20
-5.534216668454674
 30
0.0
 10
14.13056645381476
 20
-5.559065377153258
 30
0.0
 10
14.42919738190576
 20
-5.680127691543388
 30
0.0
 10
14.57483752385146
 20
-5.777477484565223
 30
0.0
 10
14.70141723127351
 20
-5.912794447499719
 30
0.0
  0
SPLINE
  5
4EE
330
1F
100
AcDbEntity
  8
외형선
  6
Continuous
 62
     1
370
    15
100
AcDbSpline
210
0.0
220
0.0
230
1.0
 70
     8
 71
     3
 72
    14
 73
    10
 74
     0
 42
0.000000001
 43
0.00000001
 40
0.0
 40
0.0
 40
0.0
 40
0.0
 40
0.0000833576960496
 40
0.0000833576960496
 40
0.0000833576960496
 40
0.0001564421428196
 40
0.0001564421428196
 40
0.0001564421428196
 40
0.0002320761972514
 40
0.0002320761972514
 40
0.0002320761972514
 40
0.0002320761972514
 10
13.61860693660755
 20
-5.536040523863617
 30
0.0
 10
13.64471967130028
 20
-5.548913571355454
 30
0.0
 10
13.67112107240105
 20
-5.559186758896002
 30
0.0
 10
13.69736386958578
 20
-5.566350357109711
 30
0.0
 10
13.72037933446591
 20
-5.572632977896729
 30
0.0
 10
13.743420580262
 20
-5.576567839833414
 30
0.0
 10
13.7660356907942
 20
-5.577637026112852
 30
0.0
 10
13.78940447505069
 20
-5.57874184421483
 30
0.0
 10
13.81254803928419
 20
-5.576793477706458
 30
0.0
 10
13.83459398791495
 20
-5.570955917268604
 30
0.0
  0
SPLINE
  5
4EF
330
1F
100
AcDbEntity
  8
외형선
  6
Continuous
 62
     1
370
    15
100
AcDbSpline
210
0.0
220
0.0
230
1.0
 70
     8
 71
     3
 72
     8
 73
     4
 74
     0
 42
0.000000001
 43
0.00000001
 40
0.0
 40
0.0
 40
0.0
 40
0.0
 40
1.0
 40
1.0
 40
1.0
 40
1.0
 10
13.61860693736053
 20
-5.536040524233413
 30
0.0
 10
13.35290009538484
 20
-5.40505245135506
 30
0.0
 10
13.08364030874141
 20
-5.258695881797278
 30
0.0
 10
12.81403326896244
 20
-5.098517152756243
 30
0.0
  0
SPLINE
  5
4F0
330
1F
100
AcDbEntity
  8
외형선
  6
Continuous
 62
     1
370
    15
100
AcDbSpline
210
0.0
220
0.0
230
1.0
 70
     8
 71
     3
 72
    14
 73
    10
 74
     0
 42
0.000000001
 43
0.00000001
 40
0.0
 40
0.0
 40
0.0
 40
0.0
 40
0.0000770625017707
 40
0.0000770625017707
 40
0.0000770625017707
 40
0.0001588495138866
 40
0.0001588495138866
 40
0.0001588495138866
 40
0.0002428052135024
 40
0.0002428052135024
 40
0.0002428052135024
 40
0.0002428052135024
 10
12.59775923097176
 20
-4.904722129667276
 30
0.0
 10
12.61832058232897
 20
-4.930843663766806
 30
0.0
 10
12.64010160708806
 20
-4.955401932631998
 30
0.0
 10
12.66252014921956
 20
-4.978103936957401
 30
0.0
 10
12.68631402837643
 20
-5.002198668201286
 30
0.0
 10
12.71099655620994
 20
-5.024376725137712
 30
0.0
 10
12.73606362934318
 20
-5.0443361200235
 30
0.0
 10
12.76179441330651
 20
-5.06482398771807
 30
0.0
 10
12.78810432037547
 20
-5.08311389201492
 30
0.0
 10
12.81453274715445
 20
-5.098813886844587
 30
0.0
  0
SPLINE
  5
4F1
330
1F
100
AcDbEntity
  8
외형선
  6
Continuous
 62
     1
370
    15
100
AcDbSpline
210
0.0
220
0.0
230
1.0
 70
     8
 71
     3
 72
    10
 73
     6
 74
     0
 42
0.000000001
 43
0.00000001
 40
0.0
 40
0.0
 40
0.0
 40
0.0
 40
0.5
 40
0.5
 40
1.0
 40
1.0
 40
1.0
 40
1.0
 10
11.73152373283957
 20
-4.325334558343789
 30
0.0
 10
11.87028073908569
 20
-4.341326510556653
 30
0.0
 10
12.0270646917913
 20
-4.412247627354067
 30
0.0
 10
12.32547021489576
 20
-4.612266549352389
 30
0.0
 10
12.47117619761805
 20
-4.743908622581612
 30
0.0
 10
12.59775923097159
 20
-4.904722129667162
 30
0.0
  0
SPLINE
  5
4F2
330
1F
100
AcDbEntity
  8
외형선
  6
Continuous
 62
     1
370
    15
100
AcDbSpline
210
0.0
220
0.0
230
1.0
 70
     8
 71
     3
 72
    14
 73
    10
 74
     0
 42
0.000000001
 43
0.00000001
 40
0.0
 40
0.0
 40
0.0
 40
0.0
 40
0.0000833139606638
 40
0.0000833139606638
 40
0.0000833139606638
 40
0.0001564267661217
 40
0.0001564267661217
 40
0.0001564267661217
 40
0.0002320720979597
 40
0.0002320720979597
 40
0.0002320720979597
 40
0.0002320720979597
 10
11.51530703266962
 20
-4.222828287615036
 30
0.0
 10
11.54147663050548
 20
-4.242392681182756
 30
0.0
 10
11.56793389642515
 20
-4.259935275903301
 30
0.0
 10
11.59420450611994
 20
-4.27484808695118
 30
0.0
 10
11.61726558187077
 20
-4.287938969470813
 30
0.0
 10
11.64033611284926
 20
-4.29909029238621
 30
0.0
 10
11.66296713922488
 20
-4.307684056863954
 30
0.0
 10
11.68634735011218
 20
-4.316562311984638
 30
0.0
 10
11.70948655818687
 20
-4.322794741046165
 30
0.0
 10
11.73152373283704
 20
-4.325334558338637
 30
0.0
  0
SPLINE
  5
4F3
330
1F
100
AcDbEntity
  8
외형선
  6
Continuous
 62
     1
370
    15
100
AcDbSpline
210
0.0
220
0.0
230
1.0
 70
     8
 71
     3
 72
     8
 73
     4
 74
     0
 42
0.000000001
 43
0.00000001
 40
0.0
 40
0.0
 40
0.0
 40
0.0
 40
1.0
 40
1.0
 40
1.0
 40
1.0
 10
11.51530710904367
 20
-4.222828344711095
 30
0.0
 10
11.24769302867926
 20
-4.022760037388812
 30
0.0
 10
10.97767739656125
 20
-3.810776414729715
 30
0.0
 10
10.70849679609119
 20
-3.589360023026464
 30
0.0
  0
SPLINE
  5
4F4
330
1F
100
AcDbEntity
  8
외형선
  6
Continuous
 62
     1
370
    15
100
AcDbSpline
210
0.0
220
0.0
230
1.0
 70
     8
 71
     3
 72
    14
 73
    10
 74
     0
 42
0.000000001
 43
0.00000001
 40
0.0
 40
0.0
 40
0.0
 40
0.0
 40
0.0000775293779657
 40
0.0000775293779657
 40
0.0000775293779657
 40
0.0001595397318316
 40
0.0001595397318316
 40
0.0001595397318316
 40
0.0002437049771751
 40
0.0002437049771751
 40
0.0002437049771751
 40
0.0002437049771751
 10
10.49137644875784
 20
-3.361243480529437
 30
0.0
 10
10.51206303266345
 20
-3.388792682325536
 30
0.0
 10
10.5339746719224
 20
-3.415617460989691
 30
0.0
 10
10.55652617346771
 20
-3.441284288075726
 30
0.0
 10
10.58038259410033
 20
-3.468436299308292
 30
0.0
 10
10.60512516025311
 20
-3.494486924067286
 30
0.0
 10
10.63025351100861
 20
-3.519009435186858
 30
0.0
 10
10.65604120059864
 20
-3.544175388610276
 30
0.0
 10
10.68240800180518
 20
-3.567901478386679
 30
0.0
 10
10.70889719836682
 20
-3.589689369295022
 30
0.0
  0
SPLINE
  5
4F5
330
1F
100
AcDbEntity
  8
외형선
  6
Continuous
 62
     1
370
    15
100
AcDbSpline
210
0.0
220
0.0
230
1.0
 70
     8
 71
     3
 72
    10
 73
     6
 74
     0
 42
0.000000001
 43
0.00000001
 40
0.4229219005335879
 40
0.4229219005335879
 40
0.4229219005335879
 40
0.4229219005335879
 40
0.5
 40
0.5
 40
1.0
 40
1.0
 40
1.0
 40
1.0
 10
9.999999999999993
 20
-2.852382295679921
 30
0.0
 10
10.0232896683073
 20
-2.871297535543453
 30
0.0
 10
10.04648135933983
 20
-2.890770700040787
 30
0.0
 10
10.21866571248048
 20
-3.040111964481893
 30
0.0
 10
10.36449176246514
 20
-3.19226575837583
 30
0.0
 10
10.4913764487577
 20
-3.361243480529409
 30
0.0
  0
SPLINE
  5
505
330
1F
100
AcDbEntity
  8
외형선
  6
Continuous
 62
     1
370
    15
100
AcDbSpline
210
0.0
220
0.0
230
1.0
 70
     8
 71
     3
 72
     8
 73
     4
 74
     0
 42
0.000000001
 43
0.00000001
 40
0.0
 40
0.0
 40
0.0
 40
0.0
 40
0.1352064271053191
 40
0.1352064271053191
 40
0.1352064271053191
 40
0.1352064271053191
 10
10.11589006146015
 20
3.622685515492956
 30
0.0
 10
10.07841165396291
 20
3.633089661793635
 30
0.0
 10
10.03961254745234
 20
3.647172777073167
 30
0.0
 10
9.999999999999979
 20
3.664439994534122
 30
0.0
  0
SPLINE
  5
506
330
1F
100
AcDbEntity
  8
외형선
  6
Continuous
 62
     1
370
    15
100
AcDbSpline
210
0.0
220
0.0
230
1.0
 70
     8
 71
     3
 72
    14
 73
    10
 74
     0
 42
0.000000001
 43
0.00000001
 40
0.0
 40
0.0
 40
0.0
 40
0.0
 40
0.0000828256445713
 40
0.0000828256445713
 40
0.0000828256445713
 40
0.0001558462428305
 40
0.0001558462428305
 40
0.0001558462428305
 40
0.0002314150580469
 40
0.0002314150580469
 40
0.0002314150580469
 40
0.0002314150580469
 10
10.33148319155804
 20
3.494246785781927
 30
0.0
 10
10.30546452741233
 20
3.515990179345418
 30
0.0
 10
10.27915970774616
 20
3.536050382599549
 30
0.0
 10
10.25304035905463
 20
3.553791976299935
 30
0.0
 10
10.23000662286008
 20
3.569437664628234
 30
0.0
 10
10.20696309454586
 20
3.583384707539468
 30
0.0
 10
10.18436179170753
 20
3.59498720210975
 30
0.0
 10
10.16100662635607
 20
3.606976695862252
 30
0.0
 10
10.13789474584191
 20
3.61657693268768
 30
0.0
 10
10.1158900614603
 20
3.622685515492962
 30
0.0
  0
SPLINE
  5
507
330
1F
100
AcDbEntity
  8
외형선
  6
Continuous
 62
     1
370
    15
100
AcDbSpline
210
0.0
220
0.0
230
1.0
 70
     8
 71
     3
 72
     8
 73
     4
 74
     0
 42
0.000000001
 43
0.00000001
 40
0.0
 40
0.0
 40
0.0
 40
0.0
 40
1.0
 40
1.0
 40
1.0
 40
1.0
 10
11.13663937728338
 20
2.79737847891825
 30
0.0
 10
10.86764876235442
 20
3.038184522204703
 30
0.0
 10
10.59777916745027
 20
3.271731704913337
 30
0.0
 10
10.33026205056389
 20
3.495267218688789
 30
0.0
  0
SPLINE
  5
508
330
1F
100
AcDbEntity
  8
외형선
  6
Continuous
 62
     1
370
    15
100
AcDbSpline
210
0.0
220
0.0
230
1.0
 70
     8
 71
     3
 72
    14
 73
    10
 74
     0
 42
0.000000001
 43
0.00000001
 40
0.0
 40
0.0
 40
0.0
 40
0.0
 40
0.000077413480568
 40
0.000077413480568
 40
0.000077413480568
 40
0.0001593340411862
 40
0.0001593340411862
 40
0.0001593340411862
 40
0.0002434125401128
 40
0.0002434125401128
 40
0.0002434125401128
 40
0.0002434125401128
 10
11.35336089249937
 20
2.562589019455659
 30
0.0
 10
11.33271240530003
 20
2.58971972615119
 30
0.0
 10
11.31083999103335
 20
2.616529952960791
 30
0.0
 10
11.28832745145595
 20
2.642538639835352
 30
0.0
 10
11.26450282613765
 20
2.670063176446385
 30
0.0
 10
11.23979124650278
 20
2.696886987080462
 30
0.0
 10
11.21469317376547
 20
2.722540528635265
 30
0.0
 10
11.18893496462478
 20
2.748868816686931
 30
0.0
 10
11.16259661548959
 20
2.774141989286222
 30
0.0
 10
11.13613568556112
 20
2.797829384951812
 30
0.0
  0
SPLINE
  5
509
330
1F
100
AcDbEntity
  8
외형선
  6
Continuous
 62
     1
370
    15
100
AcDbSpline
210
0.0
220
0.0
230
1.0
 70
     8
 71
     3
 72
    10
 73
     6
 74
     0
 42
0.000000001
 43
0.00000001
 40
0.0
 40
0.0
 40
0.0
 40
0.0
 40
0.5
 40
0.5
 40
1.0
 40
1.0
 40
1.0
 40
1.0
 10
12.22083976542222
 20
1.755863075864853
 30
0.0
 10
12.08150787596729
 20
1.84259980829851
 30
0.0
 10
11.92419157206031
 20
1.964989445549358
 30
0.0
 10
11.62594109138134
 20
2.240191688165568
 30
0.0
 10
11.48016415848013
 20
2.395978159098251
 30
0.0
 10
11.35336089249934
 20
2.562589019455646
 30
0.0
  0
SPLINE
  5
50A
330
1F
100
AcDbEntity
  8
외형선
  6
Continuous
 62
     1
370
    15
100
AcDbSpline
210
0.0
220
0.0
230
1.0
 70
     8
 71
     3
 72
    14
 73
    10
 74
     0
 42
0.000000001
 43
0.00000001
 40
0.0
 40
0.0
 40
0.0
 40
0.0
 40
0.0000830873879051
 40
0.0000830873879051
 40
0.0000830873879051
 40
0.0001561428193784
 40
0.0001561428193784
 40
0.0001561428193784
 40
0.0002317406358612
 40
0.0002317406358612
 40
0.0002317406358612
 40
0.0002317406358612
 10
12.43716724954239
 20
1.577982035782925
 30
0.0
 10
12.41102487347026
 20
1.60324518990467
 30
0.0
 10
12.38459152424214
 20
1.62768697604711
 30
0.0
 10
12.35834124769919
 20
1.650646209865629
 30
0.0
 10
12.33525364191168
 20
1.670839282449735
 30
0.0
 10
12.31215371840218
 20
1.690020060728906
 30
0.0
 10
12.28949353965586
 20
1.707534736377029
 30
0.0
 10
12.26607974641458
 20
1.725631901404002
 30
0.0
 10
12.24290601260676
 20
1.742126420276877
 30
0.0
 10
12.22083976542233
 20
1.755863075864775
 30
0.0
  0
SPLINE
  5
50B
330
1F
100
AcDbEntity
  8
외형선
  6
Continuous
 62
     1
370
    15
100
AcDbSpline
210
0.0
220
0.0
230
1.0
 70
     8
 71
     3
 72
     8
 73
     4
 74
     0
 42
0.000000001
 43
0.00000001
 40
0.0
 40
0.0
 40
0.0
 40
0.0
 40
1.0
 40
1.0
 40
1.0
 40
1.0
 10
13.24375613828848
 20
0.7881452848402353
 30
0.0
 10
12.9758734344497
 20
1.053917627271504
 30
0.0
 10
12.70593232704001
 20
1.318256081371076
 30
0.0
 10
12.43716725202403
 20
1.577982033384737
 30
0.0
  0
SPLINE
  5
50C
330
1F
100
AcDbEntity
  8
외형선
  6
Continuous
 62
     1
370
    15
100
AcDbSpline
210
0.0
220
0.0
230
1.0
 70
     8
 71
     3
 72
    14
 73
    10
 74
     0
 42
0.000000001
 43
0.00000001
 40
0.0
 40
0.0
 40
0.0
 40
0.0
 40
0.0000777388500166
 40
0.0000777388500166
 40
0.0000777388500166
 40
0.0001598305528566
 40
0.0001598305528566
 40
0.0001598305528566
 40
0.0002440715457096
 40
0.0002440715457096
 40
0.0002440715457096
 40
0.0002440715457096
 10
13.46123433432208
 20
0.5544057021531346
 30
0.0
 10
13.440529162018
 20
0.5786991891952924
 30
0.0
 10
13.41859717601738
 20
0.6036072794698926
 30
0.0
 10
13.39602333240113
 20
0.628575210143653
 30
0.0
 10
13.37218373153646
 20
0.6549431389642295
 30
0.0
 10
13.34745868763516
 20
0.6815650485665772
 30
0.0
 10
13.32234542973454
 20
0.7079145065080843
 30
0.0
 10
13.29657562702188
 20
0.7349528276779813
 30
0.0
 10
13.27022492215433
 20
0.7618850274874112
 30
0.0
 10
13.24374760606965
 20
0.7881537498416993
 30
0.0
  0
SPLINE
  5
50D
330
1F
100
AcDbEntity
  8
외형선
  6
Continuous
 62
     1
370
    15
100
AcDbSpline
210
0.0
220
0.0
230
1.0
 70
     8
 71
     3
 72
    10
 73
     6
 74
     0
 42
0.000000001
 43
0.00000001
 40
0.0
 40
0.0
 40
0.0
 40
0.0
 40
0.5
 40
0.5
 40
1.0
 40
1.0
 40
1.0
 40
1.0
 10
14.32817205267039
 20
-0.303531809120143
 30
0.0
 10
14.18887687076749
 20
-0.1782828456556854
 30
0.0
 10
14.03124098550156
 20
-0.036572634891135
 30
0.0
 10
13.73275631806157
 20
0.2536926583216131
 30
0.0
 10
13.58773104258517
 20
0.4059864522220751
 30
0.0
 10
13.46123433432208
 20
0.5544057021531701
 30
0.0
  0
SPLINE
  5
50E
330
1F
100
AcDbEntity
  8
외형선
  6
Continuous
 62
     1
370
    15
100
AcDbSpline
210
0.0
220
0.0
230
1.0
 70
     8
 71
     3
 72
    14
 73
    10
 74
     0
 42
0.000000001
 43
0.00000001
 40
0.0
 40
0.0
 40
0.0
 40
0.0
 40
0.000082870009807
 40
0.000082870009807
 40
0.000082870009807
 40
0.0001558609786838
 40
0.0001558609786838
 40
0.0001558609786838
 40
0.0002314093419859
 40
0.0002314093419859
 40
0.0002314093419859
 40
0.0002314093419859
 10
16.64730301790364
 20
-2.540491050656347
 30
0.0
 10
16.62122868637978
 20
-2.516650899890023
 30
0.0
 10
16.59485688031301
 20
-2.49174006967
 30
0.0
 10
16.56866036939296
 20
-2.466251438632296
 30
0.0
 10
16.5455803889001
 20
-2.443795123402565
 30
0.0
 10
16.5224820306873
 20
-2.420740013777786
 30
0.0
 10
16.49982070791807
 20
-2.397551768500859
 30
0.0
 10
16.47640074961821
 20
-2.373587247852126
 30
0.0
 10
16.45321658557551
 20
-2.349242591762887
 30
0.0
 10
16.43114379287012
 20
-2.325406112612355
 30
0.0
  0
SPLINE
  5
50F
330
1F
100
AcDbEntity
  8
외형선
  6
Continuous
 62
     1
370
    15
100
AcDbSpline
210
0.0
220
0.0
230
1.0
 70
     8
 71
     3
 72
    14
 73
    10
 74
     0
 42
0.000000001
 43
0.00000001
 40
0.0
 40
0.0
 40
0.0
 40
0.0
 40
0.000077530490719
 40
0.000077530490719
 40
0.000077530490719
 40
0.0001597516179622
 40
0.0001597516179622
 40
0.0001597516179622
 40
0.000244130241224
 40
0.000244130241224
 40
0.000244130241224
 40
0.000244130241224
 10
17.67148945245045
 20
-3.414387169584272
 30
0.0
 10
17.65080927671584
 20
-3.403460326460161
 30
0.0
 10
17.6289113193284
 20
-3.39033638664417
 30
0.0
 10
17.60638410113491
 20
-3.375527308882551
 30
0.0
 10
17.58249263976977
 20
-3.359821396765212
 30
0.0
 10
17.55772279259491
 20
-3.342109774739625
 30
0.0
 10
17.53257918206755
 20
-3.322867732882989
 30
0.0
 10
17.50677641166324
 20
-3.303121245496242
 30
0.0
 10
17.48040742091111
 20
-3.281631858796243
 30
0.0
 10
17.45392841815151
 20
-3.258838056912869
 30
0.0
  0
SPLINE
  5
510
330
1F
100
AcDbEntity
  8
외형선
  6
Continuous
 62
     1
370
    15
100
AcDbSpline
210
0.0
220
0.0
230
1.0
 70
     8
 71
     3
 72
    10
 73
     6
 74
     0
 42
0.000000001
 43
0.00000001
 40
0.0
 40
0.0
 40
0.0
 40
0.0
 40
0.5
 40
0.5
 40
1.0
 40
1.0
 40
1.0
 40
1.0
 10
18.53900775459015
 20
-4.098553858145435
 30
0.0
 10
18.39994105021591
 20
-3.939343757070572
 30
0.0
 10
18.24243073565249
 20
-3.804837457148884
 30
0.0
 10
17.94357944444032
 20
-3.577314891716239
 30
0.0
 10
17.79799406278848
 20
-3.481228769451489
 30
0.0
 10
17.67148945245045
 20
-3.414387169584257
 30
0.0
  0
SPLINE
  5
511
330
1F
100
AcDbEntity
  8
외형선
  6
Continuous
 62
     1
370
    15
100
AcDbSpline
210
0.0
220
0.0
230
1.0
 70
     8
 71
     3
 72
    14
 73
    10
 74
     0
 42
0.000000001
 43
0.00000001
 40
0.0
 40
0.0
 40
0.0
 40
0.0
 40
0.0000830825063237
 40
0.0000830825063237
 40
0.0000830825063237
 40
0.000156121737381
 40
0.000156121737381
 40
0.000156121737381
 40
0.0002317145012018
 40
0.0002317145012018
 40
0.0002317145012018
 40
0.0002317145012018
 10
18.75521579063507
 20
-4.298169376845179
 30
0.0
 10
18.72911614847643
 20
-4.278941826710378
 30
0.0
 10
18.70271466812351
 20
-4.257815848747553
 30
0.0
 10
18.67648439322348
 20
-4.235113996241287
 30
0.0
 10
18.65341829519203
 20
-4.215150684480347
 30
0.0
 10
18.63033056070505
 20
-4.193835354517054
 30
0.0
 10
18.60767529246964
 20
-4.171453776185351
 30
0.0
 10
18.58426329491299
 20
-4.148324610299012
 30
0.0
 10
18.56108257394802
 20
-4.123826149144149
 30
0.0
 10
18.53900775459026
 20
-4.098553858145563
 30
0.0
  0
SPLINE
  5
512
330
1F
100
AcDbEntity
  8
외형선
  6
Continuous
 62
     1
370
    15
100
AcDbSpline
210
0.0
220
0.0
230
1.0
 70
     8
 71
     3
 72
     8
 73
     4
 74
     0
 42
0.000000001
 43
0.00000001
 40
0.0
 40
0.0
 40
0.0
 40
0.0
 40
1.0
 40
1.0
 40
1.0
 40
1.0
 10
19.56130248747572
 20
-4.856825746990237
 30
0.0
 10
19.29098027467531
 20
-4.682889989861094
 30
0.0
 10
19.02472682532671
 20
-4.496717575317858
 30
0.0
 10
18.75521579068722
 20
-4.298169376883605
 30
0.0
  0
SPLINE
  5
513
330
1F
100
AcDbEntity
  8
외형선
  6
Continuous
 62
     1
370
    15
100
AcDbSpline
210
0.0
220
0.0
230
1.0
 70
     8
 71
     3
 72
    14
 73
    10
 74
     0
 42
0.000000001
 43
0.00000001
 40
0.0
 40
0.0
 40
0.0
 40
0.0
 40
0.0000770052271393
 40
0.0000770052271393
 40
0.0000770052271393
 40
0.0001589497293776
 40
0.0001589497293776
 40
0.0001589497293776
 40
0.0002430674586806
 40
0.0002430674586806
 40
0.0002430674586806
 40
0.0002430674586806
 10
19.77768984855426
 20
-4.943875158936747
 30
0.0
 10
19.75714722245876
 20
-4.941864967229135
 30
0.0
 10
19.73538779298862
 20
-4.937212691131142
 30
0.0
 10
19.71299529526305
 20
-4.930317084115059
 30
0.0
 10
19.68916581516597
 20
-4.922978968815839
 30
0.0
 10
19.66444829150619
 20
-4.913050049344177
 30
0.0
 10
19.63935052961456
 20
-4.900897701505377
 30
0.0
 10
19.61358787965039
 20
-4.888423414556363
 30
0.0
 10
19.58725045195395
 20
-4.87352334347573
 30
0.0
 10
19.56079916508761
 20
-4.85650187384231
 30
0.0
  0
SPLINE
  5
514
330
1F
100
AcDbEntity
  8
외형선
  6
Continuous
 62
     1
370
    15
100
AcDbSpline
210
0.0
220
0.0
230
1.0
 70
     8
 71
     3
 72
    10
 73
     6
 74
     0
 42
0.000000001
 43
0.00000001
 40
0.0
 40
0.0
 40
0.0
 40
0.0
 40
0.5
 40
0.5
 40
1.0
 40
1.0
 40
1.0
 40
1.0
 10
20.64244225867087
 20
-5.422734547334214
 30
0.0
 10
20.5039969748158
 20
-5.272318080088545
 30
0.0
 10
20.34711208395691
 20
-5.163740652820733
 30
0.0
 10
20.04913555961234
 20
-5.006817763662651
 30
0.0
 10
19.9038709839531
 20
-4.956222571134985
 30
0.0
 10
19.77768984855426
 20
-4.943875158936718
 30
0.0
  0
SPLINE
  5
515
330
1F
100
AcDbEntity
  8
외형선
  6
Continuous
 62
     1
370
    15
100
AcDbSpline
210
0.0
220
0.0
230
1.0
 70
     8
 71
     3
 72
    14
 73
    10
 74
     0
 42
0.000000001
 43
0.00000001
 40
0.0
 40
0.0
 40
0.0
 40
0.0
 40
0.0000832420831961
 40
0.0000832420831961
 40
0.0000832420831961
 40
0.0001562974402531
 40
0.0001562974402531
 40
0.0001562974402531
 40
0.0002319085549441
 40
0.0002319085549441
 40
0.0002319085549441
 40
0.0002319085549441
 10
20.8583664313962
 20
-5.584993071018173
 30
0.0
 10
20.83228571612508
 20
-5.572506783007212
 30
0.0
 10
20.80589911543344
 20
-5.557500909546873
 30
0.0
 10
20.77967891424887
 20
-5.540087641613708
 30
0.0
 10
20.75666068695519
 20
-5.524800857336613
 30
0.0
 10
20.73361714577836
 20
-5.507556541792978
 30
0.0
 10
20.71100152867421
 20
-5.488428568439187
 30
0.0
 10
20.68763014990582
 20
-5.468661382416114
 30
0.0
 10
20.66448538196044
 20
-5.446683710786699
 30
0.0
 10
20.64244225867096
 20
-5.422734547334285
 30
0.0
  0
SPLINE
  5
516
330
1F
100
AcDbEntity
  8
외형선
  6
Continuous
 62
     1
370
    15
100
AcDbSpline
210
0.0
220
0.0
230
1.0
 70
     8
 71
     3
 72
     8
 73
     4
 74
     0
 42
0.000000001
 43
0.00000001
 40
0.0
 40
0.0
 40
0.0
 40
0.0
 40
1.0
 40
1.0
 40
1.0
 40
1.0
 10
21.66411603581738
 20
-5.922717559423701
 30
0.0
 10
21.3939169383968
 20
-5.825586656493028
 30
0.0
 10
21.12483871834941
 20
-5.712568167225738
 30
0.0
 10
20.85836638920042
 20
-5.584993050816704
 30
0.0
  0
SPLINE
  5
517
330
1F
100
AcDbEntity
  8
외형선
  6
Continuous
 62
     1
370
    15
100
AcDbSpline
210
0.0
220
0.0
230
1.0
 70
     8
 71
     3
 72
    14
 73
    10
 74
     0
 42
0.000000001
 43
0.00000001
 40
0.0
 40
0.0
 40
0.0
 40
0.0
 40
0.0000773498252425
 40
0.0000773498252425
 40
0.0000773498252425
 40
0.0001593164299349
 40
0.0001593164299349
 40
0.0001593164299349
 40
0.0002434434035842
 40
0.0002434434035842
 40
0.0002434434035842
 40
0.0002434434035842
 10
21.88151520118602
 20
-5.933787521022337
 30
0.0
 10
21.86086164926498
 20
-5.940762113158
 30
0.0
 10
21.83898600884904
 20
-5.944908270833804
 30
0.0
 10
21.81647353656395
 20
-5.946476998892349
 30
0.0
 10
21.79261611284246
 20
-5.948139446691171
 30
0.0
 10
21.76787302034011
 20
-5.946921717855359
 30
0.0
 10
21.74274738883885
 20
-5.943039056311006
 30
0.0
 10
21.71696040219253
 20
-5.939054195616391
 30
0.0
 10
21.69059717688383
 20
-5.932236973287045
 30
0.0
 10
21.66411613894748
 20
-5.922717596496851
 30
0.0
  0
SPLINE
  5
518
330
1F
100
AcDbEntity
  8
외형선
  6
Continuous
 62
     1
370
    15
100
AcDbSpline
210
0.0
220
0.0
230
1.0
 70
     8
 71
     3
 72
    10
 73
     6
 74
     0
 42
0.000000001
 43
0.00000001
 40
0.0
 40
0.0
 40
0.0
 40
0.0
 40
0.5
 40
0.5
 40
1.0
 40
1.0
 40
1.0
 40
1.0
 10
22.74926833436679
 20
-6.158248941524902
 30
0.0
 10
22.6103494441535
 20
-6.032521564022785
 30
0.0
 10
22.45320940468553
 20
-5.961527861548204
 30
0.0
 10
22.15429979936043
 20
-5.891342352536169
 30
0.0
 10
22.00836619867259
 20
-5.890950629196025
 30
0.0
 10
21.88151520118602
 20
-5.933787521022337
 30
0.0
  0
SPLINE
  5
519
330
1F
100
AcDbEntity
  8
외형선
  6
Continuous
 62
     1
370
    15
100
AcDbSpline
210
0.0
220
0.0
230
1.0
 70
     8
 71
     3
 72
    14
 73
    10
 74
     0
 42
0.000000001
 43
0.00000001
 40
0.0
 40
0.0
 40
0.0
 40
0.0
 40
0.0000835018592247
 40
0.0000835018592247
 40
0.0000835018592247
 40
0.0001566597582484
 40
0.0001566597582484
 40
0.0001566597582484
 40
0.0002323428070469
 40
0.0002323428070469
 40
0.0002323428070469
 40
0.0002323428070469
 10
22.96566068513967
 20
-6.264933087513851
 30
0.0
 10
22.93944180334423
 20
-6.260648278199453
 30
0.0
 10
22.91293526228414
 20
-6.253474307795384
 30
0.0
 10
22.88661624842805
 20
-6.243314344530047
 30
0.0
 10
22.86355019167776
 20
-6.234410124541396
 30
0.0
 10
22.84047521807556
 20
-6.223153312824577
 30
0.0
 10
22.81783868062953
 20
-6.209404797458062
 30
0.0
 10
22.79445540494108
 20
-6.19520274354903
 30
0.0
 10
22.77131256589833
 20
-6.178199888550564
 30
0.0
 10
22.74926833436685
 20
-6.158248941525015
 30
0.0
  0
SPLINE
  5
51A
330
1F
100
AcDbEntity
  8
외형선
  6
Continuous
 62
     1
370
    15
100
AcDbSpline
210
0.0
220
0.0
230
1.0
 70
     8
 71
     3
 72
     8
 73
     4
 74
     0
 42
0.000000001
 43
0.00000001
 40
0.0
 40
0.0
 40
0.0
 40
0.0
 40
1.0
 40
1.0
 40
1.0
 40
1.0
 10
23.77198499677896
 20
-6.345620570948453
 30
0.0
 10
23.50260130032034
 20
-6.335648314746164
 30
0.0
 10
23.23257773483663
 20
-6.308575491227058
 30
0.0
 10
22.96515074485551
 20
-6.264849730130718
 30
0.0
  0
SPLINE
  5
51B
330
1F
100
AcDbEntity
  8
외형선
  6
Continuous
 62
     1
370
    15
100
AcDbSpline
210
0.0
220
0.0
230
1.0
 70
     8
 71
     3
 72
    14
 73
    10
 74
     0
 42
0.000000001
 43
0.00000001
 40
0.0
 40
0.0
 40
0.0
 40
0.0
 40
0.0000773323911261
 40
0.0000773323911261
 40
0.0000773323911261
 40
0.0001592936340223
 40
0.0001592936340223
 40
0.0001592936340223
 40
0.0002434164518404
 40
0.0002434164518404
 40
0.0002434164518404
 40
0.0002434164518404
 10
23.98925958048408
 20
-6.278883738943007
 30
0.0
 10
23.96862899372913
 20
-6.294134287638242
 30
0.0
 10
23.94677514392653
 20
-6.306687900726088
 30
0.0
 10
23.92428205389901
 20
-6.316618016056053
 30
0.0
 10
23.90044138744525
 20
-6.327143051395324
 30
0.0
 10
23.87571218340743
 20
-6.334798552246736
 30
0.0
 10
23.85059691816837
 20
-6.339628353645166
 30
0.0
 10
23.82482017987632
 20
-6.344585359890756
 30
0.0
 10
23.79846343029489
 20
-6.346600770293432
 30
0.0
 10
23.77198499681807
 20
-6.345620570949931
 30
0.0
  0
LINE
  5
51C
330
1F
100
AcDbEntity
  8
외형선
  6
Continuous
 62
     1
370
    15
100
AcDbLine
 10
24.07142697175342
 20
-6.238915647069617
 30
0.0
 11
23.98925948540368
 21
-6.278883665800093
 31
0.0
  0
SPLINE
  5
520
330
1F
100
AcDbEntity
  8
외형선
  6
Continuous
 62
     1
370
    15
100
AcDbSpline
210
0.0
220
0.0
230
1.0
 70
     8
 71
     3
 72
    12
 73
     8
 74
     0
 42
0.000000001
 43
0.00000001
 40
0.0
 40
0.0
 40
0.0
 40
0.0
 40
0.25
 40
0.25
 40
0.5
 40
0.5
 40
1.0
 40
1.0
 40
1.0
 40
1.0
 10
26.43254248085943
 20
-2.350795217128185
 30
0.0
 10
26.41971858675861
 20
-2.118313374577886
 30
0.0
 10
26.40710940739281
 20
-1.8814908672757
 30
0.0
 10
26.38256720892669
 20
-1.404510552918977
 30
0.0
 10
26.37088530733836
 20
-1.166043959198211
 30
0.0
 10
26.33525775903435
 20
-0.4406247928859469
 30
0.0
 10
26.30990218886531
 20
0.0622203341610347
 30
0.0
 10
26.28391908247049
 20
0.5637863734387325
 30
0.0
  0
SPLINE
  5
521
330
1F
100
AcDbEntity
  8
외형선
  6
Continuous
 62
     1
370
    15
100
AcDbSpline
210
0.0
220
0.0
230
1.0
 70
     8
 71
     3
 72
    10
 73
     6
 74
     0
 42
0.000000001
 43
0.00000001
 40
0.0
 40
0.0
 40
0.0
 40
0.0
 40
0.4999999999999998
 40
0.4999999999999998
 40
1.0
 40
1.0
 40
1.0
 40
1.0
 10
32.43991833430928
 20
1.526100757213415
 30
0.0
 10
32.41390007421096
 20
2.017227177532137
 30
0.0
 10
32.38800910510601
 20
2.492680959668101
 30
0.0
 10
32.33858544420746
 20
3.374925264322124
 30
0.0
 10
32.31603056546887
 20
3.777136268462458
 30
0.0
 10
32.29161814055279
 20
4.151967019220537
 30
0.0
  0
SPLINE
  5
522
330
1F
100
AcDbEntity
  8
외형선
  6
Continuous
 62
     1
370
    15
100
AcDbSpline
210
0.0
220
0.0
230
1.0
 70
     8
 71
     3
 72
     8
 73
     4
 74
     0
 42
0.000000001
 43
0.00000001
 40
0.0
 40
0.0
 40
0.0
 40
0.0
 40
1.0
 40
1.0
 40
1.0
 40
1.0
 10
33.09559620962857
 20
3.513887579696453
 30
0.0
 10
32.82819558513409
 20
3.73633366213364
 30
0.0
 10
32.55913773797325
 20
3.94987649883622
 30
0.0
 10
32.29162591810697
 20
4.151969540467158
 30
0.0
  0
SPLINE
  5
523
330
1F
100
AcDbEntity
  8
외형선
  6
Continuous
 62
     1
370
    15
100
AcDbSpline
210
0.0
220
0.0
230
1.0
 70
     8
 71
     3
 72
    10
 73
     6
 74
     0
 42
0.000000001
 43
0.00000001
 40
0.0
 40
0.0
 40
0.0
 40
0.0
 40
0.5000000000000001
 40
0.5000000000000001
 40
1.0
 40
1.0
 40
1.0
 40
1.0
 10
33.24649379773264
 20
0.7348968711427253
 30
0.0
 10
33.22085196742542
 20
1.232629086892737
 30
0.0
 10
33.19474288956612
 20
1.726344277008061
 30
0.0
 10
33.1437575144155
 20
2.664905138812118
 30
0.0
 10
33.11889933557375
 20
3.109439248495769
 30
0.0
 10
33.09559610323727
 20
3.513889145720003
 30
0.0
  0
SPLINE
  5
524
330
1F
100
AcDbEntity
  8
외형선
  6
Continuous
 62
     1
370
    15
100
AcDbSpline
210
0.0
220
0.0
230
1.0
 70
     8
 71
     3
 72
    10
 73
     6
 74
     0
 42
0.000000001
 43
0.00000001
 40
0.0
 40
0.0
 40
0.0
 40
0.0
 40
0.5000000000000001
 40
0.5000000000000001
 40
1.0
 40
1.0
 40
1.0
 40
1.0
 10
22.43843860604814
 20
1.554018316552928
 30
0.0
 10
22.41241203205236
 20
2.044805008482038
 30
0.0
 10
22.38653449308008
 20
2.519498410120415
 30
0.0
 10
22.33717720446707
 20
3.39953883904336
 30
0.0
 10
22.31462980541624
 20
3.800623487268384
 30
0.0
 10
22.29015460313476
 20
4.174377254204972
 30
0.0
  0
SPLINE
  5
525
330
1F
100
AcDbEntity
  8
외형선
  6
Continuous
 62
     1
370
    15
100
AcDbSpline
210
0.0
220
0.0
230
1.0
 70
     8
 71
     3
 72
    10
 73
     6
 74
     0
 42
0.000000001
 43
0.00000001
 40
0.0
 40
0.0
 40
0.0
 40
0.0
 40
0.5
 40
0.5
 40
1.0
 40
1.0
 40
1.0
 40
1.0
 10
23.24524105684607
 20
0.7592034940810293
 30
0.0
 10
23.2195790736062
 20
1.2569064555492
 30
0.0
 10
23.19346740792743
 20
1.750238811304266
 30
0.0
 10
23.14251254333432
 20
2.68738715124755
 30
0.0
 10
23.11768737694301
 20
3.130894092389057
 30
0.0
 10
23.09443063638749
 20
3.534106148552419
 30
0.0
  0
SPLINE
  5
526
330
1F
100
AcDbEntity
  8
외형선
  6
Continuous
 62
     1
370
    15
100
AcDbSpline
210
0.0
220
0.0
230
1.0
 70
     8
 71
     3
 72
    10
 73
     6
 74
     0
 42
0.000000001
 43
0.00000001
 40
0.0
 40
0.0
 40
0.0
 40
0.0
 40
0.5
 40
0.5
 40
1.0
 40
1.0
 40
1.0
 40
1.0
 10
12.43716730428712
 20
1.57798100435148
 30
0.0
 10
12.41114475980523
 20
2.068264915579919
 30
0.0
 10
12.38528980657414
 20
2.542108043395602
 30
0.0
 10
12.33600875256154
 20
3.419934548319719
 30
0.0
 10
12.31347078931727
 20
3.819952178659266
 30
0.0
 10
12.28895410703503
 20
4.192668759513632
 30
0.0
  0
SPLINE
  5
527
330
1F
100
AcDbEntity
  8
외형선
  6
Continuous
 62
     1
370
    15
100
AcDbSpline
210
0.0
220
0.0
230
1.0
 70
     8
 71
     3
 72
    10
 73
     6
 74
     0
 42
0.000000001
 43
0.00000001
 40
0.0
 40
0.0
 40
0.0
 40
0.0
 40
0.4999999999999998
 40
0.4999999999999998
 40
1.0
 40
1.0
 40
1.0
 40
1.0
 10
13.24374804812196
 20
0.7881451850513852
 30
0.0
 10
13.21806160609926
 20
1.285821581377158
 30
0.0
 10
13.19194642621806
 20
1.778705318914505
 30
0.0
 10
13.14102716924858
 20
2.71418275746627
 30
0.0
 10
13.116241022436
 20
3.156470417407244
 30
0.0
 10
13.09303944493458
 20
3.558210382444544
 30
0.0
  0
SPLINE
  5
528
330
1F
100
AcDbEntity
  8
외형선
  6
Continuous
 62
     1
370
    15
100
AcDbSpline
210
0.0
220
0.0
230
1.0
 70
     8
 71
     3
 72
    10
 73
     6
 74
     0
 42
0.000000001
 43
0.00000001
 40
0.0
 40
0.0
 40
0.0
 40
0.0
 40
0.5
 40
0.5
 40
1.0
 40
1.0
 40
1.0
 40
1.0
 10
33.46397852416445
 20
0.5013664496103318
 30
0.0
 10
33.43834626245026
 20
0.9972431448228902
 30
0.0
 10
33.41207459656825
 20
1.492385637238472
 30
0.0
 10
33.36045940233102
 20
2.439435843424236
 30
0.0
 10
33.33513538213164
 20
2.891002381694423
 30
0.0
 10
33.31127246162932
 20
3.304161512007008
 30
0.0
  0
SPLINE
  5
529
330
1F
100
AcDbEntity
  8
외형선
  6
Continuous
 62
     1
370
    15
100
AcDbSpline
210
0.0
220
0.0
230
1.0
 70
     8
 71
     3
 72
    10
 73
     6
 74
     0
 42
0.000000001
 43
0.00000001
 40
0.0
 40
0.0
 40
0.0
 40
0.0
 40
0.5
 40
0.5
 40
1.0
 40
1.0
 40
1.0
 40
1.0
 10
33.31127246162615
 20
3.304161512062267
 30
0.0
 10
33.45023353002258
 20
3.146640817112301
 30
0.0
 10
33.60703246054337
 20
3.00397097355915
 30
0.0
 10
33.90517266793681
 20
2.75018099227468
 30
0.0
 10
34.05081660057518
 20
2.635711182141372
 30
0.0
 10
34.17748264087609
 20
2.545544605515412
 30
0.0
  0
SPLINE
  5
52C
330
1F
100
AcDbEntity
  8
외형선
  6
Continuous
 62
     1
370
    15
100
AcDbSpline
210
0.0
220
0.0
230
1.0
 70
     8
 71
     3
 72
    10
 73
     6
 74
     0
 42
0.000000001
 43
0.00000001
 40
0.0
 40
0.0
 40
0.0
 40
0.0
 40
0.5
 40
0.5
 40
1.0
 40
1.0
 40
1.0
 40
1.0
 10
23.46267496801797
 20
0.5265736583083525
 30
0.0
 10
23.43702458134279
 20
1.022363014351414
 30
0.0
 10
23.41075336385685
 20
1.517051576511507
 30
0.0
 10
23.35917617402179
 20
2.462535353765142
 30
0.0
 10
23.33388961390701
 20
2.912992127785162
 30
0.0
 10
23.31007779377235
 20
3.324834999883679
 30
0.0
  0
SPLINE
  5
52D
330
1F
100
AcDbEntity
  8
외형선
  6
Continuous
 62
     1
370
    15
100
AcDbSpline
210
0.0
220
0.0
230
1.0
 70
     8
 71
     3
 72
    10
 73
     6
 74
     0
 42
0.000000001
 43
0.00000001
 40
0.0
 40
0.0
 40
0.0
 40
0.0
 40
0.5
 40
0.5
 40
1.0
 40
1.0
 40
1.0
 40
1.0
 10
13.46123433430789
 20
0.5544057024269635
 30
0.0
 10
13.43554927155016
 20
1.050381441600487
 30
0.0
 10
13.40926321715155
 20
1.544849362813161
 30
0.0
 10
13.35769973909074
 20
2.48909075747669
 30
0.0
 10
13.33244167234937
 20
2.938527964692819
 30
0.0
 10
13.30867607681548
 20
3.349063764714729
 30
0.0
  0
SPLINE
  5
530
330
1F
100
AcDbEntity
  8
외형선
  6
Continuous
 62
     1
370
    15
100
AcDbSpline
210
0.0
220
0.0
230
1.0
 70
     8
 71
     3
 72
    12
 73
     8
 74
     0
 42
0.000000001
 43
0.00000001
 40
0.0
 40
0.0
 40
0.0
 40
0.0
 40
0.4999999999999998
 40
0.4999999999999998
 40
0.7499999999999999
 40
0.7499999999999999
 40
1.0
 40
1.0
 40
1.0
 40
1.0
 10
17.6714894524461
 20
-3.414387169513758
 30
0.0
 10
17.64529098688063
 20
-2.991739676809046
 30
0.0
 10
17.61906583181785
 20
-2.535652618543394
 30
0.0
 10
17.58132972327526
 20
-1.831842933610821
 30
0.0
 10
17.56901596966073
 20
-1.594015013658789
 30
0.0
 10
17.54514578045464
 20
-1.117140595623807
 30
0.0
 10
17.53364576929257
 20
-0.8785131922842508
 30
0.0
 10
17.521522858036
 20
-0.6343230433465604
 30
0.0
  0
SPLINE
  5
531
330
1F
100
AcDbEntity
  8
외형선
  6
Continuous
 62
     1
370
    15
100
AcDbSpline
210
0.0
220
0.0
230
1.0
 70
     8
 71
     3
 72
    12
 73
     8
 74
     0
 42
0.000000001
 43
0.00000001
 40
0.0
 40
0.0
 40
0.0
 40
0.0
 40
0.5
 40
0.5
 40
0.75
 40
0.75
 40
1.0
 40
1.0
 40
1.0
 40
1.0
 10
27.67274319751782
 20
-3.434588393881254
 30
0.0
 10
27.6465545394632
 20
-3.013137447681911
 30
0.0
 10
27.62032065003679
 20
-2.557970130702854
 30
0.0
 10
27.58254559113361
 20
-1.85502400899957
 30
0.0
 10
27.57021462992642
 20
-1.617399421268046
 30
0.0
 10
27.54630275861367
 20
-1.140763895207554
 30
0.0
 10
27.53482415069395
 20
-0.9024774550529726
 30
0.0
 10
27.52272841319287
 20
-0.6586172062569189
 30
0.0
  0
SPLINE
  5
532
330
1F
100
AcDbEntity
  8
외형선
  6
Continuous
 62
     1
370
    15
100
AcDbSpline
210
0.0
220
0.0
230
1.0
 70
     8
 71
     3
 72
    14
 73
    10
 74
     0
 42
0.000000001
 43
0.00000001
 40
0.0
 40
0.0
 40
0.0
 40
0.0
 40
0.0000826645311098
 40
0.0000826645311098
 40
0.0000826645311098
 40
0.0001556694826321
 40
0.0001556694826321
 40
0.0001556694826321
 40
0.0002312260243551
 40
0.0002312260243551
 40
0.0002312260243551
 40
0.0002312260243551
 10
33.09559619265379
 20
3.513887593818974
 30
0.0
 10
33.12159158465752
 20
3.492262464437475
 30
0.0
 10
33.14787489349256
 20
3.469104554216025
 30
0.0
 10
33.1739746847215
 20
3.444825635192168
 30
0.0
 10
33.19703090824506
 20
3.423377947009024
 30
0.0
 10
33.22009837443957
 20
3.400911747907693
 30
0.0
 10
33.24272366274678
 20
3.377806467569032
 30
0.0
 10
33.26610480029736
 20
3.353929302760791
 30
0.0
 10
33.28924358229634
 20
3.329132566336983
 30
0.0
 10
33.31127246162615
 20
3.304161512062282
 30
0.0
  0
SPLINE
  5
533
330
1F
100
AcDbEntity
  8
외형선
  6
Continuous
 62
     1
370
    15
100
AcDbSpline
210
0.0
220
0.0
230
1.0
 70
     8
 71
     3
 72
     8
 73
     4
 74
     0
 42
0.000000001
 43
0.00000001
 40
0.0
 40
0.0
 40
0.0
 40
0.0
 40
1.0
 40
1.0
 40
1.0
 40
1.0
 10
34.89333316246668
 20
1.896507415029939
 30
0.0
 10
35.05737311457386
 20
1.713781316366608
 30
0.0
 10
35.22540746261839
 20
1.545583653614601
 30
0.0
 10
35.39999982913334
 20
1.395149866066313
 30
0.0
  0
LINE
  5
534
330
1F
100
AcDbEntity
  8
외형선
  6
Continuous
 62
     1
370
    15
100
AcDbLine
 10
35.40000000000001
 20
1.395149932553367
 30
0.0
 11
35.40000000000001
 21
-0.9524999962498752
 31
0.0
  0
SPLINE
  5
535
330
1F
100
AcDbEntity
  8
외형선
  6
Continuous
 62
     1
370
    15
100
AcDbSpline
210
0.0
220
0.0
230
1.0
 70
    24
 71
     3
 72
     8
 73
     4
 74
     0
 42
0.000000001
 43
0.00000001
 40
0.0000003030761704
 40
0.0000003030761704
 40
0.0000003030761704
 40
0.0000003030761704
 40
0.000304191462904
 40
0.000304191462904
 40
0.000304191462904
 40
0.000304191462904
 10
35.39999982913334
 20
-0.9525000000000132
 30
0.0
 10
35.31087396308927
 20
-1.014906603253527
 30
0.0
 10
35.22150836059441
 20
-1.077481071777092
 30
0.0
 10
35.13193034475525
 20
-1.140204273725536
 30
0.0
  0
SPLINE
  5
538
330
1F
100
AcDbEntity
  8
외형선
  6
Continuous
 62
     1
370
    15
100
AcDbSpline
210
0.0
220
0.0
230
1.0
 70
     8
 71
     3
 72
    10
 73
     6
 74
     0
 42
0.000000001
 43
0.00000001
 40
0.0
 40
0.0
 40
0.0
 40
0.0
 40
0.5
 40
0.5
 40
1.0
 40
1.0
 40
1.0
 40
1.0
 10
18.53900768320837
 20
-4.098552807777294
 30
0.0
 10
18.5134203440362
 20
-3.722040226729915
 30
0.0
 10
18.48716810280273
 20
-3.303250856946609
 30
0.0
 10
18.43553585987691
 20
-2.415689693786069
 30
0.0
 10
18.41017543311229
 20
-1.947293504143188
 30
0.0
 10
18.38625319574404
 20
-1.474796720227138
 30
0.0
  0
SPLINE
  5
539
330
1F
100
AcDbEntity
  8
외형선
  6
Continuous
 62
     1
370
    15
100
AcDbSpline
210
0.0
220
0.0
230
1.0
 70
     8
 71
     3
 72
    10
 73
     6
 74
     0
 42
0.000000001
 43
0.00000001
 40
0.0
 40
0.0
 40
0.0
 40
0.0
 40
0.5
 40
0.5
 40
1.0
 40
1.0
 40
1.0
 40
1.0
 10
28.75668298888902
 20
-4.319459338366178
 30
0.0
 10
28.73157760839381
 20
-3.955782817114275
 30
0.0
 10
28.70565840818923
 20
-3.548111852919559
 30
0.0
 10
28.65431196092841
 20
-2.676731717481287
 30
0.0
 10
28.62890392903275
 20
-2.213370682059333
 30
0.0
 10
28.60475387582934
 20
-1.742333976972644
 30
0.0
  0
SPLINE
  5
53A
330
1F
100
AcDbEntity
  8
외형선
  6
Continuous
 62
     1
370
    15
100
AcDbSpline
210
0.0
220
0.0
230
1.0
 70
     8
 71
     3
 72
    10
 73
     6
 74
     0
 42
0.000000001
 43
0.00000001
 40
0.0
 40
0.0
 40
0.0
 40
0.0
 40
0.5
 40
0.5
 40
1.0
 40
1.0
 40
1.0
 40
1.0
 10
29.56199367094043
 20
-4.872153001680848
 30
0.0
 10
29.53800743675111
 20
-4.558399465789276
 30
0.0
 10
29.51269102996431
 20
-4.194936551597321
 30
0.0
 10
29.46135855978942
 20
-3.392549129471546
 30
0.0
 10
29.43536161948204
 20
-2.953894074253546
 30
0.0
 10
29.41010360023866
 20
-2.496324660418038
 30
0.0
  0
SPLINE
  5
53B
330
1F
100
AcDbEntity
  8
외형선
  6
Continuous
 62
     1
370
    15
100
AcDbSpline
210
0.0
220
0.0
230
1.0
 70
     8
 71
     3
 72
    10
 73
     6
 74
     0
 42
0.000000001
 43
0.00000001
 40
0.0
 40
0.0
 40
0.0
 40
0.0
 40
0.5
 40
0.5
 40
1.0
 40
1.0
 40
1.0
 40
1.0
 10
28.54049169253979
 20
-4.120353763444781
 30
0.0
 10
28.5149305772916
 20
-3.745465740481035
 30
0.0
 10
28.48868373052882
 20
-3.328028115247568
 30
0.0
 10
28.43701916423472
 20
-2.442392227658351
 30
0.0
 10
28.41162110605361
 20
-1.974568225598281
 30
0.0
 10
28.38764468009531
 20
-1.5022443300641
 30
0.0
  0
SPLINE
  5
53F
330
1F
100
AcDbEntity
  8
외형선
  6
Continuous
 62
     1
370
    15
100
AcDbSpline
210
0.0
220
0.0
230
1.0
 70
     8
 71
     3
 72
    18
 73
    14
 74
     0
 42
0.000000001
 43
0.00000001
 40
0.0
 40
0.0
 40
0.0
 40
0.0
 40
0.2499999999999994
 40
0.2499999999999994
 40
0.4999999999999993
 40
0.4999999999999993
 40
0.6249999999999994
 40
0.6249999999999994
 40
0.7499999999999997
 40
0.7499999999999997
 40
0.8749999999999998
 40
0.8749999999999998
 40
1.0
 40
1.0
 40
1.0
 40
1.0
 10
35.13193034475528
 20
6.004096819215116
 30
0.0
 10
35.128661058753
 20
5.686320029075185
 30
0.0
 10
35.10435887544006
 20
5.366730306244942
 30
0.0
 10
34.99653004633321
 20
4.750128418643415
 30
0.0
 10
34.91392346357603
 20
4.45148070592982
 30
0.0
 10
34.72003025924058
 20
4.03290976312846
 30
0.0
 10
34.64542101729828
 20
3.902778665820223
 30
0.0
 10
34.47271890702896
 20
3.664621832927403
 30
0.0
 10
34.37361156366463
 20
3.556377720370862
 30
0.0
 10
34.15998043933645
 20
3.377165647153008
 30
0.0
 10
34.04333439693355
 20
3.303881477064559
 30
0.0
 10
33.79631859148827
 20
3.195518615961463
 30
0.0
 10
33.66929676886393
 20
3.161492614657406
 30
0.0
 10
33.53907988288307
 20
3.145793119143471
 30
0.0
  0
SPLINE
  5
540
330
1F
100
AcDbEntity
  8
외형선
  6
Continuous
 62
     1
370
    15
100
AcDbSpline
210
0.0
220
0.0
230
1.0
 70
     8
 71
     3
 72
     8
 73
     4
 74
     0
 42
0.000000001
 43
0.00000001
 40
0.0
 40
0.0
 40
0.0
 40
0.0
 40
1.0
 40
1.0
 40
1.0
 40
1.0
 10
35.39999982913334
 20
2.254117734408483
 30
0.0
 10
34.77571630794383
 20
2.604404056304427
 30
0.0
 10
34.15538591673608
 20
2.901945966935787
 30
0.0
 10
33.53907988288303
 20
3.145793119143528
 30
0.0
  0
LINE
  5
541
330
1F
100
AcDbEntity
  8
외형선
  6
Continuous
 62
     1
370
    15
100
AcDbLine
 10
35.40000000000001
 20
1.411515598495798
 30
0.0
 11
35.40000000000001
 21
2.254117745906116
 31
0.0
  0
SPLINE
  5
542
330
1F
100
AcDbEntity
  8
외형선
  6
Continuous
 62
     1
370
    15
100
AcDbSpline
210
0.0
220
0.0
230
1.0
 70
     8
 71
     3
 72
    14
 73
    10
 74
     0
 42
0.000000001
 43
0.00000001
 40
0.0
 40
0.0
 40
0.0
 40
0.0
 40
0.0000774729706188
 40
0.0000774729706188
 40
0.0000774729706188
 40
0.0001593903547957
 40
0.0001593903547957
 40
0.0001593903547957
 40
0.0002434639071571
 40
0.0002434639071571
 40
0.0002434639071571
 40
0.0002434639071571
 10
32.07453170200515
 20
4.273371591619226
 30
0.0
 10
32.09517518600585
 20
4.266986366716766
 30
0.0
 10
32.11704313292244
 20
4.258136641646518
 30
0.0
 10
32.13955247582786
 20
4.247281920253913
 30
0.0
 10
32.16335459921658
 20
4.235803778976178
 30
0.0
 10
32.18804365037008
 20
4.222003874419785
 30
0.0
 10
32.21312083890469
 20
4.206299466366476
 30
0.0
 10
32.23885704615994
 20
4.19018235260299
 30
0.0
 10
32.26517484925481
 20
4.1719521017004
 30
0.0
 10
32.29161756537312
 20
4.151975850576095
 30
0.0
  0
SPLINE
  5
543
330
1F
100
AcDbEntity
  8
외형선
  6
Continuous
 62
     1
370
    15
100
AcDbSpline
210
0.0
220
0.0
230
1.0
 70
     8
 71
     3
 72
    10
 73
     6
 74
     0
 42
0.000000001
 43
0.00000001
 40
0.0
 40
0.0
 40
0.0
 40
0.0
 40
0.5
 40
0.5
 40
1.0
 40
1.0
 40
1.0
 40
1.0
 10
31.2074593804958
 20
4.861140471868383
 30
0.0
 10
31.34680614861479
 20
4.703974712817756
 30
0.0
 10
31.50438274607815
 20
4.581185419852128
 30
0.0
 10
31.80268638828234
 20
4.386829408299336
 30
0.0
 10
31.94792042992053
 20
4.312533655901307
 30
0.0
 10
32.07453170200503
 20
4.273371591619155
 30
0.0
  0
SPLINE
  5
544
330
1F
100
AcDbEntity
  8
외형선
  6
Continuous
 62
     1
370
    15
100
AcDbSpline
210
0.0
220
0.0
230
1.0
 70
     8
 71
     3
 72
    14
 73
    10
 74
     0
 42
0.000000001
 43
0.00000001
 40
0.0
 40
0.0
 40
0.0
 40
0.0
 40
0.0000829519334205
 40
0.0000829519334205
 40
0.0000829519334205
 40
0.0001559726307614
 40
0.0001559726307614
 40
0.0001559726307614
 40
0.0002315422402384
 40
0.0002315422402384
 40
0.0002315422402384
 40
0.0002315422402384
 10
30.99119163687177
 20
5.043187626863906
 30
0.0
 10
31.01730269875471
 20
5.027371987871087
 30
0.0
 10
31.04370640982466
 20
5.0092974719134
 30
0.0
 10
31.06992924844785
 20
4.98918337166442
 30
0.0
 10
31.09301919403793
 20
4.971472341710141
 30
0.0
 10
31.11612314688621
 20
4.952061547667521
 30
0.0
 10
31.13878742369271
 20
4.9311307072405
 30
0.0
 10
31.16220771178714
 20
4.909501677686857
 30
0.0
 10
31.18538863676422
 20
4.886033515591011
 30
0.0
 10
31.2074593804958
 20
4.861140471868383
 30
0.0
  0
SPLINE
  5
545
330
1F
100
AcDbEntity
  8
외형선
  6
Continuous
 62
     1
370
    15
100
AcDbSpline
210
0.0
220
0.0
230
1.0
 70
     8
 71
     3
 72
     8
 73
     4
 74
     0
 42
0.000000001
 43
0.00000001
 40
0.0
 40
0.0
 40
0.0
 40
0.0
 40
1.0
 40
1.0
 40
1.0
 40
1.0
 10
30.99119440149243
 20
5.043185952313353
 30
0.0
 10
30.7215687333386
 20
5.206500056692123
 30
0.0
 10
30.4514442659055
 20
5.356306255210884
 30
0.0
 10
30.18406067978735
 20
5.49092193474644
 30
0.0
  0
SPLINE
  5
546
330
1F
100
AcDbEntity
  8
외형선
  6
Continuous
 62
     1
370
    15
100
AcDbSpline
210
0.0
220
0.0
230
1.0
 70
     8
 71
     3
 72
    14
 73
    10
 74
     0
 42
0.000000001
 43
0.00000001
 40
0.0
 40
0.0
 40
0.0
 40
0.0
 40
0.00007798995804
 40
0.00007798995804
 40
0.00007798995804
 40
0.0001601744394701
 40
0.0001601744394701
 40
0.0001601744394701
 40
0.0002445009295637
 40
0.0002445009295637
 40
0.0002445009295637
 40
0.0002445009295637
 10
29.96698932684491
 20
5.539610912793416
 30
0.0
 10
29.98773567298774
 20
5.542247963834052
 30
0.0
 10
30.00971044338376
 20
5.542079015352209
 30
0.0
 10
30.0323280647552
 20
5.539439895948933
 30
0.0
 10
30.05616422859756
 20
5.536658591873541
 30
0.0
 10
30.08088346001278
 20
5.531116344934796
 30
0.0
 10
30.10599160904635
 20
5.523100938571419
 30
0.0
 10
30.1317531795648
 20
5.514876937033593
 30
0.0
 10
30.15809551333031
 20
5.503995937353318
 30
0.0
 10
30.18456690231237
 20
5.490667057907703
 30
0.0
  0
SPLINE
  5
547
330
1F
100
AcDbEntity
  8
외형선
  6
Continuous
 62
     1
370
    15
100
AcDbSpline
210
0.0
220
0.0
230
1.0
 70
     8
 71
     3
 72
    10
 73
     6
 74
     0
 42
0.000000001
 43
0.00000001
 40
0.0
 40
0.0
 40
0.0
 40
0.0
 40
0.5000000000000002
 40
0.5000000000000002
 40
1.0
 40
1.0
 40
1.0
 40
1.0
 10
29.09969991501079
 20
5.890556042836012
 30
0.0
 10
29.23898883828999
 20
5.750866357311397
 30
0.0
 10
29.39666537413185
 20
5.661042272536116
 30
0.0
 10
29.69539854160248
 20
5.548288100126323
 30
0.0
 10
29.84070040769588
 20
5.523558431871061
 30
0.0
 10
29.9669893268448
 20
5.539610912793316
 30
0.0
  0
SPLINE
  5
548
330
1F
100
AcDbEntity
  8
외형선
  6
Continuous
 62
     1
370
    15
100
AcDbSpline
210
0.0
220
0.0
230
1.0
 70
     8
 71
     3
 72
    14
 73
    10
 74
     0
 42
0.000000001
 43
0.00000001
 40
0.0
 40
0.0
 40
0.0
 40
0.0
 40
0.000082713617023
 40
0.000082713617023
 40
0.000082713617023
 40
0.0001556948031723
 40
0.0001556948031723
 40
0.0001556948031723
 40
0.0002312343010011
 40
0.0002312343010011
 40
0.0002312343010011
 40
0.0002312343010011
 10
28.88367294012246
 20
6.024918828855627
 30
0.0
 10
28.90970692740367
 20
6.016720796126913
 30
0.0
 10
28.9360363739224
 20
6.005793300254483
 30
0.0
 10
28.96218911709226
 20
5.992140608982313
 30
0.0
 10
28.98527085322501
 20
5.980091096034537
 30
0.0
 10
29.00836963192599
 20
5.965837906995256
 30
0.0
 10
29.03102973442087
 20
5.949344869489034
 30
0.0
 10
29.05444890634643
 20
5.932299347253614
 30
0.0
 10
29.07763053906054
 20
5.91268891681918
 30
0.0
 10
29.0996999150092
 20
5.890556042837654
 30
0.0
  0
SPLINE
  5
549
330
1F
100
AcDbEntity
  8
외형선
  6
Continuous
 62
     1
370
    15
100
AcDbSpline
210
0.0
220
0.0
230
1.0
 70
     8
 71
     3
 72
     8
 73
     4
 74
     0
 42
0.000000001
 43
0.00000001
 40
0.0
 40
0.0
 40
0.0
 40
0.0
 40
1.0
 40
1.0
 40
1.0
 40
1.0
 10
28.88368548457779
 20
6.02491487862659
 30
0.0
 10
28.61356708303915
 20
6.109974937148545
 30
0.0
 10
28.34521248699919
 20
6.178574557850078
 30
0.0
 10
28.07847535190964
 20
6.230380846821705
 30
0.0
  0
SPLINE
  5
54A
330
1F
100
AcDbEntity
  8
외형선
  6
Continuous
 62
     1
370
    15
100
AcDbSpline
210
0.0
220
0.0
230
1.0
 70
     8
 71
     3
 72
    14
 73
    10
 74
     0
 42
0.000000001
 43
0.00000001
 40
0.0
 40
0.0
 40
0.0
 40
0.0
 40
0.0000771835996643
 40
0.0000771835996643
 40
0.0000771835996643
 40
0.0001592426596142
 40
0.0001592426596142
 40
0.0001592426596142
 40
0.0002434711404574
 40
0.0002434711404574
 40
0.0002434711404574
 40
0.0002434711404574
 10
27.86229309162708
 20
6.200161773871722
 30
0.0
 10
27.88284569167884
 20
6.211628711507389
 30
0.0
 10
27.90461093170156
 20
6.220300523428422
 30
0.0
 10
27.92700390858791
 20
6.226337803345681
 30
0.0
 10
27.95081220691136
 20
6.232756662350505
 30
0.0
 10
27.97550095659331
 20
6.236245822505717
 30
0.0
 10
28.0005635703562
 20
6.236936217166297
 30
0.0
 10
28.02628820852063
 20
6.237644848476743
 30
0.0
 10
28.052579686107
 20
6.235412473695086
 30
0.0
 10
28.07897937361874
 20
6.230282934231321
 30
0.0
  0
SPLINE
  5
54B
330
1F
100
AcDbEntity
  8
외형선
  6
Continuous
 62
     1
370
    15
100
AcDbSpline
210
0.0
220
0.0
230
1.0
 70
     8
 71
     3
 72
    10
 73
     6
 74
     0
 42
0.000000001
 43
0.00000001
 40
0.0
 40
0.0
 40
0.0
 40
0.0
 40
0.2087032602140873
 40
0.6492540373101255
 40
1.0
 40
1.0
 40
1.0
 40
1.0
 10
27.06430036226907
 20
6.241900225480402
 30
0.0
 10
27.11999880847198
 20
6.209291769028136
 30
0.0
 10
27.29327085526258
 20
6.107850267920904
 30
0.0
 10
27.58360217681379
 20
6.090787431853814
 30
0.0
 10
27.77670055759423
 20
6.166570760049831
 30
0.0
 10
27.86229231357574
 20
6.200162072976434
 30
0.0
  0
SPLINE
  5
54C
330
1F
100
AcDbEntity
  8
외형선
  6
Continuous
 62
     1
370
    15
100
AcDbSpline
210
0.0
220
0.0
230
1.0
 70
     8
 71
     3
 72
     9
 73
     5
 74
     0
 42
0.000000001
 43
0.00000001
 40
0.0
 40
0.0
 40
0.0
 40
0.0
 40
0.8015274370360012
 40
1.0
 40
1.0
 40
1.0
 40
1.0
 10
10.15067029396692
 20
-5.476252486308423
 30
0.0
 10
10.22831872741778
 20
-5.39756999038198
 30
0.0
 10
10.32519430504992
 20
-5.299404297866962
 30
0.0
 10
10.42615628584499
 20
-5.248235398890464
 30
0.0
 10
10.44619446893531
 20
-5.238079776366552
 30
0.0
  0
SPLINE
  5
54D
330
1F
100
AcDbEntity
  8
외형선
  6
Continuous
 62
     1
370
    15
100
AcDbSpline
210
0.0
220
0.0
230
1.0
 70
     8
 71
     3
 72
    14
 73
    10
 74
     0
 42
0.000000001
 43
0.00000001
 40
0.0
 40
0.0
 40
0.0
 40
0.0
 40
0.0000837883564641
 40
0.0000837883564641
 40
0.0000837883564641
 40
0.0001569040728373
 40
0.0001569040728373
 40
0.0001569040728373
 40
0.0002325552798474
 40
0.0002325552798474
 40
0.0002325552798474
 40
0.0002325552798474
 10
9.934277178457016
 20
-5.636404123171188
 30
0.0
 10
9.960541112970894
 20
-5.624244962121052
 30
0.0
 10
9.987089141284876
 20
-5.60950390941815
 30
0.0
 10
10.01345121962193
 20
-5.59229620995252
 30
0.0
 10
10.0364627266029
 20
-5.577275577234685
 30
0.0
 10
10.05950040812836
 20
-5.560279887114033
 30
0.0
 10
10.08211522420838
 20
-5.541369024395193
 30
0.0
 10
10.10547912672668
 20
-5.521831763887006
 30
0.0
 10
10.12862025901491
 20
-5.500055519900738
 30
0.0
 10
10.15067007070936
 20
-5.47625271827823
 30
0.0
  0
SPLINE
  5
54E
330
1F
100
AcDbEntity
  8
외형선
  6
Continuous
 62
     1
370
    15
100
AcDbSpline
210
0.0
220
0.0
230
1.0
 70
     8
 71
     3
 72
     8
 73
     4
 74
     0
 42
0.000000001
 43
0.00000001
 40
0.0
 40
0.0
 40
0.0
 40
0.0
 40
0.000617378407268
 40
0.000617378407268
 40
0.000617378407268
 40
0.000617378407268
 10
9.934771038280097
 20
-5.636175467240035
 30
0.0
 10
9.934606419602794
 20
-5.636251691431253
 30
0.0
 10
9.934441799651871
 20
-5.636327910054282
 30
0.0
 10
9.93427717842814
 20
-5.636404123108774
 30
0.0
  0
SPLINE
  5
558
330
1F
100
AcDbEntity
  8
외형선
  6
Continuous
 62
     1
370
    15
100
AcDbSpline
210
0.0
220
0.0
230
1.0
 70
     8
 71
     3
 72
    10
 73
     6
 74
     0
 42
0.000000001
 43
0.00000001
 40
0.0
 40
0.0
 40
0.0
 40
0.0
 40
0.5
 40
0.5
 40
0.723786984908343
 40
0.723786984908343
 40
0.723786984908343
 40
0.723786984908343
 10
10.64123109704177
 20
-5.410361337778324
 30
0.0
 10
10.50225230830388
 20
-5.259450120437136
 30
0.0
 10
10.34499567608559
 20
-5.150514180596302
 30
0.0
 10
10.12948517515966
 20
-5.03578710514879
 30
0.0
 10
10.06368279075285
 20
-5.005764548941086
 30
0.0
 10
10.0
 20
-4.982207256145037
 30
0.0
  0
SPLINE
  5
559
330
1F
100
AcDbEntity
  8
외형선
  6
Continuous
 62
     1
370
    15
100
AcDbSpline
210
0.0
220
0.0
230
1.0
 70
     8
 71
     3
 72
    14
 73
    10
 74
     0
 42
0.000000001
 43
0.00000001
 40
0.0
 40
0.0
 40
0.0
 40
0.0
 40
0.0000826072727145
 40
0.0000826072727145
 40
0.0000826072727145
 40
0.0001555579989018
 40
0.0001555579989018
 40
0.0001555579989018
 40
0.000231069995272
 40
0.000231069995272
 40
0.000231069995272
 40
0.000231069995272
 10
10.85706484235555
 20
-5.572417234212976
 30
0.0
 10
10.8310603462649
 20
-5.559990059812362
 30
0.0
 10
10.80476363242524
 20
-5.545059560503246
 30
0.0
 10
10.77864630118625
 20
-5.527746493107911
 30
0.0
 10
10.75557591058901
 20
-5.512453229657977
 30
0.0
 10
10.73249070527398
 20
-5.49519811818652
 30
0.0
 10
10.70984676597455
 20
-5.476063449847031
 30
0.0
 10
10.68644309165247
 20
-5.456286787308015
 30
0.0
 10
10.66327966685769
 20
-5.434302951759632
 30
0.0
 10
10.64123109704152
 20
-5.410361337778069
 30
0.0
  0
SPLINE
  5
55A
330
1F
100
AcDbEntity
  8
외형선
  6
Continuous
 62
     1
370
    15
100
AcDbSpline
210
0.0
220
0.0
230
1.0
 70
     8
 71
     3
 72
     8
 73
     4
 74
     0
 42
0.000000001
 43
0.00000001
 40
0.0
 40
0.0
 40
0.0
 40
0.0
 40
1.0
 40
1.0
 40
1.0
 40
1.0
 10
11.66319152735843
 20
-5.912695092791209
 30
0.0
 10
11.39639963674036
 20
-5.815060017784274
 30
0.0
 10
11.1266152802826
 20
-5.701231495599073
 30
0.0
 10
10.85706519932684
 20
-5.572417404804382
 30
0.0
  0
SPLINE
  5
55B
330
1F
100
AcDbEntity
  8
외형선
  6
Continuous
 62
     1
370
    15
100
AcDbSpline
210
0.0
220
0.0
230
1.0
 70
     8
 71
     3
 72
    14
 73
    10
 74
     0
 42
0.000000001
 43
0.00000001
 40
0.0
 40
0.0
 40
0.0
 40
0.0
 40
0.0000778502093922
 40
0.0000778502093922
 40
0.0000778502093922
 40
0.0001601165043703
 40
0.0001601165043703
 40
0.0001601165043703
 40
0.0002445292927559
 40
0.0002445292927559
 40
0.0002445292927559
 40
0.0002445292927559
 10
11.88017933821466
 20
-5.925283508994977
 30
0.0
 10
11.85946291461382
 20
-5.932102940542334
 30
0.0
 10
11.83753454399995
 20
-5.936060838665596
 30
0.0
 10
11.81497504386927
 20
-5.937431380639081
 30
0.0
 10
11.79113382481559
 20
-5.938879790010885
 30
0.0
 10
11.76640798938626
 20
-5.937458984279813
 30
0.0
 10
11.74129185308282
 20
-5.933384617697171
 30
0.0
 10
11.7155214187596
 20
-5.929204110187667
 30
0.0
 10
11.68916846823975
 20
-5.922203475964279
 30
0.0
 10
11.66268529807453
 20
-5.91250981523727
 30
0.0
  0
SPLINE
  5
55C
330
1F
100
AcDbEntity
  8
외형선
  6
Continuous
 62
     1
370
    15
100
AcDbSpline
210
0.0
220
0.0
230
1.0
 70
     8
 71
     3
 72
    10
 73
     6
 74
     0
 42
0.000000001
 43
0.00000001
 40
0.0
 40
0.0
 40
0.0
 40
0.0
 40
0.5
 40
0.5
 40
1.0
 40
1.0
 40
1.0
 40
1.0
 10
12.74787044961197
 20
-6.152949403093173
 30
0.0
 10
12.60854052546897
 20
-6.026632752101703
 30
0.0
 10
12.4508359868046
 20
-5.955430154868692
 30
0.0
 10
12.15196131004332
 20
-5.884597766565959
 30
0.0
 10
12.00652727600191
 20
-5.883692299552022
 30
0.0
 10
11.88017933821464
 20
-5.925283508994964
 30
0.0
  0
SPLINE
  5
55D
330
1F
100
AcDbEntity
  8
외형선
  6
Continuous
 62
     1
370
    15
100
AcDbSpline
210
0.0
220
0.0
230
1.0
 70
     8
 71
     3
 72
    14
 73
    10
 74
     0
 42
0.000000001
 43
0.00000001
 40
0.0
 40
0.0
 40
0.0
 40
0.0
 40
0.0000829589553487
 40
0.0000829589553487
 40
0.0000829589553487
 40
0.0001559739390284
 40
0.0001559739390284
 40
0.0001559739390284
 40
0.0002315417310536
 40
0.0002315417310536
 40
0.0002315417310536
 40
0.0002315417310536
 10
12.96418402180594
 20
-6.260179451027993
 30
0.0
 10
12.9380769971436
 20
-6.25581582742373
 30
0.0
 10
12.9116728356233
 20
-6.248592270660366
 30
0.0
 10
12.88544494636001
 20
-6.238409813521711
 30
0.0
 10
12.8623543607106
 20
-6.229445352206467
 30
0.0
 10
12.83924608004005
 20
-6.218127410768175
 30
0.0
 10
12.81657473394462
 20
-6.204317726649534
 30
0.0
 10
12.79314600288176
 20
-6.190046700398282
 30
0.0
 10
12.76995324793753
 20
-6.172969690523614
 30
0.0
 10
12.74787044961206
 20
-6.152949403093229
 30
0.0
  0
SPLINE
  5
55E
330
1F
100
AcDbEntity
  8
외형선
  6
Continuous
 62
     1
370
    15
100
AcDbSpline
210
0.0
220
0.0
230
1.0
 70
     8
 71
     3
 72
     8
 73
     4
 74
     0
 42
0.000000001
 43
0.00000001
 40
0.0
 40
0.0
 40
0.0
 40
0.0
 40
1.0
 40
1.0
 40
1.0
 40
1.0
 10
13.77069605877746
 20
-6.344623125502663
 30
0.0
 10
13.50274977480517
 20
-6.333554463782404
 30
0.0
 10
13.23486294674259
 20
-6.305421379020612
 30
0.0
 10
12.96419215238784
 20
-6.260180809998088
 30
0.0
  0
SPLINE
  5
55F
330
1F
100
AcDbEntity
  8
외형선
  6
Continuous
 62
     1
370
    15
100
AcDbSpline
210
0.0
220
0.0
230
1.0
 70
     8
 71
     3
 72
    14
 73
    10
 74
     0
 42
0.000000001
 43
0.00000001
 40
0.0
 40
0.0
 40
0.0
 40
0.0
 40
0.0000774098258178
 40
0.0000774098258178
 40
0.0000774098258178
 40
0.0001596259778997
 40
0.0001596259778997
 40
0.0001596259778997
 40
0.0002440043001667
 40
0.0002440043001667
 40
0.0002440043001667
 40
0.0002440043001667
 10
13.98803194551865
 20
-6.278806342790217
 30
0.0
 10
13.96739671624683
 20
-6.293969562130625
 30
0.0
 10
13.94554553531386
 20
-6.306425484536347
 30
0.0
 10
13.9230661439628
 20
-6.316254819700928
 30
0.0
 10
13.8991898897087
 20
-6.326694946921164
 30
0.0
 10
13.87443412995588
 20
-6.334249233385377
 30
0.0
 10
13.84930495049567
 20
-6.338971682951849
 30
0.0
 10
13.82351546988862
 20
-6.343818220886162
 30
0.0
 10
13.79715981570248
 20
-6.345716328280387
 30
0.0
 10
13.7706949541725
 20
-6.344623079872177
 30
0.0
  0
LINE
  5
560
330
1F
100
AcDbEntity
  8
외형선
  6
Continuous
 62
     1
370
    15
100
AcDbLine
 10
14.07817617952823
 20
-6.235440572102872
 30
0.0
 11
13.98803222576776
 21
-6.278806055585546
 31
0.0
  0
LINE
  5
561
330
1F
100
AcDbEntity
  8
외형선
  6
Continuous
 62
     1
370
    15
100
AcDbLine
 10
30.41160780588784
 20
5.364695563912393
 30
0.0
 11
30.61283060312271
 21
5.47743899126848
 31
0.0
  0
SPLINE
  5
562
330
1F
100
AcDbEntity
  8
외형선
  6
Continuous
 62
     1
370
    15
100
AcDbSpline
210
0.0
220
0.0
230
1.0
 70
     8
 71
     3
 72
    14
 73
    10
 74
     0
 42
0.000000001
 43
0.00000001
 40
0.0
 40
0.0
 40
0.0
 40
0.0
 40
0.0000771426995278
 40
0.0000771426995278
 40
0.0000771426995278
 40
0.0001590107842012
 40
0.0001590107842012
 40
0.0001590107842012
 40
0.0002430455442593
 40
0.0002430455442593
 40
0.0002430455442593
 40
0.0002430455442593
 10
30.82980887976014
 20
5.52630278733225
 30
0.0
 10
30.80921972128379
 20
5.52892664271375
 30
0.0
 10
30.78741124412277
 20
5.528778194472836
 30
0.0
 10
30.76496708372104
 20
5.526183134231994
 30
0.0
 10
30.74114712206025
 20
5.523428999778412
 30
0.0
 10
30.71644055940378
 20
5.517901854897965
 30
0.0
 10
30.69135196100378
 20
5.509892457367679
 30
0.0
 10
30.66560027853042
 20
5.501671373881289
 30
0.0
 10
30.63927235459066
 20
5.490781023766809
 30
0.0
 10
30.61282816378544
 20
5.477437623078865
 30
0.0
  0
SPLINE
  5
563
330
1F
100
AcDbEntity
  8
외형선
  6
Continuous
 62
     1
370
    15
100
AcDbSpline
210
0.0
220
0.0
230
1.0
 70
     8
 71
     3
 72
    10
 73
     6
 74
     0
 42
0.000000001
 43
0.00000001
 40
0.0
 40
0.0
 40
0.0
 40
0.0
 40
0.5
 40
0.5
 40
1.0
 40
1.0
 40
1.0
 40
1.0
 10
31.69653715536062
 20
5.880281061967645
 30
0.0
 10
31.55783515310914
 20
5.740510114554619
 30
0.0
 10
31.40070914451342
 20
5.649807084898955
 30
0.0
 10
31.10210636869569
 20
5.535533119755295
 30
0.0
 10
30.95639413576199
 20
5.510170928152094
 30
0.0
 10
30.82980887976017
 20
5.526302787332236
 30
0.0
  0
SPLINE
  5
564
330
1F
100
AcDbEntity
  8
외형선
  6
Continuous
 62
     1
370
    15
100
AcDbSpline
210
0.0
220
0.0
230
1.0
 70
     8
 71
     3
 72
    14
 73
    10
 74
     0
 42
0.000000001
 43
0.00000001
 40
0.0
 40
0.0
 40
0.0
 40
0.0
 40
0.0000836560572176
 40
0.0000836560572176
 40
0.0000836560572176
 40
0.0001568075898423
 40
0.0001568075898423
 40
0.0001568075898423
 40
0.0002324909787327
 40
0.0002324909787327
 40
0.0002324909787327
 40
0.0002324909787327
 10
31.91287362493442
 20
6.016145483148928
 30
0.0
 10
31.88663429261307
 20
6.00771668294909
 30
0.0
 10
31.86010850151515
 20
5.996522286498754
 30
0.0
 10
31.83377165249461
 20
5.982572956420257
 30
0.0
 10
31.81073424050674
 20
5.970371175420476
 30
0.0
 10
31.7876920189819
 20
5.955980851376362
 30
0.0
 10
31.76508036688667
 20
5.939367529032674
 30
0.0
 10
31.74172165890555
 20
5.922205326837657
 30
0.0
 10
31.71858429605168
 20
5.902498115017439
 30
0.0
 10
31.69653715536068
 20
5.880281061967709
 30
0.0
  0
SPLINE
  5
565
330
1F
100
AcDbEntity
  8
외형선
  6
Continuous
 62
     1
370
    15
100
AcDbSpline
210
0.0
220
0.0
230
1.0
 70
     8
 71
     3
 72
     8
 73
     4
 74
     0
 42
0.000000001
 43
0.00000001
 40
0.0
 40
0.0
 40
0.0
 40
0.0
 40
1.0
 40
1.0
 40
1.0
 40
1.0
 10
32.72000154858889
 20
6.225007210547085
 30
0.0
 10
32.45003771781355
 20
6.171886955399374
 30
0.0
 10
32.17991861887102
 20
6.10192735362305
 30
0.0
 10
31.9128826440403
 20
6.016148380329122
 30
0.0
  0
SPLINE
  5
566
330
1F
100
AcDbEntity
  8
외형선
  6
Continuous
 62
     1
370
    15
100
AcDbSpline
210
0.0
220
0.0
230
1.0
 70
     8
 71
     3
 72
    14
 73
    10
 74
     0
 42
0.000000001
 43
0.00000001
 40
0.0
 40
0.0
 40
0.0
 40
0.0
 40
0.0000774249797296
 40
0.0000774249797296
 40
0.0000774249797296
 40
0.0001594224908956
 40
0.0001594224908956
 40
0.0001594224908956
 40
0.0002435782803196
 40
0.0002435782803196
 40
0.0002435782803196
 40
0.0002435782803196
 10
32.93699886970048
 20
6.195718742255766
 30
0.0
 10
32.91632943727491
 20
6.207094824046886
 30
0.0
 10
32.89443630900918
 20
6.215668176791583
 30
0.0
 10
32.87190481111647
 20
6.221601975047607
 30
0.0
 10
32.84804131041047
 20
6.227886563828443
 30
0.0
 10
32.82329135621669
 20
6.231257693934255
 30
0.0
 10
32.79815713240125
 20
6.23184472019309
 30
0.0
 10
32.77236222546243
 20
6.232447177138996
 30
0.0
 10
32.74598944753338
 20
6.23012282791524
 30
0.0
 10
32.71949656702113
 20
6.224907826784937
 30
0.0
  0
SPLINE
  5
567
330
1F
100
AcDbEntity
  8
외형선
  6
Continuous
 62
     1
370
    15
100
AcDbSpline
210
0.0
220
0.0
230
1.0
 70
     8
 71
     3
 72
    10
 73
     6
 74
     0
 42
0.000000001
 43
0.00000001
 40
0.0
 40
0.0
 40
0.0
 40
0.0
 40
0.5
 40
0.5
 40
1.0
 40
1.0
 40
1.0
 40
1.0
 10
33.80451010061207
 20
6.276759451816611
 30
0.0
 10
33.66537992227341
 20
6.169302398018859
 30
0.0
 10
33.50843331444796
 20
6.121388867098768
 30
0.0
 10
33.20977505392752
 20
6.099878010651027
 30
0.0
 10
33.06387737923122
 20
6.125887105264463
 30
0.0
 10
32.93699886970048
 20
6.195718742255758
 30
0.0
  0
SPLINE
  5
568
330
1F
100
AcDbEntity
  8
외형선
  6
Continuous
 62
     1
370
    15
100
AcDbSpline
210
0.0
220
0.0
230
1.0
 70
     8
 71
     3
 72
    14
 73
    10
 74
     0
 42
0.000000001
 43
0.00000001
 40
0.0
 40
0.0
 40
0.0
 40
0.0
 40
0.0000830745910818
 40
0.0000830745910818
 40
0.0000830745910818
 40
0.0001561500998828
 40
0.0001561500998828
 40
0.0001561500998828
 40
0.0002317647985446
 40
0.0002317647985446
 40
0.0002317647985446
 40
0.0002317647985446
 10
34.02063586919958
 20
6.349874376650975
 30
0.0
 10
33.99451965527614
 20
6.350038546068143
 30
0.0
 10
33.96811486134392
 20
6.347274348421253
 30
0.0
 10
33.94189501357851
 20
6.341376780277239
 30
0.0
 10
33.91882425496114
 20
6.336187529283189
 30
0.0
 10
33.89574289528645
 20
6.32853767768964
 30
0.0
 10
33.87310178291402
 20
6.318182443547309
 30
0.0
 10
33.8497087555557
 20
6.307483310412467
 30
0.0
 10
33.82655686353903
 20
6.29378724706701
 30
0.0
 10
33.80451010061216
 20
6.276759451816668
 30
0.0
  0
SPLINE
  5
569
330
1F
100
AcDbEntity
  8
외형선
  6
Continuous
 62
     1
370
    15
100
AcDbSpline
210
0.0
220
0.0
230
1.0
 70
     8
 71
     3
 72
     8
 73
     4
 74
     0
 42
0.000000001
 43
0.00000001
 40
0.0
 40
0.0
 40
0.0
 40
0.0
 40
1.0
 40
1.0
 40
1.0
 40
1.0
 10
34.82544535854385
 20
6.294178073575717
 30
0.0
 10
34.55743063714717
 20
6.329565321330927
 30
0.0
 10
34.28808973947618
 20
6.348193131930552
 30
0.0
 10
34.02063586990359
 20
6.349874376646534
 30
0.0
  0
SPLINE
  5
56A
330
1F
100
AcDbEntity
  8
외형선
  6
Continuous
 62
     1
370
    15
100
AcDbSpline
210
0.0
220
0.0
230
1.0
 70
     8
 71
     3
 72
     8
 73
     4
 74
     0
 42
0.000000001
 43
0.00000001
 40
0.0001619078223196
 40
0.0001619078223196
 40
0.0001619078223196
 40
0.0001619078223196
 40
0.0002430078274872
 40
0.0002430078274872
 40
0.0002430078274872
 40
0.0002430078274872
 10
34.90121784642491
 20
6.275756252538345
 30
0.0
 10
34.87635378463526
 20
6.28462375319989
 30
0.0
 10
34.85095877106787
 20
6.29080941738898
 30
0.0
 10
34.82544535789102
 20
6.294178073661935
 30
0.0
  0
SPLINE
  5
56B
330
1F
100
AcDbEntity
  8
외형선
  6
Continuous
 62
     1
370
    15
100
AcDbSpline
210
0.0
220
0.0
230
1.0
 70
     8
 71
     3
 72
     8
 73
     4
 74
     0
 42
0.000000001
 43
0.00000001
 40
0.0
 40
0.0
 40
0.0
 40
0.0
 40
1.0
 40
1.0
 40
1.0
 40
1.0
 10
35.13193034475525
 20
6.004096819215116
 30
0.0
 10
35.0554183938926
 20
6.095988325411839
 30
0.0
 10
34.97850059602833
 20
6.186528641620592
 30
0.0
 10
34.90121784642491
 20
6.275756252538338
 30
0.0
  0
SPLINE
  5
56D
330
1F
100
AcDbEntity
  8
외형선
  6
Continuous
 62
     1
370
    15
100
AcDbSpline
210
0.0
220
0.0
230
1.0
 70
     8
 71
     3
 72
    10
 73
     6
 74
     0
 42
0.000000001
 43
0.00000001
 40
0.0
 40
0.0
 40
0.0
 40
0.0
 40
0.5
 40
0.5
 40
1.0
 40
1.0
 40
1.0
 40
1.0
 10
18.75521579542461
 20
-4.298169446462238
 30
0.0
 10
18.73004762965987
 20
-3.93234443230544
 30
0.0
 10
18.70408343632714
 20
-3.522661060353995
 30
0.0
 10
18.65269367124965
 20
-2.647909028120706
 30
0.0
 10
18.62728737893331
 20
-2.183192685107028
 30
0.0
 10
18.60316174033348
 20
-1.711233936731175
 30
0.0
  0
SPLINE
  5
56E
330
1F
100
AcDbEntity
  8
외형선
  6
Continuous
 62
     1
370
    15
100
AcDbSpline
210
0.0
220
0.0
230
1.0
 70
     8
 71
     3
 72
    10
 73
     6
 74
     0
 42
0.000000001
 43
0.00000001
 40
0.0
 40
0.0
 40
0.0
 40
0.0
 40
0.4999999999999998
 40
0.4999999999999998
 40
1.0
 40
1.0
 40
1.0
 40
1.0
 10
19.56082499328254
 20
-4.856840846272595
 30
0.0
 10
19.53679386491051
 20
-4.54146476029865
 30
0.0
 10
19.51144631866369
 20
-4.176495734713227
 30
0.0
 10
19.46008704398223
 20
-3.371607322329963
 30
0.0
 10
19.4340945038838
 20
-2.931960714432327
 30
0.0
 10
19.4088580642938
 20
-2.473734934825492
 30
0.0
  0
SPLINE
  5
56F
330
1F
100
AcDbEntity
  8
외형선
  6
Continuous
 62
     1
370
    15
100
AcDbSpline
210
0.0
220
0.0
230
1.0
 70
     8
 71
     3
 72
    10
 73
     6
 74
     0
 42
0.000000001
 43
0.00000001
 40
0.0
 40
0.0
 40
0.0
 40
0.0
 40
0.5
 40
0.5
 40
1.0
 40
1.0
 40
1.0
 40
1.0
 10
32.22359237154657
 20
1.704904950335008
 30
0.0
 10
32.19739202739429
 20
2.190405414156289
 30
0.0
 10
32.1714776755495
 20
2.657248610652319
 30
0.0
 10
32.12232373411583
 20
3.517377956671377
 30
0.0
 10
32.09953531274407
 20
3.909461118725647
 30
0.0
 10
32.07453170196614
 20
4.273371592184632
 30
0.0
  0
SPLINE
  5
570
330
1F
100
AcDbEntity
  8
외형선
  6
Continuous
 62
     1
370
    15
100
AcDbSpline
210
0.0
220
0.0
230
1.0
 70
     8
 71
     3
 72
    12
 73
     8
 74
     0
 42
0.000000001
 43
0.00000001
 40
0.0
 40
0.0
 40
0.0
 40
0.0
 40
0.4999999999999998
 40
0.4999999999999998
 40
0.7499999999999999
 40
0.7499999999999999
 40
1.0
 40
1.0
 40
1.0
 40
1.0
 10
22.22209139693924
 20
1.732704050627754
 30
0.0
 10
22.19590103523267
 20
2.217516156083101
 30
0.0
 10
22.17001884498776
 20
2.683265705634662
 30
0.0
 10
22.1332283943756
 20
3.326294306051879
 30
0.0
 10
22.12153956989794
 20
3.530185479545525
 30
0.0
 10
22.09785612049241
 20
3.922908496781625
 30
0.0
 10
22.0856176953741
 20
4.112950792124403
 30
0.0
 10
22.07309362497226
 20
4.29424524530056
 30
0.0
  0
SPLINE
  5
571
330
1F
100
AcDbEntity
  8
외형선
  6
Continuous
 62
     1
370
    15
100
AcDbSpline
210
0.0
220
0.0
230
1.0
 70
     8
 71
     3
 72
    12
 73
     8
 74
     0
 42
0.000000001
 43
0.00000001
 40
0.0
 40
0.0
 40
0.0
 40
0.0
 40
0.5
 40
0.5
 40
0.75
 40
0.75
 40
1.0
 40
1.0
 40
1.0
 40
1.0
 10
12.22083976542009
 20
1.75586307590399
 30
0.0
 10
12.19465255727259
 20
2.24019677193136
 30
0.0
 10
12.16879215289818
 20
2.705122066232947
 30
0.0
 10
12.13205778404559
 20
3.346530840851794
 30
0.0
 10
12.12040874143945
 20
3.549735279129466
 30
0.0
 10
12.0966682190295
 20
3.941726247899129
 30
0.0
 10
12.08440432514881
 20
4.131318012136221
 30
0.0
 10
12.07185867448401
 20
4.312080412603602
 30
0.0
  0
SPLINE
  5
572
330
1F
100
AcDbEntity
  8
외형선
  6
Continuous
 62
     1
370
    15
100
AcDbSpline
210
0.0
220
0.0
230
1.0
 70
     8
 71
     3
 72
    12
 73
     8
 74
     0
 42
0.000000001
 43
0.00000001
 40
0.0
 40
0.0
 40
0.0
 40
0.0
 40
0.2499999999999999
 40
0.2499999999999999
 40
0.4999999999999998
 40
0.4999999999999998
 40
1.0
 40
1.0
 40
1.0
 40
1.0
 10
31.35606150153642
 20
2.514161407763555
 30
0.0
 10
31.34328128053248
 20
2.743570739515592
 30
0.0
 10
31.33072694634753
 20
2.965611633117939
 30
0.0
 10
31.30631310930081
 20
3.390955974255216
 30
0.0
 10
31.29473012149724
 20
3.59280598150447
 30
0.0
 10
31.25891989812489
 20
4.178502456957291
 30
0.0
 10
31.23347931493656
 20
4.542342606658255
 30
0.0
 10
31.20745938049659
 20
4.861140471858848
 30
0.0
  0
SPLINE
  5
573
330
1F
100
AcDbEntity
  8
외형선
  6
Continuous
 62
     1
370
    15
100
AcDbSpline
210
0.0
220
0.0
230
1.0
 70
     8
 71
     3
 72
    12
 73
     8
 74
     0
 42
0.000000001
 43
0.00000001
 40
0.0
 40
0.0
 40
0.0
 40
0.0
 40
0.2499999999999999
 40
0.2499999999999999
 40
0.4999999999999998
 40
0.4999999999999998
 40
1.0
 40
1.0
 40
1.0
 40
1.0
 10
21.35483323774851
 20
2.536198985592209
 30
0.0
 10
21.34206732419417
 20
2.765139872175511
 30
0.0
 10
21.32953150355737
 20
2.986640533590121
 30
0.0
 10
21.30516184864401
 20
3.410791583313178
 30
0.0
 10
21.29360472901074
 20
3.612000099804805
 30
0.0
 10
21.25772010321184
 20
4.196430969332967
 30
0.0
 10
21.23224332710713
 20
4.559100017039272
 30
0.0
 10
21.20620537869617
 20
4.876464746398009
 30
0.0
  0
SPLINE
  5
574
330
1F
100
AcDbEntity
  8
외형선
  6
Continuous
 62
     1
370
    15
100
AcDbSpline
210
0.0
220
0.0
230
1.0
 70
     8
 71
     3
 72
    12
 73
     8
 74
     0
 42
0.000000001
 43
0.00000001
 40
0.0
 40
0.0
 40
0.0
 40
0.0
 40
0.2500000000000001
 40
0.2500000000000001
 40
0.5000000000000001
 40
0.5000000000000001
 40
1.0
 40
1.0
 40
1.0
 40
1.0
 10
11.35336089249929
 20
2.562589019457429
 30
0.0
 10
11.34061460888508
 20
2.790923939042985
 30
0.0
 10
11.32810336655611
 20
3.011735548292181
 30
0.0
 10
11.3037911211044
 20
3.434381380224758
 30
0.0
 10
11.29226024605372
 20
3.634825159920732
 30
0.0
 10
11.25629384198432
 20
4.217633892313417
 30
0.0
 10
11.230779155833
 20
4.578841510113458
 30
0.0
 10
11.20472498623987
 20
4.89445314125972
 30
0.0
  0
SPLINE
  5
576
330
1F
100
AcDbEntity
  8
외형선
  6
Continuous
 62
     1
370
    15
100
AcDbSpline
210
0.0
220
0.0
230
1.0
 70
     8
 71
     3
 72
    10
 73
     6
 74
     0
 42
0.000000001
 43
0.00000001
 40
0.0
 40
0.0
 40
0.0
 40
0.0
 40
0.5
 40
0.5
 40
1.0
 40
1.0
 40
1.0
 40
1.0
 10
19.77768984855415
 20
-4.943875158935034
 30
0.0
 10
19.75387148544091
 20
-4.644557286040274
 30
0.0
 10
19.72858032191282
 20
-4.294196227345017
 30
0.0
 10
19.67699900539028
 20
-3.513406496596017
 30
0.0
 10
19.65072827579109
 20
-3.083228837898635
 30
0.0
 10
19.62508086396266
 20
-2.631510551807593
 30
0.0
  0
SPLINE
  5
577
330
1F
100
AcDbEntity
  8
외형선
  6
Continuous
 62
     1
370
    15
100
AcDbSpline
210
0.0
220
0.0
230
1.0
 70
     8
 71
     3
 72
    10
 73
     6
 74
     0
 42
0.000000001
 43
0.00000001
 40
0.0
 40
0.0
 40
0.0
 40
0.0
 40
0.4999999999999998
 40
0.4999999999999998
 40
1.0
 40
1.0
 40
1.0
 40
1.0
 10
29.77890672236804
 20
-4.959139270655042
 30
0.0
 10
29.75512816501116
 20
-4.661415049351339
 30
0.0
 10
29.72986137555605
 20
-4.312494234346657
 30
0.0
 10
29.67829124707571
 20
-3.534007407966121
 30
0.0
 10
29.65200728499012
 20
-3.104689205073858
 30
0.0
 10
29.62632946817603
 20
-2.653476434596965
 30
0.0
  0
SPLINE
  5
578
330
1F
100
AcDbEntity
  8
외형선
  6
Continuous
 62
     1
370
    15
100
AcDbSpline
210
0.0
220
0.0
230
1.0
 70
     8
 71
     3
 72
    12
 73
     8
 74
     0
 42
0.000000001
 43
0.00000001
 40
0.0
 40
0.0
 40
0.0
 40
0.0
 40
0.2500000000000002
 40
0.2500000000000002
 40
0.5000000000000004
 40
0.5000000000000004
 40
1.0
 40
1.0
 40
1.0
 40
1.0
 10
31.13883326844679
 20
2.749334634118477
 30
0.0
 10
31.12630106502776
 20
2.974863775419011
 30
0.0
 10
31.11402907761398
 20
3.192412853965068
 30
0.0
 10
31.09023080987341
 20
3.607891575292514
 30
0.0
 10
31.078795814973
 20
3.80547814933931
 30
0.0
 10
31.04264885938104
 20
4.381186351751682
 30
0.0
 10
31.01712996330902
 20
4.735645340680437
 30
0.0
 10
30.99119184805891
 20
5.043185122879928
 30
0.0
  0
SPLINE
  5
579
330
1F
100
AcDbEntity
  8
외형선
  6
Continuous
 62
     1
370
    15
100
AcDbSpline
210
0.0
220
0.0
230
1.0
 70
     8
 71
     3
 72
    12
 73
     8
 74
     0
 42
0.000000001
 43
0.00000001
 40
0.0
 40
0.0
 40
0.0
 40
0.0
 40
0.2499999999999997
 40
0.2499999999999997
 40
0.4999999999999994
 40
0.4999999999999994
 40
1.0
 40
1.0
 40
1.0
 40
1.0
 10
30.33414900491689
 20
3.447875369768072
 30
0.0
 10
30.32235777499115
 20
3.653228637234522
 30
0.0
 10
30.31092049514261
 20
3.849039603010867
 30
0.0
 10
30.28682490109377
 20
4.229093825199508
 30
0.0
 10
30.27443672552322
 20
4.411742552604482
 30
0.0
 10
30.23660127634425
 20
4.930675698240877
 30
0.0
 10
30.21047822249604
 20
5.237451416162771
 30
0.0
 10
30.18453955793398
 20
5.490934296793549
 30
0.0
  0
SPLINE
  5
57A
330
1F
100
AcDbEntity
  8
외형선
  6
Continuous
 62
     1
370
    15
100
AcDbSpline
210
0.0
220
0.0
230
1.0
 70
     8
 71
     3
 72
    12
 73
     8
 74
     0
 42
0.000000001
 43
0.00000001
 40
0.0
 40
0.0
 40
0.0
 40
0.0
 40
0.2500000000000001
 40
0.2500000000000001
 40
0.5000000000000001
 40
0.5000000000000001
 40
1.0
 40
1.0
 40
1.0
 40
1.0
 10
21.13756782500549
 20
2.772096333168613
 30
0.0
 10
21.12505230075242
 20
2.997104035806859
 30
0.0
 10
21.11280116348566
 20
3.214060820507286
 30
0.0
 10
21.08905156224263
 20
3.62824623674655
 30
0.0
 10
21.07759642646757
 20
3.825404341327898
 30
0.0
 10
21.04137639665753
 20
4.399673352769002
 30
0.0
 10
21.01582336651852
 20
4.752833005422604
 30
0.0
 10
20.98987016394104
 20
5.058811585762458
 30
0.0
  0
SPLINE
  5
57B
330
1F
100
AcDbEntity
  8
외형선
  6
Continuous
 62
     1
370
    15
100
AcDbSpline
210
0.0
220
0.0
230
1.0
 70
     8
 71
     3
 72
    12
 73
     8
 74
     0
 42
0.000000001
 43
0.00000001
 40
0.0
 40
0.0
 40
0.0
 40
0.0
 40
0.2499999999999999
 40
0.2499999999999999
 40
0.4999999999999998
 40
0.4999999999999998
 40
1.0
 40
1.0
 40
1.0
 40
1.0
 10
20.33265887614489
 20
3.473809702773226
 30
0.0
 10
20.3209146524295
 20
3.67806985156817
 30
0.0
 10
20.30945272123886
 20
3.873165587338251
 30
0.0
 10
20.28533317950225
 20
4.251519703976159
 30
0.0
 10
20.27293830098207
 20
4.433239667447426
 30
0.0
 10
20.23509945777609
 20
4.949203720813886
 30
0.0
 10
20.20899683138378
 20
5.253753865527331
 30
0.0
 10
20.18309899071499
 20
5.504959863867699
 30
0.0
  0
SPLINE
  5
57C
330
1F
100
AcDbEntity
  8
외형선
  6
Continuous
 62
     1
370
    15
100
AcDbSpline
210
0.0
220
0.0
230
1.0
 70
     8
 71
     3
 72
    12
 73
     8
 74
     0
 42
0.000000001
 43
0.00000001
 40
0.0
 40
0.0
 40
0.0
 40
0.0
 40
0.25
 40
0.25
 40
0.5000000000000002
 40
0.5000000000000002
 40
1.0
 40
1.0
 40
1.0
 40
1.0
 10
11.13616003043946
 20
2.797392190161511
 30
0.0
 10
11.1236677881394
 20
3.021734868663744
 30
0.0
 10
11.11144436765945
 20
3.2379539906689
 30
0.0
 10
11.08775729454583
 20
3.650559389496814
 30
0.0
 10
11.07627772040725
 20
3.847208392904585
 30
0.0
 10
11.03999125826791
 20
4.419684994764319
 30
0.0
 10
11.01441099302692
 20
4.771299890585455
 30
0.0
 10
10.98845131501516
 20
5.075488267778733
 30
0.0
  0
SPLINE
  5
57D
330
1F
100
AcDbEntity
  8
외형선
  6
Continuous
 62
     1
370
    15
100
AcDbSpline
210
0.0
220
0.0
230
1.0
 70
     8
 71
     3
 72
    12
 73
     8
 74
     0
 42
0.000000001
 43
0.00000001
 40
0.0
 40
0.0
 40
0.0
 40
0.0
 40
0.2499999999999999
 40
0.2499999999999999
 40
0.4999999999999998
 40
0.4999999999999998
 40
1.0
 40
1.0
 40
1.0
 40
1.0
 10
10.33141152330093
 20
3.495491899652408
 30
0.0
 10
10.31969895328506
 20
3.698971218906062
 30
0.0
 10
10.30820203695616
 20
3.893626485568335
 30
0.0
 10
10.28404567040657
 20
4.270781055094973
 30
0.0
 10
10.27163643241007
 20
4.451823808562439
 30
0.0
 10
10.2337681673639
 20
4.965555945798522
 30
0.0
 10
10.20766448141423
 20
5.268347482141354
 30
0.0
 10
10.18178441896182
 20
5.517667540660627
 30
0.0
  0
SPLINE
  5
57E
330
1F
100
AcDbEntity
  8
외형선
  6
Continuous
 62
     1
370
    15
100
AcDbSpline
210
0.0
220
0.0
230
1.0
 70
     8
 71
     3
 72
    12
 73
     8
 74
     0
 42
0.000000001
 43
0.00000001
 40
0.0
 40
0.0
 40
0.0
 40
0.0
 40
0.25
 40
0.25
 40
0.5
 40
0.5
 40
1.0
 40
1.0
 40
1.0
 40
1.0
 10
10.64123109704174
 20
-5.410361337777841
 30
0.0
 10
10.62907526036874
 20
-5.285686501436598
 30
0.0
 10
10.61754101868498
 20
-5.150898785275464
 30
0.0
 10
10.59373656848145
 20
-4.856081055661361
 30
0.0
 10
10.58145096642697
 20
-4.695747641241438
 30
0.0
 10
10.54378234699495
 20
-4.179108492599644
 30
0.0
 10
10.51757910631064
 20
-3.786679168620748
 30
0.0
 10
10.49137644875767
 20
-3.361243480529366
 30
0.0
  0
SPLINE
  5
57F
330
1F
100
AcDbEntity
  8
외형선
  6
Continuous
 62
     1
370
    15
100
AcDbSpline
210
0.0
220
0.0
230
1.0
 70
     8
 71
     3
 72
    12
 73
     8
 74
     0
 42
0.000000001
 43
0.00000001
 40
0.0
 40
0.0
 40
0.0
 40
0.0
 40
0.2499999999999998
 40
0.2499999999999998
 40
0.4999999999999996
 40
0.4999999999999996
 40
1.0
 40
1.0
 40
1.0
 40
1.0
 10
20.64244225867053
 20
-5.422734547330731
 30
0.0
 10
20.63025979751236
 20
-5.29877014484782
 30
0.0
 10
20.6186918033102
 20
-5.164589605064348
 30
0.0
 10
20.59493017262181
 20
-4.871372681766188
 30
0.0
 10
20.58266240212736
 20
-4.711807264953334
 30
0.0
 10
20.54503471519142
 20
-4.197318939659196
 30
0.0
 10
20.51884167880111
 20
-3.806114444591818
 30
0.0
 10
20.49263063230577
 20
-3.381581983523282
 30
0.0
  0
SPLINE
  5
580
330
1F
100
AcDbEntity
  8
외형선
  6
Continuous
 62
     1
370
    15
100
AcDbSpline
210
0.0
220
0.0
230
1.0
 70
     8
 71
     3
 72
    12
 73
     8
 74
     0
 42
0.000000001
 43
0.00000001
 40
0.0
 40
0.0
 40
0.0
 40
0.0
 40
0.2500000000000001
 40
0.2500000000000001
 40
0.5000000000000001
 40
0.5000000000000001
 40
1.0
 40
1.0
 40
1.0
 40
1.0
 10
30.64384518748547
 20
-5.436944874179245
 30
0.0
 10
30.63163621730591
 20
-5.313847830592371
 30
0.0
 10
30.62002621153481
 20
-5.18039623998959
 30
0.0
 10
30.5963229052416
 20
-4.889147047879836
 30
0.0
 10
30.58408041231126
 20
-4.730537094543186
 30
0.0
 10
30.54651440320363
 20
-4.218761224983082
 30
0.0
 10
30.52034322815765
 20
-3.829154791256447
 30
0.0
 10
30.49413179770766
 20
-3.405860282046886
 30
0.0
  0
SPLINE
  5
581
330
1F
100
AcDbEntity
  8
외형선
  6
Continuous
 62
     1
370
    15
100
AcDbSpline
210
0.0
220
0.0
230
1.0
 70
     8
 71
     3
 72
    10
 73
     6
 74
     0
 42
0.000000001
 43
0.00000001
 40
0.0
 40
0.0
 40
0.0
 40
0.0
 40
0.5
 40
0.5
 40
1.0
 40
1.0
 40
1.0
 40
1.0
 10
10.85706486731163
 20
-5.572417476399975
 30
0.0
 10
10.83254500309694
 20
-5.334463764820041
 30
0.0
 10
10.81001003832659
 20
-5.05342075411547
 30
0.0
 10
10.76074432462777
 20
-4.388646581948583
 30
0.0
 10
10.73489511985612
 20
-4.006844217033878
 30
0.0
 10
10.70887567100342
 20
-3.589343955108871
 30
0.0
  0
SPLINE
  5
582
330
1F
100
AcDbEntity
  8
외형선
  6
Continuous
 62
     1
370
    15
100
AcDbSpline
210
0.0
220
0.0
230
1.0
 70
     8
 71
     3
 72
    10
 73
     6
 74
     0
 42
0.000000001
 43
0.00000001
 40
0.0
 40
0.0
 40
0.0
 40
0.0
 40
0.5
 40
0.5
 40
1.0
 40
1.0
 40
1.0
 40
1.0
 10
20.85836640766356
 20
-5.584992842725311
 30
0.0
 10
20.83378912561948
 20
-5.348575523752826
 30
0.0
 10
20.81124628279862
 20
-5.068960154277751
 30
0.0
 10
20.76203538017812
 20
-4.407152525482087
 30
0.0
 10
20.73619605556342
 20
-4.026614721215408
 30
0.0
 10
20.71016742210755
 20
-3.610044277773552
 30
0.0
  0
SPLINE
  5
583
330
1F
100
AcDbEntity
  8
외형선
  6
Continuous
 62
     1
370
    15
100
AcDbSpline
210
0.0
220
0.0
230
1.0
 70
     8
 71
     3
 72
    10
 73
     6
 74
     0
 42
0.000000001
 43
0.00000001
 40
0.0
 40
0.0
 40
0.0
 40
0.0
 40
0.5
 40
0.5
 40
1.0
 40
1.0
 40
1.0
 40
1.0
 10
30.11844219298464
 20
3.579223444717465
 30
0.0
 10
30.09518587730328
 20
3.976080683961657
 30
0.0
 10
30.07048959961417
 20
4.348912306124371
 30
0.0
 10
30.01931427107651
 20
5.013264056990552
 30
0.0
 10
29.99297284398999
 20
5.303778467118507
 30
0.0
 10
29.96698933479594
 20
5.539610840626986
 30
0.0
  0
SPLINE
  5
584
330
1F
100
AcDbEntity
  8
외형선
  6
Continuous
 62
     1
370
    15
100
AcDbSpline
210
0.0
220
0.0
230
1.0
 70
     8
 71
     3
 72
    10
 73
     6
 74
     0
 42
0.000000001
 43
0.00000001
 40
0.0
 40
0.0
 40
0.0
 40
0.0
 40
0.5
 40
0.5
 40
1.0
 40
1.0
 40
1.0
 40
1.0
 10
30.85968488784865
 20
-5.597619037498729
 30
0.0
 10
30.83507738426924
 20
-5.363026908542222
 30
0.0
 10
30.81254539357513
 20
-5.085200559407623
 30
0.0
 10
30.76345105690139
 20
-4.427355477703542
 30
0.0
 10
30.73765412446428
 20
-4.048682007945784
 30
0.0
 10
30.71164655929447
 20
-3.633681794358194
 30
0.0
  0
SPLINE
  5
585
330
1F
100
AcDbEntity
  8
외형선
  6
Continuous
 62
     1
370
    15
100
AcDbSpline
210
0.0
220
0.0
230
1.0
 70
     8
 71
     3
 72
    10
 73
     6
 74
     0
 42
0.000000001
 43
0.00000001
 40
0.0
 40
0.0
 40
0.0
 40
0.0
 40
0.4999999999999998
 40
0.4999999999999998
 40
1.0
 40
1.0
 40
1.0
 40
1.0
 10
11.66270758697239
 20
-5.912669771902513
 30
0.0
 10
11.63706744398316
 20
-5.728680055885588
 30
0.0
 10
11.61216765286581
 20
-5.489853756309854
 30
0.0
 10
11.56569053810985
 20
-4.931484858646682
 30
0.0
 10
11.54091565263146
 20
-4.59945917016759
 30
0.0
 10
11.51530704509962
 20
-4.22282847042578
 30
0.0
  0
SPLINE
  5
586
330
1F
100
AcDbEntity
  8
외형선
  6
Continuous
 62
     1
370
    15
100
AcDbSpline
210
0.0
220
0.0
230
1.0
 70
     8
 71
     3
 72
    10
 73
     6
 74
     0
 42
0.000000001
 43
0.00000001
 40
0.0
 40
0.0
 40
0.0
 40
0.0
 40
0.5
 40
0.5
 40
1.0
 40
1.0
 40
1.0
 40
1.0
 10
20.11710872687063
 20
3.601964039073219
 30
0.0
 10
20.09392968282716
 20
3.996974366355476
 30
0.0
 10
20.06908521829
 20
4.368957066384612
 30
0.0
 10
20.01789414979807
 20
5.029783714765729
 30
0.0
 10
19.99156581607149
 20
5.318288806658133
 30
0.0
 10
19.96561484046028
 20
5.552038750711867
 30
0.0
  0
SPLINE
  5
587
330
1F
100
AcDbEntity
  8
외형선
  6
Continuous
 62
     1
370
    15
100
AcDbSpline
210
0.0
220
0.0
230
1.0
 70
     8
 71
     3
 72
    10
 73
     6
 74
     0
 42
0.000000001
 43
0.00000001
 40
0.0
 40
0.0
 40
0.0
 40
0.0
 40
0.5
 40
0.5
 40
1.0
 40
1.0
 40
1.0
 40
1.0
 10
10.11589006145802
 20
3.622685515528596
 30
0.0
 10
10.09264922346056
 20
4.016970920852524
 30
0.0
 10
10.06775547540353
 20
4.387869706129836
 30
0.0
 10
10.01650325185036
 20
5.045896593106201
 30
0.0
 10
9.990163197352096
 20
5.332687717386792
 30
0.0
 10
9.964220885115246
 20
5.564545897412211
 30
0.0
  0
SPLINE
  5
588
330
1F
100
AcDbEntity
  8
외형선
  6
Continuous
 62
     1
370
    15
100
AcDbSpline
210
0.0
220
0.0
230
1.0
 70
     8
 71
     3
 72
    10
 73
     6
 74
     0
 42
0.000000001
 43
0.00000001
 40
0.0
 40
0.0
 40
0.0
 40
0.0
 40
0.5000000000000001
 40
0.5000000000000001
 40
1.0
 40
1.0
 40
1.0
 40
1.0
 10
21.66411616665359
 20
-5.92271779296277
 30
0.0
 10
21.63846072877486
 20
-5.740793389634375
 30
0.0
 10
21.61352526191017
 20
-5.50387242035586
 30
0.0
 10
21.56694557774207
 20
-4.948729025487408
 30
0.0
 10
21.54234491603139
 20
-4.619194373052933
 30
0.0
 10
21.51677542931011
 20
-4.244388417477714
 30
0.0
  0
SPLINE
  5
589
330
1F
100
AcDbEntity
  8
외형선
  6
Continuous
 62
     1
370
    15
100
AcDbSpline
210
0.0
220
0.0
230
1.0
 70
     8
 71
     3
 72
    10
 73
     6
 74
     0
 42
0.000000001
 43
0.00000001
 40
0.0
 40
0.0
 40
0.0
 40
0.0
 40
0.5
 40
0.5
 40
1.0
 40
1.0
 40
1.0
 40
1.0
 10
31.66544594618735
 20
-5.932094217967117
 30
0.0
 10
31.63975541428922
 20
-5.751973184747439
 30
0.0
 10
31.61476680936433
 20
-5.516615143213655
 30
0.0
 10
31.56805797108929
 20
-4.963939851322023
 30
0.0
 10
31.54358715796439
 20
-4.636306901847034
 30
0.0
 10
31.51803144419428
 20
-4.262773202575117
 30
0.0
  0
SPLINE
  5
58A
330
1F
100
AcDbEntity
  8
외형선
  6
Continuous
 62
     1
370
    15
100
AcDbSpline
210
0.0
220
0.0
230
1.0
 70
     8
 71
     3
 72
    10
 73
     6
 74
     0
 42
0.000000001
 43
0.00000001
 40
0.0
 40
0.0
 40
0.0
 40
0.0
 40
0.4999999999999998
 40
0.4999999999999998
 40
1.0
 40
1.0
 40
1.0
 40
1.0
 10
29.2531020547845
 20
4.247949725466656
 30
0.0
 10
29.22845979629908
 20
4.608956121794792
 30
0.0
 10
29.20265294324422
 20
4.936202259809059
 30
0.0
 10
29.15079399098444
 20
5.49177937118443
 30
0.0
 10
29.12476214669848
 20
5.719877931150167
 30
0.0
 10
29.09969991501116
 20
5.890556042835707
 30
0.0
  0
SPLINE
  5
58B
330
1F
100
AcDbEntity
  8
외형선
  6
Continuous
 62
     1
370
    15
100
AcDbSpline
210
0.0
220
0.0
230
1.0
 70
     8
 71
     3
 72
    10
 73
     6
 74
     0
 42
0.000000001
 43
0.00000001
 40
0.0
 40
0.0
 40
0.0
 40
0.0
 40
0.5
 40
0.5
 40
1.0
 40
1.0
 40
1.0
 40
1.0
 10
19.25184986886011
 20
4.266251025464962
 30
0.0
 10
19.22715937408934
 20
4.626265793907672
 30
0.0
 10
19.20131946485084
 20
4.952178890510198
 30
0.0
 10
19.14943324461685
 20
5.504576463608453
 30
0.0
 10
19.12340724649623
 20
5.730831916149556
 30
0.0
 10
19.09836941649606
 20
5.899569853661797
 30
0.0
  0
SPLINE
  5
58D
330
1F
100
AcDbEntity
  8
외형선
  6
Continuous
 62
     1
370
    15
100
AcDbSpline
210
0.0
220
0.0
230
1.0
 70
     8
 71
     3
 72
    12
 73
     8
 74
     0
 42
0.000000001
 43
0.00000001
 40
0.0
 40
0.0
 40
0.0
 40
0.0
 40
0.4999999999999998
 40
0.4999999999999998
 40
0.7499999999999999
 40
0.7499999999999999
 40
1.0
 40
1.0
 40
1.0
 40
1.0
 10
11.88017935548625
 20
-5.925283619621579
 30
0.0
 10
11.85415368084678
 20
-5.758586233380766
 30
0.0
 10
11.82871207778893
 20
-5.53522736958257
 30
0.0
 10
11.79290733771585
 20
-5.135693336633343
 30
0.0
 10
11.7813123072648
 20
-4.991921651473289
 30
0.0
 10
11.75687716996284
 20
-4.677045376223289
 30
0.0
 10
11.74431288729615
 20
-4.506902093434303
 30
0.0
 10
11.73152373283798
 20
-4.325334558351669
 30
0.0
  0
SPLINE
  5
58E
330
1F
100
AcDbEntity
  8
외형선
  6
Continuous
 62
     1
370
    15
100
AcDbSpline
210
0.0
220
0.0
230
1.0
 70
     8
 71
     3
 72
    12
 73
     8
 74
     0
 42
0.000000001
 43
0.00000001
 40
0.0
 40
0.0
 40
0.0
 40
0.0
 40
0.4999999999999998
 40
0.4999999999999998
 40
0.7499999999999999
 40
0.7499999999999999
 40
1.0
 40
1.0
 40
1.0
 40
1.0
 10
21.881515201186
 20
-5.933787521022081
 30
0.0
 10
21.85548441258202
 20
-5.769096767023354
 30
0.0
 10
21.83001767722526
 20
-5.54763427617314
 30
0.0
 10
21.79415055827044
 20
-5.150563421403708
 30
0.0
 10
21.78259153867593
 20
-5.007787840578755
 30
0.0
 10
21.75821896370521
 20
-4.694891210449866
 30
0.0
 10
21.74568234418512
 20
-4.525716514137455
 30
0.0
 10
21.73291633038317
 20
-4.345072800539866
 30
0.0
  0
SPLINE
  5
58F
330
1F
100
AcDbEntity
  8
외형선
  6
Continuous
 62
     1
370
    15
100
AcDbSpline
210
0.0
220
0.0
230
1.0
 70
     8
 71
     3
 72
    12
 73
     8
 74
     0
 42
0.000000001
 43
0.00000001
 40
0.0
 40
0.0
 40
0.0
 40
0.0
 40
0.5
 40
0.5
 40
0.75
 40
0.75
 40
1.0
 40
1.0
 40
1.0
 40
1.0
 10
31.88293428124446
 20
-5.942706730324771
 30
0.0
 10
31.85687323085888
 20
-5.779990311024845
 30
0.0
 10
31.83135609347919
 20
-5.560275643822136
 30
0.0
 10
31.79539286408404
 20
-5.165319811503492
 30
0.0
 10
31.78385285868935
 20
-5.023375656786596
 30
0.0
 10
31.75951923342557
 20
-4.712128768932898
 30
0.0
 10
31.74699791515942
 20
-4.543734949955249
 30
0.0
 10
31.73424248405745
 20
-4.363808847449546
 30
0.0
  0
SPLINE
  5
590
330
1F
100
AcDbEntity
  8
외형선
  6
Continuous
 62
     1
370
    15
100
AcDbSpline
210
0.0
220
0.0
230
1.0
 70
     8
 71
     3
 72
    10
 73
     6
 74
     0
 42
0.000000001
 43
0.00000001
 40
0.0
 40
0.0
 40
0.0
 40
0.0
 40
0.5000000000000001
 40
0.5000000000000001
 40
1.0
 40
1.0
 40
1.0
 40
1.0
 10
29.03598059695019
 20
4.460367091959577
 30
0.0
 10
29.01120254972434
 20
4.812066316194632
 30
0.0
 10
28.98542340328369
 20
5.12737849722769
 30
0.0
 10
28.93394521224231
 20
5.656055478933391
 30
0.0
 10
28.90826571047855
 20
5.869226330703897
 30
0.0
 10
28.88367384835773
 20
6.024913079003989
 30
0.0
  0
SPLINE
  5
591
330
1F
100
AcDbEntity
  8
외형선
  6
Continuous
 62
     1
370
    15
100
AcDbSpline
210
0.0
220
0.0
230
1.0
 70
     8
 71
     3
 72
    10
 73
     6
 74
     0
 42
0.000000001
 43
0.00000001
 40
0.0
 40
0.0
 40
0.0
 40
0.0
 40
0.5
 40
0.5
 40
1.0
 40
1.0
 40
1.0
 40
1.0
 10
19.03461719633872
 20
4.47966886912427
 30
0.0
 10
19.00979708996981
 20
4.83013421316271
 30
0.0
 10
18.98399321890411
 20
5.143868729775535
 30
0.0
 10
18.93250659235158
 20
5.668924340129545
 30
0.0
 10
18.90684339235562
 20
5.880055551098794
 30
0.0
 10
18.88228612162418
 20
6.033645504878828
 30
0.0
  0
SPLINE
  5
593
330
1F
100
AcDbEntity
  8
외형선
  6
Continuous
 62
     1
370
    15
100
AcDbSpline
210
0.0
220
0.0
230
1.0
 70
     8
 71
     3
 72
    10
 73
     6
 74
     0
 42
0.000000001
 43
0.00000001
 40
0.0
 40
0.0
 40
0.0
 40
0.0
 40
0.5000000000000001
 40
0.5000000000000001
 40
1.0
 40
1.0
 40
1.0
 40
1.0
 10
28.22983081800867
 20
4.996762211993273
 30
0.0
 10
28.20415338881721
 20
5.306279865207026
 30
0.0
 10
28.17802816794488
 20
5.570128274983093
 30
0.0
 10
28.12705325665907
 20
5.985290373428564
 30
0.0
 10
28.10222162851558
 20
6.136545658242648
 30
0.0
 10
28.07896256216045
 20
6.230350744542954
 30
0.0
  0
SPLINE
  5
594
330
1F
100
AcDbEntity
  8
외형선
  6
Continuous
 62
     1
370
    15
100
AcDbSpline
210
0.0
220
0.0
230
1.0
 70
     8
 71
     3
 72
    10
 73
     6
 74
     0
 42
0.000000001
 43
0.00000001
 40
0.0
 40
0.0
 40
0.0
 40
0.0
 40
0.5
 40
0.5
 40
1.0
 40
1.0
 40
1.0
 40
1.0
 10
18.22842105998406
 20
5.013704959928967
 30
0.0
 10
18.20273278211746
 20
5.321510424370844
 30
0.0
 10
18.17661691488651
 20
5.58339402969373
 30
0.0
 10
18.12569874056426
 20
5.994451357970719
 30
0.0
 10
18.1009143595539
 20
6.143571602792372
 30
0.0
 10
18.07771553241738
 20
6.235331689015576
 30
0.0
  0
SPLINE
  5
596
330
1F
100
AcDbEntity
  8
외형선
  6
Continuous
 62
     1
370
    15
100
AcDbSpline
210
0.0
220
0.0
230
1.0
 70
     8
 71
     3
 72
    12
 73
     8
 74
     0
 42
0.000000001
 43
0.00000001
 40
0.0
 40
0.0
 40
0.0
 40
0.0
 40
0.4999999999999998
 40
0.4999999999999998
 40
0.7499999999999999
 40
0.7499999999999999
 40
1.0
 40
1.0
 40
1.0
 40
1.0
 10
12.74787044961081
 20
-6.152949403088682
 30
0.0
 10
12.7216952258229
 20
-6.052664489388006
 30
0.0
 10
12.69544587117135
 20
-5.892197336367685
 30
0.0
 10
12.65760763921496
 20
-5.574484392658091
 30
0.0
 10
12.64524908798497
 20
-5.45589673559496
 30
0.0
 10
12.6212708516194
 20
-5.197036467249744
 30
0.0
 10
12.60981383865267
 20
-5.057610912772523
 30
0.0
 10
12.59775923097157
 20
-4.904722129666963
 30
0.0
  0
SPLINE
  5
597
330
1F
100
AcDbEntity
  8
외형선
  6
Continuous
 62
     1
370
    15
100
AcDbSpline
210
0.0
220
0.0
230
1.0
 70
     8
 71
     3
 72
    12
 73
     8
 74
     0
 42
0.000000001
 43
0.00000001
 40
0.0
 40
0.0
 40
0.0
 40
0.0
 40
0.4999999999999999
 40
0.4999999999999999
 40
0.7499999999999999
 40
0.7499999999999999
 40
1.0
 40
1.0
 40
1.0
 40
1.0
 10
22.74926833436446
 20
-6.158248941516346
 30
0.0
 10
22.7230893916033
 20
-6.060053555690628
 30
0.0
 10
22.69681561476095
 20
-5.901570101972125
 30
0.0
 10
22.65891453943259
 20
-5.586440366855468
 30
0.0
 10
22.64653076037839
 20
-5.468649350830828
 30
0.0
 10
22.62249514890717
 20
-5.211229907034676
 30
0.0
 10
22.61103970160464
 20
-5.07256815537542
 30
0.0
 10
22.59900672355561
 20
-4.920515021560864
 30
0.0
  0
SPLINE
  5
598
330
1F
100
AcDbEntity
  8
외형선
  6
Continuous
 62
     1
370
    15
100
AcDbSpline
210
0.0
220
0.0
230
1.0
 70
     8
 71
     3
 72
    12
 73
     8
 74
     0
 42
0.000000001
 43
0.00000001
 40
0.0
 40
0.0
 40
0.0
 40
0.0
 40
0.4999999999999996
 40
0.4999999999999996
 40
0.7499999999999998
 40
0.7499999999999998
 40
1.0
 40
1.0
 40
1.0
 40
1.0
 10
32.75061948953037
 20
-6.163264542831284
 30
0.0
 10
32.72446303840226
 20
-6.067185783288606
 30
0.0
 10
32.69819192280149
 20
-5.910838354882371
 30
0.0
 10
32.66026494309637
 20
-5.598670467995815
 30
0.0
 10
32.64786764086644
 20
-5.481826698315457
 30
0.0
 10
32.6237961997703
 20
-5.226186011023313
 30
0.0
 10
32.61234737390324
 20
-5.088453238690972
 30
0.0
 10
32.60035004819454
 20
-4.937455904804692
 30
0.0
  0
SPLINE
  5
599
330
1F
100
AcDbEntity
  8
외형선
  6
Continuous
 62
     1
370
    15
100
AcDbSpline
210
0.0
220
0.0
230
1.0
 70
     8
 71
     3
 72
    12
 73
     8
 74
     0
 42
0.000000001
 43
0.00000001
 40
0.0
 40
0.0
 40
0.0
 40
0.0
 40
0.4999999999999996
 40
0.4999999999999996
 40
0.7499999999999998
 40
0.7499999999999998
 40
1.0
 40
1.0
 40
1.0
 40
1.0
 10
12.9641844428309
 20
-6.260180824509176
 30
0.0
 10
12.93829782059168
 20
-6.175732963518582
 30
0.0
 10
12.91218586427904
 20
-6.031113110380145
 30
0.0
 10
12.8743041493009
 20
-5.735043123437576
 30
0.0
 10
12.86189025921046
 20
-5.623316602282356
 30
0.0
 10
12.83772452530493
 20
-5.377180362114471
 30
0.0
 10
12.82622224785341
 20
-5.243825169415401
 30
0.0
 10
12.81450773062149
 20
-5.098503562578726
 30
0.0
  0
SPLINE
  5
59A
330
1F
100
AcDbEntity
  8
외형선
  6
Continuous
 62
     1
370
    15
100
AcDbSpline
210
0.0
220
0.0
230
1.0
 70
     8
 71
     3
 72
    12
 73
     8
 74
     0
 42
0.000000001
 43
0.00000001
 40
0.0
 40
0.0
 40
0.0
 40
0.0
 40
0.4999999999999998
 40
0.4999999999999998
 40
0.7499999999999999
 40
0.7499999999999999
 40
1.0
 40
1.0
 40
1.0
 40
1.0
 10
22.96563950934358
 20
-6.264865818120311
 30
0.0
 10
22.93976532869379
 20
-6.182655024041905
 30
0.0
 10
22.91364485691351
 20
-6.040239468776376
 30
0.0
 10
22.8757207206162
 20
-5.747158842324124
 30
0.0
 10
22.86328784273913
 20
-5.636376493354673
 30
0.0
 10
22.83907571334875
 20
-5.391991336550374
 30
0.0
 10
22.82752561647796
 20
-5.25934580898736
 30
0.0
 10
22.81584184190236
 20
-5.115018587910809
 30
0.0
  0
SPLINE
  5
59B
330
1F
100
AcDbEntity
  8
외형선
  6
Continuous
 62
     1
370
    15
100
AcDbSpline
210
0.0
220
0.0
230
1.0
 70
     8
 71
     3
 72
    12
 73
     8
 74
     0
 42
0.000000001
 43
0.00000001
 40
0.0
 40
0.0
 40
0.0
 40
0.0
 40
0.5
 40
0.5
 40
0.75
 40
0.75
 40
1.0
 40
1.0
 40
1.0
 40
1.0
 10
32.9669318224982
 20
-6.268923177457493
 30
0.0
 10
32.94107651952881
 20
-6.188723071610552
 30
0.0
 10
32.9149564777611
 20
-6.048326069253717
 30
0.0
 10
32.87700543480278
 20
-5.758035392002325
 30
0.0
 10
32.86455908125426
 20
-5.648143693487411
 30
0.0
 10
32.84031192872796
 20
-5.405428437988503
 30
0.0
 10
32.8287153004609
 20
-5.273449874006699
 30
0.0
 10
32.81706316354236
 20
-5.13007586734143
 30
0.0
  0
SPLINE
  5
59C
330
1F
100
AcDbEntity
  8
외형선
  6
Continuous
 62
     1
370
    15
100
AcDbSpline
210
0.0
220
0.0
230
1.0
 70
     8
 71
     3
 72
    10
 73
     6
 74
     0
 42
0.000000001
 43
0.00000001
 40
0.0
 40
0.0
 40
0.0
 40
0.0
 40
0.4999999999999998
 40
0.4999999999999998
 40
1.0
 40
1.0
 40
1.0
 40
1.0
 10
28.01344604039214
 20
5.064237548789678
 30
0.0
 10
27.98741247788967
 20
5.360708125416837
 30
0.0
 10
27.96107655649023
 20
5.609121673080532
 30
0.0
 10
27.9100213859537
 20
5.990827122512082
 30
0.0
 10
27.88572732793172
 20
6.123689442901062
 30
0.0
 10
27.86229302289185
 20
6.200161998173259
 30
0.0
  0
SPLINE
  5
59D
330
1F
100
AcDbEntity
  8
외형선
  6
Continuous
 62
     1
370
    15
100
AcDbSpline
210
0.0
220
0.0
230
1.0
 70
     8
 71
     3
 72
    12
 73
     8
 74
     0
 42
0.000000001
 43
0.00000001
 40
0.0
 40
0.0
 40
0.0
 40
0.0
 40
0.5
 40
0.5
 40
0.75
 40
0.75
 40
1.0
 40
1.0
 40
1.0
 40
1.0
 10
18.01213628056364
 20
5.079110277623956
 30
0.0
 10
17.98609354426795
 20
5.373982132513413
 30
0.0
 10
17.95976761825581
 20
5.620564146573374
 30
0.0
 10
17.92151795672222
 20
5.903982725212417
 30
0.0
 10
17.90897378807306
 20
5.984194125903239
 30
0.0
 10
17.88454010202604
 20
6.115607002881868
 30
0.0
 10
17.87286032955446
 20
6.166613169067491
 30
0.0
 10
17.86111706687034
 20
6.203950132988874
 30
0.0
  0
SPLINE
  5
59F
330
1F
100
AcDbEntity
  8
외형선
  6
Continuous
 62
     1
370
    15
100
AcDbSpline
210
0.0
220
0.0
230
1.0
 70
     8
 71
     3
 72
    10
 73
     6
 74
     0
 42
0.000000001
 43
0.00000001
 40
0.0
 40
0.0
 40
0.0
 40
0.0
 40
0.5
 40
0.5
 40
1.0
 40
1.0
 40
1.0
 40
1.0
 10
13.77069502593948
 20
-6.344623138186121
 30
0.0
 10
13.74552753738944
 20
-6.32417355156309
 30
0.0
 10
13.7195605628141
 20
-6.244384740772004
 30
0.0
 10
13.6681589430754
 20
-5.970307175310195
 30
0.0
 10
13.64274360171654
 20
-5.776164750978507
 30
0.0
 10
13.61860689985015
 20
-5.536040158182287
 30
0.0
  0
SPLINE
  5
5A0
330
1F
100
AcDbEntity
  8
외형선
  6
Continuous
 62
     1
370
    15
100
AcDbSpline
210
0.0
220
0.0
230
1.0
 70
     8
 71
     3
 72
    10
 73
     6
 74
     0
 42
0.000000001
 43
0.00000001
 40
0.0
 40
0.0
 40
0.0
 40
0.0
 40
0.5
 40
0.5
 40
1.0
 40
1.0
 40
1.0
 40
1.0
 10
23.77198500015952
 20
-6.345620573402114
 30
0.0
 10
23.74685948177849
 20
-6.327181616140107
 30
0.0
 10
23.72091796739558
 20
-6.249523068404057
 30
0.0
 10
23.66952787928485
 20
-5.979597400842577
 30
0.0
 10
23.64409860155972
 20
-5.787471868790062
 30
0.0
 10
23.61993029954194
 20
-5.549148085651408
 30
0.0
  0
SPLINE
  5
5A1
330
1F
100
AcDbEntity
  8
외형선
  6
Continuous
 62
     1
370
    15
100
AcDbSpline
210
0.0
220
0.0
230
1.0
 70
     8
 71
     3
 72
    10
 73
     6
 74
     0
 42
0.000000001
 43
0.00000001
 40
0.0
 40
0.0
 40
0.0
 40
0.0
 40
0.5
 40
0.5
 40
1.0
 40
1.0
 40
1.0
 40
1.0
 10
33.77341690652934
 20
-6.346608773892966
 30
0.0
 10
33.74831452484667
 20
-6.330383883068746
 30
0.0
 10
33.72237630811171
 20
-6.254960112618418
 30
0.0
 10
33.67095204573089
 20
-5.989179466002311
 30
0.0
 10
33.64548537292821
 20
-5.798959791028193
 30
0.0
 10
33.62126410382125
 20
-5.562242098637141
 30
0.0
  0
SPLINE
  5
5A2
330
1F
100
AcDbEntity
  8
외형선
  6
Continuous
 62
     1
370
    15
100
AcDbSpline
210
0.0
220
0.0
230
1.0
 70
     8
 71
     3
 72
    10
 73
     6
 74
     0
 42
0.000000001
 43
0.00000001
 40
0.0
 40
0.0
 40
0.0
 40
0.0
 40
0.5000000000000001
 40
0.5000000000000001
 40
1.0
 40
1.0
 40
1.0
 40
1.0
 10
13.98803194551697
 20
-6.278806342790046
 30
0.0
 10
13.96295797086988
 20
-6.276277696837353
 30
0.0
 10
13.93691654787067
 20
-6.214795344198987
 30
0.0
 10
13.88504514464934
 20
-5.975165356563819
 30
0.0
 10
13.85923544241583
 20
-5.797129794516406
 30
0.0
 10
13.83459398791566
 20
-5.570955917275581
 30
0.0
  0
LINE
  5
5A3
330
1F
100
AcDbEntity
  8
외형선
  6
Continuous
 62
     1
370
    15
100
AcDbLine
 10
35.40000000000001
 20
-0.9524999962498752
 30
0.0
 11
35.40000000000001
 21
-3.206617819766207
 31
0.0
  0
SPLINE
  5
5A4
330
1F
100
AcDbEntity
  8
외형선
  6
Continuous
 62
     1
370
    15
100
AcDbSpline
210
0.0
220
0.0
230
1.0
 70
     8
 71
     3
 72
    10
 73
     6
 74
     0
 42
0.000000001
 43
0.00000001
 40
0.0
 40
0.0
 40
0.0
 40
0.0
 40
0.5
 40
0.5
 40
1.0
 40
1.0
 40
1.0
 40
1.0
 10
23.98925958046921
 20
-6.278883738942624
 30
0.0
 10
23.96422324071428
 20
-6.27825255653711
 30
0.0
 10
23.93820352152593
 20
-6.21876954774106
 30
0.0
 10
23.88633802307304
 20
-5.983013603465848
 30
0.0
 10
23.86051251558279
 20
-5.806848220436107
 30
0.0
 10
23.83583869126908
 20
-5.582331230795274
 30
0.0
  0
SPLINE
  5
5A5
330
1F
100
AcDbEntity
  8
외형선
  6
Continuous
 62
     1
370
    15
100
AcDbSpline
210
0.0
220
0.0
230
1.0
 70
     8
 71
     3
 72
    10
 73
     6
 74
     0
 42
0.000000001
 43
0.00000001
 40
0.0
 40
0.0
 40
0.0
 40
0.0
 40
0.5
 40
0.5
 40
1.0
 40
1.0
 40
1.0
 40
1.0
 10
33.9907233424557
 20
-6.278854485926442
 30
0.0
 10
33.96572204808935
 20
-6.280485233699038
 30
0.0
 10
33.93971761502771
 20
-6.223338750097666
 30
0.0
 10
33.88783898381593
 20
-5.992018763523729
 30
0.0
 10
33.86198508774546
 20
-5.817947731347501
 30
0.0
 10
33.83726477796613
 20
-5.595243244221747
 30
0.0
  0
LINE
  5
5A6
330
1F
100
AcDbEntity
  8
외형선
  6
Continuous
 62
     1
370
    15
100
AcDbLine
 10
26.01748385429382
 20
6.307450433572138
 30
0.0
 11
26.01467498540878
 21
6.306342159708345
 31
0.0
  0
LINE
  5
5A7
330
1F
100
AcDbEntity
  8
외형선
  6
Continuous
 62
     1
370
    15
100
AcDbLine
 10
16.0174524128437
 20
6.307998051246011
 30
0.0
 11
16.01482856671014
 21
6.306758150458338
 31
0.0
  0
SPLINE
  5
5A9
330
1F
100
AcDbEntity
  8
외형선
  6
Continuous
 62
     1
370
    15
100
AcDbSpline
210
0.0
220
0.0
230
1.0
 70
     8
 71
     3
 72
     8
 73
     4
 74
     0
 42
0.000000001
 43
0.00000001
 40
0.0000003030761704
 40
0.0000003030761704
 40
0.0000003030761704
 40
0.0000003030761704
 40
0.000304191462904
 40
0.000304191462904
 40
0.000304191462904
 40
0.000304191462904
 10
35.39999982913334
 20
5.765178938631886
 30
0.0
 10
35.31087396308927
 20
5.845202448609507
 30
0.0
 10
35.22150836059441
 20
5.924829264108761
 30
0.0
 10
35.13193034475528
 20
6.004096819215116
 30
0.0
  0
LINE
  5
5AA
330
1F
100
AcDbEntity
  8
외형선
  6
Continuous
 62
     1
370
    15
100
AcDbLine
 10
35.40000000000001
 20
1.395149932553367
 30
0.0
 11
35.40000000000001
 21
1.411515598495798
 31
0.0
  0
LINE
  5
5AB
330
1F
100
AcDbEntity
  8
외형선
  6
Continuous
 62
     1
370
    15
100
AcDbLine
 10
35.40000000000001
 20
2.254117745906116
 30
0.0
 11
35.40000000000001
 21
5.765179172158243
 31
0.0
  0
LINE
  5
5AC
330
1F
100
AcDbEntity
  8
외형선
  6
Continuous
 62
     1
370
    15
100
AcDbLine
 10
15.01955765883126
 20
-6.340198839704199
 30
0.0
 11
15.01725418766337
 21
-6.339590996503828
 31
0.0
  0
LINE
  5
5AD
330
1F
100
AcDbEntity
  8
외형선
  6
Continuous
 62
     1
370
    15
100
AcDbLine
 10
25.01943760514259
 20
-6.339656809965772
 30
0.0
 11
25.01721112330752
 21
-6.339271242419882
 31
0.0
  0
SPLINE
  5
5AE
330
1F
100
AcDbEntity
  8
외형선
  6
Continuous
 62
     1
370
    15
100
AcDbSpline
210
0.0
220
0.0
230
1.0
 70
     8
 71
     3
 72
    10
 73
     6
 74
     0
 42
0.000000001
 43
0.00000001
 40
0.0
 40
0.0
 40
0.0
 40
0.0
 40
0.2328029168560354
 40
0.7198127979783546
 40
1.0
 40
1.0
 40
1.0
 40
1.0
 10
34.89433902899423
 20
-6.059475243091581
 30
0.0
 10
34.89502685587677
 20
-6.099952554198834
 30
0.0
 10
34.89715357576292
 20
-6.225105997103325
 30
0.0
 10
34.90278426165851
 20
-6.329882378026964
 30
0.0
 10
34.90912310827186
 20
-6.321244494570889
 30
0.0
 10
34.91143811146417
 20
-6.318089862664548
 30
0.0
  0
LINE
  5
5AF
330
1F
100
AcDbEntity
  8
외형선
  6
Continuous
 62
     1
370
    15
100
AcDbLine
 10
25.8019758105278
 20
6.264783442020418
 30
0.0
 11
25.80015041828155
 21
6.262393047412241
 31
0.0
  0
SPLINE
  5
5B0
330
1F
100
AcDbEntity
  8
외형선
  6
Continuous
 62
     1
370
    15
100
AcDbSpline
210
0.0
220
0.0
230
1.0
 70
     8
 71
     3
 72
     9
 73
     5
 74
     0
 42
0.000000001
 43
0.00000001
 40
0.0
 40
0.0
 40
0.0
 40
0.0
 40
0.9927675845794568
 40
1.0
 40
1.0
 40
1.0
 40
1.0
 10
15.80185620387393
 20
6.271776432792345
 30
0.0
 10
15.80092965572063
 20
6.27343281379183
 30
0.0
 10
15.7999963575674
 20
6.275101261699684
 30
0.0
 10
15.79902332825528
 20
6.273031920794809
 30
0.0
 10
15.79901629090309
 20
6.273016954461732
 30
0.0
  0
LINE
  5
5B1
330
1F
100
AcDbEntity
  8
외형선
  6
Continuous
 62
     1
370
    15
100
AcDbLine
 10
15.7824077049891
 20
-6.318628167112675
 30
0.0
 11
15.78090765476226
 21
-6.316748137275381
 31
0.0
  0
LINE
  5
5B2
330
1F
100
AcDbEntity
  8
외형선
  6
Continuous
 62
     1
370
    15
100
AcDbLine
 10
25.78243293762207
 20
-6.317148605982466
 30
0.0
 11
25.78067211707431
 21
-6.315077965458242
 31
0.0
  0
LINE
  5
5B3
330
1F
100
AcDbEntity
  8
외형선
  6
Continuous
 62
     1
370
    15
100
AcDbLine
 10
35.40000000000001
 20
-5.674337347348539
 30
0.0
 11
35.40000000000001
 21
-5.843333279093114
 31
0.0
  0
LINE
  5
5B7
330
1F
100
AcDbEntity
  8
외형선
  6
Continuous
 62
     1
370
    15
100
AcDbLine
 10
34.92587485313415
 20
6.312058617671334
 30
0.0
 11
34.90121839841206
 21
6.275756284594538
 31
0.0
  0
LINE
  5
5B8
330
1F
100
AcDbEntity
  8
외형선
  6
Continuous
 62
     1
370
    15
100
AcDbLine
 10
35.40000000000001
 20
5.843333279093111
 30
0.0
 11
35.40000000000001
 21
5.765179172158243
 31
0.0
  0
LINE
  5
5B9
330
1F
100
AcDbEntity
  8
외형선
  6
Continuous
 62
     1
370
    15
100
AcDbLine
 10
24.78588052988052
 20
6.349088003238046
 30
0.0
 11
24.78282827536264
 21
6.346221392353379
 31
0.0
  0
LINE
  5
5BA
330
1F
100
AcDbEntity
  8
외형선
  6
Continuous
 62
     1
370
    15
100
AcDbLine
 10
14.78502145310241
 20
6.349857896566393
 30
0.0
 11
14.78287196060019
 21
6.34765004118284
 31
0.0
  0
LINE
  5
5BB
330
1F
100
AcDbEntity
  8
외형선
  6
Continuous
 62
     1
370
    15
100
AcDbLine
 10
34.78590824604034
 20
6.338194633523623
 30
0.0
 11
34.78374509414035
 21
6.340603033701578
 31
0.0
  0
LINE
  5
5BC
330
1F
100
AcDbEntity
  8
외형선
  6
Continuous
 62
     1
370
    15
100
AcDbLine
 10
23.80307071805
 20
6.275962417324388
 30
0.0
 11
23.80119441350299
 21
6.272852420806887
 31
0.0
  0
SPLINE
  5
5BD
330
1F
100
AcDbEntity
  8
외형선
  6
Continuous
 62
     1
370
    15
100
AcDbSpline
210
0.0
220
0.0
230
1.0
 70
     8
 71
     3
 72
    11
 73
     7
 74
     0
 42
0.000000001
 43
0.00000001
 40
0.0
 40
0.0
 40
0.0
 40
0.0
 40
0.2764181321771732
 40
0.5494125944279545
 40
0.7916274894399487
 40
1.0
 40
1.0
 40
1.0
 40
1.0
 10
27.14572775761285
 20
5.522188420097033
 30
0.0
 10
27.13206000577079
 20
5.63962748209582
 30
0.0
 10
27.104893788633
 20
5.873051025015139
 30
0.0
 10
27.06664294950601
 20
6.095846372166784
 30
0.0
 10
27.03358814644942
 20
6.233617467138737
 30
0.0
 10
27.0120148407023
 20
6.25787724170929
 30
0.0
 10
27.00203834374743
 20
6.269096086422602
 30
0.0
  0
SPLINE
  5
5BE
330
1F
100
AcDbEntity
  8
외형선
  6
Continuous
 62
     1
370
    15
100
AcDbSpline
210
0.0
220
0.0
230
1.0
 70
     8
 71
     3
 72
    11
 73
     7
 74
     0
 42
0.000000001
 43
0.00000001
 40
0.0
 40
0.0
 40
0.0
 40
0.0
 40
0.0514592262364688
 40
0.3476676450005254
 40
0.639291892424562
 40
1.0
 40
1.0
 40
1.0
 40
1.0
 10
17.14429933230081
 20
5.535241837302843
 30
0.0
 10
17.14177479129312
 20
5.557924806394078
 30
0.0
 10
17.12471854519236
 20
5.71117496233948
 30
0.0
 10
17.09346876700206
 20
5.94495281925
 30
0.0
 10
17.04916697901736
 20
6.194419304608937
 30
0.0
 10
17.01870779215405
 20
6.238874456929446
 30
0.0
 10
17.00186534126597
 20
6.26345599691073
 30
0.0
  0
SPLINE
  5
5C0
330
1F
100
AcDbEntity
  8
외형선
  6
Continuous
 62
     1
370
    15
100
AcDbSpline
210
0.0
220
0.0
230
1.0
 70
     8
 71
     3
 72
    11
 73
     7
 74
     0
 42
0.000000001
 43
0.00000001
 40
0.0
 40
0.0
 40
0.0
 40
0.0
 40
0.255306306587462
 40
0.5106125430778646
 40
0.765918767226559
 40
1.0
 40
1.0
 40
1.0
 40
1.0
 10
26.92826269467669
 20
5.689539015293123
 30
0.0
 10
26.91597283388343
 20
5.792491374393515
 30
0.0
 10
26.8913931156712
 20
5.998396064327659
 30
0.0
 10
26.85451839583074
 20
6.201674133162812
 30
0.0
 10
26.81867100664345
 20
6.329093301749908
 30
0.0
 10
26.79511182681673
 20
6.340978984025073
 30
0.0
 10
26.78384312391281
 20
6.346664081017176
 30
0.0
  0
SPLINE
  5
5C1
330
1F
100
AcDbEntity
  8
외형선
  6
Continuous
 62
     1
370
    15
100
AcDbSpline
210
0.0
220
0.0
230
1.0
 70
     8
 71
     3
 72
    11
 73
     7
 74
     0
 42
0.000000001
 43
0.00000001
 40
0.0
 40
0.0
 40
0.0
 40
0.0
 40
0.2578991501834221
 40
0.5157982914397748
 40
0.7736974876049242
 40
1.0
 40
1.0
 40
1.0
 40
1.0
 10
16.92677839001017
 20
5.702373261253038
 30
0.0
 10
16.91448907594866
 20
5.804303728542516
 30
0.0
 10
16.88991044825106
 20
6.008164659593171
 30
0.0
 10
16.85304241948531
 20
6.208006855753405
 30
0.0
 10
16.81768034343863
 20
6.331008585474118
 30
0.0
 10
16.79460679700226
 20
6.340743816721181
 30
0.0
 10
16.78382285833358
 20
6.345293795069062
 30
0.0
  0
SPLINE
  5
5C3
330
1F
100
AcDbEntity
  8
외형선
  6
Continuous
 62
     1
370
    15
100
AcDbSpline
210
0.0
220
0.0
230
1.0
 70
     8
 71
     3
 72
    10
 73
     6
 74
     0
 42
0.000000001
 43
0.00000001
 40
0.0
 40
0.0
 40
0.0
 40
0.0
 40
0.2206345313647408
 40
0.6565412667959952
 40
0.9999999999999999
 40
0.9999999999999999
 40
0.9999999999999999
 40
0.9999999999999999
 10
14.80192061165967
 20
-6.26127980649471
 30
0.0
 10
14.79463716733612
 20
-6.25893988868563
 30
0.0
 10
14.772963852043
 20
-6.251977004892806
 30
0.0
 10
14.73906842909328
 20
-6.133525971853144
 30
0.0
 10
14.71293430092887
 20
-5.980313609489881
 30
0.0
 10
14.70141724646091
 20
-5.912794421116514
 30
0.0
  0
SPLINE
  5
5C4
330
1F
100
AcDbEntity
  8
외형선
  6
Continuous
 62
     1
370
    15
100
AcDbSpline
210
0.0
220
0.0
230
1.0
 70
     8
 71
     3
 72
     9
 73
     5
 74
     0
 42
0.000000001
 43
0.00000001
 40
0.0
 40
0.0
 40
0.0
 40
0.0
 40
0.7059707174701583
 40
1.0
 40
1.0
 40
1.0
 40
1.0
 10
26.12208255529403
 20
6.001414731144907
 30
0.0
 10
26.09746868696279
 20
6.148338780707691
 30
0.0
 10
26.06260340470367
 20
6.356455131608607
 30
0.0
 10
26.02773591675807
 20
6.318585279126859
 30
0.0
 10
26.01748385429382
 20
6.307450433572138
 30
0.0
  0
SPLINE
  5
5C5
330
1F
100
AcDbEntity
  8
외형선
  6
Continuous
 62
     1
370
    15
100
AcDbSpline
210
0.0
220
0.0
230
1.0
 70
     8
 71
     3
 72
    10
 73
     6
 74
     0
 42
0.000000001
 43
0.00000001
 40
0.0
 40
0.0
 40
0.0
 40
0.0
 40
0.0826474080892468
 40
0.5231583933235123
 40
1.0
 40
1.0
 40
1.0
 40
1.0
 10
24.80221468607583
 20
-6.266925483942031
 30
0.0
 10
24.79954032984488
 20
-6.26783974037083
 30
0.0
 10
24.78261164519173
 20
-6.273626986885061
 30
0.0
 10
24.74911442877864
 20
-6.177287403111221
 30
0.0
 10
24.71868151929916
 20
-6.009414331308532
 30
0.0
 10
24.7028624355793
 20
-5.922153592109678
 30
0.0
  0
SPLINE
  5
5C6
330
1F
100
AcDbEntity
  8
외형선
  6
Continuous
 62
     1
370
    15
100
AcDbSpline
210
0.0
220
0.0
230
1.0
 70
     8
 71
     3
 72
     9
 73
     5
 74
     0
 42
0.000000001
 43
0.00000001
 40
0.0
 40
0.0
 40
0.0
 40
0.0
 40
0.7143000319233371
 40
0.9999999999999999
 40
0.9999999999999999
 40
0.9999999999999999
 40
0.9999999999999999
 10
16.12083542744317
 20
6.009525929888094
 30
0.0
 10
16.09621997635044
 20
6.155018218403373
 30
0.0
 10
16.06175903557962
 20
6.358703339519105
 30
0.0
 10
16.02729794525057
 20
6.319265453906533
 30
0.0
 10
16.0174524128437
 20
6.307998051246011
 30
0.0
  0
SPLINE
  5
5C7
330
1F
100
AcDbEntity
  8
외형선
  6
Continuous
 62
     1
370
    15
100
AcDbSpline
210
0.0
220
0.0
230
1.0
 70
     8
 71
     3
 72
     9
 73
     5
 74
     0
 42
0.000000001
 43
0.00000001
 40
0.0
 40
0.0
 40
0.0
 40
0.0
 40
0.4738028029617564
 40
1.0
 40
1.0
 40
1.0
 40
1.0
 10
34.80248827139535
 20
-6.268768260876341
 30
0.0
 10
34.7870364216321
 20
-6.251075951818462
 30
0.0
 10
34.7544240148108
 20
-6.213734870365839
 30
0.0
 10
34.7214820353524
 20
-6.028067414644652
 30
0.0
 10
34.70414805809655
 20
-5.930369719862936
 30
0.0
  0
SPLINE
  5
5C9
330
1F
100
AcDbEntity
  8
외형선
  6
Continuous
 62
     1
370
    15
100
AcDbSpline
210
0.0
220
0.0
230
1.0
 70
     8
 71
     3
 72
    10
 73
     6
 74
     0
 42
0.000000001
 43
0.00000001
 40
0.0
 40
0.0
 40
0.0
 40
0.0
 40
0.2346605454213458
 40
0.617330305251917
 40
0.9999999999999999
 40
0.9999999999999999
 40
0.9999999999999999
 40
0.9999999999999999
 10
15.01725418766337
 20
-6.339590996503828
 30
0.0
 10
15.00955813591422
 20
-6.340338493171827
 30
0.0
 10
14.98931184369231
 20
-6.34230496071501
 30
0.0
 10
14.95651584834859
 20
-6.252094656336991
 30
0.0
 10
14.93141564579851
 20
-6.119081804726717
 30
0.0
 10
14.9188655455907
 20
-6.052575384577124
 30
0.0
  0
SPLINE
  5
5CA
330
1F
100
AcDbEntity
  8
외형선
  6
Continuous
 62
     1
370
    15
100
AcDbSpline
210
0.0
220
0.0
230
1.0
 70
     8
 71
     3
 72
    10
 73
     6
 74
     0
 42
0.000000001
 43
0.00000001
 40
0.0
 40
0.0
 40
0.0
 40
0.0
 40
0.223075194531342
 40
0.6115375950082912
 40
1.0
 40
1.0
 40
1.0
 40
1.0
 10
25.01721112330752
 20
-6.339271242419882
 30
0.0
 10
25.01000928292134
 20
-6.340525755094744
 30
0.0
 10
24.99026618168292
 20
-6.343964871961616
 30
0.0
 10
24.95798279263308
 20
-6.257389660381191
 30
0.0
 10
24.93290078716941
 20
-6.126684339996016
 30
0.0
 10
24.9203597843647
 20
-6.061331679423658
 30
0.0
  0
SPLINE
  5
5CB
330
1F
100
AcDbEntity
  8
외형선
  6
Continuous
 62
     1
370
    15
100
AcDbSpline
210
0.0
220
0.0
230
1.0
 70
     8
 71
     3
 72
    10
 73
     6
 74
     0
 42
0.000000001
 43
0.00000001
 40
0.0
 40
0.0
 40
0.0
 40
0.0
 40
0.5041921906189015
 40
0.9000867657288831
 40
1.0
 40
1.0
 40
1.0
 40
1.0
 10
25.90606290499368
 20
5.99741190671921
 30
0.0
 10
25.88880377389127
 20
6.083375786097323
 30
0.0
 10
25.85799267490508
 20
6.236838992387712
 30
0.0
 10
25.82344777698909
 20
6.297435033676971
 30
0.0
 10
25.80557704912456
 20
6.270259706727311
 30
0.0
 10
25.8019758105278
 20
6.264783442020418
 30
0.0
  0
SPLINE
  5
5CC
330
1F
100
AcDbEntity
  8
외형선
  6
Continuous
 62
     1
370
    15
100
AcDbSpline
210
0.0
220
0.0
230
1.0
 70
     8
 71
     3
 72
    10
 73
     6
 74
     0
 42
0.000000001
 43
0.00000001
 40
0.0
 40
0.0
 40
0.0
 40
0.0
 40
0.3145316546193803
 40
0.6272819430301874
 40
0.9999999999999999
 40
0.9999999999999999
 40
0.9999999999999999
 40
0.9999999999999999
 10
15.90485799709954
 20
6.004486232995989
 30
0.0
 10
15.8940589740633
 20
6.061575402034068
 30
0.0
 10
15.87252208881343
 20
6.175430412664129
 30
0.0
 10
15.83925582023976
 20
6.27433533876348
 30
0.0
 10
15.81502922548176
 20
6.272677739461389
 30
0.0
 10
15.80185620387393
 20
6.271776432792345
 30
0.0
  0
LINE
  5
5CE
330
1F
100
AcDbEntity
  8
외형선
  6
Continuous
 62
     1
370
    15
100
AcDbLine
 10
15.78090765476226
 20
-6.316748137275381
 30
0.0
 11
15.72568146785098
 21
-6.247547765572874
 31
0.0
  0
LINE
  5
5CF
330
1F
100
AcDbEntity
  8
외형선
  6
Continuous
 62
     1
370
    15
100
AcDbLine
 10
25.78067211707431
 20
-6.315077965458242
 30
0.0
 11
25.72694846391677
 21
-6.251915047566099
 31
0.0
  0
SPLINE
  5
5D0
330
1F
100
AcDbEntity
  8
외형선
  6
Continuous
 62
     1
370
    15
100
AcDbSpline
210
0.0
220
0.0
230
1.0
 70
     8
 71
     3
 72
     9
 73
     5
 74
     0
 42
0.000000001
 43
0.00000001
 40
0.0
 40
0.0
 40
0.0
 40
0.0
 40
0.2486145328186344
 40
1.0
 40
1.0
 40
1.0
 40
1.0
 10
25.04099089304605
 20
6.193938975532854
 30
0.0
 10
25.03768077159267
 20
6.204744406793205
 30
0.0
 10
25.024366499833
 20
6.248206995797377
 30
0.0
 10
25.01048941224254
 20
6.257836604205808
 30
0.0
 10
25.00006237030029
 20
6.265072152018549
 30
0.0
  0
SPLINE
  5
5D1
330
1F
100
AcDbEntity
  8
외형선
  6
Continuous
 62
     1
370
    15
100
AcDbSpline
210
0.0
220
0.0
230
1.0
 70
     8
 71
     3
 72
     9
 73
     5
 74
     0
 42
0.000000001
 43
0.00000001
 40
0.0
 40
0.0
 40
0.0
 40
0.0
 40
0.5583985206614926
 40
0.9999999999999999
 40
0.9999999999999999
 40
0.9999999999999999
 40
0.9999999999999999
 10
15.03960220416385
 20
6.198588758707048
 30
0.0
 10
15.03239206557864
 20
6.221254811008459
 30
0.0
 10
15.01947989207101
 20
6.261845986419447
 30
0.0
 10
15.00596283038432
 20
6.261896421551834
 30
0.0
 10
14.99999367594719
 20
6.261918693780901
 30
0.0
  0
SPLINE
  5
5D2
330
1F
100
AcDbEntity
  8
외형선
  6
Continuous
 62
     1
370
    15
100
AcDbSpline
210
0.0
220
0.0
230
1.0
 70
     8
 71
     3
 72
    10
 73
     6
 74
     0
 42
0.000000001
 43
0.00000001
 40
0.0
 40
0.0
 40
0.0
 40
0.0
 40
0.1172604474387206
 40
0.850121452075984
 40
1.0
 40
1.0
 40
1.0
 40
1.0
 10
16.00079912344613
 20
-6.267530222733823
 30
0.0
 10
15.99857281110026
 20
-6.27148861254433
 30
0.0
 10
15.98243236540369
 20
-6.300186371823797
 30
0.0
 10
15.96249358810333
 20
-6.264336091059503
 30
0.0
 10
15.9449928993591
 20
-6.218464523794394
 30
0.0
 10
15.942021493117
 20
-6.210676083962126
 30
0.0
  0
SPLINE
  5
5D5
330
1F
100
AcDbEntity
  8
외형선
  6
Continuous
 62
     1
370
    15
100
AcDbSpline
210
0.0
220
0.0
230
1.0
 70
     8
 71
     3
 72
     9
 73
     5
 74
     0
 42
0.000000001
 43
0.00000001
 40
0.0
 40
0.0
 40
0.0
 40
0.0
 40
0.6239015672433635
 40
1.0
 40
1.0
 40
1.0
 40
1.0
 10
26.00089389483133
 20
-6.267311672369641
 30
0.0
 10
25.98904273439526
 20
-6.272403887035152
 30
0.0
 10
25.97004749370622
 20
-6.280565774956058
 30
0.0
 10
25.9505911052333
 20
-6.232320387809407
 30
0.0
 10
25.94327358802157
 20
-6.214175373315809
 30
0.0
  0
SPLINE
  5
5D6
330
1F
100
AcDbEntity
  8
외형선
  6
Continuous
 62
     1
370
    15
100
AcDbSpline
210
0.0
220
0.0
230
1.0
 70
     8
 71
     3
 72
     9
 73
     5
 74
     0
 42
0.000000001
 43
0.00000001
 40
0.0
 40
0.0
 40
0.0
 40
0.0
 40
0.9857495766515524
 40
1.0
 40
1.0
 40
1.0
 40
1.0
 10
24.82426095406213
 20
6.297372902433076
 30
0.0
 10
24.8116431325207
 20
6.32920587812732
 30
0.0
 10
24.79884290227934
 20
6.361499045122509
 30
0.0
 10
24.78606265383137
 20
6.349262380883824
 30
0.0
 10
24.78588052988052
 20
6.349088003238046
 30
0.0
  0
LINE
  5
5D7
330
1F
100
AcDbEntity
  8
외형선
  6
Continuous
 62
     1
370
    15
100
AcDbLine
 10
14.82286419371762
 20
6.301013752818109
 30
0.0
 11
14.78502145310241
 21
6.349857896566393
 31
0.0
  0
LINE
  5
5D8
330
1F
100
AcDbEntity
  8
외형선
  6
Continuous
 62
     1
370
    15
100
AcDbLine
 10
34.82544599374133
 20
6.294177845120432
 30
0.0
 11
34.78590824604034
 21
6.338194633523623
 31
0.0
  0
LINE
  5
5D9
330
1F
100
AcDbEntity
  8
외형선
  6
Continuous
 62
     1
370
    15
100
AcDbLine
 10
33.80451031923295
 20
6.276759629448259
 30
0.0
 11
33.80114265680313
 21
6.269187976916635
 31
0.0
  0
LINE
  5
614
330
1F
100
AcDbEntity
  8
외형선
  6
Continuous
370
    15
100
AcDbLine
 10
9.999999999999993
 20
6.350000000000003
 30
0.0
 11
9.999999999999993
 21
-5.606015432150459
 31
0.0
  0
ENDSEC
  0
SECTION
  2
OBJECTS
  0
DICTIONARY
  5
C
330
0
100
AcDbDictionary
281
     1
  3
ACAD_GROUP
350
D
  3
ACAD_IMAGE_VARS
350
15E
  3
ACAD_LAYOUT
350
1A
  3
ACAD_MLINESTYLE
350
17
  3
ACAD_PLOTSETTINGS
350
19
  3
ACAD_PLOTSTYLENAME
350
E
  3
ACAD_SCALELIST
350
47
  3
APPDATA
350
15C
  3
DWGPROPS
350
63E
  0
DICTIONARY
  5
63C
330
1F
100
AcDbDictionary
280
     1
281
     1
  3
DIM_BOUNDING_BOXES_V1
360
63D
  0
DICTIONARY
  5
D
102
{ACAD_REACTORS
330
C
102
}
330
C
100
AcDbDictionary
281
     1
  0
RASTERVARIABLES
  5
15E
102
{ACAD_REACTORS
330
C
102
}
330
C
100
AcDbRasterVariables
 90
        0
 70
     1
 71
     1
 72
     1
  0
DICTIONARY
  5
1A
102
{ACAD_REACTORS
330
C
102
}
330
C
100
AcDbDictionary
281
     1
  3
Layout1
350
1E
  3
Layout2
350
26
  3
Model
350
22
  0
DICTIONARY
  5
17
102
{ACAD_REACTORS
330
C
102
}
330
C
100
AcDbDictionary
281
     1
  3
Standard
350
18
  0
DICTIONARY
  5
19
102
{ACAD_REACTORS
330
C
102
}
330
C
100
AcDbDictionary
281
     1
  0
ACDBDICTIONARYWDFLT
  5
E
102
{ACAD_REACTORS
330
C
102
}
330
C
100
AcDbDictionary
281
     1
  3
Normal
350
F
100
AcDbDictionaryWithDefault
340
F
  0
DICTIONARY
  5
47
102
{ACAD_REACTORS
330
C
102
}
330
C
100
AcDbDictionary
281
     1
  3
A0
350
48
  3
A1
350
49
  3
A2
350
4A
  3
A3
350
4B
  3
A4
350
4C
  3
A5
350
4D
  3
A6
350
4E
  3
A7
350
4F
  3
A8
350
50
  3
A9
350
51
  3
B0
350
52
  3
B1
350
53
  3
B2
350
54
  3
B3
350
55
  3
B4
350
56
  3
B5
350
57
  3
B6
350
58
  3
B7
350
59
  3
B8
350
5A
  3
B9
350
5B
  3
C0
350
5C
  3
C1
350
5D
  3
C2
350
5E
  3
C3
350
5F
  3
C4
350
60
  3
C5
350
61
  3
C6
350
62
  3
C7
350
63
  3
C8
350
64
  3
C9
350
65
  3
D0
350
66
  3
D1
350
67
  3
D2
350
68
  0
DICTIONARY
  5
15C
102
{ACAD_REACTORS
330
C
102
}
330
C
100
AcDbDictionary
281
     1
  0
XRECORD
  5
63E
102
{ACAD_REACTORS
330
C
102
}
330
C
100
AcDbXrecord
280
     1
  1
DWGPROPS COOKIE
  2

  3

  4

  6

  7

  8
12014074
  9

300
=
301
=
302
=
303
=
304
=
305
=
306
=
307
=
308
=
309
=
 40
0.0
 41
2458298.972449525
 42
2459710.062479768
  1

 90
        0
  0
DICTIONARY
  5
63D
102
{ACAD_REACTORS
330
63C
102
}
330
63C
100
AcDbDictionary
281
     1
  0
LAYOUT
  5
1E
102
{ACAD_REACTORS
330
1A
102
}
330
1A
100
AcDbPlotSettings
  1

  2
none_device
  4

  6

 40
0.0
 41
0.0
 42
0.0
 43
0.0
 44
0.0
 45
0.0
 46
0.0
 47
0.0
 48
0.0
 49
0.0
140
0.0
141
0.0
142
1.0
143
1.0
 70
   688
 72
     1
 73
     0
 74
     5
  7

 75
    16
147
1.0
148
0.0
149
0.0
100
AcDbLayout
  1
Layout1
 70
     1
 71
     1
 10
0.0
 20
0.0
 11
420.0
 21
297.0
 12
0.0
 22
0.0
 32
0.0
 14
1.000000000000000E+20
 24
1.000000000000000E+20
 34
1.000000000000000E+20
 15
-1.000000000000000E+20
 25
-1.000000000000000E+20
 35
-1.000000000000000E+20
146
0.0
 13
0.0
 23
0.0
 33
0.0
 16
1.0
 26
0.0
 36
0.0
 17
0.0
 27
1.0
 37
0.0
 76
     0
330
1B
  0
LAYOUT
  5
26
102
{ACAD_REACTORS
330
1A
102
}
330
1A
100
AcDbPlotSettings
  1

  2
none_device
  4

  6

 40
0.0
 41
0.0
 42
0.0
 43
0.0
 44
0.0
 45
0.0
 46
0.0
 47
0.0
 48
0.0
 49
0.0
140
0.0
141
0.0
142
1.0
143
1.0
 70
   688
 72
     1
 73
     0
 74
     5
  7

 75
    16
147
1.0
148
0.0
149
0.0
100
AcDbLayout
  1
Layout2
 70
     1
 71
     2
 10
0.0
 20
0.0
 11
0.0
 21
0.0
 12
0.0
 22
0.0
 32
0.0
 14
0.0
 24
0.0
 34
0.0
 15
0.0
 25
0.0
 35
0.0
146
0.0
 13
0.0
 23
0.0
 33
0.0
 16
1.0
 26
0.0
 36
0.0
 17
0.0
 27
1.0
 37
0.0
 76
     0
330
23
  0
LAYOUT
  5
22
102
{ACAD_REACTORS
330
1A
102
}
330
1A
100
AcDbPlotSettings
  1

  2
none_device
  4
ANSI_A_(11.00_x_8.50_Inches)
  6

 40
6.35
 41
19.05
 42
6.35000508
 43
19.05000254
 44
279.4
 45
215.9
 46
109.9002604881913
 47
88.79467816083634
 48
0.0
 49
0.0
140
0.0
141
0.0
142
0.073641201888453
143
1.0
 70
  1696
 72
     0
 73
     0
 74
     0
  7

 75
     0
147
0.0235690232323232
148
0.0
149
0.0
100
AcDbLayout
  1
Model
 70
     1
 71
     0
 10
0.0
 20
0.0
 11
420.0
 21
297.0
 12
0.0
 22
0.0
 32
0.0
 14
-54.98500000000006
 24
-49.97180738881173
 34
0.0
 15
86.47629082238858
 25
44.09363385053561
 35
0.0
146
0.0
 13
0.0
 23
0.0
 33
0.0
 16
1.0
 26
0.0
 36
0.0
 17
0.0
 27
1.0
 37
0.0
 76
     0
330
1F
331
29
  0
MLINESTYLE
  5
18
102
{ACAD_REACTORS
330
17
102
}
330
17
100
AcDbMlineStyle
  2
Standard
 70
     0
  3

 62
   256
 51
90.0
 52
90.0
 71
     2
 49
0.5
 62
   256
  6
BYLAYER
 49
-0.5
 62
   256
  6
BYLAYER
  0
ACDBPLACEHOLDER
  5
F
102
{ACAD_REACTORS
330
E
102
}
330
E
  0
SCALE
  5
48
102
{ACAD_REACTORS
330
47
102
}
330
47
100
AcDbScale
 70
     0
300
1:1
140
1.0
141
1.0
290
     1
  0
SCALE
  5
49
102
{ACAD_REACTORS
330
47
102
}
330
47
100
AcDbScale
 70
     0
300
1:2
140
1.0
141
2.0
290
     0
  0
SCALE
  5
4A
102
{ACAD_REACTORS
330
47
102
}
330
47
100
AcDbScale
 70
     0
300
1:4
140
1.0
141
4.0
290
     0
  0
SCALE
  5
4B
102
{ACAD_REACTORS
330
47
102
}
330
47
100
AcDbScale
 70
     0
300
1:5
140
1.0
141
5.0
290
     0
  0
SCALE
  5
4C
102
{ACAD_REACTORS
330
47
102
}
330
47
100
AcDbScale
 70
     0
300
1:8
140
1.0
141
8.0
290
     0
  0
SCALE
  5
4D
102
{ACAD_REACTORS
330
47
102
}
330
47
100
AcDbScale
 70
     0
300
1:10
140
1.0
141
10.0
290
     0
  0
SCALE
  5
4E
102
{ACAD_REACTORS
330
47
102
}
330
47
100
AcDbScale
 70
     0
300
1:16
140
1.0
141
16.0
290
     0
  0
SCALE
  5
4F
102
{ACAD_REACTORS
330
47
102
}
330
47
100
AcDbScale
 70
     0
300
1:20
140
1.0
141
20.0
290
     0
  0
SCALE
  5
50
102
{ACAD_REACTORS
330
47
102
}
330
47
100
AcDbScale
 70
     0
300
1:30
140
1.0
141
30.0
290
     0
  0
SCALE
  5
51
102
{ACAD_REACTORS
330
47
102
}
330
47
100
AcDbScale
 70
     0
300
1:40
140
1.0
141
40.0
290
     0
  0
SCALE
  5
52
102
{ACAD_REACTORS
330
47
102
}
330
47
100
AcDbScale
 70
     0
300
1:50
140
1.0
141
50.0
290
     0
  0
SCALE
  5
53
102
{ACAD_REACTORS
330
47
102
}
330
47
100
AcDbScale
 70
     0
300
1:100
140
1.0
141
100.0
290
     0
  0
SCALE
  5
54
102
{ACAD_REACTORS
330
47
102
}
330
47
100
AcDbScale
 70
     0
300
2:1
140
2.0
141
1.0
290
     0
  0
SCALE
  5
55
102
{ACAD_REACTORS
330
47
102
}
330
47
100
AcDbScale
 70
     0
300
4:1
140
4.0
141
1.0
290
     0
  0
SCALE
  5
56
102
{ACAD_REACTORS
330
47
102
}
330
47
100
AcDbScale
 70
     0
300
8:1
140
8.0
141
1.0
290
     0
  0
SCALE
  5
57
102
{ACAD_REACTORS
330
47
102
}
330
47
100
AcDbScale
 70
     0
300
10:1
140
10.0
141
1.0
290
     0
  0
SCALE
  5
58
102
{ACAD_REACTORS
330
47
102
}
330
47
100
AcDbScale
 70
     0
300
100:1
140
100.0
141
1.0
290
     0
  0
SCALE
  5
59
102
{ACAD_REACTORS
330
47
102
}
330
47
100
AcDbScale
 70
     0
300
1/128" = 1'-0"
140
0.0078125
141
12.0
290
     0
  0
SCALE
  5
5A
102
{ACAD_REACTORS
330
47
102
}
330
47
100
AcDbScale
 70
     0
300
1/64" = 1'-0"
140
0.015625
141
12.0
290
     0
  0
SCALE
  5
5B
102
{ACAD_REACTORS
330
47
102
}
330
47
100
AcDbScale
 70
     0
300
1/32" = 1'-0"
140
0.03125
141
12.0
290
     0
  0
SCALE
  5
5C
102
{ACAD_REACTORS
330
47
102
}
330
47
100
AcDbScale
 70
     0
300
1/16" = 1'-0"
140
0.0625
141
12.0
290
     0
  0
SCALE
  5
5D
102
{ACAD_REACTORS
330
47
102
}
330
47
100
AcDbScale
 70
     0
300
3/32" = 1'-0"
140
0.09375
141
12.0
290
     0
  0
SCALE
  5
5E
102
{ACAD_REACTORS
330
47
102
}
330
47
100
AcDbScale
 70
     0
300
1/8" = 1'-0"
140
0.125
141
12.0
290
     0
  0
SCALE
  5
5F
102
{ACAD_REACTORS
330
47
102
}
330
47
100
AcDbScale
 70
     0
300
3/16" = 1'-0"
140
0.1875
141
12.0
290
     0
  0
SCALE
  5
60
102
{ACAD_REACTORS
330
47
102
}
330
47
100
AcDbScale
 70
     0
300
1/4" = 1'-0"
140
0.25
141
12.0
290
     0
  0
SCALE
  5
61
102
{ACAD_REACTORS
330
47
102
}
330
47
100
AcDbScale
 70
     0
300
3/8" = 1'-0"
140
0.375
141
12.0
290
     0
  0
SCALE
  5
62
102
{ACAD_REACTORS
330
47
102
}
330
47
100
AcDbScale
 70
     0
300
1/2" = 1'-0"
140
0.5
141
12.0
290
     0
  0
SCALE
  5
63
102
{ACAD_REACTORS
330
47
102
}
330
47
100
AcDbScale
 70
     0
300
3/4" = 1'-0"
140
0.75
141
12.0
290
     0
  0
SCALE
  5
64
102
{ACAD_REACTORS
330
47
102
}
330
47
100
AcDbScale
 70
     0
300
1" = 1'-0"
140
1.0
141
12.0
290
     0
  0
SCALE
  5
65
102
{ACAD_REACTORS
330
47
102
}
330
47
100
AcDbScale
 70
     0
300
1-1/2" = 1'-0"
140
1.5
141
12.0
290
     0
  0
SCALE
  5
66
102
{ACAD_REACTORS
330
47
102
}
330
47
100
AcDbScale
 70
     0
300
3" = 1'-0"
140
3.0
141
12.0
290
     0
  0
SCALE
  5
67
102
{ACAD_REACTORS
330
47
102
}
330
47
100
AcDbScale
 70
     0
300
6" = 1'-0"
140
6.0
141
12.0
290
     0
  0
SCALE
  5
68
102
{ACAD_REACTORS
330
47
102
}
330
47
100
AcDbScale
 70
     0
300
1'-0" = 1'-0"
140
12.0
141
12.0
290
     0
  0
ENDSEC
  0
EOF
