  0
SECTION
  2
HEADER
  9
$ACADVER
  1
AC1015
  9
$ACADMAINTVER
 70
     6
  9
$DWGCODEPAGE
  3
ANSI_949
  9
$INSBASE
 10
0.0
 20
0.0
 30
0.0
  9
$EXTMIN
 10
-40.85370150509078
 20
-49.97073246008785
 30
0.0
  9
$EXTMAX
 10
90.4696414795995
 20
35.15507492872386
 30
0.0
  9
$LIMMIN
 10
0.0
 20
0.0
  9
$LIMMAX
 10
420.0
 20
297.0
  9
$ORTHOMODE
 70
     1
  9
$REGENMODE
 70
     1
  9
$FILLMODE
 70
     1
  9
$QTEXTMODE
 70
     0
  9
$MIRRTEXT
 70
     1
  9
$LTSCALE
 40
1.0
  9
$ATTMODE
 70
     1
  9
$TEXTSIZE
 40
3.5
  9
$TRACEWID
 40
1.0
  9
$TEXTSTYLE
  7
Standard
  9
$CLAYER
  8
0
  9
$CELTYPE
  6
ByLayer
  9
$CECOLOR
 62
   256
  9
$CELTSCALE
 40
1.0
  9
$DISPSILH
 70
     0
  9
$DIMSCALE
 40
1.0
  9
$DIMASZ
 40
3.302
  9
$DIMEXO
 40
1.0
  9
$DIMDLI
 40
3.75
  9
$DIMRND
 40
0.0
  9
$DIMDLE
 40
0.0
  9
$DIMEXE
 40
1.0
  9
$DIMTP
 40
0.0
  9
$DIMTM
 40
0.0
  9
$DIMTXT
 40
3.5
  9
$DIMCEN
 40
2.5
  9
$DIMTSZ
 40
0.0
  9
$DIMTOL
 70
     0
  9
$DIMLIM
 70
     0
  9
$DIMTIH
 70
     1
  9
$DIMTOH
 70
     1
  9
$DIMSE1
 70
     0
  9
$DIMSE2
 70
     0
  9
$DIMTAD
 70
     1
  9
$DIMZIN
 70
     0
  9
$DIMBLK
  1

  9
$DIMASO
 70
     1
  9
$DIMSHO
 70
     1
  9
$DIMPOST
  1

  9
$DIMAPOST
  1

  9
$DIMALT
 70
     0
  9
$DIMALTD
 70
     3
  9
$DIMALTF
 40
0.0393700787401575
  9
$DIMLFAC
 40
1.0
  9
$DIMTOFL
 70
     1
  9
$DIMTVP
 40
0.0
  9
$DIMTIX
 70
     0
  9
$DIMSOXD
 70
     0
  9
$DIMSAH
 70
     0
  9
$DIMBLK1
  1

  9
$DIMBLK2
  1

  9
$DIMSTYLE
  2
ISO-25
  9
$DIMCLRD
 70
     0
  9
$DIMCLRE
 70
     0
  9
$DIMCLRT
 70
     0
  9
$DIMTFAC
 40
1.0
  9
$DIMGAP
 40
1.524
  9
$DIMJUST
 70
     0
  9
$DIMSD1
 70
     0
  9
$DIMSD2
 70
     0
  9
$DIMTOLJ
 70
     0
  9
$DIMTZIN
 70
     0
  9
$DIMALTZ
 70
     0
  9
$DIMALTTZ
 70
     0
  9
$DIMUPT
 70
     0
  9
$DIMDEC
 70
     2
  9
$DIMTDEC
 70
     2
  9
$DIMALTU
 70
     2
  9
$DIMALTTD
 70
     3
  9
$DIMTXSTY
  7
Standard
  9
$DIMAUNIT
 70
     0
  9
$DIMADEC
 70
     2
  9
$DIMALTRND
 40
0.0
  9
$DIMAZIN
 70
     0
  9
$DIMDSEP
 70
    44
  9
$DIMATFIT
 70
     3
  9
$DIMFRAC
 70
     0
  9
$DIMLDRBLK
  1

  9
$DIMLUNIT
 70
     2
  9
$DIMLWD
 70
    -2
  9
$DIMLWE
 70
    -2
  9
$DIMTMOVE
 70
     0
  9
$LUNITS
 70
     2
  9
$LUPREC
 70
     2
  9
$SKETCHINC
 40
1.0
  9
$FILLETRAD
 40
10.0
  9
$AUNITS
 70
     0
  9
$AUPREC
 70
     2
  9
$MENU
  1
.
  9
$ELEVATION
 40
0.0
  9
$PELEVATION
 40
0.0
  9
$THICKNESS
 40
0.0
  9
$LIMCHECK
 70
     0
  9
$CHAMFERA
 40
0.0
  9
$CHAMFERB
 40
0.0
  9
$CHAMFERC
 40
0.0
  9
$CHAMFERD
 40
0.0
  9
$SKPOLY
 70
     0
  9
$TDCREATE
 40
2458270.696507384
  9
$TDUCREATE
 40
2458270.321507384
  9
$TDUPDATE
 40
2458274.648218391
  9
$TDUUPDATE
 40
2458274.273218391
  9
$TDINDWG
 40
0.0039585764
  9
$TDUSRTIMER
 40
2458274.269259907
  9
$USRTIMER
 70
     1
  9
$ANGBASE
 50
0.0
  9
$ANGDIR
 70
     0
  9
$PDMODE
 70
     0
  9
$PDSIZE
 40
-1.0
  9
$PLINEWID
 40
0.0
  9
$SPLFRAME
 70
     0
  9
$SPLINETYPE
 70
     6
  9
$SPLINESEGS
 70
     8
  9
$HANDSEED
  5
168
  9
$SURFTAB1
 70
     6
  9
$SURFTAB2
 70
     6
  9
$SURFTYPE
 70
     6
  9
$SURFU
 70
     6
  9
$SURFV
 70
     6
  9
$UCSBASE
  2

  9
$UCSNAME
  2

  9
$UCSORG
 10
0.0
 20
0.0
 30
0.0
  9
$UCSXDIR
 10
1.0
 20
0.0
 30
0.0
  9
$UCSYDIR
 10
0.0
 20
1.0
 30
0.0
  9
$UCSORTHOREF
  2

  9
$UCSORTHOVIEW
 70
     0
  9
$UCSORGTOP
 10
0.0
 20
0.0
 30
0.0
  9
$UCSORGBOTTOM
 10
0.0
 20
0.0
 30
0.0
  9
$UCSORGLEFT
 10
0.0
 20
0.0
 30
0.0
  9
$UCSORGRIGHT
 10
0.0
 20
0.0
 30
0.0
  9
$UCSORGFRONT
 10
0.0
 20
0.0
 30
0.0
  9
$UCSORGBACK
 10
0.0
 20
0.0
 30
0.0
  9
$PUCSBASE
  2

  9
$PUCSNAME
  2

  9
$PUCSORG
 10
0.0
 20
0.0
 30
0.0
  9
$PUCSXDIR
 10
1.0
 20
0.0
 30
0.0
  9
$PUCSYDIR
 10
0.0
 20
1.0
 30
0.0
  9
$PUCSORTHOREF
  2

  9
$PUCSORTHOVIEW
 70
     0
  9
$PUCSORGTOP
 10
0.0
 20
0.0
 30
0.0
  9
$PUCSORGBOTTOM
 10
0.0
 20
0.0
 30
0.0
  9
$PUCSORGLEFT
 10
0.0
 20
0.0
 30
0.0
  9
$PUCSORGRIGHT
 10
0.0
 20
0.0
 30
0.0
  9
$PUCSORGFRONT
 10
0.0
 20
0.0
 30
0.0
  9
$PUCSORGBACK
 10
0.0
 20
0.0
 30
0.0
  9
$USERI1
 70
     0
  9
$USERI2
 70
     0
  9
$USERI3
 70
     0
  9
$USERI4
 70
     0
  9
$USERI5
 70
     0
  9
$USERR1
 40
0.0
  9
$USERR2
 40
0.0
  9
$USERR3
 40
0.0
  9
$USERR4
 40
0.0
  9
$USERR5
 40
0.0
  9
$WORLDVIEW
 70
     1
  9
$SHADEDGE
 70
     3
  9
$SHADEDIF
 70
    70
  9
$TILEMODE
 70
     1
  9
$MAXACTVP
 70
    64
  9
$PINSBASE
 10
0.0
 20
0.0
 30
0.0
  9
$PLIMCHECK
 70
     0
  9
$PEXTMIN
 10
1.000000000000000E+20
 20
1.000000000000000E+20
 30
1.000000000000000E+20
  9
$PEXTMAX
 10
-1.000000000000000E+20
 20
-1.000000000000000E+20
 30
-1.000000000000000E+20
  9
$PLIMMIN
 10
0.0
 20
0.0
  9
$PLIMMAX
 10
0.0
 20
0.0
  9
$UNITMODE
 70
     0
  9
$VISRETAIN
 70
     1
  9
$PLINEGEN
 70
     0
  9
$PSLTSCALE
 70
     1
  9
$TREEDEPTH
 70
  3020
  9
$CMLSTYLE
  2
Standard
  9
$CMLJUST
 70
     0
  9
$CMLSCALE
 40
20.0
  9
$PROXYGRAPHICS
 70
     1
  9
$MEASUREMENT
 70
     1
  9
$CELWEIGHT
370
    -1
  9
$ENDCAPS
280
     0
  9
$JOINSTYLE
280
     0
  9
$LWDISPLAY
290
     1
  9
$INSUNITS
 70
     4
  9
$HYPERLINKBASE
  1

  9
$STYLESHEET
  1

  9
$XEDIT
290
     1
  9
$CEPSNTYPE
380
     0
  9
$PSTYLEMODE
290
     1
  9
$FINGERPRINTGUID
  2
{BD9248C6-01AD-4A4D-B2B9-84F94D931852}
  9
$VERSIONGUID
  2
{FAEB1C32-E019-11D5-929B-00C0DF256EC4}
  9
$EXTNAMES
290
     1
  9
$PSVPSCALE
 40
0.0
  9
$OLESTARTUP
290
     0
  0
ENDSEC
  0
SECTION
  2
CLASSES
  0
CLASS
  1
ACDBDICTIONARYWDFLT
  2
AcDbDictionaryWithDefault
  3
ObjectDBX Classes
 90
        0
280
     0
281
     0
  0
CLASS
  1
VISUALSTYLE
  2
AcDbVisualStyle
  3
ObjectDBX Classes
 90
     4095
280
     0
281
     0
  0
CLASS
  1
MATERIAL
  2
AcDbMaterial
  3
ObjectDBX Classes
 90
     1153
280
     0
281
     0
  0
CLASS
  1
SCALE
  2
AcDbScale
  3
ObjectDBX Classes
 90
     1153
280
     0
281
     0
  0
CLASS
  1
SUN
  2
AcDbSun
  3
SCENEOE
 90
     1153
280
     0
281
     0
  0
CLASS
  1
ACDBPLACEHOLDER
  2
AcDbPlaceHolder
  3
ObjectDBX Classes
 90
        0
280
     0
281
     0
  0
CLASS
  1
LAYOUT
  2
AcDbLayout
  3
ObjectDBX Classes
 90
        0
280
     0
281
     0
  0
CLASS
  1
TABLESTYLE
  2
AcDbTableStyle
  3
ObjectDBX Classes
 90
     4095
280
     0
281
     0
  0
CLASS
  1
MLEADERSTYLE
  2
AcDbMLeaderStyle
  3
ACDB_MLEADERSTYLE_CLASS
 90
     4095
280
     0
281
     0
  0
CLASS
  1
RASTERVARIABLES
  2
AcDbRasterVariables
  3
ISM
 90
        0
280
     0
281
     0
  0
CLASS
  1
DIMASSOC
  2
AcDbDimAssoc
  3
"AcDbDimAssoc|Product Desc:     AcDim ARX App For Dimension|Company:          Autodesk, Inc.|WEB Address:      www.autodesk.com"
 90
        0
280
     0
281
     0
  0
ENDSEC
  0
SECTION
  2
TABLES
  0
TABLE
  2
VPORT
  5
8
330
0
100
AcDbSymbolTable
 70
     1
  0
VPORT
  5
29
330
8
100
AcDbSymbolTableRecord
100
AcDbViewportTableRecord
  2
*Active
 70
     0
 10
0.0
 20
0.0
 11
1.0
 21
1.0
 12
-17.64010660760977
 22
0.018457477159318
 13
0.0
 23
0.0
 14
10.0
 24
10.0
 15
10.0
 25
10.0
 16
0.0
 26
0.0
 36
1.0
 17
0.0
 27
0.0
 37
0.0
 40
116.5867969732646
 41
2.213513513513513
 42
50.0
 43
0.0
 44
0.0
 50
0.0
 51
0.0
 71
    16
 72
  2000
 73
     1
 74
     3
 75
     0
 76
     0
 77
     0
 78
     0
281
     0
 65
     1
110
0.0
120
0.0
130
0.0
111
1.0
121
0.0
131
0.0
112
0.0
122
1.0
132
0.0
 79
     0
146
0.0
  0
ENDTAB
  0
TABLE
  2
LTYPE
  5
5
330
0
100
AcDbSymbolTable
 70
     6
  0
LTYPE
  5
14
330
5
100
AcDbSymbolTableRecord
100
AcDbLinetypeTableRecord
  2
ByBlock
 70
     0
  3

 72
    65
 73
     0
 40
0.0
  0
LTYPE
  5
15
330
5
100
AcDbSymbolTableRecord
100
AcDbLinetypeTableRecord
  2
ByLayer
 70
     0
  3

 72
    65
 73
     0
 40
0.0
  0
LTYPE
  5
16
330
5
100
AcDbSymbolTableRecord
100
AcDbLinetypeTableRecord
  2
Continuous
 70
     0
  3
Solid line
 72
    65
 73
     0
 40
0.0
  0
LTYPE
  5
6A
330
5
100
AcDbSymbolTableRecord
100
AcDbLinetypeTableRecord
  2
HIDDEN
 70
     0
  3
Hidden __ __ __ __ __ __ __ __ __ __ __ __ __ __
 72
    65
 73
     2
 40
1.905
 49
1.27
 74
     0
 49
-0.635
 74
     0
  0
LTYPE
  5
6B
330
5
100
AcDbSymbolTableRecord
100
AcDbLinetypeTableRecord
  2
PHANTOM
 70
     0
  3
Phantom ______  __  __  ______  __  __  ______
 72
    65
 73
     6
 40
12.7
 49
6.35
 74
     0
 49
-1.27
 74
     0
 49
1.27
 74
     0
 49
-1.27
 74
     0
 49
1.27
 74
     0
 49
-1.27
 74
     0
  0
LTYPE
  5
6C
330
5
100
AcDbSymbolTableRecord
100
AcDbLinetypeTableRecord
  2
CENTER
 70
     0
  3
Center ____ _ ____ _ ____ _ ____ _ ____ _ ____
 72
    65
 73
     4
 40
10.16
 49
6.35
 74
     0
 49
-1.27
 74
     0
 49
1.27
 74
     0
 49
-1.27
 74
     0
  0
LTYPE
  5
6D
330
5
100
AcDbSymbolTableRecord
100
AcDbLinetypeTableRecord
  2
CENTERX2
 70
     0
  3
Center (2x) ________  __  ________  __  _____
 72
    65
 73
     4
 40
20.32
 49
12.7
 74
     0
 49
-2.54
 74
     0
 49
2.54
 74
     0
 49
-2.54
 74
     0
  0
LTYPE
  5
6E
330
5
100
AcDbSymbolTableRecord
100
AcDbLinetypeTableRecord
  2
DOT2
 70
     0
  3
Dot (.5x) ........................................
 72
    65
 73
     2
 40
0.635
 49
0.0
 74
     0
 49
-0.635
 74
     0
  0
ENDTAB
  0
TABLE
  2
LAYER
  5
2
330
0
100
AcDbSymbolTable
 70
    18
  0
LAYER
  5
10
330
2
100
AcDbSymbolTableRecord
100
AcDbLayerTableRecord
  2
0
 70
     0
 62
     7
  6
Continuous
370
    -3
390
F
  0
LAYER
  5
6F
330
2
100
AcDbSymbolTableRecord
100
AcDbLayerTableRecord
  2
FORMAT
 70
     0
 62
     2
  6
Continuous
370
    -3
390
F
  0
LAYER
  5
70
330
2
100
AcDbSymbolTableRecord
100
AcDbLayerTableRecord
  2
외형선
 70
     0
 62
     4
  6
Continuous
370
    30
390
F
  0
LAYER
  5
71
330
2
100
AcDbSymbolTableRecord
100
AcDbLayerTableRecord
  2
숨은선
 70
     0
 62
     2
  6
HIDDEN
370
    15
390
F
  0
LAYER
  5
72
330
2
100
AcDbSymbolTableRecord
100
AcDbLayerTableRecord
  2
중심선
 70
     0
 62
     1
  6
CENTERX2
370
    -3
390
F
  0
LAYER
  5
73
330
2
100
AcDbSymbolTableRecord
100
AcDbLayerTableRecord
  2
파단선
 70
     0
 62
     4
  6
Continuous
370
    -3
390
F
  0
LAYER
  5
74
330
2
100
AcDbSymbolTableRecord
100
AcDbLayerTableRecord
  2
해칭선
 70
     0
 62
   100
  6
Continuous
370
    -3
390
F
  0
LAYER
  5
75
330
2
100
AcDbSymbolTableRecord
100
AcDbLayerTableRecord
  2
가는실선
 70
     0
 62
     4
  6
Continuous
370
    -3
390
F
  0
LAYER
  5
76
330
2
100
AcDbSymbolTableRecord
100
AcDbLayerTableRecord
  2
치수_보조선
 70
     0
 62
     4
  6
Continuous
370
    -3
390
F
  0
LAYER
  5
77
330
2
100
AcDbSymbolTableRecord
100
AcDbLayerTableRecord
  2
치수문자_일반주서
 70
     0
 62
     7
  6
Continuous
370
    15
390
F
  0
LAYER
  5
78
330
2
100
AcDbSymbolTableRecord
100
AcDbLayerTableRecord
  2
개별주서
 70
     0
 62
   100
  6
Continuous
370
    30
390
F
  0
LAYER
  5
79
330
2
100
AcDbSymbolTableRecord
100
AcDbLayerTableRecord
  2
중간선
 70
     0
 62
     2
  6
Continuous
370
    15
390
F
  0
LAYER
  5
7A
330
2
100
AcDbSymbolTableRecord
100
AcDbLayerTableRecord
  2
윤곽선
 70
     0
 62
     3
  6
Continuous
370
    40
390
F
  0
LAYER
  5
7B
330
2
100
AcDbSymbolTableRecord
100
AcDbLayerTableRecord
  2
중심마크
 70
     0
 62
   100
  6
Continuous
370
    30
390
F
  0
LAYER
  5
7C
330
2
100
AcDbSymbolTableRecord
100
AcDbLayerTableRecord
  2
가상선
 70
     0
 62
     4
  6
PHANTOM
370
    -3
390
F
  0
LAYER
  5
7D
330
2
100
AcDbSymbolTableRecord
100
AcDbLayerTableRecord
  2
특수지정선
 70
     0
 62
     5
  6
CENTERX2
370
    60
390
F
  0
LAYER
  5
7E
330
2
100
AcDbSymbolTableRecord
100
AcDbLayerTableRecord
  2
참조1
 70
     0
 62
    -4
  6
Continuous
370
    -3
390
F
  0
LAYER
  5
146
330
2
100
AcDbSymbolTableRecord
100
AcDbLayerTableRecord
  2
Defpoints
 70
     0
 62
     7
  6
Continuous
290
     0
370
    -3
390
F
  0
ENDTAB
  0
TABLE
  2
STYLE
  5
3
330
0
100
AcDbSymbolTable
 70
     2
  0
STYLE
  5
11
330
3
100
AcDbSymbolTableRecord
100
AcDbTextStyleTableRecord
  2
Standard
 70
     0
 40
0.0
 41
1.0
 50
0.0
 71
     0
 42
3.5
  3
txt
  4

  0
STYLE
  5
94
330
3
100
AcDbSymbolTableRecord
100
AcDbTextStyleTableRecord
  2
SLDTEXTSTYLE0
 70
     0
 40
0.0
 41
0.75
 50
0.0
 71
     0
 42
3.5
  3
TXT
  4

  0
ENDTAB
  0
TABLE
  2
VIEW
  5
6
330
0
100
AcDbSymbolTable
 70
     0
  0
ENDTAB
  0
TABLE
  2
UCS
  5
7
330
0
100
AcDbSymbolTable
 70
     0
  0
ENDTAB
  0
TABLE
  2
APPID
  5
9
330
0
100
AcDbSymbolTable
 70
     3
  0
APPID
  5
12
330
9
100
AcDbSymbolTableRecord
100
AcDbRegAppTableRecord
  2
ACAD
 70
     0
  0
APPID
  5
166
330
9
100
AcDbSymbolTableRecord
100
AcDbRegAppTableRecord
  2
ACAD_DSTYLE_DIMFLIPARROW_SYMBOL
 70
     0
  0
APPID
  5
167
330
9
100
AcDbSymbolTableRecord
100
AcDbRegAppTableRecord
  2
ACAD_DSTYLE_DIMFLIPARROW_WHICH_SYMBOL
 70
     0
  0
ENDTAB
  0
TABLE
  2
DIMSTYLE
  5
A
330
0
100
AcDbSymbolTable
 70
     4
100
AcDbDimStyleTable
  0
DIMSTYLE
105
27
330
A
100
AcDbSymbolTableRecord
100
AcDbDimStyleTableRecord
  2
ISO-25
 70
     0
 41
2.5
 42
0.625
 43
3.75
 44
1.25
 73
     0
 74
     0
 77
     1
 78
     8
140
2.5
141
2.5
143
0.03937007874016
147
0.625
171
     3
172
     1
178
     0
271
     2
272
     2
274
     3
278
    44
283
     0
284
     8
340
11
  0
DIMSTYLE
105
C3
102
{ACAD_REACTORS
330
C2
102
}
330
A
100
AcDbSymbolTableRecord
100
AcDbDimStyleTableRecord
  2
SLDDIMSTYLE0
 70
     0
 41
3.302
 44
0.0
 45
0.000000001
 73
     0
 74
     0
 77
     1
 78
    12
 79
     3
140
3.5
143
0.0393700787401575
147
0.875
148
0.000000001
170
     1
173
     1
178
     0
271
     2
272
     2
276
     2
284
    12
340
94
  0
DIMSTYLE
105
D8
102
{ACAD_REACTORS
330
D7
102
}
330
A
100
AcDbSymbolTableRecord
100
AcDbDimStyleTableRecord
  2
SLDDIMSTYLE1
 70
     0
 41
3.302
 44
0.0
 45
0.000000001
 73
     0
 74
     0
 77
     1
 78
     4
 79
     1
140
3.5
143
0.0393700787401575
147
0.875
148
0.000000001
170
     1
173
     1
178
     0
271
     2
272
     2
276
     2
284
    12
340
94
  0
DIMSTYLE
105
EC
102
{ACAD_REACTORS
330
100
330
152
102
}
330
A
100
AcDbSymbolTableRecord
100
AcDbDimStyleTableRecord
  2
SLDDIMSTYLE2
 70
     0
 41
3.302
 44
0.0
 45
0.000000001
 73
     0
 74
     0
 77
     1
 78
    12
 79
     3
140
3.5
143
0.0393700787401575
147
0.875
148
0.000000001
170
     1
172
     1
173
     1
178
     0
271
     2
272
     2
276
     2
284
    12
289
     0
340
94
  0
ENDTAB
  0
TABLE
  2
BLOCK_RECORD
  5
1
330
0
100
AcDbSymbolTable
 70
     8
  0
BLOCK_RECORD
  5
1F
330
1
100
AcDbSymbolTableRecord
100
AcDbBlockTableRecord
  2
*Model_Space
340
22
  0
BLOCK_RECORD
  5
1B
330
1
100
AcDbSymbolTableRecord
100
AcDbBlockTableRecord
  2
*Paper_Space
340
1E
  0
BLOCK_RECORD
  5
23
330
1
100
AcDbSymbolTableRecord
100
AcDbBlockTableRecord
  2
*Paper_Space0
340
26
  0
BLOCK_RECORD
  5
7F
330
1
100
AcDbSymbolTableRecord
100
AcDbBlockTableRecord
  2
블럭10
340
0
102
{BLKREFS
331
B9
102
}
  0
BLOCK_RECORD
  5
C4
330
1
100
AcDbSymbolTableRecord
100
AcDbBlockTableRecord
  2
_D
340
0
  0
BLOCK_RECORD
  5
D9
330
1
100
AcDbSymbolTableRecord
100
AcDbBlockTableRecord
  2
_D_1
340
0
  0
BLOCK_RECORD
  5
ED
330
1
100
AcDbSymbolTableRecord
100
AcDbBlockTableRecord
  2
_D_2
340
0
  0
BLOCK_RECORD
  5
101
330
1
100
AcDbSymbolTableRecord
100
AcDbBlockTableRecord
  2
_D_3
340
0
  0
BLOCK_RECORD
  5
11B
330
1
100
AcDbSymbolTableRecord
100
AcDbBlockTableRecord
  2
SW_DOWELSYMBOL_0
340
0
102
{BLKREFS
331
121
102
}
  0
BLOCK_RECORD
  5
155
330
1
100
AcDbSymbolTableRecord
100
AcDbBlockTableRecord
  2
*D7
340
0
  0
ENDTAB
  0
ENDSEC
  0
SECTION
  2
BLOCKS
  0
BLOCK
  5
20
330
1F
100
AcDbEntity
  8
0
100
AcDbBlockBegin
  2
*Model_Space
 70
     0
 10
0.0
 20
0.0
 30
0.0
  3
*Model_Space
  1
*Model_Space
  0
ENDBLK
  5
21
330
1F
100
AcDbEntity
  8
0
100
AcDbBlockEnd
  0
BLOCK
  5
1C
330
1B
100
AcDbEntity
 67
     1
  8
0
100
AcDbBlockBegin
  2
*Paper_Space
 70
     0
 10
0.0
 20
0.0
 30
0.0
  3
*Paper_Space
  1
*Paper_Space
  0
ENDBLK
  5
1D
330
1B
100
AcDbEntity
 67
     1
  8
0
100
AcDbBlockEnd
  0
BLOCK
  5
24
330
23
100
AcDbEntity
  8
0
100
AcDbBlockBegin
  2
*Paper_Space0
 70
     0
 10
0.0
 20
0.0
 30
0.0
  3
*Paper_Space0
  1
*Paper_Space0
  0
ENDBLK
  5
25
330
23
100
AcDbEntity
  8
0
100
AcDbBlockEnd
  0
BLOCK
  5
80
330
7F
100
AcDbEntity
  8
0
100
AcDbBlockBegin
  2
블럭10
 70
     2
 10
0.0
 20
0.0
 30
0.0
  3
블럭10
  1
블럭10
  0
ELLIPSE
  5
82
330
7F
100
AcDbEntity
  8
중심선
100
AcDbEllipse
 10
20.54032771741204
 20
12.0471743016438
 30
0.0
 11
6.600054785286829
 21
-1.261213355974178E-13
 31
0.0
210
0.0
220
0.0
230
1.0
 40
0.636358354079598
 41
0.9219305317359503
 42
6.513795318482858
  0
ELLIPSE
  5
83
330
7F
100
AcDbEntity
  8
중심선
100
AcDbEllipse
 10
20.54032771746488
 20
12.04717430159265
 30
0.0
 11
3.960054785062283
 21
1.540847449632565E-10
 31
0.0
210
0.0
220
0.0
230
1.0
 40
0.3939339440162632
 41
1.131841032648279
 42
5.62031148352944
  0
LINE
  5
84
330
7F
100
AcDbEntity
  8
중심선
100
AcDbLine
 10
2.268634060543552
 20
16.24717430164393
 30
0.0
 11
5.714909304380834
 21
16.24717430164393
 31
0.0
  0
LINE
  5
85
330
7F
100
AcDbEntity
  8
중심선
100
AcDbLine
 10
5.245725140726316
 20
7.84717430164391
 30
0.0
 11
8.692000384563599
 21
7.84717430164391
 31
0.0
  0
LINE
  5
86
330
7F
100
AcDbEntity
  8
중심선
100
AcDbLine
 10
15.74043728645272
 20
16.24717430164393
 30
0.0
 11
8.692000384563599
 21
7.84717430164391
 31
0.0
  0
LINE
  5
87
330
7F
100
AcDbEntity
  8
중심선
100
AcDbLine
 10
0.1404042013395286
 20
13.71084872107135
 30
0.0
 11
3.58671253028996
 21
13.71088815037384
 31
0.0
  0
LINE
  5
88
330
7F
100
AcDbEntity
  8
중심선
100
AcDbLine
 10
2.750260043222114
 20
10.84717430164391
 30
0.0
 11
6.196535287059397
 21
10.84717430164391
 31
0.0
  0
LINE
  5
89
330
7F
100
AcDbEntity
  8
중심선
100
AcDbLine
 10
12.29416204261559
 20
16.24717430164393
 30
0.0
 11
5.245725140726316
 21
7.84717430164391
 31
0.0
  0
LINE
  5
8A
330
7F
100
AcDbEntity
  8
중심선
100
AcDbLine
 10
10.72767329541681
 20
16.24717430164393
 30
0.0
 11
6.196535287059397
 21
10.84717430164391
 31
0.0
  0
LINE
  5
8B
330
7F
100
AcDbEntity
  8
중심선
100
AcDbLine
 10
7.28139805157953
 20
16.24717430164393
 30
0.0
 11
2.750260043222114
 21
10.84717430164391
 31
0.0
  0
LINE
  5
8C
330
7F
100
AcDbEntity
  8
중심선
100
AcDbLine
 10
5.714909304380834
 20
16.24717430164393
 30
0.0
 11
3.58671253028996
 21
13.71088815037384
 31
0.0
  0
LINE
  5
8D
330
7F
100
AcDbEntity
  8
중심선
100
AcDbLine
 10
2.268634060543552
 20
16.24717430164393
 30
0.0
 11
0.1404042013395286
 21
13.71084872107135
 31
0.0
  0
LINE
  5
8E
330
7F
100
AcDbEntity
  8
중심선
100
AcDbLine
 10
7.28139805157953
 20
16.24717430164393
 30
0.0
 11
10.72767329541681
 21
16.24717430164393
 31
0.0
  0
LINE
  5
8F
330
7F
100
AcDbEntity
  8
중심선
100
AcDbLine
 10
12.29416204261559
 20
16.24717430164393
 30
0.0
 11
15.74043728645272
 21
16.24717430164393
 31
0.0
  0
LINE
  5
90
330
7F
100
AcDbEntity
  8
중심선
100
AcDbLine
 10
19.22036997980202
 20
11.08717430171403
 30
0.0
 11
23.66174974927406
 21
11.08717430171406
 31
0.0
  0
LINE
  5
91
330
7F
100
AcDbEntity
  8
중심선
100
AcDbLine
 10
19.22039502424796
 20
13.00717430171391
 30
0.0
 11
19.22036997980202
 21
11.08717430171403
 31
0.0
  0
LINE
  5
92
330
7F
100
AcDbEntity
  8
중심선
100
AcDbLine
 10
19.22039502424796
 20
13.00717430171391
 30
0.0
 11
26.96566020931264
 21
13.00717430171391
 31
0.0
  0
LINE
  5
93
330
7F
100
AcDbEntity
  8
중심선
100
AcDbLine
 10
22.22332737316547
 20
13.45928029700563
 30
0.0
 11
24.52862924686651
 21
15.39360700705356
 31
0.0
  0
ATTDEF
  5
95
330
7F
100
AcDbEntity
  8
FORMAT
 62
     2
100
AcDbText
 10
5.200277315438102
 20
2.075366912832191
 30
0.0
 40
4.233333333333333
  1
EI106016
 41
0.75
  7
SLDTEXTSTYLE0
 11
5.200277315438102
 21
-0.0412997538344756
 31
0.0
100
AcDbAttributeDefinition
  3

  2
AUTOATTR0
 70
     0
 74
     1
  0
ENDBLK
  5
81
330
7F
100
AcDbEntity
  8
0
100
AcDbBlockEnd
  0
BLOCK
  5
C5
330
C4
100
AcDbEntity
  8
0
100
AcDbBlockBegin
  2
_D
 70
     0
 10
0.0
 20
0.0
 30
0.0
  3
_D
  1
_D
  0
LINE
  5
C7
330
C4
100
AcDbEntity
  8
치수문자_일반주서
 62
     0
370
    -2
100
AcDbLine
 10
39.40615766425395
 20
3.178054918056914
 30
0.0
 11
39.40615766425395
 21
19.34502863615512
 31
0.0
  0
LINE
  5
C8
330
C4
100
AcDbEntity
  8
치수문자_일반주서
 62
     0
370
    -2
100
AcDbLine
 10
20.35615766425389
 20
3.238574928723904
 30
0.0
 11
20.35615766425389
 21
19.34502863615512
 31
0.0
  0
LINE
  5
C9
330
C4
100
AcDbEntity
  8
치수문자_일반주서
 62
     0
370
    -2
100
AcDbLine
 10
20.35615766425389
 20
19.34502863615512
 30
0.0
 11
-7.883342335746111
 21
19.34502863615512
 31
0.0
  0
LINE
  5
CA
330
C4
100
AcDbEntity
  8
치수문자_일반주서
 62
     0
370
    -2
100
AcDbLine
 10
36.10415766425395
 20
19.34502863615512
 30
0.0
 11
23.65815766425389
 21
19.34502863615512
 31
0.0
  0
SOLID
  5
CB
330
C4
100
AcDbEntity
  8
치수문자_일반주서
 62
     0
100
AcDbTrace
 10
36.10415766425395
 20
18.79469530282178
 30
0.0
 11
36.10415766425395
 21
19.89536196948845
 31
0.0
 12
39.40615766425395
 22
19.34502863615512
 32
0.0
 13
39.40615766425395
 23
19.34502863615512
 33
0.0
  0
SOLID
  5
CC
330
C4
100
AcDbEntity
  8
치수문자_일반주서
 62
     0
100
AcDbTrace
 10
23.65815766425389
 20
19.89536196948845
 30
0.0
 11
23.65815766425389
 21
18.79469530282178
 31
0.0
 12
20.35615766425389
 22
19.34502863615512
 32
0.0
 13
20.35615766425389
 23
19.34502863615512
 33
0.0
  0
MTEXT
  5
CD
330
C4
100
AcDbEntity
  8
치수문자_일반주서
 62
     0
100
AcDbMText
 10
4.585407664253889
 20
23.72002863615512
 30
0.0
 40
3.5
 41
0.0
 71
     2
 72
     1
  1
\A1;19.05 [3/4]
  7
SLDTEXTSTYLE0
 73
     1
 44
1.0
  0
POINT
  5
CE
330
C4
100
AcDbEntity
  8
Defpoints
 62
     0
100
AcDbPoint
 10
39.40615766425395
 20
3.115554918056914
 30
0.0
  0
POINT
  5
CF
330
C4
100
AcDbEntity
  8
Defpoints
 62
     0
100
AcDbPoint
 10
20.35615766425389
 20
3.176074928723904
 30
0.0
  0
POINT
  5
D0
330
C4
100
AcDbEntity
  8
Defpoints
 62
     0
100
AcDbPoint
 10
20.35615766425389
 20
19.34502863615512
 30
0.0
  0
ENDBLK
  5
C6
330
C4
100
AcDbEntity
  8
0
100
AcDbBlockEnd
  0
BLOCK
  5
DA
330
D9
100
AcDbEntity
  8
0
100
AcDbBlockBegin
  2
_D_1
 70
     0
 10
0.0
 20
0.0
 30
0.0
  3
_D_1
  1
_D_1
  0
LINE
  5
DC
330
D9
100
AcDbEntity
  8
치수문자_일반주서
 62
     0
370
    -2
100
AcDbLine
 10
39.40615766425395
 20
3.178054918056914
 30
0.0
 11
39.40615766425395
 21
28.56034423427361
 31
0.0
  0
LINE
  5
DD
330
D9
100
AcDbEntity
  8
치수문자_일반주서
 62
     0
370
    -2
100
AcDbLine
 10
-24.0938423357461
 20
2.603574928723908
 30
0.0
 11
-24.0938423357461
 21
28.56034423427361
 31
0.0
  0
LINE
  5
DE
330
D9
100
AcDbEntity
  8
치수문자_일반주서
 62
     0
370
    -2
100
AcDbLine
 10
36.10415766425395
 20
28.56034423427361
 30
0.0
 11
-20.7918423357461
 21
28.56034423427361
 31
0.0
  0
SOLID
  5
DF
330
D9
100
AcDbEntity
  8
치수문자_일반주서
 62
     0
100
AcDbTrace
 10
36.10415766425395
 20
28.01001090094028
 30
0.0
 11
36.10415766425395
 21
29.11067756760695
 31
0.0
 12
39.40615766425395
 22
28.56034423427361
 32
0.0
 13
39.40615766425395
 23
28.56034423427361
 33
0.0
  0
SOLID
  5
E0
330
D9
100
AcDbEntity
  8
치수문자_일반주서
 62
     0
100
AcDbTrace
 10
-20.7918423357461
 20
29.11067756760695
 30
0.0
 11
-20.7918423357461
 21
28.01001090094028
 31
0.0
 12
-24.0938423357461
 22
28.56034423427361
 32
0.0
 13
-24.0938423357461
 23
28.56034423427361
 33
0.0
  0
MTEXT
  5
E1
330
D9
100
AcDbEntity
  8
치수문자_일반주서
 62
     0
100
AcDbMText
 10
8.879672606058874
 20
32.93534423427361
 30
0.0
 40
3.5
 41
0.0
 71
     2
 72
     1
  1
\A1;63.50 [2 1/2]
  7
SLDTEXTSTYLE0
 73
     1
 44
1.0
  0
POINT
  5
E2
330
D9
100
AcDbEntity
  8
Defpoints
 62
     0
100
AcDbPoint
 10
39.40615766425395
 20
3.115554918056914
 30
0.0
  0
POINT
  5
E3
330
D9
100
AcDbEntity
  8
Defpoints
 62
     0
100
AcDbPoint
 10
-24.0938423357461
 20
2.541074928723908
 30
0.0
  0
POINT
  5
E4
330
D9
100
AcDbEntity
  8
Defpoints
 62
     0
100
AcDbPoint
 10
-24.0938423357461
 20
28.56034423427361
 30
0.0
  0
ENDBLK
  5
DB
330
D9
100
AcDbEntity
  8
0
100
AcDbBlockEnd
  0
BLOCK
  5
EE
330
ED
100
AcDbEntity
  8
0
100
AcDbBlockBegin
  2
_D_2
 70
     0
 10
0.0
 20
0.0
 30
0.0
  3
_D_2
  1
_D_2
  0
LINE
  5
F0
330
ED
100
AcDbEntity
  8
치수문자_일반주서
 62
     0
370
    -2
100
AcDbLine
 10
39.46865766425395
 20
3.164399156826309
 30
0.0
 11
83.29664573920176
 21
3.164399156826473
 31
0.0
  0
LINE
  5
F1
330
ED
100
AcDbEntity
  8
치수문자_일반주서
 62
     0
370
    -2
100
AcDbLine
 10
39.46111131043112
 20
-3.173925071276106
 30
0.0
 11
83.2966457392018
 21
-3.173925071275942
 31
0.0
  0
LINE
  5
F2
330
ED
100
AcDbEntity
  8
치수문자_일반주서
 62
     0
370
    -2
100
AcDbLine
 10
83.29664573920176
 20
3.164399156826473
 30
0.0
 11
83.29664573920161
 21
37.16889538311237
 31
0.0
  0
LINE
  5
F3
330
ED
100
AcDbEntity
  8
치수문자_일반주서
 62
     0
370
    -2
100
AcDbLine
 10
83.29664573920176
 20
3.164399156826473
 30
0.0
 11
83.2966457392018
 21
-3.173925071275942
 31
0.0
  0
LINE
  5
F4
330
ED
100
AcDbEntity
  8
치수문자_일반주서
 62
     0
370
    -2
100
AcDbLine
 10
83.29664573920175
 20
6.466399156826473
 30
0.0
 11
83.29664573920174
 21
9.768399156826472
 31
0.0
  0
LINE
  5
F5
330
ED
100
AcDbEntity
  8
치수문자_일반주서
 62
     0
370
    -2
100
AcDbLine
 10
83.29664573920181
 20
-6.475925071275942
 30
0.0
 11
83.29664573920182
 21
-9.777925071275941
 31
0.0
  0
SOLID
  5
F6
330
ED
100
AcDbEntity
  8
치수문자_일반주서
 62
     0
100
AcDbTrace
 10
82.74631240586842
 20
6.46639915682647
 30
0.0
 11
83.84697907253508
 21
6.466399156826475
 31
0.0
 12
83.29664573920176
 22
3.164399156826473
 32
0.0
 13
83.29664573920176
 23
3.164399156826473
 33
0.0
  0
SOLID
  5
F7
330
ED
100
AcDbEntity
  8
치수문자_일반주서
 62
     0
100
AcDbTrace
 10
83.84697907253513
 20
-6.475925071275939
 30
0.0
 11
82.74631240586848
 21
-6.475925071275944
 31
0.0
 12
83.2966457392018
 22
-3.173925071275942
 32
0.0
 13
83.2966457392018
 23
-3.173925071275942
 33
0.0
  0
MTEXT
  5
F8
330
ED
100
AcDbEntity
  8
치수문자_일반주서
 62
     0
100
AcDbMText
 10
78.92164573920167
 20
24.48139538311236
 30
0.0
 40
3.5
 41
0.0
 71
     2
 72
     1
  1
\A1;%%c6.34 [1/4]
  7
SLDTEXTSTYLE0
 11
-4.484104695116389E-15
 21
1.0
 31
0.0
 73
     1
 44
1.0
  0
POINT
  5
F9
330
ED
100
AcDbEntity
  8
Defpoints
 62
     0
100
AcDbPoint
 10
39.40615766425395
 20
3.164399156826308
 30
0.0
  0
POINT
  5
FA
330
ED
100
AcDbEntity
  8
Defpoints
 62
     0
100
AcDbPoint
 10
39.39861131043112
 20
-3.173925071276107
 30
0.0
  0
POINT
  5
FB
330
ED
100
AcDbEntity
  8
Defpoints
 62
     0
100
AcDbPoint
 10
83.2966457392018
 20
-3.173925071275943
 30
0.0
  0
ENDBLK
  5
EF
330
ED
100
AcDbEntity
  8
0
100
AcDbBlockEnd
  0
BLOCK
  5
102
330
101
100
AcDbEntity
  8
0
100
AcDbBlockBegin
  2
_D_3
 70
     0
 10
0.0
 20
0.0
 30
0.0
  3
_D_3
  1
_D_3
  0
LINE
  5
104
330
101
100
AcDbEntity
  8
치수문자_일반주서
 62
     0
370
    -2
100
AcDbLine
 10
-23.5213423357461
 20
3.176074928723904
 30
0.0
 11
-36.47870150509076
 21
3.176074928723857
 31
0.0
  0
LINE
  5
105
330
101
100
AcDbEntity
  8
치수문자_일반주서
 62
     0
370
    -2
100
AcDbLine
 10
-23.5213423357461
 20
-3.173925071276118
 30
0.0
 11
-36.47870150509074
 21
-3.173925071276162
 31
0.0
  0
LINE
  5
106
330
101
100
AcDbEntity
  8
치수문자_일반주서
 62
     0
370
    -2
100
AcDbLine
 10
-36.47870150509076
 20
3.176074928723857
 30
0.0
 11
-36.47870150509087
 21
35.15507492872386
 31
0.0
  0
LINE
  5
107
330
101
100
AcDbEntity
  8
치수문자_일반주서
 62
     0
370
    -2
100
AcDbLine
 10
-36.47870150509075
 20
-0.1259250712761428
 30
0.0
 11
-36.47870150509075
 21
0.1280749287238372
 31
0.0
  0
SOLID
  5
108
330
101
100
AcDbEntity
  8
치수문자_일반주서
 62
     0
100
AcDbTrace
 10
-35.92836817175741
 20
-0.125925071276141
 30
0.0
 11
-37.02903483842408
 21
-0.1259250712761447
 31
0.0
 12
-36.47870150509076
 22
3.176074928723857
 32
0.0
 13
-36.47870150509076
 23
3.176074928723857
 33
0.0
  0
SOLID
  5
109
330
101
100
AcDbEntity
  8
치수문자_일반주서
 62
     0
100
AcDbTrace
 10
-37.02903483842409
 20
0.1280749287238353
 30
0.0
 11
-35.92836817175742
 21
0.128074928723839
 31
0.0
 12
-36.47870150509074
 22
-3.173925071276162
 32
0.0
 13
-36.47870150509074
 23
-3.173925071276162
 33
0.0
  0
MTEXT
  5
10A
330
101
100
AcDbEntity
  8
치수문자_일반주서
 62
     0
100
AcDbMText
 10
-40.85370150509083
 20
22.46757492872384
 30
0.0
 40
3.5
 41
0.0
 71
     2
 72
     1
  1
\A1;%%c6.35 [1/4]
  7
SLDTEXTSTYLE0
 11
-3.356894814614635E-15
 21
1.0
 31
0.0
 73
     1
 44
1.0
  0
POINT
  5
10B
330
101
100
AcDbEntity
  8
Defpoints
 62
     0
100
AcDbPoint
 10
-23.4588423357461
 20
3.176074928723904
 30
0.0
  0
POINT
  5
10C
330
101
100
AcDbEntity
  8
Defpoints
 62
     0
100
AcDbPoint
 10
-23.4588423357461
 20
-3.173925071276118
 30
0.0
  0
POINT
  5
147
330
101
100
AcDbEntity
  8
Defpoints
 62
     0
100
AcDbPoint
 10
-36.47870150509074
 20
-3.173925071276163
 30
0.0
  0
ENDBLK
  5
103
330
101
100
AcDbEntity
  8
0
100
AcDbBlockEnd
  0
BLOCK
  5
11C
330
11B
100
AcDbEntity
  8
0
100
AcDbBlockBegin
  2
SW_DOWELSYMBOL_0
 70
     0
 10
0.0
 20
0.0
 30
0.0
  3
SW_DOWELSYMBOL_0
  1
SW_DOWELSYMBOL_0
  0
CIRCLE
  5
11E
330
11B
100
AcDbEntity
  8
해칭선
 62
     0
100
AcDbCircle
 10
0.0
 20
0.0
 30
0.0
 40
3.000000000000001
  0
HATCH
  5
11F
330
11B
100
AcDbEntity
  8
0
  6
Continuous
 62
     0
370
     0
100
AcDbHatch
 10
0.0
 20
0.0
 30
0.0
210
0.0
220
0.0
230
1.0
  2
SOLID
 70
     1
 71
     0
 91
        1
 92
        0
 93
        3
 72
     2
 10
-0.0000000000000052
 20
0.0
 40
3.000000000000001
 50
0.0
 51
90.0
 73
     1
 72
     1
 10
-0.0000000000000052
 20
3.000000000000001
 11
-0.0000000000000052
 21
0.0
 72
     1
 10
-0.0000000000000052
 20
0.0
 11
2.999999999999996
 21
0.0
 97
        0
 75
     0
 76
     1
 98
        1
 10
0.0
 20
0.0
  0
HATCH
  5
120
330
11B
100
AcDbEntity
  8
0
  6
Continuous
 62
     0
370
     0
100
AcDbHatch
 10
0.0
 20
0.0
 30
0.0
210
0.0
220
0.0
230
1.0
  2
SOLID
 70
     1
 71
     0
 91
        1
 92
        0
 93
        3
 72
     2
 10
-0.0000000000000052
 20
0.0
 40
3.000000000000001
 50
180.0
 51
270.0000000000008
 73
     1
 72
     1
 10
-0.0000000000000052
 20
-3.000000000000001
 11
-0.0000000000000052
 21
0.0
 72
     1
 10
-0.0000000000000052
 20
0.0
 11
-3.000000000000007
 21
0.0
 97
        0
 75
     0
 76
     1
 98
        1
 10
0.0
 20
0.0
  0
ENDBLK
  5
11D
330
11B
100
AcDbEntity
  8
0
100
AcDbBlockEnd
  0
BLOCK
  5
156
330
155
100
AcDbEntity
  8
0
100
AcDbBlockBegin
  2
*D7
 70
     1
 10
0.0
 20
0.0
 30
0.0
  3
*D7
  1
*D7
  0
LINE
  5
158
330
155
100
AcDbEntity
  8
치수문자_일반주서
 62
     0
370
    -2
100
AcDbLine
 10
39.46865766425395
 20
3.178054918056914
 30
0.0
 11
52.85516269762441
 21
3.178054918056915
 31
0.0
  0
LINE
  5
159
330
155
100
AcDbEntity
  8
치수문자_일반주서
 62
     0
370
    -2
100
AcDbLine
 10
39.46865766425395
 20
-3.173925071276107
 30
0.0
 11
52.85516269762441
 21
-3.173925071276109
 31
0.0
  0
LINE
  5
15A
330
155
100
AcDbEntity
  8
치수문자_일반주서
 62
     0
370
    -2
100
AcDbLine
 10
52.85516269762441
 20
3.178054918056915
 30
0.0
 11
52.85516269762441
 21
32.53205491805691
 31
0.0
  0
LINE
  5
15B
330
155
100
AcDbEntity
  8
치수문자_일반주서
 62
     0
370
    -2
100
AcDbLine
 10
52.85516269762441
 20
3.178054918056915
 30
0.0
 11
52.85516269762441
 21
-3.173925071276109
 31
0.0
  0
LINE
  5
15C
330
155
100
AcDbEntity
  8
치수문자_일반주서
 62
     0
370
    -2
100
AcDbLine
 10
52.85516269762441
 20
6.480054918056915
 30
0.0
 11
52.85516269762441
 21
9.782054918056915
 31
0.0
  0
LINE
  5
15D
330
155
100
AcDbEntity
  8
치수문자_일반주서
 62
     0
370
    -2
100
AcDbLine
 10
52.85516269762441
 20
-6.475925071276109
 30
0.0
 11
52.85516269762441
 21
-9.777925071276108
 31
0.0
  0
SOLID
  5
15E
330
155
100
AcDbEntity
  8
치수문자_일반주서
 62
     0
100
AcDbTrace
 10
52.30482936429107
 20
6.480054918056915
 30
0.0
 11
53.40549603095774
 21
6.480054918056915
 31
0.0
 12
52.85516269762441
 22
3.178054918056915
 32
0.0
 13
52.85516269762441
 23
3.178054918056915
 33
0.0
  0
SOLID
  5
15F
330
155
100
AcDbEntity
  8
치수문자_일반주서
 62
     0
100
AcDbTrace
 10
53.40549603095774
 20
-6.475925071276109
 30
0.0
 11
52.30482936429107
 21
-6.475925071276109
 31
0.0
 12
52.85516269762441
 22
-3.173925071276109
 32
0.0
 13
52.85516269762441
 23
-3.173925071276109
 33
0.0
  0
MTEXT
  5
160
330
155
100
AcDbEntity
  8
치수문자_일반주서
 62
     0
100
AcDbMText
 10
50.23016269762441
 20
21.15705491805691
 30
0.0
 40
3.5
 41
0.0
 71
     5
 72
     1
  1
\A1;6.35 [1/4]
  7
SLDTEXTSTYLE0
 11
0.0
 21
1.0
 31
0.0
 73
     1
 44
1.0
  0
POINT
  5
161
330
155
100
AcDbEntity
  8
Defpoints
 62
     0
100
AcDbPoint
 10
39.40615766425395
 20
3.178054918056914
 30
0.0
  0
POINT
  5
162
330
155
100
AcDbEntity
  8
Defpoints
 62
     0
100
AcDbPoint
 10
39.40615766425395
 20
-3.173925071276107
 30
0.0
  0
POINT
  5
164
330
155
100
AcDbEntity
  8
Defpoints
 62
     0
100
AcDbPoint
 10
52.85516269762441
 20
-3.173925071276108
 30
0.0
  0
ENDBLK
  5
157
330
155
100
AcDbEntity
  8
0
100
AcDbBlockEnd
  0
ENDSEC
  0
SECTION
  2
ENTITIES
  0
LINE
  5
96
330
1F
100
AcDbEntity
  8
외형선
  6
Continuous
 62
     1
370
    15
100
AcDbLine
 10
29.46512150288942
 20
-3.173925071276095
 30
0.0
 11
31.4022911448481
 21
-3.173925071276095
 31
0.0
  0
LINE
  5
97
330
1F
100
AcDbEntity
  8
외형선
  6
Continuous
 62
     1
370
    15
100
AcDbLine
 10
22.76396962438261
 20
3.176074928723882
 30
0.0
 11
20.82811484449352
 21
3.176074928723882
 31
0.0
  0
ARC
  5
98
330
1F
100
AcDbEntity
  8
외형선
  6
Continuous
 62
     1
370
    15
100
AcDbCircle
 10
36.23115766425396
 20
0.0010749287238966
 30
0.0
 40
3.174999999999976
100
AcDbArc
 50
310.3201897719558
 51
0.0
  0
ARC
  5
99
330
1F
100
AcDbEntity
  8
외형선
  6
Continuous
 62
     1
370
    15
100
AcDbCircle
 10
36.23115766425396
 20
0.0010749287238966
 30
0.0
 40
3.174999999999976
100
AcDbArc
 50
0.0
 51
49.85946633794998
  0
LINE
  5
9A
330
1F
100
AcDbEntity
  8
외형선
  6
Continuous
 62
     1
370
    15
100
AcDbLine
 10
31.4022911448481
 20
3.176074928723882
 30
0.0
 11
29.46512150288939
 21
3.176074928723882
 31
0.0
  0
LINE
  5
9B
330
1F
100
AcDbEntity
  8
외형선
  6
Continuous
 62
     1
370
    15
100
AcDbLine
 10
20.82811484449352
 20
-3.173925071276095
 30
0.0
 11
22.76396962438264
 21
-3.173925071276095
 31
0.0
  0
LINE
  5
9C
330
1F
100
AcDbEntity
  8
외형선
  6
Continuous
370
    15
100
AcDbLine
 10
-23.45884233574609
 20
-3.173925071276107
 30
0.0
 11
20.35615766425391
 21
-3.173925071276107
 31
0.0
  0
LINE
  5
9D
330
1F
100
AcDbEntity
  8
외형선
  6
Continuous
370
    15
100
AcDbLine
 10
20.35615766425391
 20
3.176074928723893
 30
0.0
 11
-23.45884233574609
 21
3.176074928723893
 31
0.0
  0
LINE
  5
9E
330
1F
100
AcDbEntity
  8
외형선
  6
Continuous
370
    15
100
AcDbLine
 10
-23.45884233574609
 20
3.176074928723893
 30
0.0
 11
-24.0938423357461
 21
2.541074928723895
 31
0.0
  0
LINE
  5
9F
330
1F
100
AcDbEntity
  8
외형선
  6
Continuous
370
    15
100
AcDbLine
 10
-24.0938423357461
 20
-2.538925071276108
 30
0.0
 11
-23.45884233574609
 21
-3.173925071276107
 31
0.0
  0
SPLINE
  5
A0
330
1F
100
AcDbEntity
  8
외형선
  6
Continuous
 62
     1
370
    15
100
AcDbSpline
210
0.0
220
0.0
230
1.0
 70
     8
 71
     3
 72
    46
 73
    42
 74
     0
 42
0.000000001
 43
0.00000001
 40
0.0
 40
0.0
 40
0.0
 40
0.0
 40
0.0625000000000002
 40
0.0625000000000002
 40
0.1250000000000005
 40
0.1250000000000005
 40
0.1875000000000007
 40
0.1875000000000007
 40
0.250000000000001
 40
0.250000000000001
 40
0.3125000000000012
 40
0.3125000000000012
 40
0.3437500000000014
 40
0.3437500000000014
 40
0.3750000000000015
 40
0.3750000000000015
 40
0.4375000000000028
 40
0.4375000000000028
 40
0.4687500000000029
 40
0.4687500000000029
 40
0.500000000000003
 40
0.500000000000003
 40
0.5312500000000031
 40
0.5312500000000031
 40
0.5625000000000032
 40
0.5625000000000032
 40
0.6250000000000036
 40
0.6250000000000036
 40
0.6562500000000037
 40
0.6562500000000037
 40
0.6875000000000038
 40
0.6875000000000038
 40
0.750000000000003
 40
0.750000000000003
 40
0.8125000000000022
 40
0.8125000000000022
 40
0.8750000000000014
 40
0.8750000000000014
 40
0.9375000000000008
 40
0.9375000000000008
 40
1.0
 40
1.0
 40
1.0
 40
1.0
 10
20.35615766425391
 20
3.164399156826308
 30
0.0
 10
20.6840636772151
 20
3.180713347042254
 30
0.0
 10
21.01782192002787
 20
3.179919455271901
 30
0.0
 10
21.68091025397297
 20
3.143778254812337
 30
0.0
 10
22.00795996536262
 20
3.108673301115158
 30
0.0
 10
22.67176601398992
 20
3.004839579840777
 30
0.0
 10
23.00313490865259
 20
2.936270018144273
 30
0.0
 10
23.66107642340309
 20
2.768583811861064
 30
0.0
 10
23.99512138875681
 20
2.66877225274209
 30
0.0
 10
24.65718168363165
 20
2.44186695333712
 30
0.0
 10
24.98475318340168
 20
2.314978288814602
 30
0.0
 10
25.48291242070561
 20
2.105992011223104
 30
0.0
 10
25.64912432515431
 20
2.033344301673274
 30
0.0
 10
25.97983951846427
 20
1.882987652858268
 30
0.0
 10
26.14340227900096
 20
1.805436391508848
 30
0.0
 10
26.63822879305476
 20
1.565135417103913
 30
0.0
 10
26.97240142334773
 20
1.394833157540263
 30
0.0
 10
27.46794407587191
 20
1.130401607037802
 30
0.0
 10
27.63141695099095
 20
1.040917484726886
 30
0.0
 10
27.96170094990785
 20
0.8587748703932248
 30
0.0
 10
28.12781584751204
 20
0.7662366064176136
 30
0.0
 10
28.45996909811834
 20
0.5793423160788801
 30
0.0
 10
28.62600469684177
 20
0.4849878418687623
 30
0.0
 10
28.95597470701275
 20
0.2956238665465308
 30
0.0
 10
29.11950669711372
 20
0.200693968748608
 30
0.0
 10
29.61547472536965
 20
-0.0855513976970031
 30
0.0
 10
29.94961575877099
 20
-0.27761373466505
 30
0.0
 10
30.44392586542876
 20
-0.5605783834678217
 30
0.0
 10
30.60766594799342
 20
-0.6540738257770015
 30
0.0
 10
30.93863420979342
 20
-0.8396935573483217
 30
0.0
 10
31.10489438735593
 20
-0.9316311932512935
 30
0.0
 10
31.60296072899792
 20
-1.203132419205124
 30
0.0
 10
31.93026280629197
 20
-1.377721151204094
 30
0.0
 10
32.59276801018581
 20
-1.711484454018207
 30
0.0
 10
32.92671823542017
 20
-1.870346101250721
 30
0.0
 10
33.58385090033408
 20
-2.164490009117829
 30
0.0
 10
33.9161062986369
 20
-2.301145593883503
 30
0.0
 10
34.57966481947009
 20
-2.547832424155238
 30
0.0
 10
34.90665207089963
 20
-2.657442712936055
 30
0.0
 10
35.57006236088903
 20
-2.847735824036109
 30
0.0
 10
35.90281123512009
 20
-2.927912662831407
 30
0.0
 10
36.23115766425397
 20
-2.991544860895589
 30
0.0
  0
SPLINE
  5
A1
330
1F
100
AcDbEntity
  8
외형선
  6
Continuous
 62
     1
370
    15
100
AcDbSpline
210
0.0
220
0.0
230
1.0
 70
     8
 71
     3
 72
    12
 73
     8
 74
     0
 42
0.000000001
 43
0.00000001
 40
0.0
 40
0.0
 40
0.0
 40
0.0
 40
0.2045705079540047
 40
0.4151249740743585
 40
0.6178869653886402
 40
0.82680254744267
 40
1.0
 40
1.0
 40
1.0
 40
1.0
 10
36.23115766425396
 20
-2.991544860895571
 30
0.0
 10
36.37661193090094
 20
-3.011811539693237
 30
0.0
 10
36.67177519404543
 20
-3.052937724472257
 30
0.0
 10
37.1170717361476
 20
-3.006406146192173
 30
0.0
 10
37.55511425594578
 20
-2.876894055175756
 30
0.0
 10
37.95111456374133
 20
-2.681925831274937
 30
0.0
 10
38.17921194020161
 20
-2.499384179110342
 30
0.0
 10
38.28259989339747
 20
-2.41664492062713
 30
0.0
  0
SPLINE
  5
A2
330
1F
100
AcDbEntity
  8
외형선
  6
Continuous
 62
     1
370
    15
100
AcDbSpline
210
0.0
220
0.0
230
1.0
 70
     8
 71
     3
 72
    20
 73
    16
 74
     0
 42
0.000000001
 43
0.00000001
 40
0.0
 40
0.0
 40
0.0
 40
0.0
 40
0.0516009921737705
 40
0.1287302455468746
 40
0.2059539532387056
 40
0.2832533954688883
 40
0.3604202801094729
 40
0.4375403542317789
 40
0.5147158296648832
 40
0.5956763513438925
 40
0.6765877182372994
 40
0.7574156029118471
 40
0.8382201023874832
 40
0.9190615890662567
 40
1.0
 40
1.0
 40
1.0
 40
1.0
 10
34.75150398534746
 20
-2.590865633735284
 30
0.0
 10
34.50393724938356
 20
-2.672833884575927
 30
0.0
 10
33.88632651425375
 20
-2.877322066164179
 30
0.0
 10
32.89832402146906
 20
-3.075570034805592
 30
0.0
 10
31.78669819939622
 20
-3.188502027972323
 30
0.0
 10
30.67448747613949
 20
-3.167575851282893
 30
0.0
 10
29.56342951934157
 20
-3.018749129291181
 30
0.0
 10
28.4530340787701
 20
-2.7467038255742
 30
0.0
 10
27.32432185316982
 20
-2.356756308635678
 30
0.0
 10
26.17682365796972
 20
-1.859405394548644
 30
0.0
 10
25.01209097237479
 20
-1.271152707064426
 30
0.0
 10
23.84837999345308
 20
-0.6257140353077449
 30
0.0
 10
22.68505548674747
 20
0.0464499353069089
 30
0.0
 10
21.52112775116377
 20
0.721073155553405
 30
0.0
 10
20.74463609501003
 20
1.138371034566674
 30
0.0
 10
20.35615766425392
 20
1.347144978127028
 30
0.0
  0
SPLINE
  5
A3
330
1F
100
AcDbEntity
  8
외형선
  6
Continuous
 62
     1
370
    15
100
AcDbSpline
210
0.0
220
0.0
230
1.0
 70
     8
 71
     3
 72
    16
 73
    12
 74
     0
 42
0.000000001
 43
0.00000001
 40
0.0
 40
0.0
 40
0.0
 40
0.0
 40
0.1221038806150062
 40
0.244015878839503
 40
0.3658968802646851
 40
0.4879082856649529
 40
0.610076380415908
 40
0.732043073362784
 40
0.8539168518915446
 40
0.9758592369078627
 40
1.0
 40
1.0
 40
1.0
 40
1.0
 10
20.35615766425391
 20
0.2731132126109274
 30
0.0
 10
20.72700470620798
 20
0.0589389946298561
 30
0.0
 10
21.46811601570663
 20
-0.3690728733155724
 30
0.0
 10
22.57887649681323
 20
-0.9996725326576263
 30
0.0
 10
23.68934513535022
 20
-1.588543819778876
 30
0.0
 10
24.80081684423007
 20
-2.113167590145002
 30
0.0
 10
25.91308486348692
 20
-2.550339324808282
 30
0.0
 10
27.02427306015239
 20
-2.887471411039631
 30
0.0
 10
28.13469107364525
 20
-3.094978721595958
 30
0.0
 10
28.94812400054587
 20
-3.187191647471952
 30
0.0
 10
29.39180210765713
 20
-3.166470364926333
 30
0.0
 10
29.46512150288943
 20
-3.163046098819147
 30
0.0
  0
SPLINE
  5
A4
330
1F
100
AcDbEntity
  8
외형선
  6
Continuous
 62
     1
370
    15
100
AcDbSpline
210
0.0
220
0.0
230
1.0
 70
     8
 71
     3
 72
    12
 73
     8
 74
     0
 42
0.000000001
 43
0.00000001
 40
0.0
 40
0.0
 40
0.0
 40
0.0
 40
0.1927962327564836
 40
0.3945343134874179
 40
0.5962140271688523
 40
0.7979860571023093
 40
1.0
 40
1.0
 40
1.0
 40
1.0
 10
26.12385565410296
 20
-2.596749130739985
 30
0.0
 10
25.75313073420164
 20
-2.710264293848658
 30
0.0
 10
24.99448675203063
 20
-2.942559429013773
 30
0.0
 10
23.84838394416482
 20
-3.13452458786562
 30
0.0
 10
22.68505443285668
 20
-3.196269821748573
 30
0.0
 10
21.52112801505534
 20
-3.121936683639076
 30
0.0
 10
20.74463618300901
 20
-2.956987405677859
 30
0.0
 10
20.35615766425392
 20
-2.87446335516309
 30
0.0
  0
SPLINE
  5
A5
330
1F
100
AcDbEntity
  8
외형선
  6
Continuous
 62
     1
370
    15
100
AcDbSpline
210
0.0
220
0.0
230
1.0
 70
     8
 71
     3
 72
    16
 73
    12
 74
     0
 42
0.000000001
 43
0.00000001
 40
0.0
 40
0.0
 40
0.0
 40
0.0
 40
0.0891171773065662
 40
0.1989554681343984
 40
0.3088555903046571
 40
0.4241459499436651
 40
0.5394070985867075
 40
0.6545374547490751
 40
0.7696224759783998
 40
0.8847481535379311
 40
0.9999999999999999
 40
0.9999999999999999
 40
0.9999999999999999
 40
0.9999999999999999
 10
26.12385565410293
 20
2.598898988187772
 30
0.0
 10
26.42409573282292
 20
2.694537375294683
 30
0.0
 10
27.09438632347926
 20
2.908051544544208
 30
0.0
 10
28.13466561844372
 20
3.10262053092539
 30
0.0
 10
29.26323938949792
 20
3.197206928719986
 30
0.0
 10
30.41063469852389
 20
3.152692601024215
 30
0.0
 10
31.57551072706188
 20
2.967660227817984
 30
0.0
 10
32.73935120274012
 20
2.650067222147188
 30
0.0
 10
33.90267177288403
 20
2.213428755101785
 30
0.0
 10
35.06644842613944
 20
1.681261929079752
 30
0.0
 10
35.84277952932786
 20
1.268272858159803
 30
0.0
 10
36.23115766425397
 20
1.061665233590855
 30
0.0
  0
SPLINE
  5
A6
330
1F
100
AcDbEntity
  8
외형선
  6
Continuous
 62
     1
370
    15
100
AcDbSpline
210
0.0
220
0.0
230
1.0
 70
     8
 71
     3
 72
    42
 73
    38
 74
     0
 42
0.000000001
 43
0.00000001
 40
0.0
 40
0.0
 40
0.0
 40
0.0
 40
0.0625000000000004
 40
0.0625000000000004
 40
0.1250000000000008
 40
0.1250000000000008
 40
0.1875000000000012
 40
0.1875000000000012
 40
0.2500000000000016
 40
0.2500000000000016
 40
0.3125000000000037
 40
0.3125000000000037
 40
0.3750000000000043
 40
0.3750000000000043
 40
0.4375000000000049
 40
0.4375000000000049
 40
0.4687500000000052
 40
0.4687500000000052
 40
0.5000000000000054
 40
0.5000000000000054
 40
0.5625000000000061
 40
0.5625000000000061
 40
0.5937500000000056
 40
0.5937500000000056
 40
0.6250000000000051
 40
0.6250000000000051
 40
0.6875000000000042
 40
0.6875000000000042
 40
0.7500000000000034
 40
0.7500000000000034
 40
0.8125000000000026
 40
0.8125000000000026
 40
0.8750000000000018
 40
0.8750000000000018
 40
0.9375000000000009
 40
0.9375000000000009
 40
1.0
 40
1.0
 40
1.0
 40
1.0
 10
36.23115766425396
 20
1.061665233590852
 30
0.0
 10
36.39222376877907
 20
0.9735902291507679
 30
0.0
 10
36.55277877103098
 20
0.8845737266786493
 30
0.0
 10
36.87506515122219
 20
0.708703738886452
 30
0.0
 10
37.03811760446985
 20
0.6211609587987745
 30
0.0
 10
37.36023505071074
 20
0.453215165454287
 30
0.0
 10
37.5169764358631
 20
0.3738745503785319
 30
0.0
 10
37.82172965451554
 20
0.2233620503968734
 30
0.0
 10
37.97131675293144
 20
0.1520782486332642
 30
0.0
 10
38.25083752424054
 20
0.0176177232595297
 30
0.0
 10
38.38104452131706
 20
-0.0456971191546075
 30
0.0
 10
38.61968209006545
 20
-0.1740065637327379
 30
0.0
 10
38.72844559781709
 20
-0.2393402691451792
 30
0.0
 10
38.91213352291704
 20
-0.3807384434690751
 30
0.0
 10
38.98861023114702
 20
-0.4574836543016563
 30
0.0
 10
39.07254785407132
 20
-0.5949492697065478
 30
0.0
 10
39.09494916843744
 20
-0.643881672618713
 30
0.0
 10
39.1274585495182
 20
-0.7507271299716451
 30
0.0
 10
39.13758788421324
 20
-0.8093283347900345
 30
0.0
 10
39.14579901908958
 20
-0.9985039602932416
 30
0.0
 10
39.12091805046757
 20
-1.146545098284206
 30
0.0
 10
39.03707427824895
 20
-1.382111351409134
 30
0.0
 10
39.0007924813173
 20
-1.464510631584747
 30
0.0
 10
38.91642044326619
 20
-1.625556744291529
 30
0.0
 10
38.86794345153346
 20
-1.705308686317565
 30
0.0
 10
38.70793766472876
 20
-1.93559248733505
 30
0.0
 10
38.5841367589125
 20
-2.073547860135831
 30
0.0
 10
38.32471891057495
 20
-2.301710170468604
 30
0.0
 10
38.18596815431769
 20
-2.394717876094537
 30
0.0
 10
37.90569064883262
 20
-2.534516136040766
 30
0.0
 10
37.76105698518923
 20
-2.583274690476618
 30
0.0
 10
37.46746601095389
 20
-2.6420089860489
 30
0.0
 10
37.31978831232809
 20
-2.652393877609792
 30
0.0
 10
37.01780848160509
 20
-2.641625352175444
 30
0.0
 10
36.86237097173604
 20
-2.619990720625642
 30
0.0
 10
36.54993951786072
 20
-2.550092217132685
 30
0.0
 10
36.39219746522452
 20
-2.501992741013369
 30
0.0
 10
36.23115766425395
 20
-2.442334429096054
 30
0.0
  0
SPLINE
  5
A7
330
1F
100
AcDbEntity
  8
외형선
  6
Continuous
 62
     1
370
    15
100
AcDbSpline
210
0.0
220
0.0
230
1.0
 70
     8
 71
     3
 72
    19
 73
    15
 74
     0
 42
0.000000001
 43
0.00000001
 40
0.0
 40
0.0
 40
0.0
 40
0.0
 40
0.0825695554439498
 40
0.1650220248642239
 40
0.2474663653634562
 40
0.3300116691635657
 40
0.4126379264773469
 40
0.4951224914685054
 40
0.577557020161643
 40
0.6600507679491164
 40
0.7465903949310015
 40
0.8330774798007288
 40
0.9194753295725359
 40
1.0
 40
1.0
 40
1.0
 40
1.0
 10
36.23115766425396
 20
-2.442334429096068
 30
0.0
 10
35.8604253204471
 20
-2.29613850978591
 30
0.0
 10
35.11948634204605
 20
-2.00395398121804
 30
0.0
 10
34.00885259159289
 20
-1.456981382953092
 30
0.0
 10
32.89831720754384
 20
-0.8578265615913737
 30
0.0
 10
31.78670002796371
 20
-0.2218714678676482
 30
0.0
 10
30.67448698788549
 20
0.4220428363894992
 30
0.0
 10
29.56342964631308
 20
1.049779529353488
 30
0.0
 10
28.45303405841977
 20
1.634634966105348
 30
0.0
 10
27.32432180707038
 20
2.161070895654507
 30
0.0
 10
26.17682387566146
 20
2.603707260974677
 30
0.0
 10
25.01209015278635
 20
2.934019602176987
 30
0.0
 10
23.87463326168444
 20
3.140553292111537
 30
0.0
 10
23.12540360600501
 20
3.161496960347328
 30
0.0
 10
22.76396962438261
 20
3.171600342324882
 30
0.0
  0
LINE
  5
A8
330
1F
100
AcDbEntity
  8
외형선
  6
Continuous
370
    15
100
AcDbLine
 10
20.35615766425391
 20
0.2731132126109272
 30
0.0
 11
20.35615766425392
 21
1.347144978127028
 31
0.0
  0
SPLINE
  5
A9
330
1F
100
AcDbEntity
  8
외형선
  6
Continuous
 62
     1
370
    15
100
AcDbSpline
210
0.0
220
0.0
230
1.0
 70
     8
 71
     3
 72
    42
 73
    38
 74
     0
 42
0.000000001
 43
0.00000001
 40
0.0
 40
0.0
 40
0.0
 40
0.0
 40
0.0624999999999993
 40
0.0624999999999993
 40
0.1249999999999986
 40
0.1249999999999986
 40
0.1874999999999979
 40
0.1874999999999979
 40
0.2499999999999972
 40
0.2499999999999972
 40
0.3124999999999983
 40
0.3124999999999983
 40
0.3749999999999994
 40
0.3749999999999994
 40
0.4375000000000004
 40
0.4375000000000004
 40
0.468750000000001
 40
0.468750000000001
 40
0.5000000000000016
 40
0.5000000000000016
 40
0.5625000000000027
 40
0.5625000000000027
 40
0.5937500000000024
 40
0.5937500000000024
 40
0.6250000000000021
 40
0.6250000000000021
 40
0.6875000000000018
 40
0.6875000000000018
 40
0.7500000000000014
 40
0.7500000000000014
 40
0.8125000000000011
 40
0.8125000000000011
 40
0.8750000000000007
 40
0.8750000000000007
 40
0.9375000000000003
 40
0.9375000000000003
 40
1.0
 40
1.0
 40
1.0
 40
1.0
 10
36.23115766425396
 20
2.993694718343357
 30
0.0
 10
36.39222376877905
 20
3.024908672128694
 30
0.0
 10
36.55277877103098
 20
3.039219278924102
 30
0.0
 10
36.8750651512222
 20
3.034056295336552
 30
0.0
 10
37.03811760446987
 20
3.014264896628971
 30
0.0
 10
37.36023505071076
 20
2.939740999275694
 30
0.0
 10
37.51697643586311
 20
2.885877062483901
 30
0.0
 10
37.82172965451555
 20
2.746081668534968
 30
0.0
 10
37.97131675293143
 20
2.658861706738906
 30
0.0
 10
38.25083752424052
 20
2.457781222328295
 30
0.0
 10
38.38104452131707
 20
2.344250942303445
 30
0.0
 10
38.61968209006547
 20
2.093674386706945
 30
0.0
 10
38.72844559781708
 20
1.955656081487118
 30
0.0
 10
38.91213352291705
 20
1.668774232346677
 30
0.0
 10
38.98861023114699
 20
1.5181542804989
 30
0.0
 10
39.07254785407133
 20
1.289703382613231
 30
0.0
 10
39.09494916843743
 20
1.214303482354024
 30
0.0
 10
39.12745854951818
 20
1.066640115350789
 30
0.0
 10
39.1375878842132
 20
0.9936322973477405
 30
0.0
 10
39.14579901908955
 20
0.7890302760476159
 30
0.0
 10
39.12091805046753
 20
0.6695667376732607
 30
0.0
 10
39.03707427824888
 20
0.5513052881614676
 30
0.0
 10
39.00079248131735
 20
0.521099075950841
 30
0.0
 10
38.91642044326622
 20
0.4834403256673573
 30
0.0
 10
38.86794345153347
 20
0.4753968492819298
 30
0.0
 10
38.70793766472875
 20
0.4811453452630213
 30
0.0
 10
38.58413675891247
 20
0.5247195459762896
 30
0.0
 10
38.32471891057496
 20
0.6560223433866401
 30
0.0
 10
38.18596815431771
 20
0.7450710044940472
 30
0.0
 10
37.90569064883262
 20
0.9398798138241551
 30
0.0
 10
37.76105698518921
 20
1.047743747061959
 30
0.0
 10
37.46746601095392
 20
1.266230884758766
 30
0.0
 10
37.31978831232811
 20
1.375313459939737
 30
0.0
 10
37.01780848160507
 20
1.585959988179595
 30
0.0
 10
36.86237097173603
 20
1.688199014730891
 30
0.0
 10
36.54993951786073
 20
1.873166642032971
 30
0.0
 10
36.39219746522451
 20
1.956581488772958
 30
0.0
 10
36.23115766425395
 20
2.02848108194472
 30
0.0
  0
LINE
  5
AA
330
1F
100
AcDbEntity
  8
외형선
  6
Continuous
370
    15
100
AcDbLine
 10
20.35615766425391
 20
-3.162249299378522
 30
0.0
 11
20.82811484449352
 21
-3.158093883551085
 31
0.0
  0
SPLINE
  5
AB
330
1F
100
AcDbEntity
  8
외형선
  6
Continuous
 62
     1
370
    15
100
AcDbSpline
210
0.0
220
0.0
230
1.0
 70
     8
 71
     3
 72
     9
 73
     5
 74
     0
 42
0.000000001
 43
0.00000001
 40
0.0
 40
0.0
 40
0.0
 40
0.0
 40
0.2126411851755247
 40
1.0
 40
1.0
 40
1.0
 40
1.0
 10
34.75150398534748
 20
2.593015491183072
 30
0.0
 10
34.85636191031436
 20
2.631149506744956
 30
0.0
 10
35.34948333869777
 20
2.810484547275354
 30
0.0
 10
35.8427666784746
 20
2.912987844066385
 30
0.0
 10
36.23115766425397
 20
2.993694718343375
 30
0.0
  0
SPLINE
  5
AC
330
1F
100
AcDbEntity
  8
외형선
  6
Continuous
 62
     1
370
    15
100
AcDbSpline
210
0.0
220
0.0
230
1.0
 70
     8
 71
     3
 72
    12
 73
     8
 74
     0
 42
0.000000001
 43
0.00000001
 40
0.0
 40
0.0
 40
0.0
 40
0.0
 40
0.2302744649737389
 40
0.460222394079471
 40
0.690147652808287
 40
0.9203544834792874
 40
0.9999999999999999
 40
0.9999999999999999
 40
0.9999999999999999
 40
0.9999999999999999
 10
36.23115766425396
 20
2.028481081944741
 30
0.0
 10
35.86042536765495
 20
2.184962196853929
 30
0.0
 10
35.11948648360273
 20
2.497702531914288
 30
0.0
 10
34.00885202632605
 20
2.845730871846595
 30
0.0
 10
32.89831932825728
 20
3.075078933328766
 30
0.0
 10
32.02941957623819
 20
3.180871554041023
 30
0.0
 10
31.53052796588434
 20
3.165392589477638
 30
0.0
 10
31.4022911448481
 20
3.161413823013449
 30
0.0
  0
LINE
  5
AD
330
1F
100
AcDbEntity
  8
외형선
  6
Continuous
370
    15
100
AcDbLine
 10
20.35615766425391
 20
-3.162249299378522
 30
0.0
 11
20.35615766425392
 21
-2.87446335516309
 31
0.0
  0
LINE
  5
AE
330
1F
100
AcDbEntity
  8
외형선
  6
Continuous
370
    15
100
AcDbLine
 10
-23.45884233574609
 20
0.0010749287238931
 30
0.0
 11
-23.45884233574609
 21
3.176074928723893
 31
0.0
  0
LINE
  5
AF
330
1F
100
AcDbEntity
  8
외형선
  6
Continuous
370
    15
100
AcDbLine
 10
-23.45884233574609
 20
-3.173925071276107
 30
0.0
 11
-23.45884233574609
 21
0.0010749287238931
 31
0.0
  0
LINE
  5
B0
330
1F
100
AcDbEntity
  8
외형선
  6
Continuous
370
    15
100
AcDbLine
 10
20.35615766425391
 20
0.0010749287238931
 30
0.0
 11
20.35615766425391
 21
3.176074928723893
 31
0.0
  0
LINE
  5
B1
330
1F
100
AcDbEntity
  8
외형선
  6
Continuous
370
    15
100
AcDbLine
 10
20.35615766425391
 20
-3.173925071276107
 30
0.0
 11
20.35615766425391
 21
0.0010749287238931
 31
0.0
  0
LINE
  5
B2
330
1F
100
AcDbEntity
  8
외형선
  6
Continuous
370
    15
100
AcDbLine
 10
-24.0938423357461
 20
0.0010749287238931
 30
0.0
 11
-24.0938423357461
 21
2.541074928723895
 31
0.0
  0
LINE
  5
B3
330
1F
100
AcDbEntity
  8
외형선
  6
Continuous
370
    15
100
AcDbLine
 10
-24.0938423357461
 20
-2.538925071276108
 30
0.0
 11
-24.0938423357461
 21
0.0010749287238931
 31
0.0
  0
LINE
  5
B4
330
1F
100
AcDbEntity
  8
중심선
 62
     1
100
AcDbLine
 10
-27.0938423357461
 20
0.0010749287238931
 30
0.0
 11
42.40615766425393
 21
0.0010749287238892
 31
0.0
  0
LINE
  5
B5
330
1F
100
AcDbEntity
  8
참조1
100
AcDbLine
 10
-5.044355703302319
 20
-2.498925071276081
 30
0.0
 11
-5.044355703302315
 21
-39.9989250712761
 31
0.0
  0
LINE
  5
B6
330
1F
100
AcDbEntity
  8
참조1
100
AcDbLine
 10
39.40615766425393
 20
0.0010749287238966
 30
0.0
 11
39.40615766425393
 21
1.896976238366589
 31
0.0
  0
LINE
  5
B7
330
1F
100
AcDbEntity
  8
참조1
100
AcDbLine
 10
-5.044355703302315
 20
-39.9989250712761
 30
0.0
 11
-20.20269915005477
 21
-39.9989250712761
 31
0.0
  0
CIRCLE
  5
B8
330
1F
100
AcDbEntity
  8
해칭선
100
AcDbCircle
 10
-0.0000000000000052
 20
0.0
 30
0.0
 40
3.000000000000001
  0
INSERT
  5
B9
330
1F
100
AcDbEntity
  8
0
  6
Continuous
 62
     7
100
AcDbBlockReference
 66
     1
  2
블럭10
 10
-18.98462863542753
 20
-52.04609937292004
 30
0.0
  0
ATTRIB
  5
BA
330
B9
100
AcDbEntity
  8
FORMAT
 62
     2
100
AcDbText
 10
-27.37413396032737
 20
-49.97073246008785
 30
0.0
 40
4.233333333333333
  1
EI106016 [ 4 FLUTE ]
 41
0.75
  7
SLDTEXTSTYLE0
 11
-27.37413396032737
 21
-52.08739912675452
 31
0.0
100
AcDbAttribute
  2
AUTOATTR0
 70
     0
 74
     1
  0
SEQEND
  5
BB
330
B9
100
AcDbEntity
  8
0
  6
Continuous
 62
     7
  0
HATCH
  5
BC
330
1F
100
AcDbEntity
  8
중심선
100
AcDbHatch
 10
0.0
 20
0.0
 30
0.0
210
0.0
220
0.0
230
1.0
  2
SOLID
 70
     1
 71
     0
 91
        1
 92
        0
 93
        4
 72
     1
 10
-13.26971933104667
 20
-35.7989250712761
 11
-16.71599457488396
 21
-35.7989250712761
 72
     1
 10
-16.71599457488396
 20
-35.7989250712761
 11
-18.84422443408798
 21
-38.3352506518487
 72
     1
 10
-18.84422443408798
 20
-38.3352506518487
 11
-15.39791610513755
 21
-38.33521122254621
 72
     1
 10
-15.39791610513755
 20
-38.33521122254621
 11
-13.26971933104667
 21
-35.7989250712761
 97
        0
 75
     0
 76
     1
 98
        1
 10
0.0
 20
0.0
  0
HATCH
  5
BD
330
1F
100
AcDbEntity
  8
중심선
100
AcDbHatch
 10
0.0
 20
0.0
 30
0.0
210
0.0
220
0.0
230
1.0
  2
SOLID
 70
     1
 71
     0
 91
        1
 92
        0
 93
        4
 72
     1
 10
-8.256955340010725
 20
-35.7989250712761
 11
-11.70323058384801
 21
-35.7989250712761
 72
     1
 10
-11.70323058384801
 20
-35.7989250712761
 11
-16.2343685922054
 21
-41.19892507127612
 72
     1
 10
-16.2343685922054
 20
-41.19892507127612
 11
-12.78809334836811
 21
-41.19892507127612
 72
     1
 10
-12.78809334836811
 20
-41.19892507127612
 11
-8.256955340010725
 21
-35.7989250712761
 97
        0
 75
     0
 76
     1
 98
        1
 10
0.0
 20
0.0
  0
HATCH
  5
BE
330
1F
100
AcDbEntity
  8
중심선
100
AcDbHatch
 10
0.0
 20
0.0
 30
0.0
210
0.0
220
0.0
230
1.0
  2
SOLID
 70
     1
 71
     0
 91
        1
 92
        0
 93
        4
 72
     1
 10
-3.244191348974828
 20
-35.79892507127613
 11
-6.690466592811944
 21
-35.7989250712761
 72
     1
 10
-6.690466592811944
 20
-35.7989250712761
 11
-13.73890349470119
 21
-44.19892507127612
 72
     1
 10
-13.73890349470119
 20
-44.19892507127612
 11
-10.29262825086391
 21
-44.19892507127612
 72
     1
 10
-10.29262825086391
 20
-44.19892507127612
 11
-3.244191348974828
 21
-35.79892507127613
 97
        0
 75
     0
 76
     1
 98
        1
 10
0.0
 20
0.0
  0
HATCH
  5
BF
330
1F
100
AcDbEntity
  8
중심선
100
AcDbHatch
 10
0.0
 20
0.0
 30
0.0
210
0.0
220
0.0
230
1.0
  2
SOLID
 70
     1
 71
     0
 91
        1
 92
        0
 93
        6
 72
     3
 10
1.555699082037371
 20
-39.99892507132738
 11
3.960054785062284
 21
1.540850780301639E-10
 40
0.3939339440162633
 50
17.09539180608433
 51
320.0019657685079
 73
     0
 72
     1
 10
3.238698737737966
 20
-38.58681907591441
 11
5.544000611439004
 21
-36.65249236586649
 72
     3
 10
1.555699081984524
 20
-39.99892507127625
 11
6.600054785286829
 21
-1.249000902703301E-13
 40
0.6363583540795982
 50
39.99873849337408
 51
368.4976242363725
 73
     1
 72
     1
 10
7.981031573885133
 20
-39.03892507120613
 11
0.235766388820446
 21
-39.0389250712061
 72
     1
 10
0.2357663888204464
 20
-39.0389250712061
 11
0.2357413443745127
 21
-40.95892507120602
 72
     1
 10
0.2357413443745127
 20
-40.95892507120602
 11
4.67712111384655
 21
-40.95892507120599
 97
        0
 75
     0
 76
     1
 98
        1
 10
0.0
 20
0.0
  0
POINT
  5
C0
330
1F
100
AcDbEntity
  8
치수문자_일반주서
100
AcDbPoint
 10
-40.1664723384941
 20
-7.164101193405076
 30
0.0
  0
POINT
  5
C1
330
1F
100
AcDbEntity
  8
치수문자_일반주서
100
AcDbPoint
 10
-40.1664723384941
 20
-7.164101193405104
 30
0.0
  0
DIMENSION
  5
C2
330
1F
100
AcDbEntity
  8
치수문자_일반주서
100
AcDbDimension
  2
_D
 10
20.35615766425389
 20
19.34502863615512
 30
0.0
 11
4.585407664253889
 21
19.34502863615512
 31
0.0
 70
   160
  1
<>
 71
     2
 42
19.05000000000006
  3
SLDDIMSTYLE0
100
AcDbAlignedDimension
 13
39.40615766425395
 23
3.115554918056914
 33
0.0
 14
20.35615766425389
 24
3.176074928723904
 34
0.0
 50
0.0000000000000053
100
AcDbRotatedDimension
1001
ACAD
1000
DSTYLE
1002
{
1070
   171
1070
     6
1070
   273
1070
     7
1002
}
  0
DIMENSION
  5
D7
330
1F
100
AcDbEntity
  8
치수문자_일반주서
100
AcDbDimension
  2
_D_1
 10
-24.0938423357461
 20
28.56034423427361
 30
0.0
 11
8.879672606058874
 21
28.56034423427361
 31
0.0
 70
   160
  1
<>
 71
     2
 42
63.50000000000006
  3
SLDDIMSTYLE1
100
AcDbAlignedDimension
 13
39.40615766425395
 23
3.115554918056914
 33
0.0
 14
-24.0938423357461
 24
2.541074928723908
 34
0.0
 50
0.0000000000000064
100
AcDbRotatedDimension
1001
ACAD
1000
DSTYLE
1002
{
1070
   171
1070
     6
1070
   273
1070
     7
1002
}
  0
DIMENSION
  5
100
330
1F
100
AcDbEntity
  8
치수문자_일반주서
100
AcDbDimension
  2
_D_3
 10
-36.47870150509074
 20
-3.173925071276162
 30
0.0
 11
-36.47870150509083
 21
22.46757492872386
 31
0.0
 70
   160
  1
%%c<>
 71
     2
 42
6.350000000000023
  3
SLDDIMSTYLE2
100
AcDbAlignedDimension
 13
-23.4588423357461
 23
3.176074928723904
 33
0.0
 14
-23.4588423357461
 24
-3.173925071276118
 34
0.0
 50
90.0000000000002
100
AcDbRotatedDimension
1001
ACAD
1000
DSTYLE
1002
{
1070
   171
1070
     6
1070
   273
1070
     7
1002
}
1001
ACAD_DSTYLE_DIMFLIPARROW_SYMBOL
1070
   385
1070
     0
1001
ACAD_DSTYLE_DIMFLIPARROW_WHICH_SYMBOL
1070
   386
1070
     3
  0
LINE
  5
114
330
1F
100
AcDbEntity
  8
참조1
100
AcDbLine
 10
77.7696414795995
 20
7.441074928723896
 30
0.0
 11
77.7696414795995
 21
-7.438925071276109
 31
0.0
  0
LINE
  5
115
330
1F
100
AcDbEntity
  8
참조1
100
AcDbLine
 10
90.4696414795995
 20
5.441074928723896
 30
0.0
 11
77.7696414795995
 21
5.441074928723896
 31
0.0
  0
SOLID
  5
116
330
1F
100
AcDbEntity
  8
참조1
100
AcDbTrace
 10
77.7696414795995
 20
5.441074928723896
 30
0.0
 11
84.1196414795995
 21
4.425074928723896
 31
0.0
 12
84.1196414795995
 22
6.457074928723896
 32
0.0
 13
84.1196414795995
 23
6.457074928723896
 33
0.0
  0
LINE
  5
117
330
1F
100
AcDbEntity
  8
참조1
100
AcDbLine
 10
90.4696414795995
 20
-5.438925071276109
 30
0.0
 11
77.7696414795995
 21
-5.438925071276109
 31
0.0
  0
SOLID
  5
118
330
1F
100
AcDbEntity
  8
참조1
100
AcDbTrace
 10
77.7696414795995
 20
-5.438925071276109
 30
0.0
 11
84.1196414795995
 21
-6.454925071276109
 31
0.0
 12
84.1196414795995
 22
-4.422925071276109
 32
0.0
 13
84.1196414795995
 23
-4.422925071276109
 33
0.0
  0
MTEXT
  5
119
330
1F
100
AcDbEntity
  8
참조1
100
AcDbMText
 10
87.36975629016207
 20
11.06679249473997
 30
0.0
 40
3.5
 41
0.0
 71
     1
 72
     1
  1
A
  7
SLDTEXTSTYLE0
 73
     1
 44
1.0
  0
MTEXT
  5
11A
330
1F
100
AcDbEntity
  8
참조1
100
AcDbMText
 10
87.36975629016207
 20
0.1867924947399659
 30
0.0
 40
3.5
 41
0.0
 71
     1
 72
     1
  1
A
  7
SLDTEXTSTYLE0
 73
     1
 44
1.0
  0
INSERT
  5
121
330
1F
100
AcDbEntity
  8
해칭선
100
AcDbBlockReference
  2
SW_DOWELSYMBOL_0
 10
-0.0000000000000052
 20
0.0
 30
0.0
  0
LINE
  5
14B
330
1F
100
AcDbEntity
  8
0
100
AcDbLine
 10
39.40615766425395
 20
3.164399156826308
 30
0.0
 11
39.40615766425395
 21
-11.28263802817298
 31
0.0
  0
DIMENSION
  5
152
102
{ACAD_XDICTIONARY
360
153
102
}
330
1F
100
AcDbEntity
  8
치수문자_일반주서
100
AcDbDimension
  2
*D7
 10
52.85516269762441
 20
-3.173925071276109
 30
0.0
 11
52.85516269762441
 21
21.15705491805691
 31
0.0
 70
   160
 71
     5
 42
6.351979989333021
  3
SLDDIMSTYLE2
100
AcDbAlignedDimension
 13
39.40615766425395
 23
3.178054918056914
 33
0.0
 14
39.40615766425395
 24
-3.173925071276107
 34
0.0
 50
90.0
100
AcDbRotatedDimension
1001
ACAD
1000
DSTYLE
1002
{
1070
   171
1070
     6
1070
   273
1070
     7
1002
}
  0
ENDSEC
  0
SECTION
  2
OBJECTS
  0
DICTIONARY
  5
C
330
0
100
AcDbDictionary
281
     1
  3
ACAD_GROUP
350
D
  3
ACAD_IMAGE_VARS
350
145
  3
ACAD_LAYOUT
350
1A
  3
ACAD_MLINESTYLE
350
17
  3
ACAD_PLOTSETTINGS
350
19
  3
ACAD_PLOTSTYLENAME
350
E
  3
ACAD_SCALELIST
350
47
  3
APPDATA
350
143
  3
DWGPROPS
350
165
  0
DICTIONARY
  5
153
330
152
100
AcDbDictionary
280
     1
281
     1
  0
DICTIONARY
  5
D
102
{ACAD_REACTORS
330
C
102
}
330
C
100
AcDbDictionary
281
     1
  0
RASTERVARIABLES
  5
145
102
{ACAD_REACTORS
330
C
102
}
330
C
100
AcDbRasterVariables
 90
        0
 70
     1
 71
     1
 72
     1
  0
DICTIONARY
  5
1A
102
{ACAD_REACTORS
330
C
102
}
330
C
100
AcDbDictionary
281
     1
  3
Layout1
350
1E
  3
Layout2
350
26
  3
Model
350
22
  0
DICTIONARY
  5
17
102
{ACAD_REACTORS
330
C
102
}
330
C
100
AcDbDictionary
281
     1
  3
Standard
350
18
  0
DICTIONARY
  5
19
102
{ACAD_REACTORS
330
C
102
}
330
C
100
AcDbDictionary
281
     1
  0
ACDBDICTIONARYWDFLT
  5
E
102
{ACAD_REACTORS
330
C
102
}
330
C
100
AcDbDictionary
281
     1
  3
Normal
350
F
100
AcDbDictionaryWithDefault
340
F
  0
DICTIONARY
  5
47
102
{ACAD_REACTORS
330
C
102
}
330
C
100
AcDbDictionary
281
     1
  3
A0
350
48
  3
A1
350
49
  3
A2
350
4A
  3
A3
350
4B
  3
A4
350
4C
  3
A5
350
4D
  3
A6
350
4E
  3
A7
350
4F
  3
A8
350
50
  3
A9
350
51
  3
B0
350
52
  3
B1
350
53
  3
B2
350
54
  3
B3
350
55
  3
B4
350
56
  3
B5
350
57
  3
B6
350
58
  3
B7
350
59
  3
B8
350
5A
  3
B9
350
5B
  3
C0
350
5C
  3
C1
350
5D
  3
C2
350
5E
  3
C3
350
5F
  3
C4
350
60
  3
C5
350
61
  3
C6
350
62
  3
C7
350
63
  3
C8
350
64
  3
C9
350
65
  3
D0
350
66
  3
D1
350
67
  3
D2
350
68
  0
DICTIONARY
  5
143
102
{ACAD_REACTORS
330
C
102
}
330
C
100
AcDbDictionary
281
     1
  0
XRECORD
  5
165
102
{ACAD_REACTORS
330
C
102
}
330
C
100
AcDbXrecord
280
     1
  1
DWGPROPS COOKIE
  2

  3

  4

  6

  7

  8
12015048
  9

300
=
301
=
302
=
303
=
304
=
305
=
306
=
307
=
308
=
309
=
 40
0.0
 41
2458270.321507384
 42
2458274.273218391
  1

 90
        0
  0
LAYOUT
  5
1E
102
{ACAD_REACTORS
330
1A
102
}
330
1A
100
AcDbPlotSettings
  1

  2
none_device
  4

  6

 40
0.0
 41
0.0
 42
0.0
 43
0.0
 44
0.0
 45
0.0
 46
0.0
 47
0.0
 48
0.0
 49
0.0
140
0.0
141
0.0
142
1.0
143
1.0
 70
   688
 72
     1
 73
     0
 74
     5
  7

 75
    16
147
1.0
148
0.0
149
0.0
100
AcDbLayout
  1
Layout1
 70
     1
 71
     1
 10
0.0
 20
0.0
 11
420.0
 21
297.0
 12
0.0
 22
0.0
 32
0.0
 14
1.000000000000000E+20
 24
1.000000000000000E+20
 34
1.000000000000000E+20
 15
-1.000000000000000E+20
 25
-1.000000000000000E+20
 35
-1.000000000000000E+20
146
0.0
 13
0.0
 23
0.0
 33
0.0
 16
1.0
 26
0.0
 36
0.0
 17
0.0
 27
1.0
 37
0.0
 76
     0
330
1B
  0
LAYOUT
  5
26
102
{ACAD_REACTORS
330
1A
102
}
330
1A
100
AcDbPlotSettings
  1

  2
none_device
  4

  6

 40
0.0
 41
0.0
 42
0.0
 43
0.0
 44
0.0
 45
0.0
 46
0.0
 47
0.0
 48
0.0
 49
0.0
140
0.0
141
0.0
142
1.0
143
1.0
 70
   688
 72
     1
 73
     0
 74
     5
  7

 75
    16
147
1.0
148
0.0
149
0.0
100
AcDbLayout
  1
Layout2
 70
     1
 71
     2
 10
0.0
 20
0.0
 11
0.0
 21
0.0
 12
0.0
 22
0.0
 32
0.0
 14
0.0
 24
0.0
 34
0.0
 15
0.0
 25
0.0
 35
0.0
146
0.0
 13
0.0
 23
0.0
 33
0.0
 16
1.0
 26
0.0
 36
0.0
 17
0.0
 27
1.0
 37
0.0
 76
     0
330
23
  0
LAYOUT
  5
22
102
{ACAD_REACTORS
330
1A
102
}
330
1A
100
AcDbPlotSettings
  1

  2
none_device
  4
ANSI_A_(11.00_x_8.50_Inches)
  6

 40
6.35
 41
19.05
 42
6.35000508
 43
19.05000254
 44
279.4
 45
215.9
 46
89.97575663775456
 47
100.3078085536756
 48
0.0
 49
0.0
140
0.0
141
0.0
142
0.0790612979059859
143
1.0
 70
  1696
 72
     0
 73
     0
 74
     0
  7

 75
     0
147
0.0235690232323232
148
0.0
149
0.0
100
AcDbLayout
  1
Model
 70
     1
 71
     0
 10
0.0
 20
0.0
 11
420.0
 21
297.0
 12
0.0
 22
0.0
 32
0.0
 14
-40.85370150509078
 24
-49.97073246008785
 34
0.0
 15
90.4696414795995
 25
35.15507492872386
 35
0.0
146
0.0
 13
0.0
 23
0.0
 33
0.0
 16
1.0
 26
0.0
 36
0.0
 17
0.0
 27
1.0
 37
0.0
 76
     0
330
1F
331
29
  0
MLINESTYLE
  5
18
102
{ACAD_REACTORS
330
17
102
}
330
17
100
AcDbMlineStyle
  2
Standard
 70
     0
  3

 62
   256
 51
90.0
 52
90.0
 71
     2
 49
0.5
 62
   256
  6
BYLAYER
 49
-0.5
 62
   256
  6
BYLAYER
  0
ACDBPLACEHOLDER
  5
F
102
{ACAD_REACTORS
330
E
102
}
330
E
  0
SCALE
  5
48
102
{ACAD_REACTORS
330
47
102
}
330
47
100
AcDbScale
 70
     0
300
1:1
140
1.0
141
1.0
290
     1
  0
SCALE
  5
49
102
{ACAD_REACTORS
330
47
102
}
330
47
100
AcDbScale
 70
     0
300
1:2
140
1.0
141
2.0
290
     0
  0
SCALE
  5
4A
102
{ACAD_REACTORS
330
47
102
}
330
47
100
AcDbScale
 70
     0
300
1:4
140
1.0
141
4.0
290
     0
  0
SCALE
  5
4B
102
{ACAD_REACTORS
330
47
102
}
330
47
100
AcDbScale
 70
     0
300
1:5
140
1.0
141
5.0
290
     0
  0
SCALE
  5
4C
102
{ACAD_REACTORS
330
47
102
}
330
47
100
AcDbScale
 70
     0
300
1:8
140
1.0
141
8.0
290
     0
  0
SCALE
  5
4D
102
{ACAD_REACTORS
330
47
102
}
330
47
100
AcDbScale
 70
     0
300
1:10
140
1.0
141
10.0
290
     0
  0
SCALE
  5
4E
102
{ACAD_REACTORS
330
47
102
}
330
47
100
AcDbScale
 70
     0
300
1:16
140
1.0
141
16.0
290
     0
  0
SCALE
  5
4F
102
{ACAD_REACTORS
330
47
102
}
330
47
100
AcDbScale
 70
     0
300
1:20
140
1.0
141
20.0
290
     0
  0
SCALE
  5
50
102
{ACAD_REACTORS
330
47
102
}
330
47
100
AcDbScale
 70
     0
300
1:30
140
1.0
141
30.0
290
     0
  0
SCALE
  5
51
102
{ACAD_REACTORS
330
47
102
}
330
47
100
AcDbScale
 70
     0
300
1:40
140
1.0
141
40.0
290
     0
  0
SCALE
  5
52
102
{ACAD_REACTORS
330
47
102
}
330
47
100
AcDbScale
 70
     0
300
1:50
140
1.0
141
50.0
290
     0
  0
SCALE
  5
53
102
{ACAD_REACTORS
330
47
102
}
330
47
100
AcDbScale
 70
     0
300
1:100
140
1.0
141
100.0
290
     0
  0
SCALE
  5
54
102
{ACAD_REACTORS
330
47
102
}
330
47
100
AcDbScale
 70
     0
300
2:1
140
2.0
141
1.0
290
     0
  0
SCALE
  5
55
102
{ACAD_REACTORS
330
47
102
}
330
47
100
AcDbScale
 70
     0
300
4:1
140
4.0
141
1.0
290
     0
  0
SCALE
  5
56
102
{ACAD_REACTORS
330
47
102
}
330
47
100
AcDbScale
 70
     0
300
8:1
140
8.0
141
1.0
290
     0
  0
SCALE
  5
57
102
{ACAD_REACTORS
330
47
102
}
330
47
100
AcDbScale
 70
     0
300
10:1
140
10.0
141
1.0
290
     0
  0
SCALE
  5
58
102
{ACAD_REACTORS
330
47
102
}
330
47
100
AcDbScale
 70
     0
300
100:1
140
100.0
141
1.0
290
     0
  0
SCALE
  5
59
102
{ACAD_REACTORS
330
47
102
}
330
47
100
AcDbScale
 70
     0
300
1/128" = 1'-0"
140
0.0078125
141
12.0
290
     0
  0
SCALE
  5
5A
102
{ACAD_REACTORS
330
47
102
}
330
47
100
AcDbScale
 70
     0
300
1/64" = 1'-0"
140
0.015625
141
12.0
290
     0
  0
SCALE
  5
5B
102
{ACAD_REACTORS
330
47
102
}
330
47
100
AcDbScale
 70
     0
300
1/32" = 1'-0"
140
0.03125
141
12.0
290
     0
  0
SCALE
  5
5C
102
{ACAD_REACTORS
330
47
102
}
330
47
100
AcDbScale
 70
     0
300
1/16" = 1'-0"
140
0.0625
141
12.0
290
     0
  0
SCALE
  5
5D
102
{ACAD_REACTORS
330
47
102
}
330
47
100
AcDbScale
 70
     0
300
3/32" = 1'-0"
140
0.09375
141
12.0
290
     0
  0
SCALE
  5
5E
102
{ACAD_REACTORS
330
47
102
}
330
47
100
AcDbScale
 70
     0
300
1/8" = 1'-0"
140
0.125
141
12.0
290
     0
  0
SCALE
  5
5F
102
{ACAD_REACTORS
330
47
102
}
330
47
100
AcDbScale
 70
     0
300
3/16" = 1'-0"
140
0.1875
141
12.0
290
     0
  0
SCALE
  5
60
102
{ACAD_REACTORS
330
47
102
}
330
47
100
AcDbScale
 70
     0
300
1/4" = 1'-0"
140
0.25
141
12.0
290
     0
  0
SCALE
  5
61
102
{ACAD_REACTORS
330
47
102
}
330
47
100
AcDbScale
 70
     0
300
3/8" = 1'-0"
140
0.375
141
12.0
290
     0
  0
SCALE
  5
62
102
{ACAD_REACTORS
330
47
102
}
330
47
100
AcDbScale
 70
     0
300
1/2" = 1'-0"
140
0.5
141
12.0
290
     0
  0
SCALE
  5
63
102
{ACAD_REACTORS
330
47
102
}
330
47
100
AcDbScale
 70
     0
300
3/4" = 1'-0"
140
0.75
141
12.0
290
     0
  0
SCALE
  5
64
102
{ACAD_REACTORS
330
47
102
}
330
47
100
AcDbScale
 70
     0
300
1" = 1'-0"
140
1.0
141
12.0
290
     0
  0
SCALE
  5
65
102
{ACAD_REACTORS
330
47
102
}
330
47
100
AcDbScale
 70
     0
300
1-1/2" = 1'-0"
140
1.5
141
12.0
290
     0
  0
SCALE
  5
66
102
{ACAD_REACTORS
330
47
102
}
330
47
100
AcDbScale
 70
     0
300
3" = 1'-0"
140
3.0
141
12.0
290
     0
  0
SCALE
  5
67
102
{ACAD_REACTORS
330
47
102
}
330
47
100
AcDbScale
 70
     0
300
6" = 1'-0"
140
6.0
141
12.0
290
     0
  0
SCALE
  5
68
102
{ACAD_REACTORS
330
47
102
}
330
47
100
AcDbScale
 70
     0
300
1'-0" = 1'-0"
140
12.0
141
12.0
290
     0
  0
ENDSEC
  0
EOF
