  0
SECTION
  2
HEADER
  9
$ACADVER
  1
AC1015
  9
$ACADMAINTVER
 70
     6
  9
$DWGCODEPAGE
  3
ANSI_949
  9
$INSBASE
 10
0.0
 20
0.0
 30
0.0
  9
$EXTMIN
 10
-36.63668281654339
 20
-49.97073246008785
 30
0.0
  9
$EXTMAX
 10
90.4696414795995
 20
37.61757492872387
 30
0.0
  9
$LIMMIN
 10
0.0
 20
0.0
  9
$LIMMAX
 10
420.0
 20
297.0
  9
$ORTHOMODE
 70
     1
  9
$REGENMODE
 70
     1
  9
$FILLMODE
 70
     1
  9
$QTEXTMODE
 70
     0
  9
$MIRRTEXT
 70
     1
  9
$LTSCALE
 40
1.0
  9
$ATTMODE
 70
     1
  9
$TEXTSIZE
 40
3.5
  9
$TRACEWID
 40
1.0
  9
$TEXTSTYLE
  7
Standard
  9
$CLAYER
  8
0
  9
$CELTYPE
  6
ByLayer
  9
$CECOLOR
 62
   256
  9
$CELTSCALE
 40
1.0
  9
$DISPSILH
 70
     0
  9
$DIMSCALE
 40
1.0
  9
$DIMASZ
 40
3.302
  9
$DIMEXO
 40
1.0
  9
$DIMDLI
 40
3.75
  9
$DIMRND
 40
0.0
  9
$DIMDLE
 40
0.0
  9
$DIMEXE
 40
1.0
  9
$DIMTP
 40
0.0
  9
$DIMTM
 40
0.0
  9
$DIMTXT
 40
3.5
  9
$DIMCEN
 40
2.5
  9
$DIMTSZ
 40
0.0
  9
$DIMTOL
 70
     0
  9
$DIMLIM
 70
     0
  9
$DIMTIH
 70
     1
  9
$DIMTOH
 70
     1
  9
$DIMSE1
 70
     0
  9
$DIMSE2
 70
     0
  9
$DIMTAD
 70
     1
  9
$DIMZIN
 70
     0
  9
$DIMBLK
  1

  9
$DIMASO
 70
     1
  9
$DIMSHO
 70
     1
  9
$DIMPOST
  1

  9
$DIMAPOST
  1

  9
$DIMALT
 70
     0
  9
$DIMALTD
 70
     3
  9
$DIMALTF
 40
0.0393700787401575
  9
$DIMLFAC
 40
1.0
  9
$DIMTOFL
 70
     1
  9
$DIMTVP
 40
0.0
  9
$DIMTIX
 70
     0
  9
$DIMSOXD
 70
     0
  9
$DIMSAH
 70
     0
  9
$DIMBLK1
  1

  9
$DIMBLK2
  1

  9
$DIMSTYLE
  2
ISO-25
  9
$DIMCLRD
 70
     0
  9
$DIMCLRE
 70
     0
  9
$DIMCLRT
 70
     0
  9
$DIMTFAC
 40
1.0
  9
$DIMGAP
 40
1.524
  9
$DIMJUST
 70
     0
  9
$DIMSD1
 70
     0
  9
$DIMSD2
 70
     0
  9
$DIMTOLJ
 70
     0
  9
$DIMTZIN
 70
     0
  9
$DIMALTZ
 70
     0
  9
$DIMALTTZ
 70
     0
  9
$DIMUPT
 70
     0
  9
$DIMDEC
 70
     2
  9
$DIMTDEC
 70
     2
  9
$DIMALTU
 70
     2
  9
$DIMALTTD
 70
     3
  9
$DIMTXSTY
  7
Standard
  9
$DIMAUNIT
 70
     0
  9
$DIMADEC
 70
     2
  9
$DIMALTRND
 40
0.0
  9
$DIMAZIN
 70
     0
  9
$DIMDSEP
 70
    44
  9
$DIMATFIT
 70
     3
  9
$DIMFRAC
 70
     0
  9
$DIMLDRBLK
  1

  9
$DIMLUNIT
 70
     2
  9
$DIMLWD
 70
    -2
  9
$DIMLWE
 70
    -2
  9
$DIMTMOVE
 70
     0
  9
$LUNITS
 70
     2
  9
$LUPREC
 70
     2
  9
$SKETCHINC
 40
1.0
  9
$FILLETRAD
 40
10.0
  9
$AUNITS
 70
     0
  9
$AUPREC
 70
     2
  9
$MENU
  1
.
  9
$ELEVATION
 40
0.0
  9
$PELEVATION
 40
0.0
  9
$THICKNESS
 40
0.0
  9
$LIMCHECK
 70
     0
  9
$CHAMFERA
 40
0.0
  9
$CHAMFERB
 40
0.0
  9
$CHAMFERC
 40
0.0
  9
$CHAMFERD
 40
0.0
  9
$SKPOLY
 70
     0
  9
$TDCREATE
 40
2458270.696663924
  9
$TDUCREATE
 40
2458270.321663924
  9
$TDUPDATE
 40
2458274.6430575
  9
$TDUUPDATE
 40
2458274.2680575
  9
$TDINDWG
 40
0.0017893634
  9
$TDUSRTIMER
 40
2458274.266268252
  9
$USRTIMER
 70
     1
  9
$ANGBASE
 50
0.0
  9
$ANGDIR
 70
     0
  9
$PDMODE
 70
     0
  9
$PDSIZE
 40
-1.0
  9
$PLINEWID
 40
0.0
  9
$SPLFRAME
 70
     0
  9
$SPLINETYPE
 70
     6
  9
$SPLINESEGS
 70
     8
  9
$HANDSEED
  5
150
  9
$SURFTAB1
 70
     6
  9
$SURFTAB2
 70
     6
  9
$SURFTYPE
 70
     6
  9
$SURFU
 70
     6
  9
$SURFV
 70
     6
  9
$UCSBASE
  2

  9
$UCSNAME
  2

  9
$UCSORG
 10
0.0
 20
0.0
 30
0.0
  9
$UCSXDIR
 10
1.0
 20
0.0
 30
0.0
  9
$UCSYDIR
 10
0.0
 20
1.0
 30
0.0
  9
$UCSORTHOREF
  2

  9
$UCSORTHOVIEW
 70
     0
  9
$UCSORGTOP
 10
0.0
 20
0.0
 30
0.0
  9
$UCSORGBOTTOM
 10
0.0
 20
0.0
 30
0.0
  9
$UCSORGLEFT
 10
0.0
 20
0.0
 30
0.0
  9
$UCSORGRIGHT
 10
0.0
 20
0.0
 30
0.0
  9
$UCSORGFRONT
 10
0.0
 20
0.0
 30
0.0
  9
$UCSORGBACK
 10
0.0
 20
0.0
 30
0.0
  9
$PUCSBASE
  2

  9
$PUCSNAME
  2

  9
$PUCSORG
 10
0.0
 20
0.0
 30
0.0
  9
$PUCSXDIR
 10
1.0
 20
0.0
 30
0.0
  9
$PUCSYDIR
 10
0.0
 20
1.0
 30
0.0
  9
$PUCSORTHOREF
  2

  9
$PUCSORTHOVIEW
 70
     0
  9
$PUCSORGTOP
 10
0.0
 20
0.0
 30
0.0
  9
$PUCSORGBOTTOM
 10
0.0
 20
0.0
 30
0.0
  9
$PUCSORGLEFT
 10
0.0
 20
0.0
 30
0.0
  9
$PUCSORGRIGHT
 10
0.0
 20
0.0
 30
0.0
  9
$PUCSORGFRONT
 10
0.0
 20
0.0
 30
0.0
  9
$PUCSORGBACK
 10
0.0
 20
0.0
 30
0.0
  9
$USERI1
 70
     0
  9
$USERI2
 70
     0
  9
$USERI3
 70
     0
  9
$USERI4
 70
     0
  9
$USERI5
 70
     0
  9
$USERR1
 40
0.0
  9
$USERR2
 40
0.0
  9
$USERR3
 40
0.0
  9
$USERR4
 40
0.0
  9
$USERR5
 40
0.0
  9
$WORLDVIEW
 70
     1
  9
$SHADEDGE
 70
     3
  9
$SHADEDIF
 70
    70
  9
$TILEMODE
 70
     1
  9
$MAXACTVP
 70
    64
  9
$PINSBASE
 10
0.0
 20
0.0
 30
0.0
  9
$PLIMCHECK
 70
     0
  9
$PEXTMIN
 10
1.000000000000000E+20
 20
1.000000000000000E+20
 30
1.000000000000000E+20
  9
$PEXTMAX
 10
-1.000000000000000E+20
 20
-1.000000000000000E+20
 30
-1.000000000000000E+20
  9
$PLIMMIN
 10
0.0
 20
0.0
  9
$PLIMMAX
 10
0.0
 20
0.0
  9
$UNITMODE
 70
     0
  9
$VISRETAIN
 70
     1
  9
$PLINEGEN
 70
     0
  9
$PSLTSCALE
 70
     1
  9
$TREEDEPTH
 70
  3020
  9
$CMLSTYLE
  2
Standard
  9
$CMLJUST
 70
     0
  9
$CMLSCALE
 40
20.0
  9
$PROXYGRAPHICS
 70
     1
  9
$MEASUREMENT
 70
     1
  9
$CELWEIGHT
370
    -1
  9
$ENDCAPS
280
     0
  9
$JOINSTYLE
280
     0
  9
$LWDISPLAY
290
     1
  9
$INSUNITS
 70
     4
  9
$HYPERLINKBASE
  1

  9
$STYLESHEET
  1

  9
$XEDIT
290
     1
  9
$CEPSNTYPE
380
     0
  9
$PSTYLEMODE
290
     1
  9
$FINGERPRINTGUID
  2
{5B14E38E-0332-43A8-A31A-8BC26D4AD6B0}
  9
$VERSIONGUID
  2
{FAEB1C32-E019-11D5-929B-00C0DF256EC4}
  9
$EXTNAMES
290
     1
  9
$PSVPSCALE
 40
0.0
  9
$OLESTARTUP
290
     0
  0
ENDSEC
  0
SECTION
  2
CLASSES
  0
CLASS
  1
ACDBDICTIONARYWDFLT
  2
AcDbDictionaryWithDefault
  3
ObjectDBX Classes
 90
        0
280
     0
281
     0
  0
CLASS
  1
VISUALSTYLE
  2
AcDbVisualStyle
  3
ObjectDBX Classes
 90
     4095
280
     0
281
     0
  0
CLASS
  1
MATERIAL
  2
AcDbMaterial
  3
ObjectDBX Classes
 90
     1153
280
     0
281
     0
  0
CLASS
  1
SCALE
  2
AcDbScale
  3
ObjectDBX Classes
 90
     1153
280
     0
281
     0
  0
CLASS
  1
SUN
  2
AcDbSun
  3
SCENEOE
 90
     1153
280
     0
281
     0
  0
CLASS
  1
ACDBPLACEHOLDER
  2
AcDbPlaceHolder
  3
ObjectDBX Classes
 90
        0
280
     0
281
     0
  0
CLASS
  1
LAYOUT
  2
AcDbLayout
  3
ObjectDBX Classes
 90
        0
280
     0
281
     0
  0
CLASS
  1
TABLESTYLE
  2
AcDbTableStyle
  3
ObjectDBX Classes
 90
     4095
280
     0
281
     0
  0
CLASS
  1
MLEADERSTYLE
  2
AcDbMLeaderStyle
  3
ACDB_MLEADERSTYLE_CLASS
 90
     4095
280
     0
281
     0
  0
CLASS
  1
RASTERVARIABLES
  2
AcDbRasterVariables
  3
ISM
 90
        0
280
     0
281
     0
  0
ENDSEC
  0
SECTION
  2
TABLES
  0
TABLE
  2
VPORT
  5
8
330
0
100
AcDbSymbolTable
 70
     1
  0
VPORT
  5
29
330
8
100
AcDbSymbolTableRecord
100
AcDbViewportTableRecord
  2
*Active
 70
     0
 10
0.0
 20
0.0
 11
1.0
 21
1.0
 12
50.82774723666942
 22
-5.865816473205967
 13
0.0
 23
0.0
 14
10.0
 24
10.0
 15
10.0
 25
10.0
 16
0.0
 26
0.0
 36
1.0
 17
0.0
 27
0.0
 37
0.0
 40
122.4824267716682
 41
2.213513513513513
 42
50.0
 43
0.0
 44
0.0
 50
0.0
 51
0.0
 71
    16
 72
  2000
 73
     1
 74
     3
 75
     0
 76
     0
 77
     0
 78
     0
281
     0
 65
     1
110
0.0
120
0.0
130
0.0
111
1.0
121
0.0
131
0.0
112
0.0
122
1.0
132
0.0
 79
     0
146
0.0
  0
ENDTAB
  0
TABLE
  2
LTYPE
  5
5
330
0
100
AcDbSymbolTable
 70
     6
  0
LTYPE
  5
14
330
5
100
AcDbSymbolTableRecord
100
AcDbLinetypeTableRecord
  2
ByBlock
 70
     0
  3

 72
    65
 73
     0
 40
0.0
  0
LTYPE
  5
15
330
5
100
AcDbSymbolTableRecord
100
AcDbLinetypeTableRecord
  2
ByLayer
 70
     0
  3

 72
    65
 73
     0
 40
0.0
  0
LTYPE
  5
16
330
5
100
AcDbSymbolTableRecord
100
AcDbLinetypeTableRecord
  2
Continuous
 70
     0
  3
Solid line
 72
    65
 73
     0
 40
0.0
  0
LTYPE
  5
6A
330
5
100
AcDbSymbolTableRecord
100
AcDbLinetypeTableRecord
  2
HIDDEN
 70
     0
  3
Hidden __ __ __ __ __ __ __ __ __ __ __ __ __ __
 72
    65
 73
     2
 40
1.905
 49
1.27
 74
     0
 49
-0.635
 74
     0
  0
LTYPE
  5
6B
330
5
100
AcDbSymbolTableRecord
100
AcDbLinetypeTableRecord
  2
PHANTOM
 70
     0
  3
Phantom ______  __  __  ______  __  __  ______
 72
    65
 73
     6
 40
12.7
 49
6.35
 74
     0
 49
-1.27
 74
     0
 49
1.27
 74
     0
 49
-1.27
 74
     0
 49
1.27
 74
     0
 49
-1.27
 74
     0
  0
LTYPE
  5
6C
330
5
100
AcDbSymbolTableRecord
100
AcDbLinetypeTableRecord
  2
CENTER
 70
     0
  3
Center ____ _ ____ _ ____ _ ____ _ ____ _ ____
 72
    65
 73
     4
 40
10.16
 49
6.35
 74
     0
 49
-1.27
 74
     0
 49
1.27
 74
     0
 49
-1.27
 74
     0
  0
LTYPE
  5
6D
330
5
100
AcDbSymbolTableRecord
100
AcDbLinetypeTableRecord
  2
CENTERX2
 70
     0
  3
Center (2x) ________  __  ________  __  _____
 72
    65
 73
     4
 40
20.32
 49
12.7
 74
     0
 49
-2.54
 74
     0
 49
2.54
 74
     0
 49
-2.54
 74
     0
  0
LTYPE
  5
6E
330
5
100
AcDbSymbolTableRecord
100
AcDbLinetypeTableRecord
  2
DOT2
 70
     0
  3
Dot (.5x) ........................................
 72
    65
 73
     2
 40
0.635
 49
0.0
 74
     0
 49
-0.635
 74
     0
  0
ENDTAB
  0
TABLE
  2
LAYER
  5
2
330
0
100
AcDbSymbolTable
 70
    18
  0
LAYER
  5
10
330
2
100
AcDbSymbolTableRecord
100
AcDbLayerTableRecord
  2
0
 70
     0
 62
     7
  6
Continuous
370
    -3
390
F
  0
LAYER
  5
6F
330
2
100
AcDbSymbolTableRecord
100
AcDbLayerTableRecord
  2
FORMAT
 70
     0
 62
     2
  6
Continuous
370
    -3
390
F
  0
LAYER
  5
70
330
2
100
AcDbSymbolTableRecord
100
AcDbLayerTableRecord
  2
외형선
 70
     0
 62
     4
  6
Continuous
370
    30
390
F
  0
LAYER
  5
71
330
2
100
AcDbSymbolTableRecord
100
AcDbLayerTableRecord
  2
숨은선
 70
     0
 62
     2
  6
HIDDEN
370
    15
390
F
  0
LAYER
  5
72
330
2
100
AcDbSymbolTableRecord
100
AcDbLayerTableRecord
  2
중심선
 70
     0
 62
     1
  6
CENTERX2
370
    -3
390
F
  0
LAYER
  5
73
330
2
100
AcDbSymbolTableRecord
100
AcDbLayerTableRecord
  2
파단선
 70
     0
 62
     4
  6
Continuous
370
    -3
390
F
  0
LAYER
  5
74
330
2
100
AcDbSymbolTableRecord
100
AcDbLayerTableRecord
  2
해칭선
 70
     0
 62
   100
  6
Continuous
370
    -3
390
F
  0
LAYER
  5
75
330
2
100
AcDbSymbolTableRecord
100
AcDbLayerTableRecord
  2
가는실선
 70
     0
 62
     4
  6
Continuous
370
    -3
390
F
  0
LAYER
  5
76
330
2
100
AcDbSymbolTableRecord
100
AcDbLayerTableRecord
  2
치수_보조선
 70
     0
 62
     4
  6
Continuous
370
    -3
390
F
  0
LAYER
  5
77
330
2
100
AcDbSymbolTableRecord
100
AcDbLayerTableRecord
  2
치수문자_일반주서
 70
     0
 62
     7
  6
Continuous
370
    15
390
F
  0
LAYER
  5
78
330
2
100
AcDbSymbolTableRecord
100
AcDbLayerTableRecord
  2
개별주서
 70
     0
 62
   100
  6
Continuous
370
    30
390
F
  0
LAYER
  5
79
330
2
100
AcDbSymbolTableRecord
100
AcDbLayerTableRecord
  2
중간선
 70
     0
 62
     2
  6
Continuous
370
    15
390
F
  0
LAYER
  5
7A
330
2
100
AcDbSymbolTableRecord
100
AcDbLayerTableRecord
  2
윤곽선
 70
     0
 62
     3
  6
Continuous
370
    40
390
F
  0
LAYER
  5
7B
330
2
100
AcDbSymbolTableRecord
100
AcDbLayerTableRecord
  2
중심마크
 70
     0
 62
   100
  6
Continuous
370
    30
390
F
  0
LAYER
  5
7C
330
2
100
AcDbSymbolTableRecord
100
AcDbLayerTableRecord
  2
가상선
 70
     0
 62
     4
  6
PHANTOM
370
    -3
390
F
  0
LAYER
  5
7D
330
2
100
AcDbSymbolTableRecord
100
AcDbLayerTableRecord
  2
특수지정선
 70
     0
 62
     5
  6
CENTERX2
370
    60
390
F
  0
LAYER
  5
7E
330
2
100
AcDbSymbolTableRecord
100
AcDbLayerTableRecord
  2
참조1
 70
     0
 62
    -4
  6
Continuous
370
    -3
390
F
  0
LAYER
  5
145
330
2
100
AcDbSymbolTableRecord
100
AcDbLayerTableRecord
  2
Defpoints
 70
     0
 62
     7
  6
Continuous
290
     0
370
    -3
390
F
  0
ENDTAB
  0
TABLE
  2
STYLE
  5
3
330
0
100
AcDbSymbolTable
 70
     2
  0
STYLE
  5
11
330
3
100
AcDbSymbolTableRecord
100
AcDbTextStyleTableRecord
  2
Standard
 70
     0
 40
0.0
 41
1.0
 50
0.0
 71
     0
 42
3.5
  3
txt
  4

  0
STYLE
  5
94
330
3
100
AcDbSymbolTableRecord
100
AcDbTextStyleTableRecord
  2
SLDTEXTSTYLE0
 70
     0
 40
0.0
 41
0.75
 50
0.0
 71
     0
 42
3.5
  3
TXT
  4

  0
ENDTAB
  0
TABLE
  2
VIEW
  5
6
330
0
100
AcDbSymbolTable
 70
     0
  0
ENDTAB
  0
TABLE
  2
UCS
  5
7
330
0
100
AcDbSymbolTable
 70
     0
  0
ENDTAB
  0
TABLE
  2
APPID
  5
9
330
0
100
AcDbSymbolTable
 70
     3
  0
APPID
  5
12
330
9
100
AcDbSymbolTableRecord
100
AcDbRegAppTableRecord
  2
ACAD
 70
     0
  0
APPID
  5
14E
330
9
100
AcDbSymbolTableRecord
100
AcDbRegAppTableRecord
  2
ACAD_DSTYLE_DIMFLIPARROW_SYMBOL
 70
     0
  0
APPID
  5
14F
330
9
100
AcDbSymbolTableRecord
100
AcDbRegAppTableRecord
  2
ACAD_DSTYLE_DIMFLIPARROW_WHICH_SYMBOL
 70
     0
  0
ENDTAB
  0
TABLE
  2
DIMSTYLE
  5
A
330
0
100
AcDbSymbolTable
 70
     4
100
AcDbDimStyleTable
  0
DIMSTYLE
105
27
330
A
100
AcDbSymbolTableRecord
100
AcDbDimStyleTableRecord
  2
ISO-25
 70
     0
 41
2.5
 42
0.625
 43
3.75
 44
1.25
 73
     0
 74
     0
 77
     1
 78
     8
140
2.5
141
2.5
143
0.03937007874016
147
0.625
171
     3
172
     1
178
     0
271
     2
272
     2
274
     3
278
    44
283
     0
284
     8
340
11
  0
DIMSTYLE
105
C3
102
{ACAD_REACTORS
330
C2
330
EB
102
}
330
A
100
AcDbSymbolTableRecord
100
AcDbDimStyleTableRecord
  2
SLDDIMSTYLE0
 70
     0
 41
3.302
 44
0.0
 45
0.000000001
 73
     0
 74
     0
 77
     1
 78
    12
 79
     3
140
3.5
143
0.0393700787401575
147
0.875
148
0.000000001
170
     1
173
     1
178
     0
271
     2
272
     2
276
     2
284
    12
340
94
  0
DIMSTYLE
105
D8
102
{ACAD_REACTORS
330
D7
102
}
330
A
100
AcDbSymbolTableRecord
100
AcDbDimStyleTableRecord
  2
SLDDIMSTYLE1
 70
     0
 41
3.302
 44
0.0
 45
0.000000001
 73
     0
 74
     0
 77
     1
 78
     4
 79
     1
140
3.5
143
0.0393700787401575
147
0.875
148
0.000000001
170
     1
173
     1
178
     0
271
     2
272
     2
276
     2
284
    12
340
94
  0
DIMSTYLE
105
FF
102
{ACAD_REACTORS
330
FE
102
}
330
A
100
AcDbSymbolTableRecord
100
AcDbDimStyleTableRecord
  2
SLDDIMSTYLE2
 70
     0
 41
3.302
 44
0.0
 45
0.000000001
 73
     0
 74
     0
 77
     1
 78
    12
 79
     3
140
3.5
143
0.0393700787401575
147
0.875
148
0.000000001
170
     1
172
     1
173
     1
178
     0
271
     2
272
     2
276
     2
284
    12
289
     0
340
94
  0
ENDTAB
  0
TABLE
  2
BLOCK_RECORD
  5
1
330
0
100
AcDbSymbolTable
 70
     7
  0
BLOCK_RECORD
  5
1F
330
1
100
AcDbSymbolTableRecord
100
AcDbBlockTableRecord
  2
*Model_Space
340
22
  0
BLOCK_RECORD
  5
1B
330
1
100
AcDbSymbolTableRecord
100
AcDbBlockTableRecord
  2
*Paper_Space
340
1E
  0
BLOCK_RECORD
  5
23
330
1
100
AcDbSymbolTableRecord
100
AcDbBlockTableRecord
  2
*Paper_Space0
340
26
  0
BLOCK_RECORD
  5
7F
330
1
100
AcDbSymbolTableRecord
100
AcDbBlockTableRecord
  2
블럭10
340
0
102
{BLKREFS
331
B9
102
}
  0
BLOCK_RECORD
  5
C4
330
1
100
AcDbSymbolTableRecord
100
AcDbBlockTableRecord
  2
_D
340
0
  0
BLOCK_RECORD
  5
D9
330
1
100
AcDbSymbolTableRecord
100
AcDbBlockTableRecord
  2
_D_1
340
0
  0
BLOCK_RECORD
  5
EC
330
1
100
AcDbSymbolTableRecord
100
AcDbBlockTableRecord
  2
_D_2
340
0
  0
BLOCK_RECORD
  5
100
330
1
100
AcDbSymbolTableRecord
100
AcDbBlockTableRecord
  2
_D_3
340
0
  0
BLOCK_RECORD
  5
11A
330
1
100
AcDbSymbolTableRecord
100
AcDbBlockTableRecord
  2
SW_DOWELSYMBOL_0
340
0
102
{BLKREFS
331
120
102
}
  0
ENDTAB
  0
ENDSEC
  0
SECTION
  2
BLOCKS
  0
BLOCK
  5
20
330
1F
100
AcDbEntity
  8
0
100
AcDbBlockBegin
  2
*Model_Space
 70
     0
 10
0.0
 20
0.0
 30
0.0
  3
*Model_Space
  1
*Model_Space
  0
ENDBLK
  5
21
330
1F
100
AcDbEntity
  8
0
100
AcDbBlockEnd
  0
BLOCK
  5
1C
330
1B
100
AcDbEntity
 67
     1
  8
0
100
AcDbBlockBegin
  2
*Paper_Space
 70
     0
 10
0.0
 20
0.0
 30
0.0
  3
*Paper_Space
  1
*Paper_Space
  0
ENDBLK
  5
1D
330
1B
100
AcDbEntity
 67
     1
  8
0
100
AcDbBlockEnd
  0
BLOCK
  5
24
330
23
100
AcDbEntity
  8
0
100
AcDbBlockBegin
  2
*Paper_Space0
 70
     0
 10
0.0
 20
0.0
 30
0.0
  3
*Paper_Space0
  1
*Paper_Space0
  0
ENDBLK
  5
25
330
23
100
AcDbEntity
  8
0
100
AcDbBlockEnd
  0
BLOCK
  5
80
330
7F
100
AcDbEntity
  8
0
100
AcDbBlockBegin
  2
블럭10
 70
     2
 10
0.0
 20
0.0
 30
0.0
  3
블럭10
  1
블럭10
  0
ELLIPSE
  5
82
330
7F
100
AcDbEntity
  8
중심선
100
AcDbEllipse
 10
20.54032771741204
 20
12.0471743016438
 30
0.0
 11
6.600054785286829
 21
-1.261213355974178E-13
 31
0.0
210
0.0
220
0.0
230
1.0
 40
0.636358354079598
 41
0.9219305317359503
 42
6.513795318482858
  0
ELLIPSE
  5
83
330
7F
100
AcDbEntity
  8
중심선
100
AcDbEllipse
 10
20.54032771746488
 20
12.04717430159265
 30
0.0
 11
3.960054785062283
 21
1.540847449632565E-10
 31
0.0
210
0.0
220
0.0
230
1.0
 40
0.3939339440162632
 41
1.131841032648279
 42
5.62031148352944
  0
LINE
  5
84
330
7F
100
AcDbEntity
  8
중심선
100
AcDbLine
 10
2.268634060543552
 20
16.24717430164393
 30
0.0
 11
5.714909304380834
 21
16.24717430164393
 31
0.0
  0
LINE
  5
85
330
7F
100
AcDbEntity
  8
중심선
100
AcDbLine
 10
5.245725140726316
 20
7.84717430164391
 30
0.0
 11
8.692000384563599
 21
7.84717430164391
 31
0.0
  0
LINE
  5
86
330
7F
100
AcDbEntity
  8
중심선
100
AcDbLine
 10
15.74043728645272
 20
16.24717430164393
 30
0.0
 11
8.692000384563599
 21
7.84717430164391
 31
0.0
  0
LINE
  5
87
330
7F
100
AcDbEntity
  8
중심선
100
AcDbLine
 10
0.1404042013395286
 20
13.71084872107135
 30
0.0
 11
3.58671253028996
 21
13.71088815037384
 31
0.0
  0
LINE
  5
88
330
7F
100
AcDbEntity
  8
중심선
100
AcDbLine
 10
2.750260043222114
 20
10.84717430164391
 30
0.0
 11
6.196535287059397
 21
10.84717430164391
 31
0.0
  0
LINE
  5
89
330
7F
100
AcDbEntity
  8
중심선
100
AcDbLine
 10
12.29416204261559
 20
16.24717430164393
 30
0.0
 11
5.245725140726316
 21
7.84717430164391
 31
0.0
  0
LINE
  5
8A
330
7F
100
AcDbEntity
  8
중심선
100
AcDbLine
 10
10.72767329541681
 20
16.24717430164393
 30
0.0
 11
6.196535287059397
 21
10.84717430164391
 31
0.0
  0
LINE
  5
8B
330
7F
100
AcDbEntity
  8
중심선
100
AcDbLine
 10
7.28139805157953
 20
16.24717430164393
 30
0.0
 11
2.750260043222114
 21
10.84717430164391
 31
0.0
  0
LINE
  5
8C
330
7F
100
AcDbEntity
  8
중심선
100
AcDbLine
 10
5.714909304380834
 20
16.24717430164393
 30
0.0
 11
3.58671253028996
 21
13.71088815037384
 31
0.0
  0
LINE
  5
8D
330
7F
100
AcDbEntity
  8
중심선
100
AcDbLine
 10
2.268634060543552
 20
16.24717430164393
 30
0.0
 11
0.1404042013395286
 21
13.71084872107135
 31
0.0
  0
LINE
  5
8E
330
7F
100
AcDbEntity
  8
중심선
100
AcDbLine
 10
7.28139805157953
 20
16.24717430164393
 30
0.0
 11
10.72767329541681
 21
16.24717430164393
 31
0.0
  0
LINE
  5
8F
330
7F
100
AcDbEntity
  8
중심선
100
AcDbLine
 10
12.29416204261559
 20
16.24717430164393
 30
0.0
 11
15.74043728645272
 21
16.24717430164393
 31
0.0
  0
LINE
  5
90
330
7F
100
AcDbEntity
  8
중심선
100
AcDbLine
 10
19.22036997980202
 20
11.08717430171403
 30
0.0
 11
23.66174974927406
 21
11.08717430171406
 31
0.0
  0
LINE
  5
91
330
7F
100
AcDbEntity
  8
중심선
100
AcDbLine
 10
19.22039502424796
 20
13.00717430171391
 30
0.0
 11
19.22036997980202
 21
11.08717430171403
 31
0.0
  0
LINE
  5
92
330
7F
100
AcDbEntity
  8
중심선
100
AcDbLine
 10
19.22039502424796
 20
13.00717430171391
 30
0.0
 11
26.96566020931264
 21
13.00717430171391
 31
0.0
  0
LINE
  5
93
330
7F
100
AcDbEntity
  8
중심선
100
AcDbLine
 10
22.22332737316547
 20
13.45928029700563
 30
0.0
 11
24.52862924686651
 21
15.39360700705356
 31
0.0
  0
ATTDEF
  5
95
330
7F
100
AcDbEntity
  8
FORMAT
 62
     2
100
AcDbText
 10
5.200277315438102
 20
2.075366912832191
 30
0.0
 40
4.233333333333333
  1
EI106024
 41
0.75
  7
SLDTEXTSTYLE0
 11
5.200277315438102
 21
-0.0412997538344756
 31
0.0
100
AcDbAttributeDefinition
  3

  2
AUTOATTR0
 70
     0
 74
     1
  0
ENDBLK
  5
81
330
7F
100
AcDbEntity
  8
0
100
AcDbBlockEnd
  0
BLOCK
  5
C5
330
C4
100
AcDbEntity
  8
0
100
AcDbBlockBegin
  2
_D
 70
     0
 10
0.0
 20
0.0
 30
0.0
  3
_D
  1
_D
  0
LINE
  5
C7
330
C4
100
AcDbEntity
  8
치수문자_일반주서
 62
     0
370
    -2
100
AcDbLine
 10
39.40615766425395
 20
4.826074928723893
 30
0.0
 11
39.40615766425395
 21
17.9768654049653
 31
0.0
  0
LINE
  5
C8
330
C4
100
AcDbEntity
  8
치수문자_일반주서
 62
     0
370
    -2
100
AcDbLine
 10
17.18115766425391
 20
4.826074928723896
 30
0.0
 11
17.18115766425391
 21
17.9768654049653
 31
0.0
  0
LINE
  5
C9
330
C4
100
AcDbEntity
  8
치수문자_일반주서
 62
     0
370
    -2
100
AcDbLine
 10
17.18115766425391
 20
17.9768654049653
 30
0.0
 11
-12.37084233574609
 21
17.9768654049653
 31
0.0
  0
LINE
  5
CA
330
C4
100
AcDbEntity
  8
치수문자_일반주서
 62
     0
370
    -2
100
AcDbLine
 10
36.10415766425395
 20
17.9768654049653
 30
0.0
 11
20.48315766425391
 21
17.9768654049653
 31
0.0
  0
SOLID
  5
CB
330
C4
100
AcDbEntity
  8
치수문자_일반주서
 62
     0
100
AcDbTrace
 10
36.10415766425395
 20
17.42653207163197
 30
0.0
 11
36.10415766425395
 21
18.52719873829864
 31
0.0
 12
39.40615766425395
 22
17.9768654049653
 32
0.0
 13
39.40615766425395
 23
17.9768654049653
 33
0.0
  0
SOLID
  5
CC
330
C4
100
AcDbEntity
  8
치수문자_일반주서
 62
     0
100
AcDbTrace
 10
20.48315766425391
 20
18.52719873829864
 30
0.0
 11
20.48315766425391
 21
17.42653207163197
 31
0.0
 12
17.18115766425391
 22
17.9768654049653
 32
0.0
 13
17.18115766425391
 23
17.9768654049653
 33
0.0
  0
MTEXT
  5
CD
330
C4
100
AcDbEntity
  8
치수문자_일반주서
 62
     0
100
AcDbMText
 10
0.7541576642539063
 20
22.3518654049653
 30
0.0
 40
3.5
 41
0.0
 71
     2
 72
     1
  1
\A1;22.23 [7/8]
  7
SLDTEXTSTYLE0
 73
     1
 44
1.0
  0
POINT
  5
CE
330
C4
100
AcDbEntity
  8
Defpoints
 62
     0
100
AcDbPoint
 10
39.40615766425395
 20
4.763574928723893
 30
0.0
  0
POINT
  5
CF
330
C4
100
AcDbEntity
  8
Defpoints
 62
     0
100
AcDbPoint
 10
17.18115766425391
 20
4.763574928723896
 30
0.0
  0
POINT
  5
D0
330
C4
100
AcDbEntity
  8
Defpoints
 62
     0
100
AcDbPoint
 10
17.18115766425391
 20
17.9768654049653
 30
0.0
  0
ENDBLK
  5
C6
330
C4
100
AcDbEntity
  8
0
100
AcDbBlockEnd
  0
BLOCK
  5
DA
330
D9
100
AcDbEntity
  8
0
100
AcDbBlockBegin
  2
_D_1
 70
     0
 10
0.0
 20
0.0
 30
0.0
  3
_D_1
  1
_D_1
  0
LINE
  5
DC
330
D9
100
AcDbEntity
  8
치수문자_일반주서
 62
     0
370
    -2
100
AcDbLine
 10
39.40615766425395
 20
4.826074928723893
 30
0.0
 11
39.40615766425395
 21
28.56034423427361
 31
0.0
  0
LINE
  5
DD
330
D9
100
AcDbEntity
  8
치수문자_일반주서
 62
     0
370
    -2
100
AcDbLine
 10
-24.0938423357461
 20
3.873574928723901
 30
0.0
 11
-24.0938423357461
 21
28.56034423427361
 31
0.0
  0
LINE
  5
DE
330
D9
100
AcDbEntity
  8
치수문자_일반주서
 62
     0
370
    -2
100
AcDbLine
 10
36.10415766425395
 20
28.56034423427361
 30
0.0
 11
-20.7918423357461
 21
28.56034423427361
 31
0.0
  0
SOLID
  5
DF
330
D9
100
AcDbEntity
  8
치수문자_일반주서
 62
     0
100
AcDbTrace
 10
36.10415766425395
 20
28.01001090094028
 30
0.0
 11
36.10415766425395
 21
29.11067756760695
 31
0.0
 12
39.40615766425395
 22
28.56034423427361
 32
0.0
 13
39.40615766425395
 23
28.56034423427361
 33
0.0
  0
SOLID
  5
E0
330
D9
100
AcDbEntity
  8
치수문자_일반주서
 62
     0
100
AcDbTrace
 10
-20.7918423357461
 20
29.11067756760695
 30
0.0
 11
-20.7918423357461
 21
28.01001090094028
 31
0.0
 12
-24.0938423357461
 22
28.56034423427361
 32
0.0
 13
-24.0938423357461
 23
28.56034423427361
 33
0.0
  0
MTEXT
  5
E1
330
D9
100
AcDbEntity
  8
치수문자_일반주서
 62
     0
100
AcDbMText
 10
8.879672606058874
 20
32.93534423427361
 30
0.0
 40
3.5
 41
0.0
 71
     2
 72
     1
  1
\A1;63.50 [2 1/2]
  7
SLDTEXTSTYLE0
 73
     1
 44
1.0
  0
POINT
  5
E2
330
D9
100
AcDbEntity
  8
Defpoints
 62
     0
100
AcDbPoint
 10
39.40615766425395
 20
4.763574928723893
 30
0.0
  0
POINT
  5
E3
330
D9
100
AcDbEntity
  8
Defpoints
 62
     0
100
AcDbPoint
 10
-24.0938423357461
 20
3.811074928723901
 30
0.0
  0
POINT
  5
E4
330
D9
100
AcDbEntity
  8
Defpoints
 62
     0
100
AcDbPoint
 10
-24.0938423357461
 20
28.56034423427361
 30
0.0
  0
ENDBLK
  5
DB
330
D9
100
AcDbEntity
  8
0
100
AcDbBlockEnd
  0
BLOCK
  5
ED
330
EC
100
AcDbEntity
  8
0
100
AcDbBlockBegin
  2
_D_2
 70
     0
 10
0.0
 20
0.0
 30
0.0
  3
_D_2
  1
_D_2
  0
LINE
  5
EF
330
EC
100
AcDbEntity
  8
치수문자_일반주서
 62
     0
370
    -2
100
AcDbLine
 10
39.40615766425395
 20
4.763574928723893
 30
0.0
 11
51.07913083144275
 21
4.763574928723941
 31
0.0
  0
LINE
  5
F0
330
EC
100
AcDbEntity
  8
치수문자_일반주서
 62
     0
370
    -2
100
AcDbLine
 10
39.40615766425401
 20
-4.761425071276102
 30
0.0
 11
51.07913083144279
 21
-4.761425071276058
 31
0.0
  0
LINE
  5
F1
330
EC
100
AcDbEntity
  8
치수문자_일반주서
 62
     0
370
    -2
100
AcDbLine
 10
51.07913083144275
 20
4.763574928723941
 30
0.0
 11
51.07913083144264
 21
34.31557492872393
 31
0.0
  0
LINE
  5
F2
330
EC
100
AcDbEntity
  8
치수문자_일반주서
 62
     0
370
    -2
100
AcDbLine
 10
51.07913083144277
 20
1.461574928723941
 30
0.0
 11
51.07913083144278
 21
-1.459425071276058
 31
0.0
  0
SOLID
  5
F3
330
EC
100
AcDbEntity
  8
치수문자_일반주서
 62
     0
100
AcDbTrace
 10
51.6294641647761
 20
1.461574928723943
 30
0.0
 11
50.52879749810943
 21
1.461574928723939
 31
0.0
 12
51.07913083144275
 22
4.763574928723941
 32
0.0
 13
51.07913083144275
 23
4.763574928723941
 33
0.0
  0
SOLID
  5
F4
330
EC
100
AcDbEntity
  8
치수문자_일반주서
 62
     0
100
AcDbTrace
 10
50.52879749810944
 20
-1.45942507127606
 30
0.0
 11
51.62946416477611
 21
-1.459425071276056
 31
0.0
 12
51.07913083144279
 22
-4.761425071276058
 32
0.0
 13
51.07913083144279
 23
-4.761425071276058
 33
0.0
  0
MTEXT
  5
F5
330
EC
100
AcDbEntity
  8
치수문자_일반주서
 62
     0
100
AcDbMText
 10
46.70413083144269
 20
21.19057492872392
 30
0.0
 40
3.5
 41
0.0
 71
     2
 72
     1
  1
\A1;%%c9.53 [3/8]
  7
SLDTEXTSTYLE0
 11
-3.729883127349609E-15
 21
1.0
 31
0.0
 73
     1
 44
1.0
  0
POINT
  5
F6
330
EC
100
AcDbEntity
  8
Defpoints
 62
     0
100
AcDbPoint
 10
39.34365766425395
 20
4.763574928723893
 30
0.0
  0
POINT
  5
F7
330
EC
100
AcDbEntity
  8
Defpoints
 62
     0
100
AcDbPoint
 10
39.34365766425401
 20
-4.761425071276102
 30
0.0
  0
POINT
  5
F8
330
EC
100
AcDbEntity
  8
Defpoints
 62
     0
100
AcDbPoint
 10
51.07913083144278
 20
-4.761425071276059
 30
0.0
  0
ENDBLK
  5
EE
330
EC
100
AcDbEntity
  8
0
100
AcDbBlockEnd
  0
BLOCK
  5
101
330
100
100
AcDbEntity
  8
0
100
AcDbBlockBegin
  2
_D_3
 70
     0
 10
0.0
 20
0.0
 30
0.0
  3
_D_3
  1
_D_3
  0
LINE
  5
103
330
100
100
AcDbEntity
  8
치수문자_일반주서
 62
     0
370
    -2
100
AcDbLine
 10
-23.2038423357461
 20
4.763574928723896
 30
0.0
 11
-32.26168281654327
 21
4.763574928723866
 31
0.0
  0
LINE
  5
104
330
100
100
AcDbEntity
  8
치수문자_일반주서
 62
     0
370
    -2
100
AcDbLine
 10
-23.2038423357461
 20
-4.761425071276109
 30
0.0
 11
-32.26168281654324
 21
-4.76142507127614
 31
0.0
  0
LINE
  5
105
330
100
100
AcDbEntity
  8
치수문자_일반주서
 62
     0
370
    -2
100
AcDbLine
 10
-32.26168281654327
 20
4.763574928723866
 30
0.0
 11
-32.26168281654339
 21
37.61757492872387
 31
0.0
  0
LINE
  5
106
330
100
100
AcDbEntity
  8
치수문자_일반주서
 62
     0
370
    -2
100
AcDbLine
 10
-32.26168281654326
 20
1.461574928723866
 30
0.0
 11
-32.26168281654325
 21
-1.45942507127614
 31
0.0
  0
SOLID
  5
107
330
100
100
AcDbEntity
  8
치수문자_일반주서
 62
     0
100
AcDbTrace
 10
-31.71134948320992
 20
1.461574928723868
 30
0.0
 11
-32.81201614987659
 21
1.461574928723864
 31
0.0
 12
-32.26168281654327
 22
4.763574928723866
 32
0.0
 13
-32.26168281654327
 23
4.763574928723866
 33
0.0
  0
SOLID
  5
108
330
100
100
AcDbEntity
  8
치수문자_일반주서
 62
     0
100
AcDbTrace
 10
-32.81201614987658
 20
-1.459425071276142
 30
0.0
 11
-31.71134948320991
 21
-1.459425071276138
 31
0.0
 12
-32.26168281654324
 22
-4.76142507127614
 32
0.0
 13
-32.26168281654324
 23
-4.76142507127614
 33
0.0
  0
MTEXT
  5
109
330
100
100
AcDbEntity
  8
치수문자_일반주서
 62
     0
100
AcDbMText
 10
-36.63668281654334
 20
24.49257492872385
 30
0.0
 40
3.5
 41
0.0
 71
     2
 72
     1
  1
\A1;%%c9.53 [3/8]
  7
SLDTEXTSTYLE0
 11
-3.729883127349605E-15
 21
1.0
 31
0.0
 73
     1
 44
1.0
  0
POINT
  5
10A
330
100
100
AcDbEntity
  8
Defpoints
 62
     0
100
AcDbPoint
 10
-23.1413423357461
 20
4.763574928723896
 30
0.0
  0
POINT
  5
10B
330
100
100
AcDbEntity
  8
Defpoints
 62
     0
100
AcDbPoint
 10
-23.1413423357461
 20
-4.761425071276109
 30
0.0
  0
POINT
  5
146
330
100
100
AcDbEntity
  8
Defpoints
 62
     0
100
AcDbPoint
 10
-32.26168281654324
 20
-4.761425071276141
 30
0.0
  0
ENDBLK
  5
102
330
100
100
AcDbEntity
  8
0
100
AcDbBlockEnd
  0
BLOCK
  5
11B
330
11A
100
AcDbEntity
  8
0
100
AcDbBlockBegin
  2
SW_DOWELSYMBOL_0
 70
     0
 10
0.0
 20
0.0
 30
0.0
  3
SW_DOWELSYMBOL_0
  1
SW_DOWELSYMBOL_0
  0
CIRCLE
  5
11D
330
11A
100
AcDbEntity
  8
해칭선
 62
     0
100
AcDbCircle
 10
0.0
 20
0.0
 30
0.0
 40
3.000000000000001
  0
HATCH
  5
11E
330
11A
100
AcDbEntity
  8
0
  6
Continuous
 62
     0
370
     0
100
AcDbHatch
 10
0.0
 20
0.0
 30
0.0
210
0.0
220
0.0
230
1.0
  2
SOLID
 70
     1
 71
     0
 91
        1
 92
        0
 93
        3
 72
     2
 10
-0.0000000000000052
 20
0.0
 40
3.000000000000001
 50
0.0
 51
90.0
 73
     1
 72
     1
 10
-0.0000000000000052
 20
3.000000000000001
 11
-0.0000000000000052
 21
0.0
 72
     1
 10
-0.0000000000000052
 20
0.0
 11
2.999999999999996
 21
0.0
 97
        0
 75
     0
 76
     1
 98
        1
 10
0.0
 20
0.0
  0
HATCH
  5
11F
330
11A
100
AcDbEntity
  8
0
  6
Continuous
 62
     0
370
     0
100
AcDbHatch
 10
0.0
 20
0.0
 30
0.0
210
0.0
220
0.0
230
1.0
  2
SOLID
 70
     1
 71
     0
 91
        1
 92
        0
 93
        3
 72
     2
 10
-0.0000000000000052
 20
0.0
 40
3.000000000000001
 50
180.0
 51
270.0000000000008
 73
     1
 72
     1
 10
-0.0000000000000052
 20
-3.000000000000001
 11
-0.0000000000000052
 21
0.0
 72
     1
 10
-0.0000000000000052
 20
0.0
 11
-3.000000000000007
 21
0.0
 97
        0
 75
     0
 76
     1
 98
        1
 10
0.0
 20
0.0
  0
ENDBLK
  5
11C
330
11A
100
AcDbEntity
  8
0
100
AcDbBlockEnd
  0
ENDSEC
  0
SECTION
  2
ENTITIES
  0
LINE
  5
96
330
1F
100
AcDbEntity
  8
외형선
  6
Continuous
 62
     1
370
    15
100
AcDbLine
 10
20.79267139399824
 20
4.763574928723891
 30
0.0
 11
17.88918373528477
 21
4.763574928723891
 31
0.0
  0
LINE
  5
97
330
1F
100
AcDbEntity
  8
외형선
  6
Continuous
 62
     1
370
    15
100
AcDbLine
 10
30.84676085360515
 20
-4.761425071276104
 30
0.0
 11
33.75003584056683
 21
-4.761425071276104
 31
0.0
  0
ARC
  5
98
330
1F
100
AcDbEntity
  8
외형선
  6
Continuous
370
    15
100
AcDbCircle
 10
34.64365766425392
 20
0.001074928723896
 30
0.0
 40
4.762499999999994
100
AcDbArc
 50
336.3424608624441
 51
0.0
  0
ARC
  5
99
330
1F
100
AcDbEntity
  8
외형선
  6
Continuous
370
    15
100
AcDbCircle
 10
34.64365766425392
 20
0.001074928723896
 30
0.0
 40
4.762499999999992
100
AcDbArc
 50
0.0
 51
23.65556804944944
  0
LINE
  5
9A
330
1F
100
AcDbEntity
  8
외형선
  6
Continuous
 62
     1
370
    15
100
AcDbLine
 10
33.75003584056682
 20
4.763574928723891
 30
0.0
 11
30.8467608536051
 21
4.763574928723891
 31
0.0
  0
LINE
  5
9B
330
1F
100
AcDbEntity
  8
외형선
  6
Continuous
 62
     1
370
    15
100
AcDbLine
 10
17.88918373528476
 20
-4.761425071276104
 30
0.0
 11
20.79267139399829
 21
-4.761425071276104
 31
0.0
  0
LINE
  5
9C
330
1F
100
AcDbEntity
  8
외형선
  6
Continuous
370
    15
100
AcDbLine
 10
-23.1413423357461
 20
4.763574928723894
 30
0.0
 11
-24.0938423357461
 21
3.811074928723896
 31
0.0
  0
LINE
  5
9D
330
1F
100
AcDbEntity
  8
외형선
  6
Continuous
370
    15
100
AcDbLine
 10
-24.0938423357461
 20
-3.808925071276109
 30
0.0
 11
-23.1413423357461
 21
-4.761425071276107
 31
0.0
  0
LINE
  5
9E
330
1F
100
AcDbEntity
  8
외형선
  6
Continuous
370
    15
100
AcDbLine
 10
-23.1413423357461
 20
-4.761425071276106
 30
0.0
 11
17.18115766425391
 21
-4.761425071276106
 31
0.0
  0
LINE
  5
9F
330
1F
100
AcDbEntity
  8
외형선
  6
Continuous
370
    15
100
AcDbLine
 10
17.18115766425391
 20
4.763574928723893
 30
0.0
 11
-23.1413423357461
 21
4.763574928723893
 31
0.0
  0
SPLINE
  5
A0
330
1F
100
AcDbEntity
  8
외형선
  6
Continuous
 62
     1
370
    15
100
AcDbSpline
210
0.0
220
0.0
230
1.0
 70
     8
 71
     3
 72
    17
 73
    13
 74
     0
 42
0.000000001
 43
0.00000001
 40
0.0
 40
0.0
 40
0.0
 40
0.0
 40
0.1022996603526699
 40
0.2044684891951433
 40
0.3066324526958064
 40
0.4089175855065608
 40
0.5112309960230533
 40
0.6134054388167424
 40
0.7155652859924864
 40
0.8280215002182506
 40
0.9405590921570011
 40
1.0
 40
1.0
 40
1.0
 40
1.0
 10
17.18115766425391
 20
0.4091323545544412
 30
0.0
 10
17.64723096344129
 20
0.1401152420736969
 30
0.0
 10
18.57878149851164
 20
-0.3975749356546609
 30
0.0
 10
19.9752512822916
 20
-1.196563986421206
 30
0.0
 10
21.37165422390255
 20
-1.960396875928864
 30
0.0
 10
22.76917436271612
 20
-2.66790513518379
 30
0.0
 10
24.16689514941437
 20
-3.298990017711132
 30
0.0
 10
25.56343764661662
 20
-3.835685543594917
 30
0.0
 10
27.00617311571103
 20
-4.278564748308807
 30
0.0
 10
28.49651469903397
 20
-4.591024645076618
 30
0.0
 10
29.79252165307649
 20
-4.754528714660587
 30
0.0
 10
30.57597572021344
 20
-4.744356686183458
 30
0.0
 10
30.84676085360516
 20
-4.740840929225161
 30
0.0
  0
SPLINE
  5
A1
330
1F
100
AcDbEntity
  8
외형선
  6
Continuous
 62
     1
370
    15
100
AcDbSpline
210
0.0
220
0.0
230
1.0
 70
     8
 71
     3
 72
    13
 73
     9
 74
     0
 42
0.000000001
 43
0.00000001
 40
0.0
 40
0.0
 40
0.0
 40
0.0
 40
0.109993597578638
 40
0.2880023007244667
 40
0.465941031245561
 40
0.643876083162569
 40
0.8218737756520821
 40
1.0
 40
1.0
 40
1.0
 40
1.0
 10
25.81342777657919
 20
-3.893798049380393
 30
0.0
 10
25.49686883838165
 20
-3.998035833002427
 30
0.0
 10
24.66800511792191
 20
-4.27096736871388
 30
0.0
 10
23.32737083804
 20
-4.561383536584141
 30
0.0
 10
21.79131036038362
 20
-4.755275162055556
 30
0.0
 10
20.25529858349706
 20
-4.77685912621505
 30
0.0
 10
18.71865824881753
 20
-4.645070845931193
 30
0.0
 10
17.69378115828498
 20
-4.423205305205023
 30
0.0
 10
17.1811576642539
 20
-4.312232497106593
 30
0.0
  0
SPLINE
  5
A2
330
1F
100
AcDbEntity
  8
외형선
  6
Continuous
 62
     1
370
    15
100
AcDbSpline
210
0.0
220
0.0
230
1.0
 70
     8
 71
     3
 72
    38
 73
    34
 74
     0
 42
0.000000001
 43
0.00000001
 40
0.0
 40
0.0
 40
0.0
 40
0.0
 40
0.0625
 40
0.0625
 40
0.125
 40
0.125
 40
0.1875
 40
0.1875
 40
0.25
 40
0.25
 40
0.3125
 40
0.3125
 40
0.375
 40
0.375
 40
0.4375000000000001
 40
0.4375000000000001
 40
0.5
 40
0.5
 40
0.5625
 40
0.5625
 40
0.625
 40
0.625
 40
0.6875
 40
0.6875
 40
0.75
 40
0.75
 40
0.8125000000000001
 40
0.8125000000000001
 40
0.8750000000000001
 40
0.8750000000000001
 40
0.9375000000000001
 40
0.9375000000000001
 40
1.0
 40
1.0
 40
1.0
 40
1.0
 10
17.18115766425391
 20
4.74606127087753
 30
0.0
 10
17.54268006738214
 20
4.764020540459316
 30
0.0
 10
17.90824751412885
 20
4.768199343084497
 30
0.0
 10
18.63794034278005
 20
4.748634181617409
 30
0.0
 10
18.99937746146585
 20
4.725001549398991
 30
0.0
 10
19.7264564324411
 20
4.650309855503017
 30
0.0
 10
20.09260181284087
 20
4.59914782920398
 30
0.0
 10
20.82052234263666
 20
4.470499346163343
 30
0.0
 10
21.18143661218629
 20
4.393157773361971
 30
0.0
 10
21.91079855627459
 20
4.212777057960078
 30
0.0
 10
22.27662523295203
 20
4.109867296154111
 30
0.0
 10
23.0010154866775
 20
3.881464838541562
 30
0.0
 10
23.36501860095377
 20
3.755429542293837
 30
0.0
 10
24.09489389634727
 20
3.481924640005233
 30
0.0
 10
24.45715596482477
 20
3.334937902183497
 30
0.0
 10
25.18324672794252
 20
3.022237503750512
 30
0.0
 10
25.54931702054409
 20
2.856156191467276
 30
0.0
 10
26.27793189149218
 20
2.508817820767637
 30
0.0
 10
26.63862576577111
 20
2.327915182704588
 30
0.0
 10
27.36750863181275
 20
1.952364019879661
 30
0.0
 10
27.73351966926331
 20
1.758046381189669
 30
0.0
 10
28.45911053276399
 20
1.361459288489305
 30
0.0
 10
28.82184968395778
 20
1.158634999878177
 30
0.0
 10
29.55175890450892
 20
0.7465822924905977
 30
0.0
 10
29.91514746644681
 20
0.5380688338709014
 30
0.0
 10
30.64010403936346
 20
0.1194841041234036
 30
0.0
 10
31.00602420790238
 20
-0.0914262009089311
 30
0.0
 10
31.73518573257078
 20
-0.5109667586137128
 30
0.0
 10
32.09596181437742
 20
-0.7191264822338274
 30
0.0
 10
32.82421773347902
 20
-1.131315725142346
 30
0.0
 10
33.19033813609661
 20
-1.335066864773339
 30
0.0
 10
33.91698396386307
 20
-1.7325660393034
 30
0.0
 10
34.27876037369932
 20
-1.926567068094202
 30
0.0
 10
34.64365766425389
 20
-2.114929242460339
 30
0.0
  0
SPLINE
  5
A3
330
1F
100
AcDbEntity
  8
외형선
  6
Continuous
 62
     1
370
    15
100
AcDbSpline
210
0.0
220
0.0
230
1.0
 70
     8
 71
     3
 72
    18
 73
    14
 74
     0
 42
0.000000001
 43
0.00000001
 40
0.0
 40
0.0
 40
0.0
 40
0.0
 40
0.1134172737609143
 40
0.2301583459292134
 40
0.3422283045875411
 40
0.4577502285205454
 40
0.5672792508925703
 40
0.6795303296946056
 40
0.7702354886106304
 40
0.8629830774792859
 40
0.9194760251513048
 40
0.9771478718342177
 40
1.0
 40
1.0
 40
1.0
 40
1.0
 10
34.6436576642539
 20
-2.11492924246034
 30
0.0
 10
34.86362920804984
 20
-2.220718538332381
 30
0.0
 10
35.31001876576653
 20
-2.43539738351651
 30
0.0
 10
35.98019642482992
 20
-2.638654119875314
 30
0.0
 10
36.64215686376608
 20
-2.733384802822067
 30
0.0
 10
37.25827936199565
 20
-2.713047051321698
 30
0.0
 10
37.81940222157712
 20
-2.596643570372452
 30
0.0
 10
38.27062843046813
 20
-2.42053013807376
 30
0.0
 10
38.61888149291836
 20
-2.22653843339278
 30
0.0
 10
38.83272257662702
 20
-2.071881728464045
 30
0.0
 10
38.95231017708169
 20
-1.968251550975081
 30
0.0
 10
39.00241675585497
 20
-1.916687819938741
 30
0.0
 10
39.00348972446325
 20
-1.910663110964578
 30
0.0
 10
39.00379422528053
 20
-1.908953341645592
 30
0.0
  0
SPLINE
  5
A5
330
1F
100
AcDbEntity
  8
외형선
  6
Continuous
 62
     1
370
    15
100
AcDbSpline
210
0.0
220
0.0
230
1.0
 70
     8
 71
     3
 72
    38
 73
    34
 74
     0
 42
0.000000001
 43
0.00000001
 40
0.0
 40
0.0
 40
0.0
 40
0.0
 40
0.0625
 40
0.0625
 40
0.125
 40
0.125
 40
0.1875
 40
0.1875
 40
0.25
 40
0.25
 40
0.3125
 40
0.3125
 40
0.375
 40
0.375
 40
0.4375
 40
0.4375
 40
0.5
 40
0.5
 40
0.5625
 40
0.5625
 40
0.625
 40
0.625
 40
0.6875
 40
0.6875
 40
0.75
 40
0.75
 40
0.8125
 40
0.8125
 40
0.875
 40
0.875
 40
0.9375
 40
0.9375
 40
1.0
 40
1.0
 40
1.0
 40
1.0
 10
17.1811576642539
 20
2.020180002828604
 30
0.0
 10
17.54268006738212
 20
1.830344342585552
 30
0.0
 10
17.90824751412885
 20
1.633910564443546
 30
0.0
 10
18.63794034278006
 20
1.232887854029424
 30
0.0
 10
18.99937746146585
 20
1.028823447194229
 30
0.0
 10
19.72645643244109
 20
0.6151217286892873
 30
0.0
 10
20.09260181284086
 20
0.4053749785974944
 30
0.0
 10
20.82052234263669
 20
-0.014424464462749
 30
0.0
 10
21.18143661218629
 20
-0.2243058456007352
 30
0.0
 10
21.91079855627459
 20
-0.6429773592892307
 30
0.0
 10
22.27662523295202
 20
-0.8512522793750281
 30
0.0
 10
23.00101548667747
 20
-1.260264040296054
 30
0.0
 10
23.36501860095376
 20
-1.462029595374158
 30
0.0
 10
24.09489389634724
 20
-1.8561769307681
 30
0.0
 10
24.45715596482477
 20
-2.047915837808816
 30
0.0
 10
25.18324672794251
 20
-2.418645507543988
 30
0.0
 10
25.54931702054409
 20
-2.597984068022288
 30
0.0
 10
26.27793189149219
 20
-2.939865633384924
 30
0.0
 10
26.63862576577113
 20
-3.102176729181608
 30
0.0
 10
27.36750863181277
 20
-3.408881516949634
 30
0.0
 10
27.73351966926332
 20
-3.552896830635021
 30
0.0
 10
28.45911053276402
 20
-3.818577055944586
 30
0.0
 10
28.82184968395778
 20
-3.940673080604341
 30
0.0
 10
29.55175890450893
 20
-4.161617393163852
 30
0.0
 10
29.91514746644681
 20
-4.260069198111854
 30
0.0
 10
30.64010403936346
 20
-4.431497458430431
 30
0.0
 10
31.00602420790238
 20
-4.504774168299013
 30
0.0
 10
31.73518573257078
 20
-4.624386331824631
 30
0.0
 10
32.09596181437741
 20
-4.670682800448338
 30
0.0
 10
32.82421773347902
 20
-4.736086953081157
 30
0.0
 10
33.19033813609664
 20
-4.755053579897669
 30
0.0
 10
33.91698396386312
 20
-4.765080535091618
 30
0.0
 10
34.27876037369938
 20
-4.756226724062131
 30
0.0
 10
34.64365766425393
 20
-4.733485348602793
 30
0.0
  0
SPLINE
  5
A6
330
1F
100
AcDbEntity
  8
외형선
  6
Continuous
 62
     1
370
    15
100
AcDbSpline
210
0.0
220
0.0
230
1.0
 70
     8
 71
     3
 72
    13
 73
     9
 74
     0
 42
0.000000001
 43
0.00000001
 40
0.0
 40
0.0
 40
0.0
 40
0.0
 40
0.1297964816005787
 40
0.3038364482762158
 40
0.4780023570756722
 40
0.6520843136129117
 40
0.826061994062816
 40
1.0
 40
1.0
 40
1.0
 40
1.0
 10
25.81342777657911
 20
3.895947906828179
 30
0.0
 10
26.19538376710383
 20
4.018424201720602
 30
0.0
 10
27.08949237565596
 20
4.305125058163374
 30
0.0
 10
28.49652361995306
 20
4.595856110718886
 30
0.0
 10
30.03417958701765
 20
4.769090319602071
 30
0.0
 10
31.5714142176425
 20
4.770804246852427
 30
0.0
 10
33.10777501670248
 20
4.619019464769355
 30
0.0
 10
34.1317357041375
 20
4.384785326577439
 30
0.0
 10
34.64365766425389
 20
4.267681612908756
 30
0.0
  0
SPLINE
  5
A7
330
1F
100
AcDbEntity
  8
외형선
  6
Continuous
 62
     1
370
    15
100
AcDbSpline
210
0.0
220
0.0
230
1.0
 70
     8
 71
     3
 72
    44
 73
    40
 74
     0
 42
0.000000001
 43
0.00000001
 40
0.0
 40
0.0
 40
0.0
 40
0.0
 40
0.0625000000000015
 40
0.0625000000000015
 40
0.125000000000003
 40
0.125000000000003
 40
0.1875000000000046
 40
0.1875000000000046
 40
0.2500000000000061
 40
0.2500000000000061
 40
0.3125000000000075
 40
0.3125000000000075
 40
0.3750000000000091
 40
0.3750000000000091
 40
0.4375000000000105
 40
0.4375000000000105
 40
0.4687500000000108
 40
0.4687500000000108
 40
0.5000000000000111
 40
0.5000000000000111
 40
0.5312500000000114
 40
0.5312500000000114
 40
0.5625000000000118
 40
0.5625000000000118
 40
0.593750000000012
 40
0.593750000000012
 40
0.6250000000000123
 40
0.6250000000000123
 40
0.6875000000000103
 40
0.6875000000000103
 40
0.7500000000000082
 40
0.7500000000000082
 40
0.8125000000000062
 40
0.8125000000000062
 40
0.8750000000000042
 40
0.8750000000000042
 40
0.9375000000000021
 40
0.9375000000000021
 40
1.0
 40
1.0
 40
1.0
 40
1.0
 10
34.6436576642539
 20
4.267681612908753
 30
0.0
 10
34.88570062057821
 20
4.205716190393541
 30
0.0
 10
35.1266911215231
 20
4.124862630122866
 30
0.0
 10
35.60985288091714
 20
3.92975049054927
 30
0.0
 10
35.85382291288386
 20
3.814373098832834
 30
0.0
 10
36.33712353358052
 20
3.555394925601661
 30
0.0
 10
36.57248419931324
 20
3.413965994037621
 30
0.0
 10
37.03002591372219
 20
3.106617407669666
 30
0.0
 10
37.25426590361658
 20
2.938862394187014
 30
0.0
 10
37.67341762868097
 20
2.583480840077982
 30
0.0
 10
37.86860265021973
 20
2.396506288462631
 30
0.0
 10
38.22641312832374
 20
1.996699254813604
 30
0.0
 10
38.38960310226946
 20
1.782280690664775
 30
0.0
 10
38.66524660893914
 20
1.330500087893473
 30
0.0
 10
38.77993079421627
 20
1.090793958822424
 30
0.0
 10
38.90587399480764
 20
0.7041423135877115
 30
0.0
 10
38.93946591325248
 20
0.5727053737197586
 30
0.0
 10
38.98818445289282
 20
0.3034778682266867
 30
0.0
 10
39.00334928720748
 20
0.164174920895259
 30
0.0
 10
39.01150201884773
 20
-0.1141402321235025
 30
0.0
 10
39.00476783599156
 20
-0.2527722404468537
 30
0.0
 10
38.96706645664455
 20
-0.5288232471876226
 30
0.0
 10
38.93623358694976
 20
-0.6631422019974283
 30
0.0
 10
38.85236450480554
 20
-0.9145931345342347
 30
0.0
 10
38.79795660262004
 20
-1.034858236981985
 30
0.0
 10
38.67138794379462
 20
-1.247719589566294
 30
0.0
 10
38.59872323172079
 20
-1.342009644780239
 30
0.0
 10
38.35865611380429
 20
-1.58425225219916
 30
0.0
 10
38.17294681026039
 20
-1.68739579771859
 30
0.0
 10
37.7838515660774
 20
-1.795730960671679
 30
0.0
 10
37.57589630146719
 20
-1.802288051006471
 30
0.0
 10
37.15564133303272
 20
-1.748864547988099
 30
0.0
 10
36.93873951086818
 20
-1.689043000008467
 30
0.0
 10
36.49760278878213
 20
-1.525464376386178
 30
0.0
 10
36.27595728873244
 20
-1.423026567229877
 30
0.0
 10
35.82329436041383
 20
-1.191196880982884
 30
0.0
 10
35.5907059370664
 20
-1.060286450062481
 30
0.0
 10
35.12234184472926
 20
-0.791357460216391
 30
0.0
 10
34.88562264671322
 20
-0.6526447818991543
 30
0.0
 10
34.64365766425402
 20
-0.5140417865555653
 30
0.0
  0
SPLINE
  5
A8
330
1F
100
AcDbEntity
  8
외형선
  6
Continuous
 62
     1
370
    15
100
AcDbSpline
210
0.0
220
0.0
230
1.0
 70
     8
 71
     3
 72
    17
 73
    13
 74
     0
 42
0.000000001
 43
0.00000001
 40
0.0
 40
0.0
 40
0.0
 40
0.0
 40
0.1007845653994765
 40
0.2016601198791201
 40
0.3026291288941821
 40
0.4034549342058074
 40
0.504237649538536
 40
0.6051017861552368
 40
0.706075327181036
 40
0.8170088543996976
 40
0.9278987752669093
 40
1.0
 40
1.0
 40
1.0
 40
1.0
 10
34.64365766425393
 20
-0.5140417865555076
 30
0.0
 10
34.17842501254423
 20
-0.245394476408506
 30
0.0
 10
33.24753969351156
 20
0.2921426807416392
 30
0.0
 10
31.85031687967776
 20
1.093991265831779
 30
0.0
 10
30.45240336372062
 20
1.862814150673566
 30
0.0
 10
29.05562281944488
 20
2.579526202743675
 30
0.0
 10
27.65938627884835
 20
3.222295844642523
 30
0.0
 10
26.26224176644439
 20
3.772465066514643
 30
0.0
 10
24.81770465386601
 20
4.23062218890502
 30
0.0
 10
23.32737334077789
 20
4.562588666190827
 30
0.0
 10
21.97038249021172
 20
4.74717886725832
 30
0.0
 10
21.12554850948297
 20
4.745474816667548
 30
0.0
 10
20.79267139399824
 20
4.744803395467364
 30
0.0
  0
LINE
  5
A9
330
1F
100
AcDbEntity
  8
외형선
  6
Continuous
370
    15
100
AcDbLine
 10
17.18115766425391
 20
0.4091323545544416
 30
0.0
 11
17.1811576642539
 21
2.020180002828604
 31
0.0
  0
LINE
  5
AB
330
1F
100
AcDbEntity
  8
외형선
  6
Continuous
 62
     1
370
    15
100
AcDbLine
 10
17.18115766425391
 20
-4.743911413429744
 30
0.0
 11
17.88918373528477
 21
-4.744353947833032
 31
0.0
  0
LINE
  5
AC
330
1F
100
AcDbEntity
  8
외형선
  6
Continuous
 62
     1
370
    15
100
AcDbLine
 10
34.64365766425393
 20
4.735635206050579
 30
0.0
 11
33.75003584056682
 21
4.747864483169678
 31
0.0
  0
LINE
  5
AD
330
1F
100
AcDbEntity
  8
외형선
  6
Continuous
370
    15
100
AcDbLine
 10
17.18115766425391
 20
-4.743911413429744
 30
0.0
 11
17.1811576642539
 21
-4.312232497106593
 31
0.0
  0
LINE
  5
AE
330
1F
100
AcDbEntity
  8
외형선
  6
Continuous
370
    15
100
AcDbLine
 10
-23.1413423357461
 20
0.0010749287238931
 30
0.0
 11
-23.1413423357461
 21
4.763574928723894
 31
0.0
  0
LINE
  5
AF
330
1F
100
AcDbEntity
  8
외형선
  6
Continuous
370
    15
100
AcDbLine
 10
-23.1413423357461
 20
-4.761425071276107
 30
0.0
 11
-23.1413423357461
 21
0.0010749287238931
 31
0.0
  0
LINE
  5
B0
330
1F
100
AcDbEntity
  8
외형선
  6
Continuous
370
    15
100
AcDbLine
 10
-24.0938423357461
 20
0.0010749287238931
 30
0.0
 11
-24.0938423357461
 21
3.811074928723896
 31
0.0
  0
LINE
  5
B1
330
1F
100
AcDbEntity
  8
외형선
  6
Continuous
370
    15
100
AcDbLine
 10
-24.0938423357461
 20
-3.808925071276109
 30
0.0
 11
-24.0938423357461
 21
0.0010749287238931
 31
0.0
  0
LINE
  5
B2
330
1F
100
AcDbEntity
  8
외형선
  6
Continuous
370
    15
100
AcDbLine
 10
17.18115766425391
 20
0.0010749287238931
 30
0.0
 11
17.18115766425391
 21
4.763574928723893
 31
0.0
  0
LINE
  5
B3
330
1F
100
AcDbEntity
  8
외형선
  6
Continuous
370
    15
100
AcDbLine
 10
17.18115766425391
 20
-4.761425071276106
 30
0.0
 11
17.18115766425391
 21
0.0010749287238931
 31
0.0
  0
LINE
  5
B4
330
1F
100
AcDbEntity
  8
중심선
 62
     1
100
AcDbLine
 10
-27.0938423357461
 20
0.0010749287238931
 30
0.0
 11
42.40615766425393
 21
0.0010749287238892
 31
0.0
  0
LINE
  5
B5
330
1F
100
AcDbEntity
  8
참조1
100
AcDbLine
 10
-5.044355703302319
 20
-2.498925071276081
 30
0.0
 11
-5.044355703302315
 21
-39.9989250712761
 31
0.0
  0
LINE
  5
B6
330
1F
100
AcDbEntity
  8
참조1
100
AcDbLine
 10
39.40615766425393
 20
0.0010749287238966
 30
0.0
 11
39.40615766425393
 21
1.896976238366589
 31
0.0
  0
LINE
  5
B7
330
1F
100
AcDbEntity
  8
참조1
100
AcDbLine
 10
-5.044355703302315
 20
-39.9989250712761
 30
0.0
 11
-20.20269915005477
 21
-39.9989250712761
 31
0.0
  0
CIRCLE
  5
B8
330
1F
100
AcDbEntity
  8
해칭선
100
AcDbCircle
 10
-0.0000000000000052
 20
0.0
 30
0.0
 40
3.000000000000001
  0
INSERT
  5
B9
330
1F
100
AcDbEntity
  8
0
  6
Continuous
 62
     7
100
AcDbBlockReference
 66
     1
  2
블럭10
 10
-18.98462863542753
 20
-52.04609937292004
 30
0.0
  0
ATTRIB
  5
BA
330
B9
100
AcDbEntity
  8
FORMAT
 62
     2
100
AcDbText
 10
-27.37413396032737
 20
-49.97073246008785
 30
0.0
 40
4.233333333333333
  1
EI106024 [ 4 FLUTE ]
 41
0.75
  7
SLDTEXTSTYLE0
 11
-27.37413396032737
 21
-52.08739912675452
 31
0.0
100
AcDbAttribute
  2
AUTOATTR0
 70
     0
 74
     1
  0
SEQEND
  5
BB
330
B9
100
AcDbEntity
  8
0
  6
Continuous
 62
     7
  0
HATCH
  5
BC
330
1F
100
AcDbEntity
  8
중심선
100
AcDbHatch
 10
0.0
 20
0.0
 30
0.0
210
0.0
220
0.0
230
1.0
  2
SOLID
 70
     1
 71
     0
 91
        1
 92
        0
 93
        4
 72
     1
 10
-13.26971933104667
 20
-35.7989250712761
 11
-16.71599457488396
 21
-35.7989250712761
 72
     1
 10
-16.71599457488396
 20
-35.7989250712761
 11
-18.84422443408798
 21
-38.3352506518487
 72
     1
 10
-18.84422443408798
 20
-38.3352506518487
 11
-15.39791610513755
 21
-38.33521122254621
 72
     1
 10
-15.39791610513755
 20
-38.33521122254621
 11
-13.26971933104667
 21
-35.7989250712761
 97
        0
 75
     0
 76
     1
 98
        1
 10
0.0
 20
0.0
  0
HATCH
  5
BD
330
1F
100
AcDbEntity
  8
중심선
100
AcDbHatch
 10
0.0
 20
0.0
 30
0.0
210
0.0
220
0.0
230
1.0
  2
SOLID
 70
     1
 71
     0
 91
        1
 92
        0
 93
        4
 72
     1
 10
-8.256955340010725
 20
-35.7989250712761
 11
-11.70323058384801
 21
-35.7989250712761
 72
     1
 10
-11.70323058384801
 20
-35.7989250712761
 11
-16.2343685922054
 21
-41.19892507127612
 72
     1
 10
-16.2343685922054
 20
-41.19892507127612
 11
-12.78809334836811
 21
-41.19892507127612
 72
     1
 10
-12.78809334836811
 20
-41.19892507127612
 11
-8.256955340010725
 21
-35.7989250712761
 97
        0
 75
     0
 76
     1
 98
        1
 10
0.0
 20
0.0
  0
HATCH
  5
BE
330
1F
100
AcDbEntity
  8
중심선
100
AcDbHatch
 10
0.0
 20
0.0
 30
0.0
210
0.0
220
0.0
230
1.0
  2
SOLID
 70
     1
 71
     0
 91
        1
 92
        0
 93
        4
 72
     1
 10
-3.244191348974828
 20
-35.79892507127613
 11
-6.690466592811944
 21
-35.7989250712761
 72
     1
 10
-6.690466592811944
 20
-35.7989250712761
 11
-13.73890349470119
 21
-44.19892507127612
 72
     1
 10
-13.73890349470119
 20
-44.19892507127612
 11
-10.29262825086391
 21
-44.19892507127612
 72
     1
 10
-10.29262825086391
 20
-44.19892507127612
 11
-3.244191348974828
 21
-35.79892507127613
 97
        0
 75
     0
 76
     1
 98
        1
 10
0.0
 20
0.0
  0
HATCH
  5
BF
330
1F
100
AcDbEntity
  8
중심선
100
AcDbHatch
 10
0.0
 20
0.0
 30
0.0
210
0.0
220
0.0
230
1.0
  2
SOLID
 70
     1
 71
     0
 91
        1
 92
        0
 93
        6
 72
     3
 10
1.555699082037371
 20
-39.99892507132738
 11
3.960054785062284
 21
1.540850780301639E-10
 40
0.3939339440162633
 50
17.09539180608433
 51
320.0019657685079
 73
     0
 72
     1
 10
3.238698737737966
 20
-38.58681907591441
 11
5.544000611439004
 21
-36.65249236586649
 72
     3
 10
1.555699081984524
 20
-39.99892507127625
 11
6.600054785286829
 21
-1.249000902703301E-13
 40
0.6363583540795982
 50
39.99873849337408
 51
368.4976242363725
 73
     1
 72
     1
 10
7.981031573885133
 20
-39.03892507120613
 11
0.235766388820446
 21
-39.0389250712061
 72
     1
 10
0.2357663888204464
 20
-39.0389250712061
 11
0.2357413443745127
 21
-40.95892507120602
 72
     1
 10
0.2357413443745127
 20
-40.95892507120602
 11
4.67712111384655
 21
-40.95892507120599
 97
        0
 75
     0
 76
     1
 98
        1
 10
0.0
 20
0.0
  0
DIMENSION
  5
C2
330
1F
100
AcDbEntity
  8
치수문자_일반주서
100
AcDbDimension
  2
_D
 10
17.18115766425391
 20
17.9768654049653
 30
0.0
 11
0.7541576642539063
 21
17.9768654049653
 31
0.0
 70
   160
  1
<>
 71
     2
 42
22.22500000000005
  3
SLDDIMSTYLE0
100
AcDbAlignedDimension
 13
39.40615766425395
 23
4.763574928723893
 33
0.0
 14
17.18115766425391
 24
4.763574928723896
 34
0.0
 50
0.0000000000000046
100
AcDbRotatedDimension
1001
ACAD
1000
DSTYLE
1002
{
1070
   171
1070
     6
1070
   273
1070
     7
1002
}
  0
DIMENSION
  5
D7
330
1F
100
AcDbEntity
  8
치수문자_일반주서
100
AcDbDimension
  2
_D_1
 10
-24.0938423357461
 20
28.56034423427361
 30
0.0
 11
8.879672606058874
 21
28.56034423427361
 31
0.0
 70
   160
  1
<>
 71
     2
 42
63.50000000000006
  3
SLDDIMSTYLE1
100
AcDbAlignedDimension
 13
39.40615766425395
 23
4.763574928723893
 33
0.0
 14
-24.0938423357461
 24
3.811074928723901
 34
0.0
 50
0.0000000000000064
100
AcDbRotatedDimension
1001
ACAD
1000
DSTYLE
1002
{
1070
   171
1070
     6
1070
   273
1070
     7
1002
}
  0
DIMENSION
  5
EB
330
1F
100
AcDbEntity
  8
치수문자_일반주서
100
AcDbDimension
  2
_D_2
 10
51.07913083144279
 20
-4.761425071276058
 30
0.0
 11
51.07913083144269
 21
21.19057492872394
 31
0.0
 70
   160
  1
%%c<>
 71
     2
 42
9.524999999999995
 52
-270.0
  3
SLDDIMSTYLE0
100
AcDbAlignedDimension
 13
39.34365766425395
 23
4.763574928723893
 33
0.0
 14
39.34365766425401
 24
-4.761425071276102
 34
0.0
 50
90.0000000000002
100
AcDbRotatedDimension
1001
ACAD
1000
DSTYLE
1002
{
1070
   171
1070
     6
1070
   273
1070
     7
1002
}
  0
DIMENSION
  5
FE
330
1F
100
AcDbEntity
  8
치수문자_일반주서
100
AcDbDimension
  2
_D_3
 10
-32.26168281654324
 20
-4.76142507127614
 30
0.0
 11
-32.26168281654334
 21
24.49257492872387
 31
0.0
 70
   160
  1
%%c<>
 71
     2
 42
9.525000000000006
  3
SLDDIMSTYLE2
100
AcDbAlignedDimension
 13
-23.1413423357461
 23
4.763574928723896
 33
0.0
 14
-23.1413423357461
 24
-4.761425071276109
 34
0.0
 50
90.0000000000002
100
AcDbRotatedDimension
1001
ACAD
1000
DSTYLE
1002
{
1070
   171
1070
     6
1070
   273
1070
     7
1002
}
1001
ACAD_DSTYLE_DIMFLIPARROW_SYMBOL
1070
   385
1070
     0
1001
ACAD_DSTYLE_DIMFLIPARROW_WHICH_SYMBOL
1070
   386
1070
     3
  0
LINE
  5
113
330
1F
100
AcDbEntity
  8
참조1
100
AcDbLine
 10
77.7696414795995
 20
7.441074928723896
 30
0.0
 11
77.7696414795995
 21
-7.438925071276109
 31
0.0
  0
LINE
  5
114
330
1F
100
AcDbEntity
  8
참조1
100
AcDbLine
 10
90.4696414795995
 20
5.441074928723896
 30
0.0
 11
77.7696414795995
 21
5.441074928723896
 31
0.0
  0
SOLID
  5
115
330
1F
100
AcDbEntity
  8
참조1
100
AcDbTrace
 10
77.7696414795995
 20
5.441074928723896
 30
0.0
 11
84.1196414795995
 21
4.425074928723896
 31
0.0
 12
84.1196414795995
 22
6.457074928723896
 32
0.0
 13
84.1196414795995
 23
6.457074928723896
 33
0.0
  0
LINE
  5
116
330
1F
100
AcDbEntity
  8
참조1
100
AcDbLine
 10
90.4696414795995
 20
-5.438925071276109
 30
0.0
 11
77.7696414795995
 21
-5.438925071276109
 31
0.0
  0
SOLID
  5
117
330
1F
100
AcDbEntity
  8
참조1
100
AcDbTrace
 10
77.7696414795995
 20
-5.438925071276109
 30
0.0
 11
84.1196414795995
 21
-6.454925071276109
 31
0.0
 12
84.1196414795995
 22
-4.422925071276109
 32
0.0
 13
84.1196414795995
 23
-4.422925071276109
 33
0.0
  0
MTEXT
  5
118
330
1F
100
AcDbEntity
  8
참조1
100
AcDbMText
 10
87.36975629016207
 20
11.06679249473997
 30
0.0
 40
3.5
 41
0.0
 71
     1
 72
     1
  1
A
  7
SLDTEXTSTYLE0
 73
     1
 44
1.0
  0
MTEXT
  5
119
330
1F
100
AcDbEntity
  8
참조1
100
AcDbMText
 10
87.36975629016207
 20
0.1867924947399659
 30
0.0
 40
3.5
 41
0.0
 71
     1
 72
     1
  1
A
  7
SLDTEXTSTYLE0
 73
     1
 44
1.0
  0
INSERT
  5
120
330
1F
100
AcDbEntity
  8
해칭선
100
AcDbBlockReference
  2
SW_DOWELSYMBOL_0
 10
-0.0000000000000052
 20
0.0
 30
0.0
  0
ARC
  5
14C
330
1F
100
AcDbEntity
  8
외형선
  6
Continuous
 62
     1
370
    15
100
AcDbCircle
 10
34.64365766425395
 20
0.0010749287238898
 30
0.0
 40
4.762499999999999
100
AcDbArc
 50
270.0
 51
90.0
  0
ENDSEC
  0
SECTION
  2
OBJECTS
  0
DICTIONARY
  5
C
330
0
100
AcDbDictionary
281
     1
  3
ACAD_GROUP
350
D
  3
ACAD_IMAGE_VARS
350
144
  3
ACAD_LAYOUT
350
1A
  3
ACAD_MLINESTYLE
350
17
  3
ACAD_PLOTSETTINGS
350
19
  3
ACAD_PLOTSTYLENAME
350
E
  3
ACAD_SCALELIST
350
47
  3
APPDATA
350
142
  3
DWGPROPS
350
14D
  0
DICTIONARY
  5
D
102
{ACAD_REACTORS
330
C
102
}
330
C
100
AcDbDictionary
281
     1
  0
RASTERVARIABLES
  5
144
102
{ACAD_REACTORS
330
C
102
}
330
C
100
AcDbRasterVariables
 90
        0
 70
     1
 71
     1
 72
     1
  0
DICTIONARY
  5
1A
102
{ACAD_REACTORS
330
C
102
}
330
C
100
AcDbDictionary
281
     1
  3
Layout1
350
1E
  3
Layout2
350
26
  3
Model
350
22
  0
DICTIONARY
  5
17
102
{ACAD_REACTORS
330
C
102
}
330
C
100
AcDbDictionary
281
     1
  3
Standard
350
18
  0
DICTIONARY
  5
19
102
{ACAD_REACTORS
330
C
102
}
330
C
100
AcDbDictionary
281
     1
  0
ACDBDICTIONARYWDFLT
  5
E
102
{ACAD_REACTORS
330
C
102
}
330
C
100
AcDbDictionary
281
     1
  3
Normal
350
F
100
AcDbDictionaryWithDefault
340
F
  0
DICTIONARY
  5
47
102
{ACAD_REACTORS
330
C
102
}
330
C
100
AcDbDictionary
281
     1
  3
A0
350
48
  3
A1
350
49
  3
A2
350
4A
  3
A3
350
4B
  3
A4
350
4C
  3
A5
350
4D
  3
A6
350
4E
  3
A7
350
4F
  3
A8
350
50
  3
A9
350
51
  3
B0
350
52
  3
B1
350
53
  3
B2
350
54
  3
B3
350
55
  3
B4
350
56
  3
B5
350
57
  3
B6
350
58
  3
B7
350
59
  3
B8
350
5A
  3
B9
350
5B
  3
C0
350
5C
  3
C1
350
5D
  3
C2
350
5E
  3
C3
350
5F
  3
C4
350
60
  3
C5
350
61
  3
C6
350
62
  3
C7
350
63
  3
C8
350
64
  3
C9
350
65
  3
D0
350
66
  3
D1
350
67
  3
D2
350
68
  0
DICTIONARY
  5
142
102
{ACAD_REACTORS
330
C
102
}
330
C
100
AcDbDictionary
281
     1
  0
XRECORD
  5
14D
102
{ACAD_REACTORS
330
C
102
}
330
C
100
AcDbXrecord
280
     1
  1
DWGPROPS COOKIE
  2

  3

  4

  6

  7

  8
12015048
  9

300
=
301
=
302
=
303
=
304
=
305
=
306
=
307
=
308
=
309
=
 40
0.0
 41
2458270.321663924
 42
2458274.2680575
  1

 90
        0
  0
LAYOUT
  5
1E
102
{ACAD_REACTORS
330
1A
102
}
330
1A
100
AcDbPlotSettings
  1

  2
none_device
  4

  6

 40
0.0
 41
0.0
 42
0.0
 43
0.0
 44
0.0
 45
0.0
 46
0.0
 47
0.0
 48
0.0
 49
0.0
140
0.0
141
0.0
142
1.0
143
1.0
 70
   688
 72
     1
 73
     0
 74
     5
  7

 75
    16
147
1.0
148
0.0
149
0.0
100
AcDbLayout
  1
Layout1
 70
     1
 71
     1
 10
0.0
 20
0.0
 11
420.0
 21
297.0
 12
0.0
 22
0.0
 32
0.0
 14
1.000000000000000E+20
 24
1.000000000000000E+20
 34
1.000000000000000E+20
 15
-1.000000000000000E+20
 25
-1.000000000000000E+20
 35
-1.000000000000000E+20
146
0.0
 13
0.0
 23
0.0
 33
0.0
 16
1.0
 26
0.0
 36
0.0
 17
0.0
 27
1.0
 37
0.0
 76
     0
330
1B
  0
LAYOUT
  5
26
102
{ACAD_REACTORS
330
1A
102
}
330
1A
100
AcDbPlotSettings
  1

  2
none_device
  4

  6

 40
0.0
 41
0.0
 42
0.0
 43
0.0
 44
0.0
 45
0.0
 46
0.0
 47
0.0
 48
0.0
 49
0.0
140
0.0
141
0.0
142
1.0
143
1.0
 70
   688
 72
     1
 73
     0
 74
     5
  7

 75
    16
147
1.0
148
0.0
149
0.0
100
AcDbLayout
  1
Layout2
 70
     1
 71
     2
 10
0.0
 20
0.0
 11
0.0
 21
0.0
 12
0.0
 22
0.0
 32
0.0
 14
0.0
 24
0.0
 34
0.0
 15
0.0
 25
0.0
 35
0.0
146
0.0
 13
0.0
 23
0.0
 33
0.0
 16
1.0
 26
0.0
 36
0.0
 17
0.0
 27
1.0
 37
0.0
 76
     0
330
23
  0
LAYOUT
  5
22
102
{ACAD_REACTORS
330
1A
102
}
330
1A
100
AcDbPlotSettings
  1

  2
none_device
  4
ANSI_A_(11.00_x_8.50_Inches)
  6

 40
6.35
 41
19.05
 42
6.35000508
 43
19.05000254
 44
279.4
 45
215.9
 46
89.55601452927455
 47
95.68055568241064
 48
0.0
 49
0.0
140
0.0
141
0.0
142
0.0792439589577062
143
1.0
 70
  1696
 72
     0
 73
     0
 74
     0
  7

 75
     0
147
0.0235690232323232
148
0.0
149
0.0
100
AcDbLayout
  1
Model
 70
     1
 71
     0
 10
0.0
 20
0.0
 11
420.0
 21
297.0
 12
0.0
 22
0.0
 32
0.0
 14
-36.63668281654339
 24
-49.97073246008785
 34
0.0
 15
90.4696414795995
 25
37.61757492872387
 35
0.0
146
0.0
 13
0.0
 23
0.0
 33
0.0
 16
1.0
 26
0.0
 36
0.0
 17
0.0
 27
1.0
 37
0.0
 76
     0
330
1F
331
29
  0
MLINESTYLE
  5
18
102
{ACAD_REACTORS
330
17
102
}
330
17
100
AcDbMlineStyle
  2
Standard
 70
     0
  3

 62
   256
 51
90.0
 52
90.0
 71
     2
 49
0.5
 62
   256
  6
BYLAYER
 49
-0.5
 62
   256
  6
BYLAYER
  0
ACDBPLACEHOLDER
  5
F
102
{ACAD_REACTORS
330
E
102
}
330
E
  0
SCALE
  5
48
102
{ACAD_REACTORS
330
47
102
}
330
47
100
AcDbScale
 70
     0
300
1:1
140
1.0
141
1.0
290
     1
  0
SCALE
  5
49
102
{ACAD_REACTORS
330
47
102
}
330
47
100
AcDbScale
 70
     0
300
1:2
140
1.0
141
2.0
290
     0
  0
SCALE
  5
4A
102
{ACAD_REACTORS
330
47
102
}
330
47
100
AcDbScale
 70
     0
300
1:4
140
1.0
141
4.0
290
     0
  0
SCALE
  5
4B
102
{ACAD_REACTORS
330
47
102
}
330
47
100
AcDbScale
 70
     0
300
1:5
140
1.0
141
5.0
290
     0
  0
SCALE
  5
4C
102
{ACAD_REACTORS
330
47
102
}
330
47
100
AcDbScale
 70
     0
300
1:8
140
1.0
141
8.0
290
     0
  0
SCALE
  5
4D
102
{ACAD_REACTORS
330
47
102
}
330
47
100
AcDbScale
 70
     0
300
1:10
140
1.0
141
10.0
290
     0
  0
SCALE
  5
4E
102
{ACAD_REACTORS
330
47
102
}
330
47
100
AcDbScale
 70
     0
300
1:16
140
1.0
141
16.0
290
     0
  0
SCALE
  5
4F
102
{ACAD_REACTORS
330
47
102
}
330
47
100
AcDbScale
 70
     0
300
1:20
140
1.0
141
20.0
290
     0
  0
SCALE
  5
50
102
{ACAD_REACTORS
330
47
102
}
330
47
100
AcDbScale
 70
     0
300
1:30
140
1.0
141
30.0
290
     0
  0
SCALE
  5
51
102
{ACAD_REACTORS
330
47
102
}
330
47
100
AcDbScale
 70
     0
300
1:40
140
1.0
141
40.0
290
     0
  0
SCALE
  5
52
102
{ACAD_REACTORS
330
47
102
}
330
47
100
AcDbScale
 70
     0
300
1:50
140
1.0
141
50.0
290
     0
  0
SCALE
  5
53
102
{ACAD_REACTORS
330
47
102
}
330
47
100
AcDbScale
 70
     0
300
1:100
140
1.0
141
100.0
290
     0
  0
SCALE
  5
54
102
{ACAD_REACTORS
330
47
102
}
330
47
100
AcDbScale
 70
     0
300
2:1
140
2.0
141
1.0
290
     0
  0
SCALE
  5
55
102
{ACAD_REACTORS
330
47
102
}
330
47
100
AcDbScale
 70
     0
300
4:1
140
4.0
141
1.0
290
     0
  0
SCALE
  5
56
102
{ACAD_REACTORS
330
47
102
}
330
47
100
AcDbScale
 70
     0
300
8:1
140
8.0
141
1.0
290
     0
  0
SCALE
  5
57
102
{ACAD_REACTORS
330
47
102
}
330
47
100
AcDbScale
 70
     0
300
10:1
140
10.0
141
1.0
290
     0
  0
SCALE
  5
58
102
{ACAD_REACTORS
330
47
102
}
330
47
100
AcDbScale
 70
     0
300
100:1
140
100.0
141
1.0
290
     0
  0
SCALE
  5
59
102
{ACAD_REACTORS
330
47
102
}
330
47
100
AcDbScale
 70
     0
300
1/128" = 1'-0"
140
0.0078125
141
12.0
290
     0
  0
SCALE
  5
5A
102
{ACAD_REACTORS
330
47
102
}
330
47
100
AcDbScale
 70
     0
300
1/64" = 1'-0"
140
0.015625
141
12.0
290
     0
  0
SCALE
  5
5B
102
{ACAD_REACTORS
330
47
102
}
330
47
100
AcDbScale
 70
     0
300
1/32" = 1'-0"
140
0.03125
141
12.0
290
     0
  0
SCALE
  5
5C
102
{ACAD_REACTORS
330
47
102
}
330
47
100
AcDbScale
 70
     0
300
1/16" = 1'-0"
140
0.0625
141
12.0
290
     0
  0
SCALE
  5
5D
102
{ACAD_REACTORS
330
47
102
}
330
47
100
AcDbScale
 70
     0
300
3/32" = 1'-0"
140
0.09375
141
12.0
290
     0
  0
SCALE
  5
5E
102
{ACAD_REACTORS
330
47
102
}
330
47
100
AcDbScale
 70
     0
300
1/8" = 1'-0"
140
0.125
141
12.0
290
     0
  0
SCALE
  5
5F
102
{ACAD_REACTORS
330
47
102
}
330
47
100
AcDbScale
 70
     0
300
3/16" = 1'-0"
140
0.1875
141
12.0
290
     0
  0
SCALE
  5
60
102
{ACAD_REACTORS
330
47
102
}
330
47
100
AcDbScale
 70
     0
300
1/4" = 1'-0"
140
0.25
141
12.0
290
     0
  0
SCALE
  5
61
102
{ACAD_REACTORS
330
47
102
}
330
47
100
AcDbScale
 70
     0
300
3/8" = 1'-0"
140
0.375
141
12.0
290
     0
  0
SCALE
  5
62
102
{ACAD_REACTORS
330
47
102
}
330
47
100
AcDbScale
 70
     0
300
1/2" = 1'-0"
140
0.5
141
12.0
290
     0
  0
SCALE
  5
63
102
{ACAD_REACTORS
330
47
102
}
330
47
100
AcDbScale
 70
     0
300
3/4" = 1'-0"
140
0.75
141
12.0
290
     0
  0
SCALE
  5
64
102
{ACAD_REACTORS
330
47
102
}
330
47
100
AcDbScale
 70
     0
300
1" = 1'-0"
140
1.0
141
12.0
290
     0
  0
SCALE
  5
65
102
{ACAD_REACTORS
330
47
102
}
330
47
100
AcDbScale
 70
     0
300
1-1/2" = 1'-0"
140
1.5
141
12.0
290
     0
  0
SCALE
  5
66
102
{ACAD_REACTORS
330
47
102
}
330
47
100
AcDbScale
 70
     0
300
3" = 1'-0"
140
3.0
141
12.0
290
     0
  0
SCALE
  5
67
102
{ACAD_REACTORS
330
47
102
}
330
47
100
AcDbScale
 70
     0
300
6" = 1'-0"
140
6.0
141
12.0
290
     0
  0
SCALE
  5
68
102
{ACAD_REACTORS
330
47
102
}
330
47
100
AcDbScale
 70
     0
300
1'-0" = 1'-0"
140
12.0
141
12.0
290
     0
  0
ENDSEC
  0
EOF
