  0
SECTION
  2
HEADER
  9
$ACADVER
  1
AC1015
  9
$ACADMAINTVER
 70
     6
  9
$DWGCODEPAGE
  3
ANSI_949
  9
$INSBASE
 10
0.0
 20
0.0
 30
0.0
  9
$EXTMIN
 10
-87.1539044321159
 20
-49.93655157272356
 30
0.0
  9
$EXTMAX
 10
99.16350881534561
 20
53.19611021950548
 30
0.0
  9
$LIMMIN
 10
0.0
 20
0.0
  9
$LIMMAX
 10
420.0
 20
297.0
  9
$ORTHOMODE
 70
     0
  9
$REGENMODE
 70
     1
  9
$FILLMODE
 70
     1
  9
$QTEXTMODE
 70
     0
  9
$MIRRTEXT
 70
     1
  9
$LTSCALE
 40
1.0
  9
$ATTMODE
 70
     1
  9
$TEXTSIZE
 40
3.5
  9
$TRACEWID
 40
1.0
  9
$TEXTSTYLE
  7
Standard
  9
$CLAYER
  8
0
  9
$CELTYPE
  6
ByLayer
  9
$CECOLOR
 62
   256
  9
$CELTSCALE
 40
1.0
  9
$DISPSILH
 70
     0
  9
$DIMSCALE
 40
1.0
  9
$DIMASZ
 40
3.302
  9
$DIMEXO
 40
1.0
  9
$DIMDLI
 40
3.75
  9
$DIMRND
 40
0.0
  9
$DIMDLE
 40
0.0
  9
$DIMEXE
 40
1.0
  9
$DIMTP
 40
0.0
  9
$DIMTM
 40
0.0
  9
$DIMTXT
 40
3.5
  9
$DIMCEN
 40
2.5
  9
$DIMTSZ
 40
0.0
  9
$DIMTOL
 70
     0
  9
$DIMLIM
 70
     0
  9
$DIMTIH
 70
     1
  9
$DIMTOH
 70
     1
  9
$DIMSE1
 70
     0
  9
$DIMSE2
 70
     0
  9
$DIMTAD
 70
     1
  9
$DIMZIN
 70
     0
  9
$DIMBLK
  1

  9
$DIMASO
 70
     1
  9
$DIMSHO
 70
     1
  9
$DIMPOST
  1

  9
$DIMAPOST
  1

  9
$DIMALT
 70
     0
  9
$DIMALTD
 70
     3
  9
$DIMALTF
 40
0.0393700787401575
  9
$DIMLFAC
 40
1.0
  9
$DIMTOFL
 70
     1
  9
$DIMTVP
 40
0.0
  9
$DIMTIX
 70
     0
  9
$DIMSOXD
 70
     0
  9
$DIMSAH
 70
     0
  9
$DIMBLK1
  1

  9
$DIMBLK2
  1

  9
$DIMSTYLE
  2
ISO-25
  9
$DIMCLRD
 70
     0
  9
$DIMCLRE
 70
     0
  9
$DIMCLRT
 70
     0
  9
$DIMTFAC
 40
1.0
  9
$DIMGAP
 40
1.524
  9
$DIMJUST
 70
     0
  9
$DIMSD1
 70
     0
  9
$DIMSD2
 70
     0
  9
$DIMTOLJ
 70
     0
  9
$DIMTZIN
 70
     0
  9
$DIMALTZ
 70
     0
  9
$DIMALTTZ
 70
     0
  9
$DIMUPT
 70
     0
  9
$DIMDEC
 70
     2
  9
$DIMTDEC
 70
     2
  9
$DIMALTU
 70
     2
  9
$DIMALTTD
 70
     3
  9
$DIMTXSTY
  7
Standard
  9
$DIMAUNIT
 70
     0
  9
$DIMADEC
 70
     2
  9
$DIMALTRND
 40
0.0
  9
$DIMAZIN
 70
     0
  9
$DIMDSEP
 70
    44
  9
$DIMATFIT
 70
     3
  9
$DIMFRAC
 70
     0
  9
$DIMLDRBLK
  1

  9
$DIMLUNIT
 70
     2
  9
$DIMLWD
 70
    -2
  9
$DIMLWE
 70
    -2
  9
$DIMTMOVE
 70
     0
  9
$LUNITS
 70
     2
  9
$LUPREC
 70
     2
  9
$SKETCHINC
 40
1.0
  9
$FILLETRAD
 40
10.0
  9
$AUNITS
 70
     0
  9
$AUPREC
 70
     2
  9
$MENU
  1
.
  9
$ELEVATION
 40
0.0
  9
$PELEVATION
 40
0.0
  9
$THICKNESS
 40
0.0
  9
$LIMCHECK
 70
     0
  9
$CHAMFERA
 40
0.0
  9
$CHAMFERB
 40
0.0
  9
$CHAMFERC
 40
0.0
  9
$CHAMFERD
 40
0.0
  9
$SKPOLY
 70
     0
  9
$TDCREATE
 40
2458270.634505486
  9
$TDUCREATE
 40
2458270.259505486
  9
$TDUPDATE
 40
2459718.461713171
  9
$TDUUPDATE
 40
2459718.086713171
  9
$TDINDWG
 40
0.0204205556
  9
$TDUSRTIMER
 40
0.0012016088
  9
$USRTIMER
 70
     1
  9
$ANGBASE
 50
0.0
  9
$ANGDIR
 70
     0
  9
$PDMODE
 70
     0
  9
$PDSIZE
 40
-1.0
  9
$PLINEWID
 40
0.0
  9
$SPLFRAME
 70
     0
  9
$SPLINETYPE
 70
     6
  9
$SPLINESEGS
 70
     8
  9
$HANDSEED
  5
11A9
  9
$SURFTAB1
 70
     6
  9
$SURFTAB2
 70
     6
  9
$SURFTYPE
 70
     6
  9
$SURFU
 70
     6
  9
$SURFV
 70
     6
  9
$UCSBASE
  2

  9
$UCSNAME
  2

  9
$UCSORG
 10
0.0520455678841856
 20
0.0
 30
0.0
  9
$UCSXDIR
 10
1.0
 20
0.0
 30
0.0
  9
$UCSYDIR
 10
0.0
 20
1.0
 30
0.0
  9
$UCSORTHOREF
  2

  9
$UCSORTHOVIEW
 70
     0
  9
$UCSORGTOP
 10
0.0
 20
0.0
 30
0.0
  9
$UCSORGBOTTOM
 10
0.0
 20
0.0
 30
0.0
  9
$UCSORGLEFT
 10
0.0
 20
0.0
 30
0.0
  9
$UCSORGRIGHT
 10
0.0
 20
0.0
 30
0.0
  9
$UCSORGFRONT
 10
0.0
 20
0.0
 30
0.0
  9
$UCSORGBACK
 10
0.0
 20
0.0
 30
0.0
  9
$PUCSBASE
  2

  9
$PUCSNAME
  2

  9
$PUCSORG
 10
0.0
 20
0.0
 30
0.0
  9
$PUCSXDIR
 10
1.0
 20
0.0
 30
0.0
  9
$PUCSYDIR
 10
0.0
 20
1.0
 30
0.0
  9
$PUCSORTHOREF
  2

  9
$PUCSORTHOVIEW
 70
     0
  9
$PUCSORGTOP
 10
0.0
 20
0.0
 30
0.0
  9
$PUCSORGBOTTOM
 10
0.0
 20
0.0
 30
0.0
  9
$PUCSORGLEFT
 10
0.0
 20
0.0
 30
0.0
  9
$PUCSORGRIGHT
 10
0.0
 20
0.0
 30
0.0
  9
$PUCSORGFRONT
 10
0.0
 20
0.0
 30
0.0
  9
$PUCSORGBACK
 10
0.0
 20
0.0
 30
0.0
  9
$USERI1
 70
     0
  9
$USERI2
 70
     0
  9
$USERI3
 70
     0
  9
$USERI4
 70
     0
  9
$USERI5
 70
     0
  9
$USERR1
 40
0.0
  9
$USERR2
 40
0.0
  9
$USERR3
 40
0.0
  9
$USERR4
 40
0.0
  9
$USERR5
 40
0.0
  9
$WORLDVIEW
 70
     1
  9
$SHADEDGE
 70
     3
  9
$SHADEDIF
 70
    70
  9
$TILEMODE
 70
     1
  9
$MAXACTVP
 70
    64
  9
$PINSBASE
 10
0.0
 20
0.0
 30
0.0
  9
$PLIMCHECK
 70
     0
  9
$PEXTMIN
 10
1.000000000000000E+20
 20
1.000000000000000E+20
 30
1.000000000000000E+20
  9
$PEXTMAX
 10
-1.000000000000000E+20
 20
-1.000000000000000E+20
 30
-1.000000000000000E+20
  9
$PLIMMIN
 10
0.0
 20
0.0
  9
$PLIMMAX
 10
0.0
 20
0.0
  9
$UNITMODE
 70
     0
  9
$VISRETAIN
 70
     1
  9
$PLINEGEN
 70
     0
  9
$PSLTSCALE
 70
     1
  9
$TREEDEPTH
 70
  3020
  9
$CMLSTYLE
  2
Standard
  9
$CMLJUST
 70
     0
  9
$CMLSCALE
 40
20.0
  9
$PROXYGRAPHICS
 70
     1
  9
$MEASUREMENT
 70
     1
  9
$CELWEIGHT
370
    -1
  9
$ENDCAPS
280
     0
  9
$JOINSTYLE
280
     0
  9
$LWDISPLAY
290
     1
  9
$INSUNITS
 70
     4
  9
$HYPERLINKBASE
  1

  9
$STYLESHEET
  1

  9
$XEDIT
290
     1
  9
$CEPSNTYPE
380
     0
  9
$PSTYLEMODE
290
     1
  9
$FINGERPRINTGUID
  2
{0CBA276D-93A1-4B21-A2E7-F2339FD7F036}
  9
$VERSIONGUID
  2
{FAEB1C32-E019-11D5-929B-00C0DF256EC4}
  9
$EXTNAMES
290
     1
  9
$PSVPSCALE
 40
0.0
  9
$OLESTARTUP
290
     0
  0
ENDSEC
  0
SECTION
  2
CLASSES
  0
CLASS
  1
ACDBDICTIONARYWDFLT
  2
AcDbDictionaryWithDefault
  3
ObjectDBX Classes
 90
        0
280
     0
281
     0
  0
CLASS
  1
VISUALSTYLE
  2
AcDbVisualStyle
  3
ObjectDBX Classes
 90
     4095
280
     0
281
     0
  0
CLASS
  1
MATERIAL
  2
AcDbMaterial
  3
ObjectDBX Classes
 90
     1153
280
     0
281
     0
  0
CLASS
  1
SCALE
  2
AcDbScale
  3
ObjectDBX Classes
 90
     1153
280
     0
281
     0
  0
CLASS
  1
SUN
  2
AcDbSun
  3
SCENEOE
 90
     1153
280
     0
281
     0
  0
CLASS
  1
ACDBPLACEHOLDER
  2
AcDbPlaceHolder
  3
ObjectDBX Classes
 90
        0
280
     0
281
     0
  0
CLASS
  1
LAYOUT
  2
AcDbLayout
  3
ObjectDBX Classes
 90
        0
280
     0
281
     0
  0
CLASS
  1
TABLESTYLE
  2
AcDbTableStyle
  3
ObjectDBX Classes
 90
     4095
280
     0
281
     0
  0
CLASS
  1
MLEADERSTYLE
  2
AcDbMLeaderStyle
  3
ACDB_MLEADERSTYLE_CLASS
 90
     4095
280
     0
281
     0
  0
CLASS
  1
DICTIONARYVAR
  2
AcDbDictionaryVar
  3
ObjectDBX Classes
 90
        0
280
     0
281
     0
  0
CLASS
  1
DIMASSOC
  2
AcDbDimAssoc
  3
"AcDbDimAssoc|Product Desc:     AcDim ARX App For Dimension|Company:          Autodesk, Inc.|WEB Address:      www.autodesk.com"
 90
        0
280
     0
281
     0
  0
CLASS
  1
RASTERVARIABLES
  2
AcDbRasterVariables
  3
ISM
 90
        0
280
     0
281
     0
  0
ENDSEC
  0
SECTION
  2
TABLES
  0
TABLE
  2
VPORT
  5
8
330
0
100
AcDbSymbolTable
 70
     1
  0
VPORT
  5
29
330
8
100
AcDbSymbolTableRecord
100
AcDbViewportTableRecord
  2
*Active
 70
     0
 10
0.0
 20
0.0
 11
1.0
 21
1.0
 12
6.004802191614829
 22
1.629779323390956
 13
0.0
 23
0.0
 14
10.0
 24
10.0
 15
10.0
 25
10.0
 16
0.0
 26
0.0
 36
1.0
 17
0.0
 27
0.0
 37
0.0
 40
125.033316397758
 41
1.519944979367263
 42
50.0
 43
0.0
 44
0.0
 50
0.0
 51
0.0
 71
    16
 72
  2000
 73
     1
 74
     3
 75
     0
 76
     0
 77
     0
 78
     0
281
     0
 65
     1
110
0.0520455678841856
120
0.0
130
0.0
111
1.0
121
0.0
131
0.0
112
0.0
122
1.0
132
0.0
 79
     0
146
0.0
  0
ENDTAB
  0
TABLE
  2
LTYPE
  5
5
330
0
100
AcDbSymbolTable
 70
     6
  0
LTYPE
  5
14
330
5
100
AcDbSymbolTableRecord
100
AcDbLinetypeTableRecord
  2
ByBlock
 70
     0
  3

 72
    65
 73
     0
 40
0.0
  0
LTYPE
  5
15
330
5
100
AcDbSymbolTableRecord
100
AcDbLinetypeTableRecord
  2
ByLayer
 70
     0
  3

 72
    65
 73
     0
 40
0.0
  0
LTYPE
  5
16
330
5
100
AcDbSymbolTableRecord
100
AcDbLinetypeTableRecord
  2
Continuous
 70
     0
  3
Solid line
 72
    65
 73
     0
 40
0.0
  0
LTYPE
  5
6A
330
5
100
AcDbSymbolTableRecord
100
AcDbLinetypeTableRecord
  2
HIDDEN
 70
     0
  3
Hidden __ __ __ __ __ __ __ __ __ __ __ __ __ __
 72
    65
 73
     2
 40
1.905
 49
1.27
 74
     0
 49
-0.635
 74
     0
  0
LTYPE
  5
6B
330
5
100
AcDbSymbolTableRecord
100
AcDbLinetypeTableRecord
  2
PHANTOM
 70
     0
  3
Phantom ______  __  __  ______  __  __  ______
 72
    65
 73
     6
 40
12.7
 49
6.35
 74
     0
 49
-1.27
 74
     0
 49
1.27
 74
     0
 49
-1.27
 74
     0
 49
1.27
 74
     0
 49
-1.27
 74
     0
  0
LTYPE
  5
6C
330
5
100
AcDbSymbolTableRecord
100
AcDbLinetypeTableRecord
  2
CENTER
 70
     0
  3
Center ____ _ ____ _ ____ _ ____ _ ____ _ ____
 72
    65
 73
     4
 40
10.16
 49
6.35
 74
     0
 49
-1.27
 74
     0
 49
1.27
 74
     0
 49
-1.27
 74
     0
  0
LTYPE
  5
6D
330
5
100
AcDbSymbolTableRecord
100
AcDbLinetypeTableRecord
  2
CENTERX2
 70
     0
  3
Center (2x) ________  __  ________  __  _____
 72
    65
 73
     4
 40
20.32
 49
12.7
 74
     0
 49
-2.54
 74
     0
 49
2.54
 74
     0
 49
-2.54
 74
     0
  0
LTYPE
  5
6E
330
5
100
AcDbSymbolTableRecord
100
AcDbLinetypeTableRecord
  2
DOT2
 70
     0
  3
Dot (.5x) ........................................
 72
    65
 73
     2
 40
0.635
 49
0.0
 74
     0
 49
-0.635
 74
     0
  0
ENDTAB
  0
TABLE
  2
LAYER
  5
2
330
0
100
AcDbSymbolTable
 70
    18
  0
LAYER
  5
10
330
2
100
AcDbSymbolTableRecord
100
AcDbLayerTableRecord
  2
0
 70
     0
 62
     7
  6
Continuous
370
    -3
390
F
  0
LAYER
  5
6F
330
2
100
AcDbSymbolTableRecord
100
AcDbLayerTableRecord
  2
FORMAT
 70
     0
 62
     2
  6
Continuous
370
    -3
390
F
  0
LAYER
  5
70
330
2
100
AcDbSymbolTableRecord
100
AcDbLayerTableRecord
  2
외형선
 70
     0
 62
     4
  6
Continuous
370
    30
390
F
  0
LAYER
  5
71
330
2
100
AcDbSymbolTableRecord
100
AcDbLayerTableRecord
  2
숨은선
 70
     0
 62
     2
  6
HIDDEN
370
    15
390
F
  0
LAYER
  5
72
330
2
100
AcDbSymbolTableRecord
100
AcDbLayerTableRecord
  2
중심선
 70
     0
 62
     1
  6
CENTERX2
370
    -3
390
F
  0
LAYER
  5
73
330
2
100
AcDbSymbolTableRecord
100
AcDbLayerTableRecord
  2
파단선
 70
     0
 62
     4
  6
Continuous
370
    -3
390
F
  0
LAYER
  5
74
330
2
100
AcDbSymbolTableRecord
100
AcDbLayerTableRecord
  2
해칭선
 70
     0
 62
   100
  6
Continuous
370
    -3
390
F
  0
LAYER
  5
75
330
2
100
AcDbSymbolTableRecord
100
AcDbLayerTableRecord
  2
가는실선
 70
     0
 62
     4
  6
Continuous
370
    -3
390
F
  0
LAYER
  5
76
330
2
100
AcDbSymbolTableRecord
100
AcDbLayerTableRecord
  2
치수_보조선
 70
     0
 62
     4
  6
Continuous
370
    -3
390
F
  0
LAYER
  5
77
330
2
100
AcDbSymbolTableRecord
100
AcDbLayerTableRecord
  2
치수문자_일반주서
 70
     0
 62
     7
  6
Continuous
370
    15
390
F
  0
LAYER
  5
78
330
2
100
AcDbSymbolTableRecord
100
AcDbLayerTableRecord
  2
개별주서
 70
     0
 62
   100
  6
Continuous
370
    30
390
F
  0
LAYER
  5
79
330
2
100
AcDbSymbolTableRecord
100
AcDbLayerTableRecord
  2
중간선
 70
     0
 62
     2
  6
Continuous
370
    15
390
F
  0
LAYER
  5
7A
330
2
100
AcDbSymbolTableRecord
100
AcDbLayerTableRecord
  2
윤곽선
 70
     0
 62
     3
  6
Continuous
370
    40
390
F
  0
LAYER
  5
7B
330
2
100
AcDbSymbolTableRecord
100
AcDbLayerTableRecord
  2
중심마크
 70
     0
 62
   100
  6
Continuous
370
    30
390
F
  0
LAYER
  5
7C
330
2
100
AcDbSymbolTableRecord
100
AcDbLayerTableRecord
  2
가상선
 70
     0
 62
     4
  6
PHANTOM
370
    -3
390
F
  0
LAYER
  5
7D
330
2
100
AcDbSymbolTableRecord
100
AcDbLayerTableRecord
  2
특수지정선
 70
     0
 62
     5
  6
CENTERX2
370
    60
390
F
  0
LAYER
  5
7E
330
2
100
AcDbSymbolTableRecord
100
AcDbLayerTableRecord
  2
참조1
 70
     0
 62
    -4
  6
Continuous
370
    -3
390
F
  0
LAYER
  5
159
330
2
100
AcDbSymbolTableRecord
100
AcDbLayerTableRecord
  2
Defpoints
 70
     0
 62
     7
  6
Continuous
290
     0
370
    -3
390
F
  0
ENDTAB
  0
TABLE
  2
STYLE
  5
3
330
0
100
AcDbSymbolTable
 70
     2
  0
STYLE
  5
11
330
3
100
AcDbSymbolTableRecord
100
AcDbTextStyleTableRecord
  2
Standard
 70
     0
 40
0.0
 41
1.0
 50
0.0
 71
     0
 42
3.5
  3
txt
  4

  0
STYLE
  5
94
330
3
100
AcDbSymbolTableRecord
100
AcDbTextStyleTableRecord
  2
SLDTEXTSTYLE0
 70
     0
 40
0.0
 41
0.75
 50
0.0
 71
     0
 42
3.5
  3
TXT
  4

  0
ENDTAB
  0
TABLE
  2
VIEW
  5
6
330
0
100
AcDbSymbolTable
 70
     0
  0
ENDTAB
  0
TABLE
  2
UCS
  5
7
330
0
100
AcDbSymbolTable
 70
     0
  0
ENDTAB
  0
TABLE
  2
APPID
  5
9
330
0
100
AcDbSymbolTable
 70
     3
  0
APPID
  5
12
330
9
100
AcDbSymbolTableRecord
100
AcDbRegAppTableRecord
  2
ACAD
 70
     0
  0
APPID
  5
15C
330
9
100
AcDbSymbolTableRecord
100
AcDbRegAppTableRecord
  2
PE_URL
 70
     0
  0
APPID
  5
68F
330
9
100
AcDbSymbolTableRecord
100
AcDbRegAppTableRecord
  2
PE_DIMMEASUREMENT
 70
     0
  0
ENDTAB
  0
TABLE
  2
DIMSTYLE
  5
A
330
0
100
AcDbSymbolTable
 70
     4
100
AcDbDimStyleTable
  0
DIMSTYLE
105
27
330
A
100
AcDbSymbolTableRecord
100
AcDbDimStyleTableRecord
  2
ISO-25
 70
     0
 41
2.5
 42
0.625
 43
3.75
 44
1.25
 73
     0
 74
     0
 77
     1
 78
     8
140
2.5
141
2.5
143
0.03937007874016
147
0.625
171
     3
172
     1
178
     0
271
     2
272
     2
274
     3
278
    44
283
     0
284
     8
340
11
  0
DIMSTYLE
105
D8
102
{ACAD_REACTORS
102
}
330
A
100
AcDbSymbolTableRecord
100
AcDbDimStyleTableRecord
  2
SLDDIMSTYLE0
 70
     0
 41
3.302
 44
0.0
 45
0.000000001
 73
     0
 74
     0
 77
     1
 78
     4
 79
     1
140
3.5
143
0.0393700787401575
147
0.875
148
0.000000001
170
     1
173
     1
178
     0
271
     2
272
     2
276
     2
284
    12
340
94
  0
DIMSTYLE
105
EC
102
{ACAD_REACTORS
330
1128
330
1129
330
112A
330
1126
330
1127
102
}
330
A
100
AcDbSymbolTableRecord
100
AcDbDimStyleTableRecord
  2
SLDDIMSTYLE1
 70
     0
 41
3.302
 44
0.0
 45
0.000000001
 73
     0
 74
     0
 77
     1
 78
    12
 79
     3
140
3.5
143
0.0393700787401575
147
0.875
148
0.000000001
170
     1
172
     1
173
     1
178
     0
271
     2
272
     2
276
     2
284
    12
289
     0
340
94
  0
DIMSTYLE
105
866
330
A
100
AcDbSymbolTableRecord
100
AcDbDimStyleTableRecord
  2
SLDDIMSTYLE2
 70
     0
 41
3.302
 44
0.0
 45
0.000000001
 73
     0
 74
     0
 77
     1
 78
     4
 79
     1
140
3.5
147
0.875
173
     1
178
     0
271
     2
272
     2
276
     2
284
    12
340
94
  0
ENDTAB
  0
TABLE
  2
BLOCK_RECORD
  5
1
330
0
100
AcDbSymbolTable
 70
   111
  0
BLOCK_RECORD
  5
1F
102
{ACAD_XDICTIONARY
360
11A6
102
}
330
1
100
AcDbSymbolTableRecord
100
AcDbBlockTableRecord
  2
*Model_Space
340
22
  0
BLOCK_RECORD
  5
1B
330
1
100
AcDbSymbolTableRecord
100
AcDbBlockTableRecord
  2
*Paper_Space
340
1E
  0
BLOCK_RECORD
  5
23
330
1
100
AcDbSymbolTableRecord
100
AcDbBlockTableRecord
  2
*Paper_Space0
340
26
  0
BLOCK_RECORD
  5
7F
330
1
100
AcDbSymbolTableRecord
100
AcDbBlockTableRecord
  2
블럭10
340
0
102
{BLKREFS
331
111F
102
}
  0
BLOCK_RECORD
  5
D9
330
1
100
AcDbSymbolTableRecord
100
AcDbBlockTableRecord
  2
_D
340
0
  0
BLOCK_RECORD
  5
ED
330
1
100
AcDbSymbolTableRecord
100
AcDbBlockTableRecord
  2
_D_1
340
0
  0
BLOCK_RECORD
  5
101
330
1
100
AcDbSymbolTableRecord
100
AcDbBlockTableRecord
  2
_D_2
340
0
  0
BLOCK_RECORD
  5
115
330
1
100
AcDbSymbolTableRecord
100
AcDbBlockTableRecord
  2
_D_3
340
0
  0
BLOCK_RECORD
  5
130
330
1
100
AcDbSymbolTableRecord
100
AcDbBlockTableRecord
  2
SW_DOWELSYMBOL_0
340
0
102
{BLKREFS
331
112B
102
}
  0
BLOCK_RECORD
  5
217
330
1
100
AcDbSymbolTableRecord
100
AcDbBlockTableRecord
  2
_D_4
340
0
  0
BLOCK_RECORD
  5
22C
330
1
100
AcDbSymbolTableRecord
100
AcDbBlockTableRecord
  2
*D8
340
0
  0
BLOCK_RECORD
  5
239
330
1
100
AcDbSymbolTableRecord
100
AcDbBlockTableRecord
  2
*D9
340
0
  0
BLOCK_RECORD
  5
246
330
1
100
AcDbSymbolTableRecord
100
AcDbBlockTableRecord
  2
*D10
340
0
  0
BLOCK_RECORD
  5
252
330
1
100
AcDbSymbolTableRecord
100
AcDbBlockTableRecord
  2
*D11
340
0
  0
BLOCK_RECORD
  5
29B
330
1
100
AcDbSymbolTableRecord
100
AcDbBlockTableRecord
  2
*D12
340
0
  0
BLOCK_RECORD
  5
2A8
330
1
100
AcDbSymbolTableRecord
100
AcDbBlockTableRecord
  2
*D13
340
0
  0
BLOCK_RECORD
  5
2B5
330
1
100
AcDbSymbolTableRecord
100
AcDbBlockTableRecord
  2
*D14
340
0
  0
BLOCK_RECORD
  5
2C1
330
1
100
AcDbSymbolTableRecord
100
AcDbBlockTableRecord
  2
*D15
340
0
  0
BLOCK_RECORD
  5
2CD
330
1
100
AcDbSymbolTableRecord
100
AcDbBlockTableRecord
  2
*D16
340
0
  0
BLOCK_RECORD
  5
3EB
330
1
100
AcDbSymbolTableRecord
100
AcDbBlockTableRecord
  2
*D17
340
0
  0
BLOCK_RECORD
  5
3F8
330
1
100
AcDbSymbolTableRecord
100
AcDbBlockTableRecord
  2
*D18
340
0
  0
BLOCK_RECORD
  5
405
330
1
100
AcDbSymbolTableRecord
100
AcDbBlockTableRecord
  2
*D19
340
0
  0
BLOCK_RECORD
  5
411
330
1
100
AcDbSymbolTableRecord
100
AcDbBlockTableRecord
  2
*D20
340
0
  0
BLOCK_RECORD
  5
41D
330
1
100
AcDbSymbolTableRecord
100
AcDbBlockTableRecord
  2
*D21
340
0
  0
BLOCK_RECORD
  5
466
330
1
100
AcDbSymbolTableRecord
100
AcDbBlockTableRecord
  2
*D22
340
0
  0
BLOCK_RECORD
  5
473
330
1
100
AcDbSymbolTableRecord
100
AcDbBlockTableRecord
  2
*D23
340
0
  0
BLOCK_RECORD
  5
480
330
1
100
AcDbSymbolTableRecord
100
AcDbBlockTableRecord
  2
*D24
340
0
  0
BLOCK_RECORD
  5
48C
330
1
100
AcDbSymbolTableRecord
100
AcDbBlockTableRecord
  2
*D25
340
0
  0
BLOCK_RECORD
  5
498
330
1
100
AcDbSymbolTableRecord
100
AcDbBlockTableRecord
  2
*D26
340
0
  0
BLOCK_RECORD
  5
5BC
330
1
100
AcDbSymbolTableRecord
100
AcDbBlockTableRecord
  2
*D27
340
0
  0
BLOCK_RECORD
  5
5C8
330
1
100
AcDbSymbolTableRecord
100
AcDbBlockTableRecord
  2
*D28
340
0
  0
BLOCK_RECORD
  5
5D4
330
1
100
AcDbSymbolTableRecord
100
AcDbBlockTableRecord
  2
*D29
340
0
  0
BLOCK_RECORD
  5
5E0
330
1
100
AcDbSymbolTableRecord
100
AcDbBlockTableRecord
  2
*D30
340
0
  0
BLOCK_RECORD
  5
5EC
330
1
100
AcDbSymbolTableRecord
100
AcDbBlockTableRecord
  2
*D31
340
0
  0
BLOCK_RECORD
  5
638
330
1
100
AcDbSymbolTableRecord
100
AcDbBlockTableRecord
  2
*D32
340
0
  0
BLOCK_RECORD
  5
644
330
1
100
AcDbSymbolTableRecord
100
AcDbBlockTableRecord
  2
*D33
340
0
  0
BLOCK_RECORD
  5
650
330
1
100
AcDbSymbolTableRecord
100
AcDbBlockTableRecord
  2
*D34
340
0
  0
BLOCK_RECORD
  5
65C
330
1
100
AcDbSymbolTableRecord
100
AcDbBlockTableRecord
  2
*D35
340
0
  0
BLOCK_RECORD
  5
668
330
1
100
AcDbSymbolTableRecord
100
AcDbBlockTableRecord
  2
*D36
340
0
  0
BLOCK_RECORD
  5
67A
330
1
100
AcDbSymbolTableRecord
100
AcDbBlockTableRecord
  2
*D37
340
0
  0
BLOCK_RECORD
  5
693
330
1
100
AcDbSymbolTableRecord
100
AcDbBlockTableRecord
  2
*D38
340
0
  0
BLOCK_RECORD
  5
6A3
330
1
100
AcDbSymbolTableRecord
100
AcDbBlockTableRecord
  2
*D39
340
0
  0
BLOCK_RECORD
  5
6B3
330
1
100
AcDbSymbolTableRecord
100
AcDbBlockTableRecord
  2
*D40
340
0
  0
BLOCK_RECORD
  5
782
330
1
100
AcDbSymbolTableRecord
100
AcDbBlockTableRecord
  2
*D41
340
0
  0
BLOCK_RECORD
  5
78E
330
1
100
AcDbSymbolTableRecord
100
AcDbBlockTableRecord
  2
*D42
340
0
  0
BLOCK_RECORD
  5
79A
330
1
100
AcDbSymbolTableRecord
100
AcDbBlockTableRecord
  2
*D43
340
0
  0
BLOCK_RECORD
  5
7A6
330
1
100
AcDbSymbolTableRecord
100
AcDbBlockTableRecord
  2
*D44
340
0
  0
BLOCK_RECORD
  5
7B2
330
1
100
AcDbSymbolTableRecord
100
AcDbBlockTableRecord
  2
*D45
340
0
  0
BLOCK_RECORD
  5
7FF
330
1
100
AcDbSymbolTableRecord
100
AcDbBlockTableRecord
  2
*D46
340
0
  0
BLOCK_RECORD
  5
80B
330
1
100
AcDbSymbolTableRecord
100
AcDbBlockTableRecord
  2
*D47
340
0
  0
BLOCK_RECORD
  5
817
330
1
100
AcDbSymbolTableRecord
100
AcDbBlockTableRecord
  2
*D48
340
0
  0
BLOCK_RECORD
  5
823
330
1
100
AcDbSymbolTableRecord
100
AcDbBlockTableRecord
  2
*D49
340
0
  0
BLOCK_RECORD
  5
82F
330
1
100
AcDbSymbolTableRecord
100
AcDbBlockTableRecord
  2
*D50
340
0
  0
BLOCK_RECORD
  5
847
330
1
100
AcDbSymbolTableRecord
100
AcDbBlockTableRecord
  2
*D51
340
0
  0
BLOCK_RECORD
  5
916
330
1
100
AcDbSymbolTableRecord
100
AcDbBlockTableRecord
  2
*D52
340
0
  0
BLOCK_RECORD
  5
923
330
1
100
AcDbSymbolTableRecord
100
AcDbBlockTableRecord
  2
*D53
340
0
  0
BLOCK_RECORD
  5
930
330
1
100
AcDbSymbolTableRecord
100
AcDbBlockTableRecord
  2
*D54
340
0
  0
BLOCK_RECORD
  5
93C
330
1
100
AcDbSymbolTableRecord
100
AcDbBlockTableRecord
  2
*D55
340
0
  0
BLOCK_RECORD
  5
948
330
1
100
AcDbSymbolTableRecord
100
AcDbBlockTableRecord
  2
*D56
340
0
  0
BLOCK_RECORD
  5
995
330
1
100
AcDbSymbolTableRecord
100
AcDbBlockTableRecord
  2
*D57
340
0
  0
BLOCK_RECORD
  5
9A2
330
1
100
AcDbSymbolTableRecord
100
AcDbBlockTableRecord
  2
*D58
340
0
  0
BLOCK_RECORD
  5
9AF
330
1
100
AcDbSymbolTableRecord
100
AcDbBlockTableRecord
  2
*D59
340
0
  0
BLOCK_RECORD
  5
9BB
330
1
100
AcDbSymbolTableRecord
100
AcDbBlockTableRecord
  2
*D60
340
0
  0
BLOCK_RECORD
  5
9C7
330
1
100
AcDbSymbolTableRecord
100
AcDbBlockTableRecord
  2
*D61
340
0
  0
BLOCK_RECORD
  5
9DF
330
1
100
AcDbSymbolTableRecord
100
AcDbBlockTableRecord
  2
*D62
340
0
  0
BLOCK_RECORD
  5
AB0
330
1
100
AcDbSymbolTableRecord
100
AcDbBlockTableRecord
  2
*D63
340
0
  0
BLOCK_RECORD
  5
ABD
330
1
100
AcDbSymbolTableRecord
100
AcDbBlockTableRecord
  2
*D64
340
0
  0
BLOCK_RECORD
  5
ACA
330
1
100
AcDbSymbolTableRecord
100
AcDbBlockTableRecord
  2
*D65
340
0
  0
BLOCK_RECORD
  5
AD6
330
1
100
AcDbSymbolTableRecord
100
AcDbBlockTableRecord
  2
*D66
340
0
  0
BLOCK_RECORD
  5
AE2
330
1
100
AcDbSymbolTableRecord
100
AcDbBlockTableRecord
  2
*D67
340
0
  0
BLOCK_RECORD
  5
B30
330
1
100
AcDbSymbolTableRecord
100
AcDbBlockTableRecord
  2
*D68
340
0
  0
BLOCK_RECORD
  5
B3D
330
1
100
AcDbSymbolTableRecord
100
AcDbBlockTableRecord
  2
*D69
340
0
  0
BLOCK_RECORD
  5
B4A
330
1
100
AcDbSymbolTableRecord
100
AcDbBlockTableRecord
  2
*D70
340
0
  0
BLOCK_RECORD
  5
B56
330
1
100
AcDbSymbolTableRecord
100
AcDbBlockTableRecord
  2
*D71
340
0
  0
BLOCK_RECORD
  5
B62
330
1
100
AcDbSymbolTableRecord
100
AcDbBlockTableRecord
  2
*D72
340
0
  0
BLOCK_RECORD
  5
B86
330
1
100
AcDbSymbolTableRecord
100
AcDbBlockTableRecord
  2
*D73
340
0
  0
BLOCK_RECORD
  5
C53
330
1
100
AcDbSymbolTableRecord
100
AcDbBlockTableRecord
  2
*D74
340
0
  0
BLOCK_RECORD
  5
C60
330
1
100
AcDbSymbolTableRecord
100
AcDbBlockTableRecord
  2
*D75
340
0
  0
BLOCK_RECORD
  5
C6D
330
1
100
AcDbSymbolTableRecord
100
AcDbBlockTableRecord
  2
*D76
340
0
  0
BLOCK_RECORD
  5
C79
330
1
100
AcDbSymbolTableRecord
100
AcDbBlockTableRecord
  2
*D77
340
0
  0
BLOCK_RECORD
  5
C85
330
1
100
AcDbSymbolTableRecord
100
AcDbBlockTableRecord
  2
*D78
340
0
  0
BLOCK_RECORD
  5
D4D
330
1
100
AcDbSymbolTableRecord
100
AcDbBlockTableRecord
  2
*D79
340
0
  0
BLOCK_RECORD
  5
D5A
330
1
100
AcDbSymbolTableRecord
100
AcDbBlockTableRecord
  2
*D80
340
0
  0
BLOCK_RECORD
  5
D67
330
1
100
AcDbSymbolTableRecord
100
AcDbBlockTableRecord
  2
*D81
340
0
  0
BLOCK_RECORD
  5
D73
330
1
100
AcDbSymbolTableRecord
100
AcDbBlockTableRecord
  2
*D82
340
0
  0
BLOCK_RECORD
  5
D7F
330
1
100
AcDbSymbolTableRecord
100
AcDbBlockTableRecord
  2
*D83
340
0
  0
BLOCK_RECORD
  5
DCB
330
1
100
AcDbSymbolTableRecord
100
AcDbBlockTableRecord
  2
*D84
340
0
  0
BLOCK_RECORD
  5
DD8
330
1
100
AcDbSymbolTableRecord
100
AcDbBlockTableRecord
  2
*D85
340
0
  0
BLOCK_RECORD
  5
DE5
330
1
100
AcDbSymbolTableRecord
100
AcDbBlockTableRecord
  2
*D86
340
0
  0
BLOCK_RECORD
  5
DF1
330
1
100
AcDbSymbolTableRecord
100
AcDbBlockTableRecord
  2
*D87
340
0
  0
BLOCK_RECORD
  5
DFD
330
1
100
AcDbSymbolTableRecord
100
AcDbBlockTableRecord
  2
*D88
340
0
  0
BLOCK_RECORD
  5
E10
330
1
100
AcDbSymbolTableRecord
100
AcDbBlockTableRecord
  2
*D89
340
0
  0
BLOCK_RECORD
  5
EE9
330
1
100
AcDbSymbolTableRecord
100
AcDbBlockTableRecord
  2
*D90
340
0
  0
BLOCK_RECORD
  5
EF6
330
1
100
AcDbSymbolTableRecord
100
AcDbBlockTableRecord
  2
*D91
340
0
  0
BLOCK_RECORD
  5
F03
330
1
100
AcDbSymbolTableRecord
100
AcDbBlockTableRecord
  2
*D92
340
0
  0
BLOCK_RECORD
  5
F0F
330
1
100
AcDbSymbolTableRecord
100
AcDbBlockTableRecord
  2
*D93
340
0
  0
BLOCK_RECORD
  5
F1B
330
1
100
AcDbSymbolTableRecord
100
AcDbBlockTableRecord
  2
*D94
340
0
  0
BLOCK_RECORD
  5
F6B
330
1
100
AcDbSymbolTableRecord
100
AcDbBlockTableRecord
  2
*D95
340
0
  0
BLOCK_RECORD
  5
F78
330
1
100
AcDbSymbolTableRecord
100
AcDbBlockTableRecord
  2
*D96
340
0
  0
BLOCK_RECORD
  5
F85
330
1
100
AcDbSymbolTableRecord
100
AcDbBlockTableRecord
  2
*D97
340
0
  0
BLOCK_RECORD
  5
F91
330
1
100
AcDbSymbolTableRecord
100
AcDbBlockTableRecord
  2
*D98
340
0
  0
BLOCK_RECORD
  5
F9D
330
1
100
AcDbSymbolTableRecord
100
AcDbBlockTableRecord
  2
*D99
340
0
  0
BLOCK_RECORD
  5
FBE
330
1
100
AcDbSymbolTableRecord
100
AcDbBlockTableRecord
  2
*D100
340
0
  0
BLOCK_RECORD
  5
10AC
330
1
100
AcDbSymbolTableRecord
100
AcDbBlockTableRecord
  2
*D101
340
0
  0
BLOCK_RECORD
  5
10B9
330
1
100
AcDbSymbolTableRecord
100
AcDbBlockTableRecord
  2
*D102
340
0
  0
BLOCK_RECORD
  5
10C6
330
1
100
AcDbSymbolTableRecord
100
AcDbBlockTableRecord
  2
*D103
340
0
  0
BLOCK_RECORD
  5
10D2
330
1
100
AcDbSymbolTableRecord
100
AcDbBlockTableRecord
  2
*D104
340
0
  0
BLOCK_RECORD
  5
10DE
330
1
100
AcDbSymbolTableRecord
100
AcDbBlockTableRecord
  2
*D105
340
0
  0
BLOCK_RECORD
  5
112C
330
1
100
AcDbSymbolTableRecord
100
AcDbBlockTableRecord
  2
*D106
340
0
  0
BLOCK_RECORD
  5
1139
330
1
100
AcDbSymbolTableRecord
100
AcDbBlockTableRecord
  2
*D107
340
0
  0
BLOCK_RECORD
  5
1146
330
1
100
AcDbSymbolTableRecord
100
AcDbBlockTableRecord
  2
*D108
340
0
  0
BLOCK_RECORD
  5
1152
330
1
100
AcDbSymbolTableRecord
100
AcDbBlockTableRecord
  2
*D109
340
0
  0
BLOCK_RECORD
  5
115E
330
1
100
AcDbSymbolTableRecord
100
AcDbBlockTableRecord
  2
*D110
340
0
  0
ENDTAB
  0
ENDSEC
  0
SECTION
  2
BLOCKS
  0
BLOCK
  5
20
330
1F
100
AcDbEntity
  8
0
100
AcDbBlockBegin
  2
*Model_Space
 70
     0
 10
0.0
 20
0.0
 30
0.0
  3
*Model_Space
  1
*Model_Space
  0
ENDBLK
  5
21
330
1F
100
AcDbEntity
  8
0
100
AcDbBlockEnd
  0
BLOCK
  5
1C
330
1B
100
AcDbEntity
 67
     1
  8
0
100
AcDbBlockBegin
  2
*Paper_Space
 70
     0
 10
0.0
 20
0.0
 30
0.0
  3
*Paper_Space
  1
*Paper_Space
  0
ENDBLK
  5
1D
330
1B
100
AcDbEntity
 67
     1
  8
0
100
AcDbBlockEnd
  0
BLOCK
  5
24
330
23
100
AcDbEntity
  8
0
100
AcDbBlockBegin
  2
*Paper_Space0
 70
     0
 10
0.0
 20
0.0
 30
0.0
  3
*Paper_Space0
  1
*Paper_Space0
  0
ENDBLK
  5
25
330
23
100
AcDbEntity
  8
0
100
AcDbBlockEnd
  0
BLOCK
  5
80
330
7F
100
AcDbEntity
  8
0
100
AcDbBlockBegin
  2
블럭10
 70
     2
 10
0.0
 20
0.0
 30
0.0
  3
블럭10
  1
블럭10
  0
ELLIPSE
  5
82
330
7F
100
AcDbEntity
  8
중심선
100
AcDbEllipse
 10
20.54032771741204
 20
12.0471743016438
 30
0.0
 11
6.600054785286829
 21
-1.261213355974178E-13
 31
0.0
210
0.0
220
0.0
230
1.0
 40
0.636358354079598
 41
0.9219305317359503
 42
6.513795318482858
  0
ELLIPSE
  5
83
330
7F
100
AcDbEntity
  8
중심선
100
AcDbEllipse
 10
20.54032771746488
 20
12.04717430159265
 30
0.0
 11
3.960054785062283
 21
1.540847449632565E-10
 31
0.0
210
0.0
220
0.0
230
1.0
 40
0.3939339440162632
 41
1.131841032648279
 42
5.62031148352944
  0
LINE
  5
84
330
7F
100
AcDbEntity
  8
중심선
100
AcDbLine
 10
2.268634060543552
 20
16.24717430164393
 30
0.0
 11
5.714909304380834
 21
16.24717430164393
 31
0.0
  0
LINE
  5
85
330
7F
100
AcDbEntity
  8
중심선
100
AcDbLine
 10
5.245725140726316
 20
7.84717430164391
 30
0.0
 11
8.692000384563599
 21
7.84717430164391
 31
0.0
  0
LINE
  5
86
330
7F
100
AcDbEntity
  8
중심선
100
AcDbLine
 10
15.74043728645272
 20
16.24717430164393
 30
0.0
 11
8.692000384563599
 21
7.84717430164391
 31
0.0
  0
LINE
  5
87
330
7F
100
AcDbEntity
  8
중심선
100
AcDbLine
 10
0.1404042013395286
 20
13.71084872107135
 30
0.0
 11
3.58671253028996
 21
13.71088815037384
 31
0.0
  0
LINE
  5
88
330
7F
100
AcDbEntity
  8
중심선
100
AcDbLine
 10
2.750260043222114
 20
10.84717430164391
 30
0.0
 11
6.196535287059397
 21
10.84717430164391
 31
0.0
  0
LINE
  5
89
330
7F
100
AcDbEntity
  8
중심선
100
AcDbLine
 10
12.29416204261559
 20
16.24717430164393
 30
0.0
 11
5.245725140726316
 21
7.84717430164391
 31
0.0
  0
LINE
  5
8A
330
7F
100
AcDbEntity
  8
중심선
100
AcDbLine
 10
10.72767329541681
 20
16.24717430164393
 30
0.0
 11
6.196535287059397
 21
10.84717430164391
 31
0.0
  0
LINE
  5
8B
330
7F
100
AcDbEntity
  8
중심선
100
AcDbLine
 10
7.28139805157953
 20
16.24717430164393
 30
0.0
 11
2.750260043222114
 21
10.84717430164391
 31
0.0
  0
LINE
  5
8C
330
7F
100
AcDbEntity
  8
중심선
100
AcDbLine
 10
5.714909304380834
 20
16.24717430164393
 30
0.0
 11
3.58671253028996
 21
13.71088815037384
 31
0.0
  0
LINE
  5
8D
330
7F
100
AcDbEntity
  8
중심선
100
AcDbLine
 10
2.268634060543552
 20
16.24717430164393
 30
0.0
 11
0.1404042013395286
 21
13.71084872107135
 31
0.0
  0
LINE
  5
8E
330
7F
100
AcDbEntity
  8
중심선
100
AcDbLine
 10
7.28139805157953
 20
16.24717430164393
 30
0.0
 11
10.72767329541681
 21
16.24717430164393
 31
0.0
  0
LINE
  5
8F
330
7F
100
AcDbEntity
  8
중심선
100
AcDbLine
 10
12.29416204261559
 20
16.24717430164393
 30
0.0
 11
15.74043728645272
 21
16.24717430164393
 31
0.0
  0
LINE
  5
90
330
7F
100
AcDbEntity
  8
중심선
100
AcDbLine
 10
19.22036997980202
 20
11.08717430171403
 30
0.0
 11
23.66174974927406
 21
11.08717430171406
 31
0.0
  0
LINE
  5
91
330
7F
100
AcDbEntity
  8
중심선
100
AcDbLine
 10
19.22039502424796
 20
13.00717430171391
 30
0.0
 11
19.22036997980202
 21
11.08717430171403
 31
0.0
  0
LINE
  5
92
330
7F
100
AcDbEntity
  8
중심선
100
AcDbLine
 10
19.22039502424796
 20
13.00717430171391
 30
0.0
 11
26.96566020931264
 21
13.00717430171391
 31
0.0
  0
LINE
  5
93
330
7F
100
AcDbEntity
  8
중심선
100
AcDbLine
 10
22.22332737316547
 20
13.45928029700563
 30
0.0
 11
24.52862924686651
 21
15.39360700705356
 31
0.0
  0
ATTDEF
  5
95
330
7F
100
AcDbEntity
  8
FORMAT
 62
     2
100
AcDbText
 10
5.200277315438102
 20
2.075366912832191
 30
0.0
 40
4.233333333333333
  1
EI107012
 41
0.75
  7
SLDTEXTSTYLE0
 11
5.200277315438102
 21
-0.0412997538344756
 31
0.0
100
AcDbAttributeDefinition
  3

  2
AUTOATTR0
 70
     0
 74
     1
  0
ENDBLK
  5
81
330
7F
100
AcDbEntity
  8
0
100
AcDbBlockEnd
  0
BLOCK
  5
DA
330
D9
100
AcDbEntity
  8
0
100
AcDbBlockBegin
  2
_D
 70
     0
 10
0.0
 20
0.0
 30
0.0
  3
_D
  1
_D
  0
LINE
  5
DC
330
D9
100
AcDbEntity
  8
치수문자_일반주서
 62
     0
370
    -2
100
AcDbLine
 10
-24.925
 20
1.944824928723889
 30
0.0
 11
-24.925
 21
26.67217117410937
 31
0.0
  0
LINE
  5
DD
330
D9
100
AcDbEntity
  8
치수문자_일반주서
 62
     0
370
    -2
100
AcDbLine
 10
25.875
 20
2.454239777376156
 30
0.0
 11
25.875
 21
26.67217117410937
 31
0.0
  0
LINE
  5
DE
330
D9
100
AcDbEntity
  8
치수문자_일반주서
 62
     0
370
    -2
100
AcDbLine
 10
-21.623
 20
26.67217117410937
 30
0.0
 11
22.573
 21
26.67217117410937
 31
0.0
  0
SOLID
  5
DF
330
D9
100
AcDbEntity
  8
치수문자_일반주서
 62
     0
100
AcDbTrace
 10
-21.623
 20
27.2225045074427
 30
0.0
 11
-21.623
 21
26.12183784077603
 31
0.0
 12
-24.925
 22
26.67217117410937
 32
0.0
 13
-24.925
 23
26.67217117410937
 33
0.0
  0
SOLID
  5
E0
330
D9
100
AcDbEntity
  8
치수문자_일반주서
 62
     0
100
AcDbTrace
 10
22.573
 20
26.12183784077603
 30
0.0
 11
22.573
 21
27.2225045074427
 31
0.0
 12
25.875
 22
26.67217117410937
 32
0.0
 13
25.875
 23
26.67217117410937
 33
0.0
  0
MTEXT
  5
E1
330
D9
100
AcDbEntity
  8
치수문자_일반주서
 62
     0
100
AcDbMText
 10
0.474999999999998
 20
31.04717117410937
 30
0.0
 40
3.5
 41
0.0
 71
     2
 72
     1
  1
\A1;50.8 [2]
  7
SLDTEXTSTYLE0
 73
     1
 44
1.0
  0
POINT
  5
E2
330
D9
100
AcDbEntity
  8
Defpoints
 62
     0
100
AcDbPoint
 10
-24.925
 20
1.882324928723889
 30
0.0
  0
POINT
  5
E3
330
D9
100
AcDbEntity
  8
Defpoints
 62
     0
100
AcDbPoint
 10
25.875
 20
2.391739777376156
 30
0.0
  0
POINT
  5
E4
330
D9
100
AcDbEntity
  8
Defpoints
 62
     0
100
AcDbPoint
 10
25.875
 20
26.67217117410937
 30
0.0
  0
ENDBLK
  5
DB
330
D9
100
AcDbEntity
  8
0
100
AcDbBlockEnd
  0
BLOCK
  5
EE
330
ED
100
AcDbEntity
  8
0
100
AcDbBlockBegin
  2
_D_1
 70
     0
 10
0.0
 20
0.0
 30
0.0
  3
_D_1
  1
_D_1
  0
LINE
  5
F0
330
ED
100
AcDbEntity
  8
치수문자_일반주서
 62
     0
370
    -2
100
AcDbLine
 10
25.875
 20
2.382324928723894
 30
0.0
 11
52.51087757850773
 21
2.382324928723992
 31
0.0
  0
LINE
  5
F1
330
ED
100
AcDbEntity
  8
치수문자_일반주서
 62
     0
370
    -2
100
AcDbLine
 10
25.875
 20
-2.380175071276109
 30
0.0
 11
52.51087757850775
 21
-2.38017507127601
 31
0.0
  0
LINE
  5
F2
330
ED
100
AcDbEntity
  8
치수문자_일반주서
 62
     0
370
    -2
100
AcDbLine
 10
52.51087757850773
 20
2.382324928723992
 30
0.0
 11
52.51087757850763
 21
36.98632492872399
 31
0.0
  0
LINE
  5
F3
330
ED
100
AcDbEntity
  8
치수문자_일반주서
 62
     0
370
    -2
100
AcDbLine
 10
52.51087757850773
 20
2.382324928723992
 30
0.0
 11
52.51087757850775
 21
-2.38017507127601
 31
0.0
  0
LINE
  5
F4
330
ED
100
AcDbEntity
  8
치수문자_일반주서
 62
     0
370
    -2
100
AcDbLine
 10
52.51087757850772
 20
5.684324928723992
 30
0.0
 11
52.51087757850772
 21
8.986324928723992
 31
0.0
  0
LINE
  5
F5
330
ED
100
AcDbEntity
  8
치수문자_일반주서
 62
     0
370
    -2
100
AcDbLine
 10
52.51087757850775
 20
-5.68217507127601
 30
0.0
 11
52.51087757850776
 21
-8.98417507127601
 31
0.0
  0
SOLID
  5
F6
330
ED
100
AcDbEntity
  8
치수문자_일반주서
 62
     0
100
AcDbTrace
 10
51.96054424517439
 20
5.68432492872399
 30
0.0
 11
53.06121091184106
 21
5.684324928723994
 31
0.0
 12
52.51087757850773
 22
2.382324928723992
 32
0.0
 13
52.51087757850773
 23
2.382324928723992
 33
0.0
  0
SOLID
  5
F7
330
ED
100
AcDbEntity
  8
치수문자_일반주서
 62
     0
100
AcDbTrace
 10
53.06121091184109
 20
-5.682175071276008
 30
0.0
 11
51.96054424517442
 21
-5.682175071276012
 31
0.0
 12
52.51087757850775
 22
-2.38017507127601
 32
0.0
 13
52.51087757850775
 23
-2.38017507127601
 33
0.0
  0
MTEXT
  5
F8
330
ED
100
AcDbEntity
  8
치수문자_일반주서
 62
     0
100
AcDbMText
 10
48.13587757850767
 20
22.98632492872398
 30
0.0
 40
3.5
 41
0.0
 71
     2
 72
     1
  1
\A1;%%c4.76 [3/16]
  7
SLDTEXTSTYLE0
 11
-2.983906501879684E-15
 21
1.0
 31
0.0
 73
     1
 44
1.0
  0
POINT
  5
F9
330
ED
100
AcDbEntity
  8
Defpoints
 62
     0
100
AcDbPoint
 10
25.8125
 20
2.382324928723894
 30
0.0
  0
POINT
  5
FA
330
ED
100
AcDbEntity
  8
Defpoints
 62
     0
100
AcDbPoint
 10
25.8125
 20
-2.380175071276109
 30
0.0
  0
POINT
  5
FB
330
ED
100
AcDbEntity
  8
Defpoints
 62
     0
100
AcDbPoint
 10
52.51087757850775
 20
-2.380175071276009
 30
0.0
  0
ENDBLK
  5
EF
330
ED
100
AcDbEntity
  8
0
100
AcDbBlockEnd
  0
BLOCK
  5
102
330
101
100
AcDbEntity
  8
0
100
AcDbBlockBegin
  2
_D_2
 70
     0
 10
0.0
 20
0.0
 30
0.0
  3
_D_2
  1
_D_2
  0
LINE
  5
104
330
101
100
AcDbEntity
  8
치수문자_일반주서
 62
     0
370
    -2
100
AcDbLine
 10
-24.48749999999999
 20
2.382324928723894
 30
0.0
 11
-37.92499999999997
 21
2.382324928723847
 31
0.0
  0
LINE
  5
105
330
101
100
AcDbEntity
  8
치수문자_일반주서
 62
     0
370
    -2
100
AcDbLine
 10
-24.48749999999999
 20
-2.380175071276109
 30
0.0
 11
-37.92499999999995
 21
-2.380175071276156
 31
0.0
  0
LINE
  5
106
330
101
100
AcDbEntity
  8
치수문자_일반주서
 62
     0
370
    -2
100
AcDbLine
 10
-37.92499999999997
 20
2.382324928723847
 30
0.0
 11
-37.92500000000008
 21
36.98632492872385
 31
0.0
  0
LINE
  5
107
330
101
100
AcDbEntity
  8
치수문자_일반주서
 62
     0
370
    -2
100
AcDbLine
 10
-37.92499999999997
 20
2.382324928723847
 30
0.0
 11
-37.92499999999995
 21
-2.380175071276156
 31
0.0
  0
LINE
  5
108
330
101
100
AcDbEntity
  8
치수문자_일반주서
 62
     0
370
    -2
100
AcDbLine
 10
-37.92499999999998
 20
5.684324928723846
 30
0.0
 11
-37.92499999999998
 21
8.986324928723846
 31
0.0
  0
LINE
  5
109
330
101
100
AcDbEntity
  8
치수문자_일반주서
 62
     0
370
    -2
100
AcDbLine
 10
-37.92499999999995
 20
-5.682175071276156
 30
0.0
 11
-37.92499999999994
 21
-8.984175071276155
 31
0.0
  0
SOLID
  5
10A
330
101
100
AcDbEntity
  8
치수문자_일반주서
 62
     0
100
AcDbTrace
 10
-38.47533333333331
 20
5.684324928723845
 30
0.0
 11
-37.37466666666664
 21
5.684324928723848
 31
0.0
 12
-37.92499999999997
 22
2.382324928723847
 32
0.0
 13
-37.92499999999997
 23
2.382324928723847
 33
0.0
  0
SOLID
  5
10B
330
101
100
AcDbEntity
  8
치수문자_일반주서
 62
     0
100
AcDbTrace
 10
-37.37466666666661
 20
-5.682175071276154
 30
0.0
 11
-38.47533333333328
 21
-5.682175071276157
 31
0.0
 12
-37.92499999999995
 22
-2.380175071276156
 32
0.0
 13
-37.92499999999995
 23
-2.380175071276156
 33
0.0
  0
MTEXT
  5
10C
330
101
100
AcDbEntity
  8
치수문자_일반주서
 62
     0
100
AcDbMText
 10
-42.30000000000003
 20
22.98632492872383
 30
0.0
 40
3.5
 41
0.0
 71
     2
 72
     1
  1
\A1;%%c4.76 [3/16]
  7
SLDTEXTSTYLE0
 11
-2.983906501879684E-15
 21
1.0
 31
0.0
 73
     1
 44
1.0
  0
POINT
  5
15D
330
101
100
AcDbEntity
  8
Defpoints
 62
     0
100
AcDbPoint
 10
-24.42499999999999
 20
2.382324928723894
 30
0.0
  0
POINT
  5
15E
330
101
100
AcDbEntity
  8
Defpoints
 62
     0
100
AcDbPoint
 10
-24.42499999999999
 20
-2.380175071276109
 30
0.0
  0
POINT
  5
15F
330
101
100
AcDbEntity
  8
Defpoints
 62
     0
100
AcDbPoint
 10
-37.92499999999996
 20
-2.380175071276156
 30
0.0
  0
ENDBLK
  5
103
330
101
100
AcDbEntity
  8
0
100
AcDbBlockEnd
  0
BLOCK
  5
116
330
115
100
AcDbEntity
  8
0
100
AcDbBlockBegin
  2
_D_3
 70
     0
 10
0.0
 20
0.0
 30
0.0
  3
_D_3
  1
_D_3
  0
LINE
  5
118
330
115
100
AcDbEntity
  8
치수문자_일반주서
 62
     0
370
    -2
100
AcDbLine
 10
25.875
 20
2.444824928723894
 30
0.0
 11
25.875
 21
13.80387532676639
 31
0.0
  0
LINE
  5
119
330
115
100
AcDbEntity
  8
치수문자_일반주서
 62
     0
370
    -2
100
AcDbLine
 10
9.999999999999995
 20
2.171201999844017
 30
0.0
 11
9.999999999999995
 21
13.80387532676639
 31
0.0
  0
LINE
  5
11A
330
115
100
AcDbEntity
  8
치수문자_일반주서
 62
     0
370
    -2
100
AcDbLine
 10
22.573
 20
13.80387532676639
 30
0.0
 11
13.30199999999999
 21
13.80387532676639
 31
0.0
  0
SOLID
  5
11B
330
115
100
AcDbEntity
  8
치수문자_일반주서
 62
     0
100
AcDbTrace
 10
22.573
 20
13.25354199343306
 30
0.0
 11
22.573
 21
14.35420866009973
 31
0.0
 12
25.875
 22
13.80387532676639
 32
0.0
 13
25.875
 23
13.80387532676639
 33
0.0
  0
SOLID
  5
11C
330
115
100
AcDbEntity
  8
치수문자_일반주서
 62
     0
100
AcDbTrace
 10
13.30199999999999
 20
14.35420866009973
 30
0.0
 11
13.30199999999999
 21
13.25354199343306
 31
0.0
 12
9.999999999999995
 22
13.80387532676639
 32
0.0
 13
9.999999999999995
 23
13.80387532676639
 33
0.0
  0
MTEXT
  5
11D
330
115
100
AcDbEntity
  8
치수문자_일반주서
 62
     0
100
AcDbMText
 10
18.4450217873033
 20
18.17887532676639
 30
0.0
 40
3.5
 41
0.0
 71
     2
 72
     1
  1
\A1;15.88 [5/8]
  7
SLDTEXTSTYLE0
 73
     1
 44
1.0
  0
POINT
  5
11E
330
115
100
AcDbEntity
  8
Defpoints
 62
     0
100
AcDbPoint
 10
25.875
 20
2.382324928723894
 30
0.0
  0
POINT
  5
11F
330
115
100
AcDbEntity
  8
Defpoints
 62
     0
100
AcDbPoint
 10
9.999999999999995
 20
2.108701999844017
 30
0.0
  0
POINT
  5
120
330
115
100
AcDbEntity
  8
Defpoints
 62
     0
100
AcDbPoint
 10
9.999999999999995
 20
13.80387532676639
 30
0.0
  0
ENDBLK
  5
117
330
115
100
AcDbEntity
  8
0
100
AcDbBlockEnd
  0
BLOCK
  5
131
330
130
100
AcDbEntity
  8
0
100
AcDbBlockBegin
  2
SW_DOWELSYMBOL_0
 70
     0
 10
0.0
 20
0.0
 30
0.0
  3
SW_DOWELSYMBOL_0
  1
SW_DOWELSYMBOL_0
  0
CIRCLE
  5
133
330
130
100
AcDbEntity
  8
해칭선
 62
     0
100
AcDbCircle
 10
0.0
 20
0.0
 30
0.0
 40
3.000000000000002
  0
HATCH
  5
134
330
130
100
AcDbEntity
  8
0
  6
Continuous
 62
     0
370
     0
100
AcDbHatch
 10
0.0
 20
0.0
 30
0.0
210
0.0
220
0.0
230
1.0
  2
SOLID
 70
     1
 71
     0
 91
        1
 92
        0
 93
        3
 72
     2
 10
0.0000000000000069
 20
0.0
 40
3.000000000000002
 50
0.0
 51
90.0
 73
     1
 72
     1
 10
0.0000000000000069
 20
3.000000000000002
 11
0.0000000000000069
 21
0.0
 72
     1
 10
0.0000000000000069
 20
0.0
 11
3.000000000000009
 21
0.0
 97
        0
 75
     0
 76
     1
 98
        1
 10
0.0
 20
0.0
  0
HATCH
  5
135
330
130
100
AcDbEntity
  8
0
  6
Continuous
 62
     0
370
     0
100
AcDbHatch
 10
0.0
 20
0.0
 30
0.0
210
0.0
220
0.0
230
1.0
  2
SOLID
 70
     1
 71
     0
 91
        1
 92
        0
 93
        3
 72
     2
 10
0.0000000000000069
 20
0.0
 40
3.000000000000002
 50
180.0
 51
270.0000000000007
 73
     1
 72
     1
 10
0.0000000000000069
 20
-3.000000000000002
 11
0.0000000000000069
 21
0.0
 72
     1
 10
0.0000000000000069
 20
0.0
 11
-2.999999999999995
 21
0.0
 97
        0
 75
     0
 76
     1
 98
        1
 10
0.0
 20
0.0
  0
ENDBLK
  5
132
330
130
100
AcDbEntity
  8
0
100
AcDbBlockEnd
  0
BLOCK
  5
218
330
217
100
AcDbEntity
  8
0
100
AcDbBlockBegin
  2
_D_4
 70
     0
 10
0.0
 20
0.0
 30
0.0
  3
_D_4
  1
_D_4
  0
LINE
  5
219
330
217
100
AcDbEntity
  8
치수문자_일반주서
 62
     0
370
    -2
100
AcDbLine
 10
118.7724046535982
 20
11.52145291206001
 30
0.0
 11
118.7724046535982
 21
47.42369709597183
 31
0.0
  0
LINE
  5
21A
330
217
100
AcDbEntity
  8
치수문자_일반주서
 62
     0
370
    -2
100
AcDbLine
 10
67.98500000000006
 20
13.74890000000002
 30
0.0
 11
67.98500000000006
 21
47.42369709597183
 31
0.0
  0
LINE
  5
21B
330
217
100
AcDbEntity
  8
치수문자_일반주서
 62
     0
370
    -2
100
AcDbLine
 10
115.4704046535982
 20
47.42369709597183
 30
0.0
 11
71.28700000000006
 21
47.42369709597183
 31
0.0
  0
SOLID
  5
21C
330
217
100
AcDbEntity
  8
치수문자_일반주서
 62
     0
100
AcDbTrace
 10
115.4704046535982
 20
46.8733637626385
 30
0.0
 11
115.4704046535982
 21
47.97403042930517
 31
0.0
 12
118.7724046535982
 22
47.42369709597183
 32
0.0
 13
118.7724046535982
 23
47.42369709597183
 33
0.0
  0
SOLID
  5
21D
330
217
100
AcDbEntity
  8
치수문자_일반주서
 62
     0
100
AcDbTrace
 10
71.28700000000006
 20
47.97403042930517
 30
0.0
 11
71.28700000000006
 21
46.8733637626385
 31
0.0
 12
67.98500000000006
 22
47.42369709597183
 32
0.0
 13
67.98500000000006
 23
47.42369709597183
 33
0.0
  0
MTEXT
  5
21E
330
217
100
AcDbEntity
  8
치수문자_일반주서
 62
     0
100
AcDbMText
 10
93.37870232679913
 20
51.79869709597183
 30
0.0
 40
3.5
 41
0.0
 71
     2
 72
     1
  1
\A1;50.79 [2]
  7
SLDTEXTSTYLE0
 73
     1
 44
1.0
  0
POINT
  5
21F
330
217
100
AcDbEntity
  8
Defpoints
 62
     0
100
AcDbPoint
 10
118.7724046535982
 20
11.45895291206001
 30
0.0
  0
POINT
  5
220
330
217
100
AcDbEntity
  8
Defpoints
 62
     0
100
AcDbPoint
 10
67.98500000000006
 20
13.68640000000002
 30
0.0
  0
POINT
  5
221
330
217
100
AcDbEntity
  8
Defpoints
 62
     0
100
AcDbPoint
 10
67.98500000000006
 20
47.42369709597183
 30
0.0
  0
ENDBLK
  5
222
330
217
100
AcDbEntity
  8
0
100
AcDbBlockEnd
  0
BLOCK
  5
22D
330
22C
100
AcDbEntity
  8
0
100
AcDbBlockBegin
  2
*D8
 70
     1
 10
0.0
 20
0.0
 30
0.0
  3
*D8
  1
*D8
  0
LINE
  5
22F
330
22C
100
AcDbEntity
  8
치수문자_일반주서
 62
     0
370
    -2
100
AcDbLine
 10
111.6005715097399
 20
13.75625000000002
 30
0.0
 11
123.3942867360312
 21
13.75625000000007
 31
0.0
  0
LINE
  5
230
330
22C
100
AcDbEntity
  8
치수문자_일반주서
 62
     0
370
    -2
100
AcDbLine
 10
111.6005715097399
 20
8.993750000000023
 30
0.0
 11
123.3942867360312
 21
8.993750000000068
 31
0.0
  0
LINE
  5
231
330
22C
100
AcDbEntity
  8
치수문자_일반주서
 62
     0
370
    -2
100
AcDbLine
 10
123.3942867360312
 20
17.05825000000007
 30
0.0
 11
123.3942867360312
 21
20.36025000000007
 31
0.0
  0
LINE
  5
232
330
22C
100
AcDbEntity
  8
치수문자_일반주서
 62
     0
370
    -2
100
AcDbLine
 10
123.3942867360312
 20
5.691750000000068
 30
0.0
 11
123.3942867360313
 21
2.389750000000068
 31
0.0
  0
SOLID
  5
233
330
22C
100
AcDbEntity
  8
치수문자_일반주서
 62
     0
100
AcDbTrace
 10
122.8439534026979
 20
17.05825000000007
 30
0.0
 11
123.9446200693645
 21
17.05825000000007
 31
0.0
 12
123.3942867360312
 22
13.75625000000007
 32
0.0
 13
123.3942867360312
 23
13.75625000000007
 33
0.0
  0
SOLID
  5
234
330
22C
100
AcDbEntity
  8
치수문자_일반주서
 62
     0
100
AcDbTrace
 10
123.9446200693646
 20
5.69175000000007
 30
0.0
 11
122.8439534026979
 21
5.691750000000066
 31
0.0
 12
123.3942867360312
 22
8.993750000000068
 32
0.0
 13
123.3942867360312
 23
8.993750000000068
 33
0.0
  0
MTEXT
  5
235
330
22C
100
AcDbEntity
  8
치수문자_일반주서
 62
     0
100
AcDbMText
 10
119.0192867360312
 20
11.37500000000001
 30
0.0
 40
3.5
 41
0.0
 71
     2
 72
     1
  1
\A1;%%c4.76 [1/4]
  7
SLDTEXTSTYLE0
 11
-2.983906501879686E-15
 21
1.0
 31
0.0
 73
     1
 44
1.0
  0
POINT
  5
236
330
22C
100
AcDbEntity
  8
Defpoints
 62
     0
100
AcDbPoint
 10
111.5380715097399
 20
13.75625000000002
 30
0.0
  0
POINT
  5
237
330
22C
100
AcDbEntity
  8
Defpoints
 62
     0
100
AcDbPoint
 10
111.5380715097399
 20
8.993750000000023
 30
0.0
  0
POINT
  5
238
330
22C
100
AcDbEntity
  8
Defpoints
 62
     0
100
AcDbPoint
 10
123.3942867360312
 20
8.993750000000068
 30
0.0
  0
ENDBLK
  5
22E
330
22C
100
AcDbEntity
  8
0
100
AcDbBlockEnd
  0
BLOCK
  5
23A
330
239
100
AcDbEntity
  8
0
100
AcDbBlockBegin
  2
*D9
 70
     1
 10
0.0
 20
0.0
 30
0.0
  3
*D9
  1
*D9
  0
LINE
  5
23C
330
239
100
AcDbEntity
  8
치수문자_일반주서
 62
     0
370
    -2
100
AcDbLine
 10
18.12250000000007
 20
13.75625000000002
 30
0.0
 11
4.37500000000002
 21
13.75624999999997
 31
0.0
  0
LINE
  5
23D
330
239
100
AcDbEntity
  8
치수문자_일반주서
 62
     0
370
    -2
100
AcDbLine
 10
18.12250000000007
 20
8.993750000000022
 30
0.0
 11
4.375000000000037
 21
8.99374999999997
 31
0.0
  0
LINE
  5
23E
330
239
100
AcDbEntity
  8
치수문자_일반주서
 62
     0
370
    -2
100
AcDbLine
 10
4.375000000000009
 20
17.05824999999997
 30
0.0
 11
4.374999999999997
 21
20.36024999999997
 31
0.0
  0
LINE
  5
23F
330
239
100
AcDbEntity
  8
치수문자_일반주서
 62
     0
370
    -2
100
AcDbLine
 10
4.375000000000049
 20
5.691749999999971
 30
0.0
 11
4.37500000000006
 21
2.389749999999971
 31
0.0
  0
SOLID
  5
240
330
239
100
AcDbEntity
  8
치수문자_일반주서
 62
     0
100
AcDbTrace
 10
3.824666666666675
 20
17.05824999999997
 30
0.0
 11
4.925333333333342
 21
17.05824999999998
 31
0.0
 12
4.37500000000002
 22
13.75624999999997
 32
0.0
 13
4.37500000000002
 23
13.75624999999997
 33
0.0
  0
SOLID
  5
241
330
239
100
AcDbEntity
  8
치수문자_일반주서
 62
     0
100
AcDbTrace
 10
4.925333333333382
 20
5.691749999999972
 30
0.0
 11
3.824666666666715
 21
5.691749999999969
 31
0.0
 12
4.375000000000037
 22
8.99374999999997
 32
0.0
 13
4.375000000000037
 23
8.99374999999997
 33
0.0
  0
MTEXT
  5
242
330
239
100
AcDbEntity
  8
치수문자_일반주서
 62
     0
100
AcDbMText
 10
0.0000000000000284
 20
11.37500000000001
 30
0.0
 40
3.5
 41
0.0
 71
     2
 72
     1
  1
\A1;%%c4.76 [1/4]
  7
SLDTEXTSTYLE0
 11
-3.543388970982125E-15
 21
1.0
 31
0.0
 73
     1
 44
1.0
  0
POINT
  5
243
330
239
100
AcDbEntity
  8
Defpoints
 62
     0
100
AcDbPoint
 10
18.18500000000007
 20
13.75625000000002
 30
0.0
  0
POINT
  5
244
330
239
100
AcDbEntity
  8
Defpoints
 62
     0
100
AcDbPoint
 10
18.18500000000007
 20
8.993750000000022
 30
0.0
  0
POINT
  5
245
330
239
100
AcDbEntity
  8
Defpoints
 62
     0
100
AcDbPoint
 10
4.375000000000036
 20
8.99374999999997
 30
0.0
  0
ENDBLK
  5
23B
330
239
100
AcDbEntity
  8
0
100
AcDbBlockEnd
  0
BLOCK
  5
247
330
246
100
AcDbEntity
  8
0
100
AcDbBlockBegin
  2
*D10
 70
     1
 10
0.0
 20
0.0
 30
0.0
  3
*D10
  1
*D10
  0
LINE
  5
249
330
246
100
AcDbEntity
  8
치수문자_일반주서
 62
     0
370
    -2
100
AcDbLine
 10
118.7724046535982
 20
11.52145291206001
 30
0.0
 11
118.7724046535982
 21
35.42369709597151
 31
0.0
  0
LINE
  5
24A
330
246
100
AcDbEntity
  8
치수문자_일반주서
 62
     0
370
    -2
100
AcDbLine
 10
90.21000000000005
 20
13.81875000000002
 30
0.0
 11
90.21000000000005
 21
35.42369709597151
 31
0.0
  0
LINE
  5
24B
330
246
100
AcDbEntity
  8
치수문자_일반주서
 62
     0
370
    -2
100
AcDbLine
 10
115.4704046535982
 20
35.42369709597151
 30
0.0
 11
93.51200000000006
 21
35.42369709597151
 31
0.0
  0
SOLID
  5
24C
330
246
100
AcDbEntity
  8
치수문자_일반주서
 62
     0
100
AcDbTrace
 10
115.4704046535982
 20
34.87336376263817
 30
0.0
 11
115.4704046535982
 21
35.97403042930484
 31
0.0
 12
118.7724046535982
 22
35.42369709597151
 32
0.0
 13
118.7724046535982
 23
35.42369709597151
 33
0.0
  0
SOLID
  5
24D
330
246
100
AcDbEntity
  8
치수문자_일반주서
 62
     0
100
AcDbTrace
 10
93.51200000000006
 20
35.97403042930484
 30
0.0
 11
93.51200000000006
 21
34.87336376263817
 31
0.0
 12
90.21000000000005
 22
35.42369709597151
 32
0.0
 13
90.21000000000005
 23
35.42369709597151
 33
0.0
  0
MTEXT
  5
24E
330
246
100
AcDbEntity
  8
치수문자_일반주서
 62
     0
100
AcDbMText
 10
106.5522865216461
 20
39.79869709597151
 30
0.0
 40
3.5
 41
0.0
 71
     2
 72
     1
  1
\A1;28.56 [1]
  7
SLDTEXTSTYLE0
 73
     1
 44
1.0
  0
POINT
  5
24F
330
246
100
AcDbEntity
  8
Defpoints
 62
     0
100
AcDbPoint
 10
118.7724046535982
 20
11.45895291206001
 30
0.0
  0
POINT
  5
250
330
246
100
AcDbEntity
  8
Defpoints
 62
     0
100
AcDbPoint
 10
90.21000000000005
 20
13.75625000000002
 30
0.0
  0
POINT
  5
251
330
246
100
AcDbEntity
  8
Defpoints
 62
     0
100
AcDbPoint
 10
90.21000000000005
 20
35.42369709597151
 30
0.0
  0
ENDBLK
  5
248
330
246
100
AcDbEntity
  8
0
100
AcDbBlockEnd
  0
BLOCK
  5
253
330
252
100
AcDbEntity
  8
0
100
AcDbBlockBegin
  2
*D11
 70
     1
 10
0.0
 20
0.0
 30
0.0
  3
*D11
  1
*D11
  0
LINE
  5
255
330
252
100
AcDbEntity
  8
치수문자_일반주서
 62
     0
370
    -2
100
AcDbLine
 10
118.7724046535982
 20
11.52145291206001
 30
0.0
 11
118.7724046535982
 21
53.42369709597186
 31
0.0
  0
LINE
  5
256
330
252
100
AcDbEntity
  8
치수문자_일반주서
 62
     0
370
    -2
100
AcDbLine
 10
17.18500000000006
 20
12.81875000000002
 30
0.0
 11
17.18500000000006
 21
53.42369709597186
 31
0.0
  0
LINE
  5
257
330
252
100
AcDbEntity
  8
치수문자_일반주서
 62
     0
370
    -2
100
AcDbLine
 10
115.4704046535982
 20
53.42369709597186
 30
0.0
 11
20.48700000000006
 21
53.42369709597186
 31
0.0
  0
SOLID
  5
258
330
252
100
AcDbEntity
  8
치수문자_일반주서
 62
     0
100
AcDbTrace
 10
115.4704046535982
 20
52.87336376263853
 30
0.0
 11
115.4704046535982
 21
53.97403042930519
 31
0.0
 12
118.7724046535982
 22
53.42369709597186
 32
0.0
 13
118.7724046535982
 23
53.42369709597186
 33
0.0
  0
SOLID
  5
259
330
252
100
AcDbEntity
  8
치수문자_일반주서
 62
     0
100
AcDbTrace
 10
20.48700000000006
 20
53.97403042930519
 30
0.0
 11
20.48700000000006
 21
52.87336376263853
 31
0.0
 12
17.18500000000006
 22
53.42369709597186
 32
0.0
 13
17.18500000000006
 23
53.42369709597186
 33
0.0
  0
MTEXT
  5
25A
330
252
100
AcDbEntity
  8
치수문자_일반주서
 62
     0
100
AcDbMText
 10
66.91544771271477
 20
57.79869709597186
 30
0.0
 40
3.5
 41
0.0
 71
     2
 72
     1
  1
\A1;101.59 [4]
  7
SLDTEXTSTYLE0
 73
     1
 44
1.0
  0
POINT
  5
25B
330
252
100
AcDbEntity
  8
Defpoints
 62
     0
100
AcDbPoint
 10
118.7724046535982
 20
11.45895291206001
 30
0.0
  0
POINT
  5
25C
330
252
100
AcDbEntity
  8
Defpoints
 62
     0
100
AcDbPoint
 10
17.18500000000006
 20
12.75625000000002
 30
0.0
  0
POINT
  5
25D
330
252
100
AcDbEntity
  8
Defpoints
 62
     0
100
AcDbPoint
 10
17.18500000000006
 20
53.42369709597186
 30
0.0
  0
ENDBLK
  5
254
330
252
100
AcDbEntity
  8
0
100
AcDbBlockEnd
  0
BLOCK
  5
29C
330
29B
100
AcDbEntity
  8
0
100
AcDbBlockBegin
  2
*D12
 70
     1
 10
0.0
 20
0.0
 30
0.0
  3
*D12
  1
*D12
  0
LINE
  5
29E
330
29B
100
AcDbEntity
  8
치수문자_일반주서
 62
     0
370
    -2
100
AcDbLine
 10
51.04808840250686
 20
2.381250000000029
 30
0.0
 11
71.2497329736266
 21
2.381250000000104
 31
0.0
  0
LINE
  5
29F
330
29B
100
AcDbEntity
  8
치수문자_일반주서
 62
     0
370
    -2
100
AcDbLine
 10
51.04808840250686
 20
-2.38124999999997
 30
0.0
 11
71.24973297362662
 21
-2.381249999999895
 31
0.0
  0
LINE
  5
2A0
330
29B
100
AcDbEntity
  8
치수문자_일반주서
 62
     0
370
    -2
100
AcDbLine
 10
71.2497329736266
 20
2.381250000000104
 30
0.0
 11
71.24973297362651
 21
36.98525000000011
 31
0.0
  0
LINE
  5
2A1
330
29B
100
AcDbEntity
  8
치수문자_일반주서
 62
     0
370
    -2
100
AcDbLine
 10
71.24973297362662
 20
-0.9207499999998956
 30
0.0
 11
71.2497329736266
 21
0.9207500000001052
 31
0.0
  0
LINE
  5
2A2
330
29B
100
AcDbEntity
  8
치수문자_일반주서
 62
     0
370
    -2
100
AcDbLine
 10
71.24973297362662
 20
-0.9207499999998956
 30
0.0
 11
71.24973297362664
 21
-4.222749999999896
 31
0.0
  0
SOLID
  5
2A3
330
29B
100
AcDbEntity
  8
치수문자_일반주서
 62
     0
100
AcDbTrace
 10
71.80006630695995
 20
-0.9207499999998939
 30
0.0
 11
70.6993996402933
 21
-0.9207499999998973
 31
0.0
 12
71.2497329736266
 22
2.381250000000104
 32
0.0
 13
71.2497329736266
 23
2.381250000000104
 33
0.0
  0
SOLID
  5
2A4
330
29B
100
AcDbEntity
  8
치수문자_일반주서
 62
     0
100
AcDbTrace
 10
70.69939964029328
 20
0.9207500000001035
 30
0.0
 11
71.80006630695993
 21
0.9207500000001069
 31
0.0
 12
71.24973297362662
 22
-2.381249999999895
 32
0.0
 13
71.24973297362662
 23
-2.381249999999895
 33
0.0
  0
MTEXT
  5
2A5
330
29B
100
AcDbEntity
  8
치수문자_일반주서
 62
     0
100
AcDbMText
 10
66.87473297362655
 20
22.98525000000009
 30
0.0
 40
3.5
 41
0.0
 71
     2
 72
     1
  1
\A1;%%c4.76 [3/16]
  7
SLDTEXTSTYLE0
 11
-2.983906501879686E-15
 21
1.0
 31
0.0
 73
     1
 44
1.0
  0
POINT
  5
2A6
330
29B
100
AcDbEntity
  8
Defpoints
 62
     0
100
AcDbPoint
 10
50.98558840250686
 20
2.381250000000029
 30
0.0
  0
POINT
  5
2D9
330
29B
100
AcDbEntity
  8
Defpoints
 62
     0
100
AcDbPoint
 10
50.98558840250686
 20
-2.38124999999997
 30
0.0
  0
POINT
  5
2DA
330
29B
100
AcDbEntity
  8
Defpoints
 62
     0
100
AcDbPoint
 10
71.24973297362669
 20
-2.381249999999895
 30
0.0
  0
ENDBLK
  5
29D
330
29B
100
AcDbEntity
  8
0
100
AcDbBlockEnd
  0
BLOCK
  5
2A9
330
2A8
100
AcDbEntity
  8
0
100
AcDbBlockBegin
  2
*D13
 70
     1
 10
0.0
 20
0.0
 30
0.0
  3
*D13
  1
*D13
  0
LINE
  5
2AB
330
2A8
100
AcDbEntity
  8
치수문자_일반주서
 62
     0
370
    -2
100
AcDbLine
 10
-49.60181625109129
 20
2.381250000000004
 30
0.0
 11
-63.34931625109133
 21
2.381249999999952
 31
0.0
  0
LINE
  5
2AC
330
2A8
100
AcDbEntity
  8
치수문자_일반주서
 62
     0
370
    -2
100
AcDbLine
 10
-49.60181625109129
 20
-2.381249999999999
 30
0.0
 11
-63.34931625109132
 21
-2.381250000000051
 31
0.0
  0
LINE
  5
2AD
330
2A8
100
AcDbEntity
  8
치수문자_일반주서
 62
     0
370
    -2
100
AcDbLine
 10
-63.34931625109133
 20
2.381249999999952
 30
0.0
 11
-63.34931625109144
 21
36.98524999999995
 31
0.0
  0
LINE
  5
2AE
330
2A8
100
AcDbEntity
  8
치수문자_일반주서
 62
     0
370
    -2
100
AcDbLine
 10
-63.34931625109132
 20
-0.9207500000000484
 30
0.0
 11
-63.34931625109132
 21
0.9207499999999489
 31
0.0
  0
LINE
  5
2AF
330
2A8
100
AcDbEntity
  8
치수문자_일반주서
 62
     0
370
    -2
100
AcDbLine
 10
-63.34931625109132
 20
-0.9207500000000484
 30
0.0
 11
-63.34931625109132
 21
-4.222750000000048
 31
0.0
  0
SOLID
  5
2B0
330
2A8
100
AcDbEntity
  8
치수문자_일반주서
 62
     0
100
AcDbTrace
 10
-62.79898291775799
 20
-0.9207500000000467
 30
0.0
 11
-63.89964958442466
 21
-0.92075000000005
 31
0.0
 12
-63.34931625109133
 22
2.381249999999952
 32
0.0
 13
-63.34931625109133
 23
2.381249999999952
 33
0.0
  0
SOLID
  5
2B1
330
2A8
100
AcDbEntity
  8
치수문자_일반주서
 62
     0
100
AcDbTrace
 10
-63.89964958442466
 20
0.9207499999999472
 30
0.0
 11
-62.79898291775799
 21
0.9207499999999506
 31
0.0
 12
-63.34931625109132
 22
-2.381250000000051
 32
0.0
 13
-63.34931625109132
 23
-2.381250000000051
 33
0.0
  0
MTEXT
  5
2B2
330
2A8
100
AcDbEntity
  8
치수문자_일반주서
 62
     0
100
AcDbMText
 10
-67.7243162510914
 20
22.98524999999994
 30
0.0
 40
3.5
 41
0.0
 71
     2
 72
     1
  1
\A1;%%c4.76 [3/16]
  7
SLDTEXTSTYLE0
 11
-2.983906501879684E-15
 21
1.0
 31
0.0
 73
     1
 44
1.0
  0
POINT
  5
2B3
330
2A8
100
AcDbEntity
  8
Defpoints
 62
     0
100
AcDbPoint
 10
-49.53931625109129
 20
2.381250000000004
 30
0.0
  0
POINT
  5
2DB
330
2A8
100
AcDbEntity
  8
Defpoints
 62
     0
100
AcDbPoint
 10
-49.53931625109129
 20
-2.381249999999999
 30
0.0
  0
POINT
  5
2DC
330
2A8
100
AcDbEntity
  8
Defpoints
 62
     0
100
AcDbPoint
 10
-63.34931625109132
 20
-2.38125000000005
 30
0.0
  0
ENDBLK
  5
2AA
330
2A8
100
AcDbEntity
  8
0
100
AcDbBlockEnd
  0
BLOCK
  5
2B6
330
2B5
100
AcDbEntity
  8
0
100
AcDbBlockBegin
  2
*D14
 70
     1
 10
0.0
 20
0.0
 30
0.0
  3
*D14
  1
*D14
  0
LINE
  5
2B8
330
2B5
100
AcDbEntity
  8
치수문자_일반주서
 62
     0
370
    -2
100
AcDbLine
 10
51.04808840250686
 20
2.443750000000029
 30
0.0
 11
51.04808840250686
 21
24.04869709597148
 31
0.0
  0
LINE
  5
2B9
330
2B5
100
AcDbEntity
  8
치수문자_일반주서
 62
     0
370
    -2
100
AcDbLine
 10
22.48568374890868
 20
2.443750000000002
 30
0.0
 11
22.48568374890868
 21
24.04869709597148
 31
0.0
  0
LINE
  5
2BA
330
2B5
100
AcDbEntity
  8
치수문자_일반주서
 62
     0
370
    -2
100
AcDbLine
 10
47.74608840250686
 20
24.04869709597148
 30
0.0
 11
25.78768374890868
 21
24.04869709597148
 31
0.0
  0
SOLID
  5
2BB
330
2B5
100
AcDbEntity
  8
치수문자_일반주서
 62
     0
100
AcDbTrace
 10
47.74608840250686
 20
23.49836376263815
 30
0.0
 11
47.74608840250686
 21
24.59903042930482
 31
0.0
 12
51.04808840250686
 22
24.04869709597148
 32
0.0
 13
51.04808840250686
 23
24.04869709597148
 33
0.0
  0
SOLID
  5
2BC
330
2B5
100
AcDbEntity
  8
치수문자_일반주서
 62
     0
100
AcDbTrace
 10
25.78768374890868
 20
24.59903042930482
 30
0.0
 11
25.78768374890868
 21
23.49836376263815
 31
0.0
 12
22.48568374890868
 22
24.04869709597148
 32
0.0
 13
22.48568374890868
 23
24.04869709597148
 33
0.0
  0
MTEXT
  5
2BD
330
2B5
100
AcDbEntity
  8
치수문자_일반주서
 62
     0
100
AcDbMText
 10
38.82797027055474
 20
28.42369709597148
 30
0.0
 40
3.5
 41
0.0
 71
     2
 72
     1
  1
\A1;28.56 [1 1/8]
  7
SLDTEXTSTYLE0
 73
     1
 44
1.0
  0
POINT
  5
2BE
330
2B5
100
AcDbEntity
  8
Defpoints
 62
     0
100
AcDbPoint
 10
51.04808840250686
 20
2.381250000000029
 30
0.0
  0
POINT
  5
2BF
330
2B5
100
AcDbEntity
  8
Defpoints
 62
     0
100
AcDbPoint
 10
22.48568374890868
 20
2.381250000000002
 30
0.0
  0
POINT
  5
2C0
330
2B5
100
AcDbEntity
  8
Defpoints
 62
     0
100
AcDbPoint
 10
22.48568374890868
 20
24.04869709597148
 30
0.0
  0
ENDBLK
  5
2B7
330
2B5
100
AcDbEntity
  8
0
100
AcDbBlockEnd
  0
BLOCK
  5
2C2
330
2C1
100
AcDbEntity
  8
0
100
AcDbBlockBegin
  2
*D15
 70
     1
 10
0.0
 20
0.0
 30
0.0
  3
*D15
  1
*D15
  0
LINE
  5
2C4
330
2C1
100
AcDbEntity
  8
치수문자_일반주서
 62
     0
370
    -2
100
AcDbLine
 10
51.04808840250686
 20
2.443750000000029
 30
0.0
 11
51.04808840250686
 21
46.98122308546625
 31
0.0
  0
LINE
  5
2C5
330
2C1
100
AcDbEntity
  8
치수문자_일반주서
 62
     0
370
    -2
100
AcDbLine
 10
-50.53931625109132
 20
1.443749999999995
 30
0.0
 11
-50.53931625109132
 21
46.98122308546625
 31
0.0
  0
LINE
  5
2C6
330
2C1
100
AcDbEntity
  8
치수문자_일반주서
 62
     0
370
    -2
100
AcDbLine
 10
47.74608840250686
 20
46.98122308546625
 30
0.0
 11
-47.23731625109132
 21
46.98122308546625
 31
0.0
  0
SOLID
  5
2C7
330
2C1
100
AcDbEntity
  8
치수문자_일반주서
 62
     0
100
AcDbTrace
 10
47.74608840250686
 20
46.43088975213291
 30
0.0
 11
47.74608840250686
 21
47.53155641879958
 31
0.0
 12
51.04808840250686
 22
46.98122308546625
 32
0.0
 13
51.04808840250686
 23
46.98122308546625
 33
0.0
  0
SOLID
  5
2C8
330
2C1
100
AcDbEntity
  8
치수문자_일반주서
 62
     0
100
AcDbTrace
 10
-47.23731625109132
 20
47.53155641879958
 30
0.0
 11
-47.23731625109132
 21
46.43088975213291
 31
0.0
 12
-50.53931625109132
 22
46.98122308546625
 32
0.0
 13
-50.53931625109132
 23
46.98122308546625
 33
0.0
  0
MTEXT
  5
2C9
330
2C1
100
AcDbEntity
  8
치수문자_일반주서
 62
     0
100
AcDbMText
 10
-1.470213597750387
 20
51.35622308546625
 30
0.0
 40
3.5
 41
0.0
 71
     2
 72
     1
  1
\A1;101.59 [4]
  7
SLDTEXTSTYLE0
 73
     1
 44
1.0
  0
POINT
  5
2CA
330
2C1
100
AcDbEntity
  8
Defpoints
 62
     0
100
AcDbPoint
 10
51.04808840250686
 20
2.381250000000029
 30
0.0
  0
POINT
  5
2CB
330
2C1
100
AcDbEntity
  8
Defpoints
 62
     0
100
AcDbPoint
 10
-50.53931625109132
 20
1.381249999999995
 30
0.0
  0
POINT
  5
2CC
330
2C1
100
AcDbEntity
  8
Defpoints
 62
     0
100
AcDbPoint
 10
-50.53931625109132
 20
46.98122308546625
 30
0.0
  0
ENDBLK
  5
2C3
330
2C1
100
AcDbEntity
  8
0
100
AcDbBlockEnd
  0
BLOCK
  5
2CE
330
2CD
100
AcDbEntity
  8
0
100
AcDbBlockBegin
  2
*D16
 70
     1
 10
0.0
 20
0.0
 30
0.0
  3
*D16
  1
*D16
  0
LINE
  5
2D0
330
2CD
100
AcDbEntity
  8
치수문자_일반주서
 62
     0
370
    -2
100
AcDbLine
 10
51.04808840250686
 20
2.443750000000029
 30
0.0
 11
51.04808840250686
 21
36.04869709597181
 31
0.0
  0
LINE
  5
2D1
330
2CD
100
AcDbEntity
  8
치수문자_일반주서
 62
     0
370
    -2
100
AcDbLine
 10
0.2606837489086899
 20
2.373900000000003
 30
0.0
 11
0.2606837489086899
 21
36.04869709597181
 31
0.0
  0
LINE
  5
2D2
330
2CD
100
AcDbEntity
  8
치수문자_일반주서
 62
     0
370
    -2
100
AcDbLine
 10
47.74608840250686
 20
36.04869709597181
 30
0.0
 11
3.56268374890869
 21
36.04869709597181
 31
0.0
  0
SOLID
  5
2D3
330
2CD
100
AcDbEntity
  8
치수문자_일반주서
 62
     0
100
AcDbTrace
 10
47.74608840250686
 20
35.49836376263848
 30
0.0
 11
47.74608840250686
 21
36.59903042930515
 31
0.0
 12
51.04808840250686
 22
36.04869709597181
 32
0.0
 13
51.04808840250686
 23
36.04869709597181
 33
0.0
  0
SOLID
  5
2D4
330
2CD
100
AcDbEntity
  8
치수문자_일반주서
 62
     0
100
AcDbTrace
 10
3.56268374890869
 20
36.59903042930515
 30
0.0
 11
3.56268374890869
 21
35.49836376263848
 31
0.0
 12
0.2606837489086899
 22
36.04869709597181
 32
0.0
 13
0.2606837489086899
 23
36.04869709597181
 33
0.0
  0
MTEXT
  5
2D5
330
2CD
100
AcDbEntity
  8
치수문자_일반주서
 62
     0
100
AcDbMText
 10
25.65438607570778
 20
40.42369709597181
 30
0.0
 40
3.5
 41
0.0
 71
     2
 72
     1
  1
\A1;50.79 [2]
  7
SLDTEXTSTYLE0
 73
     1
 44
1.0
  0
POINT
  5
2D6
330
2CD
100
AcDbEntity
  8
Defpoints
 62
     0
100
AcDbPoint
 10
51.04808840250686
 20
2.381250000000029
 30
0.0
  0
POINT
  5
2D7
330
2CD
100
AcDbEntity
  8
Defpoints
 62
     0
100
AcDbPoint
 10
0.2606837489086899
 20
2.311400000000003
 30
0.0
  0
POINT
  5
2D8
330
2CD
100
AcDbEntity
  8
Defpoints
 62
     0
100
AcDbPoint
 10
0.2606837489086899
 20
36.04869709597181
 30
0.0
  0
ENDBLK
  5
2CF
330
2CD
100
AcDbEntity
  8
0
100
AcDbBlockEnd
  0
BLOCK
  5
3EC
330
3EB
100
AcDbEntity
  8
0
100
AcDbBlockBegin
  2
*D17
 70
     1
 10
0.0
 20
0.0
 30
0.0
  3
*D17
  1
*D17
  0
LINE
  5
3EE
330
3EB
100
AcDbEntity
  8
치수문자_일반주서
 62
     0
370
    -2
100
AcDbLine
 10
111.6005715097399
 20
13.75625000000002
 30
0.0
 11
123.3942867360312
 21
13.75625000000007
 31
0.0
  0
LINE
  5
3EF
330
3EB
100
AcDbEntity
  8
치수문자_일반주서
 62
     0
370
    -2
100
AcDbLine
 10
111.6005715097399
 20
8.993750000000023
 30
0.0
 11
123.3942867360312
 21
8.993750000000068
 31
0.0
  0
LINE
  5
3F0
330
3EB
100
AcDbEntity
  8
치수문자_일반주서
 62
     0
370
    -2
100
AcDbLine
 10
123.3942867360312
 20
17.05825000000007
 30
0.0
 11
123.3942867360312
 21
20.36025000000007
 31
0.0
  0
LINE
  5
3F1
330
3EB
100
AcDbEntity
  8
치수문자_일반주서
 62
     0
370
    -2
100
AcDbLine
 10
123.3942867360312
 20
5.691750000000068
 30
0.0
 11
123.3942867360313
 21
2.389750000000068
 31
0.0
  0
SOLID
  5
3F2
330
3EB
100
AcDbEntity
  8
치수문자_일반주서
 62
     0
100
AcDbTrace
 10
122.8439534026979
 20
17.05825000000007
 30
0.0
 11
123.9446200693645
 21
17.05825000000007
 31
0.0
 12
123.3942867360312
 22
13.75625000000007
 32
0.0
 13
123.3942867360312
 23
13.75625000000007
 33
0.0
  0
SOLID
  5
3F3
330
3EB
100
AcDbEntity
  8
치수문자_일반주서
 62
     0
100
AcDbTrace
 10
123.9446200693646
 20
5.69175000000007
 30
0.0
 11
122.8439534026979
 21
5.691750000000066
 31
0.0
 12
123.3942867360312
 22
8.993750000000068
 32
0.0
 13
123.3942867360312
 23
8.993750000000068
 33
0.0
  0
MTEXT
  5
3F4
330
3EB
100
AcDbEntity
  8
치수문자_일반주서
 62
     0
100
AcDbMText
 10
119.0192867360312
 20
11.37500000000001
 30
0.0
 40
3.5
 41
0.0
 71
     2
 72
     1
  1
\A1;%%c4.76 [1/4]
  7
SLDTEXTSTYLE0
 11
-2.983906501879686E-15
 21
1.0
 31
0.0
 73
     1
 44
1.0
  0
POINT
  5
3F5
330
3EB
100
AcDbEntity
  8
Defpoints
 62
     0
100
AcDbPoint
 10
111.5380715097399
 20
13.75625000000002
 30
0.0
  0
POINT
  5
3F6
330
3EB
100
AcDbEntity
  8
Defpoints
 62
     0
100
AcDbPoint
 10
111.5380715097399
 20
8.993750000000023
 30
0.0
  0
POINT
  5
3F7
330
3EB
100
AcDbEntity
  8
Defpoints
 62
     0
100
AcDbPoint
 10
123.3942867360312
 20
8.993750000000068
 30
0.0
  0
ENDBLK
  5
3ED
330
3EB
100
AcDbEntity
  8
0
100
AcDbBlockEnd
  0
BLOCK
  5
3F9
330
3F8
100
AcDbEntity
  8
0
100
AcDbBlockBegin
  2
*D18
 70
     1
 10
0.0
 20
0.0
 30
0.0
  3
*D18
  1
*D18
  0
LINE
  5
3FB
330
3F8
100
AcDbEntity
  8
치수문자_일반주서
 62
     0
370
    -2
100
AcDbLine
 10
18.12250000000007
 20
13.75625000000002
 30
0.0
 11
4.37500000000002
 21
13.75624999999997
 31
0.0
  0
LINE
  5
3FC
330
3F8
100
AcDbEntity
  8
치수문자_일반주서
 62
     0
370
    -2
100
AcDbLine
 10
18.12250000000007
 20
8.993750000000022
 30
0.0
 11
4.375000000000037
 21
8.99374999999997
 31
0.0
  0
LINE
  5
3FD
330
3F8
100
AcDbEntity
  8
치수문자_일반주서
 62
     0
370
    -2
100
AcDbLine
 10
4.375000000000009
 20
17.05824999999997
 30
0.0
 11
4.374999999999997
 21
20.36024999999997
 31
0.0
  0
LINE
  5
3FE
330
3F8
100
AcDbEntity
  8
치수문자_일반주서
 62
     0
370
    -2
100
AcDbLine
 10
4.375000000000049
 20
5.691749999999971
 30
0.0
 11
4.37500000000006
 21
2.389749999999971
 31
0.0
  0
SOLID
  5
3FF
330
3F8
100
AcDbEntity
  8
치수문자_일반주서
 62
     0
100
AcDbTrace
 10
3.824666666666675
 20
17.05824999999997
 30
0.0
 11
4.925333333333342
 21
17.05824999999998
 31
0.0
 12
4.37500000000002
 22
13.75624999999997
 32
0.0
 13
4.37500000000002
 23
13.75624999999997
 33
0.0
  0
SOLID
  5
400
330
3F8
100
AcDbEntity
  8
치수문자_일반주서
 62
     0
100
AcDbTrace
 10
4.925333333333382
 20
5.691749999999972
 30
0.0
 11
3.824666666666715
 21
5.691749999999969
 31
0.0
 12
4.375000000000037
 22
8.99374999999997
 32
0.0
 13
4.375000000000037
 23
8.99374999999997
 33
0.0
  0
MTEXT
  5
401
330
3F8
100
AcDbEntity
  8
치수문자_일반주서
 62
     0
100
AcDbMText
 10
0.0000000000000284
 20
11.37500000000001
 30
0.0
 40
3.5
 41
0.0
 71
     2
 72
     1
  1
\A1;%%c4.76 [1/4]
  7
SLDTEXTSTYLE0
 11
-3.543388970982125E-15
 21
1.0
 31
0.0
 73
     1
 44
1.0
  0
POINT
  5
402
330
3F8
100
AcDbEntity
  8
Defpoints
 62
     0
100
AcDbPoint
 10
18.18500000000007
 20
13.75625000000002
 30
0.0
  0
POINT
  5
403
330
3F8
100
AcDbEntity
  8
Defpoints
 62
     0
100
AcDbPoint
 10
18.18500000000007
 20
8.993750000000022
 30
0.0
  0
POINT
  5
404
330
3F8
100
AcDbEntity
  8
Defpoints
 62
     0
100
AcDbPoint
 10
4.375000000000036
 20
8.99374999999997
 30
0.0
  0
ENDBLK
  5
3FA
330
3F8
100
AcDbEntity
  8
0
100
AcDbBlockEnd
  0
BLOCK
  5
406
330
405
100
AcDbEntity
  8
0
100
AcDbBlockBegin
  2
*D19
 70
     1
 10
0.0
 20
0.0
 30
0.0
  3
*D19
  1
*D19
  0
LINE
  5
408
330
405
100
AcDbEntity
  8
치수문자_일반주서
 62
     0
370
    -2
100
AcDbLine
 10
118.7724046535982
 20
11.52145291206001
 30
0.0
 11
118.7724046535982
 21
35.42369709597151
 31
0.0
  0
LINE
  5
409
330
405
100
AcDbEntity
  8
치수문자_일반주서
 62
     0
370
    -2
100
AcDbLine
 10
90.21000000000005
 20
13.81875000000002
 30
0.0
 11
90.21000000000005
 21
35.42369709597151
 31
0.0
  0
LINE
  5
40A
330
405
100
AcDbEntity
  8
치수문자_일반주서
 62
     0
370
    -2
100
AcDbLine
 10
115.4704046535982
 20
35.42369709597151
 30
0.0
 11
93.51200000000006
 21
35.42369709597151
 31
0.0
  0
SOLID
  5
40B
330
405
100
AcDbEntity
  8
치수문자_일반주서
 62
     0
100
AcDbTrace
 10
115.4704046535982
 20
34.87336376263817
 30
0.0
 11
115.4704046535982
 21
35.97403042930484
 31
0.0
 12
118.7724046535982
 22
35.42369709597151
 32
0.0
 13
118.7724046535982
 23
35.42369709597151
 33
0.0
  0
SOLID
  5
40C
330
405
100
AcDbEntity
  8
치수문자_일반주서
 62
     0
100
AcDbTrace
 10
93.51200000000006
 20
35.97403042930484
 30
0.0
 11
93.51200000000006
 21
34.87336376263817
 31
0.0
 12
90.21000000000005
 22
35.42369709597151
 32
0.0
 13
90.21000000000005
 23
35.42369709597151
 33
0.0
  0
MTEXT
  5
40D
330
405
100
AcDbEntity
  8
치수문자_일반주서
 62
     0
100
AcDbMText
 10
106.5522865216461
 20
39.79869709597151
 30
0.0
 40
3.5
 41
0.0
 71
     2
 72
     1
  1
\A1;28.56 [1]
  7
SLDTEXTSTYLE0
 73
     1
 44
1.0
  0
POINT
  5
40E
330
405
100
AcDbEntity
  8
Defpoints
 62
     0
100
AcDbPoint
 10
118.7724046535982
 20
11.45895291206001
 30
0.0
  0
POINT
  5
40F
330
405
100
AcDbEntity
  8
Defpoints
 62
     0
100
AcDbPoint
 10
90.21000000000005
 20
13.75625000000002
 30
0.0
  0
POINT
  5
410
330
405
100
AcDbEntity
  8
Defpoints
 62
     0
100
AcDbPoint
 10
90.21000000000005
 20
35.42369709597151
 30
0.0
  0
ENDBLK
  5
407
330
405
100
AcDbEntity
  8
0
100
AcDbBlockEnd
  0
BLOCK
  5
412
330
411
100
AcDbEntity
  8
0
100
AcDbBlockBegin
  2
*D20
 70
     1
 10
0.0
 20
0.0
 30
0.0
  3
*D20
  1
*D20
  0
LINE
  5
414
330
411
100
AcDbEntity
  8
치수문자_일반주서
 62
     0
370
    -2
100
AcDbLine
 10
118.7724046535982
 20
11.52145291206001
 30
0.0
 11
118.7724046535982
 21
53.42369709597186
 31
0.0
  0
LINE
  5
415
330
411
100
AcDbEntity
  8
치수문자_일반주서
 62
     0
370
    -2
100
AcDbLine
 10
17.18500000000006
 20
12.81875000000002
 30
0.0
 11
17.18500000000006
 21
53.42369709597186
 31
0.0
  0
LINE
  5
416
330
411
100
AcDbEntity
  8
치수문자_일반주서
 62
     0
370
    -2
100
AcDbLine
 10
115.4704046535982
 20
53.42369709597186
 30
0.0
 11
20.48700000000006
 21
53.42369709597186
 31
0.0
  0
SOLID
  5
417
330
411
100
AcDbEntity
  8
치수문자_일반주서
 62
     0
100
AcDbTrace
 10
115.4704046535982
 20
52.87336376263853
 30
0.0
 11
115.4704046535982
 21
53.97403042930519
 31
0.0
 12
118.7724046535982
 22
53.42369709597186
 32
0.0
 13
118.7724046535982
 23
53.42369709597186
 33
0.0
  0
SOLID
  5
418
330
411
100
AcDbEntity
  8
치수문자_일반주서
 62
     0
100
AcDbTrace
 10
20.48700000000006
 20
53.97403042930519
 30
0.0
 11
20.48700000000006
 21
52.87336376263853
 31
0.0
 12
17.18500000000006
 22
53.42369709597186
 32
0.0
 13
17.18500000000006
 23
53.42369709597186
 33
0.0
  0
MTEXT
  5
419
330
411
100
AcDbEntity
  8
치수문자_일반주서
 62
     0
100
AcDbMText
 10
66.91544771271477
 20
57.79869709597186
 30
0.0
 40
3.5
 41
0.0
 71
     2
 72
     1
  1
\A1;101.59 [4]
  7
SLDTEXTSTYLE0
 73
     1
 44
1.0
  0
POINT
  5
41A
330
411
100
AcDbEntity
  8
Defpoints
 62
     0
100
AcDbPoint
 10
118.7724046535982
 20
11.45895291206001
 30
0.0
  0
POINT
  5
41B
330
411
100
AcDbEntity
  8
Defpoints
 62
     0
100
AcDbPoint
 10
17.18500000000006
 20
12.75625000000002
 30
0.0
  0
POINT
  5
41C
330
411
100
AcDbEntity
  8
Defpoints
 62
     0
100
AcDbPoint
 10
17.18500000000006
 20
53.42369709597186
 30
0.0
  0
ENDBLK
  5
413
330
411
100
AcDbEntity
  8
0
100
AcDbBlockEnd
  0
BLOCK
  5
41E
330
41D
100
AcDbEntity
  8
0
100
AcDbBlockBegin
  2
*D21
 70
     1
 10
0.0
 20
0.0
 30
0.0
  3
*D21
  1
*D21
  0
LINE
  5
420
330
41D
100
AcDbEntity
  8
치수문자_일반주서
 62
     0
370
    -2
100
AcDbLine
 10
118.7724046535982
 20
11.52145291206001
 30
0.0
 11
118.7724046535982
 21
47.42369709597183
 31
0.0
  0
LINE
  5
421
330
41D
100
AcDbEntity
  8
치수문자_일반주서
 62
     0
370
    -2
100
AcDbLine
 10
67.98500000000006
 20
13.74890000000002
 30
0.0
 11
67.98500000000006
 21
47.42369709597183
 31
0.0
  0
LINE
  5
422
330
41D
100
AcDbEntity
  8
치수문자_일반주서
 62
     0
370
    -2
100
AcDbLine
 10
115.4704046535982
 20
47.42369709597183
 30
0.0
 11
71.28700000000006
 21
47.42369709597183
 31
0.0
  0
SOLID
  5
423
330
41D
100
AcDbEntity
  8
치수문자_일반주서
 62
     0
100
AcDbTrace
 10
115.4704046535982
 20
46.8733637626385
 30
0.0
 11
115.4704046535982
 21
47.97403042930517
 31
0.0
 12
118.7724046535982
 22
47.42369709597183
 32
0.0
 13
118.7724046535982
 23
47.42369709597183
 33
0.0
  0
SOLID
  5
424
330
41D
100
AcDbEntity
  8
치수문자_일반주서
 62
     0
100
AcDbTrace
 10
71.28700000000006
 20
47.97403042930517
 30
0.0
 11
71.28700000000006
 21
46.8733637626385
 31
0.0
 12
67.98500000000006
 22
47.42369709597183
 32
0.0
 13
67.98500000000006
 23
47.42369709597183
 33
0.0
  0
MTEXT
  5
425
330
41D
100
AcDbEntity
  8
치수문자_일반주서
 62
     0
100
AcDbMText
 10
93.37870232679913
 20
51.79869709597183
 30
0.0
 40
3.5
 41
0.0
 71
     2
 72
     1
  1
\A1;50.79 [2]
  7
SLDTEXTSTYLE0
 73
     1
 44
1.0
  0
POINT
  5
426
330
41D
100
AcDbEntity
  8
Defpoints
 62
     0
100
AcDbPoint
 10
118.7724046535982
 20
11.45895291206001
 30
0.0
  0
POINT
  5
427
330
41D
100
AcDbEntity
  8
Defpoints
 62
     0
100
AcDbPoint
 10
67.98500000000006
 20
13.68640000000002
 30
0.0
  0
POINT
  5
428
330
41D
100
AcDbEntity
  8
Defpoints
 62
     0
100
AcDbPoint
 10
67.98500000000006
 20
47.42369709597183
 30
0.0
  0
ENDBLK
  5
41F
330
41D
100
AcDbEntity
  8
0
100
AcDbBlockEnd
  0
BLOCK
  5
467
330
466
100
AcDbEntity
  8
0
100
AcDbBlockBegin
  2
*D22
 70
     1
 10
0.0
 20
0.0
 30
0.0
  3
*D22
  1
*D22
  0
LINE
  5
469
330
466
100
AcDbEntity
  8
치수문자_일반주서
 62
     0
370
    -2
100
AcDbLine
 10
51.04808840250685
 20
2.381250000000023
 30
0.0
 11
62.84180362879815
 21
2.381250000000065
 31
0.0
  0
LINE
  5
46A
330
466
100
AcDbEntity
  8
치수문자_일반주서
 62
     0
370
    -2
100
AcDbLine
 10
51.04808840250685
 20
-2.381249999999965
 30
0.0
 11
62.84180362879817
 21
-2.381249999999923
 31
0.0
  0
LINE
  5
46B
330
466
100
AcDbEntity
  8
치수문자_일반주서
 62
     0
370
    -2
100
AcDbLine
 10
62.84180362879815
 20
2.381250000000065
 30
0.0
 11
62.84180362879805
 21
36.98525000000006
 31
0.0
  0
LINE
  5
46C
330
466
100
AcDbEntity
  8
치수문자_일반주서
 62
     0
370
    -2
100
AcDbLine
 10
62.84180362879815
 20
2.381250000000065
 30
0.0
 11
62.84180362879817
 21
-2.381249999999923
 31
0.0
  0
LINE
  5
46D
330
466
100
AcDbEntity
  8
치수문자_일반주서
 62
     0
370
    -2
100
AcDbLine
 10
62.84180362879815
 20
5.683250000000065
 30
0.0
 11
62.84180362879814
 21
8.985250000000065
 31
0.0
  0
LINE
  5
46E
330
466
100
AcDbEntity
  8
치수문자_일반주서
 62
     0
370
    -2
100
AcDbLine
 10
62.84180362879817
 20
-5.683249999999923
 30
0.0
 11
62.84180362879818
 21
-8.985249999999922
 31
0.0
  0
SOLID
  5
46F
330
466
100
AcDbEntity
  8
치수문자_일반주서
 62
     0
100
AcDbTrace
 10
62.29147029546481
 20
5.683250000000063
 30
0.0
 11
63.39213696213148
 21
5.683250000000067
 31
0.0
 12
62.84180362879815
 22
2.381250000000065
 32
0.0
 13
62.84180362879815
 23
2.381250000000065
 33
0.0
  0
SOLID
  5
470
330
466
100
AcDbEntity
  8
치수문자_일반주서
 62
     0
100
AcDbTrace
 10
63.39213696213151
 20
-5.683249999999921
 30
0.0
 11
62.29147029546484
 21
-5.683249999999925
 31
0.0
 12
62.84180362879817
 22
-2.381249999999923
 32
0.0
 13
62.84180362879817
 23
-2.381249999999923
 33
0.0
  0
MTEXT
  5
471
330
466
100
AcDbEntity
  8
치수문자_일반주서
 62
     0
100
AcDbMText
 10
58.46680362879809
 20
22.98525000000005
 30
0.0
 40
3.5
 41
0.0
 71
     2
 72
     1
  1
\A1;%%c4.76 [3/16]
  7
SLDTEXTSTYLE0
 11
-2.983906501879693E-15
 21
1.0
 31
0.0
 73
     1
 44
1.0
  0
POINT
  5
4F8
330
466
100
AcDbEntity
  8
Defpoints
 62
     0
100
AcDbPoint
 10
50.98558840250685
 20
2.381250000000023
 30
0.0
  0
POINT
  5
4F9
330
466
100
AcDbEntity
  8
Defpoints
 62
     0
100
AcDbPoint
 10
50.98558840250685
 20
-2.381249999999966
 30
0.0
  0
POINT
  5
4FA
330
466
100
AcDbEntity
  8
Defpoints
 62
     0
100
AcDbPoint
 10
62.84180362879817
 20
-2.381249999999921
 30
0.0
  0
ENDBLK
  5
468
330
466
100
AcDbEntity
  8
0
100
AcDbBlockEnd
  0
BLOCK
  5
474
330
473
100
AcDbEntity
  8
0
100
AcDbBlockBegin
  2
*D23
 70
     1
 10
0.0
 20
0.0
 30
0.0
  3
*D23
  1
*D23
  0
LINE
  5
476
330
473
100
AcDbEntity
  8
치수문자_일반주서
 62
     0
370
    -2
100
AcDbLine
 10
-49.60181625109129
 20
2.381250000000022
 30
0.0
 11
-63.34931625109132
 21
2.381249999999969
 31
0.0
  0
LINE
  5
477
330
473
100
AcDbEntity
  8
치수문자_일반주서
 62
     0
370
    -2
100
AcDbLine
 10
-49.60181625109129
 20
-2.381249999999966
 30
0.0
 11
-63.3493162510913
 21
-2.381250000000019
 31
0.0
  0
LINE
  5
478
330
473
100
AcDbEntity
  8
치수문자_일반주서
 62
     0
370
    -2
100
AcDbLine
 10
-63.34931625109132
 20
2.381249999999969
 30
0.0
 11
-63.34931625109142
 21
36.98524999999997
 31
0.0
  0
LINE
  5
479
330
473
100
AcDbEntity
  8
치수문자_일반주서
 62
     0
370
    -2
100
AcDbLine
 10
-63.34931625109132
 20
2.381249999999969
 30
0.0
 11
-63.3493162510913
 21
-2.381250000000019
 31
0.0
  0
LINE
  5
47A
330
473
100
AcDbEntity
  8
치수문자_일반주서
 62
     0
370
    -2
100
AcDbLine
 10
-63.34931625109132
 20
5.683249999999969
 30
0.0
 11
-63.34931625109133
 21
8.985249999999969
 31
0.0
  0
LINE
  5
47B
330
473
100
AcDbEntity
  8
치수문자_일반주서
 62
     0
370
    -2
100
AcDbLine
 10
-63.3493162510913
 20
-5.683250000000019
 30
0.0
 11
-63.34931625109129
 21
-8.985250000000018
 31
0.0
  0
SOLID
  5
47C
330
473
100
AcDbEntity
  8
치수문자_일반주서
 62
     0
100
AcDbTrace
 10
-63.89964958442466
 20
5.683249999999967
 30
0.0
 11
-62.79898291775799
 21
5.683249999999971
 31
0.0
 12
-63.34931625109132
 22
2.381249999999969
 32
0.0
 13
-63.34931625109132
 23
2.381249999999969
 33
0.0
  0
SOLID
  5
47D
330
473
100
AcDbEntity
  8
치수문자_일반주서
 62
     0
100
AcDbTrace
 10
-62.79898291775796
 20
-5.683250000000017
 30
0.0
 11
-63.89964958442463
 21
-5.683250000000021
 31
0.0
 12
-63.3493162510913
 22
-2.381250000000019
 32
0.0
 13
-63.3493162510913
 23
-2.381250000000019
 33
0.0
  0
MTEXT
  5
47E
330
473
100
AcDbEntity
  8
치수문자_일반주서
 62
     0
100
AcDbMText
 10
-67.72431625109138
 20
22.98524999999995
 30
0.0
 40
3.5
 41
0.0
 71
     2
 72
     1
  1
\A1;%%c4.76 [3/16]
  7
SLDTEXTSTYLE0
 11
-2.983906501879693E-15
 21
1.0
 31
0.0
 73
     1
 44
1.0
  0
POINT
  5
4F4
330
473
100
AcDbEntity
  8
Defpoints
 62
     0
100
AcDbPoint
 10
-49.53931625109129
 20
2.381250000000023
 30
0.0
  0
POINT
  5
4F5
330
473
100
AcDbEntity
  8
Defpoints
 62
     0
100
AcDbPoint
 10
-49.53931625109129
 20
-2.381249999999966
 30
0.0
  0
POINT
  5
4F6
330
473
100
AcDbEntity
  8
Defpoints
 62
     0
100
AcDbPoint
 10
-63.34931625109131
 20
-2.381250000000017
 30
0.0
  0
ENDBLK
  5
475
330
473
100
AcDbEntity
  8
0
100
AcDbBlockEnd
  0
BLOCK
  5
481
330
480
100
AcDbEntity
  8
0
100
AcDbBlockBegin
  2
*D24
 70
     1
 10
0.0
 20
0.0
 30
0.0
  3
*D24
  1
*D24
  0
LINE
  5
483
330
480
100
AcDbEntity
  8
치수문자_일반주서
 62
     0
370
    -2
100
AcDbLine
 10
51.06068374890869
 20
2.443750000000023
 30
0.0
 11
51.06068374890869
 21
24.04869709597151
 31
0.0
  0
LINE
  5
484
330
480
100
AcDbEntity
  8
치수문자_일반주서
 62
     0
370
    -2
100
AcDbLine
 10
22.48568374890868
 20
2.443750000000023
 30
0.0
 11
22.48568374890868
 21
24.04869709597151
 31
0.0
  0
LINE
  5
485
330
480
100
AcDbEntity
  8
치수문자_일반주서
 62
     0
370
    -2
100
AcDbLine
 10
47.75868374890869
 20
24.04869709597151
 30
0.0
 11
25.78768374890868
 21
24.04869709597151
 31
0.0
  0
SOLID
  5
486
330
480
100
AcDbEntity
  8
치수문자_일반주서
 62
     0
100
AcDbTrace
 10
47.75868374890869
 20
23.49836376263817
 30
0.0
 11
47.75868374890869
 21
24.59903042930484
 31
0.0
 12
51.06068374890869
 22
24.04869709597151
 32
0.0
 13
51.06068374890869
 23
24.04869709597151
 33
0.0
  0
SOLID
  5
487
330
480
100
AcDbEntity
  8
치수문자_일반주서
 62
     0
100
AcDbTrace
 10
25.78768374890868
 20
24.59903042930484
 30
0.0
 11
25.78768374890868
 21
23.49836376263817
 31
0.0
 12
22.48568374890868
 22
24.04869709597151
 32
0.0
 13
22.48568374890868
 23
24.04869709597151
 33
0.0
  0
MTEXT
  5
488
330
480
100
AcDbEntity
  8
치수문자_일반주서
 62
     0
100
AcDbMText
 10
38.82797027055476
 20
28.42369709597151
 30
0.0
 40
3.5
 41
0.0
 71
     2
 72
     1
  1
\A1;28.58 [1 1/8]
  7
SLDTEXTSTYLE0
 73
     1
 44
1.0
  0
POINT
  5
489
330
480
100
AcDbEntity
  8
Defpoints
 62
     0
100
AcDbPoint
 10
51.06068374890869
 20
2.381250000000023
 30
0.0
  0
POINT
  5
48A
330
480
100
AcDbEntity
  8
Defpoints
 62
     0
100
AcDbPoint
 10
22.48568374890868
 20
2.381250000000023
 30
0.0
  0
POINT
  5
48B
330
480
100
AcDbEntity
  8
Defpoints
 62
     0
100
AcDbPoint
 10
22.48568374890868
 20
24.04869709597151
 30
0.0
  0
ENDBLK
  5
482
330
480
100
AcDbEntity
  8
0
100
AcDbBlockEnd
  0
BLOCK
  5
48D
330
48C
100
AcDbEntity
  8
0
100
AcDbBlockBegin
  2
*D25
 70
     1
 10
0.0
 20
0.0
 30
0.0
  3
*D25
  1
*D25
  0
LINE
  5
48F
330
48C
100
AcDbEntity
  8
치수문자_일반주서
 62
     0
370
    -2
100
AcDbLine
 10
51.06068374890869
 20
2.443750000000023
 30
0.0
 11
51.06068374890869
 21
45.74901198635113
 31
0.0
  0
LINE
  5
490
330
48C
100
AcDbEntity
  8
치수문자_일반주서
 62
     0
370
    -2
100
AcDbLine
 10
-50.53931625109131
 20
1.443750000000023
 30
0.0
 11
-50.53931625109131
 21
45.74901198635113
 31
0.0
  0
LINE
  5
491
330
48C
100
AcDbEntity
  8
치수문자_일반주서
 62
     0
370
    -2
100
AcDbLine
 10
47.75868374890869
 20
45.74901198635113
 30
0.0
 11
-47.23731625109131
 21
45.74901198635113
 31
0.0
  0
SOLID
  5
492
330
48C
100
AcDbEntity
  8
치수문자_일반주서
 62
     0
100
AcDbTrace
 10
47.75868374890869
 20
45.19867865301779
 30
0.0
 11
47.75868374890869
 21
46.29934531968446
 31
0.0
 12
51.06068374890869
 22
45.74901198635113
 32
0.0
 13
51.06068374890869
 23
45.74901198635113
 33
0.0
  0
SOLID
  5
493
330
48C
100
AcDbEntity
  8
치수문자_일반주서
 62
     0
100
AcDbTrace
 10
-47.23731625109131
 20
46.29934531968446
 30
0.0
 11
-47.23731625109131
 21
45.19867865301779
 31
0.0
 12
-50.53931625109131
 22
45.74901198635113
 32
0.0
 13
-50.53931625109131
 23
45.74901198635113
 33
0.0
  0
MTEXT
  5
494
330
48C
100
AcDbEntity
  8
치수문자_일반주서
 62
     0
100
AcDbMText
 10
-0.8088685383766006
 20
50.12401198635113
 30
0.0
 40
3.5
 41
0.0
 71
     2
 72
     1
  1
\A1;101.6 [4]
  7
SLDTEXTSTYLE0
 73
     1
 44
1.0
  0
POINT
  5
495
330
48C
100
AcDbEntity
  8
Defpoints
 62
     0
100
AcDbPoint
 10
51.06068374890869
 20
2.381250000000023
 30
0.0
  0
POINT
  5
496
330
48C
100
AcDbEntity
  8
Defpoints
 62
     0
100
AcDbPoint
 10
-50.53931625109131
 20
1.381250000000023
 30
0.0
  0
POINT
  5
497
330
48C
100
AcDbEntity
  8
Defpoints
 62
     0
100
AcDbPoint
 10
-50.53931625109131
 20
45.74901198635113
 30
0.0
  0
ENDBLK
  5
48E
330
48C
100
AcDbEntity
  8
0
100
AcDbBlockEnd
  0
BLOCK
  5
499
330
498
100
AcDbEntity
  8
0
100
AcDbBlockBegin
  2
*D26
 70
     1
 10
0.0
 20
0.0
 30
0.0
  3
*D26
  1
*D26
  0
LINE
  5
49B
330
498
100
AcDbEntity
  8
치수문자_일반주서
 62
     0
370
    -2
100
AcDbLine
 10
51.06068374890869
 20
2.443750000000023
 30
0.0
 11
51.06068374890869
 21
36.04869709597182
 31
0.0
  0
LINE
  5
49C
330
498
100
AcDbEntity
  8
치수문자_일반주서
 62
     0
370
    -2
100
AcDbLine
 10
0.2606837489086899
 20
2.37390000000002
 30
0.0
 11
0.2606837489086899
 21
36.04869709597182
 31
0.0
  0
LINE
  5
49D
330
498
100
AcDbEntity
  8
치수문자_일반주서
 62
     0
370
    -2
100
AcDbLine
 10
47.75868374890869
 20
36.04869709597182
 30
0.0
 11
3.56268374890869
 21
36.04869709597182
 31
0.0
  0
SOLID
  5
49E
330
498
100
AcDbEntity
  8
치수문자_일반주서
 62
     0
100
AcDbTrace
 10
47.75868374890869
 20
35.49836376263848
 30
0.0
 11
47.75868374890869
 21
36.59903042930515
 31
0.0
 12
51.06068374890869
 22
36.04869709597182
 32
0.0
 13
51.06068374890869
 23
36.04869709597182
 33
0.0
  0
SOLID
  5
49F
330
498
100
AcDbEntity
  8
치수문자_일반주서
 62
     0
100
AcDbTrace
 10
3.56268374890869
 20
36.59903042930515
 30
0.0
 11
3.56268374890869
 21
35.49836376263848
 31
0.0
 12
0.2606837489086899
 22
36.04869709597182
 32
0.0
 13
0.2606837489086899
 23
36.04869709597182
 33
0.0
  0
MTEXT
  5
4A0
330
498
100
AcDbEntity
  8
치수문자_일반주서
 62
     0
100
AcDbMText
 10
25.65438607570776
 20
40.42369709597182
 30
0.0
 40
3.5
 41
0.0
 71
     2
 72
     1
  1
\A1;50.8 [2]
  7
SLDTEXTSTYLE0
 73
     1
 44
1.0
  0
POINT
  5
4A1
330
498
100
AcDbEntity
  8
Defpoints
 62
     0
100
AcDbPoint
 10
51.06068374890869
 20
2.381250000000023
 30
0.0
  0
POINT
  5
4A2
330
498
100
AcDbEntity
  8
Defpoints
 62
     0
100
AcDbPoint
 10
0.2606837489086899
 20
2.31140000000002
 30
0.0
  0
POINT
  5
4A3
330
498
100
AcDbEntity
  8
Defpoints
 62
     0
100
AcDbPoint
 10
0.2606837489086899
 20
36.04869709597182
 30
0.0
  0
ENDBLK
  5
49A
330
498
100
AcDbEntity
  8
0
100
AcDbBlockEnd
  0
BLOCK
  5
5BD
330
5BC
100
AcDbEntity
  8
0
100
AcDbBlockBegin
  2
*D27
 70
     1
 10
0.0
 20
0.0
 30
0.0
  3
*D27
  1
*D27
  0
LINE
  5
5BF
330
5BC
100
AcDbEntity
  8
치수문자_일반주서
 62
     0
370
    -2
100
AcDbLine
 10
128.3514990808299
 20
56.28655157272357
 30
0.0
 11
126.949496001893
 21
56.28655157272356
 31
0.0
  0
LINE
  5
5C0
330
5BC
100
AcDbEntity
  8
치수문자_일반주서
 62
     0
370
    -2
100
AcDbLine
 10
128.3514990808299
 20
43.58655157272356
 30
0.0
 11
126.949496001893
 21
43.58655157272356
 31
0.0
  0
LINE
  5
5C1
330
5BC
100
AcDbEntity
  8
치수문자_일반주서
 62
     0
370
    -2
100
AcDbLine
 10
126.949496001893
 20
52.98455157272356
 30
0.0
 11
126.949496001893
 21
46.88855157272356
 31
0.0
  0
SOLID
  5
5C2
330
5BC
100
AcDbEntity
  8
치수문자_일반주서
 62
     0
100
AcDbTrace
 10
127.4998293352263
 20
52.98455157272356
 30
0.0
 11
126.3991626685597
 21
52.98455157272356
 31
0.0
 12
126.949496001893
 22
56.28655157272356
 32
0.0
 13
126.949496001893
 23
56.28655157272356
 33
0.0
  0
SOLID
  5
5C3
330
5BC
100
AcDbEntity
  8
치수문자_일반주서
 62
     0
100
AcDbTrace
 10
126.3991626685597
 20
46.88855157272356
 30
0.0
 11
127.4998293352263
 21
46.88855157272356
 31
0.0
 12
126.949496001893
 22
43.58655157272356
 32
0.0
 13
126.949496001893
 23
43.58655157272356
 33
0.0
  0
MTEXT
  5
5C4
330
5BC
100
AcDbEntity
  8
치수문자_일반주서
 62
     0
100
AcDbMText
 10
122.574496001893
 20
49.93655157272354
 30
0.0
 40
3.5
 41
0.0
 71
     2
 72
     1
  1
\A1;%%c12.70 [0.50]
  7
SLDTEXTSTYLE0
 11
-3.356894814614646E-15
 21
1.0
 31
0.0
 73
     1
 44
1.0
  0
POINT
  5
5C5
330
5BC
100
AcDbEntity
  8
Defpoints
 62
     0
100
AcDbPoint
 10
128.4139990808299
 20
56.28655157272357
 30
0.0
  0
POINT
  5
5C6
330
5BC
100
AcDbEntity
  8
Defpoints
 62
     0
100
AcDbPoint
 10
128.4139990808299
 20
43.58655157272356
 30
0.0
  0
POINT
  5
5C7
330
5BC
100
AcDbEntity
  8
Defpoints
 62
     0
100
AcDbPoint
 10
126.949496001893
 20
43.58655157272356
 30
0.0
  0
ENDBLK
  5
5BE
330
5BC
100
AcDbEntity
  8
0
100
AcDbBlockEnd
  0
BLOCK
  5
5C9
330
5C8
100
AcDbEntity
  8
0
100
AcDbBlockBegin
  2
*D28
 70
     1
 10
0.0
 20
0.0
 30
0.0
  3
*D28
  1
*D28
  0
LINE
  5
5CB
330
5C8
100
AcDbEntity
  8
치수문자_일반주서
 62
     0
370
    -2
100
AcDbLine
 10
18.31270926586183
 20
56.28655157272356
 30
0.0
 11
4.56520926586176
 21
56.28655157272351
 31
0.0
  0
LINE
  5
5CC
330
5C8
100
AcDbEntity
  8
치수문자_일반주서
 62
     0
370
    -2
100
AcDbLine
 10
18.31270926586183
 20
43.58655157272357
 30
0.0
 11
4.565209265861804
 21
43.58655157272352
 31
0.0
  0
LINE
  5
5CD
330
5C8
100
AcDbEntity
  8
치수문자_일반주서
 62
     0
370
    -2
100
AcDbLine
 10
4.565209265861771
 20
52.98455157272351
 30
0.0
 11
4.565209265861792
 21
46.88855157272352
 31
0.0
  0
SOLID
  5
5CE
330
5C8
100
AcDbEntity
  8
치수문자_일반주서
 62
     0
100
AcDbTrace
 10
5.115542599195105
 20
52.98455157272351
 30
0.0
 11
4.014875932528438
 21
52.98455157272351
 31
0.0
 12
4.56520926586176
 22
56.28655157272351
 32
0.0
 13
4.56520926586176
 23
56.28655157272351
 33
0.0
  0
SOLID
  5
5CF
330
5C8
100
AcDbEntity
  8
치수문자_일반주서
 62
     0
100
AcDbTrace
 10
4.014875932528459
 20
46.88855157272352
 30
0.0
 11
5.115542599195126
 21
46.88855157272352
 31
0.0
 12
4.565209265861804
 22
43.58655157272352
 32
0.0
 13
4.565209265861804
 23
43.58655157272352
 33
0.0
  0
MTEXT
  5
5D0
330
5C8
100
AcDbEntity
  8
치수문자_일반주서
 62
     0
100
AcDbMText
 10
0.1902092658617818
 20
49.93655157272354
 30
0.0
 40
3.5
 41
0.0
 71
     2
 72
     1
  1
\A1;%%c12.70 [0.50]
  7
SLDTEXTSTYLE0
 11
-3.496765431890260E-15
 21
1.0
 31
0.0
 73
     1
 44
1.0
  0
POINT
  5
5D1
330
5C8
100
AcDbEntity
  8
Defpoints
 62
     0
100
AcDbPoint
 10
18.37520926586183
 20
56.28655157272356
 30
0.0
  0
POINT
  5
5D2
330
5C8
100
AcDbEntity
  8
Defpoints
 62
     0
100
AcDbPoint
 10
18.37520926586183
 20
43.58655157272357
 30
0.0
  0
POINT
  5
5D3
330
5C8
100
AcDbEntity
  8
Defpoints
 62
     0
100
AcDbPoint
 10
4.565209265861782
 20
43.58655157272352
 30
0.0
  0
ENDBLK
  5
5CA
330
5C8
100
AcDbEntity
  8
0
100
AcDbBlockEnd
  0
BLOCK
  5
5D5
330
5D4
100
AcDbEntity
  8
0
100
AcDbBlockBegin
  2
*D29
 70
     1
 10
0.0
 20
0.0
 30
0.0
  3
*D29
  1
*D29
  0
LINE
  5
5D7
330
5D4
100
AcDbEntity
  8
치수문자_일반주서
 62
     0
370
    -2
100
AcDbLine
 10
147.706621675457
 20
50.22292600488352
 30
0.0
 11
147.706621675457
 21
74.12517018879504
 31
0.0
  0
LINE
  5
5D8
330
5D4
100
AcDbEntity
  8
치수문자_일반주서
 62
     0
370
    -2
100
AcDbLine
 10
93.76520926586184
 20
56.33787502017019
 30
0.0
 11
93.76520926586184
 21
74.12517018879504
 31
0.0
  0
LINE
  5
5D9
330
5D4
100
AcDbEntity
  8
치수문자_일반주서
 62
     0
370
    -2
100
AcDbLine
 10
144.404621675457
 20
74.12517018879504
 30
0.0
 11
97.06720926586185
 21
74.12517018879504
 31
0.0
  0
SOLID
  5
5DA
330
5D4
100
AcDbEntity
  8
치수문자_일반주서
 62
     0
100
AcDbTrace
 10
144.404621675457
 20
73.57483685546171
 30
0.0
 11
144.404621675457
 21
74.67550352212837
 31
0.0
 12
147.706621675457
 22
74.12517018879504
 32
0.0
 13
147.706621675457
 23
74.12517018879504
 33
0.0
  0
SOLID
  5
5DB
330
5D4
100
AcDbEntity
  8
치수문자_일반주서
 62
     0
100
AcDbTrace
 10
97.06720926586185
 20
74.67550352212837
 30
0.0
 11
97.06720926586185
 21
73.57483685546171
 31
0.0
 12
93.76520926586184
 22
74.12517018879504
 32
0.0
 13
93.76520926586184
 23
74.12517018879504
 33
0.0
  0
MTEXT
  5
5DC
330
5D4
100
AcDbEntity
  8
치수문자_일반주서
 62
     0
100
AcDbMText
 10
124.6283675913227
 20
78.50017018879504
 30
0.0
 40
3.5
 41
0.0
 71
     2
 72
     1
  1
\A1;53.94 [2.12]
  7
SLDTEXTSTYLE0
 73
     1
 44
1.0
  0
POINT
  5
5DD
330
5D4
100
AcDbEntity
  8
Defpoints
 62
     0
100
AcDbPoint
 10
147.706621675457
 20
50.16042600488352
 30
0.0
  0
POINT
  5
5DE
330
5D4
100
AcDbEntity
  8
Defpoints
 62
     0
100
AcDbPoint
 10
93.76520926586184
 20
56.27537502017019
 30
0.0
  0
POINT
  5
5DF
330
5D4
100
AcDbEntity
  8
Defpoints
 62
     0
100
AcDbPoint
 10
93.76520926586184
 20
74.12517018879504
 30
0.0
  0
ENDBLK
  5
5D6
330
5D4
100
AcDbEntity
  8
0
100
AcDbBlockEnd
  0
BLOCK
  5
5E1
330
5E0
100
AcDbEntity
  8
0
100
AcDbBlockBegin
  2
*D30
 70
     1
 10
0.0
 20
0.0
 30
0.0
  3
*D30
  1
*D30
  0
LINE
  5
5E3
330
5E0
100
AcDbEntity
  8
치수문자_일반주서
 62
     0
370
    -2
100
AcDbLine
 10
147.706621675457
 20
50.22292600488352
 30
0.0
 11
147.706621675457
 21
92.12517018879538
 31
0.0
  0
LINE
  5
5E4
330
5E0
100
AcDbEntity
  8
치수문자_일반주서
 62
     0
370
    -2
100
AcDbLine
 10
17.56520926586182
 20
55.53905157272356
 30
0.0
 11
17.56520926586182
 21
92.12517018879538
 31
0.0
  0
LINE
  5
5E5
330
5E0
100
AcDbEntity
  8
치수문자_일반주서
 62
     0
370
    -2
100
AcDbLine
 10
144.404621675457
 20
92.12517018879538
 30
0.0
 11
20.86720926586182
 21
92.12517018879538
 31
0.0
  0
SOLID
  5
5E6
330
5E0
100
AcDbEntity
  8
치수문자_일반주서
 62
     0
100
AcDbTrace
 10
144.404621675457
 20
91.57483685546205
 30
0.0
 11
144.404621675457
 21
92.67550352212871
 31
0.0
 12
147.706621675457
 22
92.12517018879538
 32
0.0
 13
147.706621675457
 23
92.12517018879538
 33
0.0
  0
SOLID
  5
5E7
330
5E0
100
AcDbEntity
  8
치수문자_일반주서
 62
     0
100
AcDbTrace
 10
20.86720926586182
 20
92.67550352212871
 30
0.0
 11
20.86720926586182
 21
91.57483685546205
 31
0.0
 12
17.56520926586182
 22
92.12517018879538
 32
0.0
 13
17.56520926586182
 23
92.12517018879538
 33
0.0
  0
MTEXT
  5
5E8
330
5E0
100
AcDbEntity
  8
치수문자_일반주서
 62
     0
100
AcDbMText
 10
81.2738031330148
 20
96.50017018879538
 30
0.0
 40
3.5
 41
0.0
 71
     2
 72
     1
  1
\A1;130.14 [5.12]
  7
SLDTEXTSTYLE0
 73
     1
 44
1.0
  0
POINT
  5
5E9
330
5E0
100
AcDbEntity
  8
Defpoints
 62
     0
100
AcDbPoint
 10
147.706621675457
 20
50.16042600488352
 30
0.0
  0
POINT
  5
5EA
330
5E0
100
AcDbEntity
  8
Defpoints
 62
     0
100
AcDbPoint
 10
17.56520926586182
 20
55.47655157272356
 30
0.0
  0
POINT
  5
5EB
330
5E0
100
AcDbEntity
  8
Defpoints
 62
     0
100
AcDbPoint
 10
17.56520926586182
 20
92.12517018879537
 30
0.0
  0
ENDBLK
  5
5E2
330
5E0
100
AcDbEntity
  8
0
100
AcDbBlockEnd
  0
BLOCK
  5
5ED
330
5EC
100
AcDbEntity
  8
0
100
AcDbBlockBegin
  2
*D31
 70
     1
 10
0.0
 20
0.0
 30
0.0
  3
*D31
  1
*D31
  0
LINE
  5
5EF
330
5EC
100
AcDbEntity
  8
치수문자_일반주서
 62
     0
370
    -2
100
AcDbLine
 10
147.706621675457
 20
50.22292600488352
 30
0.0
 11
147.706621675457
 21
86.12517018879534
 31
0.0
  0
LINE
  5
5F0
330
5EC
100
AcDbEntity
  8
치수문자_일반주서
 62
     0
370
    -2
100
AcDbLine
 10
71.54020926586185
 20
56.09505157272356
 30
0.0
 11
71.54020926586185
 21
86.12517018879534
 31
0.0
  0
LINE
  5
5F1
330
5EC
100
AcDbEntity
  8
치수문자_일반주서
 62
     0
370
    -2
100
AcDbLine
 10
144.404621675457
 20
86.12517018879534
 30
0.0
 11
74.84220926586185
 21
86.12517018879534
 31
0.0
  0
SOLID
  5
5F2
330
5EC
100
AcDbEntity
  8
치수문자_일반주서
 62
     0
100
AcDbTrace
 10
144.404621675457
 20
85.57483685546201
 30
0.0
 11
144.404621675457
 21
86.67550352212866
 31
0.0
 12
147.706621675457
 22
86.12517018879534
 32
0.0
 13
147.706621675457
 23
86.12517018879534
 33
0.0
  0
SOLID
  5
5F3
330
5EC
100
AcDbEntity
  8
치수문자_일반주서
 62
     0
100
AcDbTrace
 10
74.84220926586185
 20
86.67550352212866
 30
0.0
 11
74.84220926586185
 21
85.57483685546201
 31
0.0
 12
71.54020926586185
 22
86.12517018879534
 32
0.0
 13
71.54020926586185
 23
86.12517018879534
 33
0.0
  0
MTEXT
  5
5F4
330
5EC
100
AcDbEntity
  8
치수문자_일반주서
 62
     0
100
AcDbMText
 10
109.6234154706594
 20
90.50017018879534
 30
0.0
 40
3.5
 41
0.0
 71
     2
 72
     1
  1
\A1;76.17 [3.00]
  7
SLDTEXTSTYLE0
 73
     1
 44
1.0
  0
POINT
  5
5F5
330
5EC
100
AcDbEntity
  8
Defpoints
 62
     0
100
AcDbPoint
 10
147.706621675457
 20
50.16042600488352
 30
0.0
  0
POINT
  5
5F6
330
5EC
100
AcDbEntity
  8
Defpoints
 62
     0
100
AcDbPoint
 10
71.54020926586185
 20
56.03255157272356
 30
0.0
  0
POINT
  5
5F7
330
5EC
100
AcDbEntity
  8
Defpoints
 62
     0
100
AcDbPoint
 10
71.54020926586185
 20
86.12517018879532
 30
0.0
  0
ENDBLK
  5
5EE
330
5EC
100
AcDbEntity
  8
0
100
AcDbBlockEnd
  0
BLOCK
  5
639
330
638
100
AcDbEntity
  8
0
100
AcDbBlockBegin
  2
*D32
 70
     1
 10
0.0
 20
0.0
 30
0.0
  3
*D32
  1
*D32
  0
LINE
  5
63B
330
638
100
AcDbEntity
  8
치수문자_일반주서
 62
     0
370
    -2
100
AcDbLine
 10
219.3038872347475
 20
-12.29480145752635
 30
0.0
 11
217.9018841558106
 21
-12.29480145752635
 31
0.0
  0
LINE
  5
63C
330
638
100
AcDbEntity
  8
치수문자_일반주서
 62
     0
370
    -2
100
AcDbLine
 10
219.3038872347475
 20
-24.99480145752635
 30
0.0
 11
217.9018841558107
 21
-24.99480145752636
 31
0.0
  0
LINE
  5
63D
330
638
100
AcDbEntity
  8
치수문자_일반주서
 62
     0
370
    -2
100
AcDbLine
 10
217.9018841558107
 20
-15.59680145752635
 30
0.0
 11
217.9018841558107
 21
-21.69280145752636
 31
0.0
  0
SOLID
  5
63E
330
638
100
AcDbEntity
  8
치수문자_일반주서
 62
     0
100
AcDbTrace
 10
218.452217489144
 20
-15.59680145752635
 30
0.0
 11
217.3515508224773
 21
-15.59680145752635
 31
0.0
 12
217.9018841558106
 22
-12.29480145752635
 32
0.0
 13
217.9018841558106
 23
-12.29480145752635
 33
0.0
  0
SOLID
  5
63F
330
638
100
AcDbEntity
  8
치수문자_일반주서
 62
     0
100
AcDbTrace
 10
217.3515508224773
 20
-21.69280145752636
 30
0.0
 11
218.452217489144
 21
-21.69280145752635
 31
0.0
 12
217.9018841558107
 22
-24.99480145752636
 32
0.0
 13
217.9018841558107
 23
-24.99480145752636
 33
0.0
  0
MTEXT
  5
640
330
638
100
AcDbEntity
  8
치수문자_일반주서
 62
     0
100
AcDbMText
 10
213.5268841558107
 20
-18.64480145752638
 30
0.0
 40
3.5
 41
0.0
 71
     2
 72
     1
  1
\A1;%%c12.70 [0.50]
  7
SLDTEXTSTYLE0
 11
-4.475859752819527E-15
 21
1.0
 31
0.0
 73
     1
 44
1.0
  0
POINT
  5
641
330
638
100
AcDbEntity
  8
Defpoints
 62
     0
100
AcDbPoint
 10
219.3663872347475
 20
-12.29480145752635
 30
0.0
  0
POINT
  5
642
330
638
100
AcDbEntity
  8
Defpoints
 62
     0
100
AcDbPoint
 10
219.3663872347475
 20
-24.99480145752635
 30
0.0
  0
POINT
  5
643
330
638
100
AcDbEntity
  8
Defpoints
 62
     0
100
AcDbPoint
 10
217.9018841558107
 20
-24.99480145752636
 30
0.0
  0
ENDBLK
  5
63A
330
638
100
AcDbEntity
  8
0
100
AcDbBlockEnd
  0
BLOCK
  5
645
330
644
100
AcDbEntity
  8
0
100
AcDbBlockBegin
  2
*D33
 70
     1
 10
0.0
 20
0.0
 30
0.0
  3
*D33
  1
*D33
  0
LINE
  5
647
330
644
100
AcDbEntity
  8
치수문자_일반주서
 62
     0
370
    -2
100
AcDbLine
 10
-52.97350000000003
 20
6.349999999999994
 30
0.0
 11
-66.72100000000012
 21
6.349999999999941
 31
0.0
  0
LINE
  5
648
330
644
100
AcDbEntity
  8
치수문자_일반주서
 62
     0
370
    -2
100
AcDbLine
 10
-52.97350000000003
 20
-6.349999999999994
 30
0.0
 11
-66.72100000000007
 21
-6.350000000000048
 31
0.0
  0
LINE
  5
649
330
644
100
AcDbEntity
  8
치수문자_일반주서
 62
     0
370
    -2
100
AcDbLine
 10
-66.72100000000012
 20
6.349999999999941
 30
0.0
 11
-66.72100000000022
 21
37.45399999999994
 31
0.0
  0
LINE
  5
64A
330
644
100
AcDbEntity
  8
치수문자_일반주서
 62
     0
370
    -2
100
AcDbLine
 10
-66.7210000000001
 20
3.047999999999941
 30
0.0
 11
-66.72100000000009
 21
-3.048000000000048
 31
0.0
  0
LINE
  5
64B
330
644
100
AcDbEntity
  8
치수문자_일반주서
 62
     0
370
    -2
100
AcDbLine
 10
-66.7210000000001
 20
3.047999999999941
 30
0.0
 11
-66.72100000000009
 21
-0.2540000000000591
 31
0.0
  0
SOLID
  5
64C
330
644
100
AcDbEntity
  8
치수문자_일반주서
 62
     0
100
AcDbTrace
 10
-66.17066666666678
 20
3.047999999999943
 30
0.0
 11
-67.27133333333343
 21
3.047999999999939
 31
0.0
 12
-66.72100000000012
 22
6.349999999999941
 32
0.0
 13
-66.72100000000012
 23
6.349999999999941
 33
0.0
  0
SOLID
  5
64D
330
644
100
AcDbEntity
  8
치수문자_일반주서
 62
     0
100
AcDbTrace
 10
-67.27133333333342
 20
-3.048000000000049
 30
0.0
 11
-66.17066666666676
 21
-3.048000000000046
 31
0.0
 12
-66.72100000000007
 22
-6.350000000000048
 32
0.0
 13
-66.72100000000007
 23
-6.350000000000048
 33
0.0
  0
MTEXT
  5
64E
330
644
100
AcDbEntity
  8
치수문자_일반주서
 62
     0
100
AcDbMText
 10
-71.09600000000017
 20
25.20399999999993
 30
0.0
 40
3.5
 41
0.0
 71
     2
 72
     1
  1
\A1;%%c12.7 [1/2]
  7
SLDTEXTSTYLE0
 11
-3.356894814614650E-15
 21
1.0
 31
0.0
 73
     1
 44
1.0
  0
POINT
  5
64F
330
644
100
AcDbEntity
  8
Defpoints
 62
     0
100
AcDbPoint
 10
-52.91100000000003
 20
6.349999999999994
 30
0.0
  0
POINT
  5
6C1
330
644
100
AcDbEntity
  8
Defpoints
 62
     0
100
AcDbPoint
 10
-52.91100000000003
 20
-6.349999999999994
 30
0.0
  0
POINT
  5
6C2
330
644
100
AcDbEntity
  8
Defpoints
 62
     0
100
AcDbPoint
 10
-66.72100000000005
 20
-6.350000000000046
 30
0.0
  0
ENDBLK
  5
646
330
644
100
AcDbEntity
  8
0
100
AcDbBlockEnd
  0
BLOCK
  5
651
330
650
100
AcDbEntity
  8
0
100
AcDbBlockBegin
  2
*D34
 70
     1
 10
0.0
 20
0.0
 30
0.0
  3
*D34
  1
*D34
  0
LINE
  5
653
330
650
100
AcDbEntity
  8
치수문자_일반주서
 62
     0
370
    -2
100
AcDbLine
 10
238.6590098293747
 20
-12.23230145752635
 30
0.0
 11
238.6590098293747
 21
5.543817158545124
 31
0.0
  0
LINE
  5
654
330
650
100
AcDbEntity
  8
치수문자_일반주서
 62
     0
370
    -2
100
AcDbLine
 10
184.7175974197795
 20
-12.24347801007973
 30
0.0
 11
184.7175974197795
 21
5.543817158545124
 31
0.0
  0
LINE
  5
655
330
650
100
AcDbEntity
  8
치수문자_일반주서
 62
     0
370
    -2
100
AcDbLine
 10
235.3570098293747
 20
5.543817158545124
 30
0.0
 11
188.0195974197795
 21
5.543817158545124
 31
0.0
  0
SOLID
  5
656
330
650
100
AcDbEntity
  8
치수문자_일반주서
 62
     0
100
AcDbTrace
 10
235.3570098293747
 20
4.993483825211791
 30
0.0
 11
235.3570098293747
 21
6.094150491878458
 31
0.0
 12
238.6590098293747
 22
5.543817158545124
 32
0.0
 13
238.6590098293747
 23
5.543817158545124
 33
0.0
  0
SOLID
  5
657
330
650
100
AcDbEntity
  8
치수문자_일반주서
 62
     0
100
AcDbTrace
 10
188.0195974197795
 20
6.094150491878458
 30
0.0
 11
188.0195974197795
 21
4.993483825211791
 31
0.0
 12
184.7175974197795
 22
5.543817158545124
 32
0.0
 13
184.7175974197795
 23
5.543817158545124
 33
0.0
  0
MTEXT
  5
658
330
650
100
AcDbEntity
  8
치수문자_일반주서
 62
     0
100
AcDbMText
 10
215.5807557452403
 20
9.918817158545124
 30
0.0
 40
3.5
 41
0.0
 71
     2
 72
     1
  1
\A1;53.94 [2 1/8]
  7
SLDTEXTSTYLE0
 73
     1
 44
1.0
  0
POINT
  5
659
330
650
100
AcDbEntity
  8
Defpoints
 62
     0
100
AcDbPoint
 10
238.6590098293747
 20
-12.29480145752635
 30
0.0
  0
POINT
  5
65A
330
650
100
AcDbEntity
  8
Defpoints
 62
     0
100
AcDbPoint
 10
184.7175974197795
 20
-12.30597801007973
 30
0.0
  0
POINT
  5
65B
330
650
100
AcDbEntity
  8
Defpoints
 62
     0
100
AcDbPoint
 10
184.7175974197795
 20
5.543817158545124
 30
0.0
  0
ENDBLK
  5
652
330
650
100
AcDbEntity
  8
0
100
AcDbBlockEnd
  0
BLOCK
  5
65D
330
65C
100
AcDbEntity
  8
0
100
AcDbBlockBegin
  2
*D35
 70
     1
 10
0.0
 20
0.0
 30
0.0
  3
*D35
  1
*D35
  0
LINE
  5
65F
330
65C
100
AcDbEntity
  8
치수문자_일반주서
 62
     0
370
    -2
100
AcDbLine
 10
238.6590098293747
 20
-12.23230145752635
 30
0.0
 11
238.6590098293747
 21
23.54381715854547
 31
0.0
  0
LINE
  5
660
330
65C
100
AcDbEntity
  8
치수문자_일반주서
 62
     0
370
    -2
100
AcDbLine
 10
108.5175974197795
 20
-13.04230145752636
 30
0.0
 11
108.5175974197795
 21
23.54381715854547
 31
0.0
  0
LINE
  5
661
330
65C
100
AcDbEntity
  8
치수문자_일반주서
 62
     0
370
    -2
100
AcDbLine
 10
235.3570098293747
 20
23.54381715854547
 30
0.0
 11
111.8195974197795
 21
23.54381715854547
 31
0.0
  0
SOLID
  5
662
330
65C
100
AcDbEntity
  8
치수문자_일반주서
 62
     0
100
AcDbTrace
 10
235.3570098293747
 20
22.99348382521213
 30
0.0
 11
235.3570098293747
 21
24.0941504918788
 31
0.0
 12
238.6590098293747
 22
23.54381715854547
 32
0.0
 13
238.6590098293747
 23
23.54381715854547
 33
0.0
  0
SOLID
  5
663
330
65C
100
AcDbEntity
  8
치수문자_일반주서
 62
     0
100
AcDbTrace
 10
111.8195974197795
 20
24.0941504918788
 30
0.0
 11
111.8195974197795
 21
22.99348382521213
 31
0.0
 12
108.5175974197795
 22
23.54381715854547
 32
0.0
 13
108.5175974197795
 23
23.54381715854547
 33
0.0
  0
MTEXT
  5
664
330
65C
100
AcDbEntity
  8
치수문자_일반주서
 62
     0
100
AcDbMText
 10
172.2261912869325
 20
27.91881715854547
 30
0.0
 40
3.5
 41
0.0
 71
     2
 72
     1
  1
\A1;130.14 [5 1/8]
  7
SLDTEXTSTYLE0
 73
     1
 44
1.0
  0
POINT
  5
665
330
65C
100
AcDbEntity
  8
Defpoints
 62
     0
100
AcDbPoint
 10
238.6590098293747
 20
-12.29480145752635
 30
0.0
  0
POINT
  5
666
330
65C
100
AcDbEntity
  8
Defpoints
 62
     0
100
AcDbPoint
 10
108.5175974197795
 20
-13.10480145752636
 30
0.0
  0
POINT
  5
667
330
65C
100
AcDbEntity
  8
Defpoints
 62
     0
100
AcDbPoint
 10
108.5175974197795
 20
23.54381715854547
 30
0.0
  0
ENDBLK
  5
65E
330
65C
100
AcDbEntity
  8
0
100
AcDbBlockEnd
  0
BLOCK
  5
669
330
668
100
AcDbEntity
  8
0
100
AcDbBlockBegin
  2
*D36
 70
     1
 10
0.0
 20
0.0
 30
0.0
  3
*D36
  1
*D36
  0
LINE
  5
66B
330
668
100
AcDbEntity
  8
치수문자_일반주서
 62
     0
370
    -2
100
AcDbLine
 10
238.6590098293747
 20
-12.23230145752635
 30
0.0
 11
238.6590098293747
 21
17.54381715854542
 31
0.0
  0
LINE
  5
66C
330
668
100
AcDbEntity
  8
치수문자_일반주서
 62
     0
370
    -2
100
AcDbLine
 10
162.4925974197795
 20
-12.48630145752635
 30
0.0
 11
162.4925974197795
 21
17.54381715854542
 31
0.0
  0
LINE
  5
66D
330
668
100
AcDbEntity
  8
치수문자_일반주서
 62
     0
370
    -2
100
AcDbLine
 10
235.3570098293747
 20
17.54381715854542
 30
0.0
 11
165.7945974197795
 21
17.54381715854542
 31
0.0
  0
SOLID
  5
66E
330
668
100
AcDbEntity
  8
치수문자_일반주서
 62
     0
100
AcDbTrace
 10
235.3570098293747
 20
16.99348382521209
 30
0.0
 11
235.3570098293747
 21
18.09415049187876
 31
0.0
 12
238.6590098293747
 22
17.54381715854542
 32
0.0
 13
238.6590098293747
 23
17.54381715854542
 33
0.0
  0
SOLID
  5
66F
330
668
100
AcDbEntity
  8
치수문자_일반주서
 62
     0
100
AcDbTrace
 10
165.7945974197795
 20
18.09415049187876
 30
0.0
 11
165.7945974197795
 21
16.99348382521209
 31
0.0
 12
162.4925974197795
 22
17.54381715854542
 32
0.0
 13
162.4925974197795
 23
17.54381715854542
 33
0.0
  0
MTEXT
  5
670
330
668
100
AcDbEntity
  8
치수문자_일반주서
 62
     0
100
AcDbMText
 10
200.5758036245771
 20
21.91881715854542
 30
0.0
 40
3.5
 41
0.0
 71
     2
 72
     1
  1
\A1;76.17 [3]
  7
SLDTEXTSTYLE0
 73
     1
 44
1.0
  0
POINT
  5
671
330
668
100
AcDbEntity
  8
Defpoints
 62
     0
100
AcDbPoint
 10
238.6590098293747
 20
-12.29480145752635
 30
0.0
  0
POINT
  5
672
330
668
100
AcDbEntity
  8
Defpoints
 62
     0
100
AcDbPoint
 10
162.4925974197795
 20
-12.54880145752635
 30
0.0
  0
POINT
  5
673
330
668
100
AcDbEntity
  8
Defpoints
 62
     0
100
AcDbPoint
 10
162.4925974197795
 20
17.54381715854542
 30
0.0
  0
ENDBLK
  5
66A
330
668
100
AcDbEntity
  8
0
100
AcDbBlockEnd
  0
BLOCK
  5
67B
330
67A
100
AcDbEntity
  8
0
100
AcDbBlockBegin
  2
*D37
 70
     1
 10
0.0
 20
0.0
 30
0.0
  3
*D37
  1
*D37
  0
LINE
  5
67D
330
67A
100
AcDbEntity
  8
치수문자_일반주서
 62
     0
370
    -2
100
AcDbLine
 10
76.48291240959514
 20
-6.350000000000001
 30
0.0
 11
92.88925463711803
 21
-6.350000000000004
 31
0.0
  0
LINE
  5
67E
330
67A
100
AcDbEntity
  8
치수문자_일반주서
 62
     0
370
    -2
100
AcDbLine
 10
76.48291240959514
 20
6.349999999999994
 30
0.0
 11
92.88925463711803
 21
6.349999999999993
 31
0.0
  0
LINE
  5
67F
330
67A
100
AcDbEntity
  8
치수문자_일반주서
 62
     0
370
    -2
100
AcDbLine
 10
92.88925463711803
 20
-6.350000000000004
 30
0.0
 11
92.88925463711803
 21
37.45399999999999
 31
0.0
  0
LINE
  5
680
330
67A
100
AcDbEntity
  8
치수문자_일반주서
 62
     0
370
    -2
100
AcDbLine
 10
92.88925463711803
 20
-6.350000000000004
 30
0.0
 11
92.88925463711803
 21
6.349999999999993
 31
0.0
  0
LINE
  5
681
330
67A
100
AcDbEntity
  8
치수문자_일반주서
 62
     0
370
    -2
100
AcDbLine
 10
92.88925463711803
 20
-9.652000000000005
 30
0.0
 11
92.88925463711803
 21
-12.954
 31
0.0
  0
SOLID
  5
682
330
67A
100
AcDbEntity
  8
치수문자_일반주서
 62
     0
100
AcDbTrace
 10
93.43958797045136
 20
-9.652000000000005
 30
0.0
 11
92.3389213037847
 21
-9.652000000000005
 31
0.0
 12
92.88925463711803
 22
-6.350000000000004
 32
0.0
 13
92.88925463711803
 23
-6.350000000000004
 33
0.0
  0
SOLID
  5
683
330
67A
100
AcDbEntity
  8
치수문자_일반주서
 62
     0
100
AcDbTrace
 10
92.3389213037847
 20
9.651999999999994
 30
0.0
 11
93.43958797045136
 21
9.651999999999994
 31
0.0
 12
92.88925463711803
 22
6.349999999999993
 32
0.0
 13
92.88925463711803
 23
6.349999999999993
 33
0.0
  0
MTEXT
  5
684
330
67A
100
AcDbEntity
  8
치수문자_일반주서
 62
     0
100
AcDbMText
 10
90.26425463711803
 20
25.20399999999999
 30
0.0
 40
3.5
 41
0.0
 71
     5
 72
     1
  1
\A1;{%%c12.7 [1/2]}
  7
SLDTEXTSTYLE0
 11
0.0
 21
1.0
 31
0.0
 73
     1
 44
1.0
  0
POINT
  5
685
330
67A
100
AcDbEntity
  8
Defpoints
 62
     0
100
AcDbPoint
 10
76.42041240959514
 20
-6.350000000000001
 30
0.0
  0
POINT
  5
686
330
67A
100
AcDbEntity
  8
Defpoints
 62
     0
100
AcDbPoint
 10
76.42041240959514
 20
6.349999999999994
 30
0.0
  0
POINT
  5
687
330
67A
100
AcDbEntity
  8
Defpoints
 62
     0
100
AcDbPoint
 10
92.88925463711803
 20
6.349999999999993
 30
0.0
  0
ENDBLK
  5
67C
330
67A
100
AcDbEntity
  8
0
100
AcDbBlockEnd
  0
BLOCK
  5
694
330
693
100
AcDbEntity
  8
0
100
AcDbBlockBegin
  2
*D38
 70
     1
 10
0.0
 20
0.0
 30
0.0
  3
*D38
  1
*D38
  0
LINE
  5
696
330
693
100
AcDbEntity
  8
치수문자_일반주서
 62
     0
370
    -2
100
AcDbLine
 10
76.42041240959514
 20
6.412499999999994
 30
0.0
 11
76.42041240959514
 21
41.22575439831355
 31
0.0
  0
LINE
  5
697
330
693
100
AcDbEntity
  8
치수문자_일반주서
 62
     0
370
    -2
100
AcDbLine
 10
22.44541240959515
 20
6.401323447446629
 30
0.0
 11
22.44541240959515
 21
41.22575439831355
 31
0.0
  0
LINE
  5
698
330
693
100
AcDbEntity
  8
치수문자_일반주서
 62
     0
370
    -2
100
AcDbLine
 10
73.11841240959514
 20
41.22575439831355
 30
0.0
 11
25.74741240959515
 21
41.22575439831355
 31
0.0
  0
SOLID
  5
699
330
693
100
AcDbEntity
  8
치수문자_일반주서
 62
     0
100
AcDbTrace
 10
73.11841240959514
 20
40.67542106498022
 30
0.0
 11
73.11841240959514
 21
41.77608773164689
 31
0.0
 12
76.42041240959514
 22
41.22575439831355
 32
0.0
 13
76.42041240959514
 23
41.22575439831355
 33
0.0
  0
SOLID
  5
69A
330
693
100
AcDbEntity
  8
치수문자_일반주서
 62
     0
100
AcDbTrace
 10
25.74741240959515
 20
41.77608773164689
 30
0.0
 11
25.74741240959515
 21
40.67542106498022
 31
0.0
 12
22.44541240959515
 22
41.22575439831355
 32
0.0
 13
22.44541240959515
 23
41.22575439831355
 33
0.0
  0
MTEXT
  5
69B
330
693
100
AcDbEntity
  8
치수문자_일반주서
 62
     0
100
AcDbMText
 10
49.43291240959515
 20
43.85075439831355
 30
0.0
 40
3.5
 41
0.0
 71
     5
 72
     1
  1
\A1;53.98 [2 1/8]
  7
SLDTEXTSTYLE0
 73
     1
 44
1.0
  0
POINT
  5
69C
330
693
100
AcDbEntity
  8
Defpoints
 62
     0
100
AcDbPoint
 10
76.42041240959514
 20
6.349999999999994
 30
0.0
  0
POINT
  5
69D
330
693
100
AcDbEntity
  8
Defpoints
 62
     0
100
AcDbPoint
 10
22.44541240959515
 20
6.338823447446629
 30
0.0
  0
POINT
  5
69E
330
693
100
AcDbEntity
  8
Defpoints
 62
     0
100
AcDbPoint
 10
22.44541240959515
 20
41.22575439831355
 30
0.0
  0
ENDBLK
  5
695
330
693
100
AcDbEntity
  8
0
100
AcDbBlockEnd
  0
BLOCK
  5
6A4
330
6A3
100
AcDbEntity
  8
0
100
AcDbBlockBegin
  2
*D39
 70
     1
 10
0.0
 20
0.0
 30
0.0
  3
*D39
  1
*D39
  0
LINE
  5
6A6
330
6A3
100
AcDbEntity
  8
치수문자_일반주서
 62
     0
370
    -2
100
AcDbLine
 10
76.42041240959514
 20
6.412499999999994
 30
0.0
 11
76.42041240959514
 21
66.60169424698796
 31
0.0
  0
LINE
  5
6A7
330
6A3
100
AcDbEntity
  8
치수문자_일반주서
 62
     0
370
    -2
100
AcDbLine
 10
0.2539999999999907
 20
6.158499999999997
 30
0.0
 11
0.2539999999999907
 21
66.60169424698796
 31
0.0
  0
LINE
  5
6A8
330
6A3
100
AcDbEntity
  8
치수문자_일반주서
 62
     0
370
    -2
100
AcDbLine
 10
73.11841240959514
 20
66.60169424698796
 30
0.0
 11
3.555999999999991
 21
66.60169424698796
 31
0.0
  0
SOLID
  5
6A9
330
6A3
100
AcDbEntity
  8
치수문자_일반주서
 62
     0
100
AcDbTrace
 10
73.11841240959514
 20
66.05136091365463
 30
0.0
 11
73.11841240959514
 21
67.15202758032129
 31
0.0
 12
76.42041240959514
 22
66.60169424698796
 32
0.0
 13
76.42041240959514
 23
66.60169424698796
 33
0.0
  0
SOLID
  5
6AA
330
6A3
100
AcDbEntity
  8
치수문자_일반주서
 62
     0
100
AcDbTrace
 10
3.555999999999991
 20
67.15202758032129
 30
0.0
 11
3.555999999999991
 21
66.05136091365463
 31
0.0
 12
0.2539999999999907
 22
66.60169424698796
 32
0.0
 13
0.2539999999999907
 23
66.60169424698796
 33
0.0
  0
MTEXT
  5
6AB
330
6A3
100
AcDbEntity
  8
치수문자_일반주서
 62
     0
100
AcDbMText
 10
38.33720620479757
 20
69.22669424698796
 30
0.0
 40
3.5
 41
0.0
 71
     5
 72
     1
  1
\A1;76.17 [3]
  7
SLDTEXTSTYLE0
 73
     1
 44
1.0
  0
POINT
  5
6AC
330
6A3
100
AcDbEntity
  8
Defpoints
 62
     0
100
AcDbPoint
 10
76.42041240959514
 20
6.349999999999994
 30
0.0
  0
POINT
  5
6AD
330
6A3
100
AcDbEntity
  8
Defpoints
 62
     0
100
AcDbPoint
 10
0.2539999999999907
 20
6.095999999999997
 30
0.0
  0
POINT
  5
6AE
330
6A3
100
AcDbEntity
  8
Defpoints
 62
     0
100
AcDbPoint
 10
0.2539999999999907
 20
66.60169424698796
 30
0.0
  0
ENDBLK
  5
6A5
330
6A3
100
AcDbEntity
  8
0
100
AcDbBlockEnd
  0
BLOCK
  5
6B4
330
6B3
100
AcDbEntity
  8
0
100
AcDbBlockBegin
  2
*D40
 70
     1
 10
0.0
 20
0.0
 30
0.0
  3
*D40
  1
*D40
  0
LINE
  5
6B6
330
6B3
100
AcDbEntity
  8
0
 62
     0
370
    -2
100
AcDbLine
 10
76.42041240959514
 20
7.349999999999994
 30
0.0
 11
76.42041240959514
 21
84.6786577036498
 31
0.0
  0
LINE
  5
6B7
330
6B3
100
AcDbEntity
  8
0
 62
     0
370
    -2
100
AcDbLine
 10
-53.72100000000003
 20
6.539999999999992
 30
0.0
 11
-53.72100000000003
 21
84.6786577036498
 31
0.0
  0
LINE
  5
6B8
330
6B3
100
AcDbEntity
  8
0
 62
     0
370
    -2
100
AcDbLine
 10
73.11841240959514
 20
83.6786577036498
 30
0.0
 11
-50.41900000000003
 21
83.6786577036498
 31
0.0
  0
LINE
  5
6B9
330
6B3
100
AcDbEntity
  8
0
 62
     0
370
    -2
100
AcDbLine
 10
-50.41900000000003
 20
83.6786577036498
 30
0.0
 11
73.11841240959514
 21
83.6786577036498
 31
0.0
  0
SOLID
  5
6BA
330
6B3
100
AcDbEntity
  8
0
 62
     0
100
AcDbTrace
 10
73.11841240959514
 20
83.12832437031648
 30
0.0
 11
73.11841240959514
 21
84.22899103698313
 31
0.0
 12
76.42041240959514
 22
83.6786577036498
 32
0.0
 13
76.42041240959514
 23
83.6786577036498
 33
0.0
  0
SOLID
  5
6BB
330
6B3
100
AcDbEntity
  8
0
 62
     0
100
AcDbTrace
 10
-50.41900000000003
 20
84.22899103698313
 30
0.0
 11
-50.41900000000003
 21
83.12832437031648
 31
0.0
 12
-53.72100000000003
 22
83.6786577036498
 32
0.0
 13
-53.72100000000003
 23
83.6786577036498
 33
0.0
  0
MTEXT
  5
6BC
330
6B3
100
AcDbEntity
  8
0
 62
     0
100
AcDbMText
 10
11.34970620479756
 20
87.24432437031648
 30
0.0
 40
3.5
 41
0.0
 71
     5
 72
     1
  1
130,14
 73
     1
 44
1.0
  0
POINT
  5
6BD
330
6B3
100
AcDbEntity
  8
Defpoints
 62
     0
100
AcDbPoint
 10
76.42041240959514
 20
6.349999999999994
 30
0.0
  0
POINT
  5
6BE
330
6B3
100
AcDbEntity
  8
Defpoints
 62
     0
100
AcDbPoint
 10
-53.72100000000003
 20
5.539999999999992
 30
0.0
  0
POINT
  5
6BF
330
6B3
100
AcDbEntity
  8
Defpoints
 62
     0
100
AcDbPoint
 10
-53.72100000000003
 20
83.6786577036498
 30
0.0
  0
ENDBLK
  5
6B5
330
6B3
100
AcDbEntity
  8
0
100
AcDbBlockEnd
  0
BLOCK
  5
783
330
782
100
AcDbEntity
  8
0
100
AcDbBlockBegin
  2
*D41
 70
     1
 10
0.0
 20
0.0
 30
0.0
  3
*D41
  1
*D41
  0
LINE
  5
785
330
782
100
AcDbEntity
  8
치수문자_일반주서
 62
     0
370
    -2
100
AcDbLine
 10
123.7815806548386
 20
54.69905157272356
 30
0.0
 11
123.774496001893
 21
54.69905157272356
 31
0.0
  0
LINE
  5
786
330
782
100
AcDbEntity
  8
치수문자_일반주서
 62
     0
370
    -2
100
AcDbLine
 10
123.7815806548386
 20
45.17405157272356
 30
0.0
 11
123.774496001893
 21
45.17405157272356
 31
0.0
  0
LINE
  5
787
330
782
100
AcDbEntity
  8
치수문자_일반주서
 62
     0
370
    -2
100
AcDbLine
 10
123.774496001893
 20
51.39705157272356
 30
0.0
 11
123.774496001893
 21
48.47605157272356
 31
0.0
  0
SOLID
  5
788
330
782
100
AcDbEntity
  8
치수문자_일반주서
 62
     0
100
AcDbTrace
 10
124.3248293352264
 20
51.39705157272356
 30
0.0
 11
123.2241626685597
 21
51.39705157272356
 31
0.0
 12
123.774496001893
 22
54.69905157272356
 32
0.0
 13
123.774496001893
 23
54.69905157272356
 33
0.0
  0
SOLID
  5
789
330
782
100
AcDbEntity
  8
치수문자_일반주서
 62
     0
100
AcDbTrace
 10
123.2241626685597
 20
48.47605157272356
 30
0.0
 11
124.3248293352264
 21
48.47605157272356
 31
0.0
 12
123.774496001893
 22
45.17405157272356
 32
0.0
 13
123.774496001893
 23
45.17405157272356
 33
0.0
  0
MTEXT
  5
78A
330
782
100
AcDbEntity
  8
치수문자_일반주서
 62
     0
100
AcDbMText
 10
119.399496001893
 20
49.93655157272354
 30
0.0
 40
3.5
 41
0.0
 71
     2
 72
     1
  1
\A1;%%c9.53 [0.38]
  7
SLDTEXTSTYLE0
 11
-2.983906501879686E-15
 21
1.0
 31
0.0
 73
     1
 44
1.0
  0
POINT
  5
78B
330
782
100
AcDbEntity
  8
Defpoints
 62
     0
100
AcDbPoint
 10
123.7190806548386
 20
54.69905157272356
 30
0.0
  0
POINT
  5
78C
330
782
100
AcDbEntity
  8
Defpoints
 62
     0
100
AcDbPoint
 10
123.7190806548386
 20
45.17405157272356
 30
0.0
  0
POINT
  5
78D
330
782
100
AcDbEntity
  8
Defpoints
 62
     0
100
AcDbPoint
 10
123.774496001893
 20
45.17405157272356
 30
0.0
  0
ENDBLK
  5
784
330
782
100
AcDbEntity
  8
0
100
AcDbBlockEnd
  0
BLOCK
  5
78F
330
78E
100
AcDbEntity
  8
0
100
AcDbBlockBegin
  2
*D42
 70
     1
 10
0.0
 20
0.0
 30
0.0
  3
*D42
  1
*D42
  0
LINE
  5
791
330
78E
100
AcDbEntity
  8
치수문자_일반주서
 62
     0
370
    -2
100
AcDbLine
 10
18.31270926586184
 20
54.69905157272357
 30
0.0
 11
4.56520926586178
 21
54.69905157272352
 31
0.0
  0
LINE
  5
792
330
78E
100
AcDbEntity
  8
치수문자_일반주서
 62
     0
370
    -2
100
AcDbLine
 10
18.31270926586184
 20
45.17405157272356
 30
0.0
 11
4.565209265861813
 21
45.17405157272351
 31
0.0
  0
LINE
  5
793
330
78E
100
AcDbEntity
  8
치수문자_일반주서
 62
     0
370
    -2
100
AcDbLine
 10
4.565209265861792
 20
51.39705157272352
 30
0.0
 11
4.565209265861801
 21
48.47605157272351
 31
0.0
  0
SOLID
  5
794
330
78E
100
AcDbEntity
  8
치수문자_일반주서
 62
     0
100
AcDbTrace
 10
5.115542599195125
 20
51.39705157272352
 30
0.0
 11
4.014875932528458
 21
51.39705157272352
 31
0.0
 12
4.56520926586178
 22
54.69905157272352
 32
0.0
 13
4.56520926586178
 23
54.69905157272352
 33
0.0
  0
SOLID
  5
795
330
78E
100
AcDbEntity
  8
치수문자_일반주서
 62
     0
100
AcDbTrace
 10
4.014875932528468
 20
48.47605157272351
 30
0.0
 11
5.115542599195135
 21
48.47605157272351
 31
0.0
 12
4.565209265861813
 22
45.17405157272351
 32
0.0
 13
4.565209265861813
 23
45.17405157272351
 33
0.0
  0
MTEXT
  5
796
330
78E
100
AcDbEntity
  8
치수문자_일반주서
 62
     0
100
AcDbMText
 10
0.190209265861796
 20
49.93655157272355
 30
0.0
 40
3.5
 41
0.0
 71
     2
 72
     1
  1
\A1;%%c9.53 [0.38]
  7
SLDTEXTSTYLE0
 11
-3.450141892798385E-15
 21
1.0
 31
0.0
 73
     1
 44
1.0
  0
POINT
  5
797
330
78E
100
AcDbEntity
  8
Defpoints
 62
     0
100
AcDbPoint
 10
18.37520926586184
 20
54.69905157272357
 30
0.0
  0
POINT
  5
798
330
78E
100
AcDbEntity
  8
Defpoints
 62
     0
100
AcDbPoint
 10
18.37520926586184
 20
45.17405157272356
 30
0.0
  0
POINT
  5
799
330
78E
100
AcDbEntity
  8
Defpoints
 62
     0
100
AcDbPoint
 10
4.565209265861796
 20
45.17405157272351
 30
0.0
  0
ENDBLK
  5
790
330
78E
100
AcDbEntity
  8
0
100
AcDbBlockEnd
  0
BLOCK
  5
79B
330
79A
100
AcDbEntity
  8
0
100
AcDbBlockBegin
  2
*D43
 70
     1
 10
0.0
 20
0.0
 30
0.0
  3
*D43
  1
*D43
  0
LINE
  5
79D
330
79A
100
AcDbEntity
  8
치수문자_일반주서
 62
     0
370
    -2
100
AcDbLine
 10
138.1900185730582
 20
50.16695739684354
 30
0.0
 11
138.1900185730582
 21
74.06920158075506
 31
0.0
  0
LINE
  5
79E
330
79A
100
AcDbEntity
  8
치수문자_일반주서
 62
     0
370
    -2
100
AcDbLine
 10
87.41520926586185
 20
54.08650032259519
 30
0.0
 11
87.41520926586185
 21
74.06920158075506
 31
0.0
  0
LINE
  5
79F
330
79A
100
AcDbEntity
  8
치수문자_일반주서
 62
     0
370
    -2
100
AcDbLine
 10
134.8880185730582
 20
74.06920158075506
 30
0.0
 11
90.71720926586185
 21
74.06920158075506
 31
0.0
  0
SOLID
  5
7A0
330
79A
100
AcDbEntity
  8
치수문자_일반주서
 62
     0
100
AcDbTrace
 10
134.8880185730582
 20
73.51886824742174
 30
0.0
 11
134.8880185730582
 21
74.61953491408839
 31
0.0
 12
138.1900185730582
 22
74.06920158075506
 32
0.0
 13
138.1900185730582
 23
74.06920158075506
 33
0.0
  0
SOLID
  5
7A1
330
79A
100
AcDbEntity
  8
치수문자_일반주서
 62
     0
100
AcDbTrace
 10
90.71720926586185
 20
74.61953491408839
 30
0.0
 11
90.71720926586185
 21
73.51886824742174
 31
0.0
 12
87.41520926586185
 22
74.06920158075506
 32
0.0
 13
87.41520926586185
 23
74.06920158075506
 33
0.0
  0
MTEXT
  5
7A2
330
79A
100
AcDbEntity
  8
치수문자_일반주서
 62
     0
100
AcDbMText
 10
116.4665616237458
 20
78.44420158075506
 30
0.0
 40
3.5
 41
0.0
 71
     2
 72
     1
  1
\A1;50.77 [2.00]
  7
SLDTEXTSTYLE0
 73
     1
 44
1.0
  0
POINT
  5
7A3
330
79A
100
AcDbEntity
  8
Defpoints
 62
     0
100
AcDbPoint
 10
138.1900185730582
 20
50.10445739684354
 30
0.0
  0
POINT
  5
7A4
330
79A
100
AcDbEntity
  8
Defpoints
 62
     0
100
AcDbPoint
 10
87.41520926586185
 20
54.02400032259519
 30
0.0
  0
POINT
  5
7A5
330
79A
100
AcDbEntity
  8
Defpoints
 62
     0
100
AcDbPoint
 10
87.41520926586185
 20
74.06920158075509
 30
0.0
  0
ENDBLK
  5
79C
330
79A
100
AcDbEntity
  8
0
100
AcDbBlockEnd
  0
BLOCK
  5
7A7
330
7A6
100
AcDbEntity
  8
0
100
AcDbBlockBegin
  2
*D44
 70
     1
 10
0.0
 20
0.0
 30
0.0
  3
*D44
  1
*D44
  0
LINE
  5
7A9
330
7A6
100
AcDbEntity
  8
치수문자_일반주서
 62
     0
370
    -2
100
AcDbLine
 10
138.1900185730582
 20
50.16695739684354
 30
0.0
 11
138.1900185730582
 21
92.06920158075539
 31
0.0
  0
LINE
  5
7AA
330
7A6
100
AcDbEntity
  8
치수문자_일반주서
 62
     0
370
    -2
100
AcDbLine
 10
17.56520926586184
 20
53.95155157272356
 30
0.0
 11
17.56520926586184
 21
92.06920158075539
 31
0.0
  0
LINE
  5
7AB
330
7A6
100
AcDbEntity
  8
치수문자_일반주서
 62
     0
370
    -2
100
AcDbLine
 10
134.8880185730582
 20
92.06920158075539
 30
0.0
 11
20.86720926586184
 21
92.06920158075539
 31
0.0
  0
SOLID
  5
7AC
330
7A6
100
AcDbEntity
  8
치수문자_일반주서
 62
     0
100
AcDbTrace
 10
134.8880185730582
 20
91.51886824742206
 30
0.0
 11
134.8880185730582
 21
92.61953491408872
 31
0.0
 12
138.1900185730582
 22
92.06920158075539
 32
0.0
 13
138.1900185730582
 23
92.06920158075539
 33
0.0
  0
SOLID
  5
7AD
330
7A6
100
AcDbEntity
  8
치수문자_일반주서
 62
     0
100
AcDbTrace
 10
20.86720926586184
 20
92.61953491408872
 30
0.0
 11
20.86720926586184
 21
91.51886824742206
 31
0.0
 12
17.56520926586184
 22
92.06920158075539
 32
0.0
 13
17.56520926586184
 23
92.06920158075539
 33
0.0
  0
MTEXT
  5
7AE
330
7A6
100
AcDbEntity
  8
치수문자_일반주서
 62
     0
100
AcDbMText
 10
76.6151061754512
 20
96.44420158075539
 30
0.0
 40
3.5
 41
0.0
 71
     2
 72
     1
  1
\A1;120.62 [4.75]
  7
SLDTEXTSTYLE0
 73
     1
 44
1.0
  0
POINT
  5
7AF
330
7A6
100
AcDbEntity
  8
Defpoints
 62
     0
100
AcDbPoint
 10
138.1900185730582
 20
50.10445739684354
 30
0.0
  0
POINT
  5
7B0
330
7A6
100
AcDbEntity
  8
Defpoints
 62
     0
100
AcDbPoint
 10
17.56520926586184
 20
53.88905157272356
 30
0.0
  0
POINT
  5
7B1
330
7A6
100
AcDbEntity
  8
Defpoints
 62
     0
100
AcDbPoint
 10
17.56520926586184
 20
92.06920158075539
 30
0.0
  0
ENDBLK
  5
7A8
330
7A6
100
AcDbEntity
  8
0
100
AcDbBlockEnd
  0
BLOCK
  5
7B3
330
7B2
100
AcDbEntity
  8
0
100
AcDbBlockBegin
  2
*D45
 70
     1
 10
0.0
 20
0.0
 30
0.0
  3
*D45
  1
*D45
  0
LINE
  5
7B5
330
7B2
100
AcDbEntity
  8
치수문자_일반주서
 62
     0
370
    -2
100
AcDbLine
 10
138.1900185730582
 20
50.16695739684354
 30
0.0
 11
138.1900185730582
 21
86.06920158075535
 31
0.0
  0
LINE
  5
7B6
330
7B2
100
AcDbEntity
  8
치수문자_일반주서
 62
     0
370
    -2
100
AcDbLine
 10
68.36520926586185
 20
54.50755157272356
 30
0.0
 11
68.36520926586185
 21
86.06920158075535
 31
0.0
  0
LINE
  5
7B7
330
7B2
100
AcDbEntity
  8
치수문자_일반주서
 62
     0
370
    -2
100
AcDbLine
 10
134.8880185730582
 20
86.06920158075535
 30
0.0
 11
71.66720926586186
 21
86.06920158075535
 31
0.0
  0
SOLID
  5
7B8
330
7B2
100
AcDbEntity
  8
치수문자_일반주서
 62
     0
100
AcDbTrace
 10
134.8880185730582
 20
85.51886824742202
 30
0.0
 11
134.8880185730582
 21
86.61953491408867
 31
0.0
 12
138.1900185730582
 22
86.06920158075535
 32
0.0
 13
138.1900185730582
 23
86.06920158075535
 33
0.0
  0
SOLID
  5
7B9
330
7B2
100
AcDbEntity
  8
치수문자_일반주서
 62
     0
100
AcDbTrace
 10
71.66720926586186
 20
86.61953491408867
 30
0.0
 11
71.66720926586186
 21
85.51886824742202
 31
0.0
 12
68.36520926586185
 22
86.06920158075535
 32
0.0
 13
68.36520926586185
 23
86.06920158075535
 33
0.0
  0
MTEXT
  5
7BA
330
7B2
100
AcDbEntity
  8
치수문자_일반주서
 62
     0
100
AcDbMText
 10
103.27761391946
 20
90.44420158075535
 30
0.0
 40
3.5
 41
0.0
 71
     2
 72
     1
  1
\A1;69.82 [2.75]
  7
SLDTEXTSTYLE0
 73
     1
 44
1.0
  0
POINT
  5
7BB
330
7B2
100
AcDbEntity
  8
Defpoints
 62
     0
100
AcDbPoint
 10
138.1900185730582
 20
50.10445739684354
 30
0.0
  0
POINT
  5
7BC
330
7B2
100
AcDbEntity
  8
Defpoints
 62
     0
100
AcDbPoint
 10
68.36520926586185
 20
54.44505157272356
 30
0.0
  0
POINT
  5
7BD
330
7B2
100
AcDbEntity
  8
Defpoints
 62
     0
100
AcDbPoint
 10
68.36520926586185
 20
86.06920158075533
 30
0.0
  0
ENDBLK
  5
7B4
330
7B2
100
AcDbEntity
  8
0
100
AcDbBlockEnd
  0
BLOCK
  5
800
330
7FF
100
AcDbEntity
  8
0
100
AcDbBlockBegin
  2
*D46
 70
     1
 10
0.0
 20
0.0
 30
0.0
  3
*D46
  1
*D46
  0
LINE
  5
802
330
7FF
100
AcDbEntity
  8
치수문자_일반주서
 62
     0
370
    -2
100
AcDbLine
 10
60.42513387723119
 20
223.6927219206358
 30
0.0
 11
60.41804922428555
 21
223.6927219206358
 31
0.0
  0
LINE
  5
803
330
7FF
100
AcDbEntity
  8
치수문자_일반주서
 62
     0
370
    -2
100
AcDbLine
 10
60.42513387723119
 20
214.1677219206358
 30
0.0
 11
60.41804922428558
 21
214.1677219206358
 31
0.0
  0
LINE
  5
804
330
7FF
100
AcDbEntity
  8
치수문자_일반주서
 62
     0
370
    -2
100
AcDbLine
 10
60.41804922428556
 20
220.3907219206359
 30
0.0
 11
60.41804922428557
 21
217.4697219206358
 31
0.0
  0
SOLID
  5
805
330
7FF
100
AcDbEntity
  8
치수문자_일반주서
 62
     0
100
AcDbTrace
 10
60.9683825576189
 20
220.3907219206359
 30
0.0
 11
59.86771589095223
 21
220.3907219206359
 31
0.0
 12
60.41804922428555
 22
223.6927219206358
 32
0.0
 13
60.41804922428555
 23
223.6927219206358
 33
0.0
  0
SOLID
  5
806
330
7FF
100
AcDbEntity
  8
치수문자_일반주서
 62
     0
100
AcDbTrace
 10
59.86771589095223
 20
217.4697219206358
 30
0.0
 11
60.9683825576189
 21
217.4697219206358
 31
0.0
 12
60.41804922428558
 22
214.1677219206358
 32
0.0
 13
60.41804922428558
 23
214.1677219206358
 33
0.0
  0
MTEXT
  5
807
330
7FF
100
AcDbEntity
  8
치수문자_일반주서
 62
     0
100
AcDbMText
 10
56.04304922428557
 20
218.9302219206358
 30
0.0
 40
3.5
 41
0.0
 71
     2
 72
     1
  1
\A1;%%c9.53 [0.38]
  7
SLDTEXTSTYLE0
 11
-3.729883127349605E-15
 21
1.0
 31
0.0
 73
     1
 44
1.0
  0
POINT
  5
808
330
7FF
100
AcDbEntity
  8
Defpoints
 62
     0
100
AcDbPoint
 10
60.36263387723119
 20
223.6927219206358
 30
0.0
  0
POINT
  5
809
330
7FF
100
AcDbEntity
  8
Defpoints
 62
     0
100
AcDbPoint
 10
60.36263387723119
 20
214.1677219206358
 30
0.0
  0
POINT
  5
80A
330
7FF
100
AcDbEntity
  8
Defpoints
 62
     0
100
AcDbPoint
 10
60.41804922428558
 20
214.1677219206358
 30
0.0
  0
ENDBLK
  5
801
330
7FF
100
AcDbEntity
  8
0
100
AcDbBlockEnd
  0
BLOCK
  5
80C
330
80B
100
AcDbEntity
  8
0
100
AcDbBlockBegin
  2
*D47
 70
     1
 10
0.0
 20
0.0
 30
0.0
  3
*D47
  1
*D47
  0
LINE
  5
80E
330
80B
100
AcDbEntity
  8
치수문자_일반주서
 62
     0
370
    -2
100
AcDbLine
 10
-49.7985
 20
4.762499999999989
 30
0.0
 11
-62.81262007121526
 21
4.762499999999939
 31
0.0
  0
LINE
  5
80F
330
80B
100
AcDbEntity
  8
치수문자_일반주서
 62
     0
370
    -2
100
AcDbLine
 10
-49.7985
 20
-4.762500000000017
 30
0.0
 11
-62.81262007121523
 21
-4.762500000000067
 31
0.0
  0
LINE
  5
810
330
80B
100
AcDbEntity
  8
치수문자_일반주서
 62
     0
370
    -2
100
AcDbLine
 10
-62.81262007121526
 20
4.762499999999939
 30
0.0
 11
-62.81262007121538
 21
34.31449999999993
 31
0.0
  0
LINE
  5
811
330
80B
100
AcDbEntity
  8
치수문자_일반주서
 62
     0
370
    -2
100
AcDbLine
 10
-62.81262007121525
 20
1.460499999999939
 30
0.0
 11
-62.81262007121524
 21
-1.460500000000067
 31
0.0
  0
SOLID
  5
812
330
80B
100
AcDbEntity
  8
치수문자_일반주서
 62
     0
100
AcDbTrace
 10
-62.26228673788192
 20
1.460499999999941
 30
0.0
 11
-63.36295340454858
 21
1.460499999999937
 31
0.0
 12
-62.81262007121526
 22
4.762499999999939
 32
0.0
 13
-62.81262007121526
 23
4.762499999999939
 33
0.0
  0
SOLID
  5
813
330
80B
100
AcDbEntity
  8
치수문자_일반주서
 62
     0
100
AcDbTrace
 10
-63.36295340454858
 20
-1.460500000000069
 30
0.0
 11
-62.26228673788191
 21
-1.460500000000065
 31
0.0
 12
-62.81262007121523
 22
-4.762500000000067
 32
0.0
 13
-62.81262007121523
 23
-4.762500000000067
 33
0.0
  0
MTEXT
  5
814
330
80B
100
AcDbEntity
  8
치수문자_일반주서
 62
     0
100
AcDbMText
 10
-67.18762007121532
 20
21.18949999999992
 30
0.0
 40
3.5
 41
0.0
 71
     2
 72
     1
  1
\A1;%%c9.53 [3/8]
  7
SLDTEXTSTYLE0
 11
-3.729883127349605E-15
 21
1.0
 31
0.0
 73
     1
 44
1.0
  0
POINT
  5
815
330
80B
100
AcDbEntity
  8
Defpoints
 62
     0
100
AcDbPoint
 10
-49.736
 20
4.762499999999989
 30
0.0
  0
POINT
  5
816
330
80B
100
AcDbEntity
  8
Defpoints
 62
     0
100
AcDbPoint
 10
-49.736
 20
-4.762500000000017
 30
0.0
  0
POINT
  5
857
330
80B
100
AcDbEntity
  8
Defpoints
 62
     0
100
AcDbPoint
 10
-62.81262007121523
 20
-4.762500000000066
 30
0.0
  0
ENDBLK
  5
80D
330
80B
100
AcDbEntity
  8
0
100
AcDbBlockEnd
  0
BLOCK
  5
818
330
817
100
AcDbEntity
  8
0
100
AcDbBlockBegin
  2
*D48
 70
     1
 10
0.0
 20
0.0
 30
0.0
  3
*D48
  1
*D48
  0
LINE
  5
81A
330
817
100
AcDbEntity
  8
치수문자_일반주서
 62
     0
370
    -2
100
AcDbLine
 10
70.07880930719634
 20
4.825000000000017
 30
0.0
 11
70.07880930719634
 21
24.13265000803148
 31
0.0
  0
LINE
  5
81B
330
817
100
AcDbEntity
  8
치수문자_일반주서
 62
     0
370
    -2
100
AcDbLine
 10
19.304
 20
4.149948749871612
 30
0.0
 11
19.304
 21
24.13265000803148
 31
0.0
  0
LINE
  5
81C
330
817
100
AcDbEntity
  8
치수문자_일반주서
 62
     0
370
    -2
100
AcDbLine
 10
66.77680930719633
 20
24.13265000803148
 30
0.0
 11
22.606
 21
24.13265000803148
 31
0.0
  0
SOLID
  5
81D
330
817
100
AcDbEntity
  8
치수문자_일반주서
 62
     0
100
AcDbTrace
 10
66.77680930719633
 20
23.58231667469814
 30
0.0
 11
66.77680930719633
 21
24.68298334136481
 31
0.0
 12
70.07880930719634
 22
24.13265000803148
 32
0.0
 13
70.07880930719634
 23
24.13265000803148
 33
0.0
  0
SOLID
  5
81E
330
817
100
AcDbEntity
  8
치수문자_일반주서
 62
     0
100
AcDbTrace
 10
22.606
 20
24.68298334136481
 30
0.0
 11
22.606
 21
23.58231667469814
 31
0.0
 12
19.304
 22
24.13265000803148
 32
0.0
 13
19.304
 23
24.13265000803148
 33
0.0
  0
MTEXT
  5
81F
330
817
100
AcDbEntity
  8
치수문자_일반주서
 62
     0
100
AcDbMText
 10
48.35535235788397
 20
28.50765000803148
 30
0.0
 40
3.5
 41
0.0
 71
     2
 72
     1
  1
\A1;50.77 [2]
  7
SLDTEXTSTYLE0
 73
     1
 44
1.0
  0
POINT
  5
820
330
817
100
AcDbEntity
  8
Defpoints
 62
     0
100
AcDbPoint
 10
70.07880930719634
 20
4.762500000000017
 30
0.0
  0
POINT
  5
821
330
817
100
AcDbEntity
  8
Defpoints
 62
     0
100
AcDbPoint
 10
19.304
 20
4.087448749871612
 30
0.0
  0
POINT
  5
822
330
817
100
AcDbEntity
  8
Defpoints
 62
     0
100
AcDbPoint
 10
19.304
 20
24.13265000803148
 30
0.0
  0
ENDBLK
  5
819
330
817
100
AcDbEntity
  8
0
100
AcDbBlockEnd
  0
BLOCK
  5
824
330
823
100
AcDbEntity
  8
0
100
AcDbBlockBegin
  2
*D49
 70
     1
 10
0.0
 20
0.0
 30
0.0
  3
*D49
  1
*D49
  0
LINE
  5
826
330
823
100
AcDbEntity
  8
치수문자_일반주서
 62
     0
370
    -2
100
AcDbLine
 10
70.07880930719634
 20
4.825000000000017
 30
0.0
 11
70.07880930719634
 21
42.13265000803182
 31
0.0
  0
LINE
  5
827
330
823
100
AcDbEntity
  8
치수문자_일반주서
 62
     0
370
    -2
100
AcDbLine
 10
-50.54600000000001
 20
4.014999999999986
 30
0.0
 11
-50.54600000000001
 21
42.13265000803182
 31
0.0
  0
LINE
  5
828
330
823
100
AcDbEntity
  8
치수문자_일반주서
 62
     0
370
    -2
100
AcDbLine
 10
66.77680930719633
 20
42.13265000803182
 30
0.0
 11
-47.24400000000001
 21
42.13265000803182
 31
0.0
  0
SOLID
  5
829
330
823
100
AcDbEntity
  8
치수문자_일반주서
 62
     0
100
AcDbTrace
 10
66.77680930719633
 20
41.58231667469848
 30
0.0
 11
66.77680930719633
 21
42.68298334136515
 31
0.0
 12
70.07880930719634
 22
42.13265000803182
 32
0.0
 13
70.07880930719634
 23
42.13265000803182
 33
0.0
  0
SOLID
  5
82A
330
823
100
AcDbEntity
  8
치수문자_일반주서
 62
     0
100
AcDbTrace
 10
-47.24400000000001
 20
42.68298334136515
 30
0.0
 11
-47.24400000000001
 21
41.58231667469848
 31
0.0
 12
-50.54600000000001
 22
42.13265000803182
 32
0.0
 13
-50.54600000000001
 23
42.13265000803182
 33
0.0
  0
MTEXT
  5
82B
330
823
100
AcDbEntity
  8
치수문자_일반주서
 62
     0
100
AcDbMText
 10
8.503896909589358
 20
46.50765000803182
 30
0.0
 40
3.5
 41
0.0
 71
     2
 72
     1
  1
\A1;120.62 [4 3/4]
  7
SLDTEXTSTYLE0
 73
     1
 44
1.0
  0
POINT
  5
82C
330
823
100
AcDbEntity
  8
Defpoints
 62
     0
100
AcDbPoint
 10
70.07880930719634
 20
4.762500000000017
 30
0.0
  0
POINT
  5
82D
330
823
100
AcDbEntity
  8
Defpoints
 62
     0
100
AcDbPoint
 10
-50.54600000000001
 20
3.952499999999986
 30
0.0
  0
POINT
  5
82E
330
823
100
AcDbEntity
  8
Defpoints
 62
     0
100
AcDbPoint
 10
-50.54600000000001
 20
42.13265000803182
 30
0.0
  0
ENDBLK
  5
825
330
823
100
AcDbEntity
  8
0
100
AcDbBlockEnd
  0
BLOCK
  5
830
330
82F
100
AcDbEntity
  8
0
100
AcDbBlockBegin
  2
*D50
 70
     1
 10
0.0
 20
0.0
 30
0.0
  3
*D50
  1
*D50
  0
LINE
  5
832
330
82F
100
AcDbEntity
  8
치수문자_일반주서
 62
     0
370
    -2
100
AcDbLine
 10
70.07880930719634
 20
4.825000000000017
 30
0.0
 11
70.07880930719634
 21
32.90094180609333
 31
0.0
  0
LINE
  5
833
330
82F
100
AcDbEntity
  8
치수문자_일반주서
 62
     0
370
    -2
100
AcDbLine
 10
0.2540000000000049
 20
4.570999999999998
 30
0.0
 11
0.2540000000000049
 21
32.90094180609333
 31
0.0
  0
LINE
  5
834
330
82F
100
AcDbEntity
  8
치수문자_일반주서
 62
     0
370
    -2
100
AcDbLine
 10
66.77680930719633
 20
32.90094180609333
 30
0.0
 11
3.556000000000005
 21
32.90094180609333
 31
0.0
  0
SOLID
  5
835
330
82F
100
AcDbEntity
  8
치수문자_일반주서
 62
     0
100
AcDbTrace
 10
66.77680930719633
 20
32.35060847275999
 30
0.0
 11
66.77680930719633
 21
33.45127513942666
 31
0.0
 12
70.07880930719634
 22
32.90094180609333
 32
0.0
 13
70.07880930719634
 23
32.90094180609333
 33
0.0
  0
SOLID
  5
836
330
82F
100
AcDbEntity
  8
치수문자_일반주서
 62
     0
100
AcDbTrace
 10
3.556000000000005
 20
33.45127513942666
 30
0.0
 11
3.556000000000005
 21
32.35060847275999
 31
0.0
 12
0.2540000000000049
 22
32.90094180609333
 32
0.0
 13
0.2540000000000049
 23
32.90094180609333
 33
0.0
  0
MTEXT
  5
837
330
82F
100
AcDbEntity
  8
치수문자_일반주서
 62
     0
100
AcDbMText
 10
35.16640465359816
 20
37.27594180609333
 30
0.0
 40
3.5
 41
0.0
 71
     2
 72
     1
  1
\A1;69.82 [2 3/4]
  7
SLDTEXTSTYLE0
 73
     1
 44
1.0
  0
POINT
  5
838
330
82F
100
AcDbEntity
  8
Defpoints
 62
     0
100
AcDbPoint
 10
70.07880930719634
 20
4.762500000000017
 30
0.0
  0
POINT
  5
839
330
82F
100
AcDbEntity
  8
Defpoints
 62
     0
100
AcDbPoint
 10
0.2540000000000049
 20
4.508499999999998
 30
0.0
  0
POINT
  5
83A
330
82F
100
AcDbEntity
  8
Defpoints
 62
     0
100
AcDbPoint
 10
0.2540000000000049
 20
32.90094180609333
 30
0.0
  0
ENDBLK
  5
831
330
82F
100
AcDbEntity
  8
0
100
AcDbBlockEnd
  0
BLOCK
  5
848
330
847
100
AcDbEntity
  8
0
100
AcDbBlockBegin
  2
*D51
 70
     1
 10
0.0
 20
0.0
 30
0.0
  3
*D51
  1
*D51
  0
LINE
  5
84A
330
847
100
AcDbEntity
  8
치수문자_일반주서
 62
     0
370
    -2
100
AcDbLine
 10
70.14130930719634
 20
4.762500000000017
 30
0.0
 11
83.72572409317794
 21
4.762500000000017
 31
0.0
  0
LINE
  5
84B
330
847
100
AcDbEntity
  8
치수문자_일반주서
 62
     0
370
    -2
100
AcDbLine
 10
70.1665
 20
-4.762499999999989
 30
0.0
 11
83.72572409317794
 21
-4.762499999999989
 31
0.0
  0
LINE
  5
84C
330
847
100
AcDbEntity
  8
치수문자_일반주서
 62
     0
370
    -2
100
AcDbLine
 10
83.72572409317794
 20
4.762500000000017
 30
0.0
 11
83.72572409317794
 21
34.99150000000003
 31
0.0
  0
LINE
  5
84D
330
847
100
AcDbEntity
  8
치수문자_일반주서
 62
     0
370
    -2
100
AcDbLine
 10
83.72572409317794
 20
4.762500000000017
 30
0.0
 11
83.72572409317794
 21
-4.762499999999989
 31
0.0
  0
LINE
  5
84E
330
847
100
AcDbEntity
  8
치수문자_일반주서
 62
     0
370
    -2
100
AcDbLine
 10
83.72572409317794
 20
8.064500000000017
 30
0.0
 11
83.72572409317794
 21
11.36650000000002
 31
0.0
  0
LINE
  5
84F
330
847
100
AcDbEntity
  8
치수문자_일반주서
 62
     0
370
    -2
100
AcDbLine
 10
83.72572409317794
 20
-8.064499999999988
 30
0.0
 11
83.72572409317794
 21
-11.36649999999999
 31
0.0
  0
SOLID
  5
850
330
847
100
AcDbEntity
  8
치수문자_일반주서
 62
     0
100
AcDbTrace
 10
83.17539075984462
 20
8.064500000000017
 30
0.0
 11
84.27605742651127
 21
8.064500000000017
 31
0.0
 12
83.72572409317794
 22
4.762500000000017
 32
0.0
 13
83.72572409317794
 23
4.762500000000017
 33
0.0
  0
SOLID
  5
851
330
847
100
AcDbEntity
  8
치수문자_일반주서
 62
     0
100
AcDbTrace
 10
84.27605742651127
 20
-8.064499999999988
 30
0.0
 11
83.17539075984462
 21
-8.064499999999988
 31
0.0
 12
83.72572409317794
 22
-4.762499999999989
 32
0.0
 13
83.72572409317794
 23
-4.762499999999989
 33
0.0
  0
MTEXT
  5
852
330
847
100
AcDbEntity
  8
치수문자_일반주서
 62
     0
100
AcDbMText
 10
81.10072409317794
 20
23.17900000000003
 30
0.0
 40
3.5
 41
0.0
 71
     5
 72
     1
  1
\A1;9.53 [3/8]
  7
SLDTEXTSTYLE0
 11
0.0
 21
1.0
 31
0.0
 73
     1
 44
1.0
  0
POINT
  5
853
330
847
100
AcDbEntity
  8
Defpoints
 62
     0
100
AcDbPoint
 10
70.07880930719634
 20
4.762500000000017
 30
0.0
  0
POINT
  5
854
330
847
100
AcDbEntity
  8
Defpoints
 62
     0
100
AcDbPoint
 10
70.104
 20
-4.762499999999989
 30
0.0
  0
POINT
  5
856
330
847
100
AcDbEntity
  8
Defpoints
 62
     0
100
AcDbPoint
 10
83.72572409317794
 20
-4.76249999999999
 30
0.0
  0
ENDBLK
  5
849
330
847
100
AcDbEntity
  8
0
100
AcDbBlockEnd
  0
BLOCK
  5
917
330
916
100
AcDbEntity
  8
0
100
AcDbBlockBegin
  2
*D52
 70
     1
 10
0.0
 20
0.0
 30
0.0
  3
*D52
  1
*D52
  0
LINE
  5
919
330
916
100
AcDbEntity
  8
치수문자_일반주서
 62
     0
370
    -2
100
AcDbLine
 10
120.2276020900092
 20
53.90530157272357
 30
0.0
 11
127.329496001893
 21
53.90530157272359
 31
0.0
  0
LINE
  5
91A
330
916
100
AcDbEntity
  8
치수문자_일반주서
 62
     0
370
    -2
100
AcDbLine
 10
120.2276020900092
 20
45.96780157272357
 30
0.0
 11
127.329496001893
 21
45.96780157272359
 31
0.0
  0
LINE
  5
91B
330
916
100
AcDbEntity
  8
치수문자_일반주서
 62
     0
370
    -2
100
AcDbLine
 10
127.329496001893
 20
57.20730157272359
 30
0.0
 11
127.329496001893
 21
60.50930157272359
 31
0.0
  0
LINE
  5
91C
330
916
100
AcDbEntity
  8
치수문자_일반주서
 62
     0
370
    -2
100
AcDbLine
 10
127.329496001893
 20
42.66580157272359
 30
0.0
 11
127.329496001893
 21
39.3638015727236
 31
0.0
  0
SOLID
  5
91D
330
916
100
AcDbEntity
  8
치수문자_일반주서
 62
     0
100
AcDbTrace
 10
126.7791626685596
 20
57.20730157272359
 30
0.0
 11
127.8798293352263
 21
57.20730157272359
 31
0.0
 12
127.329496001893
 22
53.90530157272359
 32
0.0
 13
127.329496001893
 23
53.90530157272359
 33
0.0
  0
SOLID
  5
91E
330
916
100
AcDbEntity
  8
치수문자_일반주서
 62
     0
100
AcDbTrace
 10
127.8798293352264
 20
42.66580157272359
 30
0.0
 11
126.7791626685597
 21
42.66580157272359
 31
0.0
 12
127.329496001893
 22
45.96780157272359
 32
0.0
 13
127.329496001893
 23
45.96780157272359
 33
0.0
  0
MTEXT
  5
91F
330
916
100
AcDbEntity
  8
치수문자_일반주서
 62
     0
100
AcDbMText
 10
122.954496001893
 20
49.93655157272354
 30
0.0
 40
3.5
 41
0.0
 71
     2
 72
     1
  1
\A1;%%c7.94 [0.31]
  7
SLDTEXTSTYLE0
 11
-3.580687802255623E-15
 21
1.0
 31
0.0
 73
     1
 44
1.0
  0
POINT
  5
920
330
916
100
AcDbEntity
  8
Defpoints
 62
     0
100
AcDbPoint
 10
120.1651020900092
 20
53.90530157272357
 30
0.0
  0
POINT
  5
921
330
916
100
AcDbEntity
  8
Defpoints
 62
     0
100
AcDbPoint
 10
120.1651020900092
 20
45.96780157272357
 30
0.0
  0
POINT
  5
922
330
916
100
AcDbEntity
  8
Defpoints
 62
     0
100
AcDbPoint
 10
127.329496001893
 20
45.96780157272359
 30
0.0
  0
ENDBLK
  5
918
330
916
100
AcDbEntity
  8
0
100
AcDbBlockEnd
  0
BLOCK
  5
924
330
923
100
AcDbEntity
  8
0
100
AcDbBlockBegin
  2
*D53
 70
     1
 10
0.0
 20
0.0
 30
0.0
  3
*D53
  1
*D53
  0
LINE
  5
926
330
923
100
AcDbEntity
  8
치수문자_일반주서
 62
     0
370
    -2
100
AcDbLine
 10
18.31270926586182
 20
53.90530157272356
 30
0.0
 11
4.565209265861761
 21
53.90530157272351
 31
0.0
  0
LINE
  5
927
330
923
100
AcDbEntity
  8
치수문자_일반주서
 62
     0
370
    -2
100
AcDbLine
 10
18.31270926586182
 20
45.96780157272354
 30
0.0
 11
4.565209265861789
 21
45.96780157272349
 31
0.0
  0
LINE
  5
928
330
923
100
AcDbEntity
  8
치수문자_일반주서
 62
     0
370
    -2
100
AcDbLine
 10
4.56520926586175
 20
57.20730157272351
 30
0.0
 11
4.565209265861738
 21
60.50930157272351
 31
0.0
  0
LINE
  5
929
330
923
100
AcDbEntity
  8
치수문자_일반주서
 62
     0
370
    -2
100
AcDbLine
 10
4.5652092658618
 20
42.6658015727235
 30
0.0
 11
4.565209265861812
 21
39.3638015727235
 31
0.0
  0
SOLID
  5
92A
330
923
100
AcDbEntity
  8
치수문자_일반주서
 62
     0
100
AcDbTrace
 10
4.014875932528416
 20
57.20730157272351
 30
0.0
 11
5.115542599195083
 21
57.20730157272351
 31
0.0
 12
4.565209265861761
 22
53.90530157272351
 32
0.0
 13
4.565209265861761
 23
53.90530157272351
 33
0.0
  0
SOLID
  5
92B
330
923
100
AcDbEntity
  8
치수문자_일반주서
 62
     0
100
AcDbTrace
 10
5.115542599195134
 20
42.6658015727235
 30
0.0
 11
4.014875932528467
 21
42.6658015727235
 31
0.0
 12
4.565209265861789
 22
45.96780157272349
 32
0.0
 13
4.565209265861789
 23
45.96780157272349
 33
0.0
  0
MTEXT
  5
92C
330
923
100
AcDbEntity
  8
치수문자_일반주서
 62
     0
100
AcDbMText
 10
0.1902092658617747
 20
49.93655157272354
 30
0.0
 40
3.5
 41
0.0
 71
     2
 72
     1
  1
\A1;%%c7.94 [0.31]
  7
SLDTEXTSTYLE0
 11
-3.468791308435129E-15
 21
1.0
 31
0.0
 73
     1
 44
1.0
  0
POINT
  5
92D
330
923
100
AcDbEntity
  8
Defpoints
 62
     0
100
AcDbPoint
 10
18.37520926586182
 20
53.90530157272356
 30
0.0
  0
POINT
  5
92E
330
923
100
AcDbEntity
  8
Defpoints
 62
     0
100
AcDbPoint
 10
18.37520926586182
 20
45.96780157272354
 30
0.0
  0
POINT
  5
92F
330
923
100
AcDbEntity
  8
Defpoints
 62
     0
100
AcDbPoint
 10
4.565209265861775
 20
45.96780157272349
 30
0.0
  0
ENDBLK
  5
925
330
923
100
AcDbEntity
  8
0
100
AcDbBlockEnd
  0
BLOCK
  5
931
330
930
100
AcDbEntity
  8
0
100
AcDbBlockBegin
  2
*D54
 70
     1
 10
0.0
 20
0.0
 30
0.0
  3
*D54
  1
*D54
  0
LINE
  5
933
330
930
100
AcDbEntity
  8
치수문자_일반주서
 62
     0
370
    -2
100
AcDbLine
 10
132.2242170218587
 20
50.13897309282354
 30
0.0
 11
132.2242170218587
 21
74.0412172767353
 31
0.0
  0
LINE
  5
934
330
930
100
AcDbEntity
  8
치수문자_일반주서
 62
     0
370
    -2
100
AcDbLine
 10
94.1452092658619
 20
51.75293304892288
 30
0.0
 11
94.1452092658619
 21
74.0412172767353
 31
0.0
  0
LINE
  5
935
330
930
100
AcDbEntity
  8
치수문자_일반주서
 62
     0
370
    -2
100
AcDbLine
 10
128.9222170218588
 20
74.0412172767353
 30
0.0
 11
97.4472092658619
 21
74.0412172767353
 31
0.0
  0
SOLID
  5
936
330
930
100
AcDbEntity
  8
치수문자_일반주서
 62
     0
100
AcDbTrace
 10
128.9222170218588
 20
73.49088394340197
 30
0.0
 11
128.9222170218588
 21
74.59155061006862
 31
0.0
 12
132.2242170218587
 22
74.0412172767353
 32
0.0
 13
132.2242170218587
 23
74.0412172767353
 33
0.0
  0
SOLID
  5
937
330
930
100
AcDbEntity
  8
치수문자_일반주서
 62
     0
100
AcDbTrace
 10
97.4472092658619
 20
74.59155061006862
 30
0.0
 11
97.4472092658619
 21
73.49088394340197
 31
0.0
 12
94.1452092658619
 22
74.0412172767353
 32
0.0
 13
94.1452092658619
 23
74.0412172767353
 33
0.0
  0
MTEXT
  5
938
330
930
100
AcDbEntity
  8
치수문자_일반주서
 62
     0
100
AcDbMText
 10
115.9325224404934
 20
78.4162172767353
 30
0.0
 40
3.5
 41
0.0
 71
     2
 72
     1
  1
\A1;38.08 [1.50]
  7
SLDTEXTSTYLE0
 73
     1
 44
1.0
  0
POINT
  5
939
330
930
100
AcDbEntity
  8
Defpoints
 62
     0
100
AcDbPoint
 10
132.2242170218587
 20
50.07647309282354
 30
0.0
  0
POINT
  5
93A
330
930
100
AcDbEntity
  8
Defpoints
 62
     0
100
AcDbPoint
 10
94.1452092658619
 20
51.69043304892288
 30
0.0
  0
POINT
  5
93B
330
930
100
AcDbEntity
  8
Defpoints
 62
     0
100
AcDbPoint
 10
94.1452092658619
 20
74.04121727673567
 30
0.0
  0
ENDBLK
  5
932
330
930
100
AcDbEntity
  8
0
100
AcDbBlockEnd
  0
BLOCK
  5
93D
330
93C
100
AcDbEntity
  8
0
100
AcDbBlockBegin
  2
*D55
 70
     1
 10
0.0
 20
0.0
 30
0.0
  3
*D55
  1
*D55
  0
LINE
  5
93F
330
93C
100
AcDbEntity
  8
치수문자_일반주서
 62
     0
370
    -2
100
AcDbLine
 10
132.2242170218587
 20
50.13897309282354
 30
0.0
 11
132.2242170218587
 21
92.04121727673538
 31
0.0
  0
LINE
  5
940
330
93C
100
AcDbEntity
  8
치수문자_일반주서
 62
     0
370
    -2
100
AcDbLine
 10
17.94520926586182
 20
53.53780157272356
 30
0.0
 11
17.94520926586182
 21
92.04121727673538
 31
0.0
  0
LINE
  5
941
330
93C
100
AcDbEntity
  8
치수문자_일반주서
 62
     0
370
    -2
100
AcDbLine
 10
128.9222170218588
 20
92.04121727673538
 30
0.0
 11
21.24720926586182
 21
92.04121727673538
 31
0.0
  0
SOLID
  5
942
330
93C
100
AcDbEntity
  8
치수문자_일반주서
 62
     0
100
AcDbTrace
 10
128.9222170218588
 20
91.49088394340205
 30
0.0
 11
128.9222170218588
 21
92.59155061006871
 31
0.0
 12
132.2242170218587
 22
92.04121727673538
 32
0.0
 13
132.2242170218587
 23
92.04121727673538
 33
0.0
  0
SOLID
  5
943
330
93C
100
AcDbEntity
  8
치수문자_일반주서
 62
     0
100
AcDbTrace
 10
21.24720926586182
 20
92.59155061006871
 30
0.0
 11
21.24720926586182
 21
91.49088394340205
 31
0.0
 12
17.94520926586182
 22
92.04121727673538
 32
0.0
 13
17.94520926586182
 23
92.04121727673538
 33
0.0
  0
MTEXT
  5
944
330
93C
100
AcDbEntity
  8
치수문자_일반주서
 62
     0
100
AcDbMText
 10
73.8886231098263
 20
96.41621727673538
 30
0.0
 40
3.5
 41
0.0
 71
     2
 72
     1
  1
\A1;114.28 [4.50]
  7
SLDTEXTSTYLE0
 73
     1
 44
1.0
  0
POINT
  5
945
330
93C
100
AcDbEntity
  8
Defpoints
 62
     0
100
AcDbPoint
 10
132.2242170218587
 20
50.07647309282354
 30
0.0
  0
POINT
  5
946
330
93C
100
AcDbEntity
  8
Defpoints
 62
     0
100
AcDbPoint
 10
17.94520926586182
 20
53.47530157272356
 30
0.0
  0
POINT
  5
947
330
93C
100
AcDbEntity
  8
Defpoints
 62
     0
100
AcDbPoint
 10
17.94520926586182
 20
92.04121727673538
 30
0.0
  0
ENDBLK
  5
93E
330
93C
100
AcDbEntity
  8
0
100
AcDbBlockEnd
  0
BLOCK
  5
949
330
948
100
AcDbEntity
  8
0
100
AcDbBlockBegin
  2
*D56
 70
     1
 10
0.0
 20
0.0
 30
0.0
  3
*D56
  1
*D56
  0
LINE
  5
94B
330
948
100
AcDbEntity
  8
치수문자_일반주서
 62
     0
370
    -2
100
AcDbLine
 10
132.2242170218587
 20
50.13897309282354
 30
0.0
 11
132.2242170218587
 21
86.04121727673535
 31
0.0
  0
LINE
  5
94C
330
948
100
AcDbEntity
  8
치수문자_일반주서
 62
     0
370
    -2
100
AcDbLine
 10
71.92020926586183
 20
53.72015157272357
 30
0.0
 11
71.92020926586183
 21
86.04121727673535
 31
0.0
  0
LINE
  5
94D
330
948
100
AcDbEntity
  8
치수문자_일반주서
 62
     0
370
    -2
100
AcDbLine
 10
128.9222170218588
 20
86.04121727673535
 30
0.0
 11
75.22220926586184
 21
86.04121727673535
 31
0.0
  0
SOLID
  5
94E
330
948
100
AcDbEntity
  8
치수문자_일반주서
 62
     0
100
AcDbTrace
 10
128.9222170218588
 20
85.49088394340203
 30
0.0
 11
128.9222170218588
 21
86.59155061006868
 31
0.0
 12
132.2242170218587
 22
86.04121727673535
 32
0.0
 13
132.2242170218587
 23
86.04121727673535
 33
0.0
  0
SOLID
  5
94F
330
948
100
AcDbEntity
  8
치수문자_일반주서
 62
     0
100
AcDbTrace
 10
75.22220926586184
 20
86.59155061006868
 30
0.0
 11
75.22220926586184
 21
85.49088394340203
 31
0.0
 12
71.92020926586183
 22
86.04121727673535
 32
0.0
 13
71.92020926586183
 23
86.04121727673535
 33
0.0
  0
MTEXT
  5
950
330
948
100
AcDbEntity
  8
치수문자_일반주서
 62
     0
100
AcDbMText
 10
102.0722131438603
 20
90.41621727673535
 30
0.0
 40
3.5
 41
0.0
 71
     2
 72
     1
  1
\A1;60.30
  7
SLDTEXTSTYLE0
 73
     1
 44
1.0
  0
POINT
  5
951
330
948
100
AcDbEntity
  8
Defpoints
 62
     0
100
AcDbPoint
 10
132.2242170218587
 20
50.07647309282354
 30
0.0
  0
POINT
  5
952
330
948
100
AcDbEntity
  8
Defpoints
 62
     0
100
AcDbPoint
 10
71.92020926586183
 20
53.65765157272357
 30
0.0
  0
POINT
  5
953
330
948
100
AcDbEntity
  8
Defpoints
 62
     0
100
AcDbPoint
 10
71.92020926586183
 20
86.04121727673535
 30
0.0
  0
ENDBLK
  5
94A
330
948
100
AcDbEntity
  8
0
100
AcDbBlockEnd
  0
BLOCK
  5
996
330
995
100
AcDbEntity
  8
0
100
AcDbBlockBegin
  2
*D57
 70
     1
 10
0.0
 20
0.0
 30
0.0
  3
*D57
  1
*D57
  0
LINE
  5
998
330
995
100
AcDbEntity
  8
치수문자_일반주서
 62
     0
370
    -2
100
AcDbLine
 10
115.2272767276555
 20
152.3911842119234
 30
0.0
 11
122.3291706395393
 21
152.3911842119234
 31
0.0
  0
LINE
  5
999
330
995
100
AcDbEntity
  8
치수문자_일반주서
 62
     0
370
    -2
100
AcDbLine
 10
115.2272767276555
 20
144.4536842119234
 30
0.0
 11
122.3291706395393
 21
144.4536842119234
 31
0.0
  0
LINE
  5
99A
330
995
100
AcDbEntity
  8
치수문자_일반주서
 62
     0
370
    -2
100
AcDbLine
 10
122.3291706395393
 20
155.6931842119234
 30
0.0
 11
122.3291706395393
 21
158.9951842119234
 31
0.0
  0
LINE
  5
99B
330
995
100
AcDbEntity
  8
치수문자_일반주서
 62
     0
370
    -2
100
AcDbLine
 10
122.3291706395393
 20
141.1516842119235
 30
0.0
 11
122.3291706395394
 21
137.8496842119235
 31
0.0
  0
SOLID
  5
99C
330
995
100
AcDbEntity
  8
치수문자_일반주서
 62
     0
100
AcDbTrace
 10
121.778837306206
 20
155.6931842119234
 30
0.0
 11
122.8795039728726
 21
155.6931842119234
 31
0.0
 12
122.3291706395393
 22
152.3911842119234
 32
0.0
 13
122.3291706395393
 23
152.3911842119234
 33
0.0
  0
SOLID
  5
99D
330
995
100
AcDbEntity
  8
치수문자_일반주서
 62
     0
100
AcDbTrace
 10
122.8795039728727
 20
141.1516842119235
 30
0.0
 11
121.778837306206
 21
141.1516842119235
 31
0.0
 12
122.3291706395393
 22
144.4536842119234
 32
0.0
 13
122.3291706395393
 23
144.4536842119234
 33
0.0
  0
MTEXT
  5
99E
330
995
100
AcDbEntity
  8
치수문자_일반주서
 62
     0
100
AcDbMText
 10
117.9541706395393
 20
148.4224342119234
 30
0.0
 40
3.5
 41
0.0
 71
     2
 72
     1
  1
\A1;%%c7.94 [0.31]
  7
SLDTEXTSTYLE0
 11
-3.580687802255623E-15
 21
1.0
 31
0.0
 73
     1
 44
1.0
  0
POINT
  5
99F
330
995
100
AcDbEntity
  8
Defpoints
 62
     0
100
AcDbPoint
 10
115.1647767276555
 20
152.3911842119234
 30
0.0
  0
POINT
  5
9A0
330
995
100
AcDbEntity
  8
Defpoints
 62
     0
100
AcDbPoint
 10
115.1647767276555
 20
144.4536842119234
 30
0.0
  0
POINT
  5
9A1
330
995
100
AcDbEntity
  8
Defpoints
 62
     0
100
AcDbPoint
 10
122.3291706395393
 20
144.4536842119234
 30
0.0
  0
ENDBLK
  5
997
330
995
100
AcDbEntity
  8
0
100
AcDbBlockEnd
  0
BLOCK
  5
9A3
330
9A2
100
AcDbEntity
  8
0
100
AcDbBlockBegin
  2
*D58
 70
     1
 10
0.0
 20
0.0
 30
0.0
  3
*D58
  1
*D58
  0
LINE
  5
9A5
330
9A2
100
AcDbEntity
  8
치수문자_일반주서
 62
     0
370
    -2
100
AcDbLine
 10
-53.35985
 20
3.96875
 30
0.0
 11
-66.86250457341413
 21
3.96874999999995
 31
0.0
  0
LINE
  5
9A6
330
9A2
100
AcDbEntity
  8
치수문자_일반주서
 62
     0
370
    -2
100
AcDbLine
 10
-53.35985
 20
-3.968750000000029
 30
0.0
 11
-66.8625045734141
 21
-3.968750000000078
 31
0.0
  0
LINE
  5
9A7
330
9A2
100
AcDbEntity
  8
치수문자_일반주서
 62
     0
370
    -2
100
AcDbLine
 10
-66.86250457341413
 20
3.96874999999995
 30
0.0
 11
-66.86250457341426
 21
38.57274999999995
 31
0.0
  0
LINE
  5
9A8
330
9A2
100
AcDbEntity
  8
치수문자_일반주서
 62
     0
370
    -2
100
AcDbLine
 10
-66.86250457341414
 20
7.27074999999995
 30
0.0
 11
-66.86250457341416
 21
10.57274999999995
 31
0.0
  0
LINE
  5
9A9
330
9A2
100
AcDbEntity
  8
치수문자_일반주서
 62
     0
370
    -2
100
AcDbLine
 10
-66.86250457341409
 20
-7.270750000000078
 30
0.0
 11
-66.86250457341407
 21
-10.57275000000008
 31
0.0
  0
SOLID
  5
9AA
330
9A2
100
AcDbEntity
  8
치수문자_일반주서
 62
     0
100
AcDbTrace
 10
-67.41283790674747
 20
7.270749999999948
 30
0.0
 11
-66.31217124008081
 21
7.270749999999952
 31
0.0
 12
-66.86250457341413
 22
3.96874999999995
 32
0.0
 13
-66.86250457341413
 23
3.96874999999995
 33
0.0
  0
SOLID
  5
9AB
330
9A2
100
AcDbEntity
  8
치수문자_일반주서
 62
     0
100
AcDbTrace
 10
-66.31217124008076
 20
-7.270750000000076
 30
0.0
 11
-67.41283790674741
 21
-7.27075000000008
 31
0.0
 12
-66.8625045734141
 22
-3.968750000000078
 32
0.0
 13
-66.8625045734141
 23
-3.968750000000078
 33
0.0
  0
MTEXT
  5
9AC
330
9A2
100
AcDbEntity
  8
치수문자_일반주서
 62
     0
100
AcDbMText
 10
-71.2375045734142
 20
24.57274999999993
 30
0.0
 40
3.5
 41
0.0
 71
     2
 72
     1
  1
\A1;%%c7.94 [5/16]
  7
SLDTEXTSTYLE0
 11
-3.580687802255610E-15
 21
1.0
 31
0.0
 73
     1
 44
1.0
  0
POINT
  5
9AD
330
9A2
100
AcDbEntity
  8
Defpoints
 62
     0
100
AcDbPoint
 10
-53.29735
 20
3.96875
 30
0.0
  0
POINT
  5
9AE
330
9A2
100
AcDbEntity
  8
Defpoints
 62
     0
100
AcDbPoint
 10
-53.29735
 20
-3.968750000000028
 30
0.0
  0
POINT
  5
9EE
330
9A2
100
AcDbEntity
  8
Defpoints
 62
     0
100
AcDbPoint
 10
-66.8625045734141
 20
-3.968750000000079
 30
0.0
  0
ENDBLK
  5
9A4
330
9A2
100
AcDbEntity
  8
0
100
AcDbBlockEnd
  0
BLOCK
  5
9B0
330
9AF
100
AcDbEntity
  8
0
100
AcDbBlockBegin
  2
*D59
 70
     1
 10
0.0
 20
0.0
 30
0.0
  3
*D59
  1
*D59
  0
LINE
  5
9B2
330
9AF
100
AcDbEntity
  8
치수문자_일반주서
 62
     0
370
    -2
100
AcDbLine
 10
60.57265000000001
 20
4.03125
 30
0.0
 11
60.57265000000001
 21
24.10466570401172
 31
0.0
  0
LINE
  5
9B3
330
9AF
100
AcDbEntity
  8
치수문자_일반주서
 62
     0
370
    -2
100
AcDbLine
 10
22.47265000000007
 20
1.816381476199297
 30
0.0
 11
22.47265000000007
 21
24.10466570401172
 31
0.0
  0
LINE
  5
9B4
330
9AF
100
AcDbEntity
  8
치수문자_일반주서
 62
     0
370
    -2
100
AcDbLine
 10
57.27065000000001
 20
24.10466570401172
 30
0.0
 11
25.77465000000007
 21
24.10466570401172
 31
0.0
  0
SOLID
  5
9B5
330
9AF
100
AcDbEntity
  8
치수문자_일반주서
 62
     0
100
AcDbTrace
 10
57.27065000000001
 20
23.55433237067839
 30
0.0
 11
57.27065000000001
 21
24.65499903734506
 31
0.0
 12
60.57265000000001
 22
24.10466570401172
 32
0.0
 13
60.57265000000001
 23
24.10466570401172
 33
0.0
  0
SOLID
  5
9B6
330
9AF
100
AcDbEntity
  8
치수문자_일반주서
 62
     0
100
AcDbTrace
 10
25.77465000000007
 20
24.65499903734506
 30
0.0
 11
25.77465000000007
 21
23.55433237067839
 31
0.0
 12
22.47265000000007
 22
24.10466570401172
 32
0.0
 13
22.47265000000007
 23
24.10466570401172
 33
0.0
  0
MTEXT
  5
9B7
330
9AF
100
AcDbEntity
  8
치수문자_일반주서
 62
     0
100
AcDbMText
 10
44.25996317463155
 20
28.47966570401172
 30
0.0
 40
3.5
 41
0.0
 71
     2
 72
     1
  1
\A1;38.1 [1 1/2]
  7
SLDTEXTSTYLE0
 73
     1
 44
1.0
  0
POINT
  5
9B8
330
9AF
100
AcDbEntity
  8
Defpoints
 62
     0
100
AcDbPoint
 10
60.57265000000001
 20
3.96875
 30
0.0
  0
POINT
  5
9B9
330
9AF
100
AcDbEntity
  8
Defpoints
 62
     0
100
AcDbPoint
 10
22.47265000000007
 20
1.753881476199297
 30
0.0
  0
POINT
  5
9BA
330
9AF
100
AcDbEntity
  8
Defpoints
 62
     0
100
AcDbPoint
 10
22.47265000000007
 20
24.10466570401172
 30
0.0
  0
ENDBLK
  5
9B1
330
9AF
100
AcDbEntity
  8
0
100
AcDbBlockEnd
  0
BLOCK
  5
9BC
330
9BB
100
AcDbEntity
  8
0
100
AcDbBlockBegin
  2
*D60
 70
     1
 10
0.0
 20
0.0
 30
0.0
  3
*D60
  1
*D60
  0
LINE
  5
9BE
330
9BB
100
AcDbEntity
  8
치수문자_일반주서
 62
     0
370
    -2
100
AcDbLine
 10
60.57265000000001
 20
4.03125
 30
0.0
 11
60.57265000000001
 21
47.38256920034925
 31
0.0
  0
LINE
  5
9BF
330
9BB
100
AcDbEntity
  8
치수문자_일반주서
 62
     0
370
    -2
100
AcDbLine
 10
-53.72735
 20
3.601249999999993
 30
0.0
 11
-53.72735
 21
47.38256920034925
 31
0.0
  0
LINE
  5
9C0
330
9BB
100
AcDbEntity
  8
치수문자_일반주서
 62
     0
370
    -2
100
AcDbLine
 10
57.27065000000001
 20
47.38256920034925
 30
0.0
 11
-50.42535
 21
47.38256920034925
 31
0.0
  0
SOLID
  5
9C1
330
9BB
100
AcDbEntity
  8
치수문자_일반주서
 62
     0
100
AcDbTrace
 10
57.27065000000001
 20
46.83223586701592
 30
0.0
 11
57.27065000000001
 21
47.93290253368259
 31
0.0
 12
60.57265000000001
 22
47.38256920034925
 32
0.0
 13
60.57265000000001
 23
47.38256920034925
 33
0.0
  0
SOLID
  5
9C2
330
9BB
100
AcDbEntity
  8
치수문자_일반주서
 62
     0
100
AcDbTrace
 10
-50.42535
 20
47.93290253368259
 30
0.0
 11
-50.42535
 21
46.83223586701592
 31
0.0
 12
-53.72735
 22
47.38256920034925
 32
0.0
 13
-53.72735
 23
47.38256920034925
 33
0.0
  0
MTEXT
  5
9C3
330
9BB
100
AcDbEntity
  8
치수문자_일반주서
 62
     0
100
AcDbMText
 10
1.699071837663368
 20
51.75756920034925
 30
0.0
 40
3.5
 41
0.0
 71
     2
 72
     1
  1
\A1;114.3 [4 1/2]
  7
SLDTEXTSTYLE0
 73
     1
 44
1.0
  0
POINT
  5
9C4
330
9BB
100
AcDbEntity
  8
Defpoints
 62
     0
100
AcDbPoint
 10
60.57265000000001
 20
3.96875
 30
0.0
  0
POINT
  5
9C5
330
9BB
100
AcDbEntity
  8
Defpoints
 62
     0
100
AcDbPoint
 10
-53.72735
 20
3.538749999999993
 30
0.0
  0
POINT
  5
9C6
330
9BB
100
AcDbEntity
  8
Defpoints
 62
     0
100
AcDbPoint
 10
-53.72735
 20
47.38256920034925
 30
0.0
  0
ENDBLK
  5
9BD
330
9BB
100
AcDbEntity
  8
0
100
AcDbBlockEnd
  0
BLOCK
  5
9C8
330
9C7
100
AcDbEntity
  8
0
100
AcDbBlockBegin
  2
*D61
 70
     1
 10
0.0
 20
0.0
 30
0.0
  3
*D61
  1
*D61
  0
LINE
  5
9CA
330
9C7
100
AcDbEntity
  8
치수문자_일반주서
 62
     0
370
    -2
100
AcDbLine
 10
60.57265000000001
 20
4.03125
 30
0.0
 11
60.57265000000001
 21
36.10466570401178
 31
0.0
  0
LINE
  5
9CB
330
9C7
100
AcDbEntity
  8
치수문자_일반주서
 62
     0
370
    -2
100
AcDbLine
 10
0.2476500000000073
 20
3.783599999999979
 30
0.0
 11
0.2476500000000073
 21
36.10466570401178
 31
0.0
  0
LINE
  5
9CC
330
9C7
100
AcDbEntity
  8
치수문자_일반주서
 62
     0
370
    -2
100
AcDbLine
 10
57.27065000000001
 20
36.10466570401178
 30
0.0
 11
3.549650000000007
 21
36.10466570401178
 31
0.0
  0
SOLID
  5
9CD
330
9C7
100
AcDbEntity
  8
치수문자_일반주서
 62
     0
100
AcDbTrace
 10
57.27065000000001
 20
35.55433237067844
 30
0.0
 11
57.27065000000001
 21
36.65499903734511
 31
0.0
 12
60.57265000000001
 22
36.10466570401178
 32
0.0
 13
60.57265000000001
 23
36.10466570401178
 33
0.0
  0
SOLID
  5
9CE
330
9C7
100
AcDbEntity
  8
치수문자_일반주서
 62
     0
100
AcDbTrace
 10
3.549650000000007
 20
36.65499903734511
 30
0.0
 11
3.549650000000007
 21
35.55433237067844
 31
0.0
 12
0.2476500000000073
 22
36.10466570401178
 32
0.0
 13
0.2476500000000073
 23
36.10466570401178
 33
0.0
  0
MTEXT
  5
9CF
330
9C7
100
AcDbEntity
  8
치수문자_일반주서
 62
     0
100
AcDbMText
 10
30.39965387799847
 20
40.47966570401178
 30
0.0
 40
3.5
 41
0.0
 71
     2
 72
     1
  1
\A1;60.33 [2 3/8]
  7
SLDTEXTSTYLE0
 73
     1
 44
1.0
  0
POINT
  5
9D0
330
9C7
100
AcDbEntity
  8
Defpoints
 62
     0
100
AcDbPoint
 10
60.57265000000001
 20
3.96875
 30
0.0
  0
POINT
  5
9D1
330
9C7
100
AcDbEntity
  8
Defpoints
 62
     0
100
AcDbPoint
 10
0.2476500000000073
 20
3.721099999999979
 30
0.0
  0
POINT
  5
9D2
330
9C7
100
AcDbEntity
  8
Defpoints
 62
     0
100
AcDbPoint
 10
0.2476500000000073
 20
36.10466570401178
 30
0.0
  0
ENDBLK
  5
9C9
330
9C7
100
AcDbEntity
  8
0
100
AcDbBlockEnd
  0
BLOCK
  5
9E0
330
9DF
100
AcDbEntity
  8
0
100
AcDbBlockBegin
  2
*D62
 70
     1
 10
0.0
 20
0.0
 30
0.0
  3
*D62
  1
*D62
  0
LINE
  5
9E2
330
9DF
100
AcDbEntity
  8
치수문자_일반주서
 62
     0
370
    -2
100
AcDbLine
 10
60.63515000000001
 20
-3.96875
 30
0.0
 11
74.89381989672455
 21
-3.968750000000001
 31
0.0
  0
LINE
  5
9E3
330
9DF
100
AcDbEntity
  8
치수문자_일반주서
 62
     0
370
    -2
100
AcDbLine
 10
60.63515000000001
 20
3.96875
 30
0.0
 11
74.89381989672455
 21
3.968749999999999
 31
0.0
  0
LINE
  5
9E4
330
9DF
100
AcDbEntity
  8
치수문자_일반주서
 62
     0
370
    -2
100
AcDbLine
 10
74.89381989672455
 20
-3.968750000000001
 30
0.0
 11
74.89381989672455
 21
38.57275
 31
0.0
  0
LINE
  5
9E5
330
9DF
100
AcDbEntity
  8
치수문자_일반주서
 62
     0
370
    -2
100
AcDbLine
 10
74.89381989672455
 20
-3.968750000000001
 30
0.0
 11
74.89381989672455
 21
3.968749999999999
 31
0.0
  0
LINE
  5
9E6
330
9DF
100
AcDbEntity
  8
치수문자_일반주서
 62
     0
370
    -2
100
AcDbLine
 10
74.89381989672455
 20
-7.270750000000001
 30
0.0
 11
74.89381989672455
 21
-10.57275
 31
0.0
  0
SOLID
  5
9E7
330
9DF
100
AcDbEntity
  8
치수문자_일반주서
 62
     0
100
AcDbTrace
 10
75.44415323005788
 20
-7.270750000000001
 30
0.0
 11
74.34348656339122
 21
-7.270750000000001
 31
0.0
 12
74.89381989672455
 22
-3.968750000000001
 32
0.0
 13
74.89381989672455
 23
-3.968750000000001
 33
0.0
  0
SOLID
  5
9E8
330
9DF
100
AcDbEntity
  8
치수문자_일반주서
 62
     0
100
AcDbTrace
 10
74.34348656339122
 20
7.27075
 30
0.0
 11
75.44415323005788
 21
7.27075
 31
0.0
 12
74.89381989672455
 22
3.968749999999999
 32
0.0
 13
74.89381989672455
 23
3.968749999999999
 33
0.0
  0
MTEXT
  5
9E9
330
9DF
100
AcDbEntity
  8
치수문자_일반주서
 62
     0
100
AcDbMText
 10
72.26881989672455
 20
24.57275
 30
0.0
 40
3.5
 41
0.0
 71
     5
 72
     1
  1
\A1;{%%c7.94 [5/16]}
  7
SLDTEXTSTYLE0
 11
0.0
 21
1.0
 31
0.0
 73
     1
 44
1.0
  0
POINT
  5
9EA
330
9DF
100
AcDbEntity
  8
Defpoints
 62
     0
100
AcDbPoint
 10
60.57265000000001
 20
-3.96875
 30
0.0
  0
POINT
  5
9EB
330
9DF
100
AcDbEntity
  8
Defpoints
 62
     0
100
AcDbPoint
 10
60.57265000000001
 20
3.96875
 30
0.0
  0
POINT
  5
9EC
330
9DF
100
AcDbEntity
  8
Defpoints
 62
     0
100
AcDbPoint
 10
74.89381989672455
 20
3.968749999999999
 30
0.0
  0
ENDBLK
  5
9E1
330
9DF
100
AcDbEntity
  8
0
100
AcDbBlockEnd
  0
BLOCK
  5
AB1
330
AB0
100
AcDbEntity
  8
0
100
AcDbBlockBegin
  2
*D63
 70
     1
 10
0.0
 20
0.0
 30
0.0
  3
*D63
  1
*D63
  0
LINE
  5
AB3
330
AB0
100
AcDbEntity
  8
치수문자_일반주서
 62
     0
370
    -2
100
AcDbLine
 10
95.60570707300894
 20
51.52405157272356
 30
0.0
 11
130.384496001893
 21
51.52405157272369
 31
0.0
  0
LINE
  5
AB4
330
AB0
100
AcDbEntity
  8
치수문자_일반주서
 62
     0
370
    -2
100
AcDbLine
 10
95.60570707300894
 20
48.34905157272357
 30
0.0
 11
130.384496001893
 21
48.3490515727237
 31
0.0
  0
LINE
  5
AB5
330
AB0
100
AcDbEntity
  8
치수문자_일반주서
 62
     0
370
    -2
100
AcDbLine
 10
130.384496001893
 20
54.82605157272369
 30
0.0
 11
130.384496001893
 21
58.12805157272369
 31
0.0
  0
LINE
  5
AB6
330
AB0
100
AcDbEntity
  8
치수문자_일반주서
 62
     0
370
    -2
100
AcDbLine
 10
130.384496001893
 20
45.0470515727237
 30
0.0
 11
130.384496001893
 21
41.7450515727237
 31
0.0
  0
SOLID
  5
AB7
330
AB0
100
AcDbEntity
  8
치수문자_일반주서
 62
     0
100
AcDbTrace
 10
129.8341626685597
 20
54.82605157272369
 30
0.0
 11
130.9348293352263
 21
54.82605157272369
 31
0.0
 12
130.384496001893
 22
51.52405157272369
 32
0.0
 13
130.384496001893
 23
51.52405157272369
 33
0.0
  0
SOLID
  5
AB8
330
AB0
100
AcDbEntity
  8
치수문자_일반주서
 62
     0
100
AcDbTrace
 10
130.9348293352263
 20
45.0470515727237
 30
0.0
 11
129.8341626685597
 21
45.0470515727237
 31
0.0
 12
130.384496001893
 22
48.3490515727237
 32
0.0
 13
130.384496001893
 23
48.3490515727237
 33
0.0
  0
MTEXT
  5
AB9
330
AB0
100
AcDbEntity
  8
치수문자_일반주서
 62
     0
100
AcDbMText
 10
126.009496001893
 20
49.93655157272356
 30
0.0
 40
3.5
 41
0.0
 71
     2
 72
     1
  1
\A1;%%c3.18 [0.13]
  7
SLDTEXTSTYLE0
 11
0.0
 21
1.0
 31
0.0
 73
     1
 44
1.0
  0
POINT
  5
ABA
330
AB0
100
AcDbEntity
  8
Defpoints
 62
     0
100
AcDbPoint
 10
95.54320707300894
 20
51.52405157272356
 30
0.0
  0
POINT
  5
ABB
330
AB0
100
AcDbEntity
  8
Defpoints
 62
     0
100
AcDbPoint
 10
95.54320707300894
 20
48.34905157272357
 30
0.0
  0
POINT
  5
ABC
330
AB0
100
AcDbEntity
  8
Defpoints
 62
     0
100
AcDbPoint
 10
130.384496001893
 20
48.3490515727237
 30
0.0
  0
ENDBLK
  5
AB2
330
AB0
100
AcDbEntity
  8
0
100
AcDbBlockEnd
  0
BLOCK
  5
ABE
330
ABD
100
AcDbEntity
  8
0
100
AcDbBlockBegin
  2
*D64
 70
     1
 10
0.0
 20
0.0
 30
0.0
  3
*D64
  1
*D64
  0
LINE
  5
AC0
330
ABD
100
AcDbEntity
  8
치수문자_일반주서
 62
     0
370
    -2
100
AcDbLine
 10
18.31270926586182
 20
51.52405157272356
 30
0.0
 11
4.565209265861776
 21
51.52405157272351
 31
0.0
  0
LINE
  5
AC1
330
ABD
100
AcDbEntity
  8
치수문자_일반주서
 62
     0
370
    -2
100
AcDbLine
 10
18.31270926586182
 20
48.34905157272355
 30
0.0
 11
4.565209265861787
 21
48.3490515727235
 31
0.0
  0
LINE
  5
AC2
330
ABD
100
AcDbEntity
  8
치수문자_일반주서
 62
     0
370
    -2
100
AcDbLine
 10
4.565209265861766
 20
54.82605157272351
 30
0.0
 11
4.565209265861755
 21
58.12805157272351
 31
0.0
  0
LINE
  5
AC3
330
ABD
100
AcDbEntity
  8
치수문자_일반주서
 62
     0
370
    -2
100
AcDbLine
 10
4.565209265861798
 20
45.0470515727235
 30
0.0
 11
4.565209265861808
 21
41.7450515727235
 31
0.0
  0
SOLID
  5
AC4
330
ABD
100
AcDbEntity
  8
치수문자_일반주서
 62
     0
100
AcDbTrace
 10
4.014875932528432
 20
54.82605157272351
 30
0.0
 11
5.115542599195099
 21
54.82605157272351
 31
0.0
 12
4.565209265861776
 22
51.52405157272351
 32
0.0
 13
4.565209265861776
 23
51.52405157272351
 33
0.0
  0
SOLID
  5
AC5
330
ABD
100
AcDbEntity
  8
치수문자_일반주서
 62
     0
100
AcDbTrace
 10
5.115542599195131
 20
45.0470515727235
 30
0.0
 11
4.014875932528464
 21
45.0470515727235
 31
0.0
 12
4.565209265861787
 22
48.3490515727235
 32
0.0
 13
4.565209265861787
 23
48.3490515727235
 33
0.0
  0
MTEXT
  5
AC6
330
ABD
100
AcDbEntity
  8
치수문자_일반주서
 62
     0
100
AcDbMText
 10
0.1902092658617818
 20
49.93655157272354
 30
0.0
 40
3.5
 41
0.0
 71
     2
 72
     1
  1
\A1;%%c3.18 [0.13]
  7
SLDTEXTSTYLE0
 11
-3.356894814614635E-15
 21
1.0
 31
0.0
 73
     1
 44
1.0
  0
POINT
  5
AC7
330
ABD
100
AcDbEntity
  8
Defpoints
 62
     0
100
AcDbPoint
 10
18.37520926586182
 20
51.52405157272356
 30
0.0
  0
POINT
  5
AC8
330
ABD
100
AcDbEntity
  8
Defpoints
 62
     0
100
AcDbPoint
 10
18.37520926586182
 20
48.34905157272355
 30
0.0
  0
POINT
  5
AC9
330
ABD
100
AcDbEntity
  8
Defpoints
 62
     0
100
AcDbPoint
 10
4.565209265861782
 20
48.3490515727235
 30
0.0
  0
ENDBLK
  5
ABF
330
ABD
100
AcDbEntity
  8
0
100
AcDbBlockEnd
  0
BLOCK
  5
ACB
330
ACA
100
AcDbEntity
  8
0
100
AcDbBlockBegin
  2
*D65
 70
     1
 10
0.0
 20
0.0
 30
0.0
  3
*D65
  1
*D65
  0
LINE
  5
ACD
330
ACA
100
AcDbEntity
  8
치수문자_일반주서
 62
     0
370
    -2
100
AcDbLine
 10
100.3668123682606
 20
50.05502018076356
 30
0.0
 11
100.3668123682606
 21
73.95726436467505
 31
0.0
  0
LINE
  5
ACE
330
ACA
100
AcDbEntity
  8
치수문자_일반주서
 62
     0
370
    -2
100
AcDbLine
 10
84.5002092658618
 20
50.80086026878928
 30
0.0
 11
84.5002092658618
 21
73.95726436467505
 31
0.0
  0
LINE
  5
ACF
330
ACA
100
AcDbEntity
  8
치수문자_일반주서
 62
     0
370
    -2
100
AcDbLine
 10
97.06481236826058
 20
73.95726436467505
 30
0.0
 11
87.8022092658618
 21
73.95726436467505
 31
0.0
  0
SOLID
  5
AD0
330
ACA
100
AcDbEntity
  8
치수문자_일반주서
 62
     0
100
AcDbTrace
 10
97.06481236826058
 20
73.40693103134173
 30
0.0
 11
97.06481236826058
 21
74.50759769800838
 31
0.0
 12
100.3668123682606
 22
73.95726436467505
 32
0.0
 13
100.3668123682606
 23
73.95726436467505
 33
0.0
  0
SOLID
  5
AD1
330
ACA
100
AcDbEntity
  8
치수문자_일반주서
 62
     0
100
AcDbTrace
 10
87.8022092658618
 20
74.50759769800838
 30
0.0
 11
87.8022092658618
 21
73.40693103134173
 31
0.0
 12
84.5002092658618
 22
73.95726436467505
 32
0.0
 13
84.5002092658618
 23
73.95726436467505
 33
0.0
  0
MTEXT
  5
AD2
330
ACA
100
AcDbEntity
  8
치수문자_일반주서
 62
     0
100
AcDbMText
 10
93.57845660425508
 20
78.33226436467505
 30
0.0
 40
3.5
 41
0.0
 71
     2
 72
     1
  1
\A1;15.87 [0.62]
  7
SLDTEXTSTYLE0
 73
     1
 44
1.0
  0
POINT
  5
AD3
330
ACA
100
AcDbEntity
  8
Defpoints
 62
     0
100
AcDbPoint
 10
100.3668123682606
 20
49.99252018076356
 30
0.0
  0
POINT
  5
AD4
330
ACA
100
AcDbEntity
  8
Defpoints
 62
     0
100
AcDbPoint
 10
84.5002092658618
 20
50.73836026878928
 30
0.0
  0
POINT
  5
AD5
330
ACA
100
AcDbEntity
  8
Defpoints
 62
     0
100
AcDbPoint
 10
84.5002092658618
 20
73.95726436467505
 30
0.0
  0
ENDBLK
  5
ACC
330
ACA
100
AcDbEntity
  8
0
100
AcDbBlockEnd
  0
BLOCK
  5
AD7
330
AD6
100
AcDbEntity
  8
0
100
AcDbBlockBegin
  2
*D66
 70
     1
 10
0.0
 20
0.0
 30
0.0
  3
*D66
  1
*D66
  0
LINE
  5
AD9
330
AD6
100
AcDbEntity
  8
치수문자_일반주서
 62
     0
370
    -2
100
AcDbLine
 10
100.3668123682606
 20
50.05502018076356
 30
0.0
 11
100.3668123682606
 21
91.95726436467541
 31
0.0
  0
LINE
  5
ADA
330
AD6
100
AcDbEntity
  8
치수문자_일반주서
 62
     0
370
    -2
100
AcDbLine
 10
17.82520926586182
 20
51.03655157272355
 30
0.0
 11
17.82520926586182
 21
91.95726436467541
 31
0.0
  0
LINE
  5
ADB
330
AD6
100
AcDbEntity
  8
치수문자_일반주서
 62
     0
370
    -2
100
AcDbLine
 10
97.06481236826058
 20
91.95726436467541
 30
0.0
 11
21.12720926586181
 21
91.95726436467541
 31
0.0
  0
SOLID
  5
ADC
330
AD6
100
AcDbEntity
  8
치수문자_일반주서
 62
     0
100
AcDbTrace
 10
97.06481236826058
 20
91.40693103134208
 30
0.0
 11
97.06481236826058
 21
92.50759769800874
 31
0.0
 12
100.3668123682606
 22
91.95726436467541
 32
0.0
 13
100.3668123682606
 23
91.95726436467541
 33
0.0
  0
SOLID
  5
ADD
330
AD6
100
AcDbEntity
  8
치수문자_일반주서
 62
     0
100
AcDbTrace
 10
21.12720926586181
 20
92.50759769800874
 30
0.0
 11
21.12720926586181
 21
91.40693103134208
 31
0.0
 12
17.82520926586182
 22
91.95726436467541
 32
0.0
 13
17.82520926586182
 23
91.95726436467541
 33
0.0
  0
MTEXT
  5
ADE
330
AD6
100
AcDbEntity
  8
치수문자_일반주서
 62
     0
100
AcDbMText
 10
58.23209721820702
 20
96.33226436467541
 30
0.0
 40
3.5
 41
0.0
 71
     2
 72
     1
  1
\A1;82.54 [3.25]
  7
SLDTEXTSTYLE0
 73
     1
 44
1.0
  0
POINT
  5
ADF
330
AD6
100
AcDbEntity
  8
Defpoints
 62
     0
100
AcDbPoint
 10
100.3668123682606
 20
49.99252018076356
 30
0.0
  0
POINT
  5
AE0
330
AD6
100
AcDbEntity
  8
Defpoints
 62
     0
100
AcDbPoint
 10
17.82520926586182
 20
50.97405157272355
 30
0.0
  0
POINT
  5
AE1
330
AD6
100
AcDbEntity
  8
Defpoints
 62
     0
100
AcDbPoint
 10
17.82520926586182
 20
91.95726436467541
 30
0.0
  0
ENDBLK
  5
AD8
330
AD6
100
AcDbEntity
  8
0
100
AcDbBlockEnd
  0
BLOCK
  5
AE3
330
AE2
100
AcDbEntity
  8
0
100
AcDbBlockBegin
  2
*D67
 70
     1
 10
0.0
 20
0.0
 30
0.0
  3
*D67
  1
*D67
  0
LINE
  5
AE5
330
AE2
100
AcDbEntity
  8
치수문자_일반주서
 62
     0
370
    -2
100
AcDbLine
 10
100.3668123682606
 20
50.05502018076356
 30
0.0
 11
100.3668123682606
 21
85.95726436467538
 31
0.0
  0
LINE
  5
AE6
330
AE2
100
AcDbEntity
  8
치수문자_일반주서
 62
     0
370
    -2
100
AcDbLine
 10
74.9752092658618
 20
51.52305157272357
 30
0.0
 11
74.9752092658618
 21
85.95726436467538
 31
0.0
  0
LINE
  5
AE7
330
AE2
100
AcDbEntity
  8
치수문자_일반주서
 62
     0
370
    -2
100
AcDbLine
 10
97.06481236826058
 20
85.95726436467538
 30
0.0
 11
78.27720926586181
 21
85.95726436467538
 31
0.0
  0
SOLID
  5
AE8
330
AE2
100
AcDbEntity
  8
치수문자_일반주서
 62
     0
100
AcDbTrace
 10
97.06481236826058
 20
85.40693103134205
 30
0.0
 11
97.06481236826058
 21
86.50759769800871
 31
0.0
 12
100.3668123682606
 22
85.95726436467538
 32
0.0
 13
100.3668123682606
 23
85.95726436467538
 33
0.0
  0
SOLID
  5
AE9
330
AE2
100
AcDbEntity
  8
치수문자_일반주서
 62
     0
100
AcDbTrace
 10
78.27720926586181
 20
86.50759769800871
 30
0.0
 11
78.27720926586181
 21
85.40693103134205
 31
0.0
 12
74.9752092658618
 22
85.95726436467538
 32
0.0
 13
74.9752092658618
 23
85.95726436467538
 33
0.0
  0
MTEXT
  5
AEA
330
AE2
100
AcDbEntity
  8
치수문자_일반주서
 62
     0
100
AcDbMText
 10
87.67101081706119
 20
90.33226436467538
 30
0.0
 40
3.5
 41
0.0
 71
     2
 72
     1
  1
\A1;25.39 [1.00]
  7
SLDTEXTSTYLE0
 73
     1
 44
1.0
  0
POINT
  5
AEB
330
AE2
100
AcDbEntity
  8
Defpoints
 62
     0
100
AcDbPoint
 10
100.3668123682606
 20
49.99252018076356
 30
0.0
  0
POINT
  5
AEC
330
AE2
100
AcDbEntity
  8
Defpoints
 62
     0
100
AcDbPoint
 10
74.9752092658618
 20
51.46055157272357
 30
0.0
  0
POINT
  5
AED
330
AE2
100
AcDbEntity
  8
Defpoints
 62
     0
100
AcDbPoint
 10
74.9752092658618
 20
85.95726436467538
 30
0.0
  0
ENDBLK
  5
AE4
330
AE2
100
AcDbEntity
  8
0
100
AcDbBlockEnd
  0
BLOCK
  5
B31
330
B30
100
AcDbEntity
  8
0
100
AcDbBlockBegin
  2
*D68
 70
     1
 10
0.0
 20
0.0
 30
0.0
  3
*D68
  1
*D68
  0
LINE
  5
B33
330
B30
100
AcDbEntity
  8
치수문자_일반주서
 62
     0
370
    -2
100
AcDbLine
 10
272.4005294860351
 20
27.17972358964585
 30
0.0
 11
307.1793184149192
 21
27.17972358964598
 31
0.0
  0
LINE
  5
B34
330
B30
100
AcDbEntity
  8
치수문자_일반주서
 62
     0
370
    -2
100
AcDbLine
 10
272.4005294860351
 20
24.00472358964585
 30
0.0
 11
307.1793184149192
 21
24.00472358964598
 31
0.0
  0
LINE
  5
B35
330
B30
100
AcDbEntity
  8
치수문자_일반주서
 62
     0
370
    -2
100
AcDbLine
 10
307.1793184149192
 20
27.17972358964598
 30
0.0
 11
307.1793184149192
 21
58.28372358964597
 31
0.0
  0
LINE
  5
B36
330
B30
100
AcDbEntity
  8
치수문자_일반주서
 62
     0
370
    -2
100
AcDbLine
 10
307.1793184149192
 20
27.17972358964598
 30
0.0
 11
307.1793184149192
 21
24.00472358964598
 31
0.0
  0
LINE
  5
B37
330
B30
100
AcDbEntity
  8
치수문자_일반주서
 62
     0
370
    -2
100
AcDbLine
 10
307.1793184149192
 20
30.48172358964598
 30
0.0
 11
307.1793184149192
 21
33.78372358964598
 31
0.0
  0
LINE
  5
B38
330
B30
100
AcDbEntity
  8
치수문자_일반주서
 62
     0
370
    -2
100
AcDbLine
 10
307.1793184149192
 20
20.70272358964598
 30
0.0
 11
307.1793184149192
 21
17.40072358964598
 31
0.0
  0
SOLID
  5
B39
330
B30
100
AcDbEntity
  8
치수문자_일반주서
 62
     0
100
AcDbTrace
 10
306.6289850815858
 20
30.48172358964598
 30
0.0
 11
307.7296517482525
 21
30.48172358964598
 31
0.0
 12
307.1793184149192
 22
27.17972358964598
 32
0.0
 13
307.1793184149192
 23
27.17972358964598
 33
0.0
  0
SOLID
  5
B3A
330
B30
100
AcDbEntity
  8
치수문자_일반주서
 62
     0
100
AcDbTrace
 10
307.7296517482525
 20
20.70272358964598
 30
0.0
 11
306.6289850815858
 21
20.70272358964598
 31
0.0
 12
307.1793184149192
 22
24.00472358964598
 32
0.0
 13
307.1793184149192
 23
24.00472358964598
 33
0.0
  0
MTEXT
  5
B3B
330
B30
100
AcDbEntity
  8
치수문자_일반주서
 62
     0
100
AcDbMText
 10
302.8043184149192
 20
46.03372358964597
 30
0.0
 40
3.5
 41
0.0
 71
     2
 72
     1
  1
\A1;%%c3.18 [1/8]
  7
SLDTEXTSTYLE0
 11
0.0
 21
1.0
 31
0.0
 73
     1
 44
1.0
  0
POINT
  5
B74
330
B30
100
AcDbEntity
  8
Defpoints
 62
     0
100
AcDbPoint
 10
272.3380294860351
 20
27.17972358964585
 30
0.0
  0
POINT
  5
B75
330
B30
100
AcDbEntity
  8
Defpoints
 62
     0
100
AcDbPoint
 10
272.3380294860351
 20
24.00472358964585
 30
0.0
  0
POINT
  5
B76
330
B30
100
AcDbEntity
  8
Defpoints
 62
     0
100
AcDbPoint
 10
307.1793184149192
 20
24.00472358964598
 30
0.0
  0
ENDBLK
  5
B32
330
B30
100
AcDbEntity
  8
0
100
AcDbBlockEnd
  0
BLOCK
  5
B3E
330
B3D
100
AcDbEntity
  8
0
100
AcDbBlockBegin
  2
*D69
 70
     1
 10
0.0
 20
0.0
 30
0.0
  3
*D69
  1
*D69
  0
LINE
  5
B40
330
B3D
100
AcDbEntity
  8
치수문자_일반주서
 62
     0
370
    -2
100
AcDbLine
 10
-56.42551477371936
 20
1.587499999999995
 30
0.0
 11
-70.1730147737193
 21
1.587499999999945
 31
0.0
  0
LINE
  5
B41
330
B3D
100
AcDbEntity
  8
치수문자_일반주서
 62
     0
370
    -2
100
AcDbLine
 10
-56.42551477371936
 20
-1.587500000000017
 30
0.0
 11
-70.17301477371929
 21
-1.587500000000066
 31
0.0
  0
LINE
  5
B42
330
B3D
100
AcDbEntity
  8
치수문자_일반주서
 62
     0
370
    -2
100
AcDbLine
 10
-70.1730147737193
 20
1.587499999999945
 30
0.0
 11
-70.17301477371944
 21
32.69149999999995
 31
0.0
  0
LINE
  5
B43
330
B3D
100
AcDbEntity
  8
치수문자_일반주서
 62
     0
370
    -2
100
AcDbLine
 10
-70.1730147737193
 20
1.587499999999945
 30
0.0
 11
-70.17301477371929
 21
-1.587500000000066
 31
0.0
  0
LINE
  5
B44
330
B3D
100
AcDbEntity
  8
치수문자_일반주서
 62
     0
370
    -2
100
AcDbLine
 10
-70.17301477371932
 20
4.889499999999945
 30
0.0
 11
-70.17301477371933
 21
8.191499999999944
 31
0.0
  0
LINE
  5
B45
330
B3D
100
AcDbEntity
  8
치수문자_일반주서
 62
     0
370
    -2
100
AcDbLine
 10
-70.17301477371927
 20
-4.889500000000066
 30
0.0
 11
-70.17301477371926
 21
-8.191500000000065
 31
0.0
  0
SOLID
  5
B46
330
B3D
100
AcDbEntity
  8
치수문자_일반주서
 62
     0
100
AcDbTrace
 10
-70.72334810705264
 20
4.889499999999942
 30
0.0
 11
-69.62268144038599
 21
4.889499999999948
 31
0.0
 12
-70.1730147737193
 22
1.587499999999945
 32
0.0
 13
-70.1730147737193
 23
1.587499999999945
 33
0.0
  0
SOLID
  5
B47
330
B3D
100
AcDbEntity
  8
치수문자_일반주서
 62
     0
100
AcDbTrace
 10
-69.62268144038595
 20
-4.889500000000063
 30
0.0
 11
-70.7233481070526
 21
-4.889500000000068
 31
0.0
 12
-70.17301477371929
 22
-1.587500000000066
 32
0.0
 13
-70.17301477371929
 23
-1.587500000000066
 33
0.0
  0
MTEXT
  5
B48
330
B3D
100
AcDbEntity
  8
치수문자_일반주서
 62
     0
100
AcDbMText
 10
-74.54801477371939
 20
20.44149999999993
 30
0.0
 40
3.5
 41
0.0
 71
     2
 72
     1
  1
\A1;%%c3.18 [1/8]
  7
SLDTEXTSTYLE0
 11
-4.475859752819513E-15
 21
1.0
 31
0.0
 73
     1
 44
1.0
  0
POINT
  5
B77
330
B3D
100
AcDbEntity
  8
Defpoints
 62
     0
100
AcDbPoint
 10
-56.36301477371936
 20
1.587499999999995
 30
0.0
  0
POINT
  5
B78
330
B3D
100
AcDbEntity
  8
Defpoints
 62
     0
100
AcDbPoint
 10
-56.36301477371936
 20
-1.587500000000016
 30
0.0
  0
POINT
  5
B79
330
B3D
100
AcDbEntity
  8
Defpoints
 62
     0
100
AcDbPoint
 10
-70.17301477371939
 20
-1.587500000000068
 30
0.0
  0
ENDBLK
  5
B3F
330
B3D
100
AcDbEntity
  8
0
100
AcDbBlockEnd
  0
BLOCK
  5
B4B
330
B4A
100
AcDbEntity
  8
0
100
AcDbBlockBegin
  2
*D70
 70
     1
 10
0.0
 20
0.0
 30
0.0
  3
*D70
  1
*D70
  0
LINE
  5
B4D
330
B4A
100
AcDbEntity
  8
치수문자_일반주서
 62
     0
370
    -2
100
AcDbLine
 10
25.63698522628061
 20
1.650000000000013
 30
0.0
 11
25.63698522628061
 21
24.02071279195149
 31
0.0
  0
LINE
  5
B4E
330
B4A
100
AcDbEntity
  8
치수문자_일반주서
 62
     0
370
    -2
100
AcDbLine
 10
9.761985226280615
 20
0.8643086960657165
 30
0.0
 11
9.761985226280615
 21
24.02071279195149
 31
0.0
  0
LINE
  5
B4F
330
B4A
100
AcDbEntity
  8
치수문자_일반주서
 62
     0
370
    -2
100
AcDbLine
 10
22.33498522628062
 20
24.02071279195149
 30
0.0
 11
13.06398522628061
 21
24.02071279195149
 31
0.0
  0
SOLID
  5
B50
330
B4A
100
AcDbEntity
  8
치수문자_일반주서
 62
     0
100
AcDbTrace
 10
22.33498522628062
 20
23.47037945861816
 30
0.0
 11
22.33498522628062
 21
24.57104612528483
 31
0.0
 12
25.63698522628061
 22
24.02071279195149
 32
0.0
 13
25.63698522628061
 23
24.02071279195149
 33
0.0
  0
SOLID
  5
B51
330
B4A
100
AcDbEntity
  8
치수문자_일반주서
 62
     0
100
AcDbTrace
 10
13.06398522628061
 20
24.57104612528483
 30
0.0
 11
13.06398522628061
 21
23.47037945861816
 31
0.0
 12
9.761985226280615
 22
24.02071279195149
 32
0.0
 13
9.761985226280615
 23
24.02071279195149
 33
0.0
  0
MTEXT
  5
B52
330
B4A
100
AcDbEntity
  8
치수문자_일반주서
 62
     0
100
AcDbMText
 10
18.8402325646739
 20
28.39571279195149
 30
0.0
 40
3.5
 41
0.0
 71
     2
 72
     1
  1
\A1;15.88 [5/8]
  7
SLDTEXTSTYLE0
 73
     1
 44
1.0
  0
POINT
  5
B53
330
B4A
100
AcDbEntity
  8
Defpoints
 62
     0
100
AcDbPoint
 10
25.63698522628061
 20
1.587500000000013
 30
0.0
  0
POINT
  5
B54
330
B4A
100
AcDbEntity
  8
Defpoints
 62
     0
100
AcDbPoint
 10
9.761985226280615
 20
0.8018086960657165
 30
0.0
  0
POINT
  5
B55
330
B4A
100
AcDbEntity
  8
Defpoints
 62
     0
100
AcDbPoint
 10
9.761985226280615
 20
24.02071279195149
 30
0.0
  0
ENDBLK
  5
B4C
330
B4A
100
AcDbEntity
  8
0
100
AcDbBlockEnd
  0
BLOCK
  5
B57
330
B56
100
AcDbEntity
  8
0
100
AcDbBlockBegin
  2
*D71
 70
     1
 10
0.0
 20
0.0
 30
0.0
  3
*D71
  1
*D71
  0
LINE
  5
B59
330
B56
100
AcDbEntity
  8
치수문자_일반주서
 62
     0
370
    -2
100
AcDbLine
 10
25.63698522628061
 20
1.650000000000013
 30
0.0
 11
25.63698522628061
 21
44.47710596421331
 31
0.0
  0
LINE
  5
B5A
330
B56
100
AcDbEntity
  8
치수문자_일반주서
 62
     0
370
    -2
100
AcDbLine
 10
-56.91301477371937
 20
1.099999999999991
 30
0.0
 11
-56.91301477371937
 21
44.47710596421331
 31
0.0
  0
LINE
  5
B5B
330
B56
100
AcDbEntity
  8
치수문자_일반주서
 62
     0
370
    -2
100
AcDbLine
 10
22.33498522628062
 20
44.47710596421331
 30
0.0
 11
-53.61101477371937
 21
44.47710596421331
 31
0.0
  0
SOLID
  5
B5C
330
B56
100
AcDbEntity
  8
치수문자_일반주서
 62
     0
100
AcDbTrace
 10
22.33498522628062
 20
43.92677263087997
 30
0.0
 11
22.33498522628062
 21
45.02743929754664
 31
0.0
 12
25.63698522628061
 22
44.47710596421331
 32
0.0
 13
25.63698522628061
 23
44.47710596421331
 33
0.0
  0
SOLID
  5
B5D
330
B56
100
AcDbEntity
  8
치수문자_일반주서
 62
     0
100
AcDbTrace
 10
-53.61101477371937
 20
45.02743929754664
 30
0.0
 11
-53.61101477371937
 21
43.92677263087997
 31
0.0
 12
-56.91301477371937
 22
44.47710596421331
 32
0.0
 13
-56.91301477371937
 23
44.47710596421331
 33
0.0
  0
MTEXT
  5
B5E
330
B56
100
AcDbEntity
  8
치수문자_일반주서
 62
     0
100
AcDbMText
 10
-16.86916501829847
 20
48.85210596421331
 30
0.0
 40
3.5
 41
0.0
 71
     2
 72
     1
  1
\A1;82.55 [3 1/4]
  7
SLDTEXTSTYLE0
 73
     1
 44
1.0
  0
POINT
  5
B5F
330
B56
100
AcDbEntity
  8
Defpoints
 62
     0
100
AcDbPoint
 10
25.63698522628061
 20
1.587500000000013
 30
0.0
  0
POINT
  5
B60
330
B56
100
AcDbEntity
  8
Defpoints
 62
     0
100
AcDbPoint
 10
-56.91301477371937
 20
1.037499999999991
 30
0.0
  0
POINT
  5
B61
330
B56
100
AcDbEntity
  8
Defpoints
 62
     0
100
AcDbPoint
 10
-56.91301477371937
 20
44.47710596421331
 30
0.0
  0
ENDBLK
  5
B58
330
B56
100
AcDbEntity
  8
0
100
AcDbBlockEnd
  0
BLOCK
  5
B63
330
B62
100
AcDbEntity
  8
0
100
AcDbBlockBegin
  2
*D72
 70
     1
 10
0.0
 20
0.0
 30
0.0
  3
*D72
  1
*D72
  0
LINE
  5
B65
330
B62
100
AcDbEntity
  8
치수문자_일반주서
 62
     0
370
    -2
100
AcDbLine
 10
25.63698522628061
 20
1.650000000000013
 30
0.0
 11
25.63698522628061
 21
36.02071279195182
 31
0.0
  0
LINE
  5
B66
330
B62
100
AcDbEntity
  8
치수문자_일반주서
 62
     0
370
    -2
100
AcDbLine
 10
0.2369852262806376
 20
1.586500000000004
 30
0.0
 11
0.2369852262806376
 21
36.02071279195182
 31
0.0
  0
LINE
  5
B67
330
B62
100
AcDbEntity
  8
치수문자_일반주서
 62
     0
370
    -2
100
AcDbLine
 10
22.33498522628062
 20
36.02071279195182
 30
0.0
 11
3.538985226280638
 21
36.02071279195182
 31
0.0
  0
SOLID
  5
B68
330
B62
100
AcDbEntity
  8
치수문자_일반주서
 62
     0
100
AcDbTrace
 10
22.33498522628062
 20
35.47037945861849
 30
0.0
 11
22.33498522628062
 21
36.57104612528516
 31
0.0
 12
25.63698522628061
 22
36.02071279195182
 32
0.0
 13
25.63698522628061
 23
36.02071279195182
 33
0.0
  0
SOLID
  5
B69
330
B62
100
AcDbEntity
  8
치수문자_일반주서
 62
     0
100
AcDbTrace
 10
3.538985226280638
 20
36.57104612528516
 30
0.0
 11
3.538985226280638
 21
35.47037945861849
 31
0.0
 12
0.2369852262806376
 22
36.02071279195182
 32
0.0
 13
0.2369852262806376
 23
36.02071279195182
 33
0.0
  0
MTEXT
  5
B6A
330
B62
100
AcDbEntity
  8
치수문자_일반주서
 62
     0
100
AcDbMText
 10
12.93278677747998
 20
40.39571279195182
 30
0.0
 40
3.5
 41
0.0
 71
     2
 72
     1
  1
\A1;25.4 [1]
  7
SLDTEXTSTYLE0
 73
     1
 44
1.0
  0
POINT
  5
B6B
330
B62
100
AcDbEntity
  8
Defpoints
 62
     0
100
AcDbPoint
 10
25.63698522628061
 20
1.587500000000013
 30
0.0
  0
POINT
  5
B6C
330
B62
100
AcDbEntity
  8
Defpoints
 62
     0
100
AcDbPoint
 10
0.2369852262806376
 20
1.524000000000004
 30
0.0
  0
POINT
  5
B6D
330
B62
100
AcDbEntity
  8
Defpoints
 62
     0
100
AcDbPoint
 10
0.2369852262806376
 20
36.02071279195182
 30
0.0
  0
ENDBLK
  5
B64
330
B62
100
AcDbEntity
  8
0
100
AcDbBlockEnd
  0
BLOCK
  5
B87
330
B86
100
AcDbEntity
  8
0
100
AcDbBlockBegin
  2
*D73
 70
     1
 10
0.0
 20
0.0
 30
0.0
  3
*D73
  1
*D73
  0
LINE
  5
B89
330
B86
100
AcDbEntity
  8
치수문자_일반주서
 62
     0
370
    -2
100
AcDbLine
 10
25.69948522628061
 20
1.587500000000013
 30
0.0
 11
40.14844020307976
 21
1.587500000000013
 31
0.0
  0
LINE
  5
B8A
330
B86
100
AcDbEntity
  8
치수문자_일반주서
 62
     0
370
    -2
100
AcDbLine
 10
25.69948522628061
 20
-1.587499999999981
 30
0.0
 11
40.14844020307976
 21
-1.587499999999981
 31
0.0
  0
LINE
  5
B8B
330
B86
100
AcDbEntity
  8
치수문자_일반주서
 62
     0
370
    -2
100
AcDbLine
 10
40.14844020307976
 20
1.587500000000013
 30
0.0
 11
40.14844020307976
 21
32.69150000000002
 31
0.0
  0
LINE
  5
B8C
330
B86
100
AcDbEntity
  8
치수문자_일반주서
 62
     0
370
    -2
100
AcDbLine
 10
40.14844020307976
 20
1.587500000000013
 30
0.0
 11
40.14844020307976
 21
-1.587499999999981
 31
0.0
  0
LINE
  5
B8D
330
B86
100
AcDbEntity
  8
치수문자_일반주서
 62
     0
370
    -2
100
AcDbLine
 10
40.14844020307976
 20
4.889500000000012
 30
0.0
 11
40.14844020307976
 21
8.191500000000012
 31
0.0
  0
LINE
  5
B8E
330
B86
100
AcDbEntity
  8
치수문자_일반주서
 62
     0
370
    -2
100
AcDbLine
 10
40.14844020307976
 20
-4.88949999999998
 30
0.0
 11
40.14844020307976
 21
-8.19149999999998
 31
0.0
  0
SOLID
  5
B8F
330
B86
100
AcDbEntity
  8
치수문자_일반주서
 62
     0
100
AcDbTrace
 10
39.59810686974642
 20
4.889500000000012
 30
0.0
 11
40.69877353641309
 21
4.889500000000012
 31
0.0
 12
40.14844020307976
 22
1.587500000000013
 32
0.0
 13
40.14844020307976
 23
1.587500000000013
 33
0.0
  0
SOLID
  5
B90
330
B86
100
AcDbEntity
  8
치수문자_일반주서
 62
     0
100
AcDbTrace
 10
40.69877353641309
 20
-4.88949999999998
 30
0.0
 11
39.59810686974642
 21
-4.88949999999998
 31
0.0
 12
40.14844020307976
 22
-1.587499999999981
 32
0.0
 13
40.14844020307976
 23
-1.587499999999981
 33
0.0
  0
MTEXT
  5
B91
330
B86
100
AcDbEntity
  8
치수문자_일반주서
 62
     0
100
AcDbMText
 10
37.52344020307976
 20
20.44150000000002
 30
0.0
 40
3.5
 41
0.0
 71
     5
 72
     1
  1
\A1;{%%c3.18 [1/8]}
  7
SLDTEXTSTYLE0
 11
0.0
 21
1.0
 31
0.0
 73
     1
 44
1.0
  0
POINT
  5
B92
330
B86
100
AcDbEntity
  8
Defpoints
 62
     0
100
AcDbPoint
 10
25.63698522628061
 20
1.587500000000013
 30
0.0
  0
POINT
  5
B93
330
B86
100
AcDbEntity
  8
Defpoints
 62
     0
100
AcDbPoint
 10
25.63698522628061
 20
-1.587499999999981
 30
0.0
  0
POINT
  5
B96
330
B86
100
AcDbEntity
  8
Defpoints
 62
     0
100
AcDbPoint
 10
40.14844020307976
 20
-1.587499999999982
 30
0.0
  0
ENDBLK
  5
B88
330
B86
100
AcDbEntity
  8
0
100
AcDbBlockEnd
  0
BLOCK
  5
C54
330
C53
100
AcDbEntity
  8
0
100
AcDbBlockBegin
  2
*D74
 70
     1
 10
0.0
 20
0.0
 30
0.0
  3
*D74
  1
*D74
  0
LINE
  5
C56
330
C53
100
AcDbEntity
  8
치수문자_일반주서
 62
     0
370
    -2
100
AcDbLine
 10
109.9444505594515
 20
53.11155157272356
 30
0.0
 11
124.154496001893
 21
53.11155157272361
 31
0.0
  0
LINE
  5
C57
330
C53
100
AcDbEntity
  8
치수문자_일반주서
 62
     0
370
    -2
100
AcDbLine
 10
109.9444505594516
 20
46.76155157272356
 30
0.0
 11
124.154496001893
 21
46.76155157272361
 31
0.0
  0
LINE
  5
C58
330
C53
100
AcDbEntity
  8
치수문자_일반주서
 62
     0
370
    -2
100
AcDbLine
 10
124.154496001893
 20
56.41355157272361
 30
0.0
 11
124.154496001893
 21
59.71555157272361
 31
0.0
  0
LINE
  5
C59
330
C53
100
AcDbEntity
  8
치수문자_일반주서
 62
     0
370
    -2
100
AcDbLine
 10
124.154496001893
 20
43.45955157272361
 30
0.0
 11
124.154496001893
 21
40.15755157272361
 31
0.0
  0
SOLID
  5
C5A
330
C53
100
AcDbEntity
  8
치수문자_일반주서
 62
     0
100
AcDbTrace
 10
123.6041626685596
 20
56.41355157272361
 30
0.0
 11
124.7048293352263
 21
56.41355157272361
 31
0.0
 12
124.154496001893
 22
53.11155157272361
 32
0.0
 13
124.154496001893
 23
53.11155157272361
 33
0.0
  0
SOLID
  5
C5B
330
C53
100
AcDbEntity
  8
치수문자_일반주서
 62
     0
100
AcDbTrace
 10
124.7048293352263
 20
43.45955157272361
 30
0.0
 11
123.6041626685597
 21
43.45955157272361
 31
0.0
 12
124.154496001893
 22
46.76155157272361
 32
0.0
 13
124.154496001893
 23
46.76155157272361
 33
0.0
  0
MTEXT
  5
C5C
330
C53
100
AcDbEntity
  8
치수문자_일반주서
 62
     0
100
AcDbMText
 10
119.779496001893
 20
49.93655157272354
 30
0.0
 40
3.5
 41
0.0
 71
     2
 72
     1
  1
\A1;%%c6.35 [0.25]
  7
SLDTEXTSTYLE0
 11
-4.475859752819533E-15
 21
1.0
 31
0.0
 73
     1
 44
1.0
  0
POINT
  5
C5D
330
C53
100
AcDbEntity
  8
Defpoints
 62
     0
100
AcDbPoint
 10
109.8819505594515
 20
53.11155157272356
 30
0.0
  0
POINT
  5
C5E
330
C53
100
AcDbEntity
  8
Defpoints
 62
     0
100
AcDbPoint
 10
109.8819505594516
 20
46.76155157272356
 30
0.0
  0
POINT
  5
C5F
330
C53
100
AcDbEntity
  8
Defpoints
 62
     0
100
AcDbPoint
 10
124.154496001893
 20
46.76155157272362
 30
0.0
  0
ENDBLK
  5
C55
330
C53
100
AcDbEntity
  8
0
100
AcDbBlockEnd
  0
BLOCK
  5
C61
330
C60
100
AcDbEntity
  8
0
100
AcDbBlockBegin
  2
*D75
 70
     1
 10
0.0
 20
0.0
 30
0.0
  3
*D75
  1
*D75
  0
LINE
  5
C63
330
C60
100
AcDbEntity
  8
치수문자_일반주서
 62
     0
370
    -2
100
AcDbLine
 10
18.31270926586182
 20
53.11155157272355
 30
0.0
 11
4.565209265861764
 21
53.1115515727235
 31
0.0
  0
LINE
  5
C64
330
C60
100
AcDbEntity
  8
치수문자_일반주서
 62
     0
370
    -2
100
AcDbLine
 10
18.31270926586182
 20
46.76155157272355
 30
0.0
 11
4.565209265861786
 21
46.7615515727235
 31
0.0
  0
LINE
  5
C65
330
C60
100
AcDbEntity
  8
치수문자_일반주서
 62
     0
370
    -2
100
AcDbLine
 10
4.565209265861752
 20
56.4135515727235
 30
0.0
 11
4.565209265861741
 21
59.7155515727235
 31
0.0
  0
LINE
  5
C66
330
C60
100
AcDbEntity
  8
치수문자_일반주서
 62
     0
370
    -2
100
AcDbLine
 10
4.565209265861798
 20
43.45955157272351
 30
0.0
 11
4.565209265861809
 21
40.15755157272351
 31
0.0
  0
SOLID
  5
C67
330
C60
100
AcDbEntity
  8
치수문자_일반주서
 62
     0
100
AcDbTrace
 10
4.014875932528419
 20
56.4135515727235
 30
0.0
 11
5.115542599195086
 21
56.4135515727235
 31
0.0
 12
4.565209265861764
 22
53.1115515727235
 32
0.0
 13
4.565209265861764
 23
53.1115515727235
 33
0.0
  0
SOLID
  5
C68
330
C60
100
AcDbEntity
  8
치수문자_일반주서
 62
     0
100
AcDbTrace
 10
5.115542599195131
 20
43.45955157272351
 30
0.0
 11
4.014875932528464
 21
43.45955157272351
 31
0.0
 12
4.565209265861786
 22
46.7615515727235
 32
0.0
 13
4.565209265861786
 23
46.7615515727235
 33
0.0
  0
MTEXT
  5
C69
330
C60
100
AcDbEntity
  8
치수문자_일반주서
 62
     0
100
AcDbMText
 10
0.1902092658617747
 20
49.93655157272353
 30
0.0
 40
3.5
 41
0.0
 71
     2
 72
     1
  1
\A1;%%c6.35 [0.25]
  7
SLDTEXTSTYLE0
 11
-3.496765431890260E-15
 21
1.0
 31
0.0
 73
     1
 44
1.0
  0
POINT
  5
C6A
330
C60
100
AcDbEntity
  8
Defpoints
 62
     0
100
AcDbPoint
 10
18.37520926586182
 20
53.11155157272355
 30
0.0
  0
POINT
  5
C6B
330
C60
100
AcDbEntity
  8
Defpoints
 62
     0
100
AcDbPoint
 10
18.37520926586182
 20
46.76155157272355
 30
0.0
  0
POINT
  5
C6C
330
C60
100
AcDbEntity
  8
Defpoints
 62
     0
100
AcDbPoint
 10
4.565209265861775
 20
46.7615515727235
 30
0.0
  0
ENDBLK
  5
C62
330
C60
100
AcDbEntity
  8
0
100
AcDbBlockEnd
  0
BLOCK
  5
C6E
330
C6D
100
AcDbEntity
  8
0
100
AcDbBlockBegin
  2
*D76
 70
     1
 10
0.0
 20
0.0
 30
0.0
  3
*D76
  1
*D76
  0
LINE
  5
C70
330
C6D
100
AcDbEntity
  8
치수문자_일반주서
 62
     0
370
    -2
100
AcDbLine
 10
119.5284154706594
 20
50.11098878880355
 30
0.0
 11
119.5284154706594
 21
74.01323297271612
 31
0.0
  0
LINE
  5
C71
330
C6D
100
AcDbEntity
  8
치수문자_일반주서
 62
     0
370
    -2
100
AcDbLine
 10
90.97020926586218
 20
51.11933302378399
 30
0.0
 11
90.97020926586218
 21
74.01323297271612
 31
0.0
  0
LINE
  5
C72
330
C6D
100
AcDbEntity
  8
치수문자_일반주서
 62
     0
370
    -2
100
AcDbLine
 10
116.2264154706594
 20
74.01323297271612
 30
0.0
 11
94.27220926586219
 21
74.01323297271612
 31
0.0
  0
SOLID
  5
C73
330
C6D
100
AcDbEntity
  8
치수문자_일반주서
 62
     0
100
AcDbTrace
 10
116.2264154706594
 20
73.4628996393828
 30
0.0
 11
116.2264154706594
 21
74.56356630604945
 31
0.0
 12
119.5284154706594
 22
74.01323297271612
 32
0.0
 13
119.5284154706594
 23
74.01323297271612
 33
0.0
  0
SOLID
  5
C74
330
C6D
100
AcDbEntity
  8
치수문자_일반주서
 62
     0
100
AcDbTrace
 10
94.27220926586219
 20
74.56356630604945
 30
0.0
 11
94.27220926586219
 21
73.4628996393828
 31
0.0
 12
90.97020926586218
 22
74.01323297271612
 32
0.0
 13
90.97020926586218
 23
74.01323297271612
 33
0.0
  0
MTEXT
  5
C75
330
C6D
100
AcDbEntity
  8
치수문자_일반주서
 62
     0
100
AcDbMText
 10
107.3100935999465
 20
78.38823297271612
 30
0.0
 40
3.5
 41
0.0
 71
     2
 72
     1
  1
\A1;28.56 [1.12]
  7
SLDTEXTSTYLE0
 73
     1
 44
1.0
  0
POINT
  5
C76
330
C6D
100
AcDbEntity
  8
Defpoints
 62
     0
100
AcDbPoint
 10
119.5284154706594
 20
50.04848878880355
 30
0.0
  0
POINT
  5
C77
330
C6D
100
AcDbEntity
  8
Defpoints
 62
     0
100
AcDbPoint
 10
90.97020926586218
 20
51.05683302378399
 30
0.0
  0
POINT
  5
C78
330
C6D
100
AcDbEntity
  8
Defpoints
 62
     0
100
AcDbPoint
 10
90.97020926586218
 20
74.01323297271757
 30
0.0
  0
ENDBLK
  5
C6F
330
C6D
100
AcDbEntity
  8
0
100
AcDbBlockEnd
  0
BLOCK
  5
C7A
330
C79
100
AcDbEntity
  8
0
100
AcDbBlockBegin
  2
*D77
 70
     1
 10
0.0
 20
0.0
 30
0.0
  3
*D77
  1
*D77
  0
LINE
  5
C7C
330
C79
100
AcDbEntity
  8
치수문자_일반주서
 62
     0
370
    -2
100
AcDbLine
 10
119.5284154706594
 20
50.11098878880355
 30
0.0
 11
119.5284154706594
 21
92.0132329727154
 31
0.0
  0
LINE
  5
C7D
330
C79
100
AcDbEntity
  8
치수문자_일반주서
 62
     0
370
    -2
100
AcDbLine
 10
17.94520926586182
 20
52.74405157272356
 30
0.0
 11
17.94520926586182
 21
92.0132329727154
 31
0.0
  0
LINE
  5
C7E
330
C79
100
AcDbEntity
  8
치수문자_일반주서
 62
     0
370
    -2
100
AcDbLine
 10
116.2264154706594
 20
92.0132329727154
 30
0.0
 11
21.24720926586182
 21
92.0132329727154
 31
0.0
  0
SOLID
  5
C7F
330
C79
100
AcDbEntity
  8
치수문자_일반주서
 62
     0
100
AcDbTrace
 10
116.2264154706594
 20
91.46289963938207
 30
0.0
 11
116.2264154706594
 21
92.56356630604873
 31
0.0
 12
119.5284154706594
 22
92.0132329727154
 32
0.0
 13
119.5284154706594
 23
92.0132329727154
 33
0.0
  0
SOLID
  5
C80
330
C79
100
AcDbEntity
  8
치수문자_일반주서
 62
     0
100
AcDbTrace
 10
21.24720926586182
 20
92.56356630604873
 30
0.0
 11
21.24720926586182
 21
91.46289963938207
 31
0.0
 12
17.94520926586182
 22
92.0132329727154
 32
0.0
 13
17.94520926586182
 23
92.0132329727154
 33
0.0
  0
MTEXT
  5
C81
330
C79
100
AcDbEntity
  8
치수문자_일반주서
 62
     0
100
AcDbMText
 10
67.67360169682911
 20
96.3882329727154
 30
0.0
 40
3.5
 41
0.0
 71
     2
 72
     1
  1
\A1;101.58 [4.00]
  7
SLDTEXTSTYLE0
 73
     1
 44
1.0
  0
POINT
  5
C82
330
C79
100
AcDbEntity
  8
Defpoints
 62
     0
100
AcDbPoint
 10
119.5284154706594
 20
50.04848878880355
 30
0.0
  0
POINT
  5
C83
330
C79
100
AcDbEntity
  8
Defpoints
 62
     0
100
AcDbPoint
 10
17.94520926586182
 20
52.68155157272356
 30
0.0
  0
POINT
  5
C84
330
C79
100
AcDbEntity
  8
Defpoints
 62
     0
100
AcDbPoint
 10
17.94520926586182
 20
92.0132329727154
 30
0.0
  0
ENDBLK
  5
C7B
330
C79
100
AcDbEntity
  8
0
100
AcDbBlockEnd
  0
BLOCK
  5
C86
330
C85
100
AcDbEntity
  8
0
100
AcDbBlockBegin
  2
*D78
 70
     1
 10
0.0
 20
0.0
 30
0.0
  3
*D78
  1
*D78
  0
LINE
  5
C88
330
C85
100
AcDbEntity
  8
치수문자_일반주서
 62
     0
370
    -2
100
AcDbLine
 10
119.5284154706594
 20
50.11098878880355
 30
0.0
 11
119.5284154706594
 21
86.01323297271537
 31
0.0
  0
LINE
  5
C89
330
C85
100
AcDbEntity
  8
치수문자_일반주서
 62
     0
370
    -2
100
AcDbLine
 10
68.74520926586182
 20
52.92005157272357
 30
0.0
 11
68.74520926586182
 21
86.01323297271537
 31
0.0
  0
LINE
  5
C8A
330
C85
100
AcDbEntity
  8
치수문자_일반주서
 62
     0
370
    -2
100
AcDbLine
 10
116.2264154706594
 20
86.01323297271537
 30
0.0
 11
72.04720926586182
 21
86.01323297271537
 31
0.0
  0
SOLID
  5
C8B
330
C85
100
AcDbEntity
  8
치수문자_일반주서
 62
     0
100
AcDbTrace
 10
116.2264154706594
 20
85.46289963938204
 30
0.0
 11
116.2264154706594
 21
86.5635663060487
 31
0.0
 12
119.5284154706594
 22
86.01323297271537
 32
0.0
 13
119.5284154706594
 23
86.01323297271537
 33
0.0
  0
SOLID
  5
C8C
330
C85
100
AcDbEntity
  8
치수문자_일반주서
 62
     0
100
AcDbTrace
 10
72.04720926586182
 20
86.5635663060487
 30
0.0
 11
72.04720926586182
 21
85.46289963938204
 31
0.0
 12
68.74520926586182
 22
86.01323297271537
 32
0.0
 13
68.74520926586182
 23
86.01323297271537
 33
0.0
  0
MTEXT
  5
C8D
330
C85
100
AcDbEntity
  8
치수문자_일반주서
 62
     0
100
AcDbMText
 10
94.13681236826059
 20
90.38823297271537
 30
0.0
 40
3.5
 41
0.0
 71
     2
 72
     1
  1
\A1;50.78 [2.00]
  7
SLDTEXTSTYLE0
 73
     1
 44
1.0
  0
POINT
  5
C8E
330
C85
100
AcDbEntity
  8
Defpoints
 62
     0
100
AcDbPoint
 10
119.5284154706594
 20
50.04848878880355
 30
0.0
  0
POINT
  5
C8F
330
C85
100
AcDbEntity
  8
Defpoints
 62
     0
100
AcDbPoint
 10
68.74520926586182
 20
52.85755157272357
 30
0.0
  0
POINT
  5
C90
330
C85
100
AcDbEntity
  8
Defpoints
 62
     0
100
AcDbPoint
 10
68.74520926586182
 20
86.01323297271536
 30
0.0
  0
ENDBLK
  5
C87
330
C85
100
AcDbEntity
  8
0
100
AcDbBlockEnd
  0
BLOCK
  5
D4E
330
D4D
100
AcDbEntity
  8
0
100
AcDbBlockBegin
  2
*D79
 70
     1
 10
0.0
 20
0.0
 30
0.0
  3
*D79
  1
*D79
  0
LINE
  5
D50
330
D4D
100
AcDbEntity
  8
치수문자_일반주서
 62
     0
370
    -2
100
AcDbLine
 10
109.9444505594515
 20
53.11155157272356
 30
0.0
 11
124.154496001893
 21
53.11155157272361
 31
0.0
  0
LINE
  5
D51
330
D4D
100
AcDbEntity
  8
치수문자_일반주서
 62
     0
370
    -2
100
AcDbLine
 10
109.9444505594516
 20
46.76155157272356
 30
0.0
 11
124.154496001893
 21
46.76155157272361
 31
0.0
  0
LINE
  5
D52
330
D4D
100
AcDbEntity
  8
치수문자_일반주서
 62
     0
370
    -2
100
AcDbLine
 10
124.154496001893
 20
56.41355157272361
 30
0.0
 11
124.154496001893
 21
59.71555157272361
 31
0.0
  0
LINE
  5
D53
330
D4D
100
AcDbEntity
  8
치수문자_일반주서
 62
     0
370
    -2
100
AcDbLine
 10
124.154496001893
 20
43.45955157272361
 30
0.0
 11
124.154496001893
 21
40.15755157272361
 31
0.0
  0
SOLID
  5
D54
330
D4D
100
AcDbEntity
  8
치수문자_일반주서
 62
     0
100
AcDbTrace
 10
123.6041626685596
 20
56.41355157272361
 30
0.0
 11
124.7048293352263
 21
56.41355157272361
 31
0.0
 12
124.154496001893
 22
53.11155157272361
 32
0.0
 13
124.154496001893
 23
53.11155157272361
 33
0.0
  0
SOLID
  5
D55
330
D4D
100
AcDbEntity
  8
치수문자_일반주서
 62
     0
100
AcDbTrace
 10
124.7048293352263
 20
43.45955157272361
 30
0.0
 11
123.6041626685597
 21
43.45955157272361
 31
0.0
 12
124.154496001893
 22
46.76155157272361
 32
0.0
 13
124.154496001893
 23
46.76155157272361
 33
0.0
  0
MTEXT
  5
D56
330
D4D
100
AcDbEntity
  8
치수문자_일반주서
 62
     0
100
AcDbMText
 10
119.779496001893
 20
49.93655157272354
 30
0.0
 40
3.5
 41
0.0
 71
     2
 72
     1
  1
\A1;%%c6.35 [0.25]
  7
SLDTEXTSTYLE0
 11
-4.475859752819533E-15
 21
1.0
 31
0.0
 73
     1
 44
1.0
  0
POINT
  5
D57
330
D4D
100
AcDbEntity
  8
Defpoints
 62
     0
100
AcDbPoint
 10
109.8819505594515
 20
53.11155157272356
 30
0.0
  0
POINT
  5
D58
330
D4D
100
AcDbEntity
  8
Defpoints
 62
     0
100
AcDbPoint
 10
109.8819505594516
 20
46.76155157272356
 30
0.0
  0
POINT
  5
D59
330
D4D
100
AcDbEntity
  8
Defpoints
 62
     0
100
AcDbPoint
 10
124.154496001893
 20
46.76155157272362
 30
0.0
  0
ENDBLK
  5
D4F
330
D4D
100
AcDbEntity
  8
0
100
AcDbBlockEnd
  0
BLOCK
  5
D5B
330
D5A
100
AcDbEntity
  8
0
100
AcDbBlockBegin
  2
*D80
 70
     1
 10
0.0
 20
0.0
 30
0.0
  3
*D80
  1
*D80
  0
LINE
  5
D5D
330
D5A
100
AcDbEntity
  8
치수문자_일반주서
 62
     0
370
    -2
100
AcDbLine
 10
18.31270926586182
 20
53.11155157272355
 30
0.0
 11
4.565209265861764
 21
53.1115515727235
 31
0.0
  0
LINE
  5
D5E
330
D5A
100
AcDbEntity
  8
치수문자_일반주서
 62
     0
370
    -2
100
AcDbLine
 10
18.31270926586182
 20
46.76155157272355
 30
0.0
 11
4.565209265861786
 21
46.7615515727235
 31
0.0
  0
LINE
  5
D5F
330
D5A
100
AcDbEntity
  8
치수문자_일반주서
 62
     0
370
    -2
100
AcDbLine
 10
4.565209265861752
 20
56.4135515727235
 30
0.0
 11
4.565209265861741
 21
59.7155515727235
 31
0.0
  0
LINE
  5
D60
330
D5A
100
AcDbEntity
  8
치수문자_일반주서
 62
     0
370
    -2
100
AcDbLine
 10
4.565209265861798
 20
43.45955157272351
 30
0.0
 11
4.565209265861809
 21
40.15755157272351
 31
0.0
  0
SOLID
  5
D61
330
D5A
100
AcDbEntity
  8
치수문자_일반주서
 62
     0
100
AcDbTrace
 10
4.014875932528419
 20
56.4135515727235
 30
0.0
 11
5.115542599195086
 21
56.4135515727235
 31
0.0
 12
4.565209265861764
 22
53.1115515727235
 32
0.0
 13
4.565209265861764
 23
53.1115515727235
 33
0.0
  0
SOLID
  5
D62
330
D5A
100
AcDbEntity
  8
치수문자_일반주서
 62
     0
100
AcDbTrace
 10
5.115542599195131
 20
43.45955157272351
 30
0.0
 11
4.014875932528464
 21
43.45955157272351
 31
0.0
 12
4.565209265861786
 22
46.7615515727235
 32
0.0
 13
4.565209265861786
 23
46.7615515727235
 33
0.0
  0
MTEXT
  5
D63
330
D5A
100
AcDbEntity
  8
치수문자_일반주서
 62
     0
100
AcDbMText
 10
0.1902092658617747
 20
49.93655157272353
 30
0.0
 40
3.5
 41
0.0
 71
     2
 72
     1
  1
\A1;%%c6.35 [0.25]
  7
SLDTEXTSTYLE0
 11
-3.496765431890260E-15
 21
1.0
 31
0.0
 73
     1
 44
1.0
  0
POINT
  5
D64
330
D5A
100
AcDbEntity
  8
Defpoints
 62
     0
100
AcDbPoint
 10
18.37520926586182
 20
53.11155157272355
 30
0.0
  0
POINT
  5
D65
330
D5A
100
AcDbEntity
  8
Defpoints
 62
     0
100
AcDbPoint
 10
18.37520926586182
 20
46.76155157272355
 30
0.0
  0
POINT
  5
D66
330
D5A
100
AcDbEntity
  8
Defpoints
 62
     0
100
AcDbPoint
 10
4.565209265861775
 20
46.7615515727235
 30
0.0
  0
ENDBLK
  5
D5C
330
D5A
100
AcDbEntity
  8
0
100
AcDbBlockEnd
  0
BLOCK
  5
D68
330
D67
100
AcDbEntity
  8
0
100
AcDbBlockBegin
  2
*D81
 70
     1
 10
0.0
 20
0.0
 30
0.0
  3
*D81
  1
*D81
  0
LINE
  5
D6A
330
D67
100
AcDbEntity
  8
치수문자_일반주서
 62
     0
370
    -2
100
AcDbLine
 10
119.5284154706594
 20
50.11098878880355
 30
0.0
 11
119.5284154706594
 21
74.01323297271612
 31
0.0
  0
LINE
  5
D6B
330
D67
100
AcDbEntity
  8
치수문자_일반주서
 62
     0
370
    -2
100
AcDbLine
 10
90.97020926586218
 20
51.11933302378399
 30
0.0
 11
90.97020926586218
 21
74.01323297271612
 31
0.0
  0
LINE
  5
D6C
330
D67
100
AcDbEntity
  8
치수문자_일반주서
 62
     0
370
    -2
100
AcDbLine
 10
116.2264154706594
 20
74.01323297271612
 30
0.0
 11
94.27220926586219
 21
74.01323297271612
 31
0.0
  0
SOLID
  5
D6D
330
D67
100
AcDbEntity
  8
치수문자_일반주서
 62
     0
100
AcDbTrace
 10
116.2264154706594
 20
73.4628996393828
 30
0.0
 11
116.2264154706594
 21
74.56356630604945
 31
0.0
 12
119.5284154706594
 22
74.01323297271612
 32
0.0
 13
119.5284154706594
 23
74.01323297271612
 33
0.0
  0
SOLID
  5
D6E
330
D67
100
AcDbEntity
  8
치수문자_일반주서
 62
     0
100
AcDbTrace
 10
94.27220926586219
 20
74.56356630604945
 30
0.0
 11
94.27220926586219
 21
73.4628996393828
 31
0.0
 12
90.97020926586218
 22
74.01323297271612
 32
0.0
 13
90.97020926586218
 23
74.01323297271612
 33
0.0
  0
MTEXT
  5
D6F
330
D67
100
AcDbEntity
  8
치수문자_일반주서
 62
     0
100
AcDbMText
 10
107.3100935999465
 20
78.38823297271612
 30
0.0
 40
3.5
 41
0.0
 71
     2
 72
     1
  1
\A1;28.56 [1.12]
  7
SLDTEXTSTYLE0
 73
     1
 44
1.0
  0
POINT
  5
D70
330
D67
100
AcDbEntity
  8
Defpoints
 62
     0
100
AcDbPoint
 10
119.5284154706594
 20
50.04848878880355
 30
0.0
  0
POINT
  5
D71
330
D67
100
AcDbEntity
  8
Defpoints
 62
     0
100
AcDbPoint
 10
90.97020926586218
 20
51.05683302378399
 30
0.0
  0
POINT
  5
D72
330
D67
100
AcDbEntity
  8
Defpoints
 62
     0
100
AcDbPoint
 10
90.97020926586218
 20
74.01323297271757
 30
0.0
  0
ENDBLK
  5
D69
330
D67
100
AcDbEntity
  8
0
100
AcDbBlockEnd
  0
BLOCK
  5
D74
330
D73
100
AcDbEntity
  8
0
100
AcDbBlockBegin
  2
*D82
 70
     1
 10
0.0
 20
0.0
 30
0.0
  3
*D82
  1
*D82
  0
LINE
  5
D76
330
D73
100
AcDbEntity
  8
치수문자_일반주서
 62
     0
370
    -2
100
AcDbLine
 10
119.5284154706594
 20
50.11098878880355
 30
0.0
 11
119.5284154706594
 21
92.0132329727154
 31
0.0
  0
LINE
  5
D77
330
D73
100
AcDbEntity
  8
치수문자_일반주서
 62
     0
370
    -2
100
AcDbLine
 10
17.94520926586182
 20
52.74405157272356
 30
0.0
 11
17.94520926586182
 21
92.0132329727154
 31
0.0
  0
LINE
  5
D78
330
D73
100
AcDbEntity
  8
치수문자_일반주서
 62
     0
370
    -2
100
AcDbLine
 10
116.2264154706594
 20
92.0132329727154
 30
0.0
 11
21.24720926586182
 21
92.0132329727154
 31
0.0
  0
SOLID
  5
D79
330
D73
100
AcDbEntity
  8
치수문자_일반주서
 62
     0
100
AcDbTrace
 10
116.2264154706594
 20
91.46289963938207
 30
0.0
 11
116.2264154706594
 21
92.56356630604873
 31
0.0
 12
119.5284154706594
 22
92.0132329727154
 32
0.0
 13
119.5284154706594
 23
92.0132329727154
 33
0.0
  0
SOLID
  5
D7A
330
D73
100
AcDbEntity
  8
치수문자_일반주서
 62
     0
100
AcDbTrace
 10
21.24720926586182
 20
92.56356630604873
 30
0.0
 11
21.24720926586182
 21
91.46289963938207
 31
0.0
 12
17.94520926586182
 22
92.0132329727154
 32
0.0
 13
17.94520926586182
 23
92.0132329727154
 33
0.0
  0
MTEXT
  5
D7B
330
D73
100
AcDbEntity
  8
치수문자_일반주서
 62
     0
100
AcDbMText
 10
67.67360169682911
 20
96.3882329727154
 30
0.0
 40
3.5
 41
0.0
 71
     2
 72
     1
  1
\A1;101.58 [4.00]
  7
SLDTEXTSTYLE0
 73
     1
 44
1.0
  0
POINT
  5
D7C
330
D73
100
AcDbEntity
  8
Defpoints
 62
     0
100
AcDbPoint
 10
119.5284154706594
 20
50.04848878880355
 30
0.0
  0
POINT
  5
D7D
330
D73
100
AcDbEntity
  8
Defpoints
 62
     0
100
AcDbPoint
 10
17.94520926586182
 20
52.68155157272356
 30
0.0
  0
POINT
  5
D7E
330
D73
100
AcDbEntity
  8
Defpoints
 62
     0
100
AcDbPoint
 10
17.94520926586182
 20
92.0132329727154
 30
0.0
  0
ENDBLK
  5
D75
330
D73
100
AcDbEntity
  8
0
100
AcDbBlockEnd
  0
BLOCK
  5
D80
330
D7F
100
AcDbEntity
  8
0
100
AcDbBlockBegin
  2
*D83
 70
     1
 10
0.0
 20
0.0
 30
0.0
  3
*D83
  1
*D83
  0
LINE
  5
D82
330
D7F
100
AcDbEntity
  8
치수문자_일반주서
 62
     0
370
    -2
100
AcDbLine
 10
119.5284154706594
 20
50.11098878880355
 30
0.0
 11
119.5284154706594
 21
86.01323297271537
 31
0.0
  0
LINE
  5
D83
330
D7F
100
AcDbEntity
  8
치수문자_일반주서
 62
     0
370
    -2
100
AcDbLine
 10
68.74520926586182
 20
52.92005157272357
 30
0.0
 11
68.74520926586182
 21
86.01323297271537
 31
0.0
  0
LINE
  5
D84
330
D7F
100
AcDbEntity
  8
치수문자_일반주서
 62
     0
370
    -2
100
AcDbLine
 10
116.2264154706594
 20
86.01323297271537
 30
0.0
 11
72.04720926586182
 21
86.01323297271537
 31
0.0
  0
SOLID
  5
D85
330
D7F
100
AcDbEntity
  8
치수문자_일반주서
 62
     0
100
AcDbTrace
 10
116.2264154706594
 20
85.46289963938204
 30
0.0
 11
116.2264154706594
 21
86.5635663060487
 31
0.0
 12
119.5284154706594
 22
86.01323297271537
 32
0.0
 13
119.5284154706594
 23
86.01323297271537
 33
0.0
  0
SOLID
  5
D86
330
D7F
100
AcDbEntity
  8
치수문자_일반주서
 62
     0
100
AcDbTrace
 10
72.04720926586182
 20
86.5635663060487
 30
0.0
 11
72.04720926586182
 21
85.46289963938204
 31
0.0
 12
68.74520926586182
 22
86.01323297271537
 32
0.0
 13
68.74520926586182
 23
86.01323297271537
 33
0.0
  0
MTEXT
  5
D87
330
D7F
100
AcDbEntity
  8
치수문자_일반주서
 62
     0
100
AcDbMText
 10
94.13681236826059
 20
90.38823297271537
 30
0.0
 40
3.5
 41
0.0
 71
     2
 72
     1
  1
\A1;50.78 [2.00]
  7
SLDTEXTSTYLE0
 73
     1
 44
1.0
  0
POINT
  5
D88
330
D7F
100
AcDbEntity
  8
Defpoints
 62
     0
100
AcDbPoint
 10
119.5284154706594
 20
50.04848878880355
 30
0.0
  0
POINT
  5
D89
330
D7F
100
AcDbEntity
  8
Defpoints
 62
     0
100
AcDbPoint
 10
68.74520926586182
 20
52.85755157272357
 30
0.0
  0
POINT
  5
D8A
330
D7F
100
AcDbEntity
  8
Defpoints
 62
     0
100
AcDbPoint
 10
68.74520926586182
 20
86.01323297271536
 30
0.0
  0
ENDBLK
  5
D81
330
D7F
100
AcDbEntity
  8
0
100
AcDbBlockEnd
  0
BLOCK
  5
DCC
330
DCB
100
AcDbEntity
  8
0
100
AcDbBlockBegin
  2
*D84
 70
     1
 10
0.0
 20
0.0
 30
0.0
  3
*D84
  1
*D84
  0
LINE
  5
DCE
330
DCB
100
AcDbEntity
  8
치수문자_일반주서
 62
     0
370
    -2
100
AcDbLine
 10
65.6139400308513
 20
4.916993952843324
 30
0.0
 11
79.82398547329278
 21
4.916993952843377
 31
0.0
  0
LINE
  5
DCF
330
DCB
100
AcDbEntity
  8
치수문자_일반주서
 62
     0
370
    -2
100
AcDbLine
 10
65.61394003085135
 20
-1.43300604715667
 30
0.0
 11
79.82398547329281
 21
-1.433006047156617
 31
0.0
  0
LINE
  5
DD0
330
DCB
100
AcDbEntity
  8
치수문자_일반주서
 62
     0
370
    -2
100
AcDbLine
 10
79.8239854732928
 20
1.614993952843377
 30
0.0
 11
79.8239854732928
 21
1.868993952843383
 31
0.0
  0
SOLID
  5
DD1
330
DCB
100
AcDbEntity
  8
치수문자_일반주서
 62
     0
100
AcDbTrace
 10
80.37431880662612
 20
1.61499395284338
 30
0.0
 11
79.27365213995947
 21
1.614993952843375
 31
0.0
 12
79.82398547329278
 22
4.916993952843377
 32
0.0
 13
79.82398547329278
 23
4.916993952843377
 33
0.0
  0
SOLID
  5
DD2
330
DCB
100
AcDbEntity
  8
치수문자_일반주서
 62
     0
100
AcDbTrace
 10
79.27365213995947
 20
1.868993952843381
 30
0.0
 11
80.37431880662612
 21
1.868993952843385
 31
0.0
 12
79.82398547329281
 22
-1.433006047156617
 32
0.0
 13
79.82398547329281
 23
-1.433006047156617
 33
0.0
  0
MTEXT
  5
DD3
330
DCB
100
AcDbEntity
  8
치수문자_일반주서
 62
     0
100
AcDbMText
 10
75.4489854732928
 20
1.741993952843293
 30
0.0
 40
3.5
 41
0.0
 71
     2
 72
     1
  1
\A1;%%c6.35 [1/4]
  7
SLDTEXTSTYLE0
 11
-4.475859752819533E-15
 21
1.0
 31
0.0
 73
     1
 44
1.0
  0
POINT
  5
DD4
330
DCB
100
AcDbEntity
  8
Defpoints
 62
     0
100
AcDbPoint
 10
65.5514400308513
 20
4.916993952843324
 30
0.0
  0
POINT
  5
DD5
330
DCB
100
AcDbEntity
  8
Defpoints
 62
     0
100
AcDbPoint
 10
65.55144003085135
 20
-1.43300604715667
 30
0.0
  0
POINT
  5
DD6
330
DCB
100
AcDbEntity
  8
Defpoints
 62
     0
100
AcDbPoint
 10
79.8239854732928
 20
-1.433006047156617
 30
0.0
  0
ENDBLK
  5
DCD
330
DCB
100
AcDbEntity
  8
0
100
AcDbBlockEnd
  0
BLOCK
  5
DD9
330
DD8
100
AcDbEntity
  8
0
100
AcDbBlockBegin
  2
*D85
 70
     1
 10
0.0
 20
0.0
 30
0.0
  3
*D85
  1
*D85
  0
LINE
  5
DDB
330
DD8
100
AcDbEntity
  8
치수문자_일반주서
 62
     0
370
    -2
100
AcDbLine
 10
-50.17849999999999
 20
3.175000000000011
 30
0.0
 11
-63.92600000000001
 21
3.174999999999958
 31
0.0
  0
LINE
  5
DDC
330
DD8
100
AcDbEntity
  8
치수문자_일반주서
 62
     0
370
    -2
100
AcDbLine
 10
-50.17849999999999
 20
-3.174999999999983
 30
0.0
 11
-63.92599999999999
 21
-3.175000000000036
 31
0.0
  0
LINE
  5
DDD
330
DD8
100
AcDbEntity
  8
치수문자_일반주서
 62
     0
370
    -2
100
AcDbLine
 10
-63.92600000000001
 20
3.174999999999958
 30
0.0
 11
-63.92600000000012
 21
35.15399999999996
 31
0.0
  0
LINE
  5
DDE
330
DD8
100
AcDbEntity
  8
치수문자_일반주서
 62
     0
370
    -2
100
AcDbLine
 10
-63.92600000000001
 20
3.174999999999958
 30
0.0
 11
-63.92599999999999
 21
-3.175000000000036
 31
0.0
  0
LINE
  5
DDF
330
DD8
100
AcDbEntity
  8
치수문자_일반주서
 62
     0
370
    -2
100
AcDbLine
 10
-63.92600000000002
 20
6.476999999999958
 30
0.0
 11
-63.92600000000004
 21
9.778999999999957
 31
0.0
  0
LINE
  5
DE0
330
DD8
100
AcDbEntity
  8
치수문자_일반주서
 62
     0
370
    -2
100
AcDbLine
 10
-63.92599999999997
 20
-6.477000000000036
 30
0.0
 11
-63.92599999999996
 21
-9.779000000000035
 31
0.0
  0
SOLID
  5
DE1
330
DD8
100
AcDbEntity
  8
치수문자_일반주서
 62
     0
100
AcDbTrace
 10
-64.47633333333336
 20
6.476999999999956
 30
0.0
 11
-63.37566666666669
 21
6.476999999999959
 31
0.0
 12
-63.92600000000001
 22
3.174999999999958
 32
0.0
 13
-63.92600000000001
 23
3.174999999999958
 33
0.0
  0
SOLID
  5
DE2
330
DD8
100
AcDbEntity
  8
치수문자_일반주서
 62
     0
100
AcDbTrace
 10
-63.37566666666664
 20
-6.477000000000034
 30
0.0
 11
-64.4763333333333
 21
-6.477000000000038
 31
0.0
 12
-63.92599999999999
 22
-3.175000000000036
 32
0.0
 13
-63.92599999999999
 23
-3.175000000000036
 33
0.0
  0
MTEXT
  5
DE3
330
DD8
100
AcDbEntity
  8
치수문자_일반주서
 62
     0
100
AcDbMText
 10
-68.30100000000007
 20
22.46649999999995
 30
0.0
 40
3.5
 41
0.0
 71
     2
 72
     1
  1
\A1;%%c6.35 [1/4]
  7
SLDTEXTSTYLE0
 11
-3.356894814614650E-15
 21
1.0
 31
0.0
 73
     1
 44
1.0
  0
POINT
  5
E21
330
DD8
100
AcDbEntity
  8
Defpoints
 62
     0
100
AcDbPoint
 10
-50.11599999999999
 20
3.175000000000011
 30
0.0
  0
POINT
  5
E22
330
DD8
100
AcDbEntity
  8
Defpoints
 62
     0
100
AcDbPoint
 10
-50.11599999999999
 20
-3.174999999999983
 30
0.0
  0
POINT
  5
E23
330
DD8
100
AcDbEntity
  8
Defpoints
 62
     0
100
AcDbPoint
 10
-63.92599999999999
 20
-3.175000000000034
 30
0.0
  0
ENDBLK
  5
DDA
330
DD8
100
AcDbEntity
  8
0
100
AcDbBlockEnd
  0
BLOCK
  5
DE6
330
DE5
100
AcDbEntity
  8
0
100
AcDbBlockBegin
  2
*D86
 70
     1
 10
0.0
 20
0.0
 30
0.0
  3
*D86
  1
*D86
  0
LINE
  5
DE8
330
DE5
100
AcDbEntity
  8
치수문자_일반주서
 62
     0
370
    -2
100
AcDbLine
 10
51.054
 20
3.237500000000005
 30
0.0
 11
51.054
 21
24.07668139999258
 31
0.0
  0
LINE
  5
DE9
330
DE5
100
AcDbEntity
  8
치수문자_일반주서
 62
     0
370
    -2
100
AcDbLine
 10
22.47900000000037
 20
1.182781451060436
 30
0.0
 11
22.47900000000037
 21
24.07668139999258
 31
0.0
  0
LINE
  5
DEA
330
DE5
100
AcDbEntity
  8
치수문자_일반주서
 62
     0
370
    -2
100
AcDbLine
 10
47.752
 20
24.07668139999258
 30
0.0
 11
25.78100000000037
 21
24.07668139999258
 31
0.0
  0
SOLID
  5
DEB
330
DE5
100
AcDbEntity
  8
치수문자_일반주서
 62
     0
100
AcDbTrace
 10
47.752
 20
23.52634806665925
 30
0.0
 11
47.752
 21
24.62701473332591
 31
0.0
 12
51.054
 22
24.07668139999258
 32
0.0
 13
51.054
 23
24.07668139999258
 33
0.0
  0
SOLID
  5
DEC
330
DE5
100
AcDbEntity
  8
치수문자_일반주서
 62
     0
100
AcDbTrace
 10
25.78100000000037
 20
24.62701473332591
 30
0.0
 11
25.78100000000037
 21
23.52634806665925
 31
0.0
 12
22.47900000000037
 22
24.07668139999258
 32
0.0
 13
22.47900000000037
 23
24.07668139999258
 33
0.0
  0
MTEXT
  5
DED
330
DE5
100
AcDbEntity
  8
치수문자_일반주서
 62
     0
100
AcDbMText
 10
38.81888433408469
 20
28.45168139999258
 30
0.0
 40
3.5
 41
0.0
 71
     2
 72
     1
  1
\A1;28.58 [1 1/8]
  7
SLDTEXTSTYLE0
 73
     1
 44
1.0
  0
POINT
  5
DEE
330
DE5
100
AcDbEntity
  8
Defpoints
 62
     0
100
AcDbPoint
 10
51.054
 20
3.175000000000005
 30
0.0
  0
POINT
  5
DEF
330
DE5
100
AcDbEntity
  8
Defpoints
 62
     0
100
AcDbPoint
 10
22.47900000000037
 20
1.120281451060436
 30
0.0
  0
POINT
  5
DF0
330
DE5
100
AcDbEntity
  8
Defpoints
 62
     0
100
AcDbPoint
 10
22.47900000000037
 20
24.07668139999258
 30
0.0
  0
ENDBLK
  5
DE7
330
DE5
100
AcDbEntity
  8
0
100
AcDbBlockEnd
  0
BLOCK
  5
DF2
330
DF1
100
AcDbEntity
  8
0
100
AcDbBlockBegin
  2
*D87
 70
     1
 10
0.0
 20
0.0
 30
0.0
  3
*D87
  1
*D87
  0
LINE
  5
DF4
330
DF1
100
AcDbEntity
  8
치수문자_일반주서
 62
     0
370
    -2
100
AcDbLine
 10
51.054
 20
3.237500000000005
 30
0.0
 11
51.054
 21
42.07668139999186
 31
0.0
  0
LINE
  5
DF5
330
DF1
100
AcDbEntity
  8
치수문자_일반주서
 62
     0
370
    -2
100
AcDbLine
 10
-50.54599999999999
 20
2.807500000000005
 30
0.0
 11
-50.54599999999999
 21
42.07668139999186
 31
0.0
  0
LINE
  5
DF6
330
DF1
100
AcDbEntity
  8
치수문자_일반주서
 62
     0
370
    -2
100
AcDbLine
 10
47.752
 20
42.07668139999186
 30
0.0
 11
-47.24399999999999
 21
42.07668139999186
 31
0.0
  0
SOLID
  5
DF7
330
DF1
100
AcDbEntity
  8
치수문자_일반주서
 62
     0
100
AcDbTrace
 10
47.752
 20
41.52634806665852
 30
0.0
 11
47.752
 21
42.62701473332519
 31
0.0
 12
51.054
 22
42.07668139999186
 32
0.0
 13
51.054
 23
42.07668139999186
 33
0.0
  0
SOLID
  5
DF8
330
DF1
100
AcDbEntity
  8
치수문자_일반주서
 62
     0
100
AcDbTrace
 10
-47.24399999999999
 20
42.62701473332519
 30
0.0
 11
-47.24399999999999
 21
41.52634806665852
 31
0.0
 12
-50.54599999999999
 22
42.07668139999186
 32
0.0
 13
-50.54599999999999
 23
42.07668139999186
 33
0.0
  0
MTEXT
  5
DF9
330
DF1
100
AcDbEntity
  8
치수문자_일반주서
 62
     0
100
AcDbMText
 10
-0.8176075690327025
 20
46.45168139999186
 30
0.0
 40
3.5
 41
0.0
 71
     2
 72
     1
  1
\A1;101.6 [4]
  7
SLDTEXTSTYLE0
 73
     1
 44
1.0
  0
POINT
  5
DFA
330
DF1
100
AcDbEntity
  8
Defpoints
 62
     0
100
AcDbPoint
 10
51.054
 20
3.175000000000005
 30
0.0
  0
POINT
  5
DFB
330
DF1
100
AcDbEntity
  8
Defpoints
 62
     0
100
AcDbPoint
 10
-50.54599999999999
 20
2.745000000000005
 30
0.0
  0
POINT
  5
DFC
330
DF1
100
AcDbEntity
  8
Defpoints
 62
     0
100
AcDbPoint
 10
-50.54599999999999
 20
42.07668139999186
 30
0.0
  0
ENDBLK
  5
DF3
330
DF1
100
AcDbEntity
  8
0
100
AcDbBlockEnd
  0
BLOCK
  5
DFE
330
DFD
100
AcDbEntity
  8
0
100
AcDbBlockBegin
  2
*D88
 70
     1
 10
0.0
 20
0.0
 30
0.0
  3
*D88
  1
*D88
  0
LINE
  5
E00
330
DFD
100
AcDbEntity
  8
치수문자_일반주서
 62
     0
370
    -2
100
AcDbLine
 10
51.054
 20
3.237500000000005
 30
0.0
 11
51.054
 21
36.07668139999183
 31
0.0
  0
LINE
  5
E01
330
DFD
100
AcDbEntity
  8
치수문자_일반주서
 62
     0
370
    -2
100
AcDbLine
 10
0.2540000000000049
 20
2.983500000000021
 30
0.0
 11
0.2540000000000049
 21
36.07668139999183
 31
0.0
  0
LINE
  5
E02
330
DFD
100
AcDbEntity
  8
치수문자_일반주서
 62
     0
370
    -2
100
AcDbLine
 10
47.752
 20
36.07668139999183
 30
0.0
 11
3.556000000000005
 21
36.07668139999183
 31
0.0
  0
SOLID
  5
E03
330
DFD
100
AcDbEntity
  8
치수문자_일반주서
 62
     0
100
AcDbTrace
 10
47.752
 20
35.52634806665849
 30
0.0
 11
47.752
 21
36.62701473332516
 31
0.0
 12
51.054
 22
36.07668139999183
 32
0.0
 13
51.054
 23
36.07668139999183
 33
0.0
  0
SOLID
  5
E04
330
DFD
100
AcDbEntity
  8
치수문자_일반주서
 62
     0
100
AcDbTrace
 10
3.556000000000005
 20
36.62701473332516
 30
0.0
 11
3.556000000000005
 21
35.52634806665849
 31
0.0
 12
0.2540000000000049
 22
36.07668139999183
 32
0.0
 13
0.2540000000000049
 23
36.07668139999183
 33
0.0
  0
MTEXT
  5
E05
330
DFD
100
AcDbEntity
  8
치수문자_일반주서
 62
     0
100
AcDbMText
 10
25.64560310239878
 20
40.45168139999183
 30
0.0
 40
3.5
 41
0.0
 71
     2
 72
     1
  1
\A1;50.8 [2]
  7
SLDTEXTSTYLE0
 73
     1
 44
1.0
  0
POINT
  5
E06
330
DFD
100
AcDbEntity
  8
Defpoints
 62
     0
100
AcDbPoint
 10
51.054
 20
3.175000000000005
 30
0.0
  0
POINT
  5
E07
330
DFD
100
AcDbEntity
  8
Defpoints
 62
     0
100
AcDbPoint
 10
0.2540000000000049
 20
2.921000000000021
 30
0.0
  0
POINT
  5
E08
330
DFD
100
AcDbEntity
  8
Defpoints
 62
     0
100
AcDbPoint
 10
0.2540000000000049
 20
36.07668139999183
 30
0.0
  0
ENDBLK
  5
DFF
330
DFD
100
AcDbEntity
  8
0
100
AcDbBlockEnd
  0
BLOCK
  5
E11
330
E10
100
AcDbEntity
  8
0
100
AcDbBlockBegin
  2
*D89
 70
     1
 10
0.0
 20
0.0
 30
0.0
  3
*D89
  1
*D89
  0
LINE
  5
E13
330
E10
100
AcDbEntity
  8
치수문자_일반주서
 62
     0
370
    -2
100
AcDbLine
 10
51.1165
 20
3.175000000000005
 30
0.0
 11
66.84645000104265
 21
3.175000000000004
 31
0.0
  0
LINE
  5
E14
330
E10
100
AcDbEntity
  8
치수문자_일반주서
 62
     0
370
    -2
100
AcDbLine
 10
51.1165
 20
-3.174999999999977
 30
0.0
 11
66.84645000104265
 21
-3.174999999999976
 31
0.0
  0
LINE
  5
E15
330
E10
100
AcDbEntity
  8
치수문자_일반주서
 62
     0
370
    -2
100
AcDbLine
 10
66.84645000104265
 20
3.175000000000004
 30
0.0
 11
66.84645000104265
 21
35.154
 31
0.0
  0
LINE
  5
E16
330
E10
100
AcDbEntity
  8
치수문자_일반주서
 62
     0
370
    -2
100
AcDbLine
 10
66.84645000104265
 20
3.175000000000004
 30
0.0
 11
66.84645000104265
 21
-3.174999999999976
 31
0.0
  0
LINE
  5
E17
330
E10
100
AcDbEntity
  8
치수문자_일반주서
 62
     0
370
    -2
100
AcDbLine
 10
66.84645000104265
 20
6.477000000000004
 30
0.0
 11
66.84645000104265
 21
9.779000000000003
 31
0.0
  0
LINE
  5
E18
330
E10
100
AcDbEntity
  8
치수문자_일반주서
 62
     0
370
    -2
100
AcDbLine
 10
66.84645000104265
 20
-6.476999999999975
 30
0.0
 11
66.84645000104265
 21
-9.778999999999975
 31
0.0
  0
SOLID
  5
E19
330
E10
100
AcDbEntity
  8
치수문자_일반주서
 62
     0
100
AcDbTrace
 10
66.29611666770933
 20
6.477000000000004
 30
0.0
 11
67.39678333437598
 21
6.477000000000004
 31
0.0
 12
66.84645000104265
 22
3.175000000000004
 32
0.0
 13
66.84645000104265
 23
3.175000000000004
 33
0.0
  0
SOLID
  5
E1A
330
E10
100
AcDbEntity
  8
치수문자_일반주서
 62
     0
100
AcDbTrace
 10
67.39678333437598
 20
-6.476999999999975
 30
0.0
 11
66.29611666770933
 21
-6.476999999999975
 31
0.0
 12
66.84645000104265
 22
-3.174999999999976
 32
0.0
 13
66.84645000104265
 23
-3.174999999999976
 33
0.0
  0
MTEXT
  5
E1B
330
E10
100
AcDbEntity
  8
치수문자_일반주서
 62
     0
100
AcDbMText
 10
64.22145000104265
 20
22.4665
 30
0.0
 40
3.5
 41
0.0
 71
     5
 72
     1
  1
\A1;{%%c6.35 [1/4]}
  7
SLDTEXTSTYLE0
 11
0.0
 21
1.0
 31
0.0
 73
     1
 44
1.0
  0
POINT
  5
E1C
330
E10
100
AcDbEntity
  8
Defpoints
 62
     0
100
AcDbPoint
 10
51.054
 20
3.175000000000005
 30
0.0
  0
POINT
  5
E1D
330
E10
100
AcDbEntity
  8
Defpoints
 62
     0
100
AcDbPoint
 10
51.054
 20
-3.174999999999977
 30
0.0
  0
POINT
  5
E20
330
E10
100
AcDbEntity
  8
Defpoints
 62
     0
100
AcDbPoint
 10
66.84645000104265
 20
-3.174999999999978
 30
0.0
  0
ENDBLK
  5
E12
330
E10
100
AcDbEntity
  8
0
100
AcDbBlockEnd
  0
BLOCK
  5
EEA
330
EE9
100
AcDbEntity
  8
0
100
AcDbBlockBegin
  2
*D90
 70
     1
 10
0.0
 20
0.0
 30
0.0
  3
*D90
  1
*D90
  0
LINE
  5
EEC
330
EE9
100
AcDbEntity
  8
치수문자_일반주서
 62
     0
370
    -2
100
AcDbLine
 10
112.3607807756017
 20
52.31780157272357
 30
0.0
 11
124.154496001893
 21
52.31780157272361
 31
0.0
  0
LINE
  5
EED
330
EE9
100
AcDbEntity
  8
치수문자_일반주서
 62
     0
370
    -2
100
AcDbLine
 10
112.3607807756017
 20
47.55530157272356
 30
0.0
 11
124.154496001893
 21
47.55530157272361
 31
0.0
  0
LINE
  5
EEE
330
EE9
100
AcDbEntity
  8
치수문자_일반주서
 62
     0
370
    -2
100
AcDbLine
 10
124.154496001893
 20
55.61980157272361
 30
0.0
 11
124.154496001893
 21
58.92180157272361
 31
0.0
  0
LINE
  5
EEF
330
EE9
100
AcDbEntity
  8
치수문자_일반주서
 62
     0
370
    -2
100
AcDbLine
 10
124.154496001893
 20
44.25330157272361
 30
0.0
 11
124.154496001893
 21
40.95130157272361
 31
0.0
  0
SOLID
  5
EF0
330
EE9
100
AcDbEntity
  8
치수문자_일반주서
 62
     0
100
AcDbTrace
 10
123.6041626685596
 20
55.61980157272361
 30
0.0
 11
124.7048293352263
 21
55.61980157272361
 31
0.0
 12
124.154496001893
 22
52.31780157272361
 32
0.0
 13
124.154496001893
 23
52.31780157272361
 33
0.0
  0
SOLID
  5
EF1
330
EE9
100
AcDbEntity
  8
치수문자_일반주서
 62
     0
100
AcDbTrace
 10
124.7048293352263
 20
44.25330157272361
 30
0.0
 11
123.6041626685597
 21
44.25330157272361
 31
0.0
 12
124.154496001893
 22
47.55530157272361
 32
0.0
 13
124.154496001893
 23
47.55530157272361
 33
0.0
  0
MTEXT
  5
EF2
330
EE9
100
AcDbEntity
  8
치수문자_일반주서
 62
     0
100
AcDbMText
 10
119.779496001893
 20
49.93655157272354
 30
0.0
 40
3.5
 41
0.0
 71
     2
 72
     1
  1
\A1;%%c4.76 [0.19]
  7
SLDTEXTSTYLE0
 11
-2.983906501879684E-15
 21
1.0
 31
0.0
 73
     1
 44
1.0
  0
POINT
  5
EF3
330
EE9
100
AcDbEntity
  8
Defpoints
 62
     0
100
AcDbPoint
 10
112.2982807756017
 20
52.31780157272357
 30
0.0
  0
POINT
  5
EF4
330
EE9
100
AcDbEntity
  8
Defpoints
 62
     0
100
AcDbPoint
 10
112.2982807756017
 20
47.55530157272356
 30
0.0
  0
POINT
  5
EF5
330
EE9
100
AcDbEntity
  8
Defpoints
 62
     0
100
AcDbPoint
 10
124.154496001893
 20
47.55530157272361
 30
0.0
  0
ENDBLK
  5
EEB
330
EE9
100
AcDbEntity
  8
0
100
AcDbBlockEnd
  0
BLOCK
  5
EF7
330
EF6
100
AcDbEntity
  8
0
100
AcDbBlockBegin
  2
*D91
 70
     1
 10
0.0
 20
0.0
 30
0.0
  3
*D91
  1
*D91
  0
LINE
  5
EF9
330
EF6
100
AcDbEntity
  8
치수문자_일반주서
 62
     0
370
    -2
100
AcDbLine
 10
18.31270926586183
 20
52.31780157272357
 30
0.0
 11
4.565209265861781
 21
52.31780157272352
 31
0.0
  0
LINE
  5
EFA
330
EF6
100
AcDbEntity
  8
치수문자_일반주서
 62
     0
370
    -2
100
AcDbLine
 10
18.31270926586183
 20
47.55530157272356
 30
0.0
 11
4.565209265861798
 21
47.55530157272351
 31
0.0
  0
LINE
  5
EFB
330
EF6
100
AcDbEntity
  8
치수문자_일반주서
 62
     0
370
    -2
100
AcDbLine
 10
4.565209265861769
 20
55.61980157272352
 30
0.0
 11
4.565209265861758
 21
58.92180157272352
 31
0.0
  0
LINE
  5
EFC
330
EF6
100
AcDbEntity
  8
치수문자_일반주서
 62
     0
370
    -2
100
AcDbLine
 10
4.565209265861809
 20
44.25330157272352
 30
0.0
 11
4.565209265861821
 21
40.95130157272352
 31
0.0
  0
SOLID
  5
EFD
330
EF6
100
AcDbEntity
  8
치수문자_일반주서
 62
     0
100
AcDbTrace
 10
4.014875932528436
 20
55.61980157272352
 30
0.0
 11
5.115542599195103
 21
55.61980157272352
 31
0.0
 12
4.565209265861781
 22
52.31780157272352
 32
0.0
 13
4.565209265861781
 23
52.31780157272352
 33
0.0
  0
SOLID
  5
EFE
330
EF6
100
AcDbEntity
  8
치수문자_일반주서
 62
     0
100
AcDbTrace
 10
5.115542599195143
 20
44.25330157272352
 30
0.0
 11
4.014875932528476
 21
44.25330157272352
 31
0.0
 12
4.565209265861798
 22
47.55530157272351
 32
0.0
 13
4.565209265861798
 23
47.55530157272351
 33
0.0
  0
MTEXT
  5
EFF
330
EF6
100
AcDbEntity
  8
치수문자_일반주서
 62
     0
100
AcDbMText
 10
0.1902092658617889
 20
49.93655157272355
 30
0.0
 40
3.5
 41
0.0
 71
     2
 72
     1
  1
\A1;%%c4.76 [0.19]
  7
SLDTEXTSTYLE0
 11
-3.543388970982125E-15
 21
1.0
 31
0.0
 73
     1
 44
1.0
  0
POINT
  5
F00
330
EF6
100
AcDbEntity
  8
Defpoints
 62
     0
100
AcDbPoint
 10
18.37520926586183
 20
52.31780157272357
 30
0.0
  0
POINT
  5
F01
330
EF6
100
AcDbEntity
  8
Defpoints
 62
     0
100
AcDbPoint
 10
18.37520926586183
 20
47.55530157272356
 30
0.0
  0
POINT
  5
F02
330
EF6
100
AcDbEntity
  8
Defpoints
 62
     0
100
AcDbPoint
 10
4.565209265861789
 20
47.55530157272351
 30
0.0
  0
ENDBLK
  5
EF8
330
EF6
100
AcDbEntity
  8
0
100
AcDbBlockEnd
  0
BLOCK
  5
F04
330
F03
100
AcDbEntity
  8
0
100
AcDbBlockBegin
  2
*D92
 70
     1
 10
0.0
 20
0.0
 30
0.0
  3
*D92
  1
*D92
  0
LINE
  5
F06
330
F03
100
AcDbEntity
  8
치수문자_일반주서
 62
     0
370
    -2
100
AcDbLine
 10
119.53261391946
 20
50.08300448478355
 30
0.0
 11
119.53261391946
 21
73.98524866869505
 31
0.0
  0
LINE
  5
F07
330
F03
100
AcDbEntity
  8
치수문자_일반주서
 62
     0
370
    -2
100
AcDbLine
 10
90.97020926586183
 20
52.38030157272357
 30
0.0
 11
90.97020926586183
 21
73.98524866869505
 31
0.0
  0
LINE
  5
F08
330
F03
100
AcDbEntity
  8
치수문자_일반주서
 62
     0
370
    -2
100
AcDbLine
 10
116.23061391946
 20
73.98524866869505
 30
0.0
 11
94.27220926586183
 21
73.98524866869505
 31
0.0
  0
SOLID
  5
F09
330
F03
100
AcDbEntity
  8
치수문자_일반주서
 62
     0
100
AcDbTrace
 10
116.23061391946
 20
73.43491533536172
 30
0.0
 11
116.23061391946
 21
74.53558200202838
 31
0.0
 12
119.53261391946
 22
73.98524866869505
 32
0.0
 13
119.53261391946
 23
73.98524866869505
 33
0.0
  0
SOLID
  5
F0A
330
F03
100
AcDbEntity
  8
치수문자_일반주서
 62
     0
100
AcDbTrace
 10
94.27220926586183
 20
74.53558200202838
 30
0.0
 11
94.27220926586183
 21
73.43491533536172
 31
0.0
 12
90.97020926586183
 22
73.98524866869505
 32
0.0
 13
90.97020926586183
 23
73.98524866869505
 33
0.0
  0
MTEXT
  5
F0B
330
F03
100
AcDbEntity
  8
치수문자_일반주서
 62
     0
100
AcDbMText
 10
107.3124957875079
 20
78.36024866869505
 30
0.0
 40
3.5
 41
0.0
 71
     2
 72
     1
  1
\A1;28.56 [1.12]
  7
SLDTEXTSTYLE0
 73
     1
 44
1.0
  0
POINT
  5
F0C
330
F03
100
AcDbEntity
  8
Defpoints
 62
     0
100
AcDbPoint
 10
119.53261391946
 20
50.02050448478355
 30
0.0
  0
POINT
  5
F0D
330
F03
100
AcDbEntity
  8
Defpoints
 62
     0
100
AcDbPoint
 10
90.97020926586183
 20
52.31780157272357
 30
0.0
  0
POINT
  5
F0E
330
F03
100
AcDbEntity
  8
Defpoints
 62
     0
100
AcDbPoint
 10
90.97020926586183
 20
73.98524866869505
 30
0.0
  0
ENDBLK
  5
F05
330
F03
100
AcDbEntity
  8
0
100
AcDbBlockEnd
  0
BLOCK
  5
F10
330
F0F
100
AcDbEntity
  8
0
100
AcDbBlockBegin
  2
*D93
 70
     1
 10
0.0
 20
0.0
 30
0.0
  3
*D93
  1
*D93
  0
LINE
  5
F12
330
F0F
100
AcDbEntity
  8
치수문자_일반주서
 62
     0
370
    -2
100
AcDbLine
 10
119.53261391946
 20
50.08300448478355
 30
0.0
 11
119.53261391946
 21
91.9852486686954
 31
0.0
  0
LINE
  5
F13
330
F0F
100
AcDbEntity
  8
치수문자_일반주서
 62
     0
370
    -2
100
AcDbLine
 10
17.94520926586183
 20
51.95030157272356
 30
0.0
 11
17.94520926586183
 21
91.9852486686954
 31
0.0
  0
LINE
  5
F14
330
F0F
100
AcDbEntity
  8
치수문자_일반주서
 62
     0
370
    -2
100
AcDbLine
 10
116.23061391946
 20
91.9852486686954
 30
0.0
 11
21.24720926586183
 21
91.9852486686954
 31
0.0
  0
SOLID
  5
F15
330
F0F
100
AcDbEntity
  8
치수문자_일반주서
 62
     0
100
AcDbTrace
 10
116.23061391946
 20
91.43491533536208
 30
0.0
 11
116.23061391946
 21
92.53558200202873
 31
0.0
 12
119.53261391946
 22
91.9852486686954
 32
0.0
 13
119.53261391946
 23
91.9852486686954
 33
0.0
  0
SOLID
  5
F16
330
F0F
100
AcDbEntity
  8
치수문자_일반주서
 62
     0
100
AcDbTrace
 10
21.24720926586183
 20
92.53558200202873
 30
0.0
 11
21.24720926586183
 21
91.43491533536208
 31
0.0
 12
17.94520926586183
 22
91.9852486686954
 32
0.0
 13
17.94520926586183
 23
91.9852486686954
 33
0.0
  0
MTEXT
  5
F17
330
F0F
100
AcDbEntity
  8
치수문자_일반주서
 62
     0
100
AcDbMText
 10
67.67565697857654
 20
96.3602486686954
 30
0.0
 40
3.5
 41
0.0
 71
     2
 72
     1
  1
\A1;101.59 [4.00]
  7
SLDTEXTSTYLE0
 73
     1
 44
1.0
  0
POINT
  5
F18
330
F0F
100
AcDbEntity
  8
Defpoints
 62
     0
100
AcDbPoint
 10
119.53261391946
 20
50.02050448478355
 30
0.0
  0
POINT
  5
F19
330
F0F
100
AcDbEntity
  8
Defpoints
 62
     0
100
AcDbPoint
 10
17.94520926586183
 20
51.88780157272356
 30
0.0
  0
POINT
  5
F1A
330
F0F
100
AcDbEntity
  8
Defpoints
 62
     0
100
AcDbPoint
 10
17.94520926586183
 20
91.9852486686954
 30
0.0
  0
ENDBLK
  5
F11
330
F0F
100
AcDbEntity
  8
0
100
AcDbBlockEnd
  0
BLOCK
  5
F1C
330
F1B
100
AcDbEntity
  8
0
100
AcDbBlockBegin
  2
*D94
 70
     1
 10
0.0
 20
0.0
 30
0.0
  3
*D94
  1
*D94
  0
LINE
  5
F1E
330
F1B
100
AcDbEntity
  8
치수문자_일반주서
 62
     0
370
    -2
100
AcDbLine
 10
119.53261391946
 20
50.08300448478355
 30
0.0
 11
119.53261391946
 21
85.98524866869536
 31
0.0
  0
LINE
  5
F1F
330
F1B
100
AcDbEntity
  8
치수문자_일반주서
 62
     0
370
    -2
100
AcDbLine
 10
68.74520926586183
 20
52.31045157272357
 30
0.0
 11
68.74520926586183
 21
85.98524866869536
 31
0.0
  0
LINE
  5
F20
330
F1B
100
AcDbEntity
  8
치수문자_일반주서
 62
     0
370
    -2
100
AcDbLine
 10
116.23061391946
 20
85.98524866869536
 30
0.0
 11
72.04720926586184
 21
85.98524866869536
 31
0.0
  0
SOLID
  5
F21
330
F1B
100
AcDbEntity
  8
치수문자_일반주서
 62
     0
100
AcDbTrace
 10
116.23061391946
 20
85.43491533536204
 30
0.0
 11
116.23061391946
 21
86.53558200202869
 31
0.0
 12
119.53261391946
 22
85.98524866869536
 32
0.0
 13
119.53261391946
 23
85.98524866869536
 33
0.0
  0
SOLID
  5
F22
330
F1B
100
AcDbEntity
  8
치수문자_일반주서
 62
     0
100
AcDbTrace
 10
72.04720926586184
 20
86.53558200202869
 30
0.0
 11
72.04720926586184
 21
85.43491533536204
 31
0.0
 12
68.74520926586183
 22
85.98524866869536
 32
0.0
 13
68.74520926586183
 23
85.98524866869536
 33
0.0
  0
MTEXT
  5
F23
330
F1B
100
AcDbEntity
  8
치수문자_일반주서
 62
     0
100
AcDbMText
 10
94.1389115926609
 20
90.36024866869536
 30
0.0
 40
3.5
 41
0.0
 71
     2
 72
     1
  1
\A1;50.79 [2.00]
  7
SLDTEXTSTYLE0
 73
     1
 44
1.0
  0
POINT
  5
F24
330
F1B
100
AcDbEntity
  8
Defpoints
 62
     0
100
AcDbPoint
 10
119.53261391946
 20
50.02050448478355
 30
0.0
  0
POINT
  5
F25
330
F1B
100
AcDbEntity
  8
Defpoints
 62
     0
100
AcDbPoint
 10
68.74520926586183
 20
52.24795157272357
 30
0.0
  0
POINT
  5
F26
330
F1B
100
AcDbEntity
  8
Defpoints
 62
     0
100
AcDbPoint
 10
68.74520926586183
 20
85.98524866869536
 30
0.0
  0
ENDBLK
  5
F1D
330
F1B
100
AcDbEntity
  8
0
100
AcDbBlockEnd
  0
BLOCK
  5
F6C
330
F6B
100
AcDbEntity
  8
0
100
AcDbBlockBegin
  2
*D95
 70
     1
 10
0.0
 20
0.0
 30
0.0
  3
*D95
  1
*D95
  0
LINE
  5
F6E
330
F6B
100
AcDbEntity
  8
치수문자_일반주서
 62
     0
370
    -2
100
AcDbLine
 10
51.12318374890867
 20
2.381249999999998
 30
0.0
 11
68.48597790453428
 21
2.381250000000062
 31
0.0
  0
LINE
  5
F6F
330
F6B
100
AcDbEntity
  8
치수문자_일반주서
 62
     0
370
    -2
100
AcDbLine
 10
51.12318374890867
 20
-2.38125
 30
0.0
 11
68.4859779045343
 21
-2.381249999999937
 31
0.0
  0
LINE
  5
F70
330
F6B
100
AcDbEntity
  8
치수문자_일반주서
 62
     0
370
    -2
100
AcDbLine
 10
68.48597790453428
 20
2.381250000000062
 30
0.0
 11
68.48597790453418
 21
36.98525000000006
 31
0.0
  0
LINE
  5
F71
330
F6B
100
AcDbEntity
  8
치수문자_일반주서
 62
     0
370
    -2
100
AcDbLine
 10
68.48597790453428
 20
2.381250000000062
 30
0.0
 11
68.4859779045343
 21
-2.381249999999937
 31
0.0
  0
LINE
  5
F72
330
F6B
100
AcDbEntity
  8
치수문자_일반주서
 62
     0
370
    -2
100
AcDbLine
 10
68.48597790453427
 20
5.683250000000061
 30
0.0
 11
68.48597790453425
 21
8.985250000000061
 31
0.0
  0
LINE
  5
F73
330
F6B
100
AcDbEntity
  8
치수문자_일반주서
 62
     0
370
    -2
100
AcDbLine
 10
68.48597790453431
 20
-5.683249999999937
 30
0.0
 11
68.48597790453432
 21
-8.985249999999937
 31
0.0
  0
SOLID
  5
F74
330
F6B
100
AcDbEntity
  8
치수문자_일반주서
 62
     0
100
AcDbTrace
 10
67.93564457120094
 20
5.68325000000006
 30
0.0
 11
69.0363112378676
 21
5.683250000000063
 31
0.0
 12
68.48597790453428
 22
2.381250000000062
 32
0.0
 13
68.48597790453428
 23
2.381250000000062
 33
0.0
  0
SOLID
  5
F75
330
F6B
100
AcDbEntity
  8
치수문자_일반주서
 62
     0
100
AcDbTrace
 10
69.03631123786764
 20
-5.683249999999935
 30
0.0
 11
67.93564457120098
 21
-5.683249999999939
 31
0.0
 12
68.4859779045343
 22
-2.381249999999937
 32
0.0
 13
68.4859779045343
 23
-2.381249999999937
 33
0.0
  0
MTEXT
  5
F76
330
F6B
100
AcDbEntity
  8
치수문자_일반주서
 62
     0
100
AcDbMText
 10
64.11097790453422
 20
22.98525000000005
 30
0.0
 40
3.5
 41
0.0
 71
     2
 72
     1
  1
\A1;%%c4.76 [3/16]
  7
SLDTEXTSTYLE0
 11
-2.983906501879687E-15
 21
1.0
 31
0.0
 73
     1
 44
1.0
  0
POINT
  5
FAE
330
F6B
100
AcDbEntity
  8
Defpoints
 62
     0
100
AcDbPoint
 10
51.06068374890867
 20
2.381249999999998
 30
0.0
  0
POINT
  5
FAF
330
F6B
100
AcDbEntity
  8
Defpoints
 62
     0
100
AcDbPoint
 10
51.06068374890867
 20
-2.38125
 30
0.0
  0
POINT
  5
FB0
330
F6B
100
AcDbEntity
  8
Defpoints
 62
     0
100
AcDbPoint
 10
68.4859779045343
 20
-2.381249999999935
 30
0.0
  0
ENDBLK
  5
F6D
330
F6B
100
AcDbEntity
  8
0
100
AcDbBlockEnd
  0
BLOCK
  5
F79
330
F78
100
AcDbEntity
  8
0
100
AcDbBlockBegin
  2
*D96
 70
     1
 10
0.0
 20
0.0
 30
0.0
  3
*D96
  1
*D96
  0
LINE
  5
F7B
330
F78
100
AcDbEntity
  8
치수문자_일반주서
 62
     0
370
    -2
100
AcDbLine
 10
-50.17181625109131
 20
2.381250000000022
 30
0.0
 11
-63.91931625109132
 21
2.381249999999969
 31
0.0
  0
LINE
  5
F7C
330
F78
100
AcDbEntity
  8
치수문자_일반주서
 62
     0
370
    -2
100
AcDbLine
 10
-50.17181625109131
 20
-2.381249999999995
 30
0.0
 11
-63.9193162510913
 21
-2.381250000000048
 31
0.0
  0
LINE
  5
F7D
330
F78
100
AcDbEntity
  8
치수문자_일반주서
 62
     0
370
    -2
100
AcDbLine
 10
-63.91931625109132
 20
2.381249999999969
 30
0.0
 11
-63.91931625109142
 21
36.98524999999997
 31
0.0
  0
LINE
  5
F7E
330
F78
100
AcDbEntity
  8
치수문자_일반주서
 62
     0
370
    -2
100
AcDbLine
 10
-63.91931625109132
 20
2.381249999999969
 30
0.0
 11
-63.9193162510913
 21
-2.381250000000048
 31
0.0
  0
LINE
  5
F7F
330
F78
100
AcDbEntity
  8
치수문자_일반주서
 62
     0
370
    -2
100
AcDbLine
 10
-63.91931625109132
 20
5.683249999999969
 30
0.0
 11
-63.91931625109133
 21
8.985249999999969
 31
0.0
  0
LINE
  5
F80
330
F78
100
AcDbEntity
  8
치수문자_일반주서
 62
     0
370
    -2
100
AcDbLine
 10
-63.9193162510913
 20
-5.683250000000047
 30
0.0
 11
-63.91931625109129
 21
-8.985250000000047
 31
0.0
  0
SOLID
  5
F81
330
F78
100
AcDbEntity
  8
치수문자_일반주서
 62
     0
100
AcDbTrace
 10
-64.46964958442466
 20
5.683249999999967
 30
0.0
 11
-63.36898291775799
 21
5.683249999999971
 31
0.0
 12
-63.91931625109132
 22
2.381249999999969
 32
0.0
 13
-63.91931625109132
 23
2.381249999999969
 33
0.0
  0
SOLID
  5
F82
330
F78
100
AcDbEntity
  8
치수문자_일반주서
 62
     0
100
AcDbTrace
 10
-63.36898291775796
 20
-5.683250000000045
 30
0.0
 11
-64.46964958442463
 21
-5.683250000000049
 31
0.0
 12
-63.9193162510913
 22
-2.381250000000048
 32
0.0
 13
-63.9193162510913
 23
-2.381250000000048
 33
0.0
  0
MTEXT
  5
F83
330
F78
100
AcDbEntity
  8
치수문자_일반주서
 62
     0
100
AcDbMText
 10
-68.29431625109137
 20
22.98524999999996
 30
0.0
 40
3.5
 41
0.0
 71
     2
 72
     1
  1
\A1;%%c4.76 [3/16]
  7
SLDTEXTSTYLE0
 11
-2.983906501879675E-15
 21
1.0
 31
0.0
 73
     1
 44
1.0
  0
POINT
  5
FB1
330
F78
100
AcDbEntity
  8
Defpoints
 62
     0
100
AcDbPoint
 10
-50.10931625109131
 20
2.381250000000023
 30
0.0
  0
POINT
  5
FB2
330
F78
100
AcDbEntity
  8
Defpoints
 62
     0
100
AcDbPoint
 10
-50.10931625109131
 20
-2.381249999999994
 30
0.0
  0
POINT
  5
FB3
330
F78
100
AcDbEntity
  8
Defpoints
 62
     0
100
AcDbPoint
 10
-63.91931625109131
 20
-2.381250000000046
 30
0.0
  0
ENDBLK
  5
F7A
330
F78
100
AcDbEntity
  8
0
100
AcDbBlockEnd
  0
BLOCK
  5
F86
330
F85
100
AcDbEntity
  8
0
100
AcDbBlockBegin
  2
*D97
 70
     1
 10
0.0
 20
0.0
 30
0.0
  3
*D97
  1
*D97
  0
LINE
  5
F88
330
F85
100
AcDbEntity
  8
치수문자_일반주서
 62
     0
370
    -2
100
AcDbLine
 10
51.06068374890867
 20
2.443749999999998
 30
0.0
 11
51.06068374890867
 21
24.04869709597148
 31
0.0
  0
LINE
  5
F89
330
F85
100
AcDbEntity
  8
치수문자_일반주서
 62
     0
370
    -2
100
AcDbLine
 10
22.48568374890868
 20
2.443750000000023
 30
0.0
 11
22.48568374890868
 21
24.04869709597148
 31
0.0
  0
LINE
  5
F8A
330
F85
100
AcDbEntity
  8
치수문자_일반주서
 62
     0
370
    -2
100
AcDbLine
 10
47.75868374890867
 20
24.04869709597148
 30
0.0
 11
25.78768374890868
 21
24.04869709597148
 31
0.0
  0
SOLID
  5
F8B
330
F85
100
AcDbEntity
  8
치수문자_일반주서
 62
     0
100
AcDbTrace
 10
47.75868374890867
 20
23.49836376263814
 30
0.0
 11
47.75868374890867
 21
24.59903042930481
 31
0.0
 12
51.06068374890867
 22
24.04869709597148
 32
0.0
 13
51.06068374890867
 23
24.04869709597148
 33
0.0
  0
SOLID
  5
F8C
330
F85
100
AcDbEntity
  8
치수문자_일반주서
 62
     0
100
AcDbTrace
 10
25.78768374890868
 20
24.59903042930481
 30
0.0
 11
25.78768374890868
 21
23.49836376263814
 31
0.0
 12
22.48568374890868
 22
24.04869709597148
 32
0.0
 13
22.48568374890868
 23
24.04869709597148
 33
0.0
  0
MTEXT
  5
F8D
330
F85
100
AcDbEntity
  8
치수문자_일반주서
 62
     0
100
AcDbMText
 10
38.82797027055477
 20
28.42369709597148
 30
0.0
 40
3.5
 41
0.0
 71
     2
 72
     1
  1
\A1;28.58 [1 1/8]
  7
SLDTEXTSTYLE0
 73
     1
 44
1.0
  0
POINT
  5
F8E
330
F85
100
AcDbEntity
  8
Defpoints
 62
     0
100
AcDbPoint
 10
51.06068374890867
 20
2.381249999999998
 30
0.0
  0
POINT
  5
F8F
330
F85
100
AcDbEntity
  8
Defpoints
 62
     0
100
AcDbPoint
 10
22.48568374890868
 20
2.381250000000023
 30
0.0
  0
POINT
  5
F90
330
F85
100
AcDbEntity
  8
Defpoints
 62
     0
100
AcDbPoint
 10
22.48568374890868
 20
24.04869709597148
 30
0.0
  0
ENDBLK
  5
F87
330
F85
100
AcDbEntity
  8
0
100
AcDbBlockEnd
  0
BLOCK
  5
F92
330
F91
100
AcDbEntity
  8
0
100
AcDbBlockBegin
  2
*D98
 70
     1
 10
0.0
 20
0.0
 30
0.0
  3
*D98
  1
*D98
  0
LINE
  5
F94
330
F91
100
AcDbEntity
  8
치수문자_일반주서
 62
     0
370
    -2
100
AcDbLine
 10
51.06068374890867
 20
2.443749999999998
 30
0.0
 11
51.06068374890867
 21
45.8842336265868
 31
0.0
  0
LINE
  5
F95
330
F91
100
AcDbEntity
  8
치수문자_일반주서
 62
     0
370
    -2
100
AcDbLine
 10
-50.53931625109131
 20
2.013750000000016
 30
0.0
 11
-50.53931625109131
 21
45.8842336265868
 31
0.0
  0
LINE
  5
F96
330
F91
100
AcDbEntity
  8
치수문자_일반주서
 62
     0
370
    -2
100
AcDbLine
 10
47.75868374890867
 20
45.8842336265868
 30
0.0
 11
-47.23731625109131
 21
45.8842336265868
 31
0.0
  0
SOLID
  5
F97
330
F91
100
AcDbEntity
  8
치수문자_일반주서
 62
     0
100
AcDbTrace
 10
47.75868374890867
 20
45.33390029325346
 30
0.0
 11
47.75868374890867
 21
46.43456695992013
 31
0.0
 12
51.06068374890867
 22
45.8842336265868
 32
0.0
 13
51.06068374890867
 23
45.8842336265868
 33
0.0
  0
SOLID
  5
F98
330
F91
100
AcDbEntity
  8
치수문자_일반주서
 62
     0
100
AcDbTrace
 10
-47.23731625109131
 20
46.43456695992013
 30
0.0
 11
-47.23731625109131
 21
45.33390029325346
 31
0.0
 12
-50.53931625109131
 22
45.8842336265868
 32
0.0
 13
-50.53931625109131
 23
45.8842336265868
 33
0.0
  0
MTEXT
  5
F99
330
F91
100
AcDbEntity
  8
치수문자_일반주서
 62
     0
100
AcDbMText
 10
-0.6512255679381127
 20
50.2592336265868
 30
0.0
 40
3.5
 41
0.0
 71
     2
 72
     1
  1
\A1;101.6 [4]
  7
SLDTEXTSTYLE0
 73
     1
 44
1.0
  0
POINT
  5
F9A
330
F91
100
AcDbEntity
  8
Defpoints
 62
     0
100
AcDbPoint
 10
51.06068374890867
 20
2.381249999999998
 30
0.0
  0
POINT
  5
F9B
330
F91
100
AcDbEntity
  8
Defpoints
 62
     0
100
AcDbPoint
 10
-50.53931625109131
 20
1.951250000000016
 30
0.0
  0
POINT
  5
F9C
330
F91
100
AcDbEntity
  8
Defpoints
 62
     0
100
AcDbPoint
 10
-50.53931625109131
 20
45.8842336265868
 30
0.0
  0
ENDBLK
  5
F93
330
F91
100
AcDbEntity
  8
0
100
AcDbBlockEnd
  0
BLOCK
  5
F9E
330
F9D
100
AcDbEntity
  8
0
100
AcDbBlockBegin
  2
*D99
 70
     1
 10
0.0
 20
0.0
 30
0.0
  3
*D99
  1
*D99
  0
LINE
  5
FA0
330
F9D
100
AcDbEntity
  8
치수문자_일반주서
 62
     0
370
    -2
100
AcDbLine
 10
51.04808840250683
 20
0.1464529120599991
 30
0.0
 11
51.04808840250683
 21
36.04869709597182
 31
0.0
  0
LINE
  5
FA1
330
F9D
100
AcDbEntity
  8
치수문자_일반주서
 62
     0
370
    -2
100
AcDbLine
 10
0.2606837489086899
 20
2.373899999999992
 30
0.0
 11
0.2606837489086899
 21
36.04869709597182
 31
0.0
  0
LINE
  5
FA2
330
F9D
100
AcDbEntity
  8
치수문자_일반주서
 62
     0
370
    -2
100
AcDbLine
 10
47.74608840250684
 20
36.04869709597182
 30
0.0
 11
3.56268374890869
 21
36.04869709597182
 31
0.0
  0
SOLID
  5
FA3
330
F9D
100
AcDbEntity
  8
치수문자_일반주서
 62
     0
100
AcDbTrace
 10
47.74608840250684
 20
35.49836376263848
 30
0.0
 11
47.74608840250684
 21
36.59903042930515
 31
0.0
 12
51.04808840250683
 22
36.04869709597182
 32
0.0
 13
51.04808840250683
 23
36.04869709597182
 33
0.0
  0
SOLID
  5
FA4
330
F9D
100
AcDbEntity
  8
치수문자_일반주서
 62
     0
100
AcDbTrace
 10
3.56268374890869
 20
36.59903042930515
 30
0.0
 11
3.56268374890869
 21
35.49836376263848
 31
0.0
 12
0.2606837489086899
 22
36.04869709597182
 32
0.0
 13
0.2606837489086899
 23
36.04869709597182
 33
0.0
  0
MTEXT
  5
FA5
330
F9D
100
AcDbEntity
  8
치수문자_일반주서
 62
     0
100
AcDbMText
 10
25.65438607570776
 20
40.42369709597182
 30
0.0
 40
3.5
 41
0.0
 71
     2
 72
     1
  1
\A1;50.79 [2]
  7
SLDTEXTSTYLE0
 73
     1
 44
1.0
  0
POINT
  5
FA6
330
F9D
100
AcDbEntity
  8
Defpoints
 62
     0
100
AcDbPoint
 10
51.04808840250683
 20
0.0839529120599991
 30
0.0
  0
POINT
  5
FA7
330
F9D
100
AcDbEntity
  8
Defpoints
 62
     0
100
AcDbPoint
 10
0.2606837489086899
 20
2.311399999999992
 30
0.0
  0
POINT
  5
FA8
330
F9D
100
AcDbEntity
  8
Defpoints
 62
     0
100
AcDbPoint
 10
0.2606837489086899
 20
36.04869709597182
 30
0.0
  0
ENDBLK
  5
F9F
330
F9D
100
AcDbEntity
  8
0
100
AcDbBlockEnd
  0
BLOCK
  5
FBF
330
FBE
100
AcDbEntity
  8
0
100
AcDbBlockBegin
  2
*D100
 70
     1
 10
0.0
 20
0.0
 30
0.0
  3
*D100
  1
*D100
  0
LINE
  5
FC1
330
FBE
100
AcDbEntity
  8
치수문자_일반주서
 62
     0
370
    -2
100
AcDbLine
 10
0.2606837489086899
 20
-0.0771931128942929
 30
0.0
 11
0.2606837489086899
 21
33.81535664832815
 31
0.0
  0
LINE
  5
FC2
330
FBE
100
AcDbEntity
  8
치수문자_일반주서
 62
     0
370
    -2
100
AcDbLine
 10
51.06068374890867
 20
2.443749999999998
 30
0.0
 11
51.06068374890867
 21
33.81535664832815
 31
0.0
  0
LINE
  5
FC3
330
FBE
100
AcDbEntity
  8
치수문자_일반주서
 62
     0
370
    -2
100
AcDbLine
 10
3.56268374890869
 20
33.81535664832815
 30
0.0
 11
47.75868374890867
 21
33.81535664832815
 31
0.0
  0
SOLID
  5
FC4
330
FBE
100
AcDbEntity
  8
치수문자_일반주서
 62
     0
100
AcDbTrace
 10
3.56268374890869
 20
34.36568998166148
 30
0.0
 11
3.56268374890869
 21
33.26502331499481
 31
0.0
 12
0.2606837489086899
 22
33.81535664832815
 32
0.0
 13
0.2606837489086899
 23
33.81535664832815
 33
0.0
  0
SOLID
  5
FC5
330
FBE
100
AcDbEntity
  8
치수문자_일반주서
 62
     0
100
AcDbTrace
 10
47.75868374890867
 20
33.26502331499481
 30
0.0
 11
47.75868374890867
 21
34.36568998166148
 31
0.0
 12
51.06068374890867
 22
33.81535664832815
 32
0.0
 13
51.06068374890867
 23
33.81535664832815
 33
0.0
  0
MTEXT
  5
FC6
330
FBE
100
AcDbEntity
  8
치수문자_일반주서
 62
     0
100
AcDbMText
 10
25.66068374890868
 20
36.44035664832815
 30
0.0
 40
3.5
 41
0.0
 71
     5
 72
     1
  1
\A1;50.8 [2]
  7
SLDTEXTSTYLE0
 73
     1
 44
1.0
  0
POINT
  5
FC7
330
FBE
100
AcDbEntity
  8
Defpoints
 62
     0
100
AcDbPoint
 10
0.2606837489086899
 20
-0.1396931128942929
 30
0.0
  0
POINT
  5
FC8
330
FBE
100
AcDbEntity
  8
Defpoints
 62
     0
100
AcDbPoint
 10
51.06068374890867
 20
2.381249999999998
 30
0.0
  0
POINT
  5
FC9
330
FBE
100
AcDbEntity
  8
Defpoints
 62
     0
100
AcDbPoint
 10
51.06068374890867
 20
33.81535664832815
 30
0.0
  0
ENDBLK
  5
FC0
330
FBE
100
AcDbEntity
  8
0
100
AcDbBlockEnd
  0
BLOCK
  5
10AD
330
10AC
100
AcDbEntity
  8
0
100
AcDbBlockBegin
  2
*D101
 70
     1
 10
0.0
 20
0.0
 30
0.0
  3
*D101
  1
*D102
  0
LINE
  5
10AF
330
10AC
100
AcDbEntity
  8
치수문자_일반주서
 62
     0
370
    -2
100
AcDbLine
 10
131.0307807756017
 20
52.31780157272357
 30
0.0
 11
142.824496001893
 21
52.31780157272361
 31
0.0
  0
LINE
  5
10B0
330
10AC
100
AcDbEntity
  8
치수문자_일반주서
 62
     0
370
    -2
100
AcDbLine
 10
131.0307807756017
 20
47.55530157272356
 30
0.0
 11
142.824496001893
 21
47.55530157272361
 31
0.0
  0
LINE
  5
10B1
330
10AC
100
AcDbEntity
  8
치수문자_일반주서
 62
     0
370
    -2
100
AcDbLine
 10
142.824496001893
 20
55.61980157272361
 30
0.0
 11
142.8244960018929
 21
58.92180157272361
 31
0.0
  0
LINE
  5
10B2
330
10AC
100
AcDbEntity
  8
치수문자_일반주서
 62
     0
370
    -2
100
AcDbLine
 10
142.824496001893
 20
44.25330157272361
 30
0.0
 11
142.8244960018931
 21
40.95130157272361
 31
0.0
  0
SOLID
  5
10B3
330
10AC
100
AcDbEntity
  8
치수문자_일반주서
 62
     0
100
AcDbTrace
 10
142.2741626685596
 20
55.61980157272361
 30
0.0
 11
143.3748293352263
 21
55.61980157272361
 31
0.0
 12
142.824496001893
 22
52.31780157272361
 32
0.0
 13
142.824496001893
 23
52.31780157272361
 33
0.0
  0
SOLID
  5
10B4
330
10AC
100
AcDbEntity
  8
치수문자_일반주서
 62
     0
100
AcDbTrace
 10
143.3748293352264
 20
44.25330157272361
 30
0.0
 11
142.2741626685597
 21
44.25330157272361
 31
0.0
 12
142.824496001893
 22
47.55530157272361
 32
0.0
 13
142.824496001893
 23
47.55530157272361
 33
0.0
  0
MTEXT
  5
10B5
330
10AC
100
AcDbEntity
  8
치수문자_일반주서
 62
     0
100
AcDbMText
 10
138.449496001893
 20
49.93655157272354
 30
0.0
 40
3.5
 41
0.0
 71
     2
 72
     1
  1
\A1;%%c4.76 [0.19]
  7
SLDTEXTSTYLE0
 11
-5.967813003759368E-15
 21
1.0
 31
0.0
 73
     1
 44
1.0
  0
POINT
  5
10B6
330
10AC
100
AcDbEntity
  8
Defpoints
 62
     0
100
AcDbPoint
 10
130.9682807756017
 20
52.31780157272357
 30
0.0
  0
POINT
  5
10B7
330
10AC
100
AcDbEntity
  8
Defpoints
 62
     0
100
AcDbPoint
 10
130.9682807756017
 20
47.55530157272356
 30
0.0
  0
POINT
  5
10B8
330
10AC
100
AcDbEntity
  8
Defpoints
 62
     0
100
AcDbPoint
 10
142.824496001893
 20
47.55530157272361
 30
0.0
  0
ENDBLK
  5
10AE
330
10AC
100
AcDbEntity
  8
0
100
AcDbBlockEnd
  0
BLOCK
  5
10BA
330
10B9
100
AcDbEntity
  8
0
100
AcDbBlockBegin
  2
*D102
 70
     1
 10
0.0
 20
0.0
 30
0.0
  3
*D102
  1
*D103
  0
LINE
  5
10BC
330
10B9
100
AcDbEntity
  8
치수문자_일반주서
 62
     0
370
    -2
100
AcDbLine
 10
18.31270926586184
 20
52.31780157272357
 30
0.0
 11
4.565209265861788
 21
52.31780157272352
 31
0.0
  0
LINE
  5
10BD
330
10B9
100
AcDbEntity
  8
치수문자_일반주서
 62
     0
370
    -2
100
AcDbLine
 10
18.31270926586184
 20
47.55530157272356
 30
0.0
 11
4.565209265861805
 21
47.55530157272351
 31
0.0
  0
LINE
  5
10BE
330
10B9
100
AcDbEntity
  8
치수문자_일반주서
 62
     0
370
    -2
100
AcDbLine
 10
4.565209265861776
 20
55.61980157272352
 30
0.0
 11
4.565209265861765
 21
58.92180157272352
 31
0.0
  0
LINE
  5
10BF
330
10B9
100
AcDbEntity
  8
치수문자_일반주서
 62
     0
370
    -2
100
AcDbLine
 10
4.565209265861816
 20
44.25330157272352
 30
0.0
 11
4.565209265861828
 21
40.95130157272352
 31
0.0
  0
SOLID
  5
10C0
330
10B9
100
AcDbEntity
  8
치수문자_일반주서
 62
     0
100
AcDbTrace
 10
4.014875932528443
 20
55.61980157272352
 30
0.0
 11
5.11554259919511
 21
55.61980157272352
 31
0.0
 12
4.565209265861788
 22
52.31780157272352
 32
0.0
 13
4.565209265861788
 23
52.31780157272352
 33
0.0
  0
SOLID
  5
10C1
330
10B9
100
AcDbEntity
  8
치수문자_일반주서
 62
     0
100
AcDbTrace
 10
5.11554259919515
 20
44.25330157272352
 30
0.0
 11
4.014875932528483
 21
44.25330157272352
 31
0.0
 12
4.565209265861805
 22
47.55530157272351
 32
0.0
 13
4.565209265861805
 23
47.55530157272351
 33
0.0
  0
MTEXT
  5
10C2
330
10B9
100
AcDbEntity
  8
치수문자_일반주서
 62
     0
100
AcDbMText
 10
0.190209265861796
 20
49.93655157272355
 30
0.0
 40
3.5
 41
0.0
 71
     2
 72
     1
  1
\A1;%%c4.76 [0.19]
  7
SLDTEXTSTYLE0
 11
-3.543388970982125E-15
 21
1.0
 31
0.0
 73
     1
 44
1.0
  0
POINT
  5
10C3
330
10B9
100
AcDbEntity
  8
Defpoints
 62
     0
100
AcDbPoint
 10
18.37520926586184
 20
52.31780157272357
 30
0.0
  0
POINT
  5
10C4
330
10B9
100
AcDbEntity
  8
Defpoints
 62
     0
100
AcDbPoint
 10
18.37520926586184
 20
47.55530157272356
 30
0.0
  0
POINT
  5
10C5
330
10B9
100
AcDbEntity
  8
Defpoints
 62
     0
100
AcDbPoint
 10
4.565209265861796
 20
47.55530157272351
 30
0.0
  0
ENDBLK
  5
10BB
330
10B9
100
AcDbEntity
  8
0
100
AcDbBlockEnd
  0
BLOCK
  5
10C7
330
10C6
100
AcDbEntity
  8
0
100
AcDbBlockBegin
  2
*D103
 70
     1
 10
0.0
 20
0.0
 30
0.0
  3
*D103
  1
*D104
  0
LINE
  5
10C9
330
10C6
100
AcDbEntity
  8
치수문자_일반주서
 62
     0
370
    -2
100
AcDbLine
 10
138.20261391946
 20
50.08300448478355
 30
0.0
 11
138.20261391946
 21
73.98524866869505
 31
0.0
  0
LINE
  5
10CA
330
10C6
100
AcDbEntity
  8
치수문자_일반주서
 62
     0
370
    -2
100
AcDbLine
 10
109.6402092658618
 20
52.38030157272357
 30
0.0
 11
109.6402092658618
 21
73.98524866869505
 31
0.0
  0
LINE
  5
10CB
330
10C6
100
AcDbEntity
  8
치수문자_일반주서
 62
     0
370
    -2
100
AcDbLine
 10
134.90061391946
 20
73.98524866869505
 30
0.0
 11
112.9422092658618
 21
73.98524866869505
 31
0.0
  0
SOLID
  5
10CC
330
10C6
100
AcDbEntity
  8
치수문자_일반주서
 62
     0
100
AcDbTrace
 10
134.90061391946
 20
73.43491533536172
 30
0.0
 11
134.90061391946
 21
74.53558200202838
 31
0.0
 12
138.20261391946
 22
73.98524866869505
 32
0.0
 13
138.20261391946
 23
73.98524866869505
 33
0.0
  0
SOLID
  5
10CD
330
10C6
100
AcDbEntity
  8
치수문자_일반주서
 62
     0
100
AcDbTrace
 10
112.9422092658618
 20
74.53558200202838
 30
0.0
 11
112.9422092658618
 21
73.43491533536172
 31
0.0
 12
109.6402092658618
 22
73.98524866869505
 32
0.0
 13
109.6402092658618
 23
73.98524866869505
 33
0.0
  0
MTEXT
  5
10CE
330
10C6
100
AcDbEntity
  8
치수문자_일반주서
 62
     0
100
AcDbMText
 10
125.9824957875079
 20
78.36024866869505
 30
0.0
 40
3.5
 41
0.0
 71
     2
 72
     1
  1
\A1;28.56 [1.12]
  7
SLDTEXTSTYLE0
 73
     1
 44
1.0
  0
POINT
  5
10CF
330
10C6
100
AcDbEntity
  8
Defpoints
 62
     0
100
AcDbPoint
 10
138.20261391946
 20
50.02050448478355
 30
0.0
  0
POINT
  5
10D0
330
10C6
100
AcDbEntity
  8
Defpoints
 62
     0
100
AcDbPoint
 10
109.6402092658618
 20
52.31780157272357
 30
0.0
  0
POINT
  5
10D1
330
10C6
100
AcDbEntity
  8
Defpoints
 62
     0
100
AcDbPoint
 10
109.6402092658618
 20
73.98524866869505
 30
0.0
  0
ENDBLK
  5
10C8
330
10C6
100
AcDbEntity
  8
0
100
AcDbBlockEnd
  0
BLOCK
  5
10D3
330
10D2
100
AcDbEntity
  8
0
100
AcDbBlockBegin
  2
*D104
 70
     1
 10
0.0
 20
0.0
 30
0.0
  3
*D104
  1
*D105
  0
LINE
  5
10D5
330
10D2
100
AcDbEntity
  8
치수문자_일반주서
 62
     0
370
    -2
100
AcDbLine
 10
138.20261391946
 20
50.08300448478355
 30
0.0
 11
138.20261391946
 21
91.9852486686954
 31
0.0
  0
LINE
  5
10D6
330
10D2
100
AcDbEntity
  8
치수문자_일반주서
 62
     0
370
    -2
100
AcDbLine
 10
17.56520926586182
 20
51.57030157272355
 30
0.0
 11
17.56520926586182
 21
91.9852486686954
 31
0.0
  0
LINE
  5
10D7
330
10D2
100
AcDbEntity
  8
치수문자_일반주서
 62
     0
370
    -2
100
AcDbLine
 10
134.90061391946
 20
91.9852486686954
 30
0.0
 11
20.86720926586182
 21
91.9852486686954
 31
0.0
  0
SOLID
  5
10D8
330
10D2
100
AcDbEntity
  8
치수문자_일반주서
 62
     0
100
AcDbTrace
 10
134.90061391946
 20
91.43491533536208
 30
0.0
 11
134.90061391946
 21
92.53558200202873
 31
0.0
 12
138.20261391946
 22
91.9852486686954
 32
0.0
 13
138.20261391946
 23
91.9852486686954
 33
0.0
  0
SOLID
  5
10D9
330
10D2
100
AcDbEntity
  8
치수문자_일반주서
 62
     0
100
AcDbTrace
 10
20.86720926586182
 20
92.53558200202873
 30
0.0
 11
20.86720926586182
 21
91.43491533536208
 31
0.0
 12
17.56520926586182
 22
91.9852486686954
 32
0.0
 13
17.56520926586182
 23
91.9852486686954
 33
0.0
  0
MTEXT
  5
10DA
330
10D2
100
AcDbEntity
  8
치수문자_일반주서
 62
     0
100
AcDbMText
 10
76.62127202069347
 20
96.3602486686954
 30
0.0
 40
3.5
 41
0.0
 71
     2
 72
     1
  1
\A1;120.64 [4.75]
  7
SLDTEXTSTYLE0
 73
     1
 44
1.0
  0
POINT
  5
10DB
330
10D2
100
AcDbEntity
  8
Defpoints
 62
     0
100
AcDbPoint
 10
138.20261391946
 20
50.02050448478355
 30
0.0
  0
POINT
  5
10DC
330
10D2
100
AcDbEntity
  8
Defpoints
 62
     0
100
AcDbPoint
 10
17.56520926586182
 20
51.50780157272355
 30
0.0
  0
POINT
  5
10DD
330
10D2
100
AcDbEntity
  8
Defpoints
 62
     0
100
AcDbPoint
 10
17.56520926586182
 20
91.9852486686954
 30
0.0
  0
ENDBLK
  5
10D4
330
10D2
100
AcDbEntity
  8
0
100
AcDbBlockEnd
  0
BLOCK
  5
10DF
330
10DE
100
AcDbEntity
  8
0
100
AcDbBlockBegin
  2
*D105
 70
     1
 10
0.0
 20
0.0
 30
0.0
  3
*D105
  1
*D106
  0
LINE
  5
10E1
330
10DE
100
AcDbEntity
  8
치수문자_일반주서
 62
     0
370
    -2
100
AcDbLine
 10
138.20261391946
 20
50.08300448478355
 30
0.0
 11
138.20261391946
 21
85.98524866869536
 31
0.0
  0
LINE
  5
10E2
330
10DE
100
AcDbEntity
  8
치수문자_일반주서
 62
     0
370
    -2
100
AcDbLine
 10
87.41520926586183
 20
52.36125157272356
 30
0.0
 11
87.41520926586183
 21
85.98524866869536
 31
0.0
  0
LINE
  5
10E3
330
10DE
100
AcDbEntity
  8
치수문자_일반주서
 62
     0
370
    -2
100
AcDbLine
 10
134.90061391946
 20
85.98524866869536
 30
0.0
 11
90.71720926586184
 21
85.98524866869536
 31
0.0
  0
SOLID
  5
10E4
330
10DE
100
AcDbEntity
  8
치수문자_일반주서
 62
     0
100
AcDbTrace
 10
134.90061391946
 20
85.43491533536204
 30
0.0
 11
134.90061391946
 21
86.53558200202869
 31
0.0
 12
138.20261391946
 22
85.98524866869536
 32
0.0
 13
138.20261391946
 23
85.98524866869536
 33
0.0
  0
SOLID
  5
10E5
330
10DE
100
AcDbEntity
  8
치수문자_일반주서
 62
     0
100
AcDbTrace
 10
90.71720926586184
 20
86.53558200202869
 30
0.0
 11
90.71720926586184
 21
85.43491533536204
 31
0.0
 12
87.41520926586183
 22
85.98524866869536
 32
0.0
 13
87.41520926586183
 23
85.98524866869536
 33
0.0
  0
MTEXT
  5
10E6
330
10DE
100
AcDbEntity
  8
치수문자_일반주서
 62
     0
100
AcDbMText
 10
112.8089115926609
 20
90.36024866869536
 30
0.0
 40
3.5
 41
0.0
 71
     2
 72
     1
  1
\A1;50.79 [2.00]
  7
SLDTEXTSTYLE0
 73
     1
 44
1.0
  0
POINT
  5
10E7
330
10DE
100
AcDbEntity
  8
Defpoints
 62
     0
100
AcDbPoint
 10
138.20261391946
 20
50.02050448478355
 30
0.0
  0
POINT
  5
10E8
330
10DE
100
AcDbEntity
  8
Defpoints
 62
     0
100
AcDbPoint
 10
87.41520926586183
 20
52.29875157272356
 30
0.0
  0
POINT
  5
10E9
330
10DE
100
AcDbEntity
  8
Defpoints
 62
     0
100
AcDbPoint
 10
87.41520926586183
 20
85.98524866869536
 30
0.0
  0
ENDBLK
  5
10E0
330
10DE
100
AcDbEntity
  8
0
100
AcDbBlockEnd
  0
BLOCK
  5
112D
330
112C
100
AcDbEntity
  8
0
100
AcDbBlockBegin
  2
*D106
 70
     1
 10
0.0
 20
0.0
 30
0.0
  3
*D106
  1
*D107
  0
LINE
  5
112F
330
112C
100
AcDbEntity
  8
치수문자_일반주서
 62
     0
370
    -2
100
AcDbLine
 10
50.8710955678842
 20
2.381250000000001
 30
0.0
 11
62.66481079417557
 21
2.381250000000044
 31
0.0
  0
LINE
  5
1130
330
112C
100
AcDbEntity
  8
치수문자_일반주서
 62
     0
370
    -2
100
AcDbLine
 10
50.8710955678842
 20
-2.381250000000002
 30
0.0
 11
62.66481079417558
 21
-2.381249999999959
 31
0.0
  0
LINE
  5
1131
330
112C
100
AcDbEntity
  8
치수문자_일반주서
 62
     0
370
    -2
100
AcDbLine
 10
62.66481079417557
 20
2.381250000000044
 30
0.0
 11
62.66481079417546
 21
36.98525000000005
 31
0.0
  0
LINE
  5
1132
330
112C
100
AcDbEntity
  8
치수문자_일반주서
 62
     0
370
    -2
100
AcDbLine
 10
62.66481079417557
 20
2.381250000000044
 30
0.0
 11
62.66481079417558
 21
-2.381249999999959
 31
0.0
  0
LINE
  5
1133
330
112C
100
AcDbEntity
  8
치수문자_일반주서
 62
     0
370
    -2
100
AcDbLine
 10
62.66481079417556
 20
5.683250000000044
 30
0.0
 11
62.66481079417555
 21
8.985250000000043
 31
0.0
  0
LINE
  5
1134
330
112C
100
AcDbEntity
  8
치수문자_일반주서
 62
     0
370
    -2
100
AcDbLine
 10
62.66481079417559
 20
-5.683249999999958
 30
0.0
 11
62.66481079417559
 21
-8.985249999999958
 31
0.0
  0
SOLID
  5
1135
330
112C
100
AcDbEntity
  8
치수문자_일반주서
 62
     0
100
AcDbTrace
 10
62.11447746084222
 20
5.683250000000042
 30
0.0
 11
63.21514412750889
 21
5.683250000000045
 31
0.0
 12
62.66481079417557
 22
2.381250000000044
 32
0.0
 13
62.66481079417557
 23
2.381250000000044
 33
0.0
  0
SOLID
  5
1136
330
112C
100
AcDbEntity
  8
치수문자_일반주서
 62
     0
100
AcDbTrace
 10
63.21514412750892
 20
-5.683249999999957
 30
0.0
 11
62.11447746084225
 21
-5.68324999999996
 31
0.0
 12
62.66481079417558
 22
-2.381249999999959
 32
0.0
 13
62.66481079417558
 23
-2.381249999999959
 33
0.0
  0
MTEXT
  5
1137
330
112C
100
AcDbEntity
  8
치수문자_일반주서
 62
     0
100
AcDbMText
 10
58.2898107941755
 20
22.98525000000003
 30
0.0
 40
3.5
 41
0.0
 71
     2
 72
     1
  1
\A1;%%c4.76 [3/16]
  7
SLDTEXTSTYLE0
 11
-2.983906501879684E-15
 21
1.0
 31
0.0
 73
     1
 44
1.0
  0
POINT
  5
117B
330
112C
100
AcDbEntity
  8
Defpoints
 62
     0
100
AcDbPoint
 10
50.8085955678842
 20
2.381250000000001
 30
0.0
  0
POINT
  5
117C
330
112C
100
AcDbEntity
  8
Defpoints
 62
     0
100
AcDbPoint
 10
50.8085955678842
 20
-2.381250000000002
 30
0.0
  0
POINT
  5
117D
330
112C
100
AcDbEntity
  8
Defpoints
 62
     0
100
AcDbPoint
 10
62.66481079417556
 20
-2.381249999999958
 30
0.0
  0
ENDBLK
  5
112E
330
112C
100
AcDbEntity
  8
0
100
AcDbBlockEnd
  0
BLOCK
  5
113A
330
1139
100
AcDbEntity
  8
0
100
AcDbBlockBegin
  2
*D107
 70
     1
 10
0.0
 20
0.0
 30
0.0
  3
*D107
  1
*D108
  0
LINE
  5
113C
330
1139
100
AcDbEntity
  8
치수문자_일반주서
 62
     0
370
    -2
100
AcDbLine
 10
-69.0314044321158
 20
2.381250000000008
 30
0.0
 11
-82.77890443211585
 21
2.381249999999955
 31
0.0
  0
LINE
  5
113D
330
1139
100
AcDbEntity
  8
치수문자_일반주서
 62
     0
370
    -2
100
AcDbLine
 10
-69.0314044321158
 20
-2.381249999999995
 30
0.0
 11
-82.77890443211584
 21
-2.381250000000048
 31
0.0
  0
LINE
  5
113E
330
1139
100
AcDbEntity
  8
치수문자_일반주서
 62
     0
370
    -2
100
AcDbLine
 10
-82.77890443211585
 20
2.381249999999955
 30
0.0
 11
-82.77890443211595
 21
36.98524999999996
 31
0.0
  0
LINE
  5
113F
330
1139
100
AcDbEntity
  8
치수문자_일반주서
 62
     0
370
    -2
100
AcDbLine
 10
-82.77890443211585
 20
2.381249999999955
 30
0.0
 11
-82.77890443211584
 21
-2.381250000000048
 31
0.0
  0
LINE
  5
1140
330
1139
100
AcDbEntity
  8
치수문자_일반주서
 62
     0
370
    -2
100
AcDbLine
 10
-82.77890443211587
 20
5.683249999999955
 30
0.0
 11
-82.77890443211588
 21
8.985249999999954
 31
0.0
  0
LINE
  5
1141
330
1139
100
AcDbEntity
  8
치수문자_일반주서
 62
     0
370
    -2
100
AcDbLine
 10
-82.77890443211582
 20
-5.683250000000047
 30
0.0
 11
-82.77890443211581
 21
-8.985250000000047
 31
0.0
  0
SOLID
  5
1142
330
1139
100
AcDbEntity
  8
치수문자_일반주서
 62
     0
100
AcDbTrace
 10
-83.3292377654492
 20
5.683249999999953
 30
0.0
 11
-82.22857109878254
 21
5.683249999999957
 31
0.0
 12
-82.77890443211585
 22
2.381249999999955
 32
0.0
 13
-82.77890443211585
 23
2.381249999999955
 33
0.0
  0
SOLID
  5
1143
330
1139
100
AcDbEntity
  8
치수문자_일반주서
 62
     0
100
AcDbTrace
 10
-82.2285710987825
 20
-5.683250000000045
 30
0.0
 11
-83.32923776544915
 21
-5.683250000000049
 31
0.0
 12
-82.77890443211584
 22
-2.381250000000048
 32
0.0
 13
-82.77890443211584
 23
-2.381250000000048
 33
0.0
  0
MTEXT
  5
1144
330
1139
100
AcDbEntity
  8
치수문자_일반주서
 62
     0
100
AcDbMText
 10
-87.15390443211591
 20
22.98524999999994
 30
0.0
 40
3.5
 41
0.0
 71
     2
 72
     1
  1
\A1;%%c4.76 [3/16]
  7
SLDTEXTSTYLE0
 11
-2.983906501879684E-15
 21
1.0
 31
0.0
 73
     1
 44
1.0
  0
POINT
  5
117E
330
1139
100
AcDbEntity
  8
Defpoints
 62
     0
100
AcDbPoint
 10
-68.9689044321158
 20
2.381250000000009
 30
0.0
  0
POINT
  5
1180
330
1139
100
AcDbEntity
  8
Defpoints
 62
     0
100
AcDbPoint
 10
-68.9689044321158
 20
-2.381249999999994
 30
0.0
  0
POINT
  5
1181
330
1139
100
AcDbEntity
  8
Defpoints
 62
     0
100
AcDbPoint
 10
-82.77890443211584
 20
-2.381250000000046
 30
0.0
  0
ENDBLK
  5
113B
330
1139
100
AcDbEntity
  8
0
100
AcDbBlockEnd
  0
BLOCK
  5
1147
330
1146
100
AcDbEntity
  8
0
100
AcDbBlockBegin
  2
*D108
 70
     1
 10
0.0
 20
0.0
 30
0.0
  3
*D108
  1
*D109
  0
LINE
  5
1149
330
1146
100
AcDbEntity
  8
치수문자_일반주서
 62
     0
370
    -2
100
AcDbLine
 10
50.8710955678842
 20
2.443750000000001
 30
0.0
 11
50.8710955678842
 21
24.04869709597149
 31
0.0
  0
LINE
  5
114A
330
1146
100
AcDbEntity
  8
치수문자_일반주서
 62
     0
370
    -2
100
AcDbLine
 10
22.29609556788418
 20
2.443750000000009
 30
0.0
 11
22.29609556788418
 21
24.04869709597149
 31
0.0
  0
LINE
  5
114B
330
1146
100
AcDbEntity
  8
치수문자_일반주서
 62
     0
370
    -2
100
AcDbLine
 10
47.5690955678842
 20
24.04869709597149
 30
0.0
 11
25.59809556788418
 21
24.04869709597149
 31
0.0
  0
SOLID
  5
114C
330
1146
100
AcDbEntity
  8
치수문자_일반주서
 62
     0
100
AcDbTrace
 10
47.5690955678842
 20
23.49836376263816
 30
0.0
 11
47.5690955678842
 21
24.59903042930483
 31
0.0
 12
50.8710955678842
 22
24.04869709597149
 32
0.0
 13
50.8710955678842
 23
24.04869709597149
 33
0.0
  0
SOLID
  5
114D
330
1146
100
AcDbEntity
  8
치수문자_일반주서
 62
     0
100
AcDbTrace
 10
25.59809556788418
 20
24.59903042930483
 30
0.0
 11
25.59809556788418
 21
23.49836376263816
 31
0.0
 12
22.29609556788418
 22
24.04869709597149
 32
0.0
 13
22.29609556788418
 23
24.04869709597149
 33
0.0
  0
MTEXT
  5
114E
330
1146
100
AcDbEntity
  8
치수문자_일반주서
 62
     0
100
AcDbMText
 10
38.63838208953027
 20
28.42369709597149
 30
0.0
 40
3.5
 41
0.0
 71
     2
 72
     1
  1
\A1;28.58 [1 1/8]
  7
SLDTEXTSTYLE0
 73
     1
 44
1.0
  0
POINT
  5
114F
330
1146
100
AcDbEntity
  8
Defpoints
 62
     0
100
AcDbPoint
 10
50.8710955678842
 20
2.381250000000001
 30
0.0
  0
POINT
  5
1150
330
1146
100
AcDbEntity
  8
Defpoints
 62
     0
100
AcDbPoint
 10
22.29609556788418
 20
2.381250000000009
 30
0.0
  0
POINT
  5
1151
330
1146
100
AcDbEntity
  8
Defpoints
 62
     0
100
AcDbPoint
 10
22.29609556788418
 20
24.04869709597149
 30
0.0
  0
ENDBLK
  5
1148
330
1146
100
AcDbEntity
  8
0
100
AcDbBlockEnd
  0
BLOCK
  5
1153
330
1152
100
AcDbEntity
  8
0
100
AcDbBlockBegin
  2
*D109
 70
     1
 10
0.0
 20
0.0
 30
0.0
  3
*D109
  1
*D110
  0
LINE
  5
1155
330
1152
100
AcDbEntity
  8
치수문자_일반주서
 62
     0
370
    -2
100
AcDbLine
 10
50.8710955678842
 20
2.443750000000001
 30
0.0
 11
50.8710955678842
 21
48.82111021950548
 31
0.0
  0
LINE
  5
1156
330
1152
100
AcDbEntity
  8
치수문자_일반주서
 62
     0
370
    -2
100
AcDbLine
 10
-69.77890443211582
 20
1.633749999999992
 30
0.0
 11
-69.77890443211582
 21
48.82111021950548
 31
0.0
  0
LINE
  5
1157
330
1152
100
AcDbEntity
  8
치수문자_일반주서
 62
     0
370
    -2
100
AcDbLine
 10
47.5690955678842
 20
48.82111021950548
 30
0.0
 11
-66.47690443211582
 21
48.82111021950548
 31
0.0
  0
SOLID
  5
1158
330
1152
100
AcDbEntity
  8
치수문자_일반주서
 62
     0
100
AcDbTrace
 10
47.5690955678842
 20
48.27077688617215
 30
0.0
 11
47.5690955678842
 21
49.37144355283882
 31
0.0
 12
50.8710955678842
 22
48.82111021950548
 32
0.0
 13
50.8710955678842
 23
48.82111021950548
 33
0.0
  0
SOLID
  5
1159
330
1152
100
AcDbEntity
  8
치수문자_일반주서
 62
     0
100
AcDbTrace
 10
-66.47690443211582
 20
49.37144355283882
 30
0.0
 11
-66.47690443211582
 21
48.27077688617215
 31
0.0
 12
-69.77890443211582
 22
48.82111021950548
 32
0.0
 13
-69.77890443211582
 23
48.82111021950548
 33
0.0
  0
MTEXT
  5
115A
330
1152
100
AcDbEntity
  8
치수문자_일반주서
 62
     0
100
AcDbMText
 10
-10.72284167728418
 20
53.19611021950548
 30
0.0
 40
3.5
 41
0.0
 71
     2
 72
     1
  1
\A1;120.65 [4 3/4]
  7
SLDTEXTSTYLE0
 73
     1
 44
1.0
  0
POINT
  5
115B
330
1152
100
AcDbEntity
  8
Defpoints
 62
     0
100
AcDbPoint
 10
50.8710955678842
 20
2.381250000000001
 30
0.0
  0
POINT
  5
115C
330
1152
100
AcDbEntity
  8
Defpoints
 62
     0
100
AcDbPoint
 10
-69.77890443211582
 20
1.571249999999992
 30
0.0
  0
POINT
  5
115D
330
1152
100
AcDbEntity
  8
Defpoints
 62
     0
100
AcDbPoint
 10
-69.77890443211582
 20
48.82111021950548
 30
0.0
  0
ENDBLK
  5
1154
330
1152
100
AcDbEntity
  8
0
100
AcDbBlockEnd
  0
BLOCK
  5
115F
330
115E
100
AcDbEntity
  8
0
100
AcDbBlockBegin
  2
*D110
 70
     1
 10
0.0
 20
0.0
 30
0.0
  3
*D110
  1
*D111
  0
LINE
  5
1161
330
115E
100
AcDbEntity
  8
치수문자_일반주서
 62
     0
370
    -2
100
AcDbLine
 10
50.8710955678842
 20
2.443750000000001
 30
0.0
 11
50.8710955678842
 21
36.0486970959718
 31
0.0
  0
LINE
  5
1162
330
115E
100
AcDbEntity
  8
치수문자_일반주서
 62
     0
370
    -2
100
AcDbLine
 10
0.0710955678841856
 20
2.424700000000001
 30
0.0
 11
0.0710955678841856
 21
36.0486970959718
 31
0.0
  0
LINE
  5
1163
330
115E
100
AcDbEntity
  8
치수문자_일반주서
 62
     0
370
    -2
100
AcDbLine
 10
47.5690955678842
 20
36.0486970959718
 30
0.0
 11
3.373095567884186
 21
36.0486970959718
 31
0.0
  0
SOLID
  5
1164
330
115E
100
AcDbEntity
  8
치수문자_일반주서
 62
     0
100
AcDbTrace
 10
47.5690955678842
 20
35.49836376263847
 30
0.0
 11
47.5690955678842
 21
36.59903042930514
 31
0.0
 12
50.8710955678842
 22
36.0486970959718
 32
0.0
 13
50.8710955678842
 23
36.0486970959718
 33
0.0
  0
SOLID
  5
1165
330
115E
100
AcDbEntity
  8
치수문자_일반주서
 62
     0
100
AcDbTrace
 10
3.373095567884186
 20
36.59903042930514
 30
0.0
 11
3.373095567884186
 21
35.49836376263847
 31
0.0
 12
0.0710955678841856
 22
36.0486970959718
 32
0.0
 13
0.0710955678841856
 23
36.0486970959718
 33
0.0
  0
MTEXT
  5
1166
330
115E
100
AcDbEntity
  8
치수문자_일반주서
 62
     0
100
AcDbMText
 10
25.46479789468324
 20
40.4236970959718
 30
0.0
 40
3.5
 41
0.0
 71
     2
 72
     1
  1
\A1;50.8 [2]
  7
SLDTEXTSTYLE0
 73
     1
 44
1.0
  0
POINT
  5
1167
330
115E
100
AcDbEntity
  8
Defpoints
 62
     0
100
AcDbPoint
 10
50.8710955678842
 20
2.381250000000001
 30
0.0
  0
POINT
  5
1168
330
115E
100
AcDbEntity
  8
Defpoints
 62
     0
100
AcDbPoint
 10
0.0710955678841856
 20
2.362200000000001
 30
0.0
  0
POINT
  5
1169
330
115E
100
AcDbEntity
  8
Defpoints
 62
     0
100
AcDbPoint
 10
0.0710955678841856
 20
36.0486970959718
 30
0.0
  0
ENDBLK
  5
1160
330
115E
100
AcDbEntity
  8
0
100
AcDbBlockEnd
  0
ENDSEC
  0
SECTION
  2
ENTITIES
  0
LINE
  5
CD
330
1F
100
AcDbEntity
  8
참조1
100
AcDbLine
 10
3.649511632443772
 20
-2.498925071276081
 30
0.0
 11
3.649511632443777
 21
-39.9989250712761
 31
0.0
  0
LINE
  5
CE
330
1F
100
AcDbEntity
  8
참조1
100
AcDbLine
 10
3.649511632443777
 20
-39.9989250712761
 30
0.0
 11
-11.50883181430867
 21
-39.9989250712761
 31
0.0
  0
LINE
  5
129
330
1F
100
AcDbEntity
  8
참조1
100
AcDbLine
 10
86.46350881534559
 20
7.441074928723896
 30
0.0
 11
86.46350881534559
 21
-7.438925071276109
 31
0.0
  0
LINE
  5
12A
330
1F
100
AcDbEntity
  8
참조1
100
AcDbLine
 10
99.1635088153456
 20
5.441074928723896
 30
0.0
 11
86.46350881534559
 21
5.441074928723896
 31
0.0
  0
SOLID
  5
12B
330
1F
100
AcDbEntity
  8
참조1
100
AcDbTrace
 10
86.46350881534559
 20
5.441074928723896
 30
0.0
 11
92.81350881534559
 21
4.425074928723896
 31
0.0
 12
92.81350881534559
 22
6.457074928723896
 32
0.0
 13
92.81350881534559
 23
6.457074928723896
 33
0.0
  0
LINE
  5
12C
330
1F
100
AcDbEntity
  8
참조1
100
AcDbLine
 10
99.1635088153456
 20
-5.438925071276109
 30
0.0
 11
86.46350881534559
 21
-5.438925071276109
 31
0.0
  0
SOLID
  5
12D
330
1F
100
AcDbEntity
  8
참조1
100
AcDbTrace
 10
86.46350881534559
 20
-5.438925071276109
 30
0.0
 11
92.81350881534559
 21
-6.454925071276109
 31
0.0
 12
92.81350881534559
 22
-4.422925071276109
 32
0.0
 13
92.81350881534559
 23
-4.422925071276109
 33
0.0
  0
MTEXT
  5
12E
330
1F
100
AcDbEntity
  8
참조1
100
AcDbMText
 10
96.06362362590816
 20
11.06679249473997
 30
0.0
 40
3.5
 41
0.0
 71
     1
 72
     1
  1
A
  7
SLDTEXTSTYLE0
 73
     1
 44
1.0
  0
MTEXT
  5
12F
330
1F
100
AcDbEntity
  8
참조1
100
AcDbMText
 10
96.06362362590816
 20
0.1867924947399659
 30
0.0
 40
3.5
 41
0.0
 71
     1
 72
     1
  1
A
  7
SLDTEXTSTYLE0
 73
     1
 44
1.0
  0
CIRCLE
  5
FB5
330
1F
100
AcDbEntity
  8
0
100
AcDbCircle
 10
48.67943374890868
 20
0.0000000000000053
 30
0.0
 40
0.0
  0
LINE
  5
10ED
330
1F
100
AcDbEntity
  8
외형선
  6
Continuous
370
    15
100
AcDbLine
 10
0.0520455678841856
 20
2.381250000000001
 30
0.0
 11
-68.9689044321158
 21
2.381249999999994
 31
0.0
  0
LINE
  5
10EE
330
1F
100
AcDbEntity
  8
외형선
  6
Continuous
370
    15
100
AcDbLine
 10
-68.9689044321158
 20
-2.381250000000001
 30
0.0
 11
0.0520455678841856
 21
-2.381250000000001
 31
0.0
  0
LINE
  5
10EF
330
1F
100
AcDbEntity
  8
외형선
  6
Continuous
370
    15
100
AcDbLine
 10
-68.9689044321158
 20
2.381249999999994
 30
0.0
 11
-69.77890443211582
 21
1.571249999999999
 31
0.0
  0
LINE
  5
10F0
330
1F
100
AcDbEntity
  8
외형선
  6
Continuous
370
    15
100
AcDbLine
 10
-69.77890443211582
 20
-1.571250000000006
 30
0.0
 11
-68.9689044321158
 21
-2.381250000000001
 31
0.0
  0
LINE
  5
10F1
330
1F
100
AcDbEntity
  8
외형선
  6
Continuous
370
    15
100
AcDbLine
 10
22.29609556788418
 20
2.362200000000009
 30
0.0
 11
0.0710955678841856
 21
2.362200000000001
 31
0.0
  0
LINE
  5
10F2
330
1F
100
AcDbEntity
  8
외형선
  6
Continuous
370
    15
100
AcDbLine
 10
0.0710955678841856
 20
-2.362200000000001
 30
0.0
 11
22.29609556788418
 21
-2.362199999999994
 31
0.0
  0
ARC
  5
10F3
330
1F
100
AcDbEntity
  8
외형선
  6
Continuous
 62
     1
370
    15
100
AcDbCircle
 10
48.4898455678842
 20
0.0000000000000071
 30
0.0
 40
2.381250000000003
100
AcDbArc
 50
323.0513674746359
 51
0.0
  0
ARC
  5
10F4
330
1F
100
AcDbEntity
  8
외형선
  6
Continuous
 62
     1
370
    15
100
AcDbCircle
 10
48.4898455678842
 20
0.0000000000000071
 30
0.0
 40
2.381250000000001
100
AcDbArc
 50
0.0
 51
36.88880388592925
  0
LINE
  5
10F5
330
1F
100
AcDbEntity
  8
외형선
  6
Continuous
 62
     1
370
    15
100
AcDbLine
 10
30.81791919719933
 20
-2.381249999999994
 30
0.0
 11
33.6949727535829
 21
-2.381249999999994
 31
0.0
  0
LINE
  5
10F6
330
1F
100
AcDbEntity
  8
외형선
  6
Continuous
 62
     1
370
    15
100
AcDbLine
 10
23.76808575899048
 20
2.381250000000009
 30
0.0
 11
22.29609556788418
 21
2.381250000000009
 31
0.0
  0
LINE
  5
10F7
330
1F
100
AcDbEntity
  8
외형선
  6
Continuous
 62
     1
370
    15
100
AcDbLine
 10
43.62322076544208
 20
2.381250000000009
 30
0.0
 11
40.74495550477431
 21
2.381250000000009
 31
0.0
  0
LINE
  5
10F8
330
1F
100
AcDbEntity
  8
외형선
  6
Continuous
 62
     1
370
    15
100
AcDbLine
 10
40.74495550477431
 20
-2.381249999999994
 30
0.0
 11
43.62322076544208
 21
-2.381249999999994
 31
0.0
  0
LINE
  5
10F9
330
1F
100
AcDbEntity
  8
외형선
  6
Continuous
 62
     1
370
    15
100
AcDbLine
 10
22.29609556788418
 20
-2.381249999999994
 30
0.0
 11
23.76808575899048
 21
-2.381249999999994
 31
0.0
  0
LINE
  5
10FA
330
1F
100
AcDbEntity
  8
외형선
  6
Continuous
 62
     1
370
    15
100
AcDbLine
 10
33.6949727535829
 20
2.381250000000009
 30
0.0
 11
30.81791919719936
 21
2.381250000000009
 31
0.0
  0
LINE
  5
10FB
330
1F
100
AcDbEntity
  8
외형선
  6
Continuous
370
    15
100
AcDbLine
 10
0.0710955678841856
 20
2.362200000000001
 30
0.0
 11
0.0710955678841856
 21
-2.362200000000001
 31
0.0
  0
LINE
  5
10FC
330
1F
100
AcDbEntity
  8
외형선
  6
Continuous
370
    15
100
AcDbLine
 10
0.0520455678841856
 20
2.381250000000001
 30
0.0
 11
0.0520455678841856
 21
-2.381250000000001
 31
0.0
  0
LINE
  5
10FD
330
1F
100
AcDbEntity
  8
외형선
  6
Continuous
370
    15
100
AcDbLine
 10
-68.9689044321158
 20
2.381249999999994
 30
0.0
 11
-68.9689044321158
 21
-2.381250000000001
 31
0.0
  0
LINE
  5
10FE
330
1F
100
AcDbEntity
  8
외형선
  6
Continuous
370
    15
100
AcDbLine
 10
-69.77890443211582
 20
1.571249999999992
 30
0.0
 11
-69.77890443211582
 21
-1.571250000000006
 31
0.0
  0
SPLINE
  5
10FF
330
1F
100
AcDbEntity
  8
외형선
  6
Continuous
370
    15
100
AcDbSpline
210
0.0
220
0.0
230
1.0
 70
     8
 71
     3
 72
    10
 73
     6
 74
     0
 42
0.000000001
 43
0.00000001
 40
0.0
 40
0.0
 40
0.0
 40
0.0
 40
0.5
 40
0.5
 40
1.0
 40
1.0
 40
1.0
 40
1.0
 10
21.40602874178424
 20
2.331134930890862
 30
0.0
 10
21.55497296600029
 20
2.313182883650313
 30
0.0
 10
21.70480671843282
 20
2.287427917766067
 30
0.0
 10
22.00180428656731
 20
2.221122379034696
 30
0.0
 10
22.14767771794018
 20
2.180750657626035
 30
0.0
 10
22.29609556788418
 20
2.133094156847477
 30
0.0
  0
SPLINE
  5
1100
330
1F
100
AcDbEntity
  8
외형선
  6
Continuous
370
    15
100
AcDbSpline
210
0.0
220
0.0
230
1.0
 70
     8
 71
     3
 72
    10
 73
     6
 74
     0
 42
0.000000001
 43
0.00000001
 40
0.0
 40
0.0
 40
0.0
 40
0.0
 40
0.4999999999999998
 40
0.4999999999999998
 40
1.0
 40
1.0
 40
1.0
 40
1.0
 10
22.29609556788418
 20
-2.111693706274579
 30
0.0
 10
22.14762088962615
 20
-2.061960848160567
 30
0.0
 10
22.0016915869214
 20
-2.005563697800262
 30
0.0
 10
21.7045782610887
 20
-1.879239063538165
 30
0.0
 10
21.55468645406287
 20
-1.80942413034753
 30
0.0
 10
21.40568656419265
 20
-1.733975988530013
 30
0.0
  0
LINE
  5
1101
330
1F
100
AcDbEntity
  8
외형선
  6
Continuous
370
    15
100
AcDbLine
 10
21.40568656419265
 20
-1.734025955898048
 30
0.0
 11
21.40568656419265
 21
2.331151490860968
 31
0.0
  0
SPLINE
  5
1102
330
1F
100
AcDbEntity
  8
외형선
  6
Continuous
370
    15
100
AcDbSpline
210
0.0
220
0.0
230
1.0
 70
    24
 71
     3
 72
    14
 73
    10
 74
     0
 42
0.000000001
 43
0.00000001
 40
0.0
 40
0.0
 40
0.0
 40
0.0
 40
0.25
 40
0.25
 40
0.5
 40
0.5
 40
0.75
 40
0.75
 40
1.0
 40
1.0
 40
1.0
 40
1.0
 10
22.29609556788418
 20
0.0111471065132633
 30
0.0
 10
22.29609556788418
 20
-0.113705627427386
 30
0.0
 10
22.29609556788418
 20
-0.2582282384364589
 30
0.0
 10
22.29609556788418
 20
-0.5839115738145892
 30
0.0
 10
22.29609556788418
 20
-0.765205624661597
 30
0.0
 10
22.29609556788418
 20
-1.148635460446428
 30
0.0
 10
22.29609556788418
 20
-1.350578854999043
 30
0.0
 10
22.29609556788418
 20
-1.745958413216378
 30
0.0
 10
22.29609556788418
 20
-1.938869967484585
 30
0.0
 10
22.29609556788418
 20
-2.111693706257341
 30
0.0
  0
SPLINE
  5
1103
330
1F
100
AcDbEntity
  8
외형선
  6
Continuous
370
    15
100
AcDbSpline
210
0.0
220
0.0
230
1.0
 70
     8
 71
     3
 72
    10
 73
     6
 74
     0
 42
0.000000001
 43
0.00000001
 40
0.0
 40
0.0
 40
0.0
 40
0.0
 40
0.5
 40
0.5
 40
1.0
 40
1.0
 40
1.0
 40
1.0
 10
22.29609556788418
 20
0.0111471065132491
 30
0.0
 10
22.14762088962621
 20
0.0618849617163377
 30
0.0
 10
22.0016915869214
 20
0.1122967665814372
 30
0.0
 10
21.7045782610887
 20
0.212641679338212
 30
0.0
 10
21.55468645406287
 20
0.2624228886601472
 30
0.0
 10
21.40568656419265
 20
0.3110707363028311
 30
0.0
  0
SPLINE
  5
1104
330
1F
100
AcDbEntity
  8
외형선
  6
Continuous
370
    15
100
AcDbSpline
210
0.0
220
0.0
230
1.0
 70
    24
 71
     3
 72
    14
 73
    10
 74
     0
 42
0.000000001
 43
0.00000001
 40
0.0
 40
0.0
 40
0.0
 40
0.0
 40
0.2500000000000001
 40
0.2500000000000001
 40
0.5000000000000001
 40
0.5000000000000001
 40
0.7500000000000001
 40
0.7500000000000001
 40
1.0
 40
1.0
 40
1.0
 40
1.0
 10
22.29609556788418
 20
2.133094156837579
 30
0.0
 10
22.29609556788418
 20
1.957965433743773
 30
0.0
 10
22.29609556788418
 20
1.763333364678168
 30
0.0
 10
22.29609556788418
 20
1.365903559836639
 30
0.0
 10
22.29609556788418
 20
1.163628119341034
 30
0.0
 10
22.29609556788418
 20
0.780734747237041
 30
0.0
 10
22.29609556788418
 20
0.6003008108195544
 30
0.0
 10
22.29609556788418
 20
0.2771062909454045
 30
0.0
 10
22.29609556788418
 20
0.1342061332640796
 30
0.0
 10
22.29609556788418
 20
0.0111471065132562
 30
0.0
  0
SPLINE
  5
1105
330
1F
100
AcDbEntity
  8
외형선
  6
Continuous
 62
     1
370
    15
100
AcDbSpline
210
0.0
220
0.0
230
1.0
 70
     8
 71
     3
 72
    22
 73
    18
 74
     0
 42
0.000000001
 43
0.00000001
 40
0.0381570108344837
 40
0.0381570108344837
 40
0.0381570108344837
 40
0.0381570108344837
 40
0.0621985148254366
 40
0.130863075475719
 40
0.1995247704174742
 40
0.2681868005084769
 40
0.3368523657969638
 40
0.4055246577968628
 40
0.4742068518073017
 40
0.5429020993161034
 40
0.6116135205261974
 40
0.6803432475658978
 40
0.7490654895464964
 40
0.8177697613453002
 40
0.8864591616066823
 40
0.9551368245327458
 40
1.0
 40
1.0
 40
1.0
 40
1.0
 10
46.58875259344981
 20
-1.402989076143272
 30
0.0
 10
46.48133271102171
 20
-1.469708855695136
 30
0.0
 10
46.06711445230397
 20
-1.718856012066404
 30
0.0
 10
45.34613045709816
 20
-2.063580798823061
 30
0.0
 10
44.42579283751601
 20
-2.33813483676019
 30
0.0
 10
43.50545018154648
 20
-2.413379004439932
 30
0.0
 10
42.58504486342437
 20
-2.28582497339282
 30
0.0
 10
41.66452058561018
 20
-1.965434585467072
 30
0.0
 10
40.74382201259024
 20
-1.479386669711687
 30
0.0
 10
39.8228904819828
 20
-0.868548896318778
 30
0.0
 10
38.90168664105138
 20
-0.1844392854297396
 30
0.0
 10
37.98024658920494
 20
0.5153196565316591
 30
0.0
 10
37.05889375488451
 20
1.17109819895753
 30
0.0
 10
36.13780646949763
 20
1.730228469758679
 30
0.0
 10
35.21698049279135
 20
2.135471604836567
 30
0.0
 10
34.40272913732454
 20
2.360882567199702
 30
0.0
 10
33.8954234748621
 20
2.359111509914115
 30
0.0
 10
33.6949727535829
 20
2.358411715418228
 30
0.0
  0
SPLINE
  5
1106
330
1F
100
AcDbEntity
  8
외형선
  6
Continuous
 62
     1
370
    15
100
AcDbSpline
210
0.0
220
0.0
230
1.0
 70
     8
 71
     3
 72
    13
 73
     9
 74
     0
 42
0.000000001
 43
0.00000001
 40
0.0
 40
0.0
 40
0.0
 40
0.0
 40
0.0646715809856906
 40
0.2505363117114868
 40
0.4364445826617537
 40
0.6243301665484896
 40
0.8121801924535416
 40
0.9999999999999999
 40
0.9999999999999999
 40
0.9999999999999999
 40
0.9999999999999999
 10
27.25272106514569
 20
-1.065321424823921
 30
0.0
 10
27.14587830362737
 20
-1.13972462782759
 30
0.0
 10
26.7319717469006
 20
-1.427961033617414
 30
0.0
 10
26.01086310290091
 20
-1.828538782313807
 30
0.0
 10
25.08608513071388
 20
-2.210089891320784
 30
0.0
 10
24.15810540907759
 20
-2.395056053695775
 30
0.0
 10
23.22701660872789
 20
-2.389035521342443
 30
0.0
 10
22.60638594060967
 20
-2.214795256541876
 30
0.0
 10
22.29609556788418
 20
-2.127682131963802
 30
0.0
  0
SPLINE
  5
1107
330
1F
100
AcDbEntity
  8
외형선
  6
Continuous
370
    15
100
AcDbSpline
210
0.0
220
0.0
230
1.0
 70
    24
 71
     3
 72
    14
 73
    10
 74
     0
 42
0.000000001
 43
0.00000001
 40
0.0
 40
0.0
 40
0.0
 40
0.0
 40
0.25
 40
0.25
 40
0.5
 40
0.5
 40
0.75
 40
0.75
 40
1.0
 40
1.0
 40
1.0
 40
1.0
 10
22.29609556788418
 20
0.0111471065132633
 30
0.0
 10
22.29609556788418
 20
-0.1146716073819007
 30
0.0
 10
22.29609556788418
 20
-0.2604733536651693
 30
0.0
 10
22.29609556788418
 20
-0.5892322527181406
 30
0.0
 10
22.29609556788418
 20
-0.7723261268284887
 30
0.0
 10
22.29609556788418
 20
-1.159328432830037
 30
0.0
 10
22.29609556788418
 20
-1.36303029444683
 30
0.0
 10
22.29609556788418
 20
-1.761023076576059
 30
0.0
 10
22.29609556788418
 20
-1.954765520593817
 30
0.0
 10
22.29609556788418
 20
-2.127682131954437
 30
0.0
  0
SPLINE
  5
1108
330
1F
100
AcDbEntity
  8
외형선
  6
Continuous
 62
     1
370
    15
100
AcDbSpline
210
0.0
220
0.0
230
1.0
 70
     8
 71
     3
 72
    16
 73
    12
 74
     0
 42
0.000000001
 43
0.00000001
 40
0.098838143462206
 40
0.098838143462206
 40
0.098838143462206
 40
0.098838143462206
 40
0.1246583489351749
 40
0.2469051718989656
 40
0.3693745848786818
 40
0.4919056264085359
 40
0.6143164050800125
 40
0.7365420217524108
 40
0.858972448117087
 40
0.9815054929487185
 40
1.0
 40
1.0
 40
1.0
 40
1.0
 10
46.21875388567224
 20
-1.038850745256844
 30
0.0
 10
46.13243512235579
 20
-1.028437928330811
 30
0.0
 10
45.63744334372458
 20
-0.9620796211080176
 30
0.0
 10
44.73313901959457
 20
-0.8022793018321082
 30
0.0
 10
43.5052591530019
 20
-0.4486870303943462
 30
0.0
 10
42.27682041101869
 20
-0.0326303383392954
 30
0.0
 10
41.04926997765389
 20
0.3884593963197887
 30
0.0
 10
39.82231311802084
 20
0.7558209692866527
 30
0.0
 10
38.59467733604703
 20
0.9950836790223931
 30
0.0
 10
37.71378000098289
 20
1.100535777665065
 30
0.0
 10
37.24228412514972
 20
1.073233238013927
 30
0.0
 10
37.1804516414696
 20
1.069652753169976
 30
0.0
  0
SPLINE
  5
1109
330
1F
100
AcDbEntity
  8
외형선
  6
Continuous
 62
     1
370
    15
100
AcDbSpline
210
0.0
220
0.0
230
1.0
 70
     8
 71
     3
 72
    11
 73
     7
 74
     0
 42
0.000000001
 43
0.00000001
 40
0.0
 40
0.0
 40
0.0
 40
0.0
 40
0.2027131549195858
 40
0.4460778266977097
 40
0.7227668072347301
 40
1.0
 40
1.0
 40
1.0
 40
1.0
 10
27.33834219056675
 20
-1.06864541223797
 30
0.0
 10
26.99763899490651
 20
-1.063926291679238
 30
0.0
 10
26.24790895824762
 20
-1.053541691609247
 30
0.0
 10
25.03342797523592
 20
-0.8364747566598396
 30
0.0
 10
23.69332226742497
 20
-0.467233587824829
 30
0.0
 10
22.76214275321766
 20
-0.1484175340618208
 30
0.0
 10
22.29609556788421
 20
0.0111471065132491
 30
0.0
  0
SPLINE
  5
110A
330
1F
100
AcDbEntity
  8
외형선
  6
Continuous
 62
     1
370
    15
100
AcDbSpline
210
0.0
220
0.0
230
1.0
 70
     8
 71
     3
 72
     8
 73
     4
 74
     0
 42
0.000000001
 43
0.00000001
 40
0.0
 40
0.0
 40
0.0
 40
0.0
 40
1.0
 40
1.0
 40
1.0
 40
1.0
 10
49.48330993582411
 20
0.785667751245704
 30
0.0
 10
49.86367653615619
 20
0.6736423596633117
 30
0.0
 10
50.24590583505872
 20
0.5524095244981595
 30
0.0
 10
50.63006935719628
 20
0.4216156945513418
 30
0.0
  0
SPLINE
  5
110B
330
1F
100
AcDbEntity
  8
외형선
  6
Continuous
 62
     1
370
    15
100
AcDbSpline
210
0.0
220
0.0
230
1.0
 70
     8
 71
     3
 72
    22
 73
    18
 74
     0
 42
0.000000001
 43
0.00000001
 40
0.0
 40
0.0
 40
0.0
 40
0.0
 40
0.125
 40
0.125
 40
0.25
 40
0.25
 40
0.375
 40
0.375
 40
0.5
 40
0.5
 40
0.625
 40
0.625
 40
0.75
 40
0.75
 40
0.875
 40
0.875
 40
1.0
 40
1.0
 40
1.0
 40
1.0
 10
48.4898455678842
 20
0.0736766787665175
 30
0.0
 10
48.61615255690313
 20
-0.0211138360162337
 30
0.0
 10
48.73964088446056
 20
-0.1157481939830447
 30
0.0
 10
48.98487273496855
 20
-0.2997490232749698
 30
0.0
 10
49.10860660138005
 20
-0.3893011976890719
 30
0.0
 10
49.35279040013384
 20
-0.5486251896646266
 30
0.0
 10
49.47270323258479
 20
-0.6185578778124992
 30
0.0
 10
49.71364682016335
 20
-0.7292735247330953
 30
0.0
 10
49.83191976205373
 20
-0.7690629367099646
 30
0.0
 10
50.0642913580518
 20
-0.797788598927724
 30
0.0
 10
50.17786710191402
 20
-0.7858086455799977
 30
0.0
 10
50.38609274033738
 20
-0.6869813787547656
 30
0.0
 10
50.47904059165771
 20
-0.5987310380498414
 30
0.0
 10
50.6145952854184
 20
-0.3568249652394968
 30
0.0
 10
50.65608961602337
 20
-0.2030955088860367
 30
0.0
 10
50.68025389758972
 20
0.1077369032349154
 30
0.0
 10
50.6651403540528
 20
0.2677974164313284
 30
0.0
 10
50.63006935719645
 20
0.4216156945517184
 30
0.0
  0
SPLINE
  5
110C
330
1F
100
AcDbEntity
  8
외형선
  6
Continuous
 62
     1
370
    15
100
AcDbSpline
210
0.0
220
0.0
230
1.0
 70
     8
 71
     3
 72
    13
 73
     9
 74
     0
 42
0.000000001
 43
0.00000001
 40
0.0
 40
0.0
 40
0.0
 40
0.0
 40
0.1337559921817743
 40
0.2677605164963281
 40
0.4568855517608113
 40
0.6459938982154185
 40
0.835094352252222
 40
0.9999999999999999
 40
0.9999999999999999
 40
0.9999999999999999
 40
0.9999999999999999
 10
48.48984556788415
 20
0.0736766787665672
 30
0.0
 10
48.27300061419069
 20
0.2367864652959639
 30
0.0
 10
47.83890778699489
 20
0.5633091127999563
 30
0.0
 10
47.09750409733621
 20
1.091053903314851
 30
0.0
 10
46.26653033191704
 20
1.619234764575431
 30
0.0
 10
45.34612626375335
 20
2.061701188666341
 30
0.0
 10
44.46504670822711
 20
2.337640837347884
 30
0.0
 10
43.89074573960377
 20
2.359735078439662
 30
0.0
 10
43.62322076544208
 20
2.370027175441287
 30
0.0
  0
SPLINE
  5
110D
330
1F
100
AcDbEntity
  8
외형선
  6
Continuous
 62
     1
370
    15
100
AcDbSpline
210
0.0
220
0.0
230
1.0
 70
     8
 71
     3
 72
    23
 73
    19
 74
     0
 42
0.000000001
 43
0.00000001
 40
0.0
 40
0.0
 40
0.0
 40
0.0
 40
0.0090666126325671
 40
0.0777351813210752
 40
0.1463888862003585
 40
0.2150308598437894
 40
0.2836642629831811
 40
0.3522922769829688
 40
0.4209180962077184
 40
0.4895449203222369
 40
0.5581759465641687
 40
0.6268143620291946
 40
0.6954633360088427
 40
0.7641260124204582
 40
0.8328055023680571
 40
0.9015010810076696
 40
0.9709273030749684
 40
1.0
 40
1.0
 40
1.0
 40
1.0
 10
37.1804516414696
 20
-1.069652753169962
 30
0.0
 10
37.13991013518594
 20
-1.098322440759681
 30
0.0
 10
36.79231600387047
 20
-1.344130158980718
 30
0.0
 10
36.13781121940426
 20
-1.724082080552002
 30
0.0
 10
35.21697856013211
 20
-2.141772967183485
 30
0.0
 10
34.29636120756035
 20
-2.371273128013122
 30
0.0
 10
33.37589320948578
 20
-2.402927121382042
 30
0.0
 10
32.45552105614561
 20
-2.23151007982289
 30
0.0
 10
31.53518755446768
 20
-1.872170999267013
 30
0.0
 10
30.61483632040554
 20
-1.355009488022084
 30
0.0
 10
29.69441081134394
 20
-0.7236233514379506
 30
0.0
 10
28.77385458715574
 20
-0.0312718044852645
 30
0.0
 10
27.85311211457159
 20
0.663995263978336
 30
0.0
 10
26.93212616263261
 20
1.302474032725556
 30
0.0
 10
26.01086525570878
 20
1.8344094975715
 30
0.0
 10
25.08608638563194
 20
2.200851909934649
 30
0.0
 10
24.33847938570605
 20
2.382595079849516
 30
0.0
 10
23.89807455719003
 20
2.362175710192837
 30
0.0
 10
23.76808575899048
 20
2.356148779628498
 30
0.0
  0
SPLINE
  5
110E
330
1F
100
AcDbEntity
  8
외형선
  6
Continuous
 62
     1
370
    15
100
AcDbSpline
210
0.0
220
0.0
230
1.0
 70
     8
 71
     3
 72
    10
 73
     6
 74
     0
 42
0.000000001
 43
0.00000001
 40
0.0
 40
0.0
 40
0.0
 40
0.0
 40
0.4818715918638882
 40
0.9636682801085409
 40
1.0
 40
1.0
 40
1.0
 40
1.0
 10
49.48805684078141
 20
0.7974023627401152
 30
0.0
 10
49.10450998189165
 20
0.8724304601107846
 30
0.0
 10
48.337475883829
 20
1.022474992251269
 30
0.0
 10
47.54154311332391
 20
1.103514583888526
 30
0.0
 10
47.12914128184698
 20
1.076577164393292
 30
0.0
 10
47.10022322294756
 20
1.074688283636455
 30
0.0
  0
SPLINE
  5
110F
330
1F
100
AcDbEntity
  8
외형선
  6
Continuous
 62
     1
370
    15
100
AcDbSpline
210
0.0
220
0.0
230
1.0
 70
     8
 71
     3
 72
    16
 73
    12
 74
     0
 42
0.000000001
 43
0.00000001
 40
0.0
 40
0.0
 40
0.0
 40
0.0
 40
0.1136924683518607
 40
0.2359847651542487
 40
0.3584253902845613
 40
0.4810095487975817
 40
0.6035554072123278
 40
0.7258857641718155
 40
0.848269158577011
 40
0.9708367521461173
 40
1.0
 40
1.0
 40
1.0
 40
1.0
 10
37.27753210550011
 20
-1.074520491091732
 30
0.0
 10
36.89758989121182
 20
-1.065438809520536
 30
0.0
 10
36.10896619862453
 20
-1.046588497588239
 30
0.0
 10
34.91145915709413
 20
-0.8222697773218499
 30
0.0
 10
33.68402709957181
 20
-0.4837488255159386
 30
0.0
 10
32.45563991675553
 20
-0.0693275367811736
 30
0.0
 10
31.22762641824809
 20
0.3534288452367562
 30
0.0
 10
30.00054232912564
 20
0.7276972258366499
 30
0.0
 10
28.77331353011877
 20
0.9802430766349843
 30
0.0
 10
27.85723655253619
 20
1.09560802836603
 30
0.0
 10
27.35017939040526
 20
1.070204147798918
 30
0.0
 10
27.25272106514572
 20
1.065321424823935
 30
0.0
  0
SPLINE
  5
1110
330
1F
100
AcDbEntity
  8
외형선
  6
Continuous
 62
     1
370
    15
100
AcDbSpline
210
0.0
220
0.0
230
1.0
 70
     8
 71
     3
 72
     8
 73
     4
 74
     0
 42
0.000000001
 43
0.00000001
 40
0.0
 40
0.0
 40
0.0
 40
0.0
 40
1.0
 40
1.0
 40
1.0
 40
1.0
 10
49.4880568409794
 20
0.7974023626946334
 30
0.0
 10
49.48650508156206
 20
0.7934698746376583
 30
0.0
 10
49.48492282678032
 20
0.7895583052911448
 30
0.0
 10
49.48330993582411
 20
0.7856677512457111
 30
0.0
  0
SPLINE
  5
1111
330
1F
100
AcDbEntity
  8
외형선
  6
Continuous
370
    15
100
AcDbSpline
210
0.0
220
0.0
230
1.0
 70
    24
 71
     3
 72
    14
 73
    10
 74
     0
 42
0.000000001
 43
0.00000001
 40
0.0
 40
0.0
 40
0.0
 40
0.0
 40
0.25
 40
0.25
 40
0.5
 40
0.5
 40
0.75
 40
0.75
 40
1.0
 40
1.0
 40
1.0
 40
1.0
 10
22.29609556788418
 20
2.149298209706053
 30
0.0
 10
22.29609556788418
 20
1.974023584089743
 30
0.0
 10
22.29609556788418
 20
1.778510136179932
 30
0.0
 10
22.29609556788418
 20
1.378387845574018
 30
0.0
 10
22.29609556788418
 20
1.174325320884336
 30
0.0
 10
22.29609556788418
 20
0.7878269606149573
 30
0.0
 10
22.29609556788418
 20
0.6055890017775738
 30
0.0
 10
22.29609556788418
 20
0.2793262636195664
 30
0.0
 10
22.29609556788418
 20
0.1351582353867613
 30
0.0
 10
22.29609556788418
 20
0.0111471065132562
 30
0.0
  0
SPLINE
  5
1112
330
1F
100
AcDbEntity
  8
외형선
  6
Continuous
 62
     1
370
    15
100
AcDbSpline
210
0.0
220
0.0
230
1.0
 70
     8
 71
     3
 72
    18
 73
    14
 74
     0
 42
0.000000001
 43
0.00000001
 40
0.0
 40
0.0
 40
0.0
 40
0.0
 40
0.087571086881593
 40
0.1769515025041334
 40
0.2645233296178607
 40
0.3539099593667225
 40
0.4567358524272676
 40
0.5625234469288505
 40
0.6654596621298529
 40
0.7713804030492928
 40
0.8742800753584046
 40
0.9801560069352467
 40
1.0
 40
1.0
 40
1.0
 40
1.0
 10
22.29609556788418
 20
2.149298209715539
 30
0.0
 10
22.54490542434212
 20
2.057125738099479
 30
0.0
 10
23.0476658616723
 20
1.870876395733369
 30
0.0
 10
23.7991874703155
 20
1.454677567811856
 30
0.0
 10
24.55509399754638
 20
0.9610941871351955
 30
0.0
 10
25.34929592818867
 20
0.3826542395685451
 30
0.0
 10
26.19598674046361
 20
-0.2607467033704935
 30
0.0
 10
27.08117040659508
 20
-0.9140456152205232
 30
0.0
 10
27.97533028961581
 20
-1.499495882994275
 30
0.0
 10
28.86111464908393
 20
-1.967314253567508
 30
0.0
 10
29.75500088200525
 20
-2.267331862078962
 30
0.0
 10
30.40449282948245
 20
-2.399606808196246
 30
0.0
 10
30.76155887038877
 20
-2.371438496426705
 30
0.0
 10
30.81791919719933
 20
-2.366992329401121
 30
0.0
  0
SPLINE
  5
1113
330
1F
100
AcDbEntity
  8
외형선
  6
Continuous
 62
     1
370
    15
100
AcDbSpline
210
0.0
220
0.0
230
1.0
 70
     8
 71
     3
 72
    13
 73
     9
 74
     0
 42
0.000000001
 43
0.00000001
 40
0.0
 40
0.0
 40
0.0
 40
0.0
 40
0.0411535947402561
 40
0.121646333979283
 40
0.199931403189645
 40
0.2804804315947691
 40
0.3588615976585524
 40
0.4049572742183898
 40
0.4049572742183898
 40
0.4049572742183898
 40
0.4049572742183898
 10
37.27753210550011
 20
1.074520491091754
 30
0.0
 10
37.43135736546409
 20
1.179502727968824
 30
0.0
 10
37.88605103356608
 20
1.489820801751769
 30
0.0
 10
38.63336607964416
 20
1.890795861144717
 30
0.0
 10
39.527649976525
 20
2.236613747639637
 30
0.0
 10
40.41428592027015
 20
2.399612074267715
 30
0.0
 10
41.1803816844365
 20
2.378328581854641
 30
0.0
 10
41.64562431517626
 20
2.288496291495711
 30
0.0
 10
41.81791428123688
 20
2.24524813976951
 30
0.0
  0
SPLINE
  5
1115
330
1F
100
AcDbEntity
  8
외형선
  6
Continuous
 62
     1
370
    15
100
AcDbSpline
210
0.0
220
0.0
230
1.0
 70
     8
 71
     3
 72
    23
 73
    19
 74
     0
 42
0.000000001
 43
0.00000001
 40
0.0
 40
0.0
 40
0.0
 40
0.0
 40
0.0468644765888244
 40
0.1141965352237013
 40
0.1796081506380636
 40
0.2469117247168751
 40
0.3124168874171896
 40
0.3798172113428348
 40
0.445380363221999
 40
0.5128423870321901
 40
0.5783779196040774
 40
0.6434262480035515
 40
0.7103338015647113
 40
0.7757617121939484
 40
0.8430848162076903
 40
0.9085614530695757
 40
0.9759316366263899
 40
1.0
 40
1.0
 40
1.0
 40
1.0
 10
27.33834219056675
 20
1.068645412237991
 30
0.0
 10
27.54783926489208
 20
1.208770368547199
 30
0.0
 10
28.0583291234976
 20
1.550218426300603
 30
0.0
 10
28.86111466259121
 20
1.962615390156714
 30
0.0
 10
29.75500484056872
 20
2.277978851715119
 30
0.0
 10
30.64084991246685
 20
2.40902992340785
 30
0.0
 10
31.53528222938021
 20
2.351197003037292
 30
0.0
 10
32.42221172101958
 20
2.108603434191366
 30
0.0
 10
33.31764294339493
 20
1.696374790438298
 30
0.0
 10
34.20505057533691
 20
1.154087398764318
 30
0.0
 10
35.0900649727304
 20
0.5231543719536731
 30
0.0
 10
35.97292104122207
 20
-0.1455367066552071
 30
0.0
 10
36.85524254225888
 20
-0.8036221413003304
 30
0.0
 10
37.74746492949365
 20
-1.404875974657664
 30
0.0
 10
38.63336928799598
 20
-1.895503992115046
 30
0.0
 10
39.52764862009846
 20
-2.228323019193731
 30
0.0
 10
40.22888104070452
 20
-2.386760750427371
 30
0.0
 10
40.63742022661322
 20
-2.365480995736071
 30
0.0
 10
40.74495550477431
 20
-2.35987975987215
 30
0.0
  0
SPLINE
  5
1118
330
1F
100
AcDbEntity
  8
외형선
  6
Continuous
 62
     1
370
    15
100
AcDbSpline
210
0.0
220
0.0
230
1.0
 70
     8
 71
     3
 72
    10
 73
     6
 74
     0
 42
0.000000001
 43
0.00000001
 40
0.0
 40
0.0
 40
0.0
 40
0.0
 40
0.5
 40
0.5
 40
1.0
 40
1.0
 40
1.0
 40
1.0
 10
50.60816389907333
 20
1.03929481023242
 30
0.0
 10
50.45300622039454
 20
0.9117144753922872
 30
0.0
 10
50.26445861758961
 20
0.8375626699010823
 30
0.0
 10
49.88043033165749
 20
0.7664402356610225
 30
0.0
 10
49.68250975306952
 20
0.7682404543436618
 30
0.0
 10
49.4880568409794
 20
0.7974023626946334
 30
0.0
  0
ARC
  5
1119
330
1F
100
AcDbEntity
  8
외형선
  6
Continuous
 62
     1
370
    15
100
AcDbCircle
 10
50.05722313280822
 20
-0.2120169604320807
 30
0.0
 40
0.8541915114639166
100
AcDbArc
 50
20.2728529552698
 51
47.88431356158125
  0
ARC
  5
111A
330
1F
100
AcDbEntity
  8
외형선
  6
Continuous
 62
     1
370
    15
100
AcDbCircle
 10
48.60565535295351
 20
0.0040907275049449
 30
0.0
 40
2.254259960647507
100
AcDbArc
 50
2.030255562310217
 51
27.33686776298687
  0
LINE
  5
111B
330
1F
100
AcDbEntity
  8
외형선
  6
Continuous
370
    15
100
AcDbLine
 10
22.29609556788418
 20
2.149298209715539
 30
0.0
 11
22.29609556788418
 21
2.381250000000009
 31
0.0
  0
LINE
  5
111C
330
1F
100
AcDbEntity
  8
외형선
  6
Continuous
370
    15
100
AcDbLine
 10
22.29609556788418
 20
-2.381249999999994
 30
0.0
 11
22.29609556788418
 21
-2.127682131963802
 31
0.0
  0
LINE
  5
111D
330
1F
100
AcDbEntity
  8
중심선
 62
     1
100
AcDbLine
 10
-72.77890443211584
 20
-0.0000000000000018
 30
0.0
 11
53.85810496091781
 21
-0.0000000000000018
 31
0.0
  0
CIRCLE
  5
111E
330
1F
100
AcDbEntity
  8
해칭선
100
AcDbCircle
 10
0.0520455678841856
 20
0.0
 30
0.0
 40
2.99999999999998
  0
INSERT
  5
111F
330
1F
100
AcDbEntity
  8
0
  6
Continuous
 62
     7
100
AcDbBlockReference
 66
     1
  2
블럭10
 10
-20.36835249939631
 20
-52.01191848555575
 30
0.0
  0
ATTRIB
  5
1120
330
111F
100
AcDbEntity
  8
FORMAT
 62
     2
100
AcDbText
 10
-28.75785782429614
 20
-49.93655157272357
 30
0.0
 40
4.233333333333333
  1
EI972901 [ 2 FLUTE ]
 41
0.75
  7
SLDTEXTSTYLE0
 11
-28.75785782429614
 21
-52.05321823939023
 31
0.0
100
AcDbAttribute
  2
AUTOATTR0
 70
     0
 74
     1
  0
SEQEND
  5
1121
330
111F
100
AcDbEntity
  8
0
  6
Continuous
 62
     7
  0
HATCH
  5
1122
330
1F
100
AcDbEntity
  8
중심선
100
AcDbHatch
 10
0.0
 20
0.0
 30
0.0
210
0.0
220
0.0
230
1.0
  2
SOLID
 70
     1
 71
     0
 91
        1
 92
        0
 93
        4
 72
     1
 10
-14.65344319501546
 20
-35.76474418391182
 11
-18.09971843885273
 21
-35.76474418391182
 72
     1
 10
-18.09971843885273
 20
-35.76474418391182
 11
-20.22794829805676
 21
-38.30106976448442
 72
     1
 10
-20.22794829805676
 20
-38.30106976448442
 11
-16.78163996910633
 21
-38.30103033518193
 72
     1
 10
-16.78163996910632
 20
-38.30103033518193
 11
-14.65344319501545
 21
-35.76474418391182
 97
        0
 75
     0
 76
     1
 98
        1
 10
19.74708172252707
 20
-0.0010749287238951
  0
HATCH
  5
1123
330
1F
100
AcDbEntity
  8
중심선
100
AcDbHatch
 10
0.0
 20
0.0
 30
0.0
210
0.0
220
0.0
230
1.0
  2
SOLID
 70
     1
 71
     0
 91
        1
 92
        0
 93
        4
 72
     1
 10
-9.640679203979488
 20
-35.76474418391182
 11
-13.08695444781677
 21
-35.76474418391182
 72
     1
 10
-13.08695444781677
 20
-35.76474418391182
 11
-17.61809245617415
 21
-41.16474418391184
 72
     1
 10
-17.61809245617417
 20
-41.16474418391184
 11
-14.17181721233688
 21
-41.16474418391184
 72
     1
 10
-14.17181721233689
 20
-41.16474418391184
 11
-9.640679203979502
 21
-35.76474418391182
 97
        0
 75
     0
 76
     1
 98
        1
 10
19.74708172252707
 20
-0.0010749287238951
  0
HATCH
  5
1124
330
1F
100
AcDbEntity
  8
중심선
100
AcDbHatch
 10
0.0
 20
0.0
 30
0.0
210
0.0
220
0.0
230
1.0
  2
SOLID
 70
     1
 71
     0
 91
        1
 92
        0
 93
        4
 72
     1
 10
-4.627915212943577
 20
-35.76474418391182
 11
-8.074190456780691
 21
-35.76474418391182
 72
     1
 10
-8.074190456780684
 20
-35.76474418391182
 11
-15.12262735866996
 21
-44.16474418391184
 72
     1
 10
-15.12262735866997
 20
-44.16474418391184
 11
-11.67635211483269
 21
-44.16474418391184
 72
     1
 10
-11.6763521148327
 20
-44.16474418391184
 11
-4.627915212943584
 21
-35.76474418391182
 97
        0
 75
     0
 76
     1
 98
        1
 10
19.74708172252707
 20
-0.0010749287238951
  0
HATCH
  5
1125
330
1F
100
AcDbEntity
  8
중심선
100
AcDbHatch
 10
0.0
 20
0.0
 30
0.0
210
0.0
220
0.0
230
1.0
  2
SOLID
 70
     1
 71
     0
 91
        1
 92
        0
 93
        6
 72
     3
 10
0.17197521806861
 20
-39.96474418396309
 11
3.960054785062255
 21
1.540882976769353E-10
 40
0.3939339440162656
 50
17.09539180608456
 51
320.0019657685083
 73
     0
 72
     1
 10
1.854974873769152
 20
-38.55263818855012
 11
4.16027674747022
 21
-36.61831147850217
 72
     3
 10
0.1719752180157457
 20
-39.96474418391197
 11
6.600054785286829
 21
-1.278976924368180E-13
 40
0.636358354079598
 50
39.99873849337393
 51
368.4976242363723
 73
     1
 72
     1
 10
6.597307709916379
 20
-39.00474418384184
 11
-1.14795747514831
 21
-39.00474418384184
 72
     1
 10
-1.147957475148331
 20
-39.00474418384184
 11
-1.147982519594265
 21
-40.92474418384173
 72
     1
 10
-1.147982519594251
 20
-40.92474418384173
 11
3.293397249877778
 21
-40.92474418384171
 97
        0
 75
     0
 76
     1
 98
        1
 10
19.74708172252707
 20
-0.0010749287238951
  0
DIMENSION
  5
1126
330
1F
100
AcDbEntity
  8
치수문자_일반주서
100
AcDbDimension
  2
*D106
 10
62.66481079417558
 20
-2.381249999999959
 30
0.0
 11
62.6648107941755
 21
22.98525000000005
 31
0.0
 70
   160
  1
%%c<>
 71
     2
 42
4.762500000000003
 52
-270.0
  3
SLDDIMSTYLE1
100
AcDbAlignedDimension
 13
50.8085955678842
 23
2.381250000000001
 33
0.0
 14
50.8085955678842
 24
-2.381250000000002
 34
0.0
 50
90.0000000000002
100
AcDbRotatedDimension
1001
ACAD
1000
DSTYLE
1002
{
1070
   171
1070
     5
1070
   273
1070
     7
1002
}
  0
DIMENSION
  5
1127
330
1F
100
AcDbEntity
  8
치수문자_일반주서
100
AcDbDimension
  2
*D107
 10
-82.77890443211584
 20
-2.381250000000048
 30
0.0
 11
-82.77890443211591
 21
22.98524999999996
 31
0.0
 70
   160
  1
%%c<>
 71
     2
 42
4.762500000000003
 52
-270.0
  3
SLDDIMSTYLE1
100
AcDbAlignedDimension
 13
-68.9689044321158
 23
2.381250000000009
 33
0.0
 14
-68.9689044321158
 24
-2.381249999999994
 34
0.0
 50
90.0000000000002
100
AcDbRotatedDimension
1001
ACAD
1000
DSTYLE
1002
{
1070
   171
1070
     5
1070
   273
1070
     7
1002
}
  0
DIMENSION
  5
1128
330
1F
100
AcDbEntity
  8
치수문자_일반주서
100
AcDbDimension
  2
*D108
 10
22.29609556788418
 20
24.04869709597149
 30
0.0
 11
38.63838208953027
 21
24.04869709597149
 31
0.0
 70
   160
  1
<>
 71
     2
 42
28.57500000000002
  3
SLDDIMSTYLE1
100
AcDbAlignedDimension
 13
50.8710955678842
 23
2.381250000000001
 33
0.0
 14
22.29609556788418
 24
2.381250000000009
 34
0.0
100
AcDbRotatedDimension
1001
ACAD
1000
DSTYLE
1002
{
1070
   171
1070
     5
1070
   273
1070
     7
1002
}
  0
DIMENSION
  5
1129
330
1F
100
AcDbEntity
  8
치수문자_일반주서
100
AcDbDimension
  2
*D109
 10
-69.77890443211582
 20
48.82111021950548
 30
0.0
 11
-10.72284167728418
 21
48.82111021950548
 31
0.0
 70
   160
  1
<>
 71
     2
 42
120.65
  3
SLDDIMSTYLE1
100
AcDbAlignedDimension
 13
50.8710955678842
 23
2.381250000000001
 33
0.0
 14
-69.77890443211582
 24
1.571249999999992
 34
0.0
 50
0.0000000000000034
100
AcDbRotatedDimension
1001
ACAD
1000
DSTYLE
1002
{
1070
   171
1070
     5
1070
   273
1070
     7
1002
}
  0
DIMENSION
  5
112A
330
1F
100
AcDbEntity
  8
치수문자_일반주서
100
AcDbDimension
  2
*D110
 10
0.0710955678841856
 20
36.0486970959718
 30
0.0
 11
25.46479789468324
 21
36.0486970959718
 31
0.0
 70
   160
  1
<>
 71
     2
 42
50.80000000000001
  3
SLDDIMSTYLE1
100
AcDbAlignedDimension
 13
50.8710955678842
 23
2.381250000000001
 33
0.0
 14
0.0710955678841856
 24
2.362200000000001
 34
0.0
 50
0.000000000000016
100
AcDbRotatedDimension
1001
ACAD
1000
DSTYLE
1002
{
1070
   171
1070
     5
1070
   273
1070
     7
1002
}
  0
INSERT
  5
112B
330
1F
100
AcDbEntity
  8
해칭선
100
AcDbBlockReference
  2
SW_DOWELSYMBOL_0
 10
0.0520455678841856
 20
0.0
 30
0.0
  0
ARC
  5
1174
330
1F
100
AcDbEntity
  8
외형선
  6
Continuous
 62
     1
370
    15
100
AcDbCircle
 10
48.4898455678842
 20
-0.0000000000000018
 30
0.0
 40
2.38125
100
AcDbArc
 50
236.6247760065143
 51
90.0
  0
SPLINE
  5
1175
330
1F
100
AcDbEntity
  8
외형선
  6
Continuous
 62
     1
370
    15
100
AcDbSpline
210
0.0
220
0.0
230
1.0
 70
     8
 71
     3
 72
    10
 73
     6
 74
     0
 42
0.000000001
 43
0.0000000001
 40
0.0
 40
0.0
 40
0.0
 40
0.0
 40
0.8407588650211474
 40
2.046534618937449
 40
2.45000480253327
 40
2.45000480253327
 40
2.45000480253327
 40
2.45000480253327
 10
48.4898455678842
 20
2.381250000000001
 30
0.0
 10
48.21198247013433
 20
2.340248523535015
 30
0.0
 10
47.53562153892238
 20
2.240444709975429
 30
0.0
 10
46.76872799476274
 20
1.940649108891441
 30
0.0
 10
46.28318308162812
 20
1.71152335266068
 30
0.0
 10
46.16216110626635
 20
1.652811949306745
 30
0.0
  0
SPLINE
  5
1178
330
1F
100
AcDbEntity
  8
외형선
  6
Continuous
 62
     1
370
    15
100
AcDbSpline
210
0.0
220
0.0
230
1.0
 70
  1064
 71
     3
 72
    11
 73
     7
 74
     5
 42
0.000000001
 43
0.0000000001
 44
0.0
 40
0.0
 40
0.0
 40
0.0
 40
0.0
 40
1.794224271424212
 40
4.045085519220329
 40
6.02693910397851
 40
6.865803062739509
 40
6.865803062739509
 40
6.865803062739509
 40
6.865803062739509
 10
47.17987307677876
 20
-1.988548122386534
 30
0.0
 10
46.7556021234245
 20
-1.567625205415979
 30
0.0
 10
45.79908162764674
 20
-0.6186528705394497
 30
0.0
 10
44.33309443180808
 20
0.7677838509391475
 30
0.0
 10
42.88251127413445
 20
1.650758720692952
 30
0.0
 10
42.0619454764407
 20
2.108976889295278
 30
0.0
 10
41.81791428123691
 20
2.24524813976951
 30
0.0
 11
47.17987307677876
 21
-1.988548122386534
 31
0.0
 11
45.90166899527733
 21
-0.7294075177673225
 31
0.0
 11
44.21645195257156
 21
0.762711738795069
 31
0.0
 11
42.54878925406067
 21
1.833526734681021
 31
0.0
 11
41.81791428123691
 21
2.24524813976951
 31
0.0
  0
LINE
  5
11A4
330
1F
100
AcDbEntity
  8
외형선
370
    15
100
AcDbLine
 10
0.0710955678841856
 20
2.362200000000001
 30
0.0
 11
0.0520455678841856
 21
2.381250000000001
 31
0.0
  0
LINE
  5
11A5
330
1F
100
AcDbEntity
  8
외형선
370
    15
100
AcDbLine
 10
0.0710955678841856
 20
-2.362200000000001
 30
0.0
 11
0.0520455678841856
 21
-2.381250000000001
 31
0.0
  0
ENDSEC
  0
SECTION
  2
OBJECTS
  0
DICTIONARY
  5
C
330
0
100
AcDbDictionary
281
     1
  3
ACAD_DETAILVIEWSTYLE
350
2E5
  3
ACAD_GROUP
350
D
  3
ACAD_IMAGE_VARS
350
FEE
  3
ACAD_LAYOUT
350
1A
  3
ACAD_MLINESTYLE
350
17
  3
ACAD_PLOTSETTINGS
350
19
  3
ACAD_PLOTSTYLENAME
350
E
  3
ACAD_SCALELIST
350
47
  3
ACAD_SECTIONVIEWSTYLE
350
2E6
  3
AcDbVariableDictionary
350
2E0
  3
APPDATA
350
158
  3
DWGPROPS
350
11A8
  0
DICTIONARY
  5
11A6
330
1F
100
AcDbDictionary
280
     1
281
     1
  3
DIM_BOUNDING_BOXES_V1
360
11A7
  0
DICTIONARY
  5
2E5
102
{ACAD_REACTORS
330
C
102
}
330
C
100
AcDbDictionary
281
     1
  0
DICTIONARY
  5
D
102
{ACAD_REACTORS
330
C
102
}
330
C
100
AcDbDictionary
281
     1
  0
RASTERVARIABLES
  5
FEE
102
{ACAD_REACTORS
330
C
102
}
330
C
100
AcDbRasterVariables
 90
        0
 70
     1
 71
     1
 72
     1
  0
DICTIONARY
  5
1A
102
{ACAD_REACTORS
330
C
102
}
330
C
100
AcDbDictionary
281
     1
  3
Layout1
350
1E
  3
Layout2
350
26
  3
Model
350
22
  0
DICTIONARY
  5
17
102
{ACAD_REACTORS
330
C
102
}
330
C
100
AcDbDictionary
281
     1
  3
Standard
350
18
  0
DICTIONARY
  5
19
102
{ACAD_REACTORS
330
C
102
}
330
C
100
AcDbDictionary
281
     1
  0
ACDBDICTIONARYWDFLT
  5
E
102
{ACAD_REACTORS
330
C
102
}
330
C
100
AcDbDictionary
281
     1
  3
Normal
350
F
100
AcDbDictionaryWithDefault
340
F
  0
DICTIONARY
  5
47
102
{ACAD_REACTORS
330
C
102
}
330
C
100
AcDbDictionary
281
     1
  3
A0
350
48
  3
A1
350
49
  3
A2
350
4A
  3
A3
350
4B
  3
A4
350
4C
  3
A5
350
4D
  3
A6
350
4E
  3
A7
350
4F
  3
A8
350
50
  3
A9
350
51
  3
B0
350
52
  3
B1
350
53
  3
B2
350
54
  3
B3
350
55
  3
B4
350
56
  3
B5
350
57
  3
B6
350
58
  3
B7
350
59
  3
B8
350
5A
  3
B9
350
5B
  3
C0
350
5C
  3
C1
350
5D
  3
C2
350
5E
  3
C3
350
5F
  3
C4
350
60
  3
C5
350
61
  3
C6
350
62
  3
C7
350
63
  3
C8
350
64
  3
C9
350
65
  3
D0
350
66
  3
D1
350
67
  3
D2
350
68
  0
DICTIONARY
  5
2E6
102
{ACAD_REACTORS
330
C
102
}
330
C
100
AcDbDictionary
281
     1
  0
DICTIONARY
  5
2E0
102
{ACAD_REACTORS
330
C
102
}
330
C
100
AcDbDictionary
281
     1
  0
DICTIONARY
  5
158
102
{ACAD_REACTORS
330
C
102
}
330
C
100
AcDbDictionary
281
     1
  0
XRECORD
  5
11A8
102
{ACAD_REACTORS
330
C
102
}
330
C
100
AcDbXrecord
280
     1
  1
DWGPROPS COOKIE
  2

  3

  4

  6

  7

  8
12011056
  9

300
=
301
=
302
=
303
=
304
=
305
=
306
=
307
=
308
=
309
=
 40
0.0
 41
2458270.259505486
 42
2459718.086713171
  1

 90
        0
  0
DICTIONARY
  5
11A7
102
{ACAD_REACTORS
330
11A6
102
}
330
11A6
100
AcDbDictionary
281
     1
  0
LAYOUT
  5
1E
102
{ACAD_REACTORS
330
1A
102
}
330
1A
100
AcDbPlotSettings
  1

  2
none_device
  4

  6

 40
0.0
 41
0.0
 42
0.0
 43
0.0
 44
0.0
 45
0.0
 46
0.0
 47
0.0
 48
0.0
 49
0.0
140
0.0
141
0.0
142
1.0
143
1.0
 70
   688
 72
     1
 73
     0
 74
     5
  7

 75
    16
147
1.0
148
0.0
149
0.0
100
AcDbLayout
  1
Layout1
 70
     1
 71
     1
 10
0.0
 20
0.0
 11
420.0
 21
297.0
 12
0.0
 22
0.0
 32
0.0
 14
1.000000000000000E+20
 24
1.000000000000000E+20
 34
1.000000000000000E+20
 15
-1.000000000000000E+20
 25
-1.000000000000000E+20
 35
-1.000000000000000E+20
146
0.0
 13
0.0
 23
0.0
 33
0.0
 16
1.0
 26
0.0
 36
0.0
 17
0.0
 27
1.0
 37
0.0
 76
     0
330
1B
  0
LAYOUT
  5
26
102
{ACAD_REACTORS
330
1A
102
}
330
1A
100
AcDbPlotSettings
  1

  2
none_device
  4

  6

 40
0.0
 41
0.0
 42
0.0
 43
0.0
 44
0.0
 45
0.0
 46
0.0
 47
0.0
 48
0.0
 49
0.0
140
0.0
141
0.0
142
1.0
143
1.0
 70
   688
 72
     1
 73
     0
 74
     5
  7

 75
    16
147
1.0
148
0.0
149
0.0
100
AcDbLayout
  1
Layout2
 70
     1
 71
     2
 10
0.0
 20
0.0
 11
0.0
 21
0.0
 12
0.0
 22
0.0
 32
0.0
 14
0.0
 24
0.0
 34
0.0
 15
0.0
 25
0.0
 35
0.0
146
0.0
 13
0.0
 23
0.0
 33
0.0
 16
1.0
 26
0.0
 36
0.0
 17
0.0
 27
1.0
 37
0.0
 76
     0
330
23
  0
LAYOUT
  5
22
102
{ACAD_REACTORS
330
1A
102
}
330
1A
100
AcDbPlotSettings
  1

  2
none_device
  4
ANSI_A_(11.00_x_8.50_Inches)
  6

 40
6.35
 41
19.05
 42
6.35000508
 43
19.05000254
 44
279.4
 45
215.9
 46
86.17177212924734
 47
101.2914543987717
 48
0.0
 49
0.0
140
0.0
141
0.0
142
0.0736400973839136
143
1.0
 70
  1696
 72
     0
 73
     0
 74
     0
  7

 75
     0
147
0.0235690232323232
148
0.0
149
0.0
100
AcDbLayout
  1
Model
 70
     1
 71
     0
 10
0.0
 20
0.0
 11
420.0
 21
297.0
 12
0.0
 22
0.0
 32
0.0
 14
-87.1539044321159
 24
-49.93655157272356
 34
0.0
 15
99.16350881534561
 25
53.19611021950548
 35
0.0
146
0.0
 13
0.0
 23
0.0
 33
0.0
 16
1.0
 26
0.0
 36
0.0
 17
0.0
 27
1.0
 37
0.0
 76
     0
330
1F
331
29
  0
MLINESTYLE
  5
18
102
{ACAD_REACTORS
330
17
102
}
330
17
100
AcDbMlineStyle
  2
Standard
 70
     0
  3

 62
   256
 51
90.0
 52
90.0
 71
     2
 49
0.5
 62
   256
  6
BYLAYER
 49
-0.5
 62
   256
  6
BYLAYER
  0
ACDBPLACEHOLDER
  5
F
102
{ACAD_REACTORS
330
E
102
}
330
E
  0
SCALE
  5
48
102
{ACAD_REACTORS
330
47
102
}
330
47
100
AcDbScale
 70
     0
300
1:1
140
1.0
141
1.0
290
     1
  0
SCALE
  5
49
102
{ACAD_REACTORS
330
47
102
}
330
47
100
AcDbScale
 70
     0
300
1:2
140
1.0
141
2.0
290
     0
  0
SCALE
  5
4A
102
{ACAD_REACTORS
330
47
102
}
330
47
100
AcDbScale
 70
     0
300
1:4
140
1.0
141
4.0
290
     0
  0
SCALE
  5
4B
102
{ACAD_REACTORS
330
47
102
}
330
47
100
AcDbScale
 70
     0
300
1:5
140
1.0
141
5.0
290
     0
  0
SCALE
  5
4C
102
{ACAD_REACTORS
330
47
102
}
330
47
100
AcDbScale
 70
     0
300
1:8
140
1.0
141
8.0
290
     0
  0
SCALE
  5
4D
102
{ACAD_REACTORS
330
47
102
}
330
47
100
AcDbScale
 70
     0
300
1:10
140
1.0
141
10.0
290
     0
  0
SCALE
  5
4E
102
{ACAD_REACTORS
330
47
102
}
330
47
100
AcDbScale
 70
     0
300
1:16
140
1.0
141
16.0
290
     0
  0
SCALE
  5
4F
102
{ACAD_REACTORS
330
47
102
}
330
47
100
AcDbScale
 70
     0
300
1:20
140
1.0
141
20.0
290
     0
  0
SCALE
  5
50
102
{ACAD_REACTORS
330
47
102
}
330
47
100
AcDbScale
 70
     0
300
1:30
140
1.0
141
30.0
290
     0
  0
SCALE
  5
51
102
{ACAD_REACTORS
330
47
102
}
330
47
100
AcDbScale
 70
     0
300
1:40
140
1.0
141
40.0
290
     0
  0
SCALE
  5
52
102
{ACAD_REACTORS
330
47
102
}
330
47
100
AcDbScale
 70
     0
300
1:50
140
1.0
141
50.0
290
     0
  0
SCALE
  5
53
102
{ACAD_REACTORS
330
47
102
}
330
47
100
AcDbScale
 70
     0
300
1:100
140
1.0
141
100.0
290
     0
  0
SCALE
  5
54
102
{ACAD_REACTORS
330
47
102
}
330
47
100
AcDbScale
 70
     0
300
2:1
140
2.0
141
1.0
290
     0
  0
SCALE
  5
55
102
{ACAD_REACTORS
330
47
102
}
330
47
100
AcDbScale
 70
     0
300
4:1
140
4.0
141
1.0
290
     0
  0
SCALE
  5
56
102
{ACAD_REACTORS
330
47
102
}
330
47
100
AcDbScale
 70
     0
300
8:1
140
8.0
141
1.0
290
     0
  0
SCALE
  5
57
102
{ACAD_REACTORS
330
47
102
}
330
47
100
AcDbScale
 70
     0
300
10:1
140
10.0
141
1.0
290
     0
  0
SCALE
  5
58
102
{ACAD_REACTORS
330
47
102
}
330
47
100
AcDbScale
 70
     0
300
100:1
140
100.0
141
1.0
290
     0
  0
SCALE
  5
59
102
{ACAD_REACTORS
330
47
102
}
330
47
100
AcDbScale
 70
     0
300
1/128" = 1'-0"
140
0.0078125
141
12.0
290
     0
  0
SCALE
  5
5A
102
{ACAD_REACTORS
330
47
102
}
330
47
100
AcDbScale
 70
     0
300
1/64" = 1'-0"
140
0.015625
141
12.0
290
     0
  0
SCALE
  5
5B
102
{ACAD_REACTORS
330
47
102
}
330
47
100
AcDbScale
 70
     0
300
1/32" = 1'-0"
140
0.03125
141
12.0
290
     0
  0
SCALE
  5
5C
102
{ACAD_REACTORS
330
47
102
}
330
47
100
AcDbScale
 70
     0
300
1/16" = 1'-0"
140
0.0625
141
12.0
290
     0
  0
SCALE
  5
5D
102
{ACAD_REACTORS
330
47
102
}
330
47
100
AcDbScale
 70
     0
300
3/32" = 1'-0"
140
0.09375
141
12.0
290
     0
  0
SCALE
  5
5E
102
{ACAD_REACTORS
330
47
102
}
330
47
100
AcDbScale
 70
     0
300
1/8" = 1'-0"
140
0.125
141
12.0
290
     0
  0
SCALE
  5
5F
102
{ACAD_REACTORS
330
47
102
}
330
47
100
AcDbScale
 70
     0
300
3/16" = 1'-0"
140
0.1875
141
12.0
290
     0
  0
SCALE
  5
60
102
{ACAD_REACTORS
330
47
102
}
330
47
100
AcDbScale
 70
     0
300
1/4" = 1'-0"
140
0.25
141
12.0
290
     0
  0
SCALE
  5
61
102
{ACAD_REACTORS
330
47
102
}
330
47
100
AcDbScale
 70
     0
300
3/8" = 1'-0"
140
0.375
141
12.0
290
     0
  0
SCALE
  5
62
102
{ACAD_REACTORS
330
47
102
}
330
47
100
AcDbScale
 70
     0
300
1/2" = 1'-0"
140
0.5
141
12.0
290
     0
  0
SCALE
  5
63
102
{ACAD_REACTORS
330
47
102
}
330
47
100
AcDbScale
 70
     0
300
3/4" = 1'-0"
140
0.75
141
12.0
290
     0
  0
SCALE
  5
64
102
{ACAD_REACTORS
330
47
102
}
330
47
100
AcDbScale
 70
     0
300
1" = 1'-0"
140
1.0
141
12.0
290
     0
  0
SCALE
  5
65
102
{ACAD_REACTORS
330
47
102
}
330
47
100
AcDbScale
 70
     0
300
1-1/2" = 1'-0"
140
1.5
141
12.0
290
     0
  0
SCALE
  5
66
102
{ACAD_REACTORS
330
47
102
}
330
47
100
AcDbScale
 70
     0
300
3" = 1'-0"
140
3.0
141
12.0
290
     0
  0
SCALE
  5
67
102
{ACAD_REACTORS
330
47
102
}
330
47
100
AcDbScale
 70
     0
300
6" = 1'-0"
140
6.0
141
12.0
290
     0
  0
SCALE
  5
68
102
{ACAD_REACTORS
330
47
102
}
330
47
100
AcDbScale
 70
     0
300
1'-0" = 1'-0"
140
12.0
141
12.0
290
     0
  0
ENDSEC
  0
EOF
