  0
SECTION
  2
HEADER
  9
$ACADVER
  1
AC1015
  9
$ACADMAINTVER
 70
     6
  9
$DWGCODEPAGE
  3
ANSI_949
  9
$INSBASE
 10
0.0
 20
0.0
 30
0.0
  9
$EXTMIN
 10
-76.71942374908112
 20
-49.97073246008785
 30
0.0
  9
$EXTMAX
 10
49.30599463627294
 20
51.4704744389356
 30
0.0
  9
$LIMMIN
 10
0.0
 20
0.0
  9
$LIMMAX
 10
420.0
 20
297.0
  9
$ORTHOMODE
 70
     1
  9
$REGENMODE
 70
     1
  9
$FILLMODE
 70
     1
  9
$QTEXTMODE
 70
     0
  9
$MIRRTEXT
 70
     1
  9
$LTSCALE
 40
1.0
  9
$ATTMODE
 70
     1
  9
$TEXTSIZE
 40
3.5
  9
$TRACEWID
 40
1.0
  9
$TEXTSTYLE
  7
Standard
  9
$CLAYER
  8
0
  9
$CELTYPE
  6
ByLayer
  9
$CECOLOR
 62
   256
  9
$CELTSCALE
 40
1.0
  9
$DISPSILH
 70
     0
  9
$DIMSCALE
 40
1.0
  9
$DIMASZ
 40
3.302
  9
$DIMEXO
 40
1.0
  9
$DIMDLI
 40
3.75
  9
$DIMRND
 40
0.0
  9
$DIMDLE
 40
0.0
  9
$DIMEXE
 40
1.0
  9
$DIMTP
 40
0.0
  9
$DIMTM
 40
0.0
  9
$DIMTXT
 40
3.5
  9
$DIMCEN
 40
2.5
  9
$DIMTSZ
 40
0.0
  9
$DIMTOL
 70
     0
  9
$DIMLIM
 70
     0
  9
$DIMTIH
 70
     1
  9
$DIMTOH
 70
     1
  9
$DIMSE1
 70
     0
  9
$DIMSE2
 70
     0
  9
$DIMTAD
 70
     1
  9
$DIMZIN
 70
     0
  9
$DIMBLK
  1

  9
$DIMASO
 70
     1
  9
$DIMSHO
 70
     1
  9
$DIMPOST
  1

  9
$DIMAPOST
  1

  9
$DIMALT
 70
     0
  9
$DIMALTD
 70
     3
  9
$DIMALTF
 40
0.0393700787401575
  9
$DIMLFAC
 40
1.0
  9
$DIMTOFL
 70
     1
  9
$DIMTVP
 40
0.0
  9
$DIMTIX
 70
     0
  9
$DIMSOXD
 70
     0
  9
$DIMSAH
 70
     0
  9
$DIMBLK1
  1

  9
$DIMBLK2
  1

  9
$DIMSTYLE
  2
ISO-25
  9
$DIMCLRD
 70
     0
  9
$DIMCLRE
 70
     0
  9
$DIMCLRT
 70
     0
  9
$DIMTFAC
 40
1.0
  9
$DIMGAP
 40
1.524
  9
$DIMJUST
 70
     0
  9
$DIMSD1
 70
     0
  9
$DIMSD2
 70
     0
  9
$DIMTOLJ
 70
     0
  9
$DIMTZIN
 70
     0
  9
$DIMALTZ
 70
     0
  9
$DIMALTTZ
 70
     0
  9
$DIMUPT
 70
     0
  9
$DIMDEC
 70
     2
  9
$DIMTDEC
 70
     2
  9
$DIMALTU
 70
     2
  9
$DIMALTTD
 70
     3
  9
$DIMTXSTY
  7
Standard
  9
$DIMAUNIT
 70
     0
  9
$DIMADEC
 70
     2
  9
$DIMALTRND
 40
0.0
  9
$DIMAZIN
 70
     0
  9
$DIMDSEP
 70
    44
  9
$DIMATFIT
 70
     3
  9
$DIMFRAC
 70
     0
  9
$DIMLDRBLK
  1

  9
$DIMLUNIT
 70
     2
  9
$DIMLWD
 70
    -2
  9
$DIMLWE
 70
    -2
  9
$DIMTMOVE
 70
     0
  9
$LUNITS
 70
     2
  9
$LUPREC
 70
     2
  9
$SKETCHINC
 40
1.0
  9
$FILLETRAD
 40
10.0
  9
$AUNITS
 70
     0
  9
$AUPREC
 70
     2
  9
$MENU
  1
.
  9
$ELEVATION
 40
0.0
  9
$PELEVATION
 40
0.0
  9
$THICKNESS
 40
0.0
  9
$LIMCHECK
 70
     0
  9
$CHAMFERA
 40
0.0
  9
$CHAMFERB
 40
0.0
  9
$CHAMFERC
 40
0.0
  9
$CHAMFERD
 40
0.0
  9
$SKPOLY
 70
     0
  9
$TDCREATE
 40
2458272.687998518
  9
$TDUCREATE
 40
2458272.312998518
  9
$TDUPDATE
 40
2458297.65895037
  9
$TDUUPDATE
 40
2458297.28395037
  9
$TDINDWG
 40
0.003940787
  9
$TDUSRTIMER
 40
2458297.283828171
  9
$USRTIMER
 70
     1
  9
$ANGBASE
 50
0.0
  9
$ANGDIR
 70
     0
  9
$PDMODE
 70
     0
  9
$PDSIZE
 40
-1.0
  9
$PLINEWID
 40
0.0
  9
$SPLFRAME
 70
     0
  9
$SPLINETYPE
 70
     6
  9
$SPLINESEGS
 70
     8
  9
$HANDSEED
  5
1A9
  9
$SURFTAB1
 70
     6
  9
$SURFTAB2
 70
     6
  9
$SURFTYPE
 70
     6
  9
$SURFU
 70
     6
  9
$SURFV
 70
     6
  9
$UCSBASE
  2

  9
$UCSNAME
  2

  9
$UCSORG
 10
0.0
 20
0.0
 30
0.0
  9
$UCSXDIR
 10
1.0
 20
0.0
 30
0.0
  9
$UCSYDIR
 10
0.0
 20
1.0
 30
0.0
  9
$UCSORTHOREF
  2

  9
$UCSORTHOVIEW
 70
     0
  9
$UCSORGTOP
 10
0.0
 20
0.0
 30
0.0
  9
$UCSORGBOTTOM
 10
0.0
 20
0.0
 30
0.0
  9
$UCSORGLEFT
 10
0.0
 20
0.0
 30
0.0
  9
$UCSORGRIGHT
 10
0.0
 20
0.0
 30
0.0
  9
$UCSORGFRONT
 10
0.0
 20
0.0
 30
0.0
  9
$UCSORGBACK
 10
0.0
 20
0.0
 30
0.0
  9
$PUCSBASE
  2

  9
$PUCSNAME
  2

  9
$PUCSORG
 10
0.0
 20
0.0
 30
0.0
  9
$PUCSXDIR
 10
1.0
 20
0.0
 30
0.0
  9
$PUCSYDIR
 10
0.0
 20
1.0
 30
0.0
  9
$PUCSORTHOREF
  2

  9
$PUCSORTHOVIEW
 70
     0
  9
$PUCSORGTOP
 10
0.0
 20
0.0
 30
0.0
  9
$PUCSORGBOTTOM
 10
0.0
 20
0.0
 30
0.0
  9
$PUCSORGLEFT
 10
0.0
 20
0.0
 30
0.0
  9
$PUCSORGRIGHT
 10
0.0
 20
0.0
 30
0.0
  9
$PUCSORGFRONT
 10
0.0
 20
0.0
 30
0.0
  9
$PUCSORGBACK
 10
0.0
 20
0.0
 30
0.0
  9
$USERI1
 70
     0
  9
$USERI2
 70
     0
  9
$USERI3
 70
     0
  9
$USERI4
 70
     0
  9
$USERI5
 70
     0
  9
$USERR1
 40
0.0
  9
$USERR2
 40
0.0
  9
$USERR3
 40
0.0
  9
$USERR4
 40
0.0
  9
$USERR5
 40
0.0
  9
$WORLDVIEW
 70
     1
  9
$SHADEDGE
 70
     3
  9
$SHADEDIF
 70
    70
  9
$TILEMODE
 70
     1
  9
$MAXACTVP
 70
    64
  9
$PINSBASE
 10
0.0
 20
0.0
 30
0.0
  9
$PLIMCHECK
 70
     0
  9
$PEXTMIN
 10
1.000000000000000E+20
 20
1.000000000000000E+20
 30
1.000000000000000E+20
  9
$PEXTMAX
 10
-1.000000000000000E+20
 20
-1.000000000000000E+20
 30
-1.000000000000000E+20
  9
$PLIMMIN
 10
0.0
 20
0.0
  9
$PLIMMAX
 10
0.0
 20
0.0
  9
$UNITMODE
 70
     0
  9
$VISRETAIN
 70
     1
  9
$PLINEGEN
 70
     0
  9
$PSLTSCALE
 70
     1
  9
$TREEDEPTH
 70
  3020
  9
$CMLSTYLE
  2
Standard
  9
$CMLJUST
 70
     0
  9
$CMLSCALE
 40
20.0
  9
$PROXYGRAPHICS
 70
     1
  9
$MEASUREMENT
 70
     1
  9
$CELWEIGHT
370
    -1
  9
$ENDCAPS
280
     0
  9
$JOINSTYLE
280
     0
  9
$LWDISPLAY
290
     1
  9
$INSUNITS
 70
     4
  9
$HYPERLINKBASE
  1

  9
$STYLESHEET
  1

  9
$XEDIT
290
     1
  9
$CEPSNTYPE
380
     0
  9
$PSTYLEMODE
290
     1
  9
$FINGERPRINTGUID
  2
{1805972B-20C5-48F3-87DA-E25D38C78AAF}
  9
$VERSIONGUID
  2
{FAEB1C32-E019-11D5-929B-00C0DF256EC4}
  9
$EXTNAMES
290
     1
  9
$PSVPSCALE
 40
0.0
  9
$OLESTARTUP
290
     0
  0
ENDSEC
  0
SECTION
  2
CLASSES
  0
CLASS
  1
ACDBDICTIONARYWDFLT
  2
AcDbDictionaryWithDefault
  3
ObjectDBX Classes
 90
        0
280
     0
281
     0
  0
CLASS
  1
VISUALSTYLE
  2
AcDbVisualStyle
  3
ObjectDBX Classes
 90
     4095
280
     0
281
     0
  0
CLASS
  1
MATERIAL
  2
AcDbMaterial
  3
ObjectDBX Classes
 90
     1153
280
     0
281
     0
  0
CLASS
  1
SCALE
  2
AcDbScale
  3
ObjectDBX Classes
 90
     1153
280
     0
281
     0
  0
CLASS
  1
SUN
  2
AcDbSun
  3
SCENEOE
 90
     1153
280
     0
281
     0
  0
CLASS
  1
ACDBPLACEHOLDER
  2
AcDbPlaceHolder
  3
ObjectDBX Classes
 90
        0
280
     0
281
     0
  0
CLASS
  1
LAYOUT
  2
AcDbLayout
  3
ObjectDBX Classes
 90
        0
280
     0
281
     0
  0
CLASS
  1
TABLESTYLE
  2
AcDbTableStyle
  3
ObjectDBX Classes
 90
     4095
280
     0
281
     0
  0
CLASS
  1
MLEADERSTYLE
  2
AcDbMLeaderStyle
  3
ACDB_MLEADERSTYLE_CLASS
 90
     4095
280
     0
281
     0
  0
CLASS
  1
RASTERVARIABLES
  2
AcDbRasterVariables
  3
ISM
 90
        0
280
     0
281
     0
  0
CLASS
  1
DICTIONARYVAR
  2
AcDbDictionaryVar
  3
ObjectDBX Classes
 90
        0
280
     0
281
     0
  0
CLASS
  1
DIMASSOC
  2
AcDbDimAssoc
  3
"AcDbDimAssoc|Product Desc:     AcDim ARX App For Dimension|Company:          Autodesk, Inc.|WEB Address:      www.autodesk.com"
 90
        0
280
     0
281
     0
  0
ENDSEC
  0
SECTION
  2
TABLES
  0
TABLE
  2
VPORT
  5
8
330
0
100
AcDbSymbolTable
 70
     1
  0
VPORT
  5
29
330
8
100
AcDbSymbolTableRecord
100
AcDbViewportTableRecord
  2
*Active
 70
     0
 10
0.0
 20
0.0
 11
1.0
 21
1.0
 12
-13.70671455640409
 22
0.7498709894238758
 13
0.0
 23
0.0
 14
10.0
 24
10.0
 15
10.0
 25
10.0
 16
0.0
 26
0.0
 36
1.0
 17
0.0
 27
0.0
 37
0.0
 40
103.4700310370039
 41
2.22554347826087
 42
50.0
 43
0.0
 44
0.0
 50
0.0
 51
0.0
 71
    16
 72
  2000
 73
     1
 74
     3
 75
     0
 76
     0
 77
     0
 78
     0
281
     0
 65
     1
110
0.0
120
0.0
130
0.0
111
1.0
121
0.0
131
0.0
112
0.0
122
1.0
132
0.0
 79
     0
146
0.0
  0
ENDTAB
  0
TABLE
  2
LTYPE
  5
5
330
0
100
AcDbSymbolTable
 70
     6
  0
LTYPE
  5
14
330
5
100
AcDbSymbolTableRecord
100
AcDbLinetypeTableRecord
  2
ByBlock
 70
     0
  3

 72
    65
 73
     0
 40
0.0
  0
LTYPE
  5
15
330
5
100
AcDbSymbolTableRecord
100
AcDbLinetypeTableRecord
  2
ByLayer
 70
     0
  3

 72
    65
 73
     0
 40
0.0
  0
LTYPE
  5
16
330
5
100
AcDbSymbolTableRecord
100
AcDbLinetypeTableRecord
  2
Continuous
 70
     0
  3
Solid line
 72
    65
 73
     0
 40
0.0
  0
LTYPE
  5
6A
330
5
100
AcDbSymbolTableRecord
100
AcDbLinetypeTableRecord
  2
HIDDEN
 70
     0
  3
Hidden __ __ __ __ __ __ __ __ __ __ __ __ __ __
 72
    65
 73
     2
 40
1.905
 49
1.27
 74
     0
 49
-0.635
 74
     0
  0
LTYPE
  5
6B
330
5
100
AcDbSymbolTableRecord
100
AcDbLinetypeTableRecord
  2
PHANTOM
 70
     0
  3
Phantom ______  __  __  ______  __  __  ______
 72
    65
 73
     6
 40
12.7
 49
6.35
 74
     0
 49
-1.27
 74
     0
 49
1.27
 74
     0
 49
-1.27
 74
     0
 49
1.27
 74
     0
 49
-1.27
 74
     0
  0
LTYPE
  5
6C
330
5
100
AcDbSymbolTableRecord
100
AcDbLinetypeTableRecord
  2
CENTER
 70
     0
  3
Center ____ _ ____ _ ____ _ ____ _ ____ _ ____
 72
    65
 73
     4
 40
10.16
 49
6.35
 74
     0
 49
-1.27
 74
     0
 49
1.27
 74
     0
 49
-1.27
 74
     0
  0
LTYPE
  5
6D
330
5
100
AcDbSymbolTableRecord
100
AcDbLinetypeTableRecord
  2
CENTERX2
 70
     0
  3
Center (2x) ________  __  ________  __  _____
 72
    65
 73
     4
 40
20.32
 49
12.7
 74
     0
 49
-2.54
 74
     0
 49
2.54
 74
     0
 49
-2.54
 74
     0
  0
LTYPE
  5
6E
330
5
100
AcDbSymbolTableRecord
100
AcDbLinetypeTableRecord
  2
DOT2
 70
     0
  3
Dot (.5x) ........................................
 72
    65
 73
     2
 40
0.635
 49
0.0
 74
     0
 49
-0.635
 74
     0
  0
ENDTAB
  0
TABLE
  2
LAYER
  5
2
330
0
100
AcDbSymbolTable
 70
    17
  0
LAYER
  5
10
330
2
100
AcDbSymbolTableRecord
100
AcDbLayerTableRecord
  2
0
 70
     0
 62
     7
  6
Continuous
370
    -3
390
F
  0
LAYER
  5
6F
330
2
100
AcDbSymbolTableRecord
100
AcDbLayerTableRecord
  2
FORMAT
 70
     0
 62
     2
  6
Continuous
370
    -3
390
F
  0
LAYER
  5
70
330
2
100
AcDbSymbolTableRecord
100
AcDbLayerTableRecord
  2
외형선
 70
     0
 62
   100
  6
Continuous
370
    30
390
F
  0
LAYER
  5
71
330
2
100
AcDbSymbolTableRecord
100
AcDbLayerTableRecord
  2
숨은선
 70
     0
 62
     2
  6
HIDDEN
370
    15
390
F
  0
LAYER
  5
72
330
2
100
AcDbSymbolTableRecord
100
AcDbLayerTableRecord
  2
중심선
 70
     0
 62
     1
  6
CENTERX2
370
    -3
390
F
  0
LAYER
  5
73
330
2
100
AcDbSymbolTableRecord
100
AcDbLayerTableRecord
  2
파단선
 70
     0
 62
     4
  6
Continuous
370
    -3
390
F
  0
LAYER
  5
74
330
2
100
AcDbSymbolTableRecord
100
AcDbLayerTableRecord
  2
해칭선
 70
     0
 62
     4
  6
Continuous
370
    -3
390
F
  0
LAYER
  5
75
330
2
100
AcDbSymbolTableRecord
100
AcDbLayerTableRecord
  2
가는실선
 70
     0
 62
     4
  6
Continuous
370
    -3
390
F
  0
LAYER
  5
76
330
2
100
AcDbSymbolTableRecord
100
AcDbLayerTableRecord
  2
치수_보조선
 70
     0
 62
     4
  6
Continuous
370
    -3
390
F
  0
LAYER
  5
77
330
2
100
AcDbSymbolTableRecord
100
AcDbLayerTableRecord
  2
치수문자_일반주서
 70
     0
 62
     7
  6
Continuous
370
    15
390
F
  0
LAYER
  5
78
330
2
100
AcDbSymbolTableRecord
100
AcDbLayerTableRecord
  2
개별주서
 70
     0
 62
   100
  6
Continuous
370
    30
390
F
  0
LAYER
  5
79
330
2
100
AcDbSymbolTableRecord
100
AcDbLayerTableRecord
  2
중간선
 70
     0
 62
     2
  6
Continuous
370
    15
390
F
  0
LAYER
  5
7A
330
2
100
AcDbSymbolTableRecord
100
AcDbLayerTableRecord
  2
윤곽선
 70
     0
 62
     3
  6
Continuous
370
    40
390
F
  0
LAYER
  5
7B
330
2
100
AcDbSymbolTableRecord
100
AcDbLayerTableRecord
  2
중심마크
 70
     0
 62
   100
  6
Continuous
370
    30
390
F
  0
LAYER
  5
7C
330
2
100
AcDbSymbolTableRecord
100
AcDbLayerTableRecord
  2
가상선
 70
     0
 62
     4
  6
PHANTOM
370
    -3
390
F
  0
LAYER
  5
7D
330
2
100
AcDbSymbolTableRecord
100
AcDbLayerTableRecord
  2
특수지정선
 70
     0
 62
     5
  6
CENTERX2
370
    60
390
F
  0
LAYER
  5
124
330
2
100
AcDbSymbolTableRecord
100
AcDbLayerTableRecord
  2
Defpoints
 70
     0
 62
     7
  6
Continuous
290
     0
370
    -3
390
F
  0
ENDTAB
  0
TABLE
  2
STYLE
  5
3
330
0
100
AcDbSymbolTable
 70
     2
  0
STYLE
  5
11
330
3
100
AcDbSymbolTableRecord
100
AcDbTextStyleTableRecord
  2
Standard
 70
     0
 40
0.0
 41
1.0
 50
0.0
 71
     0
 42
3.5
  3
txt
  4

  0
STYLE
  5
93
330
3
100
AcDbSymbolTableRecord
100
AcDbTextStyleTableRecord
  2
SLDTEXTSTYLE0
 70
     0
 40
0.0
 41
0.75
 50
0.0
 71
     0
 42
3.5
  3
TXT
  4

  0
ENDTAB
  0
TABLE
  2
VIEW
  5
6
330
0
100
AcDbSymbolTable
 70
     0
  0
ENDTAB
  0
TABLE
  2
UCS
  5
7
330
0
100
AcDbSymbolTable
 70
     0
  0
ENDTAB
  0
TABLE
  2
APPID
  5
9
330
0
100
AcDbSymbolTable
 70
     2
  0
APPID
  5
12
330
9
100
AcDbSymbolTableRecord
100
AcDbRegAppTableRecord
  2
ACAD
 70
     0
  0
APPID
  5
180
330
9
100
AcDbSymbolTableRecord
100
AcDbRegAppTableRecord
  2
PE_DIMMEASUREMENT
 70
     0
  0
ENDTAB
  0
TABLE
  2
DIMSTYLE
  5
A
330
0
100
AcDbSymbolTable
 70
     3
100
AcDbDimStyleTable
  0
DIMSTYLE
105
27
330
A
100
AcDbSymbolTableRecord
100
AcDbDimStyleTableRecord
  2
ISO-25
 70
     0
 41
2.5
 42
0.625
 43
3.75
 44
1.25
 73
     0
 74
     0
 77
     1
 78
     8
140
2.5
141
2.5
143
0.03937007874016
147
0.625
171
     3
172
     1
178
     0
271
     2
272
     2
274
     3
278
    44
283
     0
284
     8
340
11
  0
DIMSTYLE
105
D9
102
{ACAD_REACTORS
330
D8
330
13F
330
151
330
162
330
171
102
}
330
A
100
AcDbSymbolTableRecord
100
AcDbDimStyleTableRecord
  2
SLDDIMSTYLE0
 70
     0
 41
3.302
 44
0.0
 45
0.000000001
 73
     0
 74
     0
 77
     1
 78
    12
 79
     3
140
3.5
143
0.0393700787401575
147
0.875
148
0.000000001
170
     1
172
     1
173
     1
178
     0
271
     2
272
     2
276
     2
284
    12
289
     0
340
93
  0
DIMSTYLE
105
EE
330
A
100
AcDbSymbolTableRecord
100
AcDbDimStyleTableRecord
  2
SLDDIMSTYLE1
 70
     0
 41
3.302
 44
0.0
 73
     0
 74
     0
 77
     1
 78
     4
 79
     1
140
3.5
147
0.875
173
     1
178
     0
179
     2
272
     2
276
     2
284
    12
340
93
  0
ENDTAB
  0
TABLE
  2
BLOCK_RECORD
  5
1
330
0
100
AcDbSymbolTable
 70
     9
  0
BLOCK_RECORD
  5
1F
330
1
100
AcDbSymbolTableRecord
100
AcDbBlockTableRecord
  2
*Model_Space
340
22
  0
BLOCK_RECORD
  5
1B
330
1
100
AcDbSymbolTableRecord
100
AcDbBlockTableRecord
  2
*Paper_Space
340
1E
  0
BLOCK_RECORD
  5
23
330
1
100
AcDbSymbolTableRecord
100
AcDbBlockTableRecord
  2
*Paper_Space0
340
26
  0
BLOCK_RECORD
  5
7E
330
1
100
AcDbSymbolTableRecord
100
AcDbBlockTableRecord
  2
블럭10
340
0
102
{BLKREFS
331
D1
102
}
  0
BLOCK_RECORD
  5
DA
330
1
100
AcDbSymbolTableRecord
100
AcDbBlockTableRecord
  2
_D
340
0
  0
BLOCK_RECORD
  5
EF
330
1
100
AcDbSymbolTableRecord
100
AcDbBlockTableRecord
  2
_D_1
340
0
  0
BLOCK_RECORD
  5
F9
330
1
100
AcDbSymbolTableRecord
100
AcDbBlockTableRecord
  2
SW_DOWELSYMBOL_0
340
0
102
{BLKREFS
331
FF
102
}
  0
BLOCK_RECORD
  5
142
330
1
100
AcDbSymbolTableRecord
100
AcDbBlockTableRecord
  2
*D5
340
0
  0
BLOCK_RECORD
  5
154
330
1
100
AcDbSymbolTableRecord
100
AcDbBlockTableRecord
  2
*D6
340
0
  0
BLOCK_RECORD
  5
165
330
1
100
AcDbSymbolTableRecord
100
AcDbBlockTableRecord
  2
*D7
340
0
  0
BLOCK_RECORD
  5
174
330
1
100
AcDbSymbolTableRecord
100
AcDbBlockTableRecord
  2
*D8
340
0
  0
ENDTAB
  0
ENDSEC
  0
SECTION
  2
BLOCKS
  0
BLOCK
  5
20
330
1F
100
AcDbEntity
  8
0
100
AcDbBlockBegin
  2
*Model_Space
 70
     0
 10
0.0
 20
0.0
 30
0.0
  3
*Model_Space
  1
*Model_Space
  0
ENDBLK
  5
21
330
1F
100
AcDbEntity
  8
0
100
AcDbBlockEnd
  0
BLOCK
  5
1C
330
1B
100
AcDbEntity
 67
     1
  8
0
100
AcDbBlockBegin
  2
*Paper_Space
 70
     0
 10
0.0
 20
0.0
 30
0.0
  3
*Paper_Space
  1
*Paper_Space
  0
ENDBLK
  5
1D
330
1B
100
AcDbEntity
 67
     1
  8
0
100
AcDbBlockEnd
  0
BLOCK
  5
24
330
23
100
AcDbEntity
  8
0
100
AcDbBlockBegin
  2
*Paper_Space0
 70
     0
 10
0.0
 20
0.0
 30
0.0
  3
*Paper_Space0
  1
*Paper_Space0
  0
ENDBLK
  5
25
330
23
100
AcDbEntity
  8
0
100
AcDbBlockEnd
  0
BLOCK
  5
7F
330
7E
100
AcDbEntity
  8
0
100
AcDbBlockBegin
  2
블럭10
 70
     2
 10
0.0
 20
0.0
 30
0.0
  3
블럭10
  1
블럭10
  0
ELLIPSE
  5
81
330
7E
100
AcDbEntity
  8
중심선
100
AcDbEllipse
 10
20.54032771741204
 20
12.0471743016438
 30
0.0
 11
6.600054785286829
 21
-1.261213355974178E-13
 31
0.0
210
0.0
220
0.0
230
1.0
 40
0.636358354079598
 41
0.9219305317359503
 42
6.513795318482858
  0
ELLIPSE
  5
82
330
7E
100
AcDbEntity
  8
중심선
100
AcDbEllipse
 10
20.54032771746488
 20
12.04717430159265
 30
0.0
 11
3.960054785062283
 21
1.540847449632565E-10
 31
0.0
210
0.0
220
0.0
230
1.0
 40
0.3939339440162632
 41
1.131841032648279
 42
5.62031148352944
  0
LINE
  5
83
330
7E
100
AcDbEntity
  8
중심선
100
AcDbLine
 10
2.268634060543552
 20
16.24717430164393
 30
0.0
 11
5.714909304380834
 21
16.24717430164393
 31
0.0
  0
LINE
  5
84
330
7E
100
AcDbEntity
  8
중심선
100
AcDbLine
 10
5.245725140726316
 20
7.84717430164391
 30
0.0
 11
8.692000384563599
 21
7.84717430164391
 31
0.0
  0
LINE
  5
85
330
7E
100
AcDbEntity
  8
중심선
100
AcDbLine
 10
15.74043728645272
 20
16.24717430164393
 30
0.0
 11
8.692000384563599
 21
7.84717430164391
 31
0.0
  0
LINE
  5
86
330
7E
100
AcDbEntity
  8
중심선
100
AcDbLine
 10
0.1404042013395286
 20
13.71084872107135
 30
0.0
 11
3.58671253028996
 21
13.71088815037384
 31
0.0
  0
LINE
  5
87
330
7E
100
AcDbEntity
  8
중심선
100
AcDbLine
 10
2.750260043222114
 20
10.84717430164391
 30
0.0
 11
6.196535287059397
 21
10.84717430164391
 31
0.0
  0
LINE
  5
88
330
7E
100
AcDbEntity
  8
중심선
100
AcDbLine
 10
12.29416204261559
 20
16.24717430164393
 30
0.0
 11
5.245725140726316
 21
7.84717430164391
 31
0.0
  0
LINE
  5
89
330
7E
100
AcDbEntity
  8
중심선
100
AcDbLine
 10
10.72767329541681
 20
16.24717430164393
 30
0.0
 11
6.196535287059397
 21
10.84717430164391
 31
0.0
  0
LINE
  5
8A
330
7E
100
AcDbEntity
  8
중심선
100
AcDbLine
 10
7.28139805157953
 20
16.24717430164393
 30
0.0
 11
2.750260043222114
 21
10.84717430164391
 31
0.0
  0
LINE
  5
8B
330
7E
100
AcDbEntity
  8
중심선
100
AcDbLine
 10
5.714909304380834
 20
16.24717430164393
 30
0.0
 11
3.58671253028996
 21
13.71088815037384
 31
0.0
  0
LINE
  5
8C
330
7E
100
AcDbEntity
  8
중심선
100
AcDbLine
 10
2.268634060543552
 20
16.24717430164393
 30
0.0
 11
0.1404042013395286
 21
13.71084872107135
 31
0.0
  0
LINE
  5
8D
330
7E
100
AcDbEntity
  8
중심선
100
AcDbLine
 10
7.28139805157953
 20
16.24717430164393
 30
0.0
 11
10.72767329541681
 21
16.24717430164393
 31
0.0
  0
LINE
  5
8E
330
7E
100
AcDbEntity
  8
중심선
100
AcDbLine
 10
12.29416204261559
 20
16.24717430164393
 30
0.0
 11
15.74043728645272
 21
16.24717430164393
 31
0.0
  0
LINE
  5
8F
330
7E
100
AcDbEntity
  8
중심선
100
AcDbLine
 10
19.22036997980202
 20
11.08717430171403
 30
0.0
 11
23.66174974927406
 21
11.08717430171406
 31
0.0
  0
LINE
  5
90
330
7E
100
AcDbEntity
  8
중심선
100
AcDbLine
 10
19.22039502424796
 20
13.00717430171391
 30
0.0
 11
19.22036997980202
 21
11.08717430171403
 31
0.0
  0
LINE
  5
91
330
7E
100
AcDbEntity
  8
중심선
100
AcDbLine
 10
19.22039502424796
 20
13.00717430171391
 30
0.0
 11
26.96566020931264
 21
13.00717430171391
 31
0.0
  0
LINE
  5
92
330
7E
100
AcDbEntity
  8
중심선
100
AcDbLine
 10
22.22332737316547
 20
13.45928029700563
 30
0.0
 11
24.52862924686651
 21
15.39360700705356
 31
0.0
  0
ATTDEF
  5
94
330
7E
100
AcDbEntity
  8
FORMAT
 62
     2
100
AcDbText
 10
-10.14163601213663
 20
2.075366912832191
 30
0.0
 40
4.233333333333333
  1
EM097012 [ 4 FLUTE ]
 41
0.75
  7
SLDTEXTSTYLE0
 11
-10.14163601213663
 21
-0.0412997538344756
 31
0.0
100
AcDbAttributeDefinition
  3

  2
AUTOATTR0
 70
     0
 74
     1
  0
ENDBLK
  5
80
330
7E
100
AcDbEntity
  8
0
100
AcDbBlockEnd
  0
BLOCK
  5
DB
330
DA
100
AcDbEntity
  8
0
100
AcDbBlockBegin
  2
_D
 70
     0
 10
0.0
 20
0.0
 30
0.0
  3
_D
  1
_D
  0
LINE
  5
DD
330
DA
100
AcDbEntity
  8
치수문자_일반주서
 62
     0
370
    -2
100
AcDbLine
 10
-49.59692374908097
 20
3.175000000000001
 30
0.0
 11
-72.34442374908096
 21
3.174999999999915
 31
0.0
  0
LINE
  5
DE
330
DA
100
AcDbEntity
  8
치수문자_일반주서
 62
     0
370
    -2
100
AcDbLine
 10
-49.59692374908097
 20
-3.174999999999996
 30
0.0
 11
-72.34442374908093
 21
-3.175000000000079
 31
0.0
  0
LINE
  5
DF
330
DA
100
AcDbEntity
  8
치수문자_일반주서
 62
     0
370
    -2
100
AcDbLine
 10
-72.34442374908096
 20
3.174999999999915
 30
0.0
 11
-72.3444237490811
 21
35.15399999999991
 31
0.0
  0
LINE
  5
E0
330
DA
100
AcDbEntity
  8
치수문자_일반주서
 62
     0
370
    -2
100
AcDbLine
 10
-72.34442374908096
 20
3.174999999999915
 30
0.0
 11
-72.34442374908093
 21
-3.175000000000079
 31
0.0
  0
LINE
  5
E1
330
DA
100
AcDbEntity
  8
치수문자_일반주서
 62
     0
370
    -2
100
AcDbLine
 10
-72.34442374908097
 20
6.476999999999915
 30
0.0
 11
-72.34442374908099
 21
9.778999999999915
 31
0.0
  0
LINE
  5
E2
330
DA
100
AcDbEntity
  8
치수문자_일반주서
 62
     0
370
    -2
100
AcDbLine
 10
-72.34442374908092
 20
-6.477000000000078
 30
0.0
 11
-72.3444237490809
 21
-9.779000000000078
 31
0.0
  0
SOLID
  5
E3
330
DA
100
AcDbEntity
  8
치수문자_일반주서
 62
     0
100
AcDbTrace
 10
-72.8947570824143
 20
6.476999999999912
 30
0.0
 11
-71.79409041574765
 21
6.476999999999918
 31
0.0
 12
-72.34442374908096
 22
3.174999999999915
 32
0.0
 13
-72.34442374908096
 23
3.174999999999915
 33
0.0
  0
SOLID
  5
E4
330
DA
100
AcDbEntity
  8
치수문자_일반주서
 62
     0
100
AcDbTrace
 10
-71.79409041574759
 20
-6.477000000000076
 30
0.0
 11
-72.89475708241424
 21
-6.477000000000081
 31
0.0
 12
-72.34442374908093
 22
-3.175000000000079
 32
0.0
 13
-72.34442374908093
 23
-3.175000000000079
 33
0.0
  0
MTEXT
  5
E5
330
DA
100
AcDbEntity
  8
치수문자_일반주서
 62
     0
100
AcDbMText
 10
-76.71942374908105
 20
22.4664999999999
 30
0.0
 40
3.5
 41
0.0
 71
     2
 72
     1
  1
\A1;%%c6.35 [1/4]
  7
SLDTEXTSTYLE0
 11
-4.475859752819532E-15
 21
1.0
 31
0.0
 73
     1
 44
1.0
  0
POINT
  5
181
330
DA
100
AcDbEntity
  8
Defpoints
 62
     0
100
AcDbPoint
 10
-49.53442374908097
 20
3.175000000000001
 30
0.0
  0
POINT
  5
183
330
DA
100
AcDbEntity
  8
Defpoints
 62
     0
100
AcDbPoint
 10
-49.53442374908097
 20
-3.174999999999995
 30
0.0
  0
POINT
  5
184
330
DA
100
AcDbEntity
  8
Defpoints
 62
     0
100
AcDbPoint
 10
-72.34442374908093
 20
-3.175000000000081
 30
0.0
  0
ENDBLK
  5
DC
330
DA
100
AcDbEntity
  8
0
100
AcDbBlockEnd
  0
BLOCK
  5
F0
330
EF
100
AcDbEntity
  8
0
100
AcDbBlockBegin
  2
_D_1
 70
     0
 10
0.0
 20
0.0
 30
0.0
  3
_D_1
  1
_D_1
  0
ARC
  5
F2
330
EF
100
AcDbEntity
  8
치수문자_일반주서
100
AcDbCircle
 10
-24.77912256547229
 20
3.176074928723891
 30
0.0
 40
28.25547184791946
100
AcDbArc
 50
178.4000000000004
 51
180.0
  0
ARC
  5
F3
330
EF
100
AcDbEntity
  8
치수문자_일반주서
100
AcDbCircle
 10
-24.77912256547229
 20
3.176074928723891
 30
0.0
 40
28.25547184791946
100
AcDbArc
 50
165.5928792869709
 51
178.4000000000004
  0
ARC
  5
F4
330
EF
100
AcDbEntity
  8
치수문자_일반주서
100
AcDbCircle
 10
-24.77912256547229
 20
3.176074928723891
 30
0.0
 40
28.25547184791946
100
AcDbArc
 50
180.0
 51
192.8071207130303
  0
SOLID
  5
F5
330
EF
100
AcDbEntity
  8
치수문자_일반주서
100
AcDbTrace
 10
-53.02357802989055
 20
3.96501400562527
 30
0.0
 11
-52.23353280301287
 21
7.211103428220986
 31
0.0
 12
-53.2457698653828
 22
7.29846548843413
 32
0.0
 13
-53.2457698653828
 23
7.29846548843413
 33
0.0
  0
SOLID
  5
F6
330
EF
100
AcDbEntity
  8
치수문자_일반주서
100
AcDbTrace
 10
-53.03459441339174
 20
3.176074928723891
 30
0.0
 11
-53.34977504763469
 21
-0.1498729313301725
 31
0.0
 12
-52.33549334938756
 22
-0.0908082498284449
 32
0.0
 13
-52.33549334938756
 23
-0.0908082498284449
 33
0.0
  0
LINE
  5
F7
330
EF
100
AcDbEntity
  8
치수문자_일반주서
100
AcDbLine
 10
-25.77873268051264
 20
3.203996567447453
 30
0.0
 11
-54.02318814493091
 21
3.992935644348832
 31
0.0
  0
MTEXT
  5
F8
330
EF
100
AcDbEntity
  8
치수문자_일반주서
100
AcDbMText
 10
-57.63501815562613
 20
-1.720973152350372
 30
0.0
 40
3.5
 41
0.0
 71
     1
 72
     1
  1
1.60°
  7
SLDTEXTSTYLE0
 11
0.01712624063284911
 21
0.999853335185609
 31
0.0
 73
     1
 44
1.0
  0
ENDBLK
  5
F1
330
EF
100
AcDbEntity
  8
0
100
AcDbBlockEnd
  0
BLOCK
  5
FA
330
F9
100
AcDbEntity
  8
0
100
AcDbBlockBegin
  2
SW_DOWELSYMBOL_0
 70
     0
 10
0.0
 20
0.0
 30
0.0
  3
SW_DOWELSYMBOL_0
  1
SW_DOWELSYMBOL_0
  0
CIRCLE
  5
FC
330
F9
100
AcDbEntity
  8
외형선
 62
     0
100
AcDbCircle
 10
0.0
 20
0.0
 30
0.0
 40
3.000000000000004
  0
HATCH
  5
FD
330
F9
100
AcDbEntity
  8
0
  6
Continuous
 62
     0
370
    30
100
AcDbHatch
 10
0.0
 20
0.0
 30
0.0
210
0.0
220
0.0
230
1.0
  2
SOLID
 70
     1
 71
     0
 91
        1
 92
        0
 93
        3
 72
     2
 10
0.0000000000000104
 20
0.0
 40
3.000000000000004
 50
0.0
 51
90.0
 73
     1
 72
     1
 10
0.0000000000000104
 20
3.000000000000004
 11
0.0000000000000104
 21
0.0
 72
     1
 10
0.0000000000000104
 20
0.0
 11
3.000000000000015
 21
0.0
 97
        0
 75
     0
 76
     1
 98
        1
 10
0.0
 20
0.0
  0
HATCH
  5
FE
330
F9
100
AcDbEntity
  8
0
  6
Continuous
 62
     0
370
    30
100
AcDbHatch
 10
0.0
 20
0.0
 30
0.0
210
0.0
220
0.0
230
1.0
  2
SOLID
 70
     1
 71
     0
 91
        1
 92
        0
 93
        3
 72
     2
 10
0.0000000000000104
 20
0.0
 40
3.000000000000004
 50
180.0
 51
270.0000000000007
 73
     1
 72
     1
 10
0.0000000000000104
 20
-3.000000000000004
 11
0.0000000000000104
 21
0.0
 72
     1
 10
0.0000000000000104
 20
0.0
 11
-2.999999999999994
 21
0.0
 97
        0
 75
     0
 76
     1
 98
        1
 10
0.0
 20
0.0
  0
ENDBLK
  5
FB
330
F9
100
AcDbEntity
  8
0
100
AcDbBlockEnd
  0
BLOCK
  5
143
330
142
100
AcDbEntity
  8
0
100
AcDbBlockBegin
  2
*D5
 70
     1
 10
0.0
 20
0.0
 30
0.0
  3
*D5
  1
*D5
  0
LINE
  5
145
330
142
100
AcDbEntity
  8
치수문자_일반주서
 62
     0
370
    -2
100
AcDbLine
 10
32.27432625091902
 20
-2.387500000000002
 30
0.0
 11
48.75566130293961
 21
-2.387500000000003
 31
0.0
  0
LINE
  5
146
330
142
100
AcDbEntity
  8
치수문자_일반주서
 62
     0
370
    -2
100
AcDbLine
 10
32.27432625091902
 20
2.387499999999998
 30
0.0
 11
48.75566130293961
 21
2.387499999999997
 31
0.0
  0
LINE
  5
147
330
142
100
AcDbEntity
  8
치수문자_일반주서
 62
     0
370
    -2
100
AcDbLine
 10
48.75566130293961
 20
5.689499999999997
 30
0.0
 11
48.75566130293961
 21
36.99149999999999
 31
0.0
  0
LINE
  5
148
330
142
100
AcDbEntity
  8
치수문자_일반주서
 62
     0
370
    -2
100
AcDbLine
 10
48.75566130293961
 20
-2.387500000000003
 30
0.0
 11
48.75566130293961
 21
2.387499999999997
 31
0.0
  0
LINE
  5
149
330
142
100
AcDbEntity
  8
치수문자_일반주서
 62
     0
370
    -2
100
AcDbLine
 10
48.75566130293961
 20
-5.689500000000002
 30
0.0
 11
48.75566130293961
 21
-8.991500000000002
 31
0.0
  0
SOLID
  5
14A
330
142
100
AcDbEntity
  8
치수문자_일반주서
 62
     0
100
AcDbTrace
 10
49.30599463627294
 20
-5.689500000000002
 30
0.0
 11
48.20532796960627
 21
-5.689500000000002
 31
0.0
 12
48.75566130293961
 22
-2.387500000000003
 32
0.0
 13
48.75566130293961
 23
-2.387500000000003
 33
0.0
  0
SOLID
  5
14B
330
142
100
AcDbEntity
  8
치수문자_일반주서
 62
     0
100
AcDbTrace
 10
48.20532796960627
 20
5.689499999999997
 30
0.0
 11
49.30599463627294
 21
5.689499999999997
 31
0.0
 12
48.75566130293961
 22
2.387499999999997
 32
0.0
 13
48.75566130293961
 23
2.387499999999997
 33
0.0
  0
MTEXT
  5
14C
330
142
100
AcDbEntity
  8
치수문자_일반주서
 62
     0
100
AcDbMText
 10
46.13066130293961
 20
22.99149999999999
 30
0.0
 40
3.5
 41
0.0
 71
     5
 72
     1
  1
\A1;{%%c4.78 [3/16]}
  7
SLDTEXTSTYLE0
 11
0.0
 21
1.0
 31
0.0
 73
     1
 44
1.0
  0
POINT
  5
14D
330
142
100
AcDbEntity
  8
Defpoints
 62
     0
100
AcDbPoint
 10
32.21182625091902
 20
-2.387500000000002
 30
0.0
  0
POINT
  5
14E
330
142
100
AcDbEntity
  8
Defpoints
 62
     0
100
AcDbPoint
 10
32.21182625091902
 20
2.387499999999998
 30
0.0
  0
POINT
  5
14F
330
142
100
AcDbEntity
  8
Defpoints
 62
     0
100
AcDbPoint
 10
48.75566130293961
 20
2.387499999999997
 30
0.0
  0
ENDBLK
  5
144
330
142
100
AcDbEntity
  8
0
100
AcDbBlockEnd
  0
BLOCK
  5
155
330
154
100
AcDbEntity
  8
0
100
AcDbBlockBegin
  2
*D6
 70
     1
 10
0.0
 20
0.0
 30
0.0
  3
*D6
  1
*D6
  0
LINE
  5
157
330
154
100
AcDbEntity
  8
치수문자_일반주서
 62
     0
370
    -2
100
AcDbLine
 10
32.21182625091902
 20
2.449999999999998
 30
0.0
 11
32.21182625091902
 21
26.75844288910234
 31
0.0
  0
LINE
  5
158
330
154
100
AcDbEntity
  8
치수문자_일반주서
 62
     0
370
    -2
100
AcDbLine
 10
28.39557625091902
 20
1.975306756444571
 30
0.0
 11
28.39557625091902
 21
26.75844288910234
 31
0.0
  0
LINE
  5
159
330
154
100
AcDbEntity
  8
치수문자_일반주서
 62
     0
370
    -2
100
AcDbLine
 10
25.09357625091902
 20
26.75844288910234
 30
0.0
 11
-4.458423749080978
 21
26.75844288910234
 31
0.0
  0
LINE
  5
15A
330
154
100
AcDbEntity
  8
치수문자_일반주서
 62
     0
370
    -2
100
AcDbLine
 10
32.21182625091902
 20
26.75844288910234
 30
0.0
 11
28.39557625091902
 21
26.75844288910234
 31
0.0
  0
LINE
  5
15B
330
154
100
AcDbEntity
  8
치수문자_일반주서
 62
     0
370
    -2
100
AcDbLine
 10
35.51382625091902
 20
26.75844288910234
 30
0.0
 11
38.81582625091902
 21
26.75844288910234
 31
0.0
  0
SOLID
  5
15C
330
154
100
AcDbEntity
  8
치수문자_일반주서
 62
     0
100
AcDbTrace
 10
35.51382625091902
 20
27.30877622243568
 30
0.0
 11
35.51382625091902
 21
26.20810955576901
 31
0.0
 12
32.21182625091902
 22
26.75844288910234
 32
0.0
 13
32.21182625091902
 23
26.75844288910234
 33
0.0
  0
SOLID
  5
15D
330
154
100
AcDbEntity
  8
치수문자_일반주서
 62
     0
100
AcDbTrace
 10
25.09357625091902
 20
26.20810955576901
 30
0.0
 11
25.09357625091902
 21
27.30877622243568
 31
0.0
 12
28.39557625091902
 22
26.75844288910234
 32
0.0
 13
28.39557625091902
 23
26.75844288910234
 33
0.0
  0
MTEXT
  5
15E
330
154
100
AcDbEntity
  8
치수문자_일반주서
 62
     0
100
AcDbMText
 10
8.666576250919022
 20
29.38344288910234
 30
0.0
 40
3.5
 41
0.0
 71
     5
 72
     1
  1
\A1;3.82 [5/32]
  7
SLDTEXTSTYLE0
 73
     1
 44
1.0
  0
POINT
  5
15F
330
154
100
AcDbEntity
  8
Defpoints
 62
     0
100
AcDbPoint
 10
32.21182625091902
 20
2.387499999999998
 30
0.0
  0
POINT
  5
160
330
154
100
AcDbEntity
  8
Defpoints
 62
     0
100
AcDbPoint
 10
28.39557625091902
 20
1.912806756444571
 30
0.0
  0
POINT
  5
161
330
154
100
AcDbEntity
  8
Defpoints
 62
     0
100
AcDbPoint
 10
28.39557625091902
 20
26.75844288910234
 30
0.0
  0
ENDBLK
  5
156
330
154
100
AcDbEntity
  8
0
100
AcDbBlockEnd
  0
BLOCK
  5
166
330
165
100
AcDbEntity
  8
0
100
AcDbBlockBegin
  2
*D7
 70
     1
 10
0.0
 20
0.0
 30
0.0
  3
*D7
  1
*D7
  0
LINE
  5
168
330
165
100
AcDbEntity
  8
치수문자_일반주서
 62
     0
370
    -2
100
AcDbLine
 10
32.21182625091902
 20
2.449999999999998
 30
0.0
 11
32.21182625091902
 21
37.7468377459294
 31
0.0
  0
LINE
  5
169
330
165
100
AcDbEntity
  8
치수문자_일반주서
 62
     0
370
    -2
100
AcDbLine
 10
0.4555762509190213
 20
2.755741622197229
 30
0.0
 11
0.4555762509190213
 21
37.7468377459294
 31
0.0
  0
LINE
  5
16A
330
165
100
AcDbEntity
  8
치수문자_일반주서
 62
     0
370
    -2
100
AcDbLine
 10
28.90982625091902
 20
37.7468377459294
 30
0.0
 11
3.757576250919021
 21
37.7468377459294
 31
0.0
  0
SOLID
  5
16B
330
165
100
AcDbEntity
  8
치수문자_일반주서
 62
     0
100
AcDbTrace
 10
28.90982625091902
 20
37.19650441259606
 30
0.0
 11
28.90982625091902
 21
38.29717107926273
 31
0.0
 12
32.21182625091902
 22
37.7468377459294
 32
0.0
 13
32.21182625091902
 23
37.7468377459294
 33
0.0
  0
SOLID
  5
16C
330
165
100
AcDbEntity
  8
치수문자_일반주서
 62
     0
100
AcDbTrace
 10
3.757576250919021
 20
38.29717107926273
 30
0.0
 11
3.757576250919021
 21
37.19650441259606
 31
0.0
 12
0.4555762509190213
 22
37.7468377459294
 32
0.0
 13
0.4555762509190213
 23
37.7468377459294
 33
0.0
  0
MTEXT
  5
16D
330
165
100
AcDbEntity
  8
치수문자_일반주서
 62
     0
100
AcDbMText
 10
16.33370125091902
 20
40.3718377459294
 30
0.0
 40
3.5
 41
0.0
 71
     5
 72
     1
  1
\A1;31.76 [1 1/4]
  7
SLDTEXTSTYLE0
 73
     1
 44
1.0
  0
POINT
  5
16E
330
165
100
AcDbEntity
  8
Defpoints
 62
     0
100
AcDbPoint
 10
32.21182625091902
 20
2.387499999999998
 30
0.0
  0
POINT
  5
16F
330
165
100
AcDbEntity
  8
Defpoints
 62
     0
100
AcDbPoint
 10
0.4555762509190213
 20
2.693241622197229
 30
0.0
  0
POINT
  5
170
330
165
100
AcDbEntity
  8
Defpoints
 62
     0
100
AcDbPoint
 10
0.4555762509190213
 20
37.7468377459294
 30
0.0
  0
ENDBLK
  5
167
330
165
100
AcDbEntity
  8
0
100
AcDbBlockEnd
  0
BLOCK
  5
175
330
174
100
AcDbEntity
  8
0
100
AcDbBlockBegin
  2
*D8
 70
     1
 10
0.0
 20
0.0
 30
0.0
  3
*D8
  1
*D8
  0
LINE
  5
177
330
174
100
AcDbEntity
  8
치수문자_일반주서
 62
     0
370
    -2
100
AcDbLine
 10
32.21182625091902
 20
2.449999999999998
 30
0.0
 11
32.21182625091902
 21
47.0954744389356
 31
0.0
  0
LINE
  5
178
330
174
100
AcDbEntity
  8
치수문자_일반주서
 62
     0
370
    -2
100
AcDbLine
 10
-50.34442374908097
 20
2.427500000000001
 30
0.0
 11
-50.34442374908097
 21
47.0954744389356
 31
0.0
  0
LINE
  5
179
330
174
100
AcDbEntity
  8
치수문자_일반주서
 62
     0
370
    -2
100
AcDbLine
 10
28.90982625091902
 20
47.0954744389356
 30
0.0
 11
-47.04242374908097
 21
47.0954744389356
 31
0.0
  0
SOLID
  5
17A
330
174
100
AcDbEntity
  8
치수문자_일반주서
 62
     0
100
AcDbTrace
 10
28.90982625091902
 20
46.54514110560227
 30
0.0
 11
28.90982625091902
 21
47.64580777226894
 31
0.0
 12
32.21182625091902
 22
47.0954744389356
 32
0.0
 13
32.21182625091902
 23
47.0954744389356
 33
0.0
  0
SOLID
  5
17B
330
174
100
AcDbEntity
  8
치수문자_일반주서
 62
     0
100
AcDbTrace
 10
-47.04242374908097
 20
47.64580777226894
 30
0.0
 11
-47.04242374908097
 21
46.54514110560227
 31
0.0
 12
-50.34442374908097
 22
47.0954744389356
 32
0.0
 13
-50.34442374908097
 23
47.0954744389356
 33
0.0
  0
MTEXT
  5
17C
330
174
100
AcDbEntity
  8
치수문자_일반주서
 62
     0
100
AcDbMText
 10
-9.066298749080978
 20
49.7204744389356
 30
0.0
 40
3.5
 41
0.0
 71
     5
 72
     1
  1
\A1;82.56 [3 1/4]
  7
SLDTEXTSTYLE0
 73
     1
 44
1.0
  0
POINT
  5
17D
330
174
100
AcDbEntity
  8
Defpoints
 62
     0
100
AcDbPoint
 10
32.21182625091902
 20
2.387499999999998
 30
0.0
  0
POINT
  5
17E
330
174
100
AcDbEntity
  8
Defpoints
 62
     0
100
AcDbPoint
 10
-50.34442374908097
 20
2.365000000000001
 30
0.0
  0
POINT
  5
17F
330
174
100
AcDbEntity
  8
Defpoints
 62
     0
100
AcDbPoint
 10
-50.34442374908097
 20
47.0954744389356
 30
0.0
  0
ENDBLK
  5
176
330
174
100
AcDbEntity
  8
0
100
AcDbBlockEnd
  0
ENDSEC
  0
SECTION
  2
ENTITIES
  0
LINE
  5
95
330
1F
100
AcDbEntity
  8
0
 62
     4
100
AcDbLine
 10
26.40084371678848
 20
-1.920809323659353
 30
0.0
 11
26.96682625091901
 21
-1.904999999999997
 31
0.0
  0
LINE
  5
98
330
1F
100
AcDbEntity
  8
0
 62
     4
100
AcDbLine
 10
26.96682625091901
 20
1.905000000000003
 30
0.0
 11
26.40084371678845
 21
1.92080932365936
 31
0.0
  0
LINE
  5
99
330
1F
100
AcDbEntity
  8
0
 62
     4
100
AcDbLine
 10
-49.53442374908097
 20
3.175000000000003
 30
0.0
 11
-50.34442374908097
 21
2.365000000000003
 31
0.0
  0
LINE
  5
9A
330
1F
100
AcDbEntity
  8
0
 62
     4
100
AcDbLine
 10
-50.34442374908097
 20
-2.364999999999997
 30
0.0
 11
-49.53442374908097
 21
-3.174999999999997
 31
0.0
  0
LINE
  5
9B
330
1F
100
AcDbEntity
  8
0
 62
     4
100
AcDbLine
 10
-0.0000000000000062
 20
3.175000000000001
 30
0.0
 11
-49.53442374908097
 21
3.175000000000001
 31
0.0
  0
LINE
  5
9C
330
1F
100
AcDbEntity
  8
0
 62
     4
100
AcDbLine
 10
-49.53442374908097
 20
-3.174999999999995
 30
0.0
 11
0.0000000000000053
 21
-3.174999999999995
 31
0.0
  0
ARC
  5
9D
330
1F
100
AcDbEntity
  8
0
  6
Continuous
 62
     1
370
    15
100
AcDbCircle
 10
29.82432625091902
 20
0.0000000000000029
 30
0.0
 40
2.381250000000001
100
AcDbArc
 50
352.6575347707952
 51
7.342465229206226
  0
ARC
  5
9E
330
1F
100
AcDbEntity
  8
0
 62
     4
100
AcDbCircle
 10
28.39557625091901
 20
0.0000000000000029
 30
0.0
 40
2.381250000000001
100
AcDbArc
 50
124.9857976203676
 51
126.869897645844
  0
ARC
  5
9F
330
1F
100
AcDbEntity
  8
0
 62
     4
100
AcDbCircle
 10
28.39557625091901
 20
0.0000000000000029
 30
0.0
 40
2.381250000000001
100
AcDbArc
 50
233.1301023541568
 51
235.0142023796328
  0
SPLINE
  5
A0
330
1F
100
AcDbEntity
  8
0
 62
     4
100
AcDbSpline
210
0.0
220
0.0
230
1.0
 70
     8
 71
     3
 72
    11
 73
     7
 74
     0
 42
0.000000001
 43
0.00000001
 40
0.0
 40
0.0
 40
0.0
 40
0.0
 40
0.126405228370466
 40
0.4232836199926892
 40
0.710034447850928
 40
1.0
 40
1.0
 40
1.0
 40
1.0
 10
24.76203793200544
 20
1.696527107949377
 30
0.0
 10
24.85459975199112
 20
1.725133594138614
 30
0.0
 10
25.16455451210452
 20
1.82092596907079
 30
0.0
 10
25.68516859779763
 20
1.900758634894324
 30
0.0
 10
26.32733560804201
 20
1.93961673503937
 30
0.0
 10
26.75287203025743
 20
1.896096496582122
 30
0.0
 10
26.96682625091901
 20
1.874215082404576
 30
0.0
  0
LINE
  5
A1
330
1F
100
AcDbEntity
  8
0
 62
     4
100
AcDbLine
 10
24.39521084393249
 20
1.97683172243803
 30
0.0
 11
24.39521084393249
 21
1.815464956742639
 31
0.0
  0
SPLINE
  5
A2
330
1F
100
AcDbEntity
  8
0
 62
     4
100
AcDbSpline
210
0.0
220
0.0
230
1.0
 70
     8
 71
     3
 72
    12
 73
     8
 74
     0
 42
0.000000001
 43
0.00000001
 40
0.0
 40
0.0
 40
0.0
 40
0.0
 40
0.5
 40
0.5
 40
0.75
 40
0.75
 40
1.0
 40
1.0
 40
1.0
 40
1.0
 10
26.96682625091901
 20
0.6613167770621838
 30
0.0
 10
26.53415939924813
 20
0.9081386270901048
 30
0.0
 10
26.1080171070612
 20
1.138777532859081
 30
0.0
 10
25.46235085535741
 20
1.436212375570557
 30
0.0
 10
25.24915173207878
 20
1.527333052484432
 30
0.0
 10
24.82249658812184
 20
1.687616714495417
 30
0.0
 10
24.60896467036927
 20
1.757110397556614
 30
0.0
 10
24.39521084393249
 20
1.815469104118685
 30
0.0
  0
LINE
  5
A3
330
1F
100
AcDbEntity
  8
0
 62
     4
100
AcDbLine
 10
26.96682625091901
 20
0.6613167770621828
 30
0.0
 11
26.96682625091901
 21
-0.3410906402808881
 31
0.0
  0
SPLINE
  5
A4
330
1F
100
AcDbEntity
  8
0
 62
     4
100
AcDbSpline
210
0.0
220
0.0
230
1.0
 70
     8
 71
     3
 72
    12
 73
     8
 74
     0
 42
0.000000001
 43
0.00000001
 40
0.0
 40
0.0
 40
0.0
 40
0.0
 40
0.25
 40
0.25
 40
0.5
 40
0.5
 40
1.0
 40
1.0
 40
1.0
 40
1.0
 10
24.39521084393249
 20
1.176187579050683
 30
0.0
 10
24.60915540568093
 20
1.064435431180639
 30
0.0
 10
24.82277702379846
 20
0.9469532194130494
 30
0.0
 10
25.24946015522068
 20
0.7010831237912228
 30
0.0
 10
25.4624707306414
 20
0.5725143995303893
 30
0.0
 10
26.10824330231585
 20
0.1818054552326182
 30
0.0
 10
26.53444280169368
 20
-0.0855858880964138
 30
0.0
 10
26.96682625091901
 20
-0.3410906402808867
 30
0.0
  0
SPLINE
  5
A5
330
1F
100
AcDbEntity
  8
0
 62
     4
100
AcDbSpline
210
0.0
220
0.0
230
1.0
 70
     8
 71
     3
 72
    12
 73
     8
 74
     0
 42
0.000000001
 43
0.00000001
 40
0.0
 40
0.0
 40
0.0
 40
0.0
 40
0.5
 40
0.5
 40
0.75
 40
0.75
 40
1.0
 40
1.0
 40
1.0
 40
1.0
 10
26.96682625091901
 20
-1.786528790805252
 30
0.0
 10
26.53415939924813
 20
-1.708050015256525
 30
0.0
 10
26.1080171070612
 20
-1.578887938562601
 30
0.0
 10
25.46235085535741
 20
-1.321125159504451
 30
0.0
 10
25.24915173207879
 20
-1.2242211642678
 30
0.0
 10
24.82249658812183
 20
-1.014940906343577
 30
0.0
 10
24.60896467036927
 20
-0.9026131500792082
 30
0.0
 10
24.39521084393249
 20
-0.7822631212244419
 30
0.0
  0
LINE
  5
A6
330
1F
100
AcDbEntity
  8
0
 62
     4
100
AcDbLine
 10
26.96682625091902
 20
-1.786528790805256
 30
0.0
 11
26.96682625091901
 21
-1.904999999999997
 31
0.0
  0
SPLINE
  5
A7
330
1F
100
AcDbEntity
  8
0
 62
     4
100
AcDbSpline
210
0.0
220
0.0
230
1.0
 70
     8
 71
     3
 72
    13
 73
     9
 74
     0
 42
0.000000001
 43
0.00000001
 40
0.0
 40
0.0
 40
0.0
 40
0.0
 40
0.1607844494991793
 40
0.3220454277099507
 40
0.4847517282338155
 40
0.6479501895386837
 40
0.9626171625638055
 40
1.0
 40
1.0
 40
1.0
 40
1.0
 10
24.39521084393249
 20
-1.58885066564614
 30
0.0
 10
24.50233649390064
 20
-1.624736582510978
 30
0.0
 10
24.71690529001346
 20
-1.696614773974757
 30
0.0
 10
25.04090379068207
 20
-1.781045933376002
 30
0.0
 10
25.36543491510384
 20
-1.849231095102368
 30
0.0
 10
25.7943225919727
 20
-1.906955166155851
 30
0.0
 10
26.138996445961
 20
-1.937941710242446
 30
0.0
 10
26.37560480511809
 20
-1.918752605066357
 30
0.0
 10
26.40072935159866
 20
-1.916714986587301
 30
0.0
  0
LINE
  5
A8
330
1F
100
AcDbEntity
  8
0
 62
     4
100
AcDbLine
 10
24.39521084393249
 20
-1.588847037036547
 30
0.0
 11
24.39521084393249
 21
-1.976831722438024
 31
0.0
  0
LINE
  5
A9
330
1F
100
AcDbEntity
  8
0
 62
     4
100
AcDbLine
 10
24.74840367864001
 20
-1.700947951895442
 30
0.0
 11
24.39521084393249
 21
-1.815469104118679
 31
0.0
  0
LINE
  5
AC
330
1F
100
AcDbEntity
  8
0
 62
     4
100
AcDbLine
 10
-49.53442374908097
 20
0.0000000000000029
 30
0.0
 11
-49.53442374908097
 21
-3.174999999999997
 31
0.0
  0
LINE
  5
AD
330
1F
100
AcDbEntity
  8
0
 62
     4
100
AcDbLine
 10
-49.53442374908097
 20
3.175000000000003
 30
0.0
 11
-49.53442374908097
 21
0.0000000000000029
 31
0.0
  0
LINE
  5
AE
330
1F
100
AcDbEntity
  8
0
 62
     4
100
AcDbLine
 10
-50.34442374908097
 20
0.0000000000000029
 30
0.0
 11
-50.34442374908097
 21
-2.364999999999996
 31
0.0
  0
LINE
  5
AF
330
1F
100
AcDbEntity
  8
0
 62
     4
100
AcDbLine
 10
-50.34442374908097
 20
2.365000000000001
 30
0.0
 11
-50.34442374908097
 21
0.0000000000000029
 31
0.0
  0
SPLINE
  5
B0
330
1F
100
AcDbEntity
  8
0
 62
     4
100
AcDbSpline
210
0.0
220
0.0
230
1.0
 70
    24
 71
     3
 72
    13
 73
     9
 74
     0
 42
0.000000001
 43
0.00000001
 40
0.0
 40
0.0
 40
0.0
 40
0.0
 40
0.089932203729326
 40
0.2878685034729844
 40
0.4858048032166413
 40
0.6837411029602934
 40
0.8816774027038002
 40
1.0
 40
1.0
 40
1.0
 40
1.0
 10
26.96682625091901
 20
-0.3556168013562554
 30
0.0
 10
26.96682625091901
 20
-0.3590612013716136
 30
0.0
 10
26.96682625091901
 20
-0.3700865542114903
 30
0.0
 10
26.96682625091903
 20
-0.5154000860155372
 30
0.0
 10
26.96682625091901
 20
-0.7865953541197718
 30
0.0
 10
26.96682625091903
 20
-1.14673193718534
 30
0.0
 10
26.966826250919
 20
-1.496648803467781
 30
0.0
 10
26.96682625091901
 20
-1.707603771095493
 30
0.0
 10
26.96682625091902
 20
-1.786528790805256
 30
0.0
  0
SPLINE
  5
B1
330
1F
100
AcDbEntity
  8
0
 62
     4
100
AcDbSpline
210
0.0
220
0.0
230
1.0
 70
    24
 71
     3
 72
    12
 73
     8
 74
     0
 42
0.000000001
 43
0.00000001
 40
0.0
 40
0.0
 40
0.0
 40
0.0
 40
0.175791674375834
 40
0.388087552106698
 40
0.6003834298375607
 40
0.8126793075684181
 40
1.0
 40
1.0
 40
1.0
 40
1.0
 10
26.96682625091901
 20
1.874215082404633
 30
0.0
 10
26.96682625091902
 20
1.763300960456445
 30
0.0
 10
26.96682625091901
 20
1.518440728970684
 30
0.0
 10
26.96682625091905
 20
1.164325488228172
 30
0.0
 10
26.96682625091901
 20
0.8671013421405515
 30
0.0
 10
26.96682625091902
 20
0.6729404568596193
 30
0.0
 10
26.96682625091901
 20
0.6510691752067379
 30
0.0
 10
26.96682625091901
 20
0.6408169886622245
 30
0.0
  0
SPLINE
  5
B2
330
1F
100
AcDbEntity
  8
0
  6
Continuous
 62
     1
370
    15
100
AcDbSpline
210
0.0
220
0.0
230
1.0
 70
     8
 71
     3
 72
    12
 73
     8
 74
     0
 42
0.000000001
 43
0.00000001
 40
0.0
 40
0.0
 40
0.0
 40
0.0
 40
0.2499999999999999
 40
0.2499999999999999
 40
0.4999999999999999
 40
0.4999999999999999
 40
1.0
 40
1.0
 40
1.0
 40
1.0
 10
29.82432625091887
 20
-1.218315516525773
 30
0.0
 10
29.70476099375156
 20
-1.141181108658774
 30
0.0
 10
29.58487468825779
 20
-1.061372729845439
 30
0.0
 10
29.34674985871251
 20
-0.897953018144255
 30
0.0
 10
29.229557692772
 20
-0.8145983876450077
 30
0.0
 10
28.87446202163913
 20
-0.5590826966727477
 30
0.0
 10
28.63288040063501
 20
-0.3813377214370869
 30
0.0
 10
28.39557625091901
 20
-0.2028988648421619
 30
0.0
  0
SPLINE
  5
B3
330
1F
100
AcDbEntity
  8
0
 62
     4
100
AcDbSpline
210
0.0
220
0.0
230
1.0
 70
     8
 71
     3
 72
    14
 73
    10
 74
     0
 42
0.000000001
 43
0.00000001
 40
0.0
 40
0.0
 40
0.0
 40
0.0
 40
0.25
 40
0.25
 40
0.5
 40
0.5
 40
0.75
 40
0.75
 40
1.0
 40
1.0
 40
1.0
 40
1.0
 10
26.96682625091901
 20
0.6613167770621825
 30
0.0
 10
27.07332576676026
 20
0.6185376116026979
 30
0.0
 10
27.18510775786219
 20
0.5685402602442948
 30
0.0
 10
27.41706601225904
 20
0.4510835911236912
 30
0.0
 10
27.53900006330152
 20
0.3831984947332692
 30
0.0
 10
27.78304434626381
 20
0.2342816007291484
 30
0.0
 10
27.90513012524397
 20
0.1534830634601348
 30
0.0
 10
28.15054364450437
 20
-0.0190564783045768
 30
0.0
 10
28.27354783957433
 20
-0.1111406287620032
 30
0.0
 10
28.39557625091938
 20
-0.2028988648424437
 30
0.0
  0
SPLINE
  5
B4
330
1F
100
AcDbEntity
  8
0
 62
     4
100
AcDbSpline
210
0.0
220
0.0
230
1.0
 70
    24
 71
     3
 72
    12
 73
     8
 74
     0
 42
0.000000001
 43
0.00000001
 40
0.0
 40
0.0
 40
0.0
 40
0.0
 40
0.1719201725421475
 40
0.3795406076909203
 40
0.5871610428396916
 40
0.7947814779884598
 40
1.0
 40
1.0
 40
1.0
 40
1.0
 10
26.96682625091901
 20
1.874215082404845
 30
0.0
 10
26.96682625091901
 20
1.763293345664456
 30
0.0
 10
26.96682625091901
 20
1.518416303336807
 30
0.0
 10
26.96682625091903
 20
1.164447298516741
 30
0.0
 10
26.96682625091901
 20
0.8666474179813226
 30
0.0
 10
26.96682625091902
 20
0.667480684706214
 30
0.0
 10
26.96682625091901
 20
0.6453492058084542
 30
0.0
 10
26.96682625091901
 20
0.6343478472628162
 30
0.0
  0
SPLINE
  5
B5
330
1F
100
AcDbEntity
  8
0
  6
Continuous
 62
     1
370
    15
100
AcDbSpline
210
0.0
220
0.0
230
1.0
 70
     8
 71
     3
 72
     8
 73
     4
 74
     0
 42
0.000000001
 43
0.00000001
 40
0.0
 40
0.0
 40
0.0
 40
0.0
 40
0.01676235342901
 40
0.01676235342901
 40
0.01676235342901
 40
0.01676235342901
 10
28.39557625091902
 20
1.902304123192645
 30
0.0
 10
28.38723570742967
 20
1.906090301749386
 30
0.0
 10
28.37891142873814
 20
1.909823908680152
 30
0.0
 10
28.37060244903393
 20
1.913504337894875
 30
0.0
  0
SPLINE
  5
B6
330
1F
100
AcDbEntity
  8
0
  6
Continuous
 62
     1
370
    15
100
AcDbSpline
210
0.0
220
0.0
230
1.0
 70
     8
 71
     3
 72
    12
 73
     8
 74
     0
 42
0.000000001
 43
0.00000001
 40
0.0
 40
0.0
 40
0.0
 40
0.0
 40
0.25
 40
0.25
 40
0.5
 40
0.5
 40
1.0
 40
1.0
 40
1.0
 40
1.0
 10
29.82432625091901
 20
1.086160161294417
 30
0.0
 10
29.70476099375169
 20
1.166051195112461
 30
0.0
 10
29.58487468825792
 20
1.243689891797026
 30
0.0
 10
29.34674985871262
 20
1.393000294356396
 30
0.0
 10
29.2295576927721
 20
1.464474299634439
 30
0.0
 10
28.87446202163918
 20
1.669877023722146
 30
0.0
 10
28.63288040063502
 20
1.794580221959213
 30
0.0
 10
28.39557625091901
 20
1.902304123192645
 30
0.0
  0
SPLINE
  5
B7
330
1F
100
AcDbEntity
  8
0
  6
Continuous
 62
     1
370
    15
100
AcDbSpline
210
0.0
220
0.0
230
1.0
 70
     8
 71
     3
 72
    10
 73
     6
 74
     0
 42
0.000000001
 43
0.00000001
 40
0.0
 40
0.0
 40
0.0
 40
0.0
 40
0.5
 40
0.5
 40
1.0
 40
1.0
 40
1.0
 40
1.0
 10
30.98853290169904
 20
0.2559721323911867
 30
0.0
 10
30.80558129406712
 20
0.3866238103832869
 30
0.0
 10
30.60787458401075
 20
0.5278176289388111
 30
0.0
 10
30.21763976455016
 20
0.810575120042057
 30
0.0
 10
30.01995534746498
 20
0.9554448419932919
 30
0.0
 10
29.82432625091903
 20
1.08616016129441
 30
0.0
  0
SPLINE
  5
B8
330
1F
100
AcDbEntity
  8
0
  6
Continuous
 62
     1
370
    15
100
AcDbSpline
210
0.0
220
0.0
230
1.0
 70
     8
 71
     3
 72
    10
 73
     6
 74
     0
 42
0.000000001
 43
0.00000001
 40
0.0
 40
0.0
 40
0.0
 40
0.0
 40
0.5
 40
0.5
 40
1.0
 40
1.0
 40
1.0
 40
1.0
 10
30.98853290169887
 20
0.2559721323912661
 30
0.0
 10
31.01818212834399
 20
0.2248590300659163
 30
0.0
 10
31.03820698890306
 20
0.1889070489596758
 30
0.0
 10
31.04382913536667
 20
0.1034020026860769
 30
0.0
 10
31.02824480473746
 20
0.0538014592631323
 30
0.0
 10
30.98647512827095
 20
-0.0000000000000151
 30
0.0
  0
SPLINE
  5
B9
330
1F
100
AcDbEntity
  8
0
  6
Continuous
 62
     1
370
    15
100
AcDbSpline
210
0.0
220
0.0
230
1.0
 70
     8
 71
     3
 72
     8
 73
     4
 74
     0
 42
0.000000001
 43
0.00000001
 40
0.0
 40
0.0
 40
0.0
 40
0.0
 40
1.0
 40
1.0
 40
1.0
 40
1.0
 10
31.67252031068321
 20
-0.2824319284071743
 30
0.0
 10
31.44367304686981
 20
-0.1885819998328156
 30
0.0
 10
31.21477242536854
 20
-0.0948268522458061
 30
0.0
 10
30.98647512827093
 20
-0.0000000000000083
 30
0.0
  0
SPLINE
  5
BA
330
1F
100
AcDbEntity
  8
0
  6
Continuous
 62
     1
370
    15
100
AcDbSpline
210
0.0
220
0.0
230
1.0
 70
     8
 71
     3
 72
    26
 73
    22
 74
     0
 42
0.000000001
 43
0.00000001
 40
0.0
 40
0.0
 40
0.0
 40
0.0
 40
0.1250000000000003
 40
0.1250000000000003
 40
0.2500000000000007
 40
0.2500000000000007
 40
0.375000000000001
 40
0.375000000000001
 40
0.5000000000000013
 40
0.5000000000000013
 40
0.6249999999999997
 40
0.6249999999999997
 40
0.6874999999999997
 40
0.6874999999999997
 40
0.7499999999999998
 40
0.7499999999999998
 40
0.8124999999999998
 40
0.8124999999999998
 40
0.8749999999999999
 40
0.8749999999999999
 40
1.0
 40
1.0
 40
1.0
 40
1.0
 10
29.82432625091902
 20
-1.218315516527092
 30
0.0
 10
29.95352537679147
 20
-1.3016649635758
 30
0.0
 10
30.07917170355366
 20
-1.376940142710702
 30
0.0
 10
30.32795133462928
 20
-1.506994576053579
 30
0.0
 10
30.45310590342462
 20
-1.56139003946688
 30
0.0
 10
30.69876459164032
 20
-1.636550513776291
 30
0.0
 10
30.81959328270146
 20
-1.658189082888881
 30
0.0
 10
31.06459221264154
 20
-1.658235983204499
 30
0.0
 10
31.18446591894175
 20
-1.636960157557999
 30
0.0
 10
31.42333160948426
 20
-1.533132062127682
 30
0.0
 10
31.5409745723077
 20
-1.450098647169416
 30
0.0
 10
31.69613524597454
 20
-1.272476389455173
 30
0.0
 10
31.74318841369679
 20
-1.20524381083143
 30
0.0
 10
31.8197744630959
 20
-1.062695941524424
 30
0.0
 10
31.8483246413411
 20
-0.9890038257849327
 30
0.0
 10
31.88283436925893
 20
-0.84852143608048
 30
0.0
 10
31.88888183596364
 20
-0.7815860737920277
 30
0.0
 10
31.88258851978033
 20
-0.6604830709902193
 30
0.0
 10
31.87033210418985
 20
-0.6045333110636196
 30
0.0
 10
31.81411939798281
 20
-0.4510483567983266
 30
0.0
 10
31.75067924808397
 20
-0.364343233562242
 30
0.0
 10
31.67252031068409
 20
-0.2824319284075228
 30
0.0
  0
SPLINE
  5
BB
330
1F
100
AcDbEntity
  8
0
 62
     4
100
AcDbSpline
210
0.0
220
0.0
230
1.0
 70
     8
 71
     3
 72
    14
 73
    10
 74
     0
 42
0.000000001
 43
0.00000001
 40
0.0
 40
0.0
 40
0.0
 40
0.0
 40
0.25
 40
0.25
 40
0.5
 40
0.5
 40
0.75
 40
0.75
 40
1.0
 40
1.0
 40
1.0
 40
1.0
 10
28.39557625091902
 20
-1.432337455135583
 30
0.0
 10
28.27118227001598
 20
-1.357341004962983
 30
0.0
 10
28.15040620695112
 20
-1.272682973158438
 30
0.0
 10
27.90968170304919
 20
-1.091272575932596
 30
0.0
 10
27.78871124402457
 20
-0.9930357064388624
 30
0.0
 10
27.55109390526149
 20
-0.7952542517337741
 30
0.0
 10
27.43448999270512
 20
-0.695721073774794
 30
0.0
 10
27.19929399692199
 20
-0.5038941658957691
 30
0.0
 10
27.08319944705367
 20
-0.4137033661717471
 30
0.0
 10
26.96682625091858
 20
-0.3410906402806098
 30
0.0
  0
SPLINE
  5
BC
330
1F
100
AcDbEntity
  8
0
  6
Continuous
 62
     1
370
    15
100
AcDbSpline
210
0.0
220
0.0
230
1.0
 70
     8
 71
     3
 72
    12
 73
     8
 74
     0
 42
0.000000001
 43
0.00000001
 40
0.0
 40
0.0
 40
0.0
 40
0.0
 40
0.2499999999999989
 40
0.2499999999999989
 40
0.4999999999999977
 40
0.4999999999999977
 40
1.0
 40
1.0
 40
1.0
 40
1.0
 10
29.82432625091901
 20
-2.119105392970555
 30
0.0
 10
29.7047609937517
 20
-2.07815676508936
 30
0.0
 10
29.58487468825793
 20
-2.032639610258402
 30
0.0
 10
29.34674985871262
 20
-1.933374902100606
 30
0.0
 10
29.2295576927721
 20
-1.879806375263404
 30
0.0
 10
28.87446202163918
 20
-1.707010242859633
 30
0.0
 10
28.63288040063502
 20
-1.575406828032318
 30
0.0
 10
28.39557625091901
 20
-1.432337455135581
 30
0.0
  0
SPLINE
  5
BD
330
1F
100
AcDbEntity
  8
0
  6
Continuous
 62
     1
370
    15
100
AcDbSpline
210
0.0
220
0.0
230
1.0
 70
     8
 71
     3
 72
     8
 73
     4
 74
     0
 42
0.000000001
 43
0.00000001
 40
0.0
 40
0.0
 40
0.0
 40
0.0
 40
0.4770884382828069
 40
0.4770884382828069
 40
0.4770884382828069
 40
0.4770884382828069
 10
29.72104277498477
 20
-2.076989633996282
 30
0.0
 10
29.51036215703937
 20
-2.149210122294642
 30
0.0
 10
29.29968153909397
 20
-2.221430610593001
 30
0.0
 10
29.08890597761803
 20
-2.271412175633894
 30
0.0
  0
SPLINE
  5
BE
330
1F
100
AcDbEntity
  8
0
 62
     4
100
AcDbSpline
210
0.0
220
0.0
230
1.0
 70
     8
 71
     3
 72
     8
 73
     4
 74
     0
 42
0.000000001
 43
0.00000001
 40
0.0
 40
0.0
 40
0.0
 40
0.0
 40
0.1428359868409983
 40
0.1428359868409983
 40
0.1428359868409983
 40
0.1428359868409983
 10
26.96682625091901
 20
-1.786528790805252
 30
0.0
 10
27.02767410469211
 20
-1.844238480769695
 30
0.0
 10
27.0902463374989
 20
-1.897857634401123
 30
0.0
 10
27.15434052703359
 20
-1.94747760954185
 30
0.0
  0
SPLINE
  5
BF
330
1F
100
AcDbEntity
  8
0
 62
     4
100
AcDbSpline
210
0.0
220
0.0
230
1.0
 70
    24
 71
     3
 72
    18
 73
    14
 74
     0
 42
0.000000001
 43
0.00000001
 40
0.0
 40
0.0
 40
0.0
 40
0.0
 40
0.1249999999999999
 40
0.1249999999999999
 40
0.2499999999999999
 40
0.2499999999999999
 40
0.4999999999999998
 40
0.4999999999999998
 40
0.7499999999999998
 40
0.7499999999999998
 40
0.8749999999999999
 40
0.8749999999999999
 40
1.0
 40
1.0
 40
1.0
 40
1.0
 10
26.96682625091902
 20
-0.3410906402809031
 30
0.0
 10
26.96682625091902
 20
-0.3361589489300691
 30
0.0
 10
26.96682625091901
 20
-0.34885431523639
 30
0.0
 10
26.96682625091901
 20
-0.4075899632882727
 30
0.0
 10
26.96682625091902
 20
-0.4535130702369626
 30
0.0
 10
26.96682625091901
 20
-0.6266423034443375
 30
0.0
 10
26.96682625091902
 20
-0.7876132495865736
 30
0.0
 10
26.96682625091902
 20
-1.108616705882007
 30
0.0
 10
26.96682625091902
 20
-1.267863427304486
 30
0.0
 10
26.96682625091903
 20
-1.476845853162229
 30
0.0
 10
26.96682625091901
 20
-1.5419995890739
 30
0.0
 10
26.96682625091901
 20
-1.662673397468426
 30
0.0
 10
26.96682625091902
 20
-1.721633579504074
 30
0.0
 10
26.96682625091901
 20
-1.786528790805626
 30
0.0
  0
SPLINE
  5
C0
330
1F
100
AcDbEntity
  8
0
  6
Continuous
 62
     1
370
    15
100
AcDbSpline
210
0.0
220
0.0
230
1.0
 70
     8
 71
     3
 72
    10
 73
     6
 74
     0
 42
0.000000001
 43
0.00000001
 40
0.0
 40
0.0
 40
0.0
 40
0.0
 40
0.5
 40
0.5
 40
1.0
 40
1.0
 40
1.0
 40
1.0
 10
30.988532901699
 20
-2.061420069810778
 30
0.0
 10
30.80558129406709
 20
-2.14852036168692
 30
0.0
 10
30.60787458401074
 20
-2.199080394005366
 30
0.0
 10
30.21763976455016
 20
-2.217378288378446
 30
0.0
 10
30.01995534746497
 20
-2.186104312782057
 30
0.0
 10
29.82432625091903
 20
-2.119105392970559
 30
0.0
  0
LWPOLYLINE
  5
C1
330
1F
100
AcDbEntity
  8
0
  6
Continuous
 62
     1
370
    15
100
AcDbPolyline
 90
        9
 70
   128
 43
0.0
 10
30.98853290169902
 20
0.2559721323913504
 10
31.22045774163501
 20
0.2838142049319298
 10
31.43487898492013
 20
0.2941906079225188
 10
31.62832932092099
 20
0.2869335491617742
 10
31.79768055022616
 20
0.2621603793217784
 10
31.9401941693686
 20
0.2202716943224715
 10
32.05356565394818
 20
0.1619448574730615
 10
32.13596172407166
 20
0.0881230461309807
 10
32.186049989507
 20
-0.0000000000000008
  0
SPLINE
  5
C2
330
1F
100
AcDbEntity
  8
0
  6
Continuous
 62
     1
370
    15
100
AcDbSpline
210
0.0
220
0.0
230
1.0
 70
     8
 71
     3
 72
    26
 73
    22
 74
     0
 42
0.000000001
 43
0.00000001
 40
0.0
 40
0.0
 40
0.0
 40
0.0
 40
0.1250000000000008
 40
0.1250000000000008
 40
0.2500000000000016
 40
0.2500000000000016
 40
0.3750000000000024
 40
0.3750000000000024
 40
0.5000000000000032
 40
0.5000000000000032
 40
0.625000000000004
 40
0.625000000000004
 40
0.6875000000000036
 40
0.6875000000000036
 40
0.750000000000003
 40
0.750000000000003
 40
0.8125000000000026
 40
0.8125000000000026
 40
0.8750000000000021
 40
0.8750000000000021
 40
1.0
 40
1.0
 40
1.0
 40
1.0
 10
29.82432625091902
 20
2.045986037269818
 30
0.0
 10
29.95352537679148
 20
1.996354259347761
 30
0.0
 10
30.07917170355369
 20
1.93259019318111
 30
0.0
 10
30.32795133462931
 20
1.780770714864607
 30
0.0
 10
30.45310590342468
 20
1.691940298574456
 30
0.0
 10
30.69876459164039
 20
1.501007889661732
 30
0.0
 10
30.81959328270153
 20
1.398726099882737
 30
0.0
 10
31.06459221264161
 20
1.186834432368903
 30
0.0
 10
31.18446591894185
 20
1.080229066887432
 30
0.0
 10
31.42333160948439
 20
0.8883699985172677
 30
0.0
 10
31.54097457230782
 20
0.804367184944509
 30
0.0
 10
31.69613524597465
 20
0.7443568530614386
 30
0.0
 10
31.74318841369691
 20
0.7364208002608482
 30
0.0
 10
31.81977446309601
 20
0.7522127403415658
 30
0.0
 10
31.84832464134119
 20
0.7760077098301137
 30
0.0
 10
31.88283436925898
 20
0.8481991021009556
 30
0.0
 10
31.88888183596361
 20
0.896410720583926
 30
0.0
 10
31.88258851978028
 20
1.002066504768859
 30
0.0
 10
31.87033210418979
 20
1.060765708163815
 30
0.0
 10
31.81411939798272
 20
1.238354302252098
 30
0.0
 10
31.75067924808391
 20
1.361066589186976
 30
0.0
 10
31.67252031068396
 20
1.474707593311075
 30
0.0
  0
ARC
  5
C3
330
1F
100
AcDbEntity
  8
0
  6
Continuous
 62
     1
370
    15
100
AcDbCircle
 10
29.86274152756302
 20
-0.0172221286372706
 30
0.0
 40
2.345453802372599
100
AcDbArc
 50
7.879663525065523
 51
39.50119168477426
  0
ARC
  5
C4
330
1F
100
AcDbEntity
  8
0
  6
Continuous
 62
     1
370
    15
100
AcDbCircle
 10
29.77600813617135
 20
-0.0515752036175496
 30
0.0
 40
2.436178427896519
100
AcDbArc
 50
8.400332214747541
 51
60.15099941055018
  0
SPLINE
  5
C5
330
1F
100
AcDbEntity
  8
0
  6
Continuous
 62
     1
370
    15
100
AcDbSpline
210
0.0
220
0.0
230
1.0
 70
     8
 71
     3
 72
    10
 73
     6
 74
     0
 42
0.000000001
 43
0.00000001
 40
0.0
 40
0.0
 40
0.0
 40
0.0
 40
0.5
 40
0.5
 40
1.0
 40
1.0
 40
1.0
 40
1.0
 10
30.988532901699
 20
2.061420069810798
 30
0.0
 10
30.80558129406709
 20
2.148520361686937
 30
0.0
 10
30.60787458401074
 20
2.199080394005381
 30
0.0
 10
30.21763976455017
 20
2.217378288378463
 30
0.0
 10
30.01995534746497
 20
2.186104312782067
 30
0.0
 10
29.82432625091903
 20
2.119105392970572
 30
0.0
  0
ARC
  5
C6
330
1F
100
AcDbEntity
  8
0
  6
Continuous
 62
     1
370
    15
100
AcDbCircle
 10
29.86274152756311
 20
0.0172221286372482
 30
0.0
 40
2.345453802372506
100
AcDbArc
 50
320.4988083152256
 51
352.1203364749356
  0
ARC
  5
C7
330
1F
100
AcDbEntity
  8
0
  6
Continuous
 62
     1
370
    15
100
AcDbCircle
 10
29.77600813617125
 20
0.0515752036176107
 30
0.0
 40
2.436178427896626
100
AcDbArc
 50
299.849000589453
 51
351.5996677852522
  0
ARC
  5
C8
330
1F
100
AcDbEntity
  8
0
  6
Continuous
 62
     1
370
    15
100
AcDbCircle
 10
31.69504493117923
 20
0.2846895099610179
 30
0.0
 40
0.56756857240804
100
AcDbArc
 50
267.7255528858348
 51
329.8944250407952
  0
SPLINE
  5
C9
330
1F
100
AcDbEntity
  8
0
  6
Continuous
 62
     1
370
    15
100
AcDbSpline
210
0.0
220
0.0
230
1.0
 70
     8
 71
     3
 72
    12
 73
     8
 74
     0
 42
0.000000001
 43
0.00000001
 40
0.0
 40
0.0
 40
0.0
 40
0.0
 40
0.25
 40
0.25
 40
0.5
 40
0.5
 40
0.5150821194338113
 40
0.5150821194338113
 40
0.5150821194338113
 40
0.5150821194338113
 10
29.82432625091901
 20
2.045986037267181
 30
0.0
 10
29.70476099375169
 20
2.091916969468423
 30
0.0
 10
29.58487468825792
 20
2.133512657682104
 30
0.0
 10
29.34674985871261
 20
2.207276310151268
 30
0.0
 10
29.22955769277209
 20
2.239371887297136
 30
0.0
 10
29.10405167529784
 20
2.268432785451891
 30
0.0
 10
29.09690646754241
 20
2.270068875675781
 30
0.0
 10
29.08975709633848
 20
2.271687568117319
 30
0.0
  0
LINE
  5
CB
330
1F
100
AcDbEntity
  8
0
  6
Continuous
 62
     1
370
    15
100
AcDbLine
 10
29.72104277498475
 20
2.076989633996285
 30
0.0
 11
29.82432625091901
 21
2.119105392970567
 31
0.0
  0
SPLINE
  5
CC
330
1F
100
AcDbEntity
  8
0
  6
Continuous
 62
     1
370
    15
100
AcDbSpline
210
0.0
220
0.0
230
1.0
 70
     8
 71
     3
 72
    10
 73
     6
 74
     0
 42
0.000000001
 43
0.00000001
 40
0.0
 40
0.0
 40
0.0
 40
0.0
 40
0.5
 40
0.5
 40
1.0
 40
1.0
 40
1.0
 40
1.0
 10
30.98853290169887
 20
2.061420069810721
 30
0.0
 10
31.01818212834397
 20
1.958096597803415
 30
0.0
 10
31.03820698890306
 20
1.852244367804676
 30
0.0
 10
31.04382913536669
 20
1.640447541142679
 30
0.0
 10
31.02824480473745
 20
1.535512246095748
 30
0.0
 10
30.98647512827093
 20
1.445341094471393
 30
0.0
  0
SPLINE
  5
CD
330
1F
100
AcDbEntity
  8
0
  6
Continuous
 62
     1
370
    15
100
AcDbSpline
210
0.0
220
0.0
230
1.0
 70
     8
 71
     3
 72
     8
 73
     4
 74
     0
 42
0.000000001
 43
0.00000001
 40
0.0
 40
0.0
 40
0.0
 40
0.0
 40
1.0
 40
1.0
 40
1.0
 40
1.0
 10
31.67252031068321
 20
1.474707593310803
 30
0.0
 10
31.44367304686982
 20
1.465786184274624
 30
0.0
 10
31.21477242536854
 20
1.457144373866254
 30
0.0
 10
30.98647512827092
 20
1.44534109447139
 30
0.0
  0
LINE
  5
CE
330
1F
100
AcDbEntity
  8
0
  6
Continuous
 62
     1
370
    15
100
AcDbLine
 10
30.98647512827095
 20
-0.0000000000000123
 30
0.0
 11
32.186049989507
 21
-0.0000000000000005
 31
0.0
  0
LINE
  5
CF
330
1F
100
AcDbEntity
  8
중심선
 62
     1
100
AcDbLine
 10
-51.71943624908099
 20
-0.0000000000000006
 30
0.0
 11
35.2792461393035
 21
-0.0000000000000011
 31
0.0
  0
CIRCLE
  5
D0
330
1F
100
AcDbEntity
  8
외형선
100
AcDbCircle
 10
0.0
 20
0.0
 30
0.0
 40
3.000000000000005
  0
INSERT
  5
D1
330
1F
100
AcDbEntity
  8
0
  6
Continuous
 62
     7
100
AcDbBlockReference
 66
     1
  2
블럭10
 10
-22.93944368806589
 20
-52.04609937292004
 30
0.0
  0
ATTRIB
  5
D2
330
D1
100
AcDbEntity
  8
FORMAT
 62
     2
100
AcDbText
 10
-33.08107970020252
 20
-49.97073246008785
 30
0.0
 40
4.233333333333333
  1
EM096012 [ 2 FLUTE ]
 41
0.75
  7
SLDTEXTSTYLE0
 11
-33.08107970020252
 21
-52.08739912675452
 31
0.0
100
AcDbAttribute
  2
AUTOATTR0
 70
     0
 74
     1
  0
SEQEND
  5
D3
330
D1
100
AcDbEntity
  8
0
  6
Continuous
 62
     7
  0
HATCH
  5
D4
330
1F
100
AcDbEntity
  8
중심선
100
AcDbHatch
 10
0.0
 20
0.0
 30
0.0
210
0.0
220
0.0
230
1.0
  2
SOLID
 70
     1
 71
     0
 91
        1
 92
        0
 93
        4
 72
     1
 10
-17.22453438368504
 20
-35.7989250712761
 11
-20.67080962752232
 21
-35.7989250712761
 72
     1
 10
-20.67080962752232
 20
-35.7989250712761
 11
-22.79903948672635
 21
-38.3352506518487
 72
     1
 10
-22.79903948672635
 20
-38.3352506518487
 11
-19.35273115777591
 21
-38.33521122254621
 72
     1
 10
-19.35273115777591
 20
-38.33521122254621
 11
-17.22453438368504
 21
-35.7989250712761
 97
        0
 75
     0
 76
     1
 98
        1
 10
0.0
 20
0.0
  0
HATCH
  5
D5
330
1F
100
AcDbEntity
  8
중심선
100
AcDbHatch
 10
0.0
 20
0.0
 30
0.0
210
0.0
220
0.0
230
1.0
  2
SOLID
 70
     1
 71
     0
 91
        1
 92
        0
 93
        4
 72
     1
 10
-12.21177039264909
 20
-35.7989250712761
 11
-15.65804563648637
 21
-35.7989250712761
 72
     1
 10
-15.65804563648637
 20
-35.7989250712761
 11
-20.18918364484376
 21
-41.19892507127612
 72
     1
 10
-20.18918364484376
 20
-41.19892507127612
 11
-16.74290840100648
 21
-41.19892507127612
 72
     1
 10
-16.74290840100648
 20
-41.19892507127612
 11
-12.21177039264909
 21
-35.7989250712761
 97
        0
 75
     0
 76
     1
 98
        1
 10
0.0
 20
0.0
  0
HATCH
  5
D6
330
1F
100
AcDbEntity
  8
중심선
100
AcDbHatch
 10
0.0
 20
0.0
 30
0.0
210
0.0
220
0.0
230
1.0
  2
SOLID
 70
     1
 71
     0
 91
        1
 92
        0
 93
        4
 72
     1
 10
-7.199006401613195
 20
-35.79892507127613
 11
-10.64528164545031
 21
-35.7989250712761
 72
     1
 10
-10.64528164545031
 20
-35.7989250712761
 11
-17.69371854733956
 21
-44.19892507127612
 72
     1
 10
-17.69371854733956
 20
-44.19892507127612
 11
-14.24744330350228
 21
-44.19892507127612
 72
     1
 10
-14.24744330350228
 20
-44.19892507127612
 11
-7.199006401613195
 21
-35.79892507127613
 97
        0
 75
     0
 76
     1
 98
        1
 10
0.0
 20
0.0
  0
HATCH
  5
D7
330
1F
100
AcDbEntity
  8
중심선
100
AcDbHatch
 10
0.0
 20
0.0
 30
0.0
210
0.0
220
0.0
230
1.0
  2
SOLID
 70
     1
 71
     0
 91
        1
 92
        0
 93
        6
 72
     3
 10
-2.399115970600996
 20
-39.99892507132738
 11
3.960054785062284
 21
1.540850780301639E-10
 40
0.3939339440162633
 50
17.09539180608433
 51
320.0019657685079
 73
     0
 72
     1
 10
-0.7161163149004002
 20
-38.58681907591441
 11
1.589185558800638
 21
-36.65249236586649
 72
     3
 10
-2.399115970653842
 20
-39.99892507127625
 11
6.600054785286829
 21
-1.249000902703301E-13
 40
0.6363583540795982
 50
39.99873849337408
 51
368.4976242363724
 73
     1
 72
     1
 10
4.026216521246767
 20
-39.03892507120613
 11
-3.71904866381792
 21
-39.0389250712061
 72
     1
 10
-3.71904866381792
 20
-39.0389250712061
 11
-3.719073708263854
 21
-40.95892507120602
 72
     1
 10
-3.719073708263854
 20
-40.95892507120602
 11
0.7223060612081835
 21
-40.95892507120599
 97
        0
 75
     0
 76
     1
 98
        1
 10
0.0
 20
0.0
  0
DIMENSION
  5
D8
330
1F
100
AcDbEntity
  8
치수문자_일반주서
100
AcDbDimension
  2
_D
 10
-72.34442374908093
 20
-3.175000000000079
 30
0.0
 11
-72.34442374908105
 21
22.46649999999991
 31
0.0
 70
   160
  1
%%c<>
 71
     2
 42
6.349999999999996
 52
-270.0
  3
SLDDIMSTYLE0
100
AcDbAlignedDimension
 13
-49.53442374908097
 23
3.175000000000001
 33
0.0
 14
-49.53442374908097
 24
-3.174999999999995
 34
0.0
 50
90.0000000000002
100
AcDbRotatedDimension
1001
ACAD
1000
DSTYLE
1002
{
1070
   171
1070
     6
1070
   273
1070
     7
1002
}
  0
INSERT
  5
FF
330
1F
100
AcDbEntity
  8
외형선
100
AcDbBlockReference
  2
SW_DOWELSYMBOL_0
 10
0.0
 20
0.0
 30
0.0
  0
ARC
  5
127
330
1F
100
AcDbEntity
  8
0
  6
Continuous
 62
     1
370
    15
100
AcDbCircle
 10
29.82432625091902
 20
-0.0000000000000022
 30
0.0
 40
2.3875
100
AcDbArc
 50
233.2425114388654
 51
126.7574885611346
  0
LINE
  5
128
330
1F
100
AcDbEntity
  8
0
 62
     4
100
AcDbLine
 10
28.39557625091902
 20
-1.912806756444575
 30
0.0
 11
28.39557625091902
 21
1.912806756444571
 31
0.0
  0
LINE
  5
133
330
1F
100
AcDbEntity
  8
0
 62
     4
100
AcDbLine
 10
28.39557625091902
 20
1.912806756444571
 30
0.0
 11
0.4555762509190071
 21
2.693241622197233
 31
0.0
  0
LINE
  5
134
330
1F
100
AcDbEntity
  8
0
 62
     4
100
AcDbLine
 10
28.39557625091902
 20
-1.912806756444575
 30
0.0
 11
0.4555762509190107
 21
-2.69324162219723
 31
0.0
  0
LINE
  5
135
330
1F
100
AcDbEntity
  8
0
 62
     4
100
AcDbLine
 10
0.0
 20
-3.174999999999994
 30
0.0
 11
0.4555762509190213
 21
-2.693241622197229
 31
0.0
  0
LINE
  5
136
330
1F
100
AcDbEntity
  8
0
 62
     4
100
AcDbLine
 10
0.4555762509190213
 20
-2.69324162219723
 30
0.0
 11
0.4555762509190213
 21
2.69324162219723
 31
0.0
  0
LINE
  5
137
330
1F
100
AcDbEntity
  8
0
 62
     4
100
AcDbLine
 10
0.0
 20
3.174999999999994
 30
0.0
 11
0.4555762509190213
 21
2.693241622197229
 31
0.0
  0
SPLINE
  5
138
330
1F
100
AcDbEntity
  8
0
 62
     4
100
AcDbSpline
210
0.0
220
0.0
230
1.0
 70
     8
 71
     3
 72
     8
 73
     4
 74
     0
 42
0.000000001
 43
0.00000001
 40
0.907162850405726
 40
0.907162850405726
 40
0.907162850405726
 40
0.907162850405726
 40
1.0
 40
1.0
 40
1.0
 40
1.0
 10
27.09644730403244
 20
1.94909471368361
 30
0.0
 10
27.05321787220613
 20
1.927139571638571
 30
0.0
 10
27.01004127419201
 20
1.902251395165128
 30
0.0
 10
26.96682625091858
 20
1.87421508240428
 30
0.0
  0
LINE
  5
139
330
1F
100
AcDbEntity
  8
0
 62
     4
100
AcDbLine
 10
24.39521084393249
 20
-0.7822631212244419
 30
0.0
 11
24.39521084393249
 21
1.176187579050683
 31
0.0
  0
LINE
  5
13A
330
1F
100
AcDbEntity
  8
0
 62
     4
100
AcDbLine
 10
0.0
 20
3.174999999999994
 30
0.0
 11
0.0
 21
-3.174999999999994
 31
0.0
  0
DIMENSION
  5
13F
330
1F
100
AcDbEntity
  8
치수문자_일반주서
100
AcDbDimension
  2
*D5
 10
48.75566130293961
 20
2.387499999999997
 30
0.0
 11
46.13066130293961
 21
22.99149999999999
 31
0.0
 70
    32
  1
{%%c<>}
 71
     5
 42
4.775
  3
SLDDIMSTYLE0
100
AcDbAlignedDimension
 13
32.21182625091902
 23
-2.387500000000002
 33
0.0
 14
32.21182625091902
 24
2.387499999999998
 34
0.0
 50
90.0
100
AcDbRotatedDimension
1001
ACAD
1000
DSTYLE
1002
{
1070
   171
1070
     6
1070
   273
1070
     7
1002
}
  0
DIMENSION
  5
151
330
1F
100
AcDbEntity
  8
치수문자_일반주서
100
AcDbDimension
  2
*D6
 10
28.39557625091902
 20
26.75844288910234
 30
0.0
 11
8.666576250919022
 21
29.38344288910234
 31
0.0
 70
    32
 71
     5
 42
3.816249999999997
  3
SLDDIMSTYLE0
100
AcDbAlignedDimension
 13
32.21182625091902
 23
2.387499999999998
 33
0.0
 14
28.39557625091902
 24
1.912806756444571
 34
0.0
100
AcDbRotatedDimension
1001
ACAD
1000
DSTYLE
1002
{
1070
   171
1070
     6
1070
   273
1070
     7
1002
}
  0
DIMENSION
  5
162
330
1F
100
AcDbEntity
  8
치수문자_일반주서
100
AcDbDimension
  2
*D7
 10
0.4555762509190213
 20
37.7468377459294
 30
0.0
 11
16.33370125091902
 21
40.3718377459294
 31
0.0
 70
    32
 71
     5
 42
31.75624999999999
  3
SLDDIMSTYLE0
100
AcDbAlignedDimension
 13
32.21182625091902
 23
2.387499999999998
 33
0.0
 14
0.4555762509190213
 24
2.693241622197229
 34
0.0
100
AcDbRotatedDimension
1001
ACAD
1000
DSTYLE
1002
{
1070
   171
1070
     6
1070
   273
1070
     7
1002
}
  0
DIMENSION
  5
171
330
1F
100
AcDbEntity
  8
치수문자_일반주서
100
AcDbDimension
  2
*D8
 10
-50.34442374908097
 20
47.0954744389356
 30
0.0
 11
-9.066298749080978
 21
49.7204744389356
 31
0.0
 70
    32
 71
     5
 42
82.55624999999999
  3
SLDDIMSTYLE0
100
AcDbAlignedDimension
 13
32.21182625091902
 23
2.387499999999998
 33
0.0
 14
-50.34442374908097
 24
2.365000000000001
 34
0.0
100
AcDbRotatedDimension
1001
ACAD
1000
DSTYLE
1002
{
1070
   171
1070
     6
1070
   273
1070
     7
1002
}
  0
ENDSEC
  0
SECTION
  2
OBJECTS
  0
DICTIONARY
  5
C
330
0
100
AcDbDictionary
281
     1
  3
ACAD_DETAILVIEWSTYLE
350
12F
  3
ACAD_GROUP
350
D
  3
ACAD_IMAGE_VARS
350
123
  3
ACAD_LAYOUT
350
1A
  3
ACAD_MLINESTYLE
350
17
  3
ACAD_PLOTSETTINGS
350
19
  3
ACAD_PLOTSTYLENAME
350
E
  3
ACAD_SCALELIST
350
47
  3
ACAD_SECTIONVIEWSTYLE
350
130
  3
AcDbVariableDictionary
350
12A
  3
APPDATA
350
121
  3
DWGPROPS
350
1A8
  0
DICTIONARY
  5
12F
102
{ACAD_REACTORS
330
C
102
}
330
C
100
AcDbDictionary
281
     1
  0
DICTIONARY
  5
D
102
{ACAD_REACTORS
330
C
102
}
330
C
100
AcDbDictionary
281
     1
  0
RASTERVARIABLES
  5
123
102
{ACAD_REACTORS
330
C
102
}
330
C
100
AcDbRasterVariables
 90
        0
 70
     1
 71
     1
 72
     1
  0
DICTIONARY
  5
1A
102
{ACAD_REACTORS
330
C
102
}
330
C
100
AcDbDictionary
281
     1
  3
Layout1
350
1E
  3
Layout2
350
26
  3
Model
350
22
  0
DICTIONARY
  5
17
102
{ACAD_REACTORS
330
C
102
}
330
C
100
AcDbDictionary
281
     1
  3
Standard
350
18
  0
DICTIONARY
  5
19
102
{ACAD_REACTORS
330
C
102
}
330
C
100
AcDbDictionary
281
     1
  0
ACDBDICTIONARYWDFLT
  5
E
102
{ACAD_REACTORS
330
C
102
}
330
C
100
AcDbDictionary
281
     1
  3
Normal
350
F
100
AcDbDictionaryWithDefault
340
F
  0
DICTIONARY
  5
47
102
{ACAD_REACTORS
330
C
102
}
330
C
100
AcDbDictionary
281
     1
  3
A0
350
48
  3
A1
350
49
  3
A2
350
4A
  3
A3
350
4B
  3
A4
350
4C
  3
A5
350
4D
  3
A6
350
4E
  3
A7
350
4F
  3
A8
350
50
  3
A9
350
51
  3
B0
350
52
  3
B1
350
53
  3
B2
350
54
  3
B3
350
55
  3
B4
350
56
  3
B5
350
57
  3
B6
350
58
  3
B7
350
59
  3
B8
350
5A
  3
B9
350
5B
  3
C0
350
5C
  3
C1
350
5D
  3
C2
350
5E
  3
C3
350
5F
  3
C4
350
60
  3
C5
350
61
  3
C6
350
62
  3
C7
350
63
  3
C8
350
64
  3
C9
350
65
  3
D0
350
66
  3
D1
350
67
  3
D2
350
68
  0
DICTIONARY
  5
130
102
{ACAD_REACTORS
330
C
102
}
330
C
100
AcDbDictionary
281
     1
  0
DICTIONARY
  5
12A
102
{ACAD_REACTORS
330
C
102
}
330
C
100
AcDbDictionary
281
     1
  0
DICTIONARY
  5
121
102
{ACAD_REACTORS
330
C
102
}
330
C
100
AcDbDictionary
281
     1
  0
XRECORD
  5
1A8
102
{ACAD_REACTORS
330
C
102
}
330
C
100
AcDbXrecord
280
     1
  1
DWGPROPS COOKIE
  2

  3

  4

  6

  7

  8
12015048
  9

300
=
301
=
302
=
303
=
304
=
305
=
306
=
307
=
308
=
309
=
 40
0.0
 41
2458272.312998518
 42
2458297.28395037
  1

 90
        0
  0
LAYOUT
  5
1E
102
{ACAD_REACTORS
330
1A
102
}
330
1A
100
AcDbPlotSettings
  1

  2
none_device
  4

  6

 40
0.0
 41
0.0
 42
0.0
 43
0.0
 44
0.0
 45
0.0
 46
0.0
 47
0.0
 48
0.0
 49
0.0
140
0.0
141
0.0
142
1.0
143
1.0
 70
   688
 72
     1
 73
     0
 74
     5
  7

 75
    16
147
1.0
148
0.0
149
0.0
100
AcDbLayout
  1
Layout1
 70
     1
 71
     1
 10
0.0
 20
0.0
 11
420.0
 21
297.0
 12
0.0
 22
0.0
 32
0.0
 14
1.000000000000000E+20
 24
1.000000000000000E+20
 34
1.000000000000000E+20
 15
-1.000000000000000E+20
 25
-1.000000000000000E+20
 35
-1.000000000000000E+20
146
0.0
 13
0.0
 23
0.0
 33
0.0
 16
1.0
 26
0.0
 36
0.0
 17
0.0
 27
1.0
 37
0.0
 76
     0
330
1B
  0
LAYOUT
  5
26
102
{ACAD_REACTORS
330
1A
102
}
330
1A
100
AcDbPlotSettings
  1

  2
none_device
  4

  6

 40
0.0
 41
0.0
 42
0.0
 43
0.0
 44
0.0
 45
0.0
 46
0.0
 47
0.0
 48
0.0
 49
0.0
140
0.0
141
0.0
142
1.0
143
1.0
 70
   688
 72
     1
 73
     0
 74
     5
  7

 75
    16
147
1.0
148
0.0
149
0.0
100
AcDbLayout
  1
Layout2
 70
     1
 71
     2
 10
0.0
 20
0.0
 11
0.0
 21
0.0
 12
0.0
 22
0.0
 32
0.0
 14
0.0
 24
0.0
 34
0.0
 15
0.0
 25
0.0
 35
0.0
146
0.0
 13
0.0
 23
0.0
 33
0.0
 16
1.0
 26
0.0
 36
0.0
 17
0.0
 27
1.0
 37
0.0
 76
     0
330
23
  0
LAYOUT
  5
22
102
{ACAD_REACTORS
330
1A
102
}
330
1A
100
AcDbPlotSettings
  1

  2
none_device
  4
ANSI_A_(11.00_x_8.50_Inches)
  6

 40
6.35
 41
19.05
 42
6.35000508
 43
19.05000254
 44
279.4
 45
215.9
 46
209.478562764425
 47
137.4719546495788
 48
0.0
 49
0.0
140
0.0
141
0.0
142
0.0944141488228946
143
1.0
 70
  1696
 72
     0
 73
     0
 74
     0
  7

 75
     0
147
0.0235690232323232
148
0.0
149
0.0
100
AcDbLayout
  1
Model
 70
     1
 71
     0
 10
0.0
 20
0.0
 11
420.0
 21
297.0
 12
0.0
 22
0.0
 32
0.0
 14
-76.71942374908112
 24
-49.97073246008785
 34
0.0
 15
49.30599463627294
 25
51.4704744389356
 35
0.0
146
0.0
 13
0.0
 23
0.0
 33
0.0
 16
1.0
 26
0.0
 36
0.0
 17
0.0
 27
1.0
 37
0.0
 76
     0
330
1F
331
29
  0
MLINESTYLE
  5
18
102
{ACAD_REACTORS
330
17
102
}
330
17
100
AcDbMlineStyle
  2
Standard
 70
     0
  3

 62
   256
 51
90.0
 52
90.0
 71
     2
 49
0.5
 62
   256
  6
BYLAYER
 49
-0.5
 62
   256
  6
BYLAYER
  0
ACDBPLACEHOLDER
  5
F
102
{ACAD_REACTORS
330
E
102
}
330
E
  0
SCALE
  5
48
102
{ACAD_REACTORS
330
47
102
}
330
47
100
AcDbScale
 70
     0
300
1:1
140
1.0
141
1.0
290
     1
  0
SCALE
  5
49
102
{ACAD_REACTORS
330
47
102
}
330
47
100
AcDbScale
 70
     0
300
1:2
140
1.0
141
2.0
290
     0
  0
SCALE
  5
4A
102
{ACAD_REACTORS
330
47
102
}
330
47
100
AcDbScale
 70
     0
300
1:4
140
1.0
141
4.0
290
     0
  0
SCALE
  5
4B
102
{ACAD_REACTORS
330
47
102
}
330
47
100
AcDbScale
 70
     0
300
1:5
140
1.0
141
5.0
290
     0
  0
SCALE
  5
4C
102
{ACAD_REACTORS
330
47
102
}
330
47
100
AcDbScale
 70
     0
300
1:8
140
1.0
141
8.0
290
     0
  0
SCALE
  5
4D
102
{ACAD_REACTORS
330
47
102
}
330
47
100
AcDbScale
 70
     0
300
1:10
140
1.0
141
10.0
290
     0
  0
SCALE
  5
4E
102
{ACAD_REACTORS
330
47
102
}
330
47
100
AcDbScale
 70
     0
300
1:16
140
1.0
141
16.0
290
     0
  0
SCALE
  5
4F
102
{ACAD_REACTORS
330
47
102
}
330
47
100
AcDbScale
 70
     0
300
1:20
140
1.0
141
20.0
290
     0
  0
SCALE
  5
50
102
{ACAD_REACTORS
330
47
102
}
330
47
100
AcDbScale
 70
     0
300
1:30
140
1.0
141
30.0
290
     0
  0
SCALE
  5
51
102
{ACAD_REACTORS
330
47
102
}
330
47
100
AcDbScale
 70
     0
300
1:40
140
1.0
141
40.0
290
     0
  0
SCALE
  5
52
102
{ACAD_REACTORS
330
47
102
}
330
47
100
AcDbScale
 70
     0
300
1:50
140
1.0
141
50.0
290
     0
  0
SCALE
  5
53
102
{ACAD_REACTORS
330
47
102
}
330
47
100
AcDbScale
 70
     0
300
1:100
140
1.0
141
100.0
290
     0
  0
SCALE
  5
54
102
{ACAD_REACTORS
330
47
102
}
330
47
100
AcDbScale
 70
     0
300
2:1
140
2.0
141
1.0
290
     0
  0
SCALE
  5
55
102
{ACAD_REACTORS
330
47
102
}
330
47
100
AcDbScale
 70
     0
300
4:1
140
4.0
141
1.0
290
     0
  0
SCALE
  5
56
102
{ACAD_REACTORS
330
47
102
}
330
47
100
AcDbScale
 70
     0
300
8:1
140
8.0
141
1.0
290
     0
  0
SCALE
  5
57
102
{ACAD_REACTORS
330
47
102
}
330
47
100
AcDbScale
 70
     0
300
10:1
140
10.0
141
1.0
290
     0
  0
SCALE
  5
58
102
{ACAD_REACTORS
330
47
102
}
330
47
100
AcDbScale
 70
     0
300
100:1
140
100.0
141
1.0
290
     0
  0
SCALE
  5
59
102
{ACAD_REACTORS
330
47
102
}
330
47
100
AcDbScale
 70
     0
300
1/128" = 1'-0"
140
0.0078125
141
12.0
290
     0
  0
SCALE
  5
5A
102
{ACAD_REACTORS
330
47
102
}
330
47
100
AcDbScale
 70
     0
300
1/64" = 1'-0"
140
0.015625
141
12.0
290
     0
  0
SCALE
  5
5B
102
{ACAD_REACTORS
330
47
102
}
330
47
100
AcDbScale
 70
     0
300
1/32" = 1'-0"
140
0.03125
141
12.0
290
     0
  0
SCALE
  5
5C
102
{ACAD_REACTORS
330
47
102
}
330
47
100
AcDbScale
 70
     0
300
1/16" = 1'-0"
140
0.0625
141
12.0
290
     0
  0
SCALE
  5
5D
102
{ACAD_REACTORS
330
47
102
}
330
47
100
AcDbScale
 70
     0
300
3/32" = 1'-0"
140
0.09375
141
12.0
290
     0
  0
SCALE
  5
5E
102
{ACAD_REACTORS
330
47
102
}
330
47
100
AcDbScale
 70
     0
300
1/8" = 1'-0"
140
0.125
141
12.0
290
     0
  0
SCALE
  5
5F
102
{ACAD_REACTORS
330
47
102
}
330
47
100
AcDbScale
 70
     0
300
3/16" = 1'-0"
140
0.1875
141
12.0
290
     0
  0
SCALE
  5
60
102
{ACAD_REACTORS
330
47
102
}
330
47
100
AcDbScale
 70
     0
300
1/4" = 1'-0"
140
0.25
141
12.0
290
     0
  0
SCALE
  5
61
102
{ACAD_REACTORS
330
47
102
}
330
47
100
AcDbScale
 70
     0
300
3/8" = 1'-0"
140
0.375
141
12.0
290
     0
  0
SCALE
  5
62
102
{ACAD_REACTORS
330
47
102
}
330
47
100
AcDbScale
 70
     0
300
1/2" = 1'-0"
140
0.5
141
12.0
290
     0
  0
SCALE
  5
63
102
{ACAD_REACTORS
330
47
102
}
330
47
100
AcDbScale
 70
     0
300
3/4" = 1'-0"
140
0.75
141
12.0
290
     0
  0
SCALE
  5
64
102
{ACAD_REACTORS
330
47
102
}
330
47
100
AcDbScale
 70
     0
300
1" = 1'-0"
140
1.0
141
12.0
290
     0
  0
SCALE
  5
65
102
{ACAD_REACTORS
330
47
102
}
330
47
100
AcDbScale
 70
     0
300
1-1/2" = 1'-0"
140
1.5
141
12.0
290
     0
  0
SCALE
  5
66
102
{ACAD_REACTORS
330
47
102
}
330
47
100
AcDbScale
 70
     0
300
3" = 1'-0"
140
3.0
141
12.0
290
     0
  0
SCALE
  5
67
102
{ACAD_REACTORS
330
47
102
}
330
47
100
AcDbScale
 70
     0
300
6" = 1'-0"
140
6.0
141
12.0
290
     0
  0
SCALE
  5
68
102
{ACAD_REACTORS
330
47
102
}
330
47
100
AcDbScale
 70
     0
300
1'-0" = 1'-0"
140
12.0
141
12.0
290
     0
  0
ENDSEC
  0
EOF
