  0
SECTION
  2
HEADER
  9
$ACADVER
  1
AC1015
  9
$ACADMAINTVER
 70
     6
  9
$DWGCODEPAGE
  3
ANSI_949
  9
$INSBASE
 10
0.0
 20
0.0
 30
0.0
  9
$EXTMIN
 10
-99.40000000000003
 20
-49.97073246008785
 30
0.0
  9
$EXTMAX
 10
50.16260803727323
 20
62.43146785205444
 30
0.0
  9
$LIMMIN
 10
0.0
 20
0.0
  9
$LIMMAX
 10
420.0
 20
297.0
  9
$ORTHOMODE
 70
     1
  9
$REGENMODE
 70
     1
  9
$FILLMODE
 70
     1
  9
$QTEXTMODE
 70
     0
  9
$MIRRTEXT
 70
     1
  9
$LTSCALE
 40
1.0
  9
$ATTMODE
 70
     1
  9
$TEXTSIZE
 40
3.5
  9
$TRACEWID
 40
1.0
  9
$TEXTSTYLE
  7
Standard
  9
$CLAYER
  8
0
  9
$CELTYPE
  6
ByLayer
  9
$CECOLOR
 62
   256
  9
$CELTSCALE
 40
1.0
  9
$DISPSILH
 70
     0
  9
$DIMSCALE
 40
1.0
  9
$DIMASZ
 40
3.302
  9
$DIMEXO
 40
1.0
  9
$DIMDLI
 40
3.75
  9
$DIMRND
 40
0.0
  9
$DIMDLE
 40
0.0
  9
$DIMEXE
 40
1.0
  9
$DIMTP
 40
0.0
  9
$DIMTM
 40
0.0
  9
$DIMTXT
 40
3.5
  9
$DIMCEN
 40
2.5
  9
$DIMTSZ
 40
0.0
  9
$DIMTOL
 70
     0
  9
$DIMLIM
 70
     0
  9
$DIMTIH
 70
     1
  9
$DIMTOH
 70
     1
  9
$DIMSE1
 70
     0
  9
$DIMSE2
 70
     0
  9
$DIMTAD
 70
     1
  9
$DIMZIN
 70
     0
  9
$DIMBLK
  1

  9
$DIMASO
 70
     1
  9
$DIMSHO
 70
     1
  9
$DIMPOST
  1

  9
$DIMAPOST
  1

  9
$DIMALT
 70
     0
  9
$DIMALTD
 70
     3
  9
$DIMALTF
 40
0.0393700787401575
  9
$DIMLFAC
 40
1.0
  9
$DIMTOFL
 70
     1
  9
$DIMTVP
 40
0.0
  9
$DIMTIX
 70
     0
  9
$DIMSOXD
 70
     0
  9
$DIMSAH
 70
     0
  9
$DIMBLK1
  1

  9
$DIMBLK2
  1

  9
$DIMSTYLE
  2
ISO-25
  9
$DIMCLRD
 70
     0
  9
$DIMCLRE
 70
     0
  9
$DIMCLRT
 70
     0
  9
$DIMTFAC
 40
1.0
  9
$DIMGAP
 40
1.524
  9
$DIMJUST
 70
     0
  9
$DIMSD1
 70
     0
  9
$DIMSD2
 70
     0
  9
$DIMTOLJ
 70
     0
  9
$DIMTZIN
 70
     0
  9
$DIMALTZ
 70
     0
  9
$DIMALTTZ
 70
     0
  9
$DIMUPT
 70
     0
  9
$DIMDEC
 70
     2
  9
$DIMTDEC
 70
     2
  9
$DIMALTU
 70
     2
  9
$DIMALTTD
 70
     3
  9
$DIMTXSTY
  7
Standard
  9
$DIMAUNIT
 70
     0
  9
$DIMADEC
 70
     2
  9
$DIMALTRND
 40
0.0
  9
$DIMAZIN
 70
     0
  9
$DIMDSEP
 70
    44
  9
$DIMATFIT
 70
     3
  9
$DIMFRAC
 70
     0
  9
$DIMLDRBLK
  1

  9
$DIMLUNIT
 70
     2
  9
$DIMLWD
 70
    -2
  9
$DIMLWE
 70
    -2
  9
$DIMTMOVE
 70
     0
  9
$LUNITS
 70
     2
  9
$LUPREC
 70
     2
  9
$SKETCHINC
 40
1.0
  9
$FILLETRAD
 40
10.0
  9
$AUNITS
 70
     0
  9
$AUPREC
 70
     2
  9
$MENU
  1
.
  9
$ELEVATION
 40
0.0
  9
$PELEVATION
 40
0.0
  9
$THICKNESS
 40
0.0
  9
$LIMCHECK
 70
     0
  9
$CHAMFERA
 40
0.0
  9
$CHAMFERB
 40
0.0
  9
$CHAMFERC
 40
0.0
  9
$CHAMFERD
 40
0.0
  9
$SKPOLY
 70
     0
  9
$TDCREATE
 40
2458272.688284352
  9
$TDUCREATE
 40
2458272.313284352
  9
$TDUPDATE
 40
2458297.658807592
  9
$TDUUPDATE
 40
2458297.283807592
  9
$TDINDWG
 40
0.0027286343
  9
$TDUSRTIMER
 40
2458297.283647801
  9
$USRTIMER
 70
     1
  9
$ANGBASE
 50
0.0
  9
$ANGDIR
 70
     0
  9
$PDMODE
 70
     0
  9
$PDSIZE
 40
-1.0
  9
$PLINEWID
 40
0.0
  9
$SPLFRAME
 70
     0
  9
$SPLINETYPE
 70
     6
  9
$SPLINESEGS
 70
     8
  9
$HANDSEED
  5
1A2
  9
$SURFTAB1
 70
     6
  9
$SURFTAB2
 70
     6
  9
$SURFTYPE
 70
     6
  9
$SURFU
 70
     6
  9
$SURFV
 70
     6
  9
$UCSBASE
  2

  9
$UCSNAME
  2

  9
$UCSORG
 10
0.0
 20
0.0
 30
0.0
  9
$UCSXDIR
 10
1.0
 20
0.0
 30
0.0
  9
$UCSYDIR
 10
0.0
 20
1.0
 30
0.0
  9
$UCSORTHOREF
  2

  9
$UCSORTHOVIEW
 70
     0
  9
$UCSORGTOP
 10
0.0
 20
0.0
 30
0.0
  9
$UCSORGBOTTOM
 10
0.0
 20
0.0
 30
0.0
  9
$UCSORGLEFT
 10
0.0
 20
0.0
 30
0.0
  9
$UCSORGRIGHT
 10
0.0
 20
0.0
 30
0.0
  9
$UCSORGFRONT
 10
0.0
 20
0.0
 30
0.0
  9
$UCSORGBACK
 10
0.0
 20
0.0
 30
0.0
  9
$PUCSBASE
  2

  9
$PUCSNAME
  2

  9
$PUCSORG
 10
0.0
 20
0.0
 30
0.0
  9
$PUCSXDIR
 10
1.0
 20
0.0
 30
0.0
  9
$PUCSYDIR
 10
0.0
 20
1.0
 30
0.0
  9
$PUCSORTHOREF
  2

  9
$PUCSORTHOVIEW
 70
     0
  9
$PUCSORGTOP
 10
0.0
 20
0.0
 30
0.0
  9
$PUCSORGBOTTOM
 10
0.0
 20
0.0
 30
0.0
  9
$PUCSORGLEFT
 10
0.0
 20
0.0
 30
0.0
  9
$PUCSORGRIGHT
 10
0.0
 20
0.0
 30
0.0
  9
$PUCSORGFRONT
 10
0.0
 20
0.0
 30
0.0
  9
$PUCSORGBACK
 10
0.0
 20
0.0
 30
0.0
  9
$USERI1
 70
     0
  9
$USERI2
 70
     0
  9
$USERI3
 70
     0
  9
$USERI4
 70
     0
  9
$USERI5
 70
     0
  9
$USERR1
 40
0.0
  9
$USERR2
 40
0.0
  9
$USERR3
 40
0.0
  9
$USERR4
 40
0.0
  9
$USERR5
 40
0.0
  9
$WORLDVIEW
 70
     1
  9
$SHADEDGE
 70
     3
  9
$SHADEDIF
 70
    70
  9
$TILEMODE
 70
     1
  9
$MAXACTVP
 70
    64
  9
$PINSBASE
 10
0.0
 20
0.0
 30
0.0
  9
$PLIMCHECK
 70
     0
  9
$PEXTMIN
 10
1.000000000000000E+20
 20
1.000000000000000E+20
 30
1.000000000000000E+20
  9
$PEXTMAX
 10
-1.000000000000000E+20
 20
-1.000000000000000E+20
 30
-1.000000000000000E+20
  9
$PLIMMIN
 10
0.0
 20
0.0
  9
$PLIMMAX
 10
0.0
 20
0.0
  9
$UNITMODE
 70
     0
  9
$VISRETAIN
 70
     1
  9
$PLINEGEN
 70
     0
  9
$PSLTSCALE
 70
     1
  9
$TREEDEPTH
 70
  3020
  9
$CMLSTYLE
  2
Standard
  9
$CMLJUST
 70
     0
  9
$CMLSCALE
 40
20.0
  9
$PROXYGRAPHICS
 70
     1
  9
$MEASUREMENT
 70
     1
  9
$CELWEIGHT
370
    -1
  9
$ENDCAPS
280
     0
  9
$JOINSTYLE
280
     0
  9
$LWDISPLAY
290
     1
  9
$INSUNITS
 70
     4
  9
$HYPERLINKBASE
  1

  9
$STYLESHEET
  1

  9
$XEDIT
290
     1
  9
$CEPSNTYPE
380
     0
  9
$PSTYLEMODE
290
     1
  9
$FINGERPRINTGUID
  2
{34699C31-CAE6-4611-8B1F-DBE73027DC11}
  9
$VERSIONGUID
  2
{FAEB1C32-E019-11D5-929B-00C0DF256EC4}
  9
$EXTNAMES
290
     1
  9
$PSVPSCALE
 40
0.0
  9
$OLESTARTUP
290
     0
  0
ENDSEC
  0
SECTION
  2
CLASSES
  0
CLASS
  1
ACDBDICTIONARYWDFLT
  2
AcDbDictionaryWithDefault
  3
ObjectDBX Classes
 90
        0
280
     0
281
     0
  0
CLASS
  1
VISUALSTYLE
  2
AcDbVisualStyle
  3
ObjectDBX Classes
 90
     4095
280
     0
281
     0
  0
CLASS
  1
MATERIAL
  2
AcDbMaterial
  3
ObjectDBX Classes
 90
     1153
280
     0
281
     0
  0
CLASS
  1
SCALE
  2
AcDbScale
  3
ObjectDBX Classes
 90
     1153
280
     0
281
     0
  0
CLASS
  1
SUN
  2
AcDbSun
  3
SCENEOE
 90
     1153
280
     0
281
     0
  0
CLASS
  1
ACDBPLACEHOLDER
  2
AcDbPlaceHolder
  3
ObjectDBX Classes
 90
        0
280
     0
281
     0
  0
CLASS
  1
LAYOUT
  2
AcDbLayout
  3
ObjectDBX Classes
 90
        0
280
     0
281
     0
  0
CLASS
  1
TABLESTYLE
  2
AcDbTableStyle
  3
ObjectDBX Classes
 90
     4095
280
     0
281
     0
  0
CLASS
  1
MLEADERSTYLE
  2
AcDbMLeaderStyle
  3
ACDB_MLEADERSTYLE_CLASS
 90
     4095
280
     0
281
     0
  0
CLASS
  1
RASTERVARIABLES
  2
AcDbRasterVariables
  3
ISM
 90
        0
280
     0
281
     0
  0
CLASS
  1
DIMASSOC
  2
AcDbDimAssoc
  3
"AcDbDimAssoc|Product Desc:     AcDim ARX App For Dimension|Company:          Autodesk, Inc.|WEB Address:      www.autodesk.com"
 90
        0
280
     0
281
     0
  0
CLASS
  1
DICTIONARYVAR
  2
AcDbDictionaryVar
  3
ObjectDBX Classes
 90
        0
280
     0
281
     0
  0
ENDSEC
  0
SECTION
  2
TABLES
  0
TABLE
  2
VPORT
  5
8
330
0
100
AcDbSymbolTable
 70
     1
  0
VPORT
  5
29
330
8
100
AcDbSymbolTableRecord
100
AcDbViewportTableRecord
  2
*Active
 70
     0
 10
0.0
 20
0.0
 11
1.0
 21
1.0
 12
-29.44771442412147
 22
12.96762729757319
 13
0.0
 23
0.0
 14
10.0
 24
10.0
 15
10.0
 25
10.0
 16
0.0
 26
0.0
 36
1.0
 17
0.0
 27
0.0
 37
0.0
 40
143.3128053979814
 41
2.22554347826087
 42
50.0
 43
0.0
 44
0.0
 50
0.0
 51
0.0
 71
    16
 72
  2000
 73
     1
 74
     3
 75
     0
 76
     0
 77
     0
 78
     0
281
     0
 65
     1
110
0.0
120
0.0
130
0.0
111
1.0
121
0.0
131
0.0
112
0.0
122
1.0
132
0.0
 79
     0
146
0.0
  0
ENDTAB
  0
TABLE
  2
LTYPE
  5
5
330
0
100
AcDbSymbolTable
 70
     6
  0
LTYPE
  5
14
330
5
100
AcDbSymbolTableRecord
100
AcDbLinetypeTableRecord
  2
ByBlock
 70
     0
  3

 72
    65
 73
     0
 40
0.0
  0
LTYPE
  5
15
330
5
100
AcDbSymbolTableRecord
100
AcDbLinetypeTableRecord
  2
ByLayer
 70
     0
  3

 72
    65
 73
     0
 40
0.0
  0
LTYPE
  5
16
330
5
100
AcDbSymbolTableRecord
100
AcDbLinetypeTableRecord
  2
Continuous
 70
     0
  3
Solid line
 72
    65
 73
     0
 40
0.0
  0
LTYPE
  5
6A
330
5
100
AcDbSymbolTableRecord
100
AcDbLinetypeTableRecord
  2
HIDDEN
 70
     0
  3
Hidden __ __ __ __ __ __ __ __ __ __ __ __ __ __
 72
    65
 73
     2
 40
1.905
 49
1.27
 74
     0
 49
-0.635
 74
     0
  0
LTYPE
  5
6B
330
5
100
AcDbSymbolTableRecord
100
AcDbLinetypeTableRecord
  2
PHANTOM
 70
     0
  3
Phantom ______  __  __  ______  __  __  ______
 72
    65
 73
     6
 40
12.7
 49
6.35
 74
     0
 49
-1.27
 74
     0
 49
1.27
 74
     0
 49
-1.27
 74
     0
 49
1.27
 74
     0
 49
-1.27
 74
     0
  0
LTYPE
  5
6C
330
5
100
AcDbSymbolTableRecord
100
AcDbLinetypeTableRecord
  2
CENTER
 70
     0
  3
Center ____ _ ____ _ ____ _ ____ _ ____ _ ____
 72
    65
 73
     4
 40
10.16
 49
6.35
 74
     0
 49
-1.27
 74
     0
 49
1.27
 74
     0
 49
-1.27
 74
     0
  0
LTYPE
  5
6D
330
5
100
AcDbSymbolTableRecord
100
AcDbLinetypeTableRecord
  2
CENTERX2
 70
     0
  3
Center (2x) ________  __  ________  __  _____
 72
    65
 73
     4
 40
20.32
 49
12.7
 74
     0
 49
-2.54
 74
     0
 49
2.54
 74
     0
 49
-2.54
 74
     0
  0
LTYPE
  5
6E
330
5
100
AcDbSymbolTableRecord
100
AcDbLinetypeTableRecord
  2
DOT2
 70
     0
  3
Dot (.5x) ........................................
 72
    65
 73
     2
 40
0.635
 49
0.0
 74
     0
 49
-0.635
 74
     0
  0
ENDTAB
  0
TABLE
  2
LAYER
  5
2
330
0
100
AcDbSymbolTable
 70
    17
  0
LAYER
  5
10
330
2
100
AcDbSymbolTableRecord
100
AcDbLayerTableRecord
  2
0
 70
     0
 62
     7
  6
Continuous
370
    -3
390
F
  0
LAYER
  5
6F
330
2
100
AcDbSymbolTableRecord
100
AcDbLayerTableRecord
  2
FORMAT
 70
     0
 62
     2
  6
Continuous
370
    -3
390
F
  0
LAYER
  5
70
330
2
100
AcDbSymbolTableRecord
100
AcDbLayerTableRecord
  2
외형선
 70
     0
 62
   100
  6
Continuous
370
    30
390
F
  0
LAYER
  5
71
330
2
100
AcDbSymbolTableRecord
100
AcDbLayerTableRecord
  2
숨은선
 70
     0
 62
     2
  6
HIDDEN
370
    15
390
F
  0
LAYER
  5
72
330
2
100
AcDbSymbolTableRecord
100
AcDbLayerTableRecord
  2
중심선
 70
     0
 62
     1
  6
CENTERX2
370
    -3
390
F
  0
LAYER
  5
73
330
2
100
AcDbSymbolTableRecord
100
AcDbLayerTableRecord
  2
파단선
 70
     0
 62
     4
  6
Continuous
370
    -3
390
F
  0
LAYER
  5
74
330
2
100
AcDbSymbolTableRecord
100
AcDbLayerTableRecord
  2
해칭선
 70
     0
 62
     4
  6
Continuous
370
    -3
390
F
  0
LAYER
  5
75
330
2
100
AcDbSymbolTableRecord
100
AcDbLayerTableRecord
  2
가는실선
 70
     0
 62
     4
  6
Continuous
370
    -3
390
F
  0
LAYER
  5
76
330
2
100
AcDbSymbolTableRecord
100
AcDbLayerTableRecord
  2
치수_보조선
 70
     0
 62
     4
  6
Continuous
370
    -3
390
F
  0
LAYER
  5
77
330
2
100
AcDbSymbolTableRecord
100
AcDbLayerTableRecord
  2
치수문자_일반주서
 70
     0
 62
     7
  6
Continuous
370
    15
390
F
  0
LAYER
  5
78
330
2
100
AcDbSymbolTableRecord
100
AcDbLayerTableRecord
  2
개별주서
 70
     0
 62
   100
  6
Continuous
370
    30
390
F
  0
LAYER
  5
79
330
2
100
AcDbSymbolTableRecord
100
AcDbLayerTableRecord
  2
중간선
 70
     0
 62
     2
  6
Continuous
370
    15
390
F
  0
LAYER
  5
7A
330
2
100
AcDbSymbolTableRecord
100
AcDbLayerTableRecord
  2
윤곽선
 70
     0
 62
     3
  6
Continuous
370
    40
390
F
  0
LAYER
  5
7B
330
2
100
AcDbSymbolTableRecord
100
AcDbLayerTableRecord
  2
중심마크
 70
     0
 62
   100
  6
Continuous
370
    30
390
F
  0
LAYER
  5
7C
330
2
100
AcDbSymbolTableRecord
100
AcDbLayerTableRecord
  2
가상선
 70
     0
 62
     4
  6
PHANTOM
370
    -3
390
F
  0
LAYER
  5
7D
330
2
100
AcDbSymbolTableRecord
100
AcDbLayerTableRecord
  2
특수지정선
 70
     0
 62
     5
  6
CENTERX2
370
    60
390
F
  0
LAYER
  5
127
330
2
100
AcDbSymbolTableRecord
100
AcDbLayerTableRecord
  2
Defpoints
 70
     0
 62
     7
  6
Continuous
290
     0
370
    -3
390
F
  0
ENDTAB
  0
TABLE
  2
STYLE
  5
3
330
0
100
AcDbSymbolTable
 70
     2
  0
STYLE
  5
11
330
3
100
AcDbSymbolTableRecord
100
AcDbTextStyleTableRecord
  2
Standard
 70
     0
 40
0.0
 41
1.0
 50
0.0
 71
     0
 42
3.5
  3
txt
  4

  0
STYLE
  5
93
330
3
100
AcDbSymbolTableRecord
100
AcDbTextStyleTableRecord
  2
SLDTEXTSTYLE0
 70
     0
 40
0.0
 41
0.75
 50
0.0
 71
     0
 42
3.5
  3
TXT
  4

  0
ENDTAB
  0
TABLE
  2
VIEW
  5
6
330
0
100
AcDbSymbolTable
 70
     0
  0
ENDTAB
  0
TABLE
  2
UCS
  5
7
330
0
100
AcDbSymbolTable
 70
     0
  0
ENDTAB
  0
TABLE
  2
APPID
  5
9
330
0
100
AcDbSymbolTable
 70
     2
  0
APPID
  5
12
330
9
100
AcDbSymbolTableRecord
100
AcDbRegAppTableRecord
  2
ACAD
 70
     0
  0
APPID
  5
1A0
330
9
100
AcDbSymbolTableRecord
100
AcDbRegAppTableRecord
  2
PE_DIMMEASUREMENT
 70
     0
  0
ENDTAB
  0
TABLE
  2
DIMSTYLE
  5
A
330
0
100
AcDbSymbolTable
 70
     3
100
AcDbDimStyleTable
  0
DIMSTYLE
105
27
330
A
100
AcDbSymbolTableRecord
100
AcDbDimStyleTableRecord
  2
ISO-25
 70
     0
 41
2.5
 42
0.625
 43
3.75
 44
1.25
 73
     0
 74
     0
 77
     1
 78
     8
140
2.5
141
2.5
143
0.03937007874016
147
0.625
171
     3
172
     1
178
     0
271
     2
272
     2
274
     3
278
    44
283
     0
284
     8
340
11
  0
DIMSTYLE
105
DC
102
{ACAD_REACTORS
330
DB
330
145
330
156
330
165
330
133
102
}
330
A
100
AcDbSymbolTableRecord
100
AcDbDimStyleTableRecord
  2
SLDDIMSTYLE0
 70
     0
 41
3.302
 44
0.0
 45
0.000000001
 73
     0
 74
     0
 77
     1
 78
    12
 79
     3
140
3.5
143
0.0393700787401575
147
0.875
148
0.000000001
170
     1
172
     1
173
     1
178
     0
271
     2
272
     2
276
     2
284
    12
289
     0
340
93
  0
DIMSTYLE
105
F1
330
A
100
AcDbSymbolTableRecord
100
AcDbDimStyleTableRecord
  2
SLDDIMSTYLE1
 70
     0
 41
3.302
 44
0.0
 73
     0
 74
     0
 77
     1
 78
     4
 79
     1
140
3.5
147
0.875
173
     1
178
     0
179
     2
272
     2
276
     2
284
    12
340
93
  0
ENDTAB
  0
TABLE
  2
BLOCK_RECORD
  5
1
330
0
100
AcDbSymbolTable
 70
     9
  0
BLOCK_RECORD
  5
1F
330
1
100
AcDbSymbolTableRecord
100
AcDbBlockTableRecord
  2
*Model_Space
340
22
  0
BLOCK_RECORD
  5
1B
330
1
100
AcDbSymbolTableRecord
100
AcDbBlockTableRecord
  2
*Paper_Space
340
1E
  0
BLOCK_RECORD
  5
23
330
1
100
AcDbSymbolTableRecord
100
AcDbBlockTableRecord
  2
*Paper_Space0
340
26
  0
BLOCK_RECORD
  5
7E
330
1
100
AcDbSymbolTableRecord
100
AcDbBlockTableRecord
  2
블럭10
340
0
102
{BLKREFS
331
D4
102
}
  0
BLOCK_RECORD
  5
DD
330
1
100
AcDbSymbolTableRecord
100
AcDbBlockTableRecord
  2
_D
340
0
  0
BLOCK_RECORD
  5
F2
330
1
100
AcDbSymbolTableRecord
100
AcDbBlockTableRecord
  2
_D_1
340
0
  0
BLOCK_RECORD
  5
FC
330
1
100
AcDbSymbolTableRecord
100
AcDbBlockTableRecord
  2
SW_DOWELSYMBOL_0
340
0
102
{BLKREFS
331
102
102
}
  0
BLOCK_RECORD
  5
136
330
1
100
AcDbSymbolTableRecord
100
AcDbBlockTableRecord
  2
*D5
340
0
  0
BLOCK_RECORD
  5
148
330
1
100
AcDbSymbolTableRecord
100
AcDbBlockTableRecord
  2
*D6
340
0
  0
BLOCK_RECORD
  5
159
330
1
100
AcDbSymbolTableRecord
100
AcDbBlockTableRecord
  2
*D7
340
0
  0
BLOCK_RECORD
  5
168
330
1
100
AcDbSymbolTableRecord
100
AcDbBlockTableRecord
  2
*D8
340
0
  0
ENDTAB
  0
ENDSEC
  0
SECTION
  2
BLOCKS
  0
BLOCK
  5
20
330
1F
100
AcDbEntity
  8
0
100
AcDbBlockBegin
  2
*Model_Space
 70
     0
 10
0.0
 20
0.0
 30
0.0
  3
*Model_Space
  1
*Model_Space
  0
ENDBLK
  5
21
330
1F
100
AcDbEntity
  8
0
100
AcDbBlockEnd
  0
BLOCK
  5
1C
330
1B
100
AcDbEntity
 67
     1
  8
0
100
AcDbBlockBegin
  2
*Paper_Space
 70
     0
 10
0.0
 20
0.0
 30
0.0
  3
*Paper_Space
  1
*Paper_Space
  0
ENDBLK
  5
1D
330
1B
100
AcDbEntity
 67
     1
  8
0
100
AcDbBlockEnd
  0
BLOCK
  5
24
330
23
100
AcDbEntity
  8
0
100
AcDbBlockBegin
  2
*Paper_Space0
 70
     0
 10
0.0
 20
0.0
 30
0.0
  3
*Paper_Space0
  1
*Paper_Space0
  0
ENDBLK
  5
25
330
23
100
AcDbEntity
  8
0
100
AcDbBlockEnd
  0
BLOCK
  5
7F
330
7E
100
AcDbEntity
  8
0
100
AcDbBlockBegin
  2
블럭10
 70
     2
 10
0.0
 20
0.0
 30
0.0
  3
블럭10
  1
블럭10
  0
ELLIPSE
  5
81
330
7E
100
AcDbEntity
  8
중심선
100
AcDbEllipse
 10
20.54032771741204
 20
12.0471743016438
 30
0.0
 11
6.600054785286829
 21
-1.261213355974178E-13
 31
0.0
210
0.0
220
0.0
230
1.0
 40
0.636358354079598
 41
0.9219305317359503
 42
6.513795318482858
  0
ELLIPSE
  5
82
330
7E
100
AcDbEntity
  8
중심선
100
AcDbEllipse
 10
20.54032771746488
 20
12.04717430159265
 30
0.0
 11
3.960054785062283
 21
1.540847449632565E-10
 31
0.0
210
0.0
220
0.0
230
1.0
 40
0.3939339440162632
 41
1.131841032648279
 42
5.62031148352944
  0
LINE
  5
83
330
7E
100
AcDbEntity
  8
중심선
100
AcDbLine
 10
2.268634060543552
 20
16.24717430164393
 30
0.0
 11
5.714909304380834
 21
16.24717430164393
 31
0.0
  0
LINE
  5
84
330
7E
100
AcDbEntity
  8
중심선
100
AcDbLine
 10
5.245725140726316
 20
7.84717430164391
 30
0.0
 11
8.692000384563599
 21
7.84717430164391
 31
0.0
  0
LINE
  5
85
330
7E
100
AcDbEntity
  8
중심선
100
AcDbLine
 10
15.74043728645272
 20
16.24717430164393
 30
0.0
 11
8.692000384563599
 21
7.84717430164391
 31
0.0
  0
LINE
  5
86
330
7E
100
AcDbEntity
  8
중심선
100
AcDbLine
 10
0.1404042013395286
 20
13.71084872107135
 30
0.0
 11
3.58671253028996
 21
13.71088815037384
 31
0.0
  0
LINE
  5
87
330
7E
100
AcDbEntity
  8
중심선
100
AcDbLine
 10
2.750260043222114
 20
10.84717430164391
 30
0.0
 11
6.196535287059397
 21
10.84717430164391
 31
0.0
  0
LINE
  5
88
330
7E
100
AcDbEntity
  8
중심선
100
AcDbLine
 10
12.29416204261559
 20
16.24717430164393
 30
0.0
 11
5.245725140726316
 21
7.84717430164391
 31
0.0
  0
LINE
  5
89
330
7E
100
AcDbEntity
  8
중심선
100
AcDbLine
 10
10.72767329541681
 20
16.24717430164393
 30
0.0
 11
6.196535287059397
 21
10.84717430164391
 31
0.0
  0
LINE
  5
8A
330
7E
100
AcDbEntity
  8
중심선
100
AcDbLine
 10
7.28139805157953
 20
16.24717430164393
 30
0.0
 11
2.750260043222114
 21
10.84717430164391
 31
0.0
  0
LINE
  5
8B
330
7E
100
AcDbEntity
  8
중심선
100
AcDbLine
 10
5.714909304380834
 20
16.24717430164393
 30
0.0
 11
3.58671253028996
 21
13.71088815037384
 31
0.0
  0
LINE
  5
8C
330
7E
100
AcDbEntity
  8
중심선
100
AcDbLine
 10
2.268634060543552
 20
16.24717430164393
 30
0.0
 11
0.1404042013395286
 21
13.71084872107135
 31
0.0
  0
LINE
  5
8D
330
7E
100
AcDbEntity
  8
중심선
100
AcDbLine
 10
7.28139805157953
 20
16.24717430164393
 30
0.0
 11
10.72767329541681
 21
16.24717430164393
 31
0.0
  0
LINE
  5
8E
330
7E
100
AcDbEntity
  8
중심선
100
AcDbLine
 10
12.29416204261559
 20
16.24717430164393
 30
0.0
 11
15.74043728645272
 21
16.24717430164393
 31
0.0
  0
LINE
  5
8F
330
7E
100
AcDbEntity
  8
중심선
100
AcDbLine
 10
19.22036997980202
 20
11.08717430171403
 30
0.0
 11
23.66174974927406
 21
11.08717430171406
 31
0.0
  0
LINE
  5
90
330
7E
100
AcDbEntity
  8
중심선
100
AcDbLine
 10
19.22039502424796
 20
13.00717430171391
 30
0.0
 11
19.22036997980202
 21
11.08717430171403
 31
0.0
  0
LINE
  5
91
330
7E
100
AcDbEntity
  8
중심선
100
AcDbLine
 10
19.22039502424796
 20
13.00717430171391
 30
0.0
 11
26.96566020931264
 21
13.00717430171391
 31
0.0
  0
LINE
  5
92
330
7E
100
AcDbEntity
  8
중심선
100
AcDbLine
 10
22.22332737316547
 20
13.45928029700563
 30
0.0
 11
24.52862924686651
 21
15.39360700705356
 31
0.0
  0
ATTDEF
  5
94
330
7E
100
AcDbEntity
  8
FORMAT
 62
     2
100
AcDbText
 10
-10.14163601213663
 20
2.075366912832191
 30
0.0
 40
4.233333333333333
  1
EM097016 [ 4 FLUTE ]
 41
0.75
  7
SLDTEXTSTYLE0
 11
-10.14163601213663
 21
-0.0412997538344756
 31
0.0
100
AcDbAttributeDefinition
  3

  2
AUTOATTR0
 70
     0
 74
     1
  0
ENDBLK
  5
80
330
7E
100
AcDbEntity
  8
0
100
AcDbBlockEnd
  0
BLOCK
  5
DE
330
DD
100
AcDbEntity
  8
0
100
AcDbBlockBegin
  2
_D
 70
     0
 10
0.0
 20
0.0
 30
0.0
  3
_D
  1
_D
  0
LINE
  5
E0
330
DD
100
AcDbEntity
  8
치수문자_일반주서
 62
     0
370
    -2
100
AcDbLine
 10
-72.27749999999997
 20
3.174999999999995
 30
0.0
 11
-95.02500000000002
 21
3.17499999999991
 31
0.0
  0
LINE
  5
E1
330
DD
100
AcDbEntity
  8
치수문자_일반주서
 62
     0
370
    -2
100
AcDbLine
 10
-72.27749999999997
 20
-3.174999999999996
 30
0.0
 11
-95.02499999999999
 21
-3.175000000000082
 31
0.0
  0
LINE
  5
E2
330
DD
100
AcDbEntity
  8
치수문자_일반주서
 62
     0
370
    -2
100
AcDbLine
 10
-95.025
 20
-0.1270000000000895
 30
0.0
 11
-95.025
 21
0.1269999999999181
 31
0.0
  0
SOLID
  5
E3
330
DD
100
AcDbEntity
  8
치수문자_일반주서
 62
     0
100
AcDbTrace
 10
-94.47466666666668
 20
-0.127000000000087
 30
0.0
 11
-95.57533333333333
 21
-0.127000000000092
 31
0.0
 12
-95.02500000000002
 22
3.17499999999991
 32
0.0
 13
-95.02500000000002
 23
3.17499999999991
 33
0.0
  0
SOLID
  5
E4
330
DD
100
AcDbEntity
  8
치수문자_일반주서
 62
     0
100
AcDbTrace
 10
-95.57533333333333
 20
0.1269999999999156
 30
0.0
 11
-94.47466666666668
 21
0.1269999999999205
 31
0.0
 12
-95.02499999999999
 22
-3.175000000000082
 32
0.0
 13
-95.02499999999999
 23
-3.175000000000082
 33
0.0
  0
MTEXT
  5
E5
330
DD
100
AcDbEntity
  8
치수문자_일반주서
 62
     0
100
AcDbMText
 10
-99.39999999999999
 20
-1.800554803895979
 30
0.0
 40
3.5
 41
0.0
 71
     2
 72
     1
  1
\A1;%%c6.35 [1/4]
  7
SLDTEXTSTYLE0
 11
-4.475859752819535E-15
 21
1.0
 31
0.0
 73
     1
 44
1.0
  0
POINT
  5
E6
330
DD
100
AcDbEntity
  8
Defpoints
 62
     0
100
AcDbPoint
 10
-72.21499999999997
 20
3.174999999999995
 30
0.0
  0
POINT
  5
E7
330
DD
100
AcDbEntity
  8
Defpoints
 62
     0
100
AcDbPoint
 10
-72.21499999999997
 20
-3.174999999999996
 30
0.0
  0
POINT
  5
E8
330
DD
100
AcDbEntity
  8
Defpoints
 62
     0
100
AcDbPoint
 10
-95.02499999999999
 20
-3.175000000000081
 30
0.0
  0
ENDBLK
  5
DF
330
DD
100
AcDbEntity
  8
0
100
AcDbBlockEnd
  0
BLOCK
  5
F3
330
F2
100
AcDbEntity
  8
0
100
AcDbBlockBegin
  2
_D_1
 70
     0
 10
0.0
 20
0.0
 30
0.0
  3
_D_1
  1
_D_1
  0
ARC
  5
F5
330
F2
100
AcDbEntity
  8
치수문자_일반주서
100
AcDbCircle
 10
-6.967021226928137
 20
3.176074928723889
 30
0.0
 40
28.25547184791947
100
AcDbArc
 50
178.4000000000004
 51
180.0
  0
ARC
  5
F6
330
F2
100
AcDbEntity
  8
치수문자_일반주서
100
AcDbCircle
 10
-6.967021226928137
 20
3.176074928723889
 30
0.0
 40
28.25547184791947
100
AcDbArc
 50
165.5928792869709
 51
178.4000000000004
  0
ARC
  5
F7
330
F2
100
AcDbEntity
  8
치수문자_일반주서
100
AcDbCircle
 10
-6.967021226928137
 20
3.176074928723889
 30
0.0
 40
28.25547184791947
100
AcDbArc
 50
180.0
 51
192.8071207130303
  0
SOLID
  5
F8
330
F2
100
AcDbEntity
  8
치수문자_일반주서
100
AcDbTrace
 10
-35.21147669134642
 20
3.965014005625268
 30
0.0
 11
-34.42143146446874
 21
7.211103428220984
 31
0.0
 12
-35.43366852683867
 22
7.298465488434128
 32
0.0
 13
-35.43366852683867
 23
7.298465488434128
 33
0.0
  0
SOLID
  5
F9
330
F2
100
AcDbEntity
  8
치수문자_일반주서
100
AcDbTrace
 10
-35.22249307484761
 20
3.176074928723889
 30
0.0
 11
-35.53767370909056
 21
-0.1498729313301752
 31
0.0
 12
-34.52339201084342
 22
-0.0908082498284475
 32
0.0
 13
-34.52339201084342
 23
-0.0908082498284475
 33
0.0
  0
LINE
  5
FA
330
F2
100
AcDbEntity
  8
치수문자_일반주서
100
AcDbLine
 10
-7.966631341968485
 20
3.20399656744745
 30
0.0
 11
-36.21108680638677
 21
3.99293564434883
 31
0.0
  0
MTEXT
  5
FB
330
F2
100
AcDbEntity
  8
치수문자_일반주서
100
AcDbMText
 10
-39.82291681708198
 20
-1.720973152350372
 30
0.0
 40
3.5
 41
0.0
 71
     1
 72
     1
  1
1.60°
  7
SLDTEXTSTYLE0
 11
0.01712624063284911
 21
0.999853335185609
 31
0.0
 73
     1
 44
1.0
  0
ENDBLK
  5
F4
330
F2
100
AcDbEntity
  8
0
100
AcDbBlockEnd
  0
BLOCK
  5
FD
330
FC
100
AcDbEntity
  8
0
100
AcDbBlockBegin
  2
SW_DOWELSYMBOL_0
 70
     0
 10
0.0
 20
0.0
 30
0.0
  3
SW_DOWELSYMBOL_0
  1
SW_DOWELSYMBOL_0
  0
CIRCLE
  5
FF
330
FC
100
AcDbEntity
  8
외형선
 62
     0
100
AcDbCircle
 10
0.0
 20
0.0
 30
0.0
 40
3.000000000000004
  0
HATCH
  5
100
330
FC
100
AcDbEntity
  8
0
  6
Continuous
 62
     0
370
    30
100
AcDbHatch
 10
0.0
 20
0.0
 30
0.0
210
0.0
220
0.0
230
1.0
  2
SOLID
 70
     1
 71
     0
 91
        1
 92
        0
 93
        3
 72
     2
 10
0.0000000000000104
 20
0.0
 40
3.000000000000004
 50
0.0
 51
90.0
 73
     1
 72
     1
 10
0.0000000000000104
 20
3.000000000000004
 11
0.0000000000000104
 21
0.0
 72
     1
 10
0.0000000000000104
 20
0.0
 11
3.000000000000015
 21
0.0
 97
        0
 75
     0
 76
     1
 98
        1
 10
0.0
 20
0.0
  0
HATCH
  5
101
330
FC
100
AcDbEntity
  8
0
  6
Continuous
 62
     0
370
    30
100
AcDbHatch
 10
0.0
 20
0.0
 30
0.0
210
0.0
220
0.0
230
1.0
  2
SOLID
 70
     1
 71
     0
 91
        1
 92
        0
 93
        3
 72
     2
 10
0.0000000000000104
 20
0.0
 40
3.000000000000004
 50
180.0
 51
270.0000000000007
 73
     1
 72
     1
 10
0.0000000000000104
 20
-3.000000000000004
 11
0.0000000000000104
 21
0.0
 72
     1
 10
0.0000000000000104
 20
0.0
 11
-2.999999999999994
 21
0.0
 97
        0
 75
     0
 76
     1
 98
        1
 10
0.0
 20
0.0
  0
ENDBLK
  5
FE
330
FC
100
AcDbEntity
  8
0
100
AcDbBlockEnd
  0
BLOCK
  5
137
330
136
100
AcDbEntity
  8
0
100
AcDbBlockBegin
  2
*D5
 70
     1
 10
0.0
 20
0.0
 30
0.0
  3
*D5
  1
*D5
  0
LINE
  5
139
330
136
100
AcDbEntity
  8
치수문자_일반주서
 62
     0
370
    -2
100
AcDbLine
 10
28.6375
 20
-3.174999999999995
 30
0.0
 11
49.61227470393992
 21
-3.174999999999996
 31
0.0
  0
LINE
  5
13A
330
136
100
AcDbEntity
  8
치수문자_일반주서
 62
     0
370
    -2
100
AcDbLine
 10
28.59055664007841
 20
3.175000000000005
 30
0.0
 11
49.61227470393992
 21
3.175000000000004
 31
0.0
  0
LINE
  5
13B
330
136
100
AcDbEntity
  8
치수문자_일반주서
 62
     0
370
    -2
100
AcDbLine
 10
49.61227470393992
 20
6.477000000000004
 30
0.0
 11
49.61227470393992
 21
35.154
 31
0.0
  0
LINE
  5
13C
330
136
100
AcDbEntity
  8
치수문자_일반주서
 62
     0
370
    -2
100
AcDbLine
 10
49.61227470393992
 20
-3.174999999999996
 30
0.0
 11
49.61227470393992
 21
3.175000000000004
 31
0.0
  0
LINE
  5
13D
330
136
100
AcDbEntity
  8
치수문자_일반주서
 62
     0
370
    -2
100
AcDbLine
 10
49.61227470393992
 20
-6.476999999999996
 30
0.0
 11
49.61227470393992
 21
-9.778999999999996
 31
0.0
  0
SOLID
  5
13E
330
136
100
AcDbEntity
  8
치수문자_일반주서
 62
     0
100
AcDbTrace
 10
50.16260803727325
 20
-6.476999999999996
 30
0.0
 11
49.06194137060658
 21
-6.476999999999996
 31
0.0
 12
49.61227470393992
 22
-3.174999999999996
 32
0.0
 13
49.61227470393992
 23
-3.174999999999996
 33
0.0
  0
SOLID
  5
13F
330
136
100
AcDbEntity
  8
치수문자_일반주서
 62
     0
100
AcDbTrace
 10
49.06194137060658
 20
6.477000000000004
 30
0.0
 11
50.16260803727325
 21
6.477000000000004
 31
0.0
 12
49.61227470393992
 22
3.175000000000004
 32
0.0
 13
49.61227470393992
 23
3.175000000000004
 33
0.0
  0
MTEXT
  5
140
330
136
100
AcDbEntity
  8
치수문자_일반주서
 62
     0
100
AcDbMText
 10
46.98727470393992
 20
22.4665
 30
0.0
 40
3.5
 41
0.0
 71
     5
 72
     1
  1
\A1;{%%c6.35 [1/4]}
  7
SLDTEXTSTYLE0
 11
0.0
 21
1.0
 31
0.0
 73
     1
 44
1.0
  0
POINT
  5
141
330
136
100
AcDbEntity
  8
Defpoints
 62
     0
100
AcDbPoint
 10
28.575
 20
-3.174999999999995
 30
0.0
  0
POINT
  5
142
330
136
100
AcDbEntity
  8
Defpoints
 62
     0
100
AcDbPoint
 10
28.52805664007841
 20
3.175000000000005
 30
0.0
  0
POINT
  5
143
330
136
100
AcDbEntity
  8
Defpoints
 62
     0
100
AcDbPoint
 10
49.61227470393992
 20
3.175000000000004
 30
0.0
  0
ENDBLK
  5
138
330
136
100
AcDbEntity
  8
0
100
AcDbBlockEnd
  0
BLOCK
  5
149
330
148
100
AcDbEntity
  8
0
100
AcDbBlockBegin
  2
*D6
 70
     1
 10
0.0
 20
0.0
 30
0.0
  3
*D6
  1
*D6
  0
LINE
  5
14B
330
148
100
AcDbEntity
  8
치수문자_일반주서
 62
     0
370
    -2
100
AcDbLine
 10
28.575
 20
3.237500000000005
 30
0.0
 11
28.575
 21
29.55645100535897
 31
0.0
  0
LINE
  5
14C
330
148
100
AcDbEntity
  8
치수문자_일반주서
 62
     0
370
    -2
100
AcDbLine
 10
23.49141744936407
 20
2.599809135168217
 30
0.0
 11
23.49141744936407
 21
29.55645100535897
 31
0.0
  0
LINE
  5
14D
330
148
100
AcDbEntity
  8
치수문자_일반주서
 62
     0
370
    -2
100
AcDbLine
 10
20.18941744936407
 20
29.55645100535897
 30
0.0
 11
-6.300082550635928
 21
29.55645100535897
 31
0.0
  0
LINE
  5
14E
330
148
100
AcDbEntity
  8
치수문자_일반주서
 62
     0
370
    -2
100
AcDbLine
 10
28.575
 20
29.55645100535897
 30
0.0
 11
23.49141744936407
 21
29.55645100535897
 31
0.0
  0
LINE
  5
14F
330
148
100
AcDbEntity
  8
치수문자_일반주서
 62
     0
370
    -2
100
AcDbLine
 10
31.877
 20
29.55645100535897
 30
0.0
 11
35.179
 21
29.55645100535897
 31
0.0
  0
SOLID
  5
150
330
148
100
AcDbEntity
  8
치수문자_일반주서
 62
     0
100
AcDbTrace
 10
31.877
 20
30.1067843386923
 30
0.0
 11
31.877
 21
29.00611767202563
 31
0.0
 12
28.575
 22
29.55645100535897
 32
0.0
 13
28.575
 23
29.55645100535897
 33
0.0
  0
SOLID
  5
151
330
148
100
AcDbEntity
  8
치수문자_일반주서
 62
     0
100
AcDbTrace
 10
20.18941744936407
 20
29.00611767202563
 30
0.0
 11
20.18941744936407
 21
30.1067843386923
 31
0.0
 12
23.49141744936407
 22
29.55645100535897
 32
0.0
 13
23.49141744936407
 23
29.55645100535897
 33
0.0
  0
MTEXT
  5
152
330
148
100
AcDbEntity
  8
치수문자_일반주서
 62
     0
100
AcDbMText
 10
5.293667449364072
 20
32.18145100535897
 30
0.0
 40
3.5
 41
0.0
 71
     5
 72
     1
  1
\A1;5.08 [0.20]
  7
SLDTEXTSTYLE0
 73
     1
 44
1.0
  0
POINT
  5
153
330
148
100
AcDbEntity
  8
Defpoints
 62
     0
100
AcDbPoint
 10
28.575
 20
3.175000000000005
 30
0.0
  0
POINT
  5
154
330
148
100
AcDbEntity
  8
Defpoints
 62
     0
100
AcDbPoint
 10
23.49141744936407
 20
2.537309135168217
 30
0.0
  0
POINT
  5
155
330
148
100
AcDbEntity
  8
Defpoints
 62
     0
100
AcDbPoint
 10
23.49141744936407
 20
29.55645100535897
 30
0.0
  0
ENDBLK
  5
14A
330
148
100
AcDbEntity
  8
0
100
AcDbBlockEnd
  0
BLOCK
  5
15A
330
159
100
AcDbEntity
  8
0
100
AcDbBlockBegin
  2
*D7
 70
     1
 10
0.0
 20
0.0
 30
0.0
  3
*D7
  1
*D7
  0
LINE
  5
15C
330
159
100
AcDbEntity
  8
치수문자_일반주서
 62
     0
370
    -2
100
AcDbLine
 10
28.575
 20
3.237500000000005
 30
0.0
 11
28.575
 21
44.27794787629603
 31
0.0
  0
LINE
  5
15D
330
159
100
AcDbEntity
  8
치수문자_일반주서
 62
     0
370
    -2
100
AcDbLine
 10
0.0
 20
3.205563305354167
 30
0.0
 11
0.0
 21
44.27794787629603
 31
0.0
  0
LINE
  5
15E
330
159
100
AcDbEntity
  8
치수문자_일반주서
 62
     0
370
    -2
100
AcDbLine
 10
-3.302
 20
44.27794787629603
 30
0.0
 11
-36.354
 21
44.27794787629603
 31
0.0
  0
LINE
  5
15F
330
159
100
AcDbEntity
  8
치수문자_일반주서
 62
     0
370
    -2
100
AcDbLine
 10
28.575
 20
44.27794787629603
 30
0.0
 11
0.0
 21
44.27794787629603
 31
0.0
  0
LINE
  5
160
330
159
100
AcDbEntity
  8
치수문자_일반주서
 62
     0
370
    -2
100
AcDbLine
 10
31.877
 20
44.27794787629603
 30
0.0
 11
35.179
 21
44.27794787629603
 31
0.0
  0
SOLID
  5
161
330
159
100
AcDbEntity
  8
치수문자_일반주서
 62
     0
100
AcDbTrace
 10
31.877
 20
44.82828120962937
 30
0.0
 11
31.877
 21
43.7276145429627
 31
0.0
 12
28.575
 22
44.27794787629603
 32
0.0
 13
28.575
 23
44.27794787629603
 33
0.0
  0
SOLID
  5
162
330
159
100
AcDbEntity
  8
치수문자_일반주서
 62
     0
100
AcDbTrace
 10
-3.302
 20
43.7276145429627
 30
0.0
 11
-3.302
 21
44.82828120962937
 31
0.0
 12
0.0
 22
44.27794787629603
 32
0.0
 13
0.0
 23
44.27794787629603
 33
0.0
  0
MTEXT
  5
163
330
159
100
AcDbEntity
  8
치수문자_일반주서
 62
     0
100
AcDbMText
 10
-21.479
 20
46.90294787629603
 30
0.0
 40
3.5
 41
0.0
 71
     5
 72
     1
  1
\A1;28.58 [1 1/8]
  7
SLDTEXTSTYLE0
 73
     1
 44
1.0
  0
POINT
  5
164
330
159
100
AcDbEntity
  8
Defpoints
 62
     0
100
AcDbPoint
 10
28.575
 20
3.175000000000005
 30
0.0
  0
POINT
  5
17B
330
159
100
AcDbEntity
  8
Defpoints
 62
     0
100
AcDbPoint
 10
0.0
 20
3.143063305354167
 30
0.0
  0
POINT
  5
17C
330
159
100
AcDbEntity
  8
Defpoints
 62
     0
100
AcDbPoint
 10
0.0
 20
44.27794787629603
 30
0.0
  0
ENDBLK
  5
15B
330
159
100
AcDbEntity
  8
0
100
AcDbBlockEnd
  0
BLOCK
  5
169
330
168
100
AcDbEntity
  8
0
100
AcDbBlockBegin
  2
*D8
 70
     1
 10
0.0
 20
0.0
 30
0.0
  3
*D8
  1
*D8
  0
LINE
  5
16B
330
168
100
AcDbEntity
  8
치수문자_일반주서
 62
     0
370
    -2
100
AcDbLine
 10
28.575
 20
3.237500000000005
 30
0.0
 11
28.575
 21
58.05646785205445
 31
0.0
  0
LINE
  5
16C
330
168
100
AcDbEntity
  8
치수문자_일반주서
 62
     0
370
    -2
100
AcDbLine
 10
-73.02499999999999
 20
2.427499999999985
 30
0.0
 11
-73.02499999999999
 21
58.05646785205445
 31
0.0
  0
LINE
  5
16D
330
168
100
AcDbEntity
  8
치수문자_일반주서
 62
     0
370
    -2
100
AcDbLine
 10
25.273
 20
58.05646785205445
 30
0.0
 11
-69.72299999999998
 21
58.05646785205445
 31
0.0
  0
SOLID
  5
16E
330
168
100
AcDbEntity
  8
치수문자_일반주서
 62
     0
100
AcDbTrace
 10
25.273
 20
57.50613451872111
 30
0.0
 11
25.273
 21
58.60680118538778
 31
0.0
 12
28.575
 22
58.05646785205445
 32
0.0
 13
28.575
 23
58.05646785205445
 33
0.0
  0
SOLID
  5
16F
330
168
100
AcDbEntity
  8
치수문자_일반주서
 62
     0
100
AcDbTrace
 10
-69.72299999999998
 20
58.60680118538778
 30
0.0
 11
-69.72299999999998
 21
57.50613451872111
 31
0.0
 12
-73.02499999999999
 22
58.05646785205445
 32
0.0
 13
-73.02499999999999
 23
58.05646785205445
 33
0.0
  0
MTEXT
  5
170
330
168
100
AcDbEntity
  8
치수문자_일반주서
 62
     0
100
AcDbMText
 10
-22.22499999999999
 20
60.68146785205445
 30
0.0
 40
3.5
 41
0.0
 71
     5
 72
     1
  1
\A1;101.6 [4]
  7
SLDTEXTSTYLE0
 73
     1
 44
1.0
  0
POINT
  5
171
330
168
100
AcDbEntity
  8
Defpoints
 62
     0
100
AcDbPoint
 10
28.575
 20
3.175000000000005
 30
0.0
  0
POINT
  5
172
330
168
100
AcDbEntity
  8
Defpoints
 62
     0
100
AcDbPoint
 10
-73.02499999999999
 20
2.364999999999985
 30
0.0
  0
POINT
  5
173
330
168
100
AcDbEntity
  8
Defpoints
 62
     0
100
AcDbPoint
 10
-73.02499999999999
 20
58.05646785205445
 30
0.0
  0
ENDBLK
  5
16A
330
168
100
AcDbEntity
  8
0
100
AcDbBlockEnd
  0
ENDSEC
  0
SECTION
  2
ENTITIES
  0
LINE
  5
95
330
1F
100
AcDbEntity
  8
0
  6
Continuous
 62
     4
370
    15
100
AcDbLine
 10
20.83753095056463
 20
-2.561018363692876
 30
0.0
 11
21.58999999999999
 21
-2.54
 31
0.0
  0
LINE
  5
98
330
1F
100
AcDbEntity
  8
0
  6
Continuous
 62
     4
370
    15
100
AcDbLine
 10
21.58999999999999
 20
2.54
 30
0.0
 11
20.83753095056461
 21
2.561018363692877
 31
0.0
  0
LINE
  5
99
330
1F
100
AcDbEntity
  8
0
  6
Continuous
 62
     4
370
    15
100
AcDbLine
 10
0.0
 20
3.174999999999995
 30
0.0
 11
-72.21499999999997
 21
3.174999999999995
 31
0.0
  0
LINE
  5
9A
330
1F
100
AcDbEntity
  8
0
  6
Continuous
 62
     4
370
    15
100
AcDbLine
 10
-72.21499999999997
 20
-3.174999999999996
 30
0.0
 11
0.0000000000000107
 21
-3.174999999999996
 31
0.0
  0
LINE
  5
9B
330
1F
100
AcDbEntity
  8
0
  6
Continuous
 62
     4
370
    15
100
AcDbLine
 10
-72.21499999999997
 20
3.175
 30
0.0
 11
-73.02499999999999
 21
2.364999999999982
 31
0.0
  0
LINE
  5
9C
330
1F
100
AcDbEntity
  8
0
  6
Continuous
 62
     4
370
    15
100
AcDbLine
 10
-73.02499999999999
 20
-2.364999999999983
 30
0.0
 11
-72.21499999999997
 21
-3.175
 31
0.0
  0
ARC
  5
9D
330
1F
100
AcDbEntity
  8
0
  6
Continuous
 62
     1
370
    15
100
AcDbCircle
 10
25.4
 20
-0.0000000000000002
 30
0.0
 40
3.174999999999999
100
AcDbArc
 50
352.657534770795
 51
7.342465229206121
  0
ARC
  5
9E
330
1F
100
AcDbEntity
  8
0
  6
Continuous
 62
     4
370
    15
100
AcDbCircle
 10
23.49499999999999
 20
-0.0000000000000002
 30
0.0
 40
3.175000000000001
100
AcDbArc
 50
125.501715313481
 51
126.869897645844
  0
ARC
  5
9F
330
1F
100
AcDbEntity
  8
0
  6
Continuous
 62
     4
370
    15
100
AcDbCircle
 10
23.49499999999999
 20
-0.0000000000000002
 30
0.0
 40
3.175000000000001
100
AcDbArc
 50
233.1301023541568
 51
234.5752863253656
  0
SPLINE
  5
A0
330
1F
100
AcDbEntity
  8
0
  6
Continuous
 62
     4
370
    15
100
AcDbSpline
210
0.0
220
0.0
230
1.0
 70
     8
 71
     3
 72
    10
 73
     6
 74
     0
 42
0.000000001
 43
0.00000001
 40
0.0
 40
0.0
 40
0.0
 40
0.0
 40
0.5000000000000001
 40
0.5000000000000001
 40
1.0
 40
1.0
 40
1.0
 40
1.0
 10
19.49490252766118
 20
2.466890390117151
 30
0.0
 10
19.84457989949997
 20
2.525463544576075
 30
0.0
 10
20.1913346625737
 20
2.557717610543649
 30
0.0
 10
20.88851180084168
 20
2.568252733085258
 30
0.0
 10
21.23868091038665
 20
2.546684081636206
 30
0.0
 10
21.58999999999999
 20
2.498763406274748
 30
0.0
  0
LINE
  5
A1
330
1F
100
AcDbEntity
  8
0
  6
Continuous
 62
     4
370
    15
100
AcDbLine
 10
19.49490252766115
 20
2.598521371315786
 30
0.0
 11
19.49490252766115
 21
1.950165615678366
 31
0.0
  0
SPLINE
  5
A2
330
1F
100
AcDbEntity
  8
0
  6
Continuous
 62
     4
370
    15
100
AcDbSpline
210
0.0
220
0.0
230
1.0
 70
     8
 71
     3
 72
    10
 73
     6
 74
     0
 42
0.000000001
 43
0.00000001
 40
0.0
 40
0.0
 40
0.0
 40
0.0
 40
0.5
 40
0.5
 40
1.0
 40
1.0
 40
1.0
 40
1.0
 10
21.58999999999999
 20
0.8807614105041507
 30
0.0
 10
21.2385489301696
 20
1.081686100480825
 30
0.0
 10
20.89024431577491
 20
1.274435066938193
 30
0.0
 10
20.1930230025479
 20
1.633344583585254
 30
0.0
 10
19.84438362696139
 20
1.801499105865211
 30
0.0
 10
19.49490252766115
 20
1.950162954434365
 30
0.0
  0
LINE
  5
A3
330
1F
100
AcDbEntity
  8
0
  6
Continuous
 62
     4
370
    15
100
AcDbLine
 10
21.58999999999999
 20
0.8807614105041506
 30
0.0
 11
21.58999999999998
 21
-0.4558304942215004
 31
0.0
  0
SPLINE
  5
A4
330
1F
100
AcDbEntity
  8
0
  6
Continuous
 62
     4
370
    15
100
AcDbSpline
210
0.0
220
0.0
230
1.0
 70
     8
 71
     3
 72
    10
 73
     6
 74
     0
 42
0.000000001
 43
0.00000001
 40
0.0
 40
0.0
 40
0.0
 40
0.0
 40
0.5
 40
0.5
 40
1.0
 40
1.0
 40
1.0
 40
1.0
 10
19.49490252766118
 20
0.8165568690098218
 30
0.0
 10
19.84457989949997
 20
0.6085195763022416
 30
0.0
 10
20.19133466257369
 20
0.3939020094899089
 30
0.0
 10
20.88851180084168
 20
-0.0329569268955474
 30
0.0
 10
21.23868091038665
 20
-0.247821541002709
 30
0.0
 10
21.58999999999999
 20
-0.4558304942214971
 30
0.0
  0
SPLINE
  5
A5
330
1F
100
AcDbEntity
  8
0
  6
Continuous
 62
     4
370
    15
100
AcDbSpline
210
0.0
220
0.0
230
1.0
 70
     8
 71
     3
 72
    10
 73
     6
 74
     0
 42
0.000000001
 43
0.00000001
 40
0.0
 40
0.0
 40
0.0
 40
0.0
 40
0.5
 40
0.5
 40
1.0
 40
1.0
 40
1.0
 40
1.0
 10
21.58999999999999
 20
-2.382406207548734
 30
0.0
 10
21.2385489301696
 20
-2.318591840794877
 30
0.0
 10
20.89024431577491
 20
-2.229708454463305
 30
0.0
 10
20.1930230025479
 20
-2.006998851801522
 30
0.0
 10
19.84438362696139
 20
-1.871366769858249
 30
0.0
 10
19.49490252766115
 20
-1.717317026159328
 30
0.0
  0
LINE
  5
A6
330
1F
100
AcDbEntity
  8
0
  6
Continuous
 62
     4
370
    15
100
AcDbLine
 10
21.58999999999999
 20
-2.382406207548735
 30
0.0
 11
21.58999999999999
 21
-2.54
 31
0.0
  0
SPLINE
  5
A7
330
1F
100
AcDbEntity
  8
0
  6
Continuous
 62
     4
370
    15
100
AcDbSpline
210
0.0
220
0.0
230
1.0
 70
     8
 71
     3
 72
     9
 73
     5
 74
     0
 42
0.000000001
 43
0.00000001
 40
0.0
 40
0.0
 40
0.0
 40
0.0
 40
0.643646705533666
 40
1.0
 40
1.0
 40
1.0
 40
1.0
 10
19.49490252766118
 20
-2.466890390117152
 30
0.0
 10
19.78229877468978
 20
-2.508994276836815
 30
0.0
 10
20.22881119300522
 20
-2.574408868968928
 30
0.0
 10
20.67731822791334
 20
-2.554354329840171
 30
0.0
 10
20.83714518739419
 20
-2.547207828752636
 30
0.0
  0
LINE
  5
A8
330
1F
100
AcDbEntity
  8
0
  6
Continuous
 62
     4
370
    15
100
AcDbLine
 10
19.49490252766115
 20
-2.466886402807463
 30
0.0
 11
19.49490252766115
 21
-2.598521371315786
 31
0.0
  0
LINE
  5
AB
330
1F
100
AcDbEntity
  8
0
  6
Continuous
 62
     4
370
    15
100
AcDbLine
 10
-72.21499999999997
 20
-0.0000000000000002
 30
0.0
 11
-72.21499999999997
 21
-3.174999999999996
 31
0.0
  0
LINE
  5
AC
330
1F
100
AcDbEntity
  8
0
  6
Continuous
 62
     4
370
    15
100
AcDbLine
 10
-72.21499999999997
 20
3.174999999999995
 30
0.0
 11
-72.21499999999997
 21
-0.0000000000000002
 31
0.0
  0
LINE
  5
AD
330
1F
100
AcDbEntity
  8
0
  6
Continuous
 62
     4
370
    15
100
AcDbLine
 10
-73.02499999999999
 20
-0.0000000000000002
 30
0.0
 11
-73.02499999999999
 21
-2.364999999999984
 31
0.0
  0
LINE
  5
AE
330
1F
100
AcDbEntity
  8
0
  6
Continuous
 62
     4
370
    15
100
AcDbLine
 10
-73.02499999999999
 20
2.364999999999985
 30
0.0
 11
-73.02499999999999
 21
-0.0000000000000002
 31
0.0
  0
SPLINE
  5
AF
330
1F
100
AcDbEntity
  8
0
  6
Continuous
 62
     4
370
    15
100
AcDbSpline
210
0.0
220
0.0
230
1.0
 70
    24
 71
     3
 72
    13
 73
     9
 74
     0
 42
0.000000001
 43
0.00000001
 40
0.0
 40
0.0
 40
0.0
 40
0.0
 40
0.0844707482643958
 40
0.2836398553994761
 40
0.4828089625345568
 40
0.6819780696696313
 40
0.8811471768045608
 40
1.0
 40
1.0
 40
1.0
 40
1.0
 10
21.58999999999999
 20
-0.4767671501558649
 30
0.0
 10
21.59
 20
-0.4811695153362672
 30
0.0
 10
21.59000000000001
 20
-0.495951984402086
 30
0.0
 10
21.58999999999999
 20
-0.6884630407687882
 30
0.0
 10
21.59
 20
-1.049640457652216
 30
0.0
 10
21.58999999999998
 20
-1.52991087108368
 30
0.0
 10
21.59
 20
-1.99624734741717
 30
0.0
 10
21.58999999999999
 20
-2.277350764637091
 30
0.0
 10
21.58999999999999
 20
-2.382406207548735
 30
0.0
  0
SPLINE
  5
B0
330
1F
100
AcDbEntity
  8
0
  6
Continuous
 62
     4
370
    15
100
AcDbSpline
210
0.0
220
0.0
230
1.0
 70
    24
 71
     3
 72
    12
 73
     8
 74
     0
 42
0.000000001
 43
0.00000001
 40
0.0
 40
0.0
 40
0.0
 40
0.0
 40
0.1765993518161751
 40
0.3896048886883009
 40
0.6026104255604272
 40
0.8156159624325469
 40
1.0
 40
1.0
 40
1.0
 40
1.0
 10
21.58999999999998
 20
2.498763406274825
 30
0.0
 10
21.59
 20
2.350690692031742
 30
0.0
 10
21.59000000000002
 20
2.02401988176455
 30
0.0
 10
21.58999999999998
 20
1.551645233995087
 30
0.0
 10
21.59
 20
1.155451906150671
 30
0.0
 10
21.58999999999999
 20
0.8975802751749712
 30
0.0
 10
21.58999999999999
 20
0.8684499586471724
 30
0.0
 10
21.58999999999999
 20
0.8549338381385048
 30
0.0
  0
SPLINE
  5
B1
330
1F
100
AcDbEntity
  8
0
  6
Continuous
 62
     1
370
    15
100
AcDbSpline
210
0.0
220
0.0
230
1.0
 70
     8
 71
     3
 72
    12
 73
     8
 74
     0
 42
0.000000001
 43
0.00000001
 40
0.0
 40
0.0
 40
0.0
 40
0.0
 40
0.5000000000000001
 40
0.5000000000000001
 40
0.75
 40
0.75
 40
1.0
 40
1.0
 40
1.0
 40
1.0
 10
25.40000000000024
 20
-1.625101417703458
 30
0.0
 10
25.08091929473168
 20
-1.419081703302609
 30
0.0
 10
24.76708056984914
 20
-1.200328210911857
 30
0.0
 10
24.28804415560297
 20
-0.8577775491402971
 30
0.0
 10
24.12809620560327
 20
-0.7414438577546683
 30
0.0
 10
23.81072464281056
 20
-0.5067279294715831
 30
0.0
 10
23.65397394878287
 20
-0.3885217221085311
 30
0.0
 10
23.49499999999999
 20
-0.2691876120345919
 30
0.0
  0
SPLINE
  5
B2
330
1F
100
AcDbEntity
  8
0
  6
Continuous
 62
     4
370
    15
100
AcDbSpline
210
0.0
220
0.0
230
1.0
 70
     8
 71
     3
 72
    14
 73
    10
 74
     0
 42
0.000000001
 43
0.00000001
 40
0.0
 40
0.0
 40
0.0
 40
0.0
 40
0.25
 40
0.25
 40
0.5
 40
0.5
 40
0.75
 40
0.75
 40
1.0
 40
1.0
 40
1.0
 40
1.0
 10
21.58999999999999
 20
0.880761410504147
 30
0.0
 10
21.73184343840211
 20
0.8235646986130122
 30
0.0
 10
21.88112551579515
 20
0.7576527385971429
 30
0.0
 10
22.19081448857873
 20
0.6026030150750589
 30
0.0
 10
22.35328298299317
 20
0.5122278324043185
 30
0.0
 10
22.67777724615101
 20
0.3121165424282527
 30
0.0
 10
22.84013222310444
 20
0.2038047918531986
 30
0.0
 10
23.16742931678485
 20
-0.0256034254144388
 30
0.0
 10
23.33227721610534
 20
-0.1470394314459398
 30
0.0
 10
23.495
 20
-0.2691876120346026
 30
0.0
  0
SPLINE
  5
B3
330
1F
100
AcDbEntity
  8
0
  6
Continuous
 62
     4
370
    15
100
AcDbSpline
210
0.0
220
0.0
230
1.0
 70
    24
 71
     3
 72
    12
 73
     8
 74
     0
 42
0.000000001
 43
0.00000001
 40
0.0
 40
0.0
 40
0.0
 40
0.0
 40
0.1720952723362447
 40
0.3796682079107297
 40
0.5872411434852133
 40
0.7948140790596947
 40
1.0
 40
1.0
 40
1.0
 40
1.0
 10
21.58999999999999
 20
2.498763406276056
 30
0.0
 10
21.59
 20
2.350678796012899
 30
0.0
 10
21.59000000000002
 20
2.023981741326111
 30
0.0
 10
21.58999999999996
 20
1.55183516243609
 30
0.0
 10
21.59
 20
1.154744111408622
 30
0.0
 10
21.58999999999999
 20
0.8891518837113856
 30
0.0
 10
21.59
 20
0.8596191835407571
 30
0.0
 10
21.59
 20
0.8449382283372017
 30
0.0
  0
SPLINE
  5
B4
330
1F
100
AcDbEntity
  8
0
  6
Continuous
 62
     1
370
    15
100
AcDbSpline
210
0.0
220
0.0
230
1.0
 70
     8
 71
     3
 72
     8
 73
     4
 74
     0
 42
0.000000001
 43
0.00000001
 40
0.0
 40
0.0
 40
0.0
 40
0.0
 40
0.0011622597635078
 40
0.0011622597635078
 40
0.0011622597635078
 40
0.0011622597635078
 10
23.49499999999999
 20
2.537216754834323
 30
0.0
 10
23.49422884971187
 20
2.537566007209858
 30
0.0
 10
23.49345778600334
 20
2.537914908818957
 30
0.0
 10
23.49268680860481
 20
2.538263459519114
 30
0.0
  0
SPLINE
  5
B5
330
1F
100
AcDbEntity
  8
0
  6
Continuous
 62
     1
370
    15
100
AcDbSpline
210
0.0
220
0.0
230
1.0
 70
     8
 71
     3
 72
    12
 73
     8
 74
     0
 42
0.000000001
 43
0.00000001
 40
0.0
 40
0.0
 40
0.0
 40
0.0
 40
0.4999999999999982
 40
0.4999999999999982
 40
0.7499999999999991
 40
0.7499999999999991
 40
1.0
 40
1.0
 40
1.0
 40
1.0
 10
25.4000000000002
 20
1.447508394042752
 30
0.0
 10
25.08091929473166
 20
1.660949843122682
 30
0.0
 10
24.76708056984911
 20
1.860875100812259
 30
0.0
 10
24.28804415560294
 20
2.136178705554726
 30
0.0
 10
24.12809620560327
 20
2.2236067440218
 30
0.0
 10
23.81072464281055
 20
2.388164707380277
 30
0.0
 10
23.65397394878285
 20
2.465217781203314
 30
0.0
 10
23.49499999999999
 20
2.537216754834325
 30
0.0
  0
SPLINE
  5
B6
330
1F
100
AcDbEntity
  8
0
  6
Continuous
 62
     1
370
    15
100
AcDbSpline
210
0.0
220
0.0
230
1.0
 70
     8
 71
     3
 72
    14
 73
    10
 74
     0
 42
0.000000001
 43
0.00000001
 40
0.0
 40
0.0
 40
0.0
 40
0.0
 40
0.25
 40
0.25
 40
0.5
 40
0.5
 40
0.75
 40
0.75
 40
1.0
 40
1.0
 40
1.0
 40
1.0
 10
27.31842742372048
 20
0.0770649608138178
 30
0.0
 10
27.17683732307119
 20
0.1814113812310708
 30
0.0
 10
27.02714374552047
 20
0.2876447935649172
 30
0.0
 10
26.71508792021049
 20
0.5099705877746558
 30
0.0
 10
26.55080164183781
 20
0.6273949527616395
 30
0.0
 10
26.22412792353937
 20
0.8637460672314995
 30
0.0
 10
26.06083653953319
 20
0.9836245265436346
 30
0.0
 10
25.73017578412849
 20
1.220840770064876
 30
0.0
 10
25.56422628785767
 20
1.33765312458102
 30
0.0
 10
25.39999999999997
 20
1.447508394042904
 30
0.0
  0
SPLINE
  5
B7
330
1F
100
AcDbEntity
  8
0
  6
Continuous
 62
     1
370
    15
100
AcDbSpline
210
0.0
220
0.0
230
1.0
 70
     8
 71
     3
 72
     8
 73
     4
 74
     0
 42
0.000000001
 43
0.00000001
 40
0.0
 40
0.0
 40
0.0
 40
0.0
 40
1.0
 40
1.0
 40
1.0
 40
1.0
 10
27.01655989411596
 20
0.2300563761033181
 30
0.0
 10
27.11834827562467
 20
0.1818549632452728
 30
0.0
 10
27.2190080755259
 20
0.130947245221808
 30
0.0
 10
27.31842742370762
 20
0.0770649608232122
 30
0.0
  0
SPLINE
  5
B8
330
1F
100
AcDbEntity
  8
0
  6
Continuous
 62
     1
370
    15
100
AcDbSpline
210
0.0
220
0.0
230
1.0
 70
     8
 71
     3
 72
     8
 73
     4
 74
     0
 42
0.000000001
 43
0.00000001
 40
0.0
 40
0.0
 40
0.0
 40
0.0
 40
1.0
 40
1.0
 40
1.0
 40
1.0
 10
27.01655989411512
 20
0.2300563761035092
 30
0.0
 10
27.03248153935304
 20
0.1660853159651832
 30
0.0
 10
27.01814522444787
 20
0.0886039980655873
 30
0.0
 10
26.9493493166626
 20
-0.0000000000000217
 30
0.0
  0
SPLINE
  5
B9
330
1F
100
AcDbEntity
  8
0
  6
Continuous
 62
     1
370
    15
100
AcDbSpline
210
0.0
220
0.0
230
1.0
 70
     8
 71
     3
 72
     8
 73
     4
 74
     0
 42
0.000000001
 43
0.00000001
 40
0.0
 40
0.0
 40
0.0
 40
0.0
 40
1.0
 40
1.0
 40
1.0
 40
1.0
 10
27.86419522578334
 20
-0.3765832666161545
 30
0.0
 10
27.55906633062726
 20
-0.251382888887964
 30
0.0
 10
27.25382812534497
 20
-0.1263810352449862
 30
0.0
 10
26.94934931666271
 20
-0.000000000000412
 30
0.0
  0
SPLINE
  5
BA
330
1F
100
AcDbEntity
  8
0
  6
Continuous
 62
     1
370
    15
100
AcDbSpline
210
0.0
220
0.0
230
1.0
 70
     8
 71
     3
 72
    28
 73
    24
 74
     0
 42
0.000000001
 43
0.00000001
 40
0.0
 40
0.0
 40
0.0
 40
0.0
 40
0.125
 40
0.125
 40
0.25
 40
0.25
 40
0.375
 40
0.375
 40
0.5
 40
0.5
 40
0.5625
 40
0.5625
 40
0.625
 40
0.625
 40
0.6875
 40
0.6875
 40
0.75
 40
0.75
 40
0.8125
 40
0.8125
 40
0.875
 40
0.875
 40
1.0
 40
1.0
 40
1.0
 40
1.0
 10
25.4
 20
-1.625101417703297
 30
0.0
 10
25.5722149315629
 20
-1.736294825610214
 30
0.0
 10
25.73995888271659
 20
-1.836409157294905
 30
0.0
 10
26.07256216818486
 20
-2.008751327907693
 30
0.0
 10
26.23894038790909
 20
-2.0818100069368
 30
0.0
 10
26.5661119987131
 20
-2.182422143435885
 30
0.0
 10
26.72725445068127
 20
-2.211304340491365
 30
0.0
 10
27.05395346517313
 20
-2.211078289999785
 30
0.0
 10
27.21402097645565
 20
-2.182085096548686
 30
0.0
 10
27.45276814864211
 20
-2.0784299792645
 30
0.0
 10
27.53056656749957
 20
-2.034237871058358
 30
0.0
 10
27.68402773643415
 20
-1.921672967670596
 30
0.0
 10
27.75810642806914
 20
-1.854255559219757
 30
0.0
 10
27.89599642578342
 20
-1.696349095097788
 30
0.0
 10
27.95871096407577
 20
-1.606688333224237
 30
0.0
 10
28.06074292139314
 20
-1.416661022728532
 30
0.0
 10
28.09877746248529
 20
-1.318406903744943
 30
0.0
 10
28.14471749639146
 20
-1.131157432134066
 30
0.0
 10
28.15275108486692
 20
-1.041942266574192
 30
0.0
 10
28.1443150727361
 20
-0.8805307799686753
 30
0.0
 10
28.12795556501601
 20
-0.8059543094381489
 30
0.0
 10
28.05297719747131
 20
-0.6013885813831792
 30
0.0
 10
27.96838144704925
 20
-0.4858017762091739
 30
0.0
 10
27.86419522578334
 20
-0.3765832666161361
 30
0.0
  0
SPLINE
  5
BB
330
1F
100
AcDbEntity
  8
0
  6
Continuous
 62
     4
370
    15
100
AcDbSpline
210
0.0
220
0.0
230
1.0
 70
     8
 71
     3
 72
    14
 73
    10
 74
     0
 42
0.000000001
 43
0.00000001
 40
0.0
 40
0.0
 40
0.0
 40
0.0
 40
0.25
 40
0.25
 40
0.5
 40
0.5
 40
0.75
 40
0.75
 40
1.0
 40
1.0
 40
1.0
 40
1.0
 10
23.49499999999999
 20
-1.908705356776683
 30
0.0
 10
23.32912694985625
 20
-1.808844600081159
 30
0.0
 10
23.16725969929793
 20
-1.696986341325323
 30
0.0
 10
22.84617036670633
 20
-1.455563720327832
 30
0.0
 10
22.68536625256733
 20
-1.324285551104595
 30
0.0
 10
22.36969497665969
 20
-1.059519259298242
 30
0.0
 10
22.21433775599461
 20
-0.9268380725483104
 30
0.0
 10
21.90010276194397
 20
-0.6721399882543744
 30
0.0
 10
21.74503114465907
 20
-0.5527947296391332
 30
0.0
 10
21.59000000000023
 20
-0.4558304942216503
 30
0.0
  0
SPLINE
  5
BC
330
1F
100
AcDbEntity
  8
0
  6
Continuous
 62
     1
370
    15
100
AcDbSpline
210
0.0
220
0.0
230
1.0
 70
     8
 71
     3
 72
    12
 73
     8
 74
     0
 42
0.000000001
 43
0.00000001
 40
0.0
 40
0.0
 40
0.0
 40
0.0
 40
0.5000000000000019
 40
0.5000000000000019
 40
0.7500000000000009
 40
0.7500000000000009
 40
1.0
 40
1.0
 40
1.0
 40
1.0
 10
25.40000000000019
 20
-2.825835177284015
 30
0.0
 10
25.08091929473164
 20
-2.716501734320511
 30
0.0
 10
24.76708056984909
 20
-2.583662744180272
 30
0.0
 10
24.28804415560296
 20
-2.351967605443702
 30
0.0
 10
24.12809620560326
 20
-2.26947669448854
 30
0.0
 10
23.81072464281055
 20
-2.095619419004588
 30
0.0
 10
23.65397394878287
 20
-2.004412638981811
 30
0.0
 10
23.49499999999999
 20
-1.908705356776678
 30
0.0
  0
SPLINE
  5
BD
330
1F
100
AcDbEntity
  8
0
  6
Continuous
 62
     1
370
    15
100
AcDbSpline
210
0.0
220
0.0
230
1.0
 70
     8
 71
     3
 72
     8
 73
     4
 74
     0
 42
0.000000001
 43
0.00000001
 40
0.0
 40
0.0
 40
0.0
 40
0.0
 40
0.4679533765613775
 40
0.4679533765613775
 40
0.4679533765613775
 40
0.4679533765613775
 10
25.26130832843328
 20
-2.769200039397579
 30
0.0
 10
24.98566716391133
 20
-2.863652676842816
 30
0.0
 10
24.71002599938938
 20
-2.958105314288052
 30
0.0
 10
24.43449039469401
 20
-3.024634887397457
 30
0.0
  0
SPLINE
  5
BE
330
1F
100
AcDbEntity
  8
0
  6
Continuous
 62
     4
370
    15
100
AcDbSpline
210
0.0
220
0.0
230
1.0
 70
     8
 71
     3
 72
     8
 73
     4
 74
     0
 42
0.000000001
 43
0.00000001
 40
0.0
 40
0.0
 40
0.0
 40
0.0
 40
0.1328905647474493
 40
0.1328905647474493
 40
0.1328905647474493
 40
0.1328905647474493
 10
21.58999999999999
 20
-2.382406207548735
 30
0.0
 10
21.6653986185399
 20
-2.453935864071308
 30
0.0
 10
21.74289908727297
 20
-2.520746231127859
 30
0.0
 10
21.82221960133239
 20
-2.582936474839417
 30
0.0
  0
SPLINE
  5
BF
330
1F
100
AcDbEntity
  8
0
  6
Continuous
 62
     4
370
    15
100
AcDbSpline
210
0.0
220
0.0
230
1.0
 70
    24
 71
     3
 72
    22
 73
    18
 74
     0
 42
0.000000001
 43
0.00000001
 40
0.0
 40
0.0
 40
0.0
 40
0.0
 40
0.1250000000000003
 40
0.1250000000000003
 40
0.2500000000000004
 40
0.2500000000000004
 40
0.3750000000000006
 40
0.3750000000000006
 40
0.5000000000000007
 40
0.5000000000000007
 40
0.7500000000000007
 40
0.7500000000000007
 40
0.8750000000000003
 40
0.8750000000000003
 40
0.9375000000000002
 40
0.9375000000000002
 40
1.0
 40
1.0
 40
1.0
 40
1.0
 10
21.58999999999999
 20
-0.4558304942215563
 30
0.0
 10
21.58999999999999
 20
-0.4491897295108973
 30
0.0
 10
21.58999999999999
 20
-0.4660506902854374
 30
0.0
 10
21.58999999999999
 20
-0.544238945427843
 30
0.0
 10
21.58999999999999
 20
-0.6054101062235712
 30
0.0
 10
21.58999999999999
 20
-0.7591962876715418
 30
0.0
 10
21.58999999999999
 20
-0.8515635453654078
 30
0.0
 10
21.58999999999999
 20
-1.050849698056031
 30
0.0
 10
21.58999999999999
 20
-1.157614378995898
 30
0.0
 10
21.58999999999999
 20
-1.478542642126665
 30
0.0
 10
21.59000000000001
 20
-1.690848625947757
 30
0.0
 10
21.59
 20
-1.969479709600824
 30
0.0
 10
21.59
 20
-2.056350995975446
 30
0.0
 10
21.59
 20
-2.177027831427106
 30
0.0
 10
21.58999999999999
 20
-2.215534050108936
 30
0.0
 10
21.59
 20
-2.297070735926198
 30
0.0
 10
21.58999999999999
 20
-2.339138763733928
 30
0.0
 10
21.58999999999999
 20
-2.382406207549232
 30
0.0
  0
SPLINE
  5
C0
330
1F
100
AcDbEntity
  8
0
  6
Continuous
 62
     1
370
    15
100
AcDbSpline
210
0.0
220
0.0
230
1.0
 70
     8
 71
     3
 72
    14
 73
    10
 74
     0
 42
0.000000001
 43
0.00000001
 40
0.0
 40
0.0
 40
0.0
 40
0.0
 40
0.2500000000000001
 40
0.2500000000000001
 40
0.5
 40
0.5
 40
0.75
 40
0.75
 40
1.0
 40
1.0
 40
1.0
 40
1.0
 10
27.31842742370779
 20
-2.528699707711327
 30
0.0
 10
27.17683732305906
 20
-2.632938608995182
 30
0.0
 10
27.02714374550908
 20
-2.718715172052207
 30
0.0
 10
26.71508792020085
 20
-2.851705146803474
 30
0.0
 10
26.55080164182925
 20
-2.898952732213449
 30
0.0
 10
26.22412792353325
 20
-2.94900859378036
 30
0.0
 10
26.06083653952826
 20
-2.952639712686803
 30
0.0
 10
25.73017578412599
 20
-2.919389521776086
 30
0.0
 10
25.56422628785645
 20
-2.882107540921073
 30
0.0
 10
25.39999999999997
 20
-2.825835177283935
 30
0.0
  0
LWPOLYLINE
  5
C1
330
1F
100
AcDbEntity
  8
0
  6
Continuous
 62
     1
370
    15
100
AcDbPolyline
 90
        9
 70
   128
 43
0.0
 10
27.29377739504585
 20
0.3810562106500277
 10
27.53922225598451
 20
0.3921811031020896
 10
27.76400949382826
 20
0.3858542601696404
 10
27.96544086772921
 20
0.3621516263155523
 10
28.14109848970438
 20
0.3213577168685478
 10
28.28887384783201
 20
0.2639622028342907
 10
28.40699311584224
 20
0.1906540331137
 10
28.49403844529792
 20
0.1023131646826345
 10
28.54896498478396
 20
-0.0000000000000046
  0
ARC
  5
C2
330
1F
100
AcDbEntity
  8
0
  6
Continuous
 62
     1
370
    15
100
AcDbCircle
 10
24.48348153522436
 20
0.0001800324656508
 30
0.0
 40
2.835988272690511
100
AcDbArc
 50
1.553504907513744
 51
7.718204447800798
  0
SPLINE
  5
C3
330
1F
100
AcDbEntity
  8
0
  6
Continuous
 62
     1
370
    15
100
AcDbSpline
210
0.0
220
0.0
230
1.0
 70
     8
 71
     3
 72
    28
 73
    24
 74
     0
 42
0.000000001
 43
0.00000001
 40
0.0
 40
0.0
 40
0.0
 40
0.0
 40
0.125
 40
0.125
 40
0.25
 40
0.25
 40
0.3749999999999999
 40
0.3749999999999999
 40
0.4999999999999999
 40
0.4999999999999999
 40
0.5624999999999999
 40
0.5624999999999999
 40
0.6249999999999999
 40
0.6249999999999999
 40
0.6874999999999999
 40
0.6874999999999999
 40
0.7499999999999999
 40
0.7499999999999999
 40
0.8125
 40
0.8125
 40
0.875
 40
0.875
 40
1.0
 40
1.0
 40
1.0
 40
1.0
 10
25.4
 20
2.727575916849726
 30
0.0
 10
25.57221493156291
 20
2.661326408004708
 30
0.0
 10
25.7399588827166
 20
2.576416878784076
 30
0.0
 10
26.07256216818488
 20
2.374546862197819
 30
0.0
 10
26.23894038790909
 20
2.255749622277579
 30
0.0
 10
26.56611199871311
 20
2.000843979962143
 30
0.0
 10
26.72725445068128
 20
1.864339601094096
 30
0.0
 10
27.05395346517314
 20
1.582025329086207
 30
0.0
 10
27.21402097645569
 20
1.440472579031609
 30
0.0
 10
27.45276814864213
 20
1.248408058229495
 30
0.0
 10
27.53056656749958
 20
1.189471268768544
 30
0.0
 10
27.68402773643415
 20
1.087506238301363
 30
0.0
 10
27.75810642806915
 20
1.045654445698376
 30
0.0
 10
27.89599642578343
 20
0.992332814555919
 30
0.0
 10
27.95871096407578
 20
0.9817931597053855
 30
0.0
 10
28.06074292139314
 20
1.0029385121645
 30
0.0
 10
28.09877746248529
 20
1.034717853367584
 30
0.0
 10
28.14471749639146
 20
1.131037718499655
 30
0.0
 10
28.15275108486691
 20
1.195339592727006
 30
0.0
 10
28.14431507273608
 20
1.336233247278232
 30
0.0
 10
28.12795556501602
 20
1.414504804966771
 30
0.0
 10
28.05297719747131
 20
1.651266117676734
 30
0.0
 10
27.96838144704923
 20
1.814874173312726
 30
0.0
 10
27.86419522578332
 20
1.966354986397762
 30
0.0
  0
ARC
  5
C4
330
1F
100
AcDbEntity
  8
0
  6
Continuous
 62
     1
370
    15
100
AcDbCircle
 10
25.45120661065954
 20
-0.0229674162386608
 30
0.0
 40
3.1272859924139
100
AcDbArc
 50
7.87971205215216
 51
39.50294177485922
  0
ARC
  5
C5
330
1F
100
AcDbEntity
  8
0
  6
Continuous
 62
     1
370
    15
100
AcDbCircle
 10
25.36337431067139
 20
-0.0560908534875756
 30
0.0
 40
3.218897010396673
100
AcDbArc
 50
8.24940657012639
 51
53.15090577026407
  0
SPLINE
  5
C6
330
1F
100
AcDbEntity
  8
0
  6
Continuous
 62
     1
370
    15
100
AcDbSpline
210
0.0
220
0.0
230
1.0
 70
     8
 71
     3
 72
    14
 73
    10
 74
     0
 42
0.000000001
 43
0.00000001
 40
0.0
 40
0.0
 40
0.0
 40
0.0
 40
0.2500000000000001
 40
0.2500000000000001
 40
0.5000000000000001
 40
0.5000000000000001
 40
0.7500000000000001
 40
0.7500000000000001
 40
1.0
 40
1.0
 40
1.0
 40
1.0
 10
27.31842742370761
 20
2.528699707711444
 30
0.0
 10
27.17683732305889
 20
2.632938608995274
 30
0.0
 10
27.02714374550894
 20
2.718715172052286
 30
0.0
 10
26.71508792020073
 20
2.851705146803519
 30
0.0
 10
26.55080164182914
 20
2.898952732213477
 30
0.0
 10
26.22412792353315
 20
2.94900859378037
 30
0.0
 10
26.06083653952821
 20
2.95263971268681
 30
0.0
 10
25.73017578412596
 20
2.919389521776091
 30
0.0
 10
25.56422628785643
 20
2.882107540921076
 30
0.0
 10
25.39999999999997
 20
2.825835177283945
 30
0.0
  0
ARC
  5
C7
330
1F
100
AcDbEntity
  8
0
  6
Continuous
 62
     1
370
    15
100
AcDbCircle
 10
25.45120661065957
 20
0.0229674162386402
 30
0.0
 40
3.127285992413869
100
AcDbArc
 50
320.4970582251415
 51
352.120287947849
  0
ARC
  5
C8
330
1F
100
AcDbEntity
  8
0
  6
Continuous
 62
     1
370
    15
100
AcDbCircle
 10
25.36337431067139
 20
0.0560908534875757
 30
0.0
 40
3.218897010396674
100
AcDbArc
 50
306.8490942297367
 51
351.7505934298744
  0
LINE
  5
C9
330
1F
100
AcDbEntity
  8
0
  6
Continuous
 62
     1
370
    15
100
AcDbLine
 10
27.29377739504585
 20
-2.519727831004446
 30
0.0
 11
27.31842742370761
 21
-2.528699707711136
 31
0.0
  0
ARC
  5
CA
330
1F
100
AcDbEntity
  8
0
  6
Continuous
 62
     1
370
    15
100
AcDbCircle
 10
27.89426115469341
 20
0.3796214724672797
 30
0.0
 40
0.7568021983936563
100
AcDbArc
 50
267.7231774729453
 51
329.893257792166
  0
SPLINE
  5
CB
330
1F
100
AcDbEntity
  8
0
  6
Continuous
 62
     1
370
    15
100
AcDbSpline
210
0.0
220
0.0
230
1.0
 70
     8
 71
     3
 72
    10
 73
     6
 74
     0
 42
0.000000001
 43
0.00000001
 40
0.0
 40
0.0
 40
0.0
 40
0.0
 40
0.5000000000000018
 40
0.5000000000000018
 40
0.5059884257502415
 40
0.5059884257502415
 40
0.5059884257502415
 40
0.5059884257502415
 10
25.40000000000023
 20
2.727575916849636
 30
0.0
 10
25.08091929473168
 20
2.850323345392112
 30
0.0
 10
24.76708056984913
 20
2.949132330462171
 30
0.0
 10
24.44389806168719
 20
3.023447410843795
 30
0.0
 10
24.44007300859256
 20
3.024323224796818
 30
0.0
 10
24.43624782211441
 20
3.025195322557011
 30
0.0
  0
LINE
  5
CD
330
1F
100
AcDbEntity
  8
0
  6
Continuous
 62
     1
370
    15
100
AcDbLine
 10
25.26130832843324
 20
2.769200039397576
 30
0.0
 11
25.40000000000019
 21
2.825835177284024
 31
0.0
  0
SPLINE
  5
CE
330
1F
100
AcDbEntity
  8
0
  6
Continuous
 62
     1
370
    15
100
AcDbSpline
210
0.0
220
0.0
230
1.0
 70
    24
 71
     3
 72
     8
 73
     4
 74
     0
 42
0.000000001
 43
0.00000001
 40
0.0
 40
0.0
 40
0.0
 40
0.0
 40
1.0
 40
1.0
 40
1.0
 40
1.0
 10
27.01655989411594
 20
2.418828912249394
 30
0.0
 10
27.11834827562465
 20
2.455876853312701
 30
0.0
 10
27.21900807552589
 20
2.492514024262837
 30
0.0
 10
27.31842742370763
 20
2.528699707711136
 30
0.0
  0
SPLINE
  5
CF
330
1F
100
AcDbEntity
  8
0
  6
Continuous
 62
     1
370
    15
100
AcDbSpline
210
0.0
220
0.0
230
1.0
 70
     8
 71
     3
 72
     8
 73
     4
 74
     0
 42
0.000000001
 43
0.00000001
 40
0.0
 40
0.0
 40
0.0
 40
0.0
 40
1.0
 40
1.0
 40
1.0
 40
1.0
 10
27.01655989411511
 20
2.418828912247898
 30
0.0
 10
27.03248153935303
 20
2.249228455171143
 30
0.0
 10
27.01814522444787
 20
2.07578885242146
 30
0.0
 10
26.9493493166626
 20
1.927295069456319
 30
0.0
  0
SPLINE
  5
D0
330
1F
100
AcDbEntity
  8
0
  6
Continuous
 62
     1
370
    15
100
AcDbSpline
210
0.0
220
0.0
230
1.0
 70
     8
 71
     3
 72
     8
 73
     4
 74
     0
 42
0.000000001
 43
0.00000001
 40
0.0
 40
0.0
 40
0.0
 40
0.0
 40
1.0
 40
1.0
 40
1.0
 40
1.0
 10
27.86419522578334
 20
1.966354986397748
 30
0.0
 10
27.55906633062726
 20
1.95429691655388
 30
0.0
 10
27.25382812534498
 20
1.942822150774297
 30
0.0
 10
26.94934931666272
 20
1.927295069456024
 30
0.0
  0
LINE
  5
D1
330
1F
100
AcDbEntity
  8
0
  6
Continuous
 62
     1
370
    15
100
AcDbLine
 10
26.94934931666259
 20
-0.0000000000000202
 30
0.0
 11
28.54896498478396
 21
-0.0000000000000046
 31
0.0
  0
LINE
  5
D2
330
1F
100
AcDbEntity
  8
중심선
100
AcDbLine
 10
-82.17501250000002
 20
-0.0000000000000035
 30
0.0
 11
34.82366988838447
 21
-0.0000000000000042
 31
0.0
  0
CIRCLE
  5
D3
330
1F
100
AcDbEntity
  8
외형선
100
AcDbCircle
 10
0.0000000000000104
 20
0.0
 30
0.0
 40
3.000000000000005
  0
INSERT
  5
D4
330
1F
100
AcDbEntity
  8
0
  6
Continuous
 62
     7
100
AcDbBlockReference
 66
     1
  2
블럭10
 10
-22.93944368806589
 20
-52.04609937292004
 30
0.0
  0
ATTRIB
  5
D5
330
D4
100
AcDbEntity
  8
FORMAT
 62
     2
100
AcDbText
 10
-33.08107970020252
 20
-49.97073246008785
 30
0.0
 40
4.233333333333333
  1
EM096016 [ 2 FLUTE ]
 41
0.75
  7
SLDTEXTSTYLE0
 11
-33.08107970020252
 21
-52.08739912675452
 31
0.0
100
AcDbAttribute
  2
AUTOATTR0
 70
     0
 74
     1
  0
SEQEND
  5
D6
330
D4
100
AcDbEntity
  8
0
  6
Continuous
 62
     7
  0
HATCH
  5
D7
330
1F
100
AcDbEntity
  8
중심선
100
AcDbHatch
 10
0.0
 20
0.0
 30
0.0
210
0.0
220
0.0
230
1.0
  2
SOLID
 70
     1
 71
     0
 91
        1
 92
        0
 93
        4
 72
     1
 10
-17.22453438368504
 20
-35.7989250712761
 11
-20.67080962752232
 21
-35.7989250712761
 72
     1
 10
-20.67080962752232
 20
-35.7989250712761
 11
-22.79903948672635
 21
-38.3352506518487
 72
     1
 10
-22.79903948672635
 20
-38.3352506518487
 11
-19.35273115777591
 21
-38.33521122254621
 72
     1
 10
-19.35273115777591
 20
-38.33521122254621
 11
-17.22453438368504
 21
-35.7989250712761
 97
        0
 75
     0
 76
     1
 98
        1
 10
0.0
 20
0.0
  0
HATCH
  5
D8
330
1F
100
AcDbEntity
  8
중심선
100
AcDbHatch
 10
0.0
 20
0.0
 30
0.0
210
0.0
220
0.0
230
1.0
  2
SOLID
 70
     1
 71
     0
 91
        1
 92
        0
 93
        4
 72
     1
 10
-12.21177039264909
 20
-35.7989250712761
 11
-15.65804563648637
 21
-35.7989250712761
 72
     1
 10
-15.65804563648637
 20
-35.7989250712761
 11
-20.18918364484376
 21
-41.19892507127612
 72
     1
 10
-20.18918364484376
 20
-41.19892507127612
 11
-16.74290840100648
 21
-41.19892507127612
 72
     1
 10
-16.74290840100648
 20
-41.19892507127612
 11
-12.21177039264909
 21
-35.7989250712761
 97
        0
 75
     0
 76
     1
 98
        1
 10
0.0
 20
0.0
  0
HATCH
  5
D9
330
1F
100
AcDbEntity
  8
중심선
100
AcDbHatch
 10
0.0
 20
0.0
 30
0.0
210
0.0
220
0.0
230
1.0
  2
SOLID
 70
     1
 71
     0
 91
        1
 92
        0
 93
        4
 72
     1
 10
-7.199006401613195
 20
-35.79892507127613
 11
-10.64528164545031
 21
-35.7989250712761
 72
     1
 10
-10.64528164545031
 20
-35.7989250712761
 11
-17.69371854733956
 21
-44.19892507127612
 72
     1
 10
-17.69371854733956
 20
-44.19892507127612
 11
-14.24744330350228
 21
-44.19892507127612
 72
     1
 10
-14.24744330350228
 20
-44.19892507127612
 11
-7.199006401613195
 21
-35.79892507127613
 97
        0
 75
     0
 76
     1
 98
        1
 10
0.0
 20
0.0
  0
HATCH
  5
DA
330
1F
100
AcDbEntity
  8
중심선
100
AcDbHatch
 10
0.0
 20
0.0
 30
0.0
210
0.0
220
0.0
230
1.0
  2
SOLID
 70
     1
 71
     0
 91
        1
 92
        0
 93
        6
 72
     3
 10
-2.399115970600996
 20
-39.99892507132738
 11
3.960054785062284
 21
1.540850780301639E-10
 40
0.3939339440162633
 50
17.09539180608433
 51
320.0019657685079
 73
     0
 72
     1
 10
-0.7161163149004002
 20
-38.58681907591441
 11
1.589185558800638
 21
-36.65249236586649
 72
     3
 10
-2.399115970653842
 20
-39.99892507127625
 11
6.600054785286829
 21
-1.249000902703301E-13
 40
0.6363583540795982
 50
39.99873849337408
 51
368.4976242363724
 73
     1
 72
     1
 10
4.026216521246767
 20
-39.03892507120613
 11
-3.71904866381792
 21
-39.0389250712061
 72
     1
 10
-3.71904866381792
 20
-39.0389250712061
 11
-3.719073708263854
 21
-40.95892507120602
 72
     1
 10
-3.719073708263854
 20
-40.95892507120602
 11
0.7223060612081835
 21
-40.95892507120599
 97
        0
 75
     0
 76
     1
 98
        1
 10
0.0
 20
0.0
  0
DIMENSION
  5
DB
330
1F
100
AcDbEntity
  8
치수문자_일반주서
100
AcDbDimension
  2
_D
 10
-95.02499999999999
 20
-3.175000000000082
 30
0.0
 11
-95.02499999999999
 21
-1.800554803895959
 31
0.0
 70
   160
  1
%%c<>
 71
     2
 42
6.349999999999991
 52
-270.0
  3
SLDDIMSTYLE0
100
AcDbAlignedDimension
 13
-72.21499999999997
 23
3.174999999999995
 33
0.0
 14
-72.21499999999997
 24
-3.174999999999996
 34
0.0
 50
90.0000000000002
100
AcDbRotatedDimension
1001
ACAD
1000
DSTYLE
1002
{
1070
   171
1070
     6
1070
   273
1070
     7
1002
}
  0
INSERT
  5
102
330
1F
100
AcDbEntity
  8
외형선
100
AcDbBlockReference
  2
SW_DOWELSYMBOL_0
 10
0.0000000000000104
 20
0.0
 30
0.0
  0
LINE
  5
12A
330
1F
100
AcDbEntity
  8
0
 62
     4
100
AcDbLine
 10
23.495
 20
-2.539999999999997
 30
0.0
 11
23.495
 21
2.537216754834324
 31
0.0
  0
ARC
  5
12B
330
1F
100
AcDbEntity
  8
0
  6
Continuous
 62
     1
370
    15
100
AcDbCircle
 10
25.4
 20
0.0000000000000053
 30
0.0
 40
3.175
100
AcDbArc
 50
233.1301023541561
 51
126.9507534660436
  0
LINE
  5
12C
330
1F
100
AcDbEntity
  8
0
 62
     4
100
AcDbLine
 10
0.0
 20
-3.174999999999995
 30
0.0
 11
0.0
 21
3.174999999999995
 31
0.0
  0
LINE
  5
12D
330
1F
100
AcDbEntity
  8
0
 62
     4
100
AcDbLine
 10
23.49499999999999
 20
2.537216754834323
 30
0.0
 11
0.0
 21
3.143063305354167
 31
0.0
  0
LINE
  5
12E
330
1F
100
AcDbEntity
  8
0
 62
     4
100
AcDbLine
 10
0.0
 20
-3.143063305354174
 30
0.0
 11
23.495
 21
-2.539999999999996
 31
0.0
  0
SPLINE
  5
12F
330
1F
100
AcDbEntity
  8
0
  6
Continuous
 62
     4
370
    15
100
AcDbSpline
210
0.0
220
0.0
230
1.0
 70
     8
 71
     3
 72
     8
 73
     4
 74
     0
 42
0.000000001
 43
0.00000001
 40
0.9235953944044996
 40
0.9235953944044996
 40
0.9235953944044996
 40
0.9235953944044996
 40
1.0
 40
1.0
 40
1.0
 40
1.0
 10
21.73220970777222
 20
2.582672401475568
 30
0.0
 10
21.68476452795096
 20
2.557401152142156
 30
0.0
 10
21.63738037385094
 20
2.529479201656596
 30
0.0
 10
21.59000000000023
 20
2.498763406274903
 30
0.0
  0
LINE
  5
130
330
1F
100
AcDbEntity
  8
0
 62
     4
100
AcDbLine
 10
19.49490252766118
 20
0.8165568690098218
 30
0.0
 11
19.49490252766115
 21
-1.717317026159328
 31
0.0
  0
DIMENSION
  5
133
330
1F
100
AcDbEntity
  8
치수문자_일반주서
100
AcDbDimension
  2
*D5
 10
49.61227470393992
 20
3.175000000000004
 30
0.0
 11
46.98727470393992
 21
22.4665
 31
0.0
 70
    32
  1
{%%c<>[]}
 71
     5
 42
6.35
  3
SLDDIMSTYLE0
100
AcDbAlignedDimension
 13
28.575
 23
-3.174999999999995
 33
0.0
 14
28.52805664007841
 24
3.175000000000005
 34
0.0
 50
90.0
100
AcDbRotatedDimension
1001
ACAD
1000
DSTYLE
1002
{
1070
   283
1070
     1
1070
   170
1070
     1
1070
   171
1070
     6
1070
   273
1070
     7
1002
}
  0
DIMENSION
  5
145
330
1F
100
AcDbEntity
  8
치수문자_일반주서
100
AcDbDimension
  2
*D6
 10
23.49141744936407
 20
29.55645100535897
 30
0.0
 11
5.293667449364072
 21
32.18145100535897
 31
0.0
 70
    32
 71
     5
 42
5.083582550635928
  3
SLDDIMSTYLE0
100
AcDbAlignedDimension
 13
28.575
 23
3.175000000000005
 33
0.0
 14
23.49141744936407
 24
2.537309135168217
 34
0.0
100
AcDbRotatedDimension
1001
ACAD
1000
DSTYLE
1002
{
1070
   171
1070
     2
1070
   273
1070
     2
1002
}
  0
DIMENSION
  5
156
330
1F
100
AcDbEntity
  8
치수문자_일반주서
100
AcDbDimension
  2
*D7
 10
0.0
 20
44.27794787629603
 30
0.0
 11
-21.479
 21
46.90294787629603
 31
0.0
 70
    32
 71
     5
 42
28.575
  3
SLDDIMSTYLE0
100
AcDbAlignedDimension
 13
28.575
 23
3.175000000000005
 33
0.0
 14
0.0
 24
3.143063305354167
 34
0.0
100
AcDbRotatedDimension
1001
ACAD
1000
DSTYLE
1002
{
1070
   171
1070
     6
1070
   273
1070
     7
1002
}
  0
DIMENSION
  5
165
330
1F
100
AcDbEntity
  8
치수문자_일반주서
100
AcDbDimension
  2
*D8
 10
-73.02499999999999
 20
58.05646785205445
 30
0.0
 11
-22.22499999999999
 21
60.68146785205445
 31
0.0
 70
    32
 71
     5
 42
101.6
  3
SLDDIMSTYLE0
100
AcDbAlignedDimension
 13
28.575
 23
3.175000000000005
 33
0.0
 14
-73.02499999999999
 24
2.364999999999985
 34
0.0
100
AcDbRotatedDimension
1001
ACAD
1000
DSTYLE
1002
{
1070
   171
1070
     6
1070
   273
1070
     7
1002
}
  0
ENDSEC
  0
SECTION
  2
OBJECTS
  0
DICTIONARY
  5
C
330
0
100
AcDbDictionary
281
     1
  3
ACAD_DETAILVIEWSTYLE
350
179
  3
ACAD_GROUP
350
D
  3
ACAD_IMAGE_VARS
350
126
  3
ACAD_LAYOUT
350
1A
  3
ACAD_MLINESTYLE
350
17
  3
ACAD_PLOTSETTINGS
350
19
  3
ACAD_PLOTSTYLENAME
350
E
  3
ACAD_SCALELIST
350
47
  3
ACAD_SECTIONVIEWSTYLE
350
17A
  3
AcDbVariableDictionary
350
174
  3
APPDATA
350
124
  3
DWGPROPS
350
1A1
  0
DICTIONARY
  5
179
102
{ACAD_REACTORS
330
C
102
}
330
C
100
AcDbDictionary
281
     1
  0
DICTIONARY
  5
D
102
{ACAD_REACTORS
330
C
102
}
330
C
100
AcDbDictionary
281
     1
  0
RASTERVARIABLES
  5
126
102
{ACAD_REACTORS
330
C
102
}
330
C
100
AcDbRasterVariables
 90
        0
 70
     1
 71
     1
 72
     1
  0
DICTIONARY
  5
1A
102
{ACAD_REACTORS
330
C
102
}
330
C
100
AcDbDictionary
281
     1
  3
Layout1
350
1E
  3
Layout2
350
26
  3
Model
350
22
  0
DICTIONARY
  5
17
102
{ACAD_REACTORS
330
C
102
}
330
C
100
AcDbDictionary
281
     1
  3
Standard
350
18
  0
DICTIONARY
  5
19
102
{ACAD_REACTORS
330
C
102
}
330
C
100
AcDbDictionary
281
     1
  0
ACDBDICTIONARYWDFLT
  5
E
102
{ACAD_REACTORS
330
C
102
}
330
C
100
AcDbDictionary
281
     1
  3
Normal
350
F
100
AcDbDictionaryWithDefault
340
F
  0
DICTIONARY
  5
47
102
{ACAD_REACTORS
330
C
102
}
330
C
100
AcDbDictionary
281
     1
  3
A0
350
48
  3
A1
350
49
  3
A2
350
4A
  3
A3
350
4B
  3
A4
350
4C
  3
A5
350
4D
  3
A6
350
4E
  3
A7
350
4F
  3
A8
350
50
  3
A9
350
51
  3
B0
350
52
  3
B1
350
53
  3
B2
350
54
  3
B3
350
55
  3
B4
350
56
  3
B5
350
57
  3
B6
350
58
  3
B7
350
59
  3
B8
350
5A
  3
B9
350
5B
  3
C0
350
5C
  3
C1
350
5D
  3
C2
350
5E
  3
C3
350
5F
  3
C4
350
60
  3
C5
350
61
  3
C6
350
62
  3
C7
350
63
  3
C8
350
64
  3
C9
350
65
  3
D0
350
66
  3
D1
350
67
  3
D2
350
68
  0
DICTIONARY
  5
17A
102
{ACAD_REACTORS
330
C
102
}
330
C
100
AcDbDictionary
281
     1
  0
DICTIONARY
  5
174
102
{ACAD_REACTORS
330
C
102
}
330
C
100
AcDbDictionary
281
     1
  0
DICTIONARY
  5
124
102
{ACAD_REACTORS
330
C
102
}
330
C
100
AcDbDictionary
281
     1
  0
XRECORD
  5
1A1
102
{ACAD_REACTORS
330
C
102
}
330
C
100
AcDbXrecord
280
     1
  1
DWGPROPS COOKIE
  2

  3

  4

  6

  7

  8
12015048
  9

300
=
301
=
302
=
303
=
304
=
305
=
306
=
307
=
308
=
309
=
 40
0.0
 41
2458272.313284352
 42
2458297.283807592
  1

 90
        0
  0
LAYOUT
  5
1E
102
{ACAD_REACTORS
330
1A
102
}
330
1A
100
AcDbPlotSettings
  1

  2
none_device
  4

  6

 40
0.0
 41
0.0
 42
0.0
 43
0.0
 44
0.0
 45
0.0
 46
0.0
 47
0.0
 48
0.0
 49
0.0
140
0.0
141
0.0
142
1.0
143
1.0
 70
   688
 72
     1
 73
     0
 74
     5
  7

 75
    16
147
1.0
148
0.0
149
0.0
100
AcDbLayout
  1
Layout1
 70
     1
 71
     1
 10
0.0
 20
0.0
 11
420.0
 21
297.0
 12
0.0
 22
0.0
 32
0.0
 14
1.000000000000000E+20
 24
1.000000000000000E+20
 34
1.000000000000000E+20
 15
-1.000000000000000E+20
 25
-1.000000000000000E+20
 35
-1.000000000000000E+20
146
0.0
 13
0.0
 23
0.0
 33
0.0
 16
1.0
 26
0.0
 36
0.0
 17
0.0
 27
1.0
 37
0.0
 76
     0
330
1B
  0
LAYOUT
  5
26
102
{ACAD_REACTORS
330
1A
102
}
330
1A
100
AcDbPlotSettings
  1

  2
none_device
  4

  6

 40
0.0
 41
0.0
 42
0.0
 43
0.0
 44
0.0
 45
0.0
 46
0.0
 47
0.0
 48
0.0
 49
0.0
140
0.0
141
0.0
142
1.0
143
1.0
 70
   688
 72
     1
 73
     0
 74
     5
  7

 75
    16
147
1.0
148
0.0
149
0.0
100
AcDbLayout
  1
Layout2
 70
     1
 71
     2
 10
0.0
 20
0.0
 11
0.0
 21
0.0
 12
0.0
 22
0.0
 32
0.0
 14
0.0
 24
0.0
 34
0.0
 15
0.0
 25
0.0
 35
0.0
146
0.0
 13
0.0
 23
0.0
 33
0.0
 16
1.0
 26
0.0
 36
0.0
 17
0.0
 27
1.0
 37
0.0
 76
     0
330
23
  0
LAYOUT
  5
22
102
{ACAD_REACTORS
330
1A
102
}
330
1A
100
AcDbPlotSettings
  1

  2
none_device
  4
ANSI_A_(11.00_x_8.50_Inches)
  6

 40
6.35
 41
19.05
 42
6.35000508
 43
19.05000254
 44
279.4
 45
215.9
 46
223.4988193748053
 47
130.3460877653581
 48
0.0
 49
0.0
140
0.0
141
0.0
142
0.080562891574517
143
1.0
 70
  1696
 72
     0
 73
     0
 74
     0
  7

 75
     0
147
0.0235690232323232
148
0.0
149
0.0
100
AcDbLayout
  1
Model
 70
     1
 71
     0
 10
0.0
 20
0.0
 11
420.0
 21
297.0
 12
0.0
 22
0.0
 32
0.0
 14
-99.40000000000003
 24
-49.97073246008785
 34
0.0
 15
50.16260803727323
 25
62.43146785205444
 35
0.0
146
0.0
 13
0.0
 23
0.0
 33
0.0
 16
1.0
 26
0.0
 36
0.0
 17
0.0
 27
1.0
 37
0.0
 76
     0
330
1F
331
29
  0
MLINESTYLE
  5
18
102
{ACAD_REACTORS
330
17
102
}
330
17
100
AcDbMlineStyle
  2
Standard
 70
     0
  3

 62
   256
 51
90.0
 52
90.0
 71
     2
 49
0.5
 62
   256
  6
BYLAYER
 49
-0.5
 62
   256
  6
BYLAYER
  0
ACDBPLACEHOLDER
  5
F
102
{ACAD_REACTORS
330
E
102
}
330
E
  0
SCALE
  5
48
102
{ACAD_REACTORS
330
47
102
}
330
47
100
AcDbScale
 70
     0
300
1:1
140
1.0
141
1.0
290
     1
  0
SCALE
  5
49
102
{ACAD_REACTORS
330
47
102
}
330
47
100
AcDbScale
 70
     0
300
1:2
140
1.0
141
2.0
290
     0
  0
SCALE
  5
4A
102
{ACAD_REACTORS
330
47
102
}
330
47
100
AcDbScale
 70
     0
300
1:4
140
1.0
141
4.0
290
     0
  0
SCALE
  5
4B
102
{ACAD_REACTORS
330
47
102
}
330
47
100
AcDbScale
 70
     0
300
1:5
140
1.0
141
5.0
290
     0
  0
SCALE
  5
4C
102
{ACAD_REACTORS
330
47
102
}
330
47
100
AcDbScale
 70
     0
300
1:8
140
1.0
141
8.0
290
     0
  0
SCALE
  5
4D
102
{ACAD_REACTORS
330
47
102
}
330
47
100
AcDbScale
 70
     0
300
1:10
140
1.0
141
10.0
290
     0
  0
SCALE
  5
4E
102
{ACAD_REACTORS
330
47
102
}
330
47
100
AcDbScale
 70
     0
300
1:16
140
1.0
141
16.0
290
     0
  0
SCALE
  5
4F
102
{ACAD_REACTORS
330
47
102
}
330
47
100
AcDbScale
 70
     0
300
1:20
140
1.0
141
20.0
290
     0
  0
SCALE
  5
50
102
{ACAD_REACTORS
330
47
102
}
330
47
100
AcDbScale
 70
     0
300
1:30
140
1.0
141
30.0
290
     0
  0
SCALE
  5
51
102
{ACAD_REACTORS
330
47
102
}
330
47
100
AcDbScale
 70
     0
300
1:40
140
1.0
141
40.0
290
     0
  0
SCALE
  5
52
102
{ACAD_REACTORS
330
47
102
}
330
47
100
AcDbScale
 70
     0
300
1:50
140
1.0
141
50.0
290
     0
  0
SCALE
  5
53
102
{ACAD_REACTORS
330
47
102
}
330
47
100
AcDbScale
 70
     0
300
1:100
140
1.0
141
100.0
290
     0
  0
SCALE
  5
54
102
{ACAD_REACTORS
330
47
102
}
330
47
100
AcDbScale
 70
     0
300
2:1
140
2.0
141
1.0
290
     0
  0
SCALE
  5
55
102
{ACAD_REACTORS
330
47
102
}
330
47
100
AcDbScale
 70
     0
300
4:1
140
4.0
141
1.0
290
     0
  0
SCALE
  5
56
102
{ACAD_REACTORS
330
47
102
}
330
47
100
AcDbScale
 70
     0
300
8:1
140
8.0
141
1.0
290
     0
  0
SCALE
  5
57
102
{ACAD_REACTORS
330
47
102
}
330
47
100
AcDbScale
 70
     0
300
10:1
140
10.0
141
1.0
290
     0
  0
SCALE
  5
58
102
{ACAD_REACTORS
330
47
102
}
330
47
100
AcDbScale
 70
     0
300
100:1
140
100.0
141
1.0
290
     0
  0
SCALE
  5
59
102
{ACAD_REACTORS
330
47
102
}
330
47
100
AcDbScale
 70
     0
300
1/128" = 1'-0"
140
0.0078125
141
12.0
290
     0
  0
SCALE
  5
5A
102
{ACAD_REACTORS
330
47
102
}
330
47
100
AcDbScale
 70
     0
300
1/64" = 1'-0"
140
0.015625
141
12.0
290
     0
  0
SCALE
  5
5B
102
{ACAD_REACTORS
330
47
102
}
330
47
100
AcDbScale
 70
     0
300
1/32" = 1'-0"
140
0.03125
141
12.0
290
     0
  0
SCALE
  5
5C
102
{ACAD_REACTORS
330
47
102
}
330
47
100
AcDbScale
 70
     0
300
1/16" = 1'-0"
140
0.0625
141
12.0
290
     0
  0
SCALE
  5
5D
102
{ACAD_REACTORS
330
47
102
}
330
47
100
AcDbScale
 70
     0
300
3/32" = 1'-0"
140
0.09375
141
12.0
290
     0
  0
SCALE
  5
5E
102
{ACAD_REACTORS
330
47
102
}
330
47
100
AcDbScale
 70
     0
300
1/8" = 1'-0"
140
0.125
141
12.0
290
     0
  0
SCALE
  5
5F
102
{ACAD_REACTORS
330
47
102
}
330
47
100
AcDbScale
 70
     0
300
3/16" = 1'-0"
140
0.1875
141
12.0
290
     0
  0
SCALE
  5
60
102
{ACAD_REACTORS
330
47
102
}
330
47
100
AcDbScale
 70
     0
300
1/4" = 1'-0"
140
0.25
141
12.0
290
     0
  0
SCALE
  5
61
102
{ACAD_REACTORS
330
47
102
}
330
47
100
AcDbScale
 70
     0
300
3/8" = 1'-0"
140
0.375
141
12.0
290
     0
  0
SCALE
  5
62
102
{ACAD_REACTORS
330
47
102
}
330
47
100
AcDbScale
 70
     0
300
1/2" = 1'-0"
140
0.5
141
12.0
290
     0
  0
SCALE
  5
63
102
{ACAD_REACTORS
330
47
102
}
330
47
100
AcDbScale
 70
     0
300
3/4" = 1'-0"
140
0.75
141
12.0
290
     0
  0
SCALE
  5
64
102
{ACAD_REACTORS
330
47
102
}
330
47
100
AcDbScale
 70
     0
300
1" = 1'-0"
140
1.0
141
12.0
290
     0
  0
SCALE
  5
65
102
{ACAD_REACTORS
330
47
102
}
330
47
100
AcDbScale
 70
     0
300
1-1/2" = 1'-0"
140
1.5
141
12.0
290
     0
  0
SCALE
  5
66
102
{ACAD_REACTORS
330
47
102
}
330
47
100
AcDbScale
 70
     0
300
3" = 1'-0"
140
3.0
141
12.0
290
     0
  0
SCALE
  5
67
102
{ACAD_REACTORS
330
47
102
}
330
47
100
AcDbScale
 70
     0
300
6" = 1'-0"
140
6.0
141
12.0
290
     0
  0
SCALE
  5
68
102
{ACAD_REACTORS
330
47
102
}
330
47
100
AcDbScale
 70
     0
300
1'-0" = 1'-0"
140
12.0
141
12.0
290
     0
  0
ENDSEC
  0
EOF
