  0
SECTION
  2
HEADER
  9
$ACADVER
  1
AC1015
  9
$ACADMAINTVER
 70
     6
  9
$DWGCODEPAGE
  3
ANSI_949
  9
$INSBASE
 10
0.0
 20
0.0
 30
0.0
  9
$EXTMIN
 10
-86.51500000000004
 20
-49.97073246008785
 30
0.0
  9
$EXTMAX
 10
54.87828770183967
 20
70.74059025852581
 30
0.0
  9
$LIMMIN
 10
0.0
 20
0.0
  9
$LIMMAX
 10
420.0
 20
297.0
  9
$ORTHOMODE
 70
     1
  9
$REGENMODE
 70
     1
  9
$FILLMODE
 70
     1
  9
$QTEXTMODE
 70
     0
  9
$MIRRTEXT
 70
     1
  9
$LTSCALE
 40
1.0
  9
$ATTMODE
 70
     1
  9
$TEXTSIZE
 40
3.5
  9
$TRACEWID
 40
1.0
  9
$TEXTSTYLE
  7
Standard
  9
$CLAYER
  8
0
  9
$CELTYPE
  6
ByLayer
  9
$CECOLOR
 62
   256
  9
$CELTSCALE
 40
1.0
  9
$DISPSILH
 70
     0
  9
$DIMSCALE
 40
1.0
  9
$DIMASZ
 40
3.302
  9
$DIMEXO
 40
1.0
  9
$DIMDLI
 40
3.75
  9
$DIMRND
 40
0.0
  9
$DIMDLE
 40
0.0
  9
$DIMEXE
 40
1.0
  9
$DIMTP
 40
0.0
  9
$DIMTM
 40
0.0
  9
$DIMTXT
 40
3.5
  9
$DIMCEN
 40
2.5
  9
$DIMTSZ
 40
0.0
  9
$DIMTOL
 70
     0
  9
$DIMLIM
 70
     0
  9
$DIMTIH
 70
     1
  9
$DIMTOH
 70
     1
  9
$DIMSE1
 70
     0
  9
$DIMSE2
 70
     0
  9
$DIMTAD
 70
     1
  9
$DIMZIN
 70
     0
  9
$DIMBLK
  1

  9
$DIMASO
 70
     1
  9
$DIMSHO
 70
     1
  9
$DIMPOST
  1

  9
$DIMAPOST
  1

  9
$DIMALT
 70
     0
  9
$DIMALTD
 70
     3
  9
$DIMALTF
 40
0.0393700787401575
  9
$DIMLFAC
 40
1.0
  9
$DIMTOFL
 70
     1
  9
$DIMTVP
 40
0.0
  9
$DIMTIX
 70
     0
  9
$DIMSOXD
 70
     0
  9
$DIMSAH
 70
     0
  9
$DIMBLK1
  1

  9
$DIMBLK2
  1

  9
$DIMSTYLE
  2
ISO-25
  9
$DIMCLRD
 70
     0
  9
$DIMCLRE
 70
     0
  9
$DIMCLRT
 70
     0
  9
$DIMTFAC
 40
1.0
  9
$DIMGAP
 40
1.524
  9
$DIMJUST
 70
     0
  9
$DIMSD1
 70
     0
  9
$DIMSD2
 70
     0
  9
$DIMTOLJ
 70
     0
  9
$DIMTZIN
 70
     0
  9
$DIMALTZ
 70
     0
  9
$DIMALTTZ
 70
     0
  9
$DIMUPT
 70
     0
  9
$DIMDEC
 70
     2
  9
$DIMTDEC
 70
     2
  9
$DIMALTU
 70
     2
  9
$DIMALTTD
 70
     3
  9
$DIMTXSTY
  7
Standard
  9
$DIMAUNIT
 70
     0
  9
$DIMADEC
 70
     2
  9
$DIMALTRND
 40
0.0
  9
$DIMAZIN
 70
     0
  9
$DIMDSEP
 70
    44
  9
$DIMATFIT
 70
     3
  9
$DIMFRAC
 70
     0
  9
$DIMLDRBLK
  1

  9
$DIMLUNIT
 70
     2
  9
$DIMLWD
 70
    -2
  9
$DIMLWE
 70
    -2
  9
$DIMTMOVE
 70
     0
  9
$LUNITS
 70
     2
  9
$LUPREC
 70
     2
  9
$SKETCHINC
 40
1.0
  9
$FILLETRAD
 40
10.0
  9
$AUNITS
 70
     0
  9
$AUPREC
 70
     2
  9
$MENU
  1
.
  9
$ELEVATION
 40
0.0
  9
$PELEVATION
 40
0.0
  9
$THICKNESS
 40
0.0
  9
$LIMCHECK
 70
     0
  9
$CHAMFERA
 40
0.0
  9
$CHAMFERB
 40
0.0
  9
$CHAMFERC
 40
0.0
  9
$CHAMFERD
 40
0.0
  9
$SKPOLY
 70
     0
  9
$TDCREATE
 40
2458272.688513658
  9
$TDUCREATE
 40
2458272.313513658
  9
$TDUPDATE
 40
2458297.658466181
  9
$TDUUPDATE
 40
2458297.283466181
  9
$TDINDWG
 40
0.0024940741
  9
$TDUSRTIMER
 40
2458297.28320868
  9
$USRTIMER
 70
     1
  9
$ANGBASE
 50
0.0
  9
$ANGDIR
 70
     0
  9
$PDMODE
 70
     0
  9
$PDSIZE
 40
-1.0
  9
$PLINEWID
 40
0.0
  9
$SPLFRAME
 70
     0
  9
$SPLINETYPE
 70
     6
  9
$SPLINESEGS
 70
     8
  9
$HANDSEED
  5
19E
  9
$SURFTAB1
 70
     6
  9
$SURFTAB2
 70
     6
  9
$SURFTYPE
 70
     6
  9
$SURFU
 70
     6
  9
$SURFV
 70
     6
  9
$UCSBASE
  2

  9
$UCSNAME
  2

  9
$UCSORG
 10
0.0
 20
0.0
 30
0.0
  9
$UCSXDIR
 10
1.0
 20
0.0
 30
0.0
  9
$UCSYDIR
 10
0.0
 20
1.0
 30
0.0
  9
$UCSORTHOREF
  2

  9
$UCSORTHOVIEW
 70
     0
  9
$UCSORGTOP
 10
0.0
 20
0.0
 30
0.0
  9
$UCSORGBOTTOM
 10
0.0
 20
0.0
 30
0.0
  9
$UCSORGLEFT
 10
0.0
 20
0.0
 30
0.0
  9
$UCSORGRIGHT
 10
0.0
 20
0.0
 30
0.0
  9
$UCSORGFRONT
 10
0.0
 20
0.0
 30
0.0
  9
$UCSORGBACK
 10
0.0
 20
0.0
 30
0.0
  9
$PUCSBASE
  2

  9
$PUCSNAME
  2

  9
$PUCSORG
 10
0.0
 20
0.0
 30
0.0
  9
$PUCSXDIR
 10
1.0
 20
0.0
 30
0.0
  9
$PUCSYDIR
 10
0.0
 20
1.0
 30
0.0
  9
$PUCSORTHOREF
  2

  9
$PUCSORTHOVIEW
 70
     0
  9
$PUCSORGTOP
 10
0.0
 20
0.0
 30
0.0
  9
$PUCSORGBOTTOM
 10
0.0
 20
0.0
 30
0.0
  9
$PUCSORGLEFT
 10
0.0
 20
0.0
 30
0.0
  9
$PUCSORGRIGHT
 10
0.0
 20
0.0
 30
0.0
  9
$PUCSORGFRONT
 10
0.0
 20
0.0
 30
0.0
  9
$PUCSORGBACK
 10
0.0
 20
0.0
 30
0.0
  9
$USERI1
 70
     0
  9
$USERI2
 70
     0
  9
$USERI3
 70
     0
  9
$USERI4
 70
     0
  9
$USERI5
 70
     0
  9
$USERR1
 40
0.0
  9
$USERR2
 40
0.0
  9
$USERR3
 40
0.0
  9
$USERR4
 40
0.0
  9
$USERR5
 40
0.0
  9
$WORLDVIEW
 70
     1
  9
$SHADEDGE
 70
     3
  9
$SHADEDIF
 70
    70
  9
$TILEMODE
 70
     1
  9
$MAXACTVP
 70
    64
  9
$PINSBASE
 10
0.0
 20
0.0
 30
0.0
  9
$PLIMCHECK
 70
     0
  9
$PEXTMIN
 10
1.000000000000000E+20
 20
1.000000000000000E+20
 30
1.000000000000000E+20
  9
$PEXTMAX
 10
-1.000000000000000E+20
 20
-1.000000000000000E+20
 30
-1.000000000000000E+20
  9
$PLIMMIN
 10
0.0
 20
0.0
  9
$PLIMMAX
 10
0.0
 20
0.0
  9
$UNITMODE
 70
     0
  9
$VISRETAIN
 70
     1
  9
$PLINEGEN
 70
     0
  9
$PSLTSCALE
 70
     1
  9
$TREEDEPTH
 70
  3020
  9
$CMLSTYLE
  2
Standard
  9
$CMLJUST
 70
     0
  9
$CMLSCALE
 40
20.0
  9
$PROXYGRAPHICS
 70
     1
  9
$MEASUREMENT
 70
     1
  9
$CELWEIGHT
370
    -1
  9
$ENDCAPS
280
     0
  9
$JOINSTYLE
280
     0
  9
$LWDISPLAY
290
     1
  9
$INSUNITS
 70
     4
  9
$HYPERLINKBASE
  1

  9
$STYLESHEET
  1

  9
$XEDIT
290
     1
  9
$CEPSNTYPE
380
     0
  9
$PSTYLEMODE
290
     1
  9
$FINGERPRINTGUID
  2
{F77924AE-B9FA-4BF9-A6B5-479DF9B932D8}
  9
$VERSIONGUID
  2
{FAEB1C32-E019-11D5-929B-00C0DF256EC4}
  9
$EXTNAMES
290
     1
  9
$PSVPSCALE
 40
0.0
  9
$OLESTARTUP
290
     0
  0
ENDSEC
  0
SECTION
  2
CLASSES
  0
CLASS
  1
ACDBDICTIONARYWDFLT
  2
AcDbDictionaryWithDefault
  3
ObjectDBX Classes
 90
        0
280
     0
281
     0
  0
CLASS
  1
VISUALSTYLE
  2
AcDbVisualStyle
  3
ObjectDBX Classes
 90
     4095
280
     0
281
     0
  0
CLASS
  1
MATERIAL
  2
AcDbMaterial
  3
ObjectDBX Classes
 90
     1153
280
     0
281
     0
  0
CLASS
  1
SCALE
  2
AcDbScale
  3
ObjectDBX Classes
 90
     1153
280
     0
281
     0
  0
CLASS
  1
SUN
  2
AcDbSun
  3
SCENEOE
 90
     1153
280
     0
281
     0
  0
CLASS
  1
ACDBPLACEHOLDER
  2
AcDbPlaceHolder
  3
ObjectDBX Classes
 90
        0
280
     0
281
     0
  0
CLASS
  1
LAYOUT
  2
AcDbLayout
  3
ObjectDBX Classes
 90
        0
280
     0
281
     0
  0
CLASS
  1
TABLESTYLE
  2
AcDbTableStyle
  3
ObjectDBX Classes
 90
     4095
280
     0
281
     0
  0
CLASS
  1
MLEADERSTYLE
  2
AcDbMLeaderStyle
  3
ACDB_MLEADERSTYLE_CLASS
 90
     4095
280
     0
281
     0
  0
CLASS
  1
RASTERVARIABLES
  2
AcDbRasterVariables
  3
ISM
 90
        0
280
     0
281
     0
  0
CLASS
  1
DIMASSOC
  2
AcDbDimAssoc
  3
"AcDbDimAssoc|Product Desc:     AcDim ARX App For Dimension|Company:          Autodesk, Inc.|WEB Address:      www.autodesk.com"
 90
        0
280
     0
281
     0
  0
CLASS
  1
DICTIONARYVAR
  2
AcDbDictionaryVar
  3
ObjectDBX Classes
 90
        0
280
     0
281
     0
  0
ENDSEC
  0
SECTION
  2
TABLES
  0
TABLE
  2
VPORT
  5
8
330
0
100
AcDbSymbolTable
 70
     1
  0
VPORT
  5
29
330
8
100
AcDbSymbolTableRecord
100
AcDbViewportTableRecord
  2
*Active
 70
     0
 10
0.0
 20
0.0
 11
1.0
 21
1.0
 12
3.556343117068991
 22
18.80541582162068
 13
0.0
 23
0.0
 14
10.0
 24
10.0
 15
10.0
 25
10.0
 16
0.0
 26
0.0
 36
1.0
 17
0.0
 27
0.0
 37
0.0
 40
159.0792233353741
 41
2.22554347826087
 42
50.0
 43
0.0
 44
0.0
 50
0.0
 51
0.0
 71
    16
 72
  2000
 73
     1
 74
     3
 75
     0
 76
     0
 77
     0
 78
     0
281
     0
 65
     1
110
0.0
120
0.0
130
0.0
111
1.0
121
0.0
131
0.0
112
0.0
122
1.0
132
0.0
 79
     0
146
0.0
  0
ENDTAB
  0
TABLE
  2
LTYPE
  5
5
330
0
100
AcDbSymbolTable
 70
     6
  0
LTYPE
  5
14
330
5
100
AcDbSymbolTableRecord
100
AcDbLinetypeTableRecord
  2
ByBlock
 70
     0
  3

 72
    65
 73
     0
 40
0.0
  0
LTYPE
  5
15
330
5
100
AcDbSymbolTableRecord
100
AcDbLinetypeTableRecord
  2
ByLayer
 70
     0
  3

 72
    65
 73
     0
 40
0.0
  0
LTYPE
  5
16
330
5
100
AcDbSymbolTableRecord
100
AcDbLinetypeTableRecord
  2
Continuous
 70
     0
  3
Solid line
 72
    65
 73
     0
 40
0.0
  0
LTYPE
  5
6A
330
5
100
AcDbSymbolTableRecord
100
AcDbLinetypeTableRecord
  2
HIDDEN
 70
     0
  3
Hidden __ __ __ __ __ __ __ __ __ __ __ __ __ __
 72
    65
 73
     2
 40
1.905
 49
1.27
 74
     0
 49
-0.635
 74
     0
  0
LTYPE
  5
6B
330
5
100
AcDbSymbolTableRecord
100
AcDbLinetypeTableRecord
  2
PHANTOM
 70
     0
  3
Phantom ______  __  __  ______  __  __  ______
 72
    65
 73
     6
 40
12.7
 49
6.35
 74
     0
 49
-1.27
 74
     0
 49
1.27
 74
     0
 49
-1.27
 74
     0
 49
1.27
 74
     0
 49
-1.27
 74
     0
  0
LTYPE
  5
6C
330
5
100
AcDbSymbolTableRecord
100
AcDbLinetypeTableRecord
  2
CENTER
 70
     0
  3
Center ____ _ ____ _ ____ _ ____ _ ____ _ ____
 72
    65
 73
     4
 40
10.16
 49
6.35
 74
     0
 49
-1.27
 74
     0
 49
1.27
 74
     0
 49
-1.27
 74
     0
  0
LTYPE
  5
6D
330
5
100
AcDbSymbolTableRecord
100
AcDbLinetypeTableRecord
  2
CENTERX2
 70
     0
  3
Center (2x) ________  __  ________  __  _____
 72
    65
 73
     4
 40
20.32
 49
12.7
 74
     0
 49
-2.54
 74
     0
 49
2.54
 74
     0
 49
-2.54
 74
     0
  0
LTYPE
  5
6E
330
5
100
AcDbSymbolTableRecord
100
AcDbLinetypeTableRecord
  2
DOT2
 70
     0
  3
Dot (.5x) ........................................
 72
    65
 73
     2
 40
0.635
 49
0.0
 74
     0
 49
-0.635
 74
     0
  0
ENDTAB
  0
TABLE
  2
LAYER
  5
2
330
0
100
AcDbSymbolTable
 70
    17
  0
LAYER
  5
10
330
2
100
AcDbSymbolTableRecord
100
AcDbLayerTableRecord
  2
0
 70
     0
 62
     7
  6
Continuous
370
    -3
390
F
  0
LAYER
  5
6F
330
2
100
AcDbSymbolTableRecord
100
AcDbLayerTableRecord
  2
FORMAT
 70
     0
 62
     2
  6
Continuous
370
    -3
390
F
  0
LAYER
  5
70
330
2
100
AcDbSymbolTableRecord
100
AcDbLayerTableRecord
  2
외형선
 70
     0
 62
   100
  6
Continuous
370
    30
390
F
  0
LAYER
  5
71
330
2
100
AcDbSymbolTableRecord
100
AcDbLayerTableRecord
  2
숨은선
 70
     0
 62
     2
  6
HIDDEN
370
    15
390
F
  0
LAYER
  5
72
330
2
100
AcDbSymbolTableRecord
100
AcDbLayerTableRecord
  2
중심선
 70
     0
 62
     1
  6
CENTERX2
370
    -3
390
F
  0
LAYER
  5
73
330
2
100
AcDbSymbolTableRecord
100
AcDbLayerTableRecord
  2
파단선
 70
     0
 62
     4
  6
Continuous
370
    -3
390
F
  0
LAYER
  5
74
330
2
100
AcDbSymbolTableRecord
100
AcDbLayerTableRecord
  2
해칭선
 70
     0
 62
     4
  6
Continuous
370
    -3
390
F
  0
LAYER
  5
75
330
2
100
AcDbSymbolTableRecord
100
AcDbLayerTableRecord
  2
가는실선
 70
     0
 62
     4
  6
Continuous
370
    -3
390
F
  0
LAYER
  5
76
330
2
100
AcDbSymbolTableRecord
100
AcDbLayerTableRecord
  2
치수_보조선
 70
     0
 62
     4
  6
Continuous
370
    -3
390
F
  0
LAYER
  5
77
330
2
100
AcDbSymbolTableRecord
100
AcDbLayerTableRecord
  2
치수문자_일반주서
 70
     0
 62
     7
  6
Continuous
370
    15
390
F
  0
LAYER
  5
78
330
2
100
AcDbSymbolTableRecord
100
AcDbLayerTableRecord
  2
개별주서
 70
     0
 62
   100
  6
Continuous
370
    30
390
F
  0
LAYER
  5
79
330
2
100
AcDbSymbolTableRecord
100
AcDbLayerTableRecord
  2
중간선
 70
     0
 62
     2
  6
Continuous
370
    15
390
F
  0
LAYER
  5
7A
330
2
100
AcDbSymbolTableRecord
100
AcDbLayerTableRecord
  2
윤곽선
 70
     0
 62
     3
  6
Continuous
370
    40
390
F
  0
LAYER
  5
7B
330
2
100
AcDbSymbolTableRecord
100
AcDbLayerTableRecord
  2
중심마크
 70
     0
 62
   100
  6
Continuous
370
    30
390
F
  0
LAYER
  5
7C
330
2
100
AcDbSymbolTableRecord
100
AcDbLayerTableRecord
  2
가상선
 70
     0
 62
     4
  6
PHANTOM
370
    -3
390
F
  0
LAYER
  5
7D
330
2
100
AcDbSymbolTableRecord
100
AcDbLayerTableRecord
  2
특수지정선
 70
     0
 62
     5
  6
CENTERX2
370
    60
390
F
  0
LAYER
  5
129
330
2
100
AcDbSymbolTableRecord
100
AcDbLayerTableRecord
  2
Defpoints
 70
     0
 62
     7
  6
Continuous
290
     0
370
    -3
390
F
  0
ENDTAB
  0
TABLE
  2
STYLE
  5
3
330
0
100
AcDbSymbolTable
 70
     2
  0
STYLE
  5
11
330
3
100
AcDbSymbolTableRecord
100
AcDbTextStyleTableRecord
  2
Standard
 70
     0
 40
0.0
 41
1.0
 50
0.0
 71
     0
 42
3.5
  3
txt
  4

  0
STYLE
  5
93
330
3
100
AcDbSymbolTableRecord
100
AcDbTextStyleTableRecord
  2
SLDTEXTSTYLE0
 70
     0
 40
0.0
 41
0.75
 50
0.0
 71
     0
 42
3.5
  3
TXT
  4

  0
ENDTAB
  0
TABLE
  2
VIEW
  5
6
330
0
100
AcDbSymbolTable
 70
     0
  0
ENDTAB
  0
TABLE
  2
UCS
  5
7
330
0
100
AcDbSymbolTable
 70
     0
  0
ENDTAB
  0
TABLE
  2
APPID
  5
9
330
0
100
AcDbSymbolTable
 70
     2
  0
APPID
  5
12
330
9
100
AcDbSymbolTableRecord
100
AcDbRegAppTableRecord
  2
ACAD
 70
     0
  0
APPID
  5
179
330
9
100
AcDbSymbolTableRecord
100
AcDbRegAppTableRecord
  2
PE_DIMMEASUREMENT
 70
     0
  0
ENDTAB
  0
TABLE
  2
DIMSTYLE
  5
A
330
0
100
AcDbSymbolTable
 70
     3
100
AcDbDimStyleTable
  0
DIMSTYLE
105
27
330
A
100
AcDbSymbolTableRecord
100
AcDbDimStyleTableRecord
  2
ISO-25
 70
     0
 41
2.5
 42
0.625
 43
3.75
 44
1.25
 73
     0
 74
     0
 77
     1
 78
     8
140
2.5
141
2.5
143
0.03937007874016
147
0.625
171
     3
172
     1
178
     0
271
     2
272
     2
274
     3
278
    44
283
     0
284
     8
340
11
  0
DIMSTYLE
105
D9
102
{ACAD_REACTORS
330
D8
330
162
330
153
330
130
330
142
102
}
330
A
100
AcDbSymbolTableRecord
100
AcDbDimStyleTableRecord
  2
SLDDIMSTYLE0
 70
     0
 41
3.302
 44
0.0
 45
0.000000001
 73
     0
 74
     0
 77
     1
 78
    12
 79
     3
140
3.5
143
0.0393700787401575
147
0.875
148
0.000000001
170
     1
172
     1
173
     1
178
     0
271
     2
272
     2
276
     2
284
    12
289
     0
340
93
  0
DIMSTYLE
105
EE
330
A
100
AcDbSymbolTableRecord
100
AcDbDimStyleTableRecord
  2
SLDDIMSTYLE1
 70
     0
 41
3.302
 44
0.0
 73
     0
 74
     0
 77
     1
 78
     4
 79
     1
140
3.5
147
0.875
173
     1
178
     0
179
     2
272
     2
276
     2
284
    12
340
93
  0
ENDTAB
  0
TABLE
  2
BLOCK_RECORD
  5
1
330
0
100
AcDbSymbolTable
 70
     9
  0
BLOCK_RECORD
  5
1F
330
1
100
AcDbSymbolTableRecord
100
AcDbBlockTableRecord
  2
*Model_Space
340
22
  0
BLOCK_RECORD
  5
1B
330
1
100
AcDbSymbolTableRecord
100
AcDbBlockTableRecord
  2
*Paper_Space
340
1E
  0
BLOCK_RECORD
  5
23
330
1
100
AcDbSymbolTableRecord
100
AcDbBlockTableRecord
  2
*Paper_Space0
340
26
  0
BLOCK_RECORD
  5
7E
330
1
100
AcDbSymbolTableRecord
100
AcDbBlockTableRecord
  2
블럭10
340
0
102
{BLKREFS
331
D1
102
}
  0
BLOCK_RECORD
  5
DA
330
1
100
AcDbSymbolTableRecord
100
AcDbBlockTableRecord
  2
_D
340
0
  0
BLOCK_RECORD
  5
EF
330
1
100
AcDbSymbolTableRecord
100
AcDbBlockTableRecord
  2
_D_1
340
0
  0
BLOCK_RECORD
  5
F9
330
1
100
AcDbSymbolTableRecord
100
AcDbBlockTableRecord
  2
SW_DOWELSYMBOL_0
340
0
102
{BLKREFS
331
FF
102
}
  0
BLOCK_RECORD
  5
133
330
1
100
AcDbSymbolTableRecord
100
AcDbBlockTableRecord
  2
*D5
340
0
  0
BLOCK_RECORD
  5
145
330
1
100
AcDbSymbolTableRecord
100
AcDbBlockTableRecord
  2
*D6
340
0
  0
BLOCK_RECORD
  5
156
330
1
100
AcDbSymbolTableRecord
100
AcDbBlockTableRecord
  2
*D7
340
0
  0
BLOCK_RECORD
  5
165
330
1
100
AcDbSymbolTableRecord
100
AcDbBlockTableRecord
  2
*D8
340
0
  0
ENDTAB
  0
ENDSEC
  0
SECTION
  2
BLOCKS
  0
BLOCK
  5
20
330
1F
100
AcDbEntity
  8
0
100
AcDbBlockBegin
  2
*Model_Space
 70
     0
 10
0.0
 20
0.0
 30
0.0
  3
*Model_Space
  1
*Model_Space
  0
ENDBLK
  5
21
330
1F
100
AcDbEntity
  8
0
100
AcDbBlockEnd
  0
BLOCK
  5
1C
330
1B
100
AcDbEntity
 67
     1
  8
0
100
AcDbBlockBegin
  2
*Paper_Space
 70
     0
 10
0.0
 20
0.0
 30
0.0
  3
*Paper_Space
  1
*Paper_Space
  0
ENDBLK
  5
1D
330
1B
100
AcDbEntity
 67
     1
  8
0
100
AcDbBlockEnd
  0
BLOCK
  5
24
330
23
100
AcDbEntity
  8
0
100
AcDbBlockBegin
  2
*Paper_Space0
 70
     0
 10
0.0
 20
0.0
 30
0.0
  3
*Paper_Space0
  1
*Paper_Space0
  0
ENDBLK
  5
25
330
23
100
AcDbEntity
  8
0
100
AcDbBlockEnd
  0
BLOCK
  5
7F
330
7E
100
AcDbEntity
  8
0
100
AcDbBlockBegin
  2
블럭10
 70
     2
 10
0.0
 20
0.0
 30
0.0
  3
블럭10
  1
블럭10
  0
ELLIPSE
  5
81
330
7E
100
AcDbEntity
  8
중심선
100
AcDbEllipse
 10
20.54032771741204
 20
12.0471743016438
 30
0.0
 11
6.600054785286829
 21
-1.261213355974178E-13
 31
0.0
210
0.0
220
0.0
230
1.0
 40
0.636358354079598
 41
0.9219305317359503
 42
6.513795318482858
  0
ELLIPSE
  5
82
330
7E
100
AcDbEntity
  8
중심선
100
AcDbEllipse
 10
20.54032771746488
 20
12.04717430159265
 30
0.0
 11
3.960054785062283
 21
1.540847449632565E-10
 31
0.0
210
0.0
220
0.0
230
1.0
 40
0.3939339440162632
 41
1.131841032648279
 42
5.62031148352944
  0
LINE
  5
83
330
7E
100
AcDbEntity
  8
중심선
100
AcDbLine
 10
2.268634060543552
 20
16.24717430164393
 30
0.0
 11
5.714909304380834
 21
16.24717430164393
 31
0.0
  0
LINE
  5
84
330
7E
100
AcDbEntity
  8
중심선
100
AcDbLine
 10
5.245725140726316
 20
7.84717430164391
 30
0.0
 11
8.692000384563599
 21
7.84717430164391
 31
0.0
  0
LINE
  5
85
330
7E
100
AcDbEntity
  8
중심선
100
AcDbLine
 10
15.74043728645272
 20
16.24717430164393
 30
0.0
 11
8.692000384563599
 21
7.84717430164391
 31
0.0
  0
LINE
  5
86
330
7E
100
AcDbEntity
  8
중심선
100
AcDbLine
 10
0.1404042013395286
 20
13.71084872107135
 30
0.0
 11
3.58671253028996
 21
13.71088815037384
 31
0.0
  0
LINE
  5
87
330
7E
100
AcDbEntity
  8
중심선
100
AcDbLine
 10
2.750260043222114
 20
10.84717430164391
 30
0.0
 11
6.196535287059397
 21
10.84717430164391
 31
0.0
  0
LINE
  5
88
330
7E
100
AcDbEntity
  8
중심선
100
AcDbLine
 10
12.29416204261559
 20
16.24717430164393
 30
0.0
 11
5.245725140726316
 21
7.84717430164391
 31
0.0
  0
LINE
  5
89
330
7E
100
AcDbEntity
  8
중심선
100
AcDbLine
 10
10.72767329541681
 20
16.24717430164393
 30
0.0
 11
6.196535287059397
 21
10.84717430164391
 31
0.0
  0
LINE
  5
8A
330
7E
100
AcDbEntity
  8
중심선
100
AcDbLine
 10
7.28139805157953
 20
16.24717430164393
 30
0.0
 11
2.750260043222114
 21
10.84717430164391
 31
0.0
  0
LINE
  5
8B
330
7E
100
AcDbEntity
  8
중심선
100
AcDbLine
 10
5.714909304380834
 20
16.24717430164393
 30
0.0
 11
3.58671253028996
 21
13.71088815037384
 31
0.0
  0
LINE
  5
8C
330
7E
100
AcDbEntity
  8
중심선
100
AcDbLine
 10
2.268634060543552
 20
16.24717430164393
 30
0.0
 11
0.1404042013395286
 21
13.71084872107135
 31
0.0
  0
LINE
  5
8D
330
7E
100
AcDbEntity
  8
중심선
100
AcDbLine
 10
7.28139805157953
 20
16.24717430164393
 30
0.0
 11
10.72767329541681
 21
16.24717430164393
 31
0.0
  0
LINE
  5
8E
330
7E
100
AcDbEntity
  8
중심선
100
AcDbLine
 10
12.29416204261559
 20
16.24717430164393
 30
0.0
 11
15.74043728645272
 21
16.24717430164393
 31
0.0
  0
LINE
  5
8F
330
7E
100
AcDbEntity
  8
중심선
100
AcDbLine
 10
19.22036997980202
 20
11.08717430171403
 30
0.0
 11
23.66174974927406
 21
11.08717430171406
 31
0.0
  0
LINE
  5
90
330
7E
100
AcDbEntity
  8
중심선
100
AcDbLine
 10
19.22039502424796
 20
13.00717430171391
 30
0.0
 11
19.22036997980202
 21
11.08717430171403
 31
0.0
  0
LINE
  5
91
330
7E
100
AcDbEntity
  8
중심선
100
AcDbLine
 10
19.22039502424796
 20
13.00717430171391
 30
0.0
 11
26.96566020931264
 21
13.00717430171391
 31
0.0
  0
LINE
  5
92
330
7E
100
AcDbEntity
  8
중심선
100
AcDbLine
 10
22.22332737316547
 20
13.45928029700563
 30
0.0
 11
24.52862924686651
 21
15.39360700705356
 31
0.0
  0
ATTDEF
  5
94
330
7E
100
AcDbEntity
  8
FORMAT
 62
     2
100
AcDbText
 10
-10.14163601213663
 20
2.075366912832191
 30
0.0
 40
4.233333333333333
  1
EM097024 [ 4 FLUTE ]
 41
0.75
  7
SLDTEXTSTYLE0
 11
-10.14163601213663
 21
-0.0412997538344756
 31
0.0
100
AcDbAttributeDefinition
  3

  2
AUTOATTR0
 70
     0
 74
     1
  0
ENDBLK
  5
80
330
7E
100
AcDbEntity
  8
0
100
AcDbBlockEnd
  0
BLOCK
  5
DB
330
DA
100
AcDbEntity
  8
0
100
AcDbBlockBegin
  2
_D
 70
     0
 10
0.0
 20
0.0
 30
0.0
  3
_D
  1
_D
  0
LINE
  5
DD
330
DA
100
AcDbEntity
  8
치수문자_일반주서
 62
     0
370
    -2
100
AcDbLine
 10
-59.39250000000001
 20
4.762499999999997
 30
0.0
 11
-82.14000000000004
 21
4.762499999999912
 31
0.0
  0
LINE
  5
DE
330
DA
100
AcDbEntity
  8
치수문자_일반주서
 62
     0
370
    -2
100
AcDbLine
 10
-59.39250000000001
 20
-4.762499999999998
 30
0.0
 11
-82.14000000000001
 21
-4.762500000000084
 31
0.0
  0
LINE
  5
DF
330
DA
100
AcDbEntity
  8
치수문자_일반주서
 62
     0
370
    -2
100
AcDbLine
 10
-82.14000000000003
 20
1.460499999999913
 30
0.0
 11
-82.14000000000003
 21
-1.460500000000084
 31
0.0
  0
SOLID
  5
E0
330
DA
100
AcDbEntity
  8
치수문자_일반주서
 62
     0
100
AcDbTrace
 10
-81.5896666666667
 20
1.460499999999914
 30
0.0
 11
-82.69033333333336
 21
1.460499999999911
 31
0.0
 12
-82.14000000000004
 22
4.762499999999912
 32
0.0
 13
-82.14000000000004
 23
4.762499999999912
 33
0.0
  0
SOLID
  5
E1
330
DA
100
AcDbEntity
  8
치수문자_일반주서
 62
     0
100
AcDbTrace
 10
-82.69033333333336
 20
-1.460500000000086
 30
0.0
 11
-81.5896666666667
 21
-1.460500000000083
 31
0.0
 12
-82.14000000000001
 22
-4.762500000000084
 32
0.0
 13
-82.14000000000001
 23
-4.762500000000084
 33
0.0
  0
MTEXT
  5
E2
330
DA
100
AcDbEntity
  8
치수문자_일반주서
 62
     0
100
AcDbMText
 10
-86.51500000000001
 20
-2.700832205843955
 30
0.0
 40
3.5
 41
0.0
 71
     2
 72
     1
  1
\A1;%%c9.53 [3/8]
  7
SLDTEXTSTYLE0
 11
-2.983906501879687E-15
 21
1.0
 31
0.0
 73
     1
 44
1.0
  0
POINT
  5
E3
330
DA
100
AcDbEntity
  8
Defpoints
 62
     0
100
AcDbPoint
 10
-59.33000000000001
 20
4.762499999999997
 30
0.0
  0
POINT
  5
E4
330
DA
100
AcDbEntity
  8
Defpoints
 62
     0
100
AcDbPoint
 10
-59.33000000000001
 20
-4.762499999999998
 30
0.0
  0
POINT
  5
E5
330
DA
100
AcDbEntity
  8
Defpoints
 62
     0
100
AcDbPoint
 10
-82.14000000000001
 20
-4.762500000000084
 30
0.0
  0
ENDBLK
  5
DC
330
DA
100
AcDbEntity
  8
0
100
AcDbBlockEnd
  0
BLOCK
  5
F0
330
EF
100
AcDbEntity
  8
0
100
AcDbBlockBegin
  2
_D_1
 70
     0
 10
0.0
 20
0.0
 30
0.0
  3
_D_1
  1
_D_1
  0
ARC
  5
F2
330
EF
100
AcDbEntity
  8
치수문자_일반주서
100
AcDbCircle
 10
-9.12619689620912
 20
4.763574928723891
 30
0.0
 40
28.25547184791949
100
AcDbArc
 50
178.4000000000004
 51
180.0
  0
ARC
  5
F3
330
EF
100
AcDbEntity
  8
치수문자_일반주서
100
AcDbCircle
 10
-9.12619689620912
 20
4.763574928723891
 30
0.0
 40
28.25547184791949
100
AcDbArc
 50
165.5928792869709
 51
178.4000000000004
  0
ARC
  5
F4
330
EF
100
AcDbEntity
  8
치수문자_일반주서
100
AcDbCircle
 10
-9.12619689620912
 20
4.763574928723891
 30
0.0
 40
28.25547184791948
100
AcDbArc
 50
180.0
 51
192.8071207130303
  0
SOLID
  5
F5
330
EF
100
AcDbEntity
  8
치수문자_일반주서
100
AcDbTrace
 10
-37.37065236062742
 20
5.552514005625269
 30
0.0
 11
-36.58060713374974
 21
8.798603428220986
 31
0.0
 12
-37.59284419611968
 22
8.885965488434127
 32
0.0
 13
-37.59284419611968
 23
8.885965488434127
 33
0.0
  0
SOLID
  5
F6
330
EF
100
AcDbEntity
  8
치수문자_일반주서
100
AcDbTrace
 10
-37.3816687441286
 20
4.763574928723891
 30
0.0
 11
-37.69684937837155
 21
1.437627068669827
 31
0.0
 12
-36.68256768012441
 22
1.496691750171555
 32
0.0
 13
-36.68256768012441
 23
1.496691750171555
 33
0.0
  0
LINE
  5
F7
330
EF
100
AcDbEntity
  8
치수문자_일반주서
100
AcDbLine
 10
-10.12580701124058
 20
4.791496567447205
 30
0.0
 11
-38.37026247566777
 21
5.580435644348831
 31
0.0
  0
MTEXT
  5
F8
330
EF
100
AcDbEntity
  8
치수문자_일반주서
100
AcDbMText
 10
-41.98209248636298
 20
-0.13347315235038
 30
0.0
 40
3.5
 41
0.0
 71
     1
 72
     1
  1
1.60°
  7
SLDTEXTSTYLE0
 11
0.01712624063284911
 21
0.999853335185609
 31
0.0
 73
     1
 44
1.0
  0
ENDBLK
  5
F1
330
EF
100
AcDbEntity
  8
0
100
AcDbBlockEnd
  0
BLOCK
  5
FA
330
F9
100
AcDbEntity
  8
0
100
AcDbBlockBegin
  2
SW_DOWELSYMBOL_0
 70
     0
 10
0.0
 20
0.0
 30
0.0
  3
SW_DOWELSYMBOL_0
  1
SW_DOWELSYMBOL_0
  0
CIRCLE
  5
FC
330
F9
100
AcDbEntity
  8
외형선
 62
     0
100
AcDbCircle
 10
0.0
 20
0.0
 30
0.0
 40
3.000000000000004
  0
HATCH
  5
FD
330
F9
100
AcDbEntity
  8
0
  6
Continuous
 62
     0
370
    30
100
AcDbHatch
 10
0.0
 20
0.0
 30
0.0
210
0.0
220
0.0
230
1.0
  2
SOLID
 70
     1
 71
     0
 91
        1
 92
        0
 93
        3
 72
     2
 10
0.0000000000000104
 20
0.0
 40
3.000000000000004
 50
0.0
 51
90.0
 73
     1
 72
     1
 10
0.0000000000000104
 20
3.000000000000004
 11
0.0000000000000104
 21
0.0
 72
     1
 10
0.0000000000000104
 20
0.0
 11
3.000000000000015
 21
0.0
 97
        0
 75
     0
 76
     1
 98
        1
 10
0.0
 20
0.0
  0
HATCH
  5
FE
330
F9
100
AcDbEntity
  8
0
  6
Continuous
 62
     0
370
    30
100
AcDbHatch
 10
0.0
 20
0.0
 30
0.0
210
0.0
220
0.0
230
1.0
  2
SOLID
 70
     1
 71
     0
 91
        1
 92
        0
 93
        3
 72
     2
 10
0.0000000000000104
 20
0.0
 40
3.000000000000004
 50
180.0
 51
270.0000000000007
 73
     1
 72
     1
 10
0.0000000000000104
 20
-3.000000000000004
 11
0.0000000000000104
 21
0.0
 72
     1
 10
0.0000000000000104
 20
0.0
 11
-2.999999999999994
 21
0.0
 97
        0
 75
     0
 76
     1
 98
        1
 10
0.0
 20
0.0
  0
ENDBLK
  5
FB
330
F9
100
AcDbEntity
  8
0
100
AcDbBlockEnd
  0
BLOCK
  5
134
330
133
100
AcDbEntity
  8
0
100
AcDbBlockBegin
  2
*D5
 70
     1
 10
0.0
 20
0.0
 30
0.0
  3
*D5
  1
*D5
  0
LINE
  5
136
330
133
100
AcDbEntity
  8
치수문자_일반주서
 62
     0
370
    -2
100
AcDbLine
 10
41.3325
 20
-4.762500000000006
 30
0.0
 11
54.32795436850635
 21
-4.762500000000005
 31
0.0
  0
LINE
  5
137
330
133
100
AcDbEntity
  8
치수문자_일반주서
 62
     0
370
    -2
100
AcDbLine
 10
41.3325
 20
4.762499999999995
 30
0.0
 11
54.32795436850635
 21
4.762499999999994
 31
0.0
  0
LINE
  5
138
330
133
100
AcDbEntity
  8
치수문자_일반주서
 62
     0
370
    -2
100
AcDbLine
 10
54.32795436850635
 20
8.064499999999994
 30
0.0
 11
54.32795436850635
 21
37.61649999999999
 31
0.0
  0
LINE
  5
139
330
133
100
AcDbEntity
  8
치수문자_일반주서
 62
     0
370
    -2
100
AcDbLine
 10
54.32795436850635
 20
-4.762500000000005
 30
0.0
 11
54.32795436850635
 21
4.762499999999994
 31
0.0
  0
LINE
  5
13A
330
133
100
AcDbEntity
  8
치수문자_일반주서
 62
     0
370
    -2
100
AcDbLine
 10
54.32795436850635
 20
-8.064500000000004
 30
0.0
 11
54.32795436850635
 21
-11.3665
 31
0.0
  0
SOLID
  5
13B
330
133
100
AcDbEntity
  8
치수문자_일반주서
 62
     0
100
AcDbTrace
 10
54.87828770183968
 20
-8.064500000000004
 30
0.0
 11
53.77762103517301
 21
-8.064500000000004
 31
0.0
 12
54.32795436850635
 22
-4.762500000000005
 32
0.0
 13
54.32795436850635
 23
-4.762500000000005
 33
0.0
  0
SOLID
  5
13C
330
133
100
AcDbEntity
  8
치수문자_일반주서
 62
     0
100
AcDbTrace
 10
53.77762103517301
 20
8.064499999999994
 30
0.0
 11
54.87828770183968
 21
8.064499999999994
 31
0.0
 12
54.32795436850635
 22
4.762499999999994
 32
0.0
 13
54.32795436850635
 23
4.762499999999994
 33
0.0
  0
MTEXT
  5
13D
330
133
100
AcDbEntity
  8
치수문자_일반주서
 62
     0
100
AcDbMText
 10
51.70295436850635
 20
24.49149999999999
 30
0.0
 40
3.5
 41
0.0
 71
     5
 72
     1
  1
\A1;{%%c9.53 [3/8]}
  7
SLDTEXTSTYLE0
 11
0.0
 21
1.0
 31
0.0
 73
     1
 44
1.0
  0
POINT
  5
13E
330
133
100
AcDbEntity
  8
Defpoints
 62
     0
100
AcDbPoint
 10
41.27
 20
-4.762500000000006
 30
0.0
  0
POINT
  5
13F
330
133
100
AcDbEntity
  8
Defpoints
 62
     0
100
AcDbPoint
 10
41.27
 20
4.762499999999995
 30
0.0
  0
POINT
  5
140
330
133
100
AcDbEntity
  8
Defpoints
 62
     0
100
AcDbPoint
 10
54.32795436850635
 20
4.762499999999994
 30
0.0
  0
ENDBLK
  5
135
330
133
100
AcDbEntity
  8
0
100
AcDbBlockEnd
  0
BLOCK
  5
146
330
145
100
AcDbEntity
  8
0
100
AcDbBlockBegin
  2
*D6
 70
     1
 10
0.0
 20
0.0
 30
0.0
  3
*D6
  1
*D6
  0
LINE
  5
148
330
145
100
AcDbEntity
  8
치수문자_일반주서
 62
     0
370
    -2
100
AcDbLine
 10
41.27
 20
4.824999999999995
 30
0.0
 11
41.27
 21
36.85139578395721
 31
0.0
  0
LINE
  5
149
330
145
100
AcDbEntity
  8
치수문자_일반주서
 62
     0
370
    -2
100
AcDbLine
 10
33.63834116800116
 20
3.872830015972623
 30
0.0
 11
33.63834116800116
 21
36.85139578395721
 31
0.0
  0
LINE
  5
14A
330
145
100
AcDbEntity
  8
치수문자_일반주서
 62
     0
370
    -2
100
AcDbLine
 10
30.33634116800116
 20
36.85139578395721
 30
0.0
 11
3.409341168001163
 21
36.85139578395721
 31
0.0
  0
LINE
  5
14B
330
145
100
AcDbEntity
  8
치수문자_일반주서
 62
     0
370
    -2
100
AcDbLine
 10
41.27
 20
36.85139578395721
 30
0.0
 11
33.63834116800116
 21
36.85139578395721
 31
0.0
  0
LINE
  5
14C
330
145
100
AcDbEntity
  8
치수문자_일반주서
 62
     0
370
    -2
100
AcDbLine
 10
44.572
 20
36.85139578395721
 30
0.0
 11
47.874
 21
36.85139578395721
 31
0.0
  0
SOLID
  5
14D
330
145
100
AcDbEntity
  8
치수문자_일반주서
 62
     0
100
AcDbTrace
 10
44.572
 20
37.40172911729054
 30
0.0
 11
44.572
 21
36.30106245062387
 31
0.0
 12
41.27
 22
36.85139578395721
 32
0.0
 13
41.27
 23
36.85139578395721
 33
0.0
  0
SOLID
  5
14E
330
145
100
AcDbEntity
  8
치수문자_일반주서
 62
     0
100
AcDbTrace
 10
30.33634116800116
 20
36.30106245062387
 30
0.0
 11
30.33634116800116
 21
37.40172911729054
 31
0.0
 12
33.63834116800116
 22
36.85139578395721
 32
0.0
 13
33.63834116800116
 23
36.85139578395721
 33
0.0
  0
MTEXT
  5
14F
330
145
100
AcDbEntity
  8
치수문자_일반주서
 62
     0
100
AcDbMText
 10
15.22184116800116
 20
39.47639578395721
 30
0.0
 40
3.5
 41
0.0
 71
     5
 72
     1
  1
\A1;7.63 [0.30]
  7
SLDTEXTSTYLE0
 73
     1
 44
1.0
  0
POINT
  5
150
330
145
100
AcDbEntity
  8
Defpoints
 62
     0
100
AcDbPoint
 10
41.27
 20
4.762499999999995
 30
0.0
  0
POINT
  5
151
330
145
100
AcDbEntity
  8
Defpoints
 62
     0
100
AcDbPoint
 10
33.63834116800116
 20
3.810330015972623
 30
0.0
  0
POINT
  5
152
330
145
100
AcDbEntity
  8
Defpoints
 62
     0
100
AcDbPoint
 10
33.63834116800116
 20
36.85139578395721
 30
0.0
  0
ENDBLK
  5
147
330
145
100
AcDbEntity
  8
0
100
AcDbBlockEnd
  0
BLOCK
  5
157
330
156
100
AcDbEntity
  8
0
100
AcDbBlockBegin
  2
*D7
 70
     1
 10
0.0
 20
0.0
 30
0.0
  3
*D7
  1
*D7
  0
LINE
  5
159
330
156
100
AcDbEntity
  8
치수문자_일반주서
 62
     0
370
    -2
100
AcDbLine
 10
41.27
 20
4.824999999999995
 30
0.0
 11
41.27
 21
50.25620792161011
 31
0.0
  0
LINE
  5
15A
330
156
100
AcDbEntity
  8
치수문자_일반주서
 62
     0
370
    -2
100
AcDbLine
 10
0.0
 20
4.824999999999997
 30
0.0
 11
0.0
 21
50.25620792161011
 31
0.0
  0
LINE
  5
15B
330
156
100
AcDbEntity
  8
치수문자_일반주서
 62
     0
370
    -2
100
AcDbLine
 10
37.968
 20
50.25620792161011
 30
0.0
 11
3.302
 21
50.25620792161011
 31
0.0
  0
SOLID
  5
15C
330
156
100
AcDbEntity
  8
치수문자_일반주서
 62
     0
100
AcDbTrace
 10
37.968
 20
49.70587458827677
 30
0.0
 11
37.968
 21
50.80654125494344
 31
0.0
 12
41.27
 22
50.25620792161011
 32
0.0
 13
41.27
 23
50.25620792161011
 33
0.0
  0
SOLID
  5
15D
330
156
100
AcDbEntity
  8
치수문자_일반주서
 62
     0
100
AcDbTrace
 10
3.302
 20
50.80654125494344
 30
0.0
 11
3.302
 21
49.70587458827677
 31
0.0
 12
0.0
 22
50.25620792161011
 32
0.0
 13
0.0
 23
50.25620792161011
 33
0.0
  0
MTEXT
  5
15E
330
156
100
AcDbEntity
  8
치수문자_일반주서
 62
     0
100
AcDbMText
 10
20.635
 20
52.88120792161011
 30
0.0
 40
3.5
 41
0.0
 71
     5
 72
     1
  1
\A1;41.27 [1 5/8]
  7
SLDTEXTSTYLE0
 73
     1
 44
1.0
  0
POINT
  5
15F
330
156
100
AcDbEntity
  8
Defpoints
 62
     0
100
AcDbPoint
 10
41.27
 20
4.762499999999995
 30
0.0
  0
POINT
  5
160
330
156
100
AcDbEntity
  8
Defpoints
 62
     0
100
AcDbPoint
 10
0.0
 20
4.762499999999997
 30
0.0
  0
POINT
  5
161
330
156
100
AcDbEntity
  8
Defpoints
 62
     0
100
AcDbPoint
 10
0.0
 20
50.25620792161011
 30
0.0
  0
ENDBLK
  5
158
330
156
100
AcDbEntity
  8
0
100
AcDbBlockEnd
  0
BLOCK
  5
166
330
165
100
AcDbEntity
  8
0
100
AcDbBlockBegin
  2
*D8
 70
     1
 10
0.0
 20
0.0
 30
0.0
  3
*D8
  1
*D8
  0
LINE
  5
168
330
165
100
AcDbEntity
  8
치수문자_일반주서
 62
     0
370
    -2
100
AcDbLine
 10
41.27
 20
4.824999999999995
 30
0.0
 11
41.27
 21
66.36559025852581
 31
0.0
  0
LINE
  5
169
330
165
100
AcDbEntity
  8
치수문자_일반주서
 62
     0
370
    -2
100
AcDbLine
 10
-60.33000000000001
 20
3.824999999999989
 30
0.0
 11
-60.33000000000001
 21
66.36559025852581
 31
0.0
  0
LINE
  5
16A
330
165
100
AcDbEntity
  8
치수문자_일반주서
 62
     0
370
    -2
100
AcDbLine
 10
37.968
 20
66.36559025852581
 30
0.0
 11
-57.02800000000001
 21
66.36559025852581
 31
0.0
  0
SOLID
  5
16B
330
165
100
AcDbEntity
  8
치수문자_일반주서
 62
     0
100
AcDbTrace
 10
37.968
 20
65.81525692519249
 30
0.0
 11
37.968
 21
66.91592359185914
 31
0.0
 12
41.27
 22
66.36559025852581
 32
0.0
 13
41.27
 23
66.36559025852581
 33
0.0
  0
SOLID
  5
16C
330
165
100
AcDbEntity
  8
치수문자_일반주서
 62
     0
100
AcDbTrace
 10
-57.02800000000001
 20
66.91592359185914
 30
0.0
 11
-57.02800000000001
 21
65.81525692519249
 31
0.0
 12
-60.33000000000001
 22
66.36559025852581
 32
0.0
 13
-60.33000000000001
 23
66.36559025852581
 33
0.0
  0
MTEXT
  5
16D
330
165
100
AcDbEntity
  8
치수문자_일반주서
 62
     0
100
AcDbMText
 10
-9.530000000000001
 20
68.99059025852581
 30
0.0
 40
3.5
 41
0.0
 71
     5
 72
     1
  1
\A1;101.6 [4]
  7
SLDTEXTSTYLE0
 73
     1
 44
1.0
  0
POINT
  5
16E
330
165
100
AcDbEntity
  8
Defpoints
 62
     0
100
AcDbPoint
 10
41.27
 20
4.762499999999995
 30
0.0
  0
POINT
  5
16F
330
165
100
AcDbEntity
  8
Defpoints
 62
     0
100
AcDbPoint
 10
-60.33000000000001
 20
3.762499999999989
 30
0.0
  0
POINT
  5
170
330
165
100
AcDbEntity
  8
Defpoints
 62
     0
100
AcDbPoint
 10
-60.33000000000001
 20
66.36559025852581
 30
0.0
  0
ENDBLK
  5
167
330
165
100
AcDbEntity
  8
0
100
AcDbBlockEnd
  0
ENDSEC
  0
SECTION
  2
ENTITIES
  0
LINE
  5
95
330
1F
100
AcDbEntity
  8
0
  6
Continuous
 62
     4
370
    15
100
AcDbLine
 10
29.66039194629383
 20
-3.841622641263832
 30
0.0
 11
30.79249999999999
 21
-3.810000000000001
 31
0.0
  0
LINE
  5
98
330
1F
100
AcDbEntity
  8
0
 62
     4
100
AcDbLine
 10
30.79249999999999
 20
3.809999999999999
 30
0.0
 11
29.65010686501052
 21
3.841909929597066
 31
0.0
  0
LINE
  5
99
330
1F
100
AcDbEntity
  8
0
 62
     4
100
AcDbLine
 10
0.0
 20
4.762499999999997
 30
0.0
 11
-59.33000000000001
 21
4.762499999999997
 31
0.0
  0
LINE
  5
9A
330
1F
100
AcDbEntity
  8
0
 62
     4
100
AcDbLine
 10
-59.33000000000001
 20
-4.762499999999998
 30
0.0
 11
0.0000000000000071
 21
-4.762499999999998
 31
0.0
  0
LINE
  5
9B
330
1F
100
AcDbEntity
  8
0
 62
     4
100
AcDbLine
 10
-59.33000000000001
 20
4.762499999999999
 30
0.0
 11
-60.33000000000001
 21
3.762499999999989
 31
0.0
  0
LINE
  5
9C
330
1F
100
AcDbEntity
  8
0
 62
     4
100
AcDbLine
 10
-60.33000000000001
 20
-3.762499999999991
 30
0.0
 11
-59.33000000000001
 21
-4.762500000000001
 31
0.0
  0
ARC
  5
9D
330
1F
100
AcDbEntity
  8
0
  6
Continuous
 62
     1
370
    15
100
AcDbCircle
 10
36.50749999999999
 20
-0.0000000000000011
 30
0.0
 40
4.762500000000008
100
AcDbArc
 50
352.657534770795
 51
7.342465229206088
  0
ARC
  5
9E
330
1F
100
AcDbEntity
  8
0
 62
     4
100
AcDbCircle
 10
33.64999999999999
 20
-0.0000000000000011
 30
0.0
 40
4.7625
100
AcDbArc
 50
125.2790866388984
 51
126.869897645844
  0
ARC
  5
9F
330
1F
100
AcDbEntity
  8
0
  6
Continuous
 62
     4
370
    15
100
AcDbCircle
 10
33.64999999999999
 20
-0.0000000000000011
 30
0.0
 40
4.762499999999998
100
AcDbArc
 50
233.1301023541568
 51
234.7209133611017
  0
SPLINE
  5
A0
330
1F
100
AcDbEntity
  8
0
 62
     4
100
AcDbSpline
210
0.0
220
0.0
230
1.0
 70
     8
 71
     3
 72
     8
 73
     4
 74
     0
 42
0.000000001
 43
0.00000001
 40
0.0
 40
0.0
 40
0.0
 40
0.0
 40
1.0
 40
1.0
 40
1.0
 40
1.0
 10
29.65010686501052
 20
3.841904808467524
 30
0.0
 10
30.03024830827115
 20
3.831667844261499
 30
0.0
 10
30.41087654302963
 20
3.800241793321883
 30
0.0
 10
30.79249999999999
 20
3.748348419886047
 30
0.0
  0
LINE
  5
A1
330
1F
100
AcDbEntity
  8
0
 62
     4
100
AcDbLine
 10
29.65010686501052
 20
3.841904780778295
 30
0.0
 11
29.65010686501052
 21
1.955416515448803
 31
0.0
  0
SPLINE
  5
A2
330
1F
100
AcDbEntity
  8
0
 62
     4
100
AcDbSpline
210
0.0
220
0.0
230
1.0
 70
     8
 71
     3
 72
     8
 73
     4
 74
     0
 42
0.000000001
 43
0.00000001
 40
0.0
 40
0.0
 40
0.0
 40
0.0
 40
1.0
 40
1.0
 40
1.0
 40
1.0
 10
30.79249999999999
 20
1.322205530510725
 30
0.0
 10
30.41082113633157
 20
1.539900603309465
 30
0.0
 10
30.03017306554149
 20
1.751291086379392
 30
0.0
 10
29.65010686501052
 20
1.955425538911196
 30
0.0
  0
LINE
  5
A3
330
1F
100
AcDbEntity
  8
0
 62
     4
100
AcDbLine
 10
30.79249999999999
 20
1.322205530510574
 30
0.0
 11
30.79249999999999
 21
-0.6826302975533707
 31
0.0
  0
SPLINE
  5
A4
330
1F
100
AcDbEntity
  8
0
 62
     4
100
AcDbSpline
210
0.0
220
0.0
230
1.0
 70
     8
 71
     3
 72
     8
 73
     4
 74
     0
 42
0.000000001
 43
0.00000001
 40
0.0
 40
0.0
 40
0.0
 40
0.0
 40
1.0
 40
1.0
 40
1.0
 40
1.0
 10
29.65010686501052
 20
0.0062729427424077
 30
0.0
 10
30.03024830827115
 20
-0.2272946535221395
 30
0.0
 10
30.41087654302963
 20
-0.4571774337646856
 30
0.0
 10
30.79249999999999
 20
-0.6826302975533595
 30
0.0
  0
SPLINE
  5
A5
330
1F
100
AcDbEntity
  8
0
  6
Continuous
 62
     4
370
    15
100
AcDbSpline
210
0.0
220
0.0
230
1.0
 70
     8
 71
     3
 72
     8
 73
     4
 74
     0
 42
0.000000001
 43
0.00000001
 40
0.0
 40
0.0
 40
0.0
 40
0.0
 40
1.0
 40
1.0
 40
1.0
 40
1.0
 10
30.79249999999999
 20
-3.573215993344192
 30
0.0
 10
30.41082113633157
 20
-3.504029511388451
 30
0.0
 10
30.03017306554149
 20
-3.415419915674067
 30
0.0
 10
29.65010686501052
 20
-3.307050478736368
 30
0.0
  0
LINE
  5
A6
330
1F
100
AcDbEntity
  8
0
  6
Continuous
 62
     4
370
    15
100
AcDbLine
 10
30.79249999999999
 20
-3.573215993343712
 30
0.0
 11
30.79249999999999
 21
-3.810000000000001
 31
0.0
  0
LINE
  5
A9
330
1F
100
AcDbEntity
  8
0
 62
     4
100
AcDbLine
 10
-59.33000000000001
 20
-0.0000000000000011
 30
0.0
 11
-59.33000000000001
 21
-4.762499999999998
 31
0.0
  0
LINE
  5
AA
330
1F
100
AcDbEntity
  8
0
 62
     4
100
AcDbLine
 10
-59.33000000000001
 20
4.762499999999997
 30
0.0
 11
-59.33000000000001
 21
-0.0000000000000011
 31
0.0
  0
LINE
  5
AB
330
1F
100
AcDbEntity
  8
0
 62
     4
100
AcDbLine
 10
-60.33000000000001
 20
-0.0000000000000011
 30
0.0
 11
-60.33000000000001
 21
-3.762499999999991
 31
0.0
  0
LINE
  5
AC
330
1F
100
AcDbEntity
  8
0
 62
     4
100
AcDbLine
 10
-60.33000000000001
 20
3.762499999999989
 30
0.0
 11
-60.33000000000001
 21
-0.0000000000000011
 31
0.0
  0
SPLINE
  5
AD
330
1F
100
AcDbEntity
  8
0
 62
     4
100
AcDbSpline
210
0.0
220
0.0
230
1.0
 70
    24
 71
     3
 72
    13
 73
     9
 74
     0
 42
0.000000001
 43
0.00000001
 40
0.0
 40
0.0
 40
0.0
 40
0.0
 40
0.0781188061712031
 40
0.2787281401379857
 40
0.4793374741047706
 40
0.6799468080715503
 40
0.880556142038185
 40
1.0
 40
1.0
 40
1.0
 40
1.0
 10
30.79249999999999
 20
-0.7170138011224116
 30
0.0
 10
30.79249999999999
 20
-0.723353863330359
 30
0.0
 10
30.79249999999998
 20
-0.7459752247437356
 30
0.0
 10
30.79250000000001
 20
-1.033154370259915
 30
0.0
 10
30.79249999999996
 20
-1.574663377117736
 30
0.0
 10
30.79250000000004
 20
-2.295545574096863
 30
0.0
 10
30.79249999999996
 20
-2.994726884706306
 30
0.0
 10
30.79249999999998
 20
-3.415997711806223
 30
0.0
 10
30.79249999999999
 20
-3.573215993343712
 30
0.0
  0
SPLINE
  5
AE
330
1F
100
AcDbEntity
  8
0
 62
     4
100
AcDbSpline
210
0.0
220
0.0
230
1.0
 70
    24
 71
     3
 72
    12
 73
     8
 74
     0
 42
0.000000001
 43
0.00000001
 40
0.0
 40
0.0
 40
0.0
 40
0.0
 40
0.177556441143534
 40
0.3913729550826592
 40
0.6051894690217868
 40
0.8190059829609089
 40
1.0
 40
1.0
 40
1.0
 40
1.0
 10
30.79249999999999
 20
3.748348419886164
 30
0.0
 10
30.79249999999998
 20
3.525884385387648
 30
0.0
 10
30.79249999999999
 20
3.035525342254368
 30
0.0
 10
30.79249999999999
 20
2.326806544599567
 30
0.0
 10
30.79249999999996
 20
1.733154992268784
 30
0.0
 10
30.79250000000004
 20
1.348637362843205
 30
0.0
 10
30.79249999999999
 20
1.305404265353361
 30
0.0
 10
30.79249999999999
 20
1.285584804194759
 30
0.0
  0
SPLINE
  5
AF
330
1F
100
AcDbEntity
  8
0
  6
Continuous
 62
     1
370
    15
100
AcDbSpline
210
0.0
220
0.0
230
1.0
 70
     8
 71
     3
 72
    14
 73
    10
 74
     0
 42
0.000000001
 43
0.00000001
 40
0.0
 40
0.0
 40
0.0
 40
0.0
 40
0.25
 40
0.25
 40
0.5
 40
0.5
 40
0.75
 40
0.75
 40
1.0
 40
1.0
 40
1.0
 40
1.0
 10
36.50750000000549
 20
-2.437640848848457
 30
0.0
 10
36.27006700919559
 20
-2.283620802130516
 30
0.0
 10
36.03406013374445
 20
-2.124740014607671
 30
0.0
 10
35.55658513403498
 20
-1.797383466299795
 30
0.0
 10
35.31683487043112
 20
-1.629277773484174
 30
0.0
 10
34.8398993842906
 20
-1.287438688752812
 30
0.0
 10
34.60439642784397
 20
-1.114130789156937
 30
0.0
 10
34.12865409442984
 20
-0.7623727260395675
 30
0.0
 10
33.88904877606123
 20
-0.5840640776545646
 30
0.0
 10
33.65000000000001
 20
-0.4050248756494668
 30
0.0
  0
SPLINE
  5
B0
330
1F
100
AcDbEntity
  8
0
 62
     4
100
AcDbSpline
210
0.0
220
0.0
230
1.0
 70
     8
 71
     3
 72
    14
 73
    10
 74
     0
 42
0.000000001
 43
0.00000001
 40
0.0
 40
0.0
 40
0.0
 40
0.0
 40
0.25
 40
0.25
 40
0.4999999999999999
 40
0.4999999999999999
 40
0.75
 40
0.75
 40
1.0
 40
1.0
 40
1.0
 40
1.0
 10
30.79249999999999
 20
1.32220553051057
 30
0.0
 10
31.00547130021574
 20
1.23666100542305
 30
0.0
 10
31.22911232637458
 20
1.136922849253776
 30
0.0
 10
31.69317317940357
 20
0.9025557139690401
 30
0.0
 10
31.93704050101026
 20
0.7669008461174069
 30
0.0
 10
32.4249500273386
 20
0.4688569056651141
 30
0.0
 10
32.66887997780704
 20
0.3069840816759755
 30
0.0
 10
33.15891587476628
 20
-0.0389915950711755
 30
0.0
 10
33.40565008514351
 20
-0.2220153054405983
 30
0.0
 10
33.64999999999998
 20
-0.4050248756494526
 30
0.0
  0
SPLINE
  5
B1
330
1F
100
AcDbEntity
  8
0
 62
     4
100
AcDbSpline
210
0.0
220
0.0
230
1.0
 70
    24
 71
     3
 72
    12
 73
     8
 74
     0
 42
0.000000001
 43
0.00000001
 40
0.0
 40
0.0
 40
0.0
 40
0.0
 40
0.1723628120852817
 40
0.3799250687709406
 40
0.5874873254565991
 40
0.7950495821422525
 40
0.9999999999999999
 40
0.9999999999999999
 40
0.9999999999999999
 40
0.9999999999999999
 10
30.79249999999999
 20
3.748348419886045
 30
0.0
 10
30.79249999999999
 20
3.525863624368566
 30
0.0
 10
30.79249999999999
 20
3.035458819440899
 30
0.0
 10
30.79249999999999
 20
2.327137187429275
 30
0.0
 10
30.79249999999995
 20
1.73192274003853
 30
0.0
 10
30.79249999999999
 20
1.334174541889827
 30
0.0
 10
30.79249999999999
 20
1.290280015648937
 30
0.0
 10
30.79249999999999
 20
1.268471712413902
 30
0.0
  0
SPLINE
  5
B2
330
1F
100
AcDbEntity
  8
0
  6
Continuous
 62
     1
370
    15
100
AcDbSpline
210
0.0
220
0.0
230
1.0
 70
     8
 71
     3
 72
     8
 73
     4
 74
     0
 42
0.000000001
 43
0.00000001
 40
0.0
 40
0.0
 40
0.0
 40
0.0
 40
0.003901805933387
 40
0.003901805933387
 40
0.003901805933387
 40
0.003901805933387
 10
33.64999999999999
 20
3.805074766229415
 30
0.0
 10
33.64611206643469
 20
3.80683229759549
 30
0.0
 10
33.64222579525996
 20
3.808584051038521
 30
0.0
 10
33.63834116800116
 20
3.810330015972623
 30
0.0
  0
SPLINE
  5
B3
330
1F
100
AcDbEntity
  8
0
  6
Continuous
 62
     1
370
    15
100
AcDbSpline
210
0.0
220
0.0
230
1.0
 70
     8
 71
     3
 72
    14
 73
    10
 74
     0
 42
0.000000001
 43
0.00000001
 40
0.0
 40
0.0
 40
0.0
 40
0.0
 40
0.2500000000000001
 40
0.2500000000000001
 40
0.5000000000000001
 40
0.5000000000000001
 40
0.7500000000000001
 40
0.7500000000000001
 40
1.0
 40
1.0
 40
1.0
 40
1.0
 10
36.5075000000055
 20
2.171274275025475
 30
0.0
 10
36.27006700919563
 20
2.3308423127115
 30
0.0
 10
36.03406013374445
 20
2.485490305169342
 30
0.0
 10
35.55658513403499
 20
2.784717137817993
 30
0.0
 10
35.31683487043112
 20
2.928900899755675
 30
0.0
 10
34.83989938429062
 20
3.203661981891722
 30
0.0
 10
34.60439642784397
 20
3.333961564131951
 30
0.0
 10
34.12865409442984
 20
3.580718032742013
 30
0.0
 10
33.88904877606123
 20
3.697013320504368
 30
0.0
 10
33.65000000000001
 20
3.805074766229414
 30
0.0
  0
SPLINE
  5
B4
330
1F
100
AcDbEntity
  8
0
  6
Continuous
 62
     1
370
    15
100
AcDbSpline
210
0.0
220
0.0
230
1.0
 70
     8
 71
     3
 72
    14
 73
    10
 74
     0
 42
0.000000001
 43
0.00000001
 40
0.0
 40
0.0
 40
0.0
 40
0.0
 40
0.25
 40
0.25
 40
0.5
 40
0.5
 40
0.75
 40
0.75
 40
1.0
 40
1.0
 40
1.0
 40
1.0
 10
39.38513541817218
 20
0.115807858284469
 30
0.0
 10
39.17258745375952
 20
0.2720097075322521
 30
0.0
 10
38.9479679850541
 20
0.4311351602170469
 30
0.0
 10
38.48003701006191
 20
0.7645934616441693
 30
0.0
 10
38.23379427123663
 20
0.9409657625656417
 30
0.0
 10
37.74438739445041
 20
1.296579341613493
 30
0.0
 10
37.49865465475574
 20
1.475315487521621
 30
0.0
 10
37.00227993538904
 20
1.830615971298205
 30
0.0
 10
36.7534353328658
 20
2.005992195528854
 30
0.0
 10
36.50749999999999
 20
2.171274275029181
 30
0.0
  0
SPLINE
  5
B5
330
1F
100
AcDbEntity
  8
0
  6
Continuous
 62
     1
370
    15
100
AcDbSpline
210
0.0
220
0.0
230
1.0
 70
     8
 71
     3
 72
     8
 73
     4
 74
     0
 42
0.000000001
 43
0.00000001
 40
0.0
 40
0.0
 40
0.0
 40
0.0
 40
1.0
 40
1.0
 40
1.0
 40
1.0
 10
38.93196351948919
 20
0.3448795824649186
 30
0.0
 10
39.08501309210036
 20
0.2724913657922148
 30
0.0
 10
39.23612800042612
 20
0.1962488931132928
 30
0.0
 10
39.38513541816966
 20
0.1158078582881092
 30
0.0
  0
SPLINE
  5
B6
330
1F
100
AcDbEntity
  8
0
  6
Continuous
 62
     1
370
    15
100
AcDbSpline
210
0.0
220
0.0
230
1.0
 70
     8
 71
     3
 72
    10
 73
     6
 74
     0
 42
0.000000001
 43
0.00000001
 40
0.0
 40
0.0
 40
0.0
 40
0.0
 40
0.5
 40
0.5
 40
1.0
 40
1.0
 40
1.0
 40
1.0
 10
38.93196351948929
 20
0.3448795824647714
 30
0.0
 10
38.94404001981101
 20
0.2963730665401341
 30
0.0
 10
38.94455195150113
 20
0.2432407825948135
 30
0.0
 10
38.91381200349328
 20
0.1281085920893112
 30
0.0
 10
38.8818321559108
 20
0.0651676885782837
 30
0.0
 10
38.83125898447933
 20
-0.0000000000000325
 30
0.0
  0
SPLINE
  5
B7
330
1F
100
AcDbEntity
  8
0
  6
Continuous
 62
     1
370
    15
100
AcDbSpline
210
0.0
220
0.0
230
1.0
 70
     8
 71
     3
 72
     8
 73
     4
 74
     0
 42
0.000000001
 43
0.00000001
 40
0.0
 40
0.0
 40
0.0
 40
0.0
 40
1.0
 40
1.0
 40
1.0
 40
1.0
 10
40.20375774585507
 20
-0.5648789664511581
 30
0.0
 10
39.74603869311635
 20
-0.3769766077862132
 30
0.0
 10
39.28804167997866
 20
-0.1895835798595668
 30
0.0
 10
38.83125898447943
 20
-0.0000000000003197
 30
0.0
  0
SPLINE
  5
B8
330
1F
100
AcDbEntity
  8
0
  6
Continuous
 62
     1
370
    15
100
AcDbSpline
210
0.0
220
0.0
230
1.0
 70
     8
 71
     3
 72
    34
 73
    30
 74
     0
 42
0.000000001
 43
0.00000001
 40
0.0
 40
0.0
 40
0.0
 40
0.0
 40
0.1250000000000006
 40
0.1250000000000006
 40
0.2500000000000011
 40
0.2500000000000011
 40
0.3750000000000017
 40
0.3750000000000017
 40
0.437500000000002
 40
0.437500000000002
 40
0.5000000000000023
 40
0.5000000000000023
 40
0.5625000000000028
 40
0.5625000000000028
 40
0.6250000000000031
 40
0.6250000000000031
 40
0.6875000000000036
 40
0.6875000000000036
 40
0.7187500000000032
 40
0.7187500000000032
 40
0.7500000000000029
 40
0.7500000000000029
 40
0.8125000000000021
 40
0.8125000000000021
 40
0.8750000000000014
 40
0.8750000000000014
 40
0.9375000000000007
 40
0.9375000000000007
 40
1.0
 40
1.0
 40
1.0
 40
1.0
 10
36.50749999999999
 20
-2.437640848844889
 30
0.0
 10
36.76531240860795
 20
-2.604880789186967
 30
0.0
 10
37.01677596845022
 20
-2.755100541797673
 30
0.0
 10
37.51596158920066
 20
-3.013053982390661
 30
0.0
 10
37.76617844684316
 20
-3.12176524164519
 30
0.0
 10
38.25624451132207
 20
-3.273611902575126
 30
0.0
 10
38.49769294200207
 20
-3.317177865340132
 30
0.0
 10
38.86527737868013
 20
-3.317031888064671
 30
0.0
 10
38.98618420343387
 20
-3.305866460901924
 30
0.0
 10
39.22683982333624
 20
-3.258194265554767
 30
0.0
 10
39.3474069166319
 20
-3.221413097505911
 30
0.0
 10
39.58633987206669
 20
-3.117479206384486
 30
0.0
 10
39.70300735113296
 20
-3.051399874460604
 30
0.0
 10
39.93316171091755
 20
-2.882775387144803
 30
0.0
 10
40.04438005090578
 20
-2.781641083232318
 30
0.0
 10
40.25124376763747
 20
-2.544889299987086
 30
0.0
 10
40.34536163453718
 20
-2.410411123144027
 30
0.0
 10
40.46023952058552
 20
-2.196549327538794
 30
0.0
 10
40.49339542074343
 20
-2.124850698750664
 30
0.0
 10
40.54969332747577
 20
-1.980644476707582
 30
0.0
 10
40.57284114870932
 20
-1.907649216027265
 30
0.0
 10
40.62456158535654
 20
-1.696942911010611
 30
0.0
 10
40.63662429490444
 20
-1.563097685752852
 30
0.0
 10
40.62398249834905
 20
-1.320942380116199
 30
0.0
 10
40.59944512059777
 20
-1.209070603835205
 30
0.0
 10
40.52445371279475
 20
-1.004465507002137
 30
0.0
 10
40.47415446822785
 20
-0.9108127502438003
 30
0.0
 10
40.3530565482864
 20
-0.7320285635306586
 30
0.0
 10
40.28190746100822
 20
-0.646832156384556
 30
0.0
 10
40.20375774585511
 20
-0.5648789664511336
 30
0.0
  0
SPLINE
  5
B9
330
1F
100
AcDbEntity
  8
0
 62
     4
100
AcDbSpline
210
0.0
220
0.0
230
1.0
 70
     8
 71
     3
 72
    14
 73
    10
 74
     0
 42
0.000000001
 43
0.00000001
 40
0.0
 40
0.0
 40
0.0
 40
0.0
 40
0.25
 40
0.25
 40
0.5
 40
0.5
 40
0.75
 40
0.75
 40
1.0
 40
1.0
 40
1.0
 40
1.0
 10
33.64999999999999
 20
-2.864055214796707
 30
0.0
 10
33.40088884277694
 20
-2.714445692331242
 30
0.0
 10
33.15860235711763
 20
-2.545971695003036
 30
0.0
 10
32.67795955954477
 20
-2.182478663403235
 30
0.0
 10
32.43629078403525
 20
-1.985832097276989
 30
0.0
 10
31.96126037408311
 20
-1.590117883403269
 30
0.0
 10
31.72805954460816
 20
-1.391127844365557
 30
0.0
 10
31.25750692362885
 20
-1.007918703702065
 30
0.0
 10
31.02520964352912
 20
-0.827820113349119
 30
0.0
 10
30.79249999999999
 20
-0.6826302975533608
 30
0.0
  0
SPLINE
  5
BA
330
1F
100
AcDbEntity
  8
0
  6
Continuous
 62
     1
370
    15
100
AcDbSpline
210
0.0
220
0.0
230
1.0
 70
     8
 71
     3
 72
    14
 73
    10
 74
     0
 42
0.000000001
 43
0.00000001
 40
0.0
 40
0.0
 40
0.0
 40
0.0
 40
0.25
 40
0.25
 40
0.5
 40
0.5
 40
0.75
 40
0.75
 40
1.0
 40
1.0
 40
1.0
 40
1.0
 10
36.5075000000055
 20
-4.238746780902655
 30
0.0
 10
36.2700670091956
 20
-4.15700894817697
 30
0.0
 10
36.03406013374443
 20
-4.066448663194741
 30
0.0
 10
35.556585134035
 20
-3.867688877072696
 30
0.0
 10
35.31683487043112
 20
-3.759678445563623
 30
0.0
 10
34.83989938429062
 20
-3.528483016879479
 30
0.0
 10
34.60439642784399
 20
-3.405626087543754
 30
0.0
 10
34.12865409442983
 20
-3.145162496479937
 30
0.0
 10
33.88904877606124
 20
-3.007621539288757
 30
0.0
 10
33.65000000000001
 20
-2.86405521479671
 30
0.0
  0
SPLINE
  5
BB
330
1F
100
AcDbEntity
  8
0
  6
Continuous
 62
     1
370
    15
100
AcDbSpline
210
0.0
220
0.0
230
1.0
 70
     8
 71
     3
 72
     9
 73
     5
 74
     0
 42
0.000000001
 43
0.00000001
 40
0.0
 40
0.0
 40
0.0
 40
0.0
 40
0.2264519548825143
 40
0.4686193427128632
 40
0.4686193427128632
 40
0.4686193427128632
 40
0.4686193427128632
 10
36.31157628475765
 20
-4.158840738538148
 30
0.0
 10
36.11089218773988
 20
-4.230940579656632
 30
0.0
 10
35.69559681223216
 20
-4.380143884932472
 30
0.0
 10
35.27950217688286
 20
-4.491204495222111
 30
0.0
 10
35.06450291508797
 20
-4.538630373023938
 30
0.0
  0
SPLINE
  5
BC
330
1F
100
AcDbEntity
  8
0
  6
Continuous
 62
     4
370
    15
100
AcDbSpline
210
0.0
220
0.0
230
1.0
 70
     8
 71
     3
 72
     8
 73
     4
 74
     0
 42
0.000000001
 43
0.00000001
 40
0.0
 40
0.0
 40
0.0
 40
0.0
 40
0.1360228039392124
 40
0.1360228039392124
 40
0.1360228039392124
 40
0.1360228039392124
 10
30.79249999999999
 20
-3.57321599334371
 30
0.0
 10
30.9083758136557
 20
-3.683104649687261
 30
0.0
 10
31.02741024230975
 20
-3.785575546092687
 30
0.0
 10
31.1492359935101
 20
-3.88078685635013
 30
0.0
  0
SPLINE
  5
BD
330
1F
100
AcDbEntity
  8
0
 62
     4
100
AcDbSpline
210
0.0
220
0.0
230
1.0
 70
    24
 71
     3
 72
    13
 73
     9
 74
     0
 42
0.000000001
 43
0.00000001
 40
0.0
 40
0.0
 40
0.0
 40
0.0
 40
0.1370443834698652
 40
0.3248310013484764
 40
0.5126176192270873
 40
0.7004042371056936
 40
0.8881908549841634
 40
1.0
 40
1.0
 40
1.0
 40
1.0
 10
30.79249999999999
 20
-0.6904757802235465
 30
0.0
 10
30.79249999999999
 20
-0.6989971894515952
 30
0.0
 10
30.79249999999998
 20
-0.7191951561421153
 30
0.0
 10
30.79249999999999
 20
-1.028879920150217
 30
0.0
 10
30.79249999999995
 20
-1.575809727272771
 30
0.0
 10
30.79249999999999
 20
-2.295234623586431
 30
0.0
 10
30.79249999999999
 20
-2.994769257442712
 30
0.0
 10
30.79249999999999
 20
-3.416009227613005
 30
0.0
 10
30.79249999999999
 20
-3.57321599334371
 30
0.0
  0
SPLINE
  5
BE
330
1F
100
AcDbEntity
  8
0
  6
Continuous
 62
     1
370
    15
100
AcDbSpline
210
0.0
220
0.0
230
1.0
 70
     8
 71
     3
 72
    14
 73
    10
 74
     0
 42
0.000000001
 43
0.00000001
 40
0.0
 40
0.0
 40
0.0
 40
0.0
 40
0.25
 40
0.25
 40
0.5
 40
0.5
 40
0.75
 40
0.75
 40
1.0
 40
1.0
 40
1.0
 40
1.0
 10
39.38513541816626
 20
-3.793047480598394
 30
0.0
 10
39.17258745375387
 20
-3.949530137845948
 30
0.0
 10
38.94796798504881
 20
-4.078250155456487
 30
0.0
 10
38.48003701005744
 20
-4.277660625302973
 30
0.0
 10
38.23379427123264
 20
-4.348423245631486
 30
0.0
 10
37.74438739444759
 20
-4.423040219658589
 30
0.0
 10
37.49865465475343
 20
-4.429021885928458
 30
0.0
 10
37.0022799353879
 20
-4.379408200266473
 30
0.0
 10
36.75343533286523
 20
-4.323411599511439
 30
0.0
 10
36.50749999999999
 20
-4.238746780900762
 30
0.0
  0
LWPOLYLINE
  5
BF
330
1F
100
AcDbEntity
  8
0
  6
Continuous
 62
     1
370
    15
100
AcDbPolyline
 90
        9
 70
   128
 43
0.0
 10
39.34816609256877
 20
0.5715843159750427
 10
39.71633338397677
 20
0.5882716546531349
 10
40.05351424074239
 20
0.5787813902544611
 10
40.35566130159381
 20
0.5432274394733284
 10
40.61914773455657
 20
0.4820365753028216
 10
40.84081077174801
 20
0.3959433042514353
 10
41.01798967376335
 20
0.2859810496705495
 10
41.14855766794687
 20
0.1534697470239512
 10
41.23094747717595
 20
-0.0000000000000069
  0
ARC
  5
C0
330
1F
100
AcDbEntity
  8
0
  6
Continuous
 62
     1
370
    15
100
AcDbCircle
 10
35.13272522169866
 20
0.0002703376339075
 30
0.0
 40
4.253979477812527
100
AcDbArc
 50
1.556337183509238
 51
7.718205871290978
  0
SPLINE
  5
C1
330
1F
100
AcDbEntity
  8
0
  6
Continuous
 62
     1
370
    15
100
AcDbSpline
210
0.0
220
0.0
230
1.0
 70
     8
 71
     3
 72
    34
 73
    30
 74
     0
 42
0.000000001
 43
0.00000001
 40
0.0
 40
0.0
 40
0.0
 40
0.0
 40
0.1250000000000006
 40
0.1250000000000006
 40
0.2500000000000011
 40
0.2500000000000011
 40
0.3750000000000017
 40
0.3750000000000017
 40
0.437500000000002
 40
0.437500000000002
 40
0.5000000000000023
 40
0.5000000000000023
 40
0.5625000000000028
 40
0.5625000000000028
 40
0.625000000000003
 40
0.625000000000003
 40
0.6875000000000033
 40
0.6875000000000033
 40
0.7187500000000029
 40
0.7187500000000029
 40
0.7500000000000024
 40
0.7500000000000024
 40
0.8125000000000018
 40
0.8125000000000018
 40
0.8750000000000012
 40
0.8750000000000012
 40
0.9375000000000006
 40
0.9375000000000006
 40
1.0
 40
1.0
 40
1.0
 40
1.0
 10
36.50749999999999
 20
4.091370594561504
 30
0.0
 10
36.76531240860795
 20
3.991728946191116
 30
0.0
 10
37.01677596845023
 20
3.864356952425513
 30
0.0
 10
37.51596158920066
 20
3.561980710997857
 30
0.0
 10
37.76617844684315
 20
3.384400769208557
 30
0.0
 10
38.25624451132209
 20
3.001535601746285
 30
0.0
 10
38.49769294200208
 20
2.796743086214799
 30
0.0
 10
38.86527737868017
 20
2.479075872254219
 30
0.0
 10
38.98618420343387
 20
2.373708644312531
 30
0.0
 10
39.22683982333624
 20
2.167136871283516
 30
0.0
 10
39.3474069166319
 20
2.065187803714261
 30
0.0
 10
39.58633987206669
 20
1.873404052643038
 30
0.0
 10
39.70300735113296
 20
1.784744688090733
 30
0.0
 10
39.93316171091757
 20
1.631585099311897
 30
0.0
 10
40.04438005090578
 20
1.568654087971372
 30
0.0
 10
40.25124376763748
 20
1.488504051461508
 30
0.0
 10
40.34536163453721
 20
1.472611832294443
 30
0.0
 10
40.46023952058555
 20
1.496341655789442
 30
0.0
 10
40.49339542074343
 20
1.511808642730367
 30
0.0
 10
40.5496933274758
 20
1.557446220425241
 30
0.0
 10
40.57284114870933
 20
1.588023015082662
 30
0.0
 10
40.62456158535655
 20
1.696388823965489
 30
0.0
 10
40.63662429490439
 20
1.792856502277211
 30
0.0
 10
40.62398249834901
 20
2.00423534669276
 30
0.0
 10
40.59944512059776
 20
2.121657993462388
 30
0.0
 10
40.52445371279474
 20
2.358480686961949
 30
0.0
 10
40.47415446822785
 20
2.478582127509398
 30
0.0
 10
40.35305654828638
 20
2.717190813180901
 30
0.0
 10
40.28190746100823
 20
2.835947427637135
 30
0.0
 10
40.20375774585511
 20
2.949575677867456
 30
0.0
  0
ARC
  5
C2
330
1F
100
AcDbEntity
  8
0
  6
Continuous
 62
     1
370
    15
100
AcDbCircle
 10
36.58430231551286
 20
-0.0344536534871832
 30
0.0
 40
4.690936864062306
100
AcDbArc
 50
7.879729924756173
 51
39.50358633067292
  0
ARC
  5
C3
330
1F
100
AcDbEntity
  8
0
  6
Continuous
 62
     1
370
    15
100
AcDbCircle
 10
36.28079980986482
 20
-0.2382805157269927
 30
0.0
 40
5.054901920699915
100
AcDbArc
 50
39.15618799965021
 51
52.64078130841318
  0
SPLINE
  5
C4
330
1F
100
AcDbEntity
  8
0
  6
Continuous
 62
     1
370
    15
100
AcDbSpline
210
0.0
220
0.0
230
1.0
 70
     8
 71
     3
 72
    14
 73
    10
 74
     0
 42
0.000000001
 43
0.00000001
 40
0.0
 40
0.0
 40
0.0
 40
0.0
 40
0.25
 40
0.25
 40
0.5
 40
0.5
 40
0.75
 40
0.75
 40
1.0
 40
1.0
 40
1.0
 40
1.0
 10
39.38513541817206
 20
3.793047480594125
 30
0.0
 10
39.17258745375939
 20
3.949530137842542
 30
0.0
 10
38.94796798505402
 20
4.078250155453829
 30
0.0
 10
38.48003701006186
 20
4.277660625301569
 30
0.0
 10
38.23379427123653
 20
4.348423245630594
 30
0.0
 10
37.74438739445033
 20
4.423040219658454
 30
0.0
 10
37.49865465475568
 20
4.429021885928553
 30
0.0
 10
37.00227993538904
 20
4.379408200266741
 30
0.0
 10
36.75343533286577
 20
4.323411599511642
 30
0.0
 10
36.50749999999999
 20
4.238746780900774
 30
0.0
  0
ARC
  5
C5
330
1F
100
AcDbEntity
  8
0
  6
Continuous
 62
     1
370
    15
100
AcDbCircle
 10
36.45256146600699
 20
0.0841362802314352
 30
0.0
 40
4.828345515595119
100
AcDbArc
 50
306.849094229737
 51
351.7505934298738
  0
LINE
  5
C6
330
1F
100
AcDbEntity
  8
0
  6
Continuous
 62
     1
370
    15
100
AcDbLine
 10
39.34816609256877
 20
-3.77959174650667
 30
0.0
 11
39.38513541816965
 21
-3.793047480606289
 31
0.0
  0
ARC
  5
C7
330
1F
100
AcDbEntity
  8
0
  6
Continuous
 62
     1
370
    15
100
AcDbCircle
 10
40.24887492674762
 20
0.5694517992021867
 30
0.0
 40
1.135227662594343
100
AcDbArc
 50
267.7223026508232
 51
329.8928278900634
  0
SPLINE
  5
C8
330
1F
100
AcDbEntity
  8
0
  6
Continuous
 62
     1
370
    15
100
AcDbSpline
210
0.0
220
0.0
230
1.0
 70
     8
 71
     3
 72
    12
 73
     8
 74
     0
 42
0.000000001
 43
0.00000001
 40
0.0
 40
0.0
 40
0.0
 40
0.0
 40
0.2499999999999999
 40
0.2499999999999999
 40
0.4999999999999999
 40
0.4999999999999999
 40
0.5059491449958485
 40
0.5059491449958485
 40
0.5059491449958485
 40
0.5059491449958485
 10
36.50750000000549
 20
4.09137059455938
 30
0.0
 10
36.2700670091956
 20
4.183135823043073
 30
0.0
 10
36.03406013374443
 20
4.266045787121124
 30
0.0
 10
35.556585134035
 20
4.413964143778362
 30
0.0
 10
35.31683487043112
 20
4.47873826333439
 30
0.0
 10
35.07269241063943
 20
4.535026173457872
 30
0.0
 10
35.06701937280911
 20
4.53632891855198
 30
0.0
 10
35.06134794200534
 20
4.537626083665088
 30
0.0
  0
LINE
  5
CA
330
1F
100
AcDbEntity
  8
0
  6
Continuous
 62
     1
370
    15
100
AcDbLine
 10
36.3115762847576
 20
4.158840738538144
 30
0.0
 11
36.5075000000055
 21
4.238746780902672
 31
0.0
  0
SPLINE
  5
CB
330
1F
100
AcDbEntity
  8
0
  6
Continuous
 62
     1
370
    15
100
AcDbSpline
210
0.0
220
0.0
230
1.0
 70
    24
 71
     3
 72
     8
 73
     4
 74
     0
 42
0.000000001
 43
0.00000001
 40
0.0
 40
0.0
 40
0.0
 40
0.0
 40
1.0
 40
1.0
 40
1.0
 40
1.0
 10
38.93196351948914
 20
3.628106398480677
 30
0.0
 10
39.08501309210033
 20
3.683811887278312
 30
0.0
 10
39.23612800042609
 20
3.73881321586276
 30
0.0
 10
39.38513541816966
 20
3.793047480606288
 30
0.0
  0
SPLINE
  5
CC
330
1F
100
AcDbEntity
  8
0
  6
Continuous
 62
     1
370
    15
100
AcDbSpline
210
0.0
220
0.0
230
1.0
 70
     8
 71
     3
 72
    10
 73
     6
 74
     0
 42
0.000000001
 43
0.00000001
 40
0.0
 40
0.0
 40
0.0
 40
0.0
 40
0.5
 40
0.5
 40
1.0
 40
1.0
 40
1.0
 40
1.0
 10
38.93196351948931
 20
3.628106398480518
 30
0.0
 10
38.94404001981103
 20
3.499502020456925
 30
0.0
 10
38.94455195150112
 20
3.370728925557027
 30
0.0
 10
38.91381200349328
 20
3.121985423620283
 30
0.0
 10
38.8818321559108
 20
3.000435442745133
 30
0.0
 10
38.83125898447933
 20
2.891194659272521
 30
0.0
  0
SPLINE
  5
CD
330
1F
100
AcDbEntity
  8
0
  6
Continuous
 62
     1
370
    15
100
AcDbSpline
210
0.0
220
0.0
230
1.0
 70
     8
 71
     3
 72
     8
 73
     4
 74
     0
 42
0.000000001
 43
0.00000001
 40
0.0
 40
0.0
 40
0.0
 40
0.0
 40
1.0
 40
1.0
 40
1.0
 40
1.0
 10
40.20375774585509
 20
2.949575677867429
 30
0.0
 10
39.74603869311636
 20
2.93126725446737
 30
0.0
 10
39.28804167997866
 20
2.914452985242899
 30
0.0
 10
38.83125898447942
 20
2.891194659272308
 30
0.0
  0
LINE
  5
CE
330
1F
100
AcDbEntity
  8
0
  6
Continuous
 62
     1
370
    15
100
AcDbLine
 10
38.83125898447933
 20
-0.0000000000000314
 30
0.0
 11
41.23094747717595
 21
-0.0000000000000069
 31
0.0
  0
LINE
  5
CF
330
1F
100
AcDbEntity
  8
중심선
100
AcDbLine
 10
-72.1800125
 20
-0.0000000000000045
 30
0.0
 11
44.81866988838445
 21
-0.0000000000000052
 31
0.0
  0
CIRCLE
  5
D0
330
1F
100
AcDbEntity
  8
외형선
100
AcDbCircle
 10
0.0000000000000104
 20
0.0
 30
0.0
 40
3.000000000000005
  0
INSERT
  5
D1
330
1F
100
AcDbEntity
  8
0
  6
Continuous
 62
     7
100
AcDbBlockReference
 66
     1
  2
블럭10
 10
-22.93944368806589
 20
-52.04609937292004
 30
0.0
  0
ATTRIB
  5
D2
330
D1
100
AcDbEntity
  8
FORMAT
 62
     2
100
AcDbText
 10
-33.08107970020252
 20
-49.97073246008785
 30
0.0
 40
4.233333333333333
  1
EM096024 [ 2 FLUTE ]
 41
0.75
  7
SLDTEXTSTYLE0
 11
-33.08107970020252
 21
-52.08739912675452
 31
0.0
100
AcDbAttribute
  2
AUTOATTR0
 70
     0
 74
     1
  0
SEQEND
  5
D3
330
D1
100
AcDbEntity
  8
0
  6
Continuous
 62
     7
  0
HATCH
  5
D4
330
1F
100
AcDbEntity
  8
중심선
100
AcDbHatch
 10
0.0
 20
0.0
 30
0.0
210
0.0
220
0.0
230
1.0
  2
SOLID
 70
     1
 71
     0
 91
        1
 92
        0
 93
        4
 72
     1
 10
-17.22453438368504
 20
-35.7989250712761
 11
-20.67080962752232
 21
-35.7989250712761
 72
     1
 10
-20.67080962752232
 20
-35.7989250712761
 11
-22.79903948672635
 21
-38.3352506518487
 72
     1
 10
-22.79903948672635
 20
-38.3352506518487
 11
-19.35273115777591
 21
-38.33521122254621
 72
     1
 10
-19.35273115777591
 20
-38.33521122254621
 11
-17.22453438368504
 21
-35.7989250712761
 97
        0
 75
     0
 76
     1
 98
        1
 10
0.0
 20
0.0
  0
HATCH
  5
D5
330
1F
100
AcDbEntity
  8
중심선
100
AcDbHatch
 10
0.0
 20
0.0
 30
0.0
210
0.0
220
0.0
230
1.0
  2
SOLID
 70
     1
 71
     0
 91
        1
 92
        0
 93
        4
 72
     1
 10
-12.21177039264909
 20
-35.7989250712761
 11
-15.65804563648637
 21
-35.7989250712761
 72
     1
 10
-15.65804563648637
 20
-35.7989250712761
 11
-20.18918364484376
 21
-41.19892507127612
 72
     1
 10
-20.18918364484376
 20
-41.19892507127612
 11
-16.74290840100648
 21
-41.19892507127612
 72
     1
 10
-16.74290840100648
 20
-41.19892507127612
 11
-12.21177039264909
 21
-35.7989250712761
 97
        0
 75
     0
 76
     1
 98
        1
 10
0.0
 20
0.0
  0
HATCH
  5
D6
330
1F
100
AcDbEntity
  8
중심선
100
AcDbHatch
 10
0.0
 20
0.0
 30
0.0
210
0.0
220
0.0
230
1.0
  2
SOLID
 70
     1
 71
     0
 91
        1
 92
        0
 93
        4
 72
     1
 10
-7.199006401613195
 20
-35.79892507127613
 11
-10.64528164545031
 21
-35.7989250712761
 72
     1
 10
-10.64528164545031
 20
-35.7989250712761
 11
-17.69371854733956
 21
-44.19892507127612
 72
     1
 10
-17.69371854733956
 20
-44.19892507127612
 11
-14.24744330350228
 21
-44.19892507127612
 72
     1
 10
-14.24744330350228
 20
-44.19892507127612
 11
-7.199006401613195
 21
-35.79892507127613
 97
        0
 75
     0
 76
     1
 98
        1
 10
0.0
 20
0.0
  0
HATCH
  5
D7
330
1F
100
AcDbEntity
  8
중심선
100
AcDbHatch
 10
0.0
 20
0.0
 30
0.0
210
0.0
220
0.0
230
1.0
  2
SOLID
 70
     1
 71
     0
 91
        1
 92
        0
 93
        6
 72
     3
 10
-2.399115970600996
 20
-39.99892507132738
 11
3.960054785062284
 21
1.540850780301639E-10
 40
0.3939339440162633
 50
17.09539180608433
 51
320.0019657685079
 73
     0
 72
     1
 10
-0.7161163149004002
 20
-38.58681907591441
 11
1.589185558800638
 21
-36.65249236586649
 72
     3
 10
-2.399115970653842
 20
-39.99892507127625
 11
6.600054785286829
 21
-1.249000902703301E-13
 40
0.6363583540795982
 50
39.99873849337408
 51
368.4976242363724
 73
     1
 72
     1
 10
4.026216521246767
 20
-39.03892507120613
 11
-3.71904866381792
 21
-39.0389250712061
 72
     1
 10
-3.71904866381792
 20
-39.0389250712061
 11
-3.719073708263854
 21
-40.95892507120602
 72
     1
 10
-3.719073708263854
 20
-40.95892507120602
 11
0.7223060612081835
 21
-40.95892507120599
 97
        0
 75
     0
 76
     1
 98
        1
 10
0.0
 20
0.0
  0
DIMENSION
  5
D8
330
1F
100
AcDbEntity
  8
치수문자_일반주서
100
AcDbDimension
  2
_D
 10
-82.14000000000001
 20
-4.762500000000084
 30
0.0
 11
-82.14000000000001
 21
-2.700832205843942
 31
0.0
 70
   160
  1
%%c<>
 71
     2
 42
9.524999999999995
 52
-270.0
  3
SLDDIMSTYLE0
100
AcDbAlignedDimension
 13
-59.33000000000001
 23
4.762499999999997
 33
0.0
 14
-59.33000000000001
 24
-4.762499999999998
 34
0.0
 50
90.0000000000002
100
AcDbRotatedDimension
1001
ACAD
1000
DSTYLE
1002
{
1070
   171
1070
     6
1070
   273
1070
     7
1002
}
  0
INSERT
  5
FF
330
1F
100
AcDbEntity
  8
외형선
100
AcDbBlockReference
  2
SW_DOWELSYMBOL_0
 10
0.0000000000000104
 20
0.0
 30
0.0
  0
ARC
  5
126
330
1F
100
AcDbEntity
  8
0
  6
Continuous
 62
     1
370
    15
100
AcDbCircle
 10
36.50750000000001
 20
-0.0000000000000044
 30
0.0
 40
4.762499999999999
100
AcDbArc
 50
233.1301023541561
 51
126.869897645844
  0
LINE
  5
127
330
1F
100
AcDbEntity
  8
0
 62
     4
100
AcDbLine
 10
33.65000000000001
 20
-3.810000000000003
 30
0.0
 11
33.65000000000001
 21
3.809999999999996
 31
0.0
  0
LINE
  5
128
330
1F
100
AcDbEntity
  8
0
 62
     4
100
AcDbLine
 10
0.0
 20
-4.762499999999998
 30
0.0
 11
0.0
 21
4.762499999999998
 31
0.0
  0
LINE
  5
12A
330
1F
100
AcDbEntity
  8
0
 62
     4
100
AcDbLine
 10
0.0000000000000071
 20
-4.762499999999998
 30
0.0
 11
33.65000000000001
 21
-3.810000000000004
 31
0.0
  0
LINE
  5
12B
330
1F
100
AcDbEntity
  8
0
 62
     4
100
AcDbLine
 10
33.65000000000001
 20
3.809999999999996
 30
0.0
 11
0.0
 21
4.762499999999997
 31
0.0
  0
SPLINE
  5
12C
330
1F
100
AcDbEntity
  8
0
 62
     4
100
AcDbSpline
210
0.0
220
0.0
230
1.0
 70
     8
 71
     3
 72
     8
 73
     4
 74
     0
 42
0.000000001
 43
0.00000001
 40
0.916764277132522
 40
0.916764277132522
 40
0.916764277132522
 40
0.916764277132522
 40
1.0
 40
1.0
 40
1.0
 40
1.0
 10
31.02492509842597
 20
3.884305611998488
 30
0.0
 10
30.94741233229331
 20
3.843827952142993
 30
0.0
 10
30.86997902158951
 20
3.798610026093854
 30
0.0
 10
30.79249999999999
 20
3.748348419886048
 30
0.0
  0
LINE
  5
12D
330
1F
100
AcDbEntity
  8
0
 62
     4
100
AcDbLine
 10
29.65010686501052
 20
0.0062729427424077
 30
0.0
 11
29.65010686501052
 21
-3.307050478736368
 31
0.0
  0
DIMENSION
  5
130
330
1F
100
AcDbEntity
  8
치수문자_일반주서
100
AcDbDimension
  2
*D5
 10
54.32795436850635
 20
4.762499999999994
 30
0.0
 11
51.70295436850635
 21
24.49149999999999
 31
0.0
 70
    32
  1
{%%c<>[]}
 71
     5
 42
9.525
  3
SLDDIMSTYLE0
100
AcDbAlignedDimension
 13
41.27
 23
-4.762500000000006
 33
0.0
 14
41.27
 24
4.762499999999995
 34
0.0
 50
90.0
100
AcDbRotatedDimension
1001
ACAD
1000
DSTYLE
1002
{
1070
   283
1070
     1
1070
   170
1070
     1
1070
   171
1070
     6
1070
   273
1070
     7
1002
}
  0
DIMENSION
  5
142
330
1F
100
AcDbEntity
  8
치수문자_일반주서
100
AcDbDimension
  2
*D6
 10
33.63834116800116
 20
36.85139578395721
 30
0.0
 11
15.22184116800116
 21
39.47639578395721
 31
0.0
 70
    32
 71
     5
 42
7.631658831998841
  3
SLDDIMSTYLE0
100
AcDbAlignedDimension
 13
41.27
 23
4.762499999999995
 33
0.0
 14
33.63834116800116
 24
3.810330015972623
 34
0.0
100
AcDbRotatedDimension
1001
ACAD
1000
DSTYLE
1002
{
1070
   171
1070
     2
1070
   273
1070
     2
1002
}
  0
DIMENSION
  5
153
330
1F
100
AcDbEntity
  8
치수문자_일반주서
100
AcDbDimension
  2
*D7
 10
0.0
 20
50.25620792161011
 30
0.0
 11
20.635
 21
52.88120792161011
 31
0.0
 70
    32
 71
     5
 42
41.27
  3
SLDDIMSTYLE0
100
AcDbAlignedDimension
 13
41.27
 23
4.762499999999995
 33
0.0
 14
0.0
 24
4.762499999999997
 34
0.0
100
AcDbRotatedDimension
1001
ACAD
1000
DSTYLE
1002
{
1070
   171
1070
     6
1070
   273
1070
     7
1002
}
  0
DIMENSION
  5
162
330
1F
100
AcDbEntity
  8
치수문자_일반주서
100
AcDbDimension
  2
*D8
 10
-60.33000000000001
 20
66.36559025852581
 30
0.0
 11
-9.530000000000001
 21
68.99059025852581
 31
0.0
 70
    32
 71
     5
 42
101.6
  3
SLDDIMSTYLE0
100
AcDbAlignedDimension
 13
41.27
 23
4.762499999999995
 33
0.0
 14
-60.33000000000001
 24
3.762499999999989
 34
0.0
100
AcDbRotatedDimension
1001
ACAD
1000
DSTYLE
1002
{
1070
   171
1070
     6
1070
   273
1070
     7
1002
}
  0
ENDSEC
  0
SECTION
  2
OBJECTS
  0
DICTIONARY
  5
C
330
0
100
AcDbDictionary
281
     1
  3
ACAD_DETAILVIEWSTYLE
350
176
  3
ACAD_GROUP
350
D
  3
ACAD_IMAGE_VARS
350
123
  3
ACAD_LAYOUT
350
1A
  3
ACAD_MLINESTYLE
350
17
  3
ACAD_PLOTSETTINGS
350
19
  3
ACAD_PLOTSTYLENAME
350
E
  3
ACAD_SCALELIST
350
47
  3
ACAD_SECTIONVIEWSTYLE
350
177
  3
AcDbVariableDictionary
350
171
  3
APPDATA
350
121
  3
DWGPROPS
350
19D
  0
DICTIONARY
  5
176
102
{ACAD_REACTORS
330
C
102
}
330
C
100
AcDbDictionary
281
     1
  0
DICTIONARY
  5
D
102
{ACAD_REACTORS
330
C
102
}
330
C
100
AcDbDictionary
281
     1
  0
RASTERVARIABLES
  5
123
102
{ACAD_REACTORS
330
C
102
}
330
C
100
AcDbRasterVariables
 90
        0
 70
     1
 71
     1
 72
     1
  0
DICTIONARY
  5
1A
102
{ACAD_REACTORS
330
C
102
}
330
C
100
AcDbDictionary
281
     1
  3
Layout1
350
1E
  3
Layout2
350
26
  3
Model
350
22
  0
DICTIONARY
  5
17
102
{ACAD_REACTORS
330
C
102
}
330
C
100
AcDbDictionary
281
     1
  3
Standard
350
18
  0
DICTIONARY
  5
19
102
{ACAD_REACTORS
330
C
102
}
330
C
100
AcDbDictionary
281
     1
  0
ACDBDICTIONARYWDFLT
  5
E
102
{ACAD_REACTORS
330
C
102
}
330
C
100
AcDbDictionary
281
     1
  3
Normal
350
F
100
AcDbDictionaryWithDefault
340
F
  0
DICTIONARY
  5
47
102
{ACAD_REACTORS
330
C
102
}
330
C
100
AcDbDictionary
281
     1
  3
A0
350
48
  3
A1
350
49
  3
A2
350
4A
  3
A3
350
4B
  3
A4
350
4C
  3
A5
350
4D
  3
A6
350
4E
  3
A7
350
4F
  3
A8
350
50
  3
A9
350
51
  3
B0
350
52
  3
B1
350
53
  3
B2
350
54
  3
B3
350
55
  3
B4
350
56
  3
B5
350
57
  3
B6
350
58
  3
B7
350
59
  3
B8
350
5A
  3
B9
350
5B
  3
C0
350
5C
  3
C1
350
5D
  3
C2
350
5E
  3
C3
350
5F
  3
C4
350
60
  3
C5
350
61
  3
C6
350
62
  3
C7
350
63
  3
C8
350
64
  3
C9
350
65
  3
D0
350
66
  3
D1
350
67
  3
D2
350
68
  0
DICTIONARY
  5
177
102
{ACAD_REACTORS
330
C
102
}
330
C
100
AcDbDictionary
281
     1
  0
DICTIONARY
  5
171
102
{ACAD_REACTORS
330
C
102
}
330
C
100
AcDbDictionary
281
     1
  0
DICTIONARY
  5
121
102
{ACAD_REACTORS
330
C
102
}
330
C
100
AcDbDictionary
281
     1
  0
XRECORD
  5
19D
102
{ACAD_REACTORS
330
C
102
}
330
C
100
AcDbXrecord
280
     1
  1
DWGPROPS COOKIE
  2

  3

  4

  6

  7

  8
12015048
  9

300
=
301
=
302
=
303
=
304
=
305
=
306
=
307
=
308
=
309
=
 40
0.0
 41
2458272.313513658
 42
2458297.283466181
  1

 90
        0
  0
LAYOUT
  5
1E
102
{ACAD_REACTORS
330
1A
102
}
330
1A
100
AcDbPlotSettings
  1

  2
none_device
  4

  6

 40
0.0
 41
0.0
 42
0.0
 43
0.0
 44
0.0
 45
0.0
 46
0.0
 47
0.0
 48
0.0
 49
0.0
140
0.0
141
0.0
142
1.0
143
1.0
 70
   688
 72
     1
 73
     0
 74
     5
  7

 75
    16
147
1.0
148
0.0
149
0.0
100
AcDbLayout
  1
Layout1
 70
     1
 71
     1
 10
0.0
 20
0.0
 11
420.0
 21
297.0
 12
0.0
 22
0.0
 32
0.0
 14
1.000000000000000E+20
 24
1.000000000000000E+20
 34
1.000000000000000E+20
 15
-1.000000000000000E+20
 25
-1.000000000000000E+20
 35
-1.000000000000000E+20
146
0.0
 13
0.0
 23
0.0
 33
0.0
 16
1.0
 26
0.0
 36
0.0
 17
0.0
 27
1.0
 37
0.0
 76
     0
330
1B
  0
LAYOUT
  5
26
102
{ACAD_REACTORS
330
1A
102
}
330
1A
100
AcDbPlotSettings
  1

  2
none_device
  4

  6

 40
0.0
 41
0.0
 42
0.0
 43
0.0
 44
0.0
 45
0.0
 46
0.0
 47
0.0
 48
0.0
 49
0.0
140
0.0
141
0.0
142
1.0
143
1.0
 70
   688
 72
     1
 73
     0
 74
     5
  7

 75
    16
147
1.0
148
0.0
149
0.0
100
AcDbLayout
  1
Layout2
 70
     1
 71
     2
 10
0.0
 20
0.0
 11
0.0
 21
0.0
 12
0.0
 22
0.0
 32
0.0
 14
0.0
 24
0.0
 34
0.0
 15
0.0
 25
0.0
 35
0.0
146
0.0
 13
0.0
 23
0.0
 33
0.0
 16
1.0
 26
0.0
 36
0.0
 17
0.0
 27
1.0
 37
0.0
 76
     0
330
23
  0
LAYOUT
  5
22
102
{ACAD_REACTORS
330
1A
102
}
330
1A
100
AcDbPlotSettings
  1

  2
none_device
  4
ANSI_A_(11.00_x_8.50_Inches)
  6

 40
6.35
 41
19.05
 42
6.35000508
 43
19.05000254
 44
279.4
 45
215.9
 46
198.5841446047986
 47
129.0099671972818
 48
0.0
 49
0.0
140
0.0
141
0.0
142
0.0811457985160254
143
1.0
 70
  1696
 72
     0
 73
     0
 74
     0
  7

 75
     0
147
0.0235690232323232
148
0.0
149
0.0
100
AcDbLayout
  1
Model
 70
     1
 71
     0
 10
0.0
 20
0.0
 11
420.0
 21
297.0
 12
0.0
 22
0.0
 32
0.0
 14
-86.51500000000004
 24
-49.97073246008785
 34
0.0
 15
54.87828770183967
 25
70.74059025852581
 35
0.0
146
0.0
 13
0.0
 23
0.0
 33
0.0
 16
1.0
 26
0.0
 36
0.0
 17
0.0
 27
1.0
 37
0.0
 76
     0
330
1F
331
29
  0
MLINESTYLE
  5
18
102
{ACAD_REACTORS
330
17
102
}
330
17
100
AcDbMlineStyle
  2
Standard
 70
     0
  3

 62
   256
 51
90.0
 52
90.0
 71
     2
 49
0.5
 62
   256
  6
BYLAYER
 49
-0.5
 62
   256
  6
BYLAYER
  0
ACDBPLACEHOLDER
  5
F
102
{ACAD_REACTORS
330
E
102
}
330
E
  0
SCALE
  5
48
102
{ACAD_REACTORS
330
47
102
}
330
47
100
AcDbScale
 70
     0
300
1:1
140
1.0
141
1.0
290
     1
  0
SCALE
  5
49
102
{ACAD_REACTORS
330
47
102
}
330
47
100
AcDbScale
 70
     0
300
1:2
140
1.0
141
2.0
290
     0
  0
SCALE
  5
4A
102
{ACAD_REACTORS
330
47
102
}
330
47
100
AcDbScale
 70
     0
300
1:4
140
1.0
141
4.0
290
     0
  0
SCALE
  5
4B
102
{ACAD_REACTORS
330
47
102
}
330
47
100
AcDbScale
 70
     0
300
1:5
140
1.0
141
5.0
290
     0
  0
SCALE
  5
4C
102
{ACAD_REACTORS
330
47
102
}
330
47
100
AcDbScale
 70
     0
300
1:8
140
1.0
141
8.0
290
     0
  0
SCALE
  5
4D
102
{ACAD_REACTORS
330
47
102
}
330
47
100
AcDbScale
 70
     0
300
1:10
140
1.0
141
10.0
290
     0
  0
SCALE
  5
4E
102
{ACAD_REACTORS
330
47
102
}
330
47
100
AcDbScale
 70
     0
300
1:16
140
1.0
141
16.0
290
     0
  0
SCALE
  5
4F
102
{ACAD_REACTORS
330
47
102
}
330
47
100
AcDbScale
 70
     0
300
1:20
140
1.0
141
20.0
290
     0
  0
SCALE
  5
50
102
{ACAD_REACTORS
330
47
102
}
330
47
100
AcDbScale
 70
     0
300
1:30
140
1.0
141
30.0
290
     0
  0
SCALE
  5
51
102
{ACAD_REACTORS
330
47
102
}
330
47
100
AcDbScale
 70
     0
300
1:40
140
1.0
141
40.0
290
     0
  0
SCALE
  5
52
102
{ACAD_REACTORS
330
47
102
}
330
47
100
AcDbScale
 70
     0
300
1:50
140
1.0
141
50.0
290
     0
  0
SCALE
  5
53
102
{ACAD_REACTORS
330
47
102
}
330
47
100
AcDbScale
 70
     0
300
1:100
140
1.0
141
100.0
290
     0
  0
SCALE
  5
54
102
{ACAD_REACTORS
330
47
102
}
330
47
100
AcDbScale
 70
     0
300
2:1
140
2.0
141
1.0
290
     0
  0
SCALE
  5
55
102
{ACAD_REACTORS
330
47
102
}
330
47
100
AcDbScale
 70
     0
300
4:1
140
4.0
141
1.0
290
     0
  0
SCALE
  5
56
102
{ACAD_REACTORS
330
47
102
}
330
47
100
AcDbScale
 70
     0
300
8:1
140
8.0
141
1.0
290
     0
  0
SCALE
  5
57
102
{ACAD_REACTORS
330
47
102
}
330
47
100
AcDbScale
 70
     0
300
10:1
140
10.0
141
1.0
290
     0
  0
SCALE
  5
58
102
{ACAD_REACTORS
330
47
102
}
330
47
100
AcDbScale
 70
     0
300
100:1
140
100.0
141
1.0
290
     0
  0
SCALE
  5
59
102
{ACAD_REACTORS
330
47
102
}
330
47
100
AcDbScale
 70
     0
300
1/128" = 1'-0"
140
0.0078125
141
12.0
290
     0
  0
SCALE
  5
5A
102
{ACAD_REACTORS
330
47
102
}
330
47
100
AcDbScale
 70
     0
300
1/64" = 1'-0"
140
0.015625
141
12.0
290
     0
  0
SCALE
  5
5B
102
{ACAD_REACTORS
330
47
102
}
330
47
100
AcDbScale
 70
     0
300
1/32" = 1'-0"
140
0.03125
141
12.0
290
     0
  0
SCALE
  5
5C
102
{ACAD_REACTORS
330
47
102
}
330
47
100
AcDbScale
 70
     0
300
1/16" = 1'-0"
140
0.0625
141
12.0
290
     0
  0
SCALE
  5
5D
102
{ACAD_REACTORS
330
47
102
}
330
47
100
AcDbScale
 70
     0
300
3/32" = 1'-0"
140
0.09375
141
12.0
290
     0
  0
SCALE
  5
5E
102
{ACAD_REACTORS
330
47
102
}
330
47
100
AcDbScale
 70
     0
300
1/8" = 1'-0"
140
0.125
141
12.0
290
     0
  0
SCALE
  5
5F
102
{ACAD_REACTORS
330
47
102
}
330
47
100
AcDbScale
 70
     0
300
3/16" = 1'-0"
140
0.1875
141
12.0
290
     0
  0
SCALE
  5
60
102
{ACAD_REACTORS
330
47
102
}
330
47
100
AcDbScale
 70
     0
300
1/4" = 1'-0"
140
0.25
141
12.0
290
     0
  0
SCALE
  5
61
102
{ACAD_REACTORS
330
47
102
}
330
47
100
AcDbScale
 70
     0
300
3/8" = 1'-0"
140
0.375
141
12.0
290
     0
  0
SCALE
  5
62
102
{ACAD_REACTORS
330
47
102
}
330
47
100
AcDbScale
 70
     0
300
1/2" = 1'-0"
140
0.5
141
12.0
290
     0
  0
SCALE
  5
63
102
{ACAD_REACTORS
330
47
102
}
330
47
100
AcDbScale
 70
     0
300
3/4" = 1'-0"
140
0.75
141
12.0
290
     0
  0
SCALE
  5
64
102
{ACAD_REACTORS
330
47
102
}
330
47
100
AcDbScale
 70
     0
300
1" = 1'-0"
140
1.0
141
12.0
290
     0
  0
SCALE
  5
65
102
{ACAD_REACTORS
330
47
102
}
330
47
100
AcDbScale
 70
     0
300
1-1/2" = 1'-0"
140
1.5
141
12.0
290
     0
  0
SCALE
  5
66
102
{ACAD_REACTORS
330
47
102
}
330
47
100
AcDbScale
 70
     0
300
3" = 1'-0"
140
3.0
141
12.0
290
     0
  0
SCALE
  5
67
102
{ACAD_REACTORS
330
47
102
}
330
47
100
AcDbScale
 70
     0
300
6" = 1'-0"
140
6.0
141
12.0
290
     0
  0
SCALE
  5
68
102
{ACAD_REACTORS
330
47
102
}
330
47
100
AcDbScale
 70
     0
300
1'-0" = 1'-0"
140
12.0
141
12.0
290
     0
  0
ENDSEC
  0
EOF
