  0
SECTION
  2
HEADER
  9
$ACADVER
  1
AC1015
  9
$ACADMAINTVER
 70
     6
  9
$DWGCODEPAGE
  3
ANSI_949
  9
$INSBASE
 10
0.0
 20
0.0
 30
0.0
  9
$EXTMIN
 10
-78.57250000000006
 20
-49.97073246008785
 30
0.0
  9
$EXTMAX
 10
77.85662381359747
 20
79.53152666185125
 30
0.0
  9
$LIMMIN
 10
0.0
 20
0.0
  9
$LIMMAX
 10
420.0
 20
297.0
  9
$ORTHOMODE
 70
     1
  9
$REGENMODE
 70
     1
  9
$FILLMODE
 70
     1
  9
$QTEXTMODE
 70
     0
  9
$MIRRTEXT
 70
     1
  9
$LTSCALE
 40
1.0
  9
$ATTMODE
 70
     1
  9
$TEXTSIZE
 40
3.5
  9
$TRACEWID
 40
1.0
  9
$TEXTSTYLE
  7
Standard
  9
$CLAYER
  8
0
  9
$CELTYPE
  6
ByLayer
  9
$CECOLOR
 62
   256
  9
$CELTSCALE
 40
1.0
  9
$DISPSILH
 70
     0
  9
$DIMSCALE
 40
1.0
  9
$DIMASZ
 40
3.302
  9
$DIMEXO
 40
1.0
  9
$DIMDLI
 40
3.75
  9
$DIMRND
 40
0.0
  9
$DIMDLE
 40
0.0
  9
$DIMEXE
 40
1.0
  9
$DIMTP
 40
0.0
  9
$DIMTM
 40
0.0
  9
$DIMTXT
 40
3.5
  9
$DIMCEN
 40
2.5
  9
$DIMTSZ
 40
0.0
  9
$DIMTOL
 70
     0
  9
$DIMLIM
 70
     0
  9
$DIMTIH
 70
     1
  9
$DIMTOH
 70
     1
  9
$DIMSE1
 70
     0
  9
$DIMSE2
 70
     0
  9
$DIMTAD
 70
     1
  9
$DIMZIN
 70
     0
  9
$DIMBLK
  1

  9
$DIMASO
 70
     1
  9
$DIMSHO
 70
     1
  9
$DIMPOST
  1

  9
$DIMAPOST
  1

  9
$DIMALT
 70
     0
  9
$DIMALTD
 70
     3
  9
$DIMALTF
 40
0.0393700787401575
  9
$DIMLFAC
 40
1.0
  9
$DIMTOFL
 70
     1
  9
$DIMTVP
 40
0.0
  9
$DIMTIX
 70
     0
  9
$DIMSOXD
 70
     0
  9
$DIMSAH
 70
     0
  9
$DIMBLK1
  1

  9
$DIMBLK2
  1

  9
$DIMSTYLE
  2
ISO-25
  9
$DIMCLRD
 70
     0
  9
$DIMCLRE
 70
     0
  9
$DIMCLRT
 70
     0
  9
$DIMTFAC
 40
1.0
  9
$DIMGAP
 40
1.524
  9
$DIMJUST
 70
     0
  9
$DIMSD1
 70
     0
  9
$DIMSD2
 70
     0
  9
$DIMTOLJ
 70
     0
  9
$DIMTZIN
 70
     0
  9
$DIMALTZ
 70
     0
  9
$DIMALTTZ
 70
     0
  9
$DIMUPT
 70
     0
  9
$DIMDEC
 70
     2
  9
$DIMTDEC
 70
     2
  9
$DIMALTU
 70
     2
  9
$DIMALTTD
 70
     3
  9
$DIMTXSTY
  7
Standard
  9
$DIMAUNIT
 70
     0
  9
$DIMADEC
 70
     2
  9
$DIMALTRND
 40
0.0
  9
$DIMAZIN
 70
     0
  9
$DIMDSEP
 70
    44
  9
$DIMATFIT
 70
     3
  9
$DIMFRAC
 70
     0
  9
$DIMLDRBLK
  1

  9
$DIMLUNIT
 70
     2
  9
$DIMLWD
 70
    -2
  9
$DIMLWE
 70
    -2
  9
$DIMTMOVE
 70
     0
  9
$LUNITS
 70
     2
  9
$LUPREC
 70
     2
  9
$SKETCHINC
 40
1.0
  9
$FILLETRAD
 40
10.0
  9
$AUNITS
 70
     0
  9
$AUPREC
 70
     2
  9
$MENU
  1
.
  9
$ELEVATION
 40
0.0
  9
$PELEVATION
 40
0.0
  9
$THICKNESS
 40
0.0
  9
$LIMCHECK
 70
     0
  9
$CHAMFERA
 40
0.0
  9
$CHAMFERB
 40
0.0
  9
$CHAMFERC
 40
0.0
  9
$CHAMFERD
 40
0.0
  9
$SKPOLY
 70
     0
  9
$TDCREATE
 40
2458272.688617662
  9
$TDUCREATE
 40
2458272.313617662
  9
$TDUPDATE
 40
2458297.616284004
  9
$TDUUPDATE
 40
2458297.241284004
  9
$TDINDWG
 40
0.0045246875
  9
$TDUSRTIMER
 40
2458297.23675941
  9
$USRTIMER
 70
     1
  9
$ANGBASE
 50
0.0
  9
$ANGDIR
 70
     0
  9
$PDMODE
 70
     0
  9
$PDSIZE
 40
-1.0
  9
$PLINEWID
 40
0.0
  9
$SPLFRAME
 70
     0
  9
$SPLINETYPE
 70
     6
  9
$SPLINESEGS
 70
     8
  9
$HANDSEED
  5
17F
  9
$SURFTAB1
 70
     6
  9
$SURFTAB2
 70
     6
  9
$SURFTYPE
 70
     6
  9
$SURFU
 70
     6
  9
$SURFV
 70
     6
  9
$UCSBASE
  2

  9
$UCSNAME
  2

  9
$UCSORG
 10
0.0
 20
0.0
 30
0.0
  9
$UCSXDIR
 10
1.0
 20
0.0
 30
0.0
  9
$UCSYDIR
 10
0.0
 20
1.0
 30
0.0
  9
$UCSORTHOREF
  2

  9
$UCSORTHOVIEW
 70
     0
  9
$UCSORGTOP
 10
0.0
 20
0.0
 30
0.0
  9
$UCSORGBOTTOM
 10
0.0
 20
0.0
 30
0.0
  9
$UCSORGLEFT
 10
0.0
 20
0.0
 30
0.0
  9
$UCSORGRIGHT
 10
0.0
 20
0.0
 30
0.0
  9
$UCSORGFRONT
 10
0.0
 20
0.0
 30
0.0
  9
$UCSORGBACK
 10
0.0
 20
0.0
 30
0.0
  9
$PUCSBASE
  2

  9
$PUCSNAME
  2

  9
$PUCSORG
 10
0.0
 20
0.0
 30
0.0
  9
$PUCSXDIR
 10
1.0
 20
0.0
 30
0.0
  9
$PUCSYDIR
 10
0.0
 20
1.0
 30
0.0
  9
$PUCSORTHOREF
  2

  9
$PUCSORTHOVIEW
 70
     0
  9
$PUCSORGTOP
 10
0.0
 20
0.0
 30
0.0
  9
$PUCSORGBOTTOM
 10
0.0
 20
0.0
 30
0.0
  9
$PUCSORGLEFT
 10
0.0
 20
0.0
 30
0.0
  9
$PUCSORGRIGHT
 10
0.0
 20
0.0
 30
0.0
  9
$PUCSORGFRONT
 10
0.0
 20
0.0
 30
0.0
  9
$PUCSORGBACK
 10
0.0
 20
0.0
 30
0.0
  9
$USERI1
 70
     0
  9
$USERI2
 70
     0
  9
$USERI3
 70
     0
  9
$USERI4
 70
     0
  9
$USERI5
 70
     0
  9
$USERR1
 40
0.0
  9
$USERR2
 40
0.0
  9
$USERR3
 40
0.0
  9
$USERR4
 40
0.0
  9
$USERR5
 40
0.0
  9
$WORLDVIEW
 70
     1
  9
$SHADEDGE
 70
     3
  9
$SHADEDIF
 70
    70
  9
$TILEMODE
 70
     1
  9
$MAXACTVP
 70
    64
  9
$PINSBASE
 10
0.0
 20
0.0
 30
0.0
  9
$PLIMCHECK
 70
     0
  9
$PEXTMIN
 10
1.000000000000000E+20
 20
1.000000000000000E+20
 30
1.000000000000000E+20
  9
$PEXTMAX
 10
-1.000000000000000E+20
 20
-1.000000000000000E+20
 30
-1.000000000000000E+20
  9
$PLIMMIN
 10
0.0
 20
0.0
  9
$PLIMMAX
 10
0.0
 20
0.0
  9
$UNITMODE
 70
     0
  9
$VISRETAIN
 70
     1
  9
$PLINEGEN
 70
     0
  9
$PSLTSCALE
 70
     1
  9
$TREEDEPTH
 70
  3020
  9
$CMLSTYLE
  2
Standard
  9
$CMLJUST
 70
     0
  9
$CMLSCALE
 40
20.0
  9
$PROXYGRAPHICS
 70
     1
  9
$MEASUREMENT
 70
     1
  9
$CELWEIGHT
370
    -1
  9
$ENDCAPS
280
     0
  9
$JOINSTYLE
280
     0
  9
$LWDISPLAY
290
     1
  9
$INSUNITS
 70
     4
  9
$HYPERLINKBASE
  1

  9
$STYLESHEET
  1

  9
$XEDIT
290
     1
  9
$CEPSNTYPE
380
     0
  9
$PSTYLEMODE
290
     1
  9
$FINGERPRINTGUID
  2
{F02CD212-DD81-426D-9EEB-AD0E3154C5BB}
  9
$VERSIONGUID
  2
{FAEB1C32-E019-11D5-929B-00C0DF256EC4}
  9
$EXTNAMES
290
     1
  9
$PSVPSCALE
 40
0.0
  9
$OLESTARTUP
290
     0
  0
ENDSEC
  0
SECTION
  2
CLASSES
  0
CLASS
  1
ACDBDICTIONARYWDFLT
  2
AcDbDictionaryWithDefault
  3
ObjectDBX Classes
 90
        0
280
     0
281
     0
  0
CLASS
  1
VISUALSTYLE
  2
AcDbVisualStyle
  3
ObjectDBX Classes
 90
     4095
280
     0
281
     0
  0
CLASS
  1
MATERIAL
  2
AcDbMaterial
  3
ObjectDBX Classes
 90
     1153
280
     0
281
     0
  0
CLASS
  1
SCALE
  2
AcDbScale
  3
ObjectDBX Classes
 90
     1153
280
     0
281
     0
  0
CLASS
  1
SUN
  2
AcDbSun
  3
SCENEOE
 90
     1153
280
     0
281
     0
  0
CLASS
  1
ACDBPLACEHOLDER
  2
AcDbPlaceHolder
  3
ObjectDBX Classes
 90
        0
280
     0
281
     0
  0
CLASS
  1
LAYOUT
  2
AcDbLayout
  3
ObjectDBX Classes
 90
        0
280
     0
281
     0
  0
CLASS
  1
TABLESTYLE
  2
AcDbTableStyle
  3
ObjectDBX Classes
 90
     4095
280
     0
281
     0
  0
CLASS
  1
MLEADERSTYLE
  2
AcDbMLeaderStyle
  3
ACDB_MLEADERSTYLE_CLASS
 90
     4095
280
     0
281
     0
  0
CLASS
  1
RASTERVARIABLES
  2
AcDbRasterVariables
  3
ISM
 90
        0
280
     0
281
     0
  0
CLASS
  1
DIMASSOC
  2
AcDbDimAssoc
  3
"AcDbDimAssoc|Product Desc:     AcDim ARX App For Dimension|Company:          Autodesk, Inc.|WEB Address:      www.autodesk.com"
 90
        0
280
     0
281
     0
  0
ENDSEC
  0
SECTION
  2
TABLES
  0
TABLE
  2
VPORT
  5
8
330
0
100
AcDbSymbolTable
 70
     1
  0
VPORT
  5
29
330
8
100
AcDbSymbolTableRecord
100
AcDbViewportTableRecord
  2
*Active
 70
     0
 10
0.0
 20
0.0
 11
1.0
 21
1.0
 12
-0.3579380932012839
 22
14.78039710088169
 13
0.0
 23
0.0
 14
10.0
 24
10.0
 15
10.0
 25
10.0
 16
0.0
 26
0.0
 36
1.0
 17
0.0
 27
0.0
 37
0.0
 40
132.0923043043779
 41
2.22554347826087
 42
50.0
 43
0.0
 44
0.0
 50
0.0
 51
0.0
 71
    16
 72
  2000
 73
     1
 74
     3
 75
     0
 76
     0
 77
     0
 78
     0
281
     0
 65
     1
110
0.0
120
0.0
130
0.0
111
1.0
121
0.0
131
0.0
112
0.0
122
1.0
132
0.0
 79
     0
146
0.0
  0
ENDTAB
  0
TABLE
  2
LTYPE
  5
5
330
0
100
AcDbSymbolTable
 70
     6
  0
LTYPE
  5
14
330
5
100
AcDbSymbolTableRecord
100
AcDbLinetypeTableRecord
  2
ByBlock
 70
     0
  3

 72
    65
 73
     0
 40
0.0
  0
LTYPE
  5
15
330
5
100
AcDbSymbolTableRecord
100
AcDbLinetypeTableRecord
  2
ByLayer
 70
     0
  3

 72
    65
 73
     0
 40
0.0
  0
LTYPE
  5
16
330
5
100
AcDbSymbolTableRecord
100
AcDbLinetypeTableRecord
  2
Continuous
 70
     0
  3
Solid line
 72
    65
 73
     0
 40
0.0
  0
LTYPE
  5
6A
330
5
100
AcDbSymbolTableRecord
100
AcDbLinetypeTableRecord
  2
HIDDEN
 70
     0
  3
Hidden __ __ __ __ __ __ __ __ __ __ __ __ __ __
 72
    65
 73
     2
 40
1.905
 49
1.27
 74
     0
 49
-0.635
 74
     0
  0
LTYPE
  5
6B
330
5
100
AcDbSymbolTableRecord
100
AcDbLinetypeTableRecord
  2
PHANTOM
 70
     0
  3
Phantom ______  __  __  ______  __  __  ______
 72
    65
 73
     6
 40
12.7
 49
6.35
 74
     0
 49
-1.27
 74
     0
 49
1.27
 74
     0
 49
-1.27
 74
     0
 49
1.27
 74
     0
 49
-1.27
 74
     0
  0
LTYPE
  5
6C
330
5
100
AcDbSymbolTableRecord
100
AcDbLinetypeTableRecord
  2
CENTER
 70
     0
  3
Center ____ _ ____ _ ____ _ ____ _ ____ _ ____
 72
    65
 73
     4
 40
10.16
 49
6.35
 74
     0
 49
-1.27
 74
     0
 49
1.27
 74
     0
 49
-1.27
 74
     0
  0
LTYPE
  5
6D
330
5
100
AcDbSymbolTableRecord
100
AcDbLinetypeTableRecord
  2
CENTERX2
 70
     0
  3
Center (2x) ________  __  ________  __  _____
 72
    65
 73
     4
 40
20.32
 49
12.7
 74
     0
 49
-2.54
 74
     0
 49
2.54
 74
     0
 49
-2.54
 74
     0
  0
LTYPE
  5
6E
330
5
100
AcDbSymbolTableRecord
100
AcDbLinetypeTableRecord
  2
DOT2
 70
     0
  3
Dot (.5x) ........................................
 72
    65
 73
     2
 40
0.635
 49
0.0
 74
     0
 49
-0.635
 74
     0
  0
ENDTAB
  0
TABLE
  2
LAYER
  5
2
330
0
100
AcDbSymbolTable
 70
    17
  0
LAYER
  5
10
330
2
100
AcDbSymbolTableRecord
100
AcDbLayerTableRecord
  2
0
 70
     0
 62
     7
  6
Continuous
370
    -3
390
F
  0
LAYER
  5
6F
330
2
100
AcDbSymbolTableRecord
100
AcDbLayerTableRecord
  2
FORMAT
 70
     0
 62
     2
  6
Continuous
370
    -3
390
F
  0
LAYER
  5
70
330
2
100
AcDbSymbolTableRecord
100
AcDbLayerTableRecord
  2
외형선
 70
     0
 62
   100
  6
Continuous
370
    30
390
F
  0
LAYER
  5
71
330
2
100
AcDbSymbolTableRecord
100
AcDbLayerTableRecord
  2
숨은선
 70
     0
 62
     2
  6
HIDDEN
370
    15
390
F
  0
LAYER
  5
72
330
2
100
AcDbSymbolTableRecord
100
AcDbLayerTableRecord
  2
중심선
 70
     0
 62
     1
  6
CENTERX2
370
    -3
390
F
  0
LAYER
  5
73
330
2
100
AcDbSymbolTableRecord
100
AcDbLayerTableRecord
  2
파단선
 70
     0
 62
     4
  6
Continuous
370
    -3
390
F
  0
LAYER
  5
74
330
2
100
AcDbSymbolTableRecord
100
AcDbLayerTableRecord
  2
해칭선
 70
     0
 62
     4
  6
Continuous
370
    -3
390
F
  0
LAYER
  5
75
330
2
100
AcDbSymbolTableRecord
100
AcDbLayerTableRecord
  2
가는실선
 70
     0
 62
     4
  6
Continuous
370
    -3
390
F
  0
LAYER
  5
76
330
2
100
AcDbSymbolTableRecord
100
AcDbLayerTableRecord
  2
치수_보조선
 70
     0
 62
     4
  6
Continuous
370
    -3
390
F
  0
LAYER
  5
77
330
2
100
AcDbSymbolTableRecord
100
AcDbLayerTableRecord
  2
치수문자_일반주서
 70
     0
 62
     7
  6
Continuous
370
    15
390
F
  0
LAYER
  5
78
330
2
100
AcDbSymbolTableRecord
100
AcDbLayerTableRecord
  2
개별주서
 70
     0
 62
   100
  6
Continuous
370
    30
390
F
  0
LAYER
  5
79
330
2
100
AcDbSymbolTableRecord
100
AcDbLayerTableRecord
  2
중간선
 70
     0
 62
     2
  6
Continuous
370
    15
390
F
  0
LAYER
  5
7A
330
2
100
AcDbSymbolTableRecord
100
AcDbLayerTableRecord
  2
윤곽선
 70
     0
 62
     3
  6
Continuous
370
    40
390
F
  0
LAYER
  5
7B
330
2
100
AcDbSymbolTableRecord
100
AcDbLayerTableRecord
  2
중심마크
 70
     0
 62
   100
  6
Continuous
370
    30
390
F
  0
LAYER
  5
7C
330
2
100
AcDbSymbolTableRecord
100
AcDbLayerTableRecord
  2
가상선
 70
     0
 62
     4
  6
PHANTOM
370
    -3
390
F
  0
LAYER
  5
7D
330
2
100
AcDbSymbolTableRecord
100
AcDbLayerTableRecord
  2
특수지정선
 70
     0
 62
     5
  6
CENTERX2
370
    60
390
F
  0
LAYER
  5
123
330
2
100
AcDbSymbolTableRecord
100
AcDbLayerTableRecord
  2
Defpoints
 70
     0
 62
     7
  6
Continuous
290
     0
370
    -3
390
F
  0
ENDTAB
  0
TABLE
  2
STYLE
  5
3
330
0
100
AcDbSymbolTable
 70
     2
  0
STYLE
  5
11
330
3
100
AcDbSymbolTableRecord
100
AcDbTextStyleTableRecord
  2
Standard
 70
     0
 40
0.0
 41
1.0
 50
0.0
 71
     0
 42
3.5
  3
txt
  4

  0
STYLE
  5
93
330
3
100
AcDbSymbolTableRecord
100
AcDbTextStyleTableRecord
  2
SLDTEXTSTYLE0
 70
     0
 40
0.0
 41
0.75
 50
0.0
 71
     0
 42
3.5
  3
TXT
  4

  0
ENDTAB
  0
TABLE
  2
VIEW
  5
6
330
0
100
AcDbSymbolTable
 70
     0
  0
ENDTAB
  0
TABLE
  2
UCS
  5
7
330
0
100
AcDbSymbolTable
 70
     0
  0
ENDTAB
  0
TABLE
  2
APPID
  5
9
330
0
100
AcDbSymbolTable
 70
     1
  0
APPID
  5
12
330
9
100
AcDbSymbolTableRecord
100
AcDbRegAppTableRecord
  2
ACAD
 70
     0
  0
ENDTAB
  0
TABLE
  2
DIMSTYLE
  5
A
330
0
100
AcDbSymbolTable
 70
     3
100
AcDbDimStyleTable
  0
DIMSTYLE
105
27
330
A
100
AcDbSymbolTableRecord
100
AcDbDimStyleTableRecord
  2
ISO-25
 70
     0
 41
2.5
 42
0.625
 43
3.75
 44
1.25
 73
     0
 74
     0
 77
     1
 78
     8
140
2.5
141
2.5
143
0.03937007874016
147
0.625
171
     3
172
     1
178
     0
271
     2
272
     2
274
     3
278
    44
283
     0
284
     8
340
11
  0
DIMSTYLE
105
D8
102
{ACAD_REACTORS
330
D7
330
12D
330
13E
330
15D
330
16F
102
}
330
A
100
AcDbSymbolTableRecord
100
AcDbDimStyleTableRecord
  2
SLDDIMSTYLE0
 70
     0
 41
3.302
 44
0.0
 45
0.000000001
 73
     0
 74
     0
 77
     1
 78
     4
 79
     1
140
3.5
143
0.0393700787401575
147
0.875
148
0.000000001
170
     1
172
     1
173
     1
178
     0
271
     2
272
     2
276
     2
284
    12
289
     0
340
93
  0
DIMSTYLE
105
ED
330
A
100
AcDbSymbolTableRecord
100
AcDbDimStyleTableRecord
  2
SLDDIMSTYLE1
 70
     0
 41
3.302
 44
0.0
 73
     0
 74
     0
 77
     1
 78
     4
 79
     1
140
3.5
147
0.875
173
     1
178
     0
179
     2
272
     2
276
     2
284
    12
340
93
  0
ENDTAB
  0
TABLE
  2
BLOCK_RECORD
  5
1
330
0
100
AcDbSymbolTable
 70
    10
  0
BLOCK_RECORD
  5
1F
330
1
100
AcDbSymbolTableRecord
100
AcDbBlockTableRecord
  2
*Model_Space
340
22
  0
BLOCK_RECORD
  5
1B
330
1
100
AcDbSymbolTableRecord
100
AcDbBlockTableRecord
  2
*Paper_Space
340
1E
  0
BLOCK_RECORD
  5
23
330
1
100
AcDbSymbolTableRecord
100
AcDbBlockTableRecord
  2
*Paper_Space0
340
26
  0
BLOCK_RECORD
  5
7E
330
1
100
AcDbSymbolTableRecord
100
AcDbBlockTableRecord
  2
블럭10
340
0
102
{BLKREFS
331
D0
102
}
  0
BLOCK_RECORD
  5
D9
330
1
100
AcDbSymbolTableRecord
100
AcDbBlockTableRecord
  2
_D
340
0
  0
BLOCK_RECORD
  5
EE
330
1
100
AcDbSymbolTableRecord
100
AcDbBlockTableRecord
  2
_D_1
340
0
  0
BLOCK_RECORD
  5
F8
330
1
100
AcDbSymbolTableRecord
100
AcDbBlockTableRecord
  2
SW_DOWELSYMBOL_0
340
0
102
{BLKREFS
331
FE
102
}
  0
BLOCK_RECORD
  5
130
330
1
100
AcDbSymbolTableRecord
100
AcDbBlockTableRecord
  2
*D5
340
0
  0
BLOCK_RECORD
  5
141
330
1
100
AcDbSymbolTableRecord
100
AcDbBlockTableRecord
  2
*D6
340
0
  0
BLOCK_RECORD
  5
151
330
1
100
AcDbSymbolTableRecord
100
AcDbBlockTableRecord
  2
*D7
340
0
  0
BLOCK_RECORD
  5
160
330
1
100
AcDbSymbolTableRecord
100
AcDbBlockTableRecord
  2
*D8
340
0
  0
BLOCK_RECORD
  5
172
330
1
100
AcDbSymbolTableRecord
100
AcDbBlockTableRecord
  2
*D9
340
0
  0
ENDTAB
  0
ENDSEC
  0
SECTION
  2
BLOCKS
  0
BLOCK
  5
20
330
1F
100
AcDbEntity
  8
0
100
AcDbBlockBegin
  2
*Model_Space
 70
     0
 10
0.0
 20
0.0
 30
0.0
  3
*Model_Space
  1
*Model_Space
  0
ENDBLK
  5
21
330
1F
100
AcDbEntity
  8
0
100
AcDbBlockEnd
  0
BLOCK
  5
1C
330
1B
100
AcDbEntity
 67
     1
  8
0
100
AcDbBlockBegin
  2
*Paper_Space
 70
     0
 10
0.0
 20
0.0
 30
0.0
  3
*Paper_Space
  1
*Paper_Space
  0
ENDBLK
  5
1D
330
1B
100
AcDbEntity
 67
     1
  8
0
100
AcDbBlockEnd
  0
BLOCK
  5
24
330
23
100
AcDbEntity
  8
0
100
AcDbBlockBegin
  2
*Paper_Space0
 70
     0
 10
0.0
 20
0.0
 30
0.0
  3
*Paper_Space0
  1
*Paper_Space0
  0
ENDBLK
  5
25
330
23
100
AcDbEntity
  8
0
100
AcDbBlockEnd
  0
BLOCK
  5
7F
330
7E
100
AcDbEntity
  8
0
100
AcDbBlockBegin
  2
블럭10
 70
     2
 10
0.0
 20
0.0
 30
0.0
  3
블럭10
  1
블럭10
  0
ELLIPSE
  5
81
330
7E
100
AcDbEntity
  8
중심선
100
AcDbEllipse
 10
20.54032771741204
 20
12.0471743016438
 30
0.0
 11
6.600054785286829
 21
-1.261213355974178E-13
 31
0.0
210
0.0
220
0.0
230
1.0
 40
0.636358354079598
 41
0.9219305317359503
 42
6.513795318482858
  0
ELLIPSE
  5
82
330
7E
100
AcDbEntity
  8
중심선
100
AcDbEllipse
 10
20.54032771746488
 20
12.04717430159265
 30
0.0
 11
3.960054785062283
 21
1.540847449632565E-10
 31
0.0
210
0.0
220
0.0
230
1.0
 40
0.3939339440162632
 41
1.131841032648279
 42
5.62031148352944
  0
LINE
  5
83
330
7E
100
AcDbEntity
  8
중심선
100
AcDbLine
 10
2.268634060543552
 20
16.24717430164393
 30
0.0
 11
5.714909304380834
 21
16.24717430164393
 31
0.0
  0
LINE
  5
84
330
7E
100
AcDbEntity
  8
중심선
100
AcDbLine
 10
5.245725140726316
 20
7.84717430164391
 30
0.0
 11
8.692000384563599
 21
7.84717430164391
 31
0.0
  0
LINE
  5
85
330
7E
100
AcDbEntity
  8
중심선
100
AcDbLine
 10
15.74043728645272
 20
16.24717430164393
 30
0.0
 11
8.692000384563599
 21
7.84717430164391
 31
0.0
  0
LINE
  5
86
330
7E
100
AcDbEntity
  8
중심선
100
AcDbLine
 10
0.1404042013395286
 20
13.71084872107135
 30
0.0
 11
3.58671253028996
 21
13.71088815037384
 31
0.0
  0
LINE
  5
87
330
7E
100
AcDbEntity
  8
중심선
100
AcDbLine
 10
2.750260043222114
 20
10.84717430164391
 30
0.0
 11
6.196535287059397
 21
10.84717430164391
 31
0.0
  0
LINE
  5
88
330
7E
100
AcDbEntity
  8
중심선
100
AcDbLine
 10
12.29416204261559
 20
16.24717430164393
 30
0.0
 11
5.245725140726316
 21
7.84717430164391
 31
0.0
  0
LINE
  5
89
330
7E
100
AcDbEntity
  8
중심선
100
AcDbLine
 10
10.72767329541681
 20
16.24717430164393
 30
0.0
 11
6.196535287059397
 21
10.84717430164391
 31
0.0
  0
LINE
  5
8A
330
7E
100
AcDbEntity
  8
중심선
100
AcDbLine
 10
7.28139805157953
 20
16.24717430164393
 30
0.0
 11
2.750260043222114
 21
10.84717430164391
 31
0.0
  0
LINE
  5
8B
330
7E
100
AcDbEntity
  8
중심선
100
AcDbLine
 10
5.714909304380834
 20
16.24717430164393
 30
0.0
 11
3.58671253028996
 21
13.71088815037384
 31
0.0
  0
LINE
  5
8C
330
7E
100
AcDbEntity
  8
중심선
100
AcDbLine
 10
2.268634060543552
 20
16.24717430164393
 30
0.0
 11
0.1404042013395286
 21
13.71084872107135
 31
0.0
  0
LINE
  5
8D
330
7E
100
AcDbEntity
  8
중심선
100
AcDbLine
 10
7.28139805157953
 20
16.24717430164393
 30
0.0
 11
10.72767329541681
 21
16.24717430164393
 31
0.0
  0
LINE
  5
8E
330
7E
100
AcDbEntity
  8
중심선
100
AcDbLine
 10
12.29416204261559
 20
16.24717430164393
 30
0.0
 11
15.74043728645272
 21
16.24717430164393
 31
0.0
  0
LINE
  5
8F
330
7E
100
AcDbEntity
  8
중심선
100
AcDbLine
 10
19.22036997980202
 20
11.08717430171403
 30
0.0
 11
23.66174974927406
 21
11.08717430171406
 31
0.0
  0
LINE
  5
90
330
7E
100
AcDbEntity
  8
중심선
100
AcDbLine
 10
19.22039502424796
 20
13.00717430171391
 30
0.0
 11
19.22036997980202
 21
11.08717430171403
 31
0.0
  0
LINE
  5
91
330
7E
100
AcDbEntity
  8
중심선
100
AcDbLine
 10
19.22039502424796
 20
13.00717430171391
 30
0.0
 11
26.96566020931264
 21
13.00717430171391
 31
0.0
  0
LINE
  5
92
330
7E
100
AcDbEntity
  8
중심선
100
AcDbLine
 10
22.22332737316547
 20
13.45928029700563
 30
0.0
 11
24.52862924686651
 21
15.39360700705356
 31
0.0
  0
ATTDEF
  5
94
330
7E
100
AcDbEntity
  8
FORMAT
 62
     2
100
AcDbText
 10
-10.14163601213663
 20
2.075366912832191
 30
0.0
 40
4.233333333333333
  1
EM097032 [ 4 FLUTE ]
 41
0.75
  7
SLDTEXTSTYLE0
 11
-10.14163601213663
 21
-0.0412997538344756
 31
0.0
100
AcDbAttributeDefinition
  3

  2
AUTOATTR0
 70
     0
 74
     1
  0
ENDBLK
  5
80
330
7E
100
AcDbEntity
  8
0
100
AcDbBlockEnd
  0
BLOCK
  5
DA
330
D9
100
AcDbEntity
  8
0
100
AcDbBlockBegin
  2
_D
 70
     0
 10
0.0
 20
0.0
 30
0.0
  3
_D
  1
_D
  0
LINE
  5
DC
330
D9
100
AcDbEntity
  8
치수문자_일반주서
 62
     0
370
    -2
100
AcDbLine
 10
-51.45
 20
6.350000000000005
 30
0.0
 11
-74.19750000000005
 21
6.34999999999992
 31
0.0
  0
LINE
  5
DD
330
D9
100
AcDbEntity
  8
치수문자_일반주서
 62
     0
370
    -2
100
AcDbLine
 10
-51.45
 20
-6.349999999999991
 30
0.0
 11
-74.1975
 21
-6.350000000000076
 31
0.0
  0
LINE
  5
DE
330
D9
100
AcDbEntity
  8
치수문자_일반주서
 62
     0
370
    -2
100
AcDbLine
 10
-74.19750000000003
 20
3.04799999999992
 30
0.0
 11
-74.19750000000002
 21
-3.048000000000076
 31
0.0
  0
SOLID
  5
DF
330
D9
100
AcDbEntity
  8
치수문자_일반주서
 62
     0
100
AcDbTrace
 10
-73.6471666666667
 20
3.047999999999922
 30
0.0
 11
-74.74783333333336
 21
3.047999999999918
 31
0.0
 12
-74.19750000000005
 22
6.34999999999992
 32
0.0
 13
-74.19750000000005
 23
6.34999999999992
 33
0.0
  0
SOLID
  5
E0
330
D9
100
AcDbEntity
  8
치수문자_일반주서
 62
     0
100
AcDbTrace
 10
-74.74783333333335
 20
-3.048000000000078
 30
0.0
 11
-73.64716666666669
 21
-3.048000000000075
 31
0.0
 12
-74.1975
 22
-6.350000000000076
 32
0.0
 13
-74.1975
 23
-6.350000000000076
 33
0.0
  0
MTEXT
  5
E1
330
D9
100
AcDbEntity
  8
치수문자_일반주서
 62
     0
100
AcDbMText
 10
-78.57250000000002
 20
-3.601109607791928
 30
0.0
 40
3.5
 41
0.0
 71
     2
 72
     1
  1
\A1;%%c12.70 [1/2]
  7
SLDTEXTSTYLE0
 11
-3.356894814614648E-15
 21
1.0
 31
0.0
 73
     1
 44
1.0
  0
POINT
  5
E2
330
D9
100
AcDbEntity
  8
Defpoints
 62
     0
100
AcDbPoint
 10
-51.3875
 20
6.350000000000005
 30
0.0
  0
POINT
  5
E3
330
D9
100
AcDbEntity
  8
Defpoints
 62
     0
100
AcDbPoint
 10
-51.3875
 20
-6.349999999999991
 30
0.0
  0
POINT
  5
E4
330
D9
100
AcDbEntity
  8
Defpoints
 62
     0
100
AcDbPoint
 10
-74.1975
 20
-6.350000000000076
 30
0.0
  0
ENDBLK
  5
DB
330
D9
100
AcDbEntity
  8
0
100
AcDbBlockEnd
  0
BLOCK
  5
EF
330
EE
100
AcDbEntity
  8
0
100
AcDbBlockBegin
  2
_D_1
 70
     0
 10
0.0
 20
0.0
 30
0.0
  3
_D_1
  1
_D_1
  0
ARC
  5
F1
330
EE
100
AcDbEntity
  8
치수문자_일반주서
100
AcDbCircle
 10
-9.697872565490096
 20
6.351074928723891
 30
0.0
 40
28.25547184791948
100
AcDbArc
 50
178.4000000000004
 51
180.0
  0
ARC
  5
F2
330
EE
100
AcDbEntity
  8
치수문자_일반주서
100
AcDbCircle
 10
-9.697872565490096
 20
6.351074928723891
 30
0.0
 40
28.25547184791948
100
AcDbArc
 50
165.5928792869709
 51
178.4000000000004
  0
ARC
  5
F3
330
EE
100
AcDbEntity
  8
치수문자_일반주서
100
AcDbCircle
 10
-9.697872565490096
 20
6.351074928723891
 30
0.0
 40
28.25547184791948
100
AcDbArc
 50
180.0
 51
192.8071207130303
  0
SOLID
  5
F4
330
EE
100
AcDbEntity
  8
치수문자_일반주서
100
AcDbTrace
 10
-37.94232802990838
 20
7.140014005625269
 30
0.0
 11
-37.1522828030307
 21
10.38610342822099
 31
0.0
 12
-38.16451986540064
 22
10.47346548843413
 32
0.0
 13
-38.16451986540064
 23
10.47346548843413
 33
0.0
  0
SOLID
  5
F5
330
EE
100
AcDbEntity
  8
치수문자_일반주서
100
AcDbTrace
 10
-37.95334441340957
 20
6.351074928723891
 30
0.0
 11
-38.26852504765252
 21
3.025127068669828
 31
0.0
 12
-37.25424334940539
 22
3.084191750171555
 32
0.0
 13
-37.25424334940539
 23
3.084191750171555
 33
0.0
  0
LINE
  5
F6
330
EE
100
AcDbEntity
  8
치수문자_일반주서
100
AcDbLine
 10
-10.69748268051266
 20
6.378996567446956
 30
0.0
 11
-38.94193814494874
 21
7.167935644348831
 31
0.0
  0
MTEXT
  5
F7
330
EE
100
AcDbEntity
  8
치수문자_일반주서
100
AcDbMText
 10
-42.55376815564394
 20
1.454026847649612
 30
0.0
 40
3.5
 41
0.0
 71
     1
 72
     1
  1
1.60°
  7
SLDTEXTSTYLE0
 11
0.01712624063284911
 21
0.999853335185609
 31
0.0
 73
     1
 44
1.0
  0
ENDBLK
  5
F0
330
EE
100
AcDbEntity
  8
0
100
AcDbBlockEnd
  0
BLOCK
  5
F9
330
F8
100
AcDbEntity
  8
0
100
AcDbBlockBegin
  2
SW_DOWELSYMBOL_0
 70
     0
 10
0.0
 20
0.0
 30
0.0
  3
SW_DOWELSYMBOL_0
  1
SW_DOWELSYMBOL_0
  0
CIRCLE
  5
FB
330
F8
100
AcDbEntity
  8
외형선
 62
     0
100
AcDbCircle
 10
0.0
 20
0.0
 30
0.0
 40
3.000000000000004
  0
HATCH
  5
FC
330
F8
100
AcDbEntity
  8
0
  6
Continuous
 62
     0
370
    30
100
AcDbHatch
 10
0.0
 20
0.0
 30
0.0
210
0.0
220
0.0
230
1.0
  2
SOLID
 70
     1
 71
     0
 91
        1
 92
        0
 93
        3
 72
     2
 10
0.0000000000000104
 20
0.0
 40
3.000000000000004
 50
0.0
 51
90.0
 73
     1
 72
     1
 10
0.0000000000000104
 20
3.000000000000004
 11
0.0000000000000104
 21
0.0
 72
     1
 10
0.0000000000000104
 20
0.0
 11
3.000000000000015
 21
0.0
 97
        0
 75
     0
 76
     1
 98
        1
 10
0.0
 20
0.0
  0
HATCH
  5
FD
330
F8
100
AcDbEntity
  8
0
  6
Continuous
 62
     0
370
    30
100
AcDbHatch
 10
0.0
 20
0.0
 30
0.0
210
0.0
220
0.0
230
1.0
  2
SOLID
 70
     1
 71
     0
 91
        1
 92
        0
 93
        3
 72
     2
 10
0.0000000000000104
 20
0.0
 40
3.000000000000004
 50
180.0
 51
270.0000000000008
 73
     1
 72
     1
 10
0.0000000000000104
 20
-3.000000000000004
 11
0.0000000000000104
 21
0.0
 72
     1
 10
0.0000000000000104
 20
0.0
 11
-2.999999999999994
 21
0.0
 97
        0
 75
     0
 76
     1
 98
        1
 10
0.0
 20
0.0
  0
ENDBLK
  5
FA
330
F8
100
AcDbEntity
  8
0
100
AcDbBlockEnd
  0
BLOCK
  5
131
330
130
100
AcDbEntity
  8
0
100
AcDbBlockBegin
  2
*D5
 70
     1
 10
0.0
 20
0.0
 30
0.0
  3
*D5
  1
*D5
  0
LINE
  5
133
330
130
100
AcDbEntity
  8
치수문자_일반주서
 62
     0
370
    -2
100
AcDbLine
 10
55.49856634618403
 20
-6.349999999999998
 30
0.0
 11
77.30629048026417
 21
-6.350000000000001
 31
0.0
  0
LINE
  5
134
330
130
100
AcDbEntity
  8
치수문자_일반주서
 62
     0
370
    -2
100
AcDbLine
 10
55.62500000000001
 20
6.350000000000001
 30
0.0
 11
77.30629048026417
 21
6.350000000000001
 31
0.0
  0
LINE
  5
135
330
130
100
AcDbEntity
  8
치수문자_일반주서
 62
     0
370
    -2
100
AcDbLine
 10
77.30629048026417
 20
9.652000000000001
 30
0.0
 11
77.30629048026417
 21
37.0165
 31
0.0
  0
LINE
  5
136
330
130
100
AcDbEntity
  8
치수문자_일반주서
 62
     0
370
    -2
100
AcDbLine
 10
77.30629048026417
 20
-6.350000000000001
 30
0.0
 11
77.30629048026417
 21
6.350000000000001
 31
0.0
  0
LINE
  5
137
330
130
100
AcDbEntity
  8
치수문자_일반주서
 62
     0
370
    -2
100
AcDbLine
 10
77.30629048026417
 20
-9.652000000000001
 30
0.0
 11
77.30629048026417
 21
-12.954
 31
0.0
  0
SOLID
  5
138
330
130
100
AcDbEntity
  8
치수문자_일반주서
 62
     0
100
AcDbTrace
 10
77.8566238135975
 20
-9.652000000000001
 30
0.0
 11
76.75595714693084
 21
-9.652000000000001
 31
0.0
 12
77.30629048026417
 22
-6.350000000000001
 32
0.0
 13
77.30629048026417
 23
-6.350000000000001
 33
0.0
  0
SOLID
  5
139
330
130
100
AcDbEntity
  8
치수문자_일반주서
 62
     0
100
AcDbTrace
 10
76.75595714693084
 20
9.652000000000001
 30
0.0
 11
77.8566238135975
 21
9.652000000000001
 31
0.0
 12
77.30629048026417
 22
6.350000000000001
 32
0.0
 13
77.30629048026417
 23
6.350000000000001
 33
0.0
  0
MTEXT
  5
13A
330
130
100
AcDbEntity
  8
치수문자_일반주서
 62
     0
100
AcDbMText
 10
74.68129048026417
 20
24.98525
 30
0.0
 40
3.5
 41
0.0
 71
     5
 72
     1
  1
\A1;12.70 [1/2]
  7
SLDTEXTSTYLE0
 11
0.0
 21
1.0
 31
0.0
 73
     1
 44
1.0
  0
POINT
  5
13B
330
130
100
AcDbEntity
  8
Defpoints
 62
     0
100
AcDbPoint
 10
55.43606634618403
 20
-6.349999999999998
 30
0.0
  0
POINT
  5
13C
330
130
100
AcDbEntity
  8
Defpoints
 62
     0
100
AcDbPoint
 10
55.56250000000001
 20
6.350000000000001
 30
0.0
  0
POINT
  5
13D
330
130
100
AcDbEntity
  8
Defpoints
 62
     0
100
AcDbPoint
 10
77.30629048026417
 20
6.350000000000001
 30
0.0
  0
ENDBLK
  5
132
330
130
100
AcDbEntity
  8
0
100
AcDbBlockEnd
  0
BLOCK
  5
142
330
141
100
AcDbEntity
  8
0
100
AcDbBlockBegin
  2
*D6
 70
     1
 10
0.0
 20
0.0
 30
0.0
  3
*D6
  1
*D6
  0
LINE
  5
144
330
141
100
AcDbEntity
  8
치수문자_일반주서
 62
     0
370
    -2
100
AcDbLine
 10
55.56250000000001
 20
6.412500000000001
 30
0.0
 11
55.56250000000001
 21
39.49986780219719
 31
0.0
  0
LINE
  5
145
330
141
100
AcDbEntity
  8
치수문자_일반주서
 62
     0
370
    -2
100
AcDbLine
 10
45.4025
 20
5.136433965983466
 30
0.0
 11
45.4025
 21
39.49986780219719
 31
0.0
  0
LINE
  5
146
330
141
100
AcDbEntity
  8
치수문자_일반주서
 62
     0
370
    -2
100
AcDbLine
 10
42.1005
 20
39.49986780219719
 30
0.0
 11
14.736
 21
39.49986780219719
 31
0.0
  0
LINE
  5
147
330
141
100
AcDbEntity
  8
치수문자_일반주서
 62
     0
370
    -2
100
AcDbLine
 10
55.56250000000001
 20
39.49986780219719
 30
0.0
 11
45.4025
 21
39.49986780219719
 31
0.0
  0
LINE
  5
148
330
141
100
AcDbEntity
  8
치수문자_일반주서
 62
     0
370
    -2
100
AcDbLine
 10
58.86450000000001
 20
39.49986780219719
 30
0.0
 11
62.16650000000001
 21
39.49986780219719
 31
0.0
  0
SOLID
  5
149
330
141
100
AcDbEntity
  8
치수문자_일반주서
 62
     0
100
AcDbTrace
 10
58.86450000000001
 20
40.05020113553053
 30
0.0
 11
58.86450000000001
 21
38.94953446886386
 31
0.0
 12
55.56250000000001
 22
39.49986780219719
 32
0.0
 13
55.56250000000001
 23
39.49986780219719
 33
0.0
  0
SOLID
  5
14A
330
141
100
AcDbEntity
  8
치수문자_일반주서
 62
     0
100
AcDbTrace
 10
42.1005
 20
38.94953446886386
 30
0.0
 11
42.1005
 21
40.05020113553053
 31
0.0
 12
45.4025
 22
39.49986780219719
 32
0.0
 13
45.4025
 23
39.49986780219719
 33
0.0
  0
MTEXT
  5
14B
330
141
100
AcDbEntity
  8
치수문자_일반주서
 62
     0
100
AcDbMText
 10
26.76725
 20
42.12486780219719
 30
0.0
 40
3.5
 41
0.0
 71
     5
 72
     1
  1
\A1;10.16 [0.40]
  7
SLDTEXTSTYLE0
 73
     1
 44
1.0
  0
POINT
  5
14C
330
141
100
AcDbEntity
  8
Defpoints
 62
     0
100
AcDbPoint
 10
55.56250000000001
 20
6.350000000000001
 30
0.0
  0
POINT
  5
14D
330
141
100
AcDbEntity
  8
Defpoints
 62
     0
100
AcDbPoint
 10
45.4025
 20
5.073933965983466
 30
0.0
  0
POINT
  5
16C
330
141
100
AcDbEntity
  8
Defpoints
 62
     0
100
AcDbPoint
 10
45.4025
 20
39.49986780219719
 30
0.0
  0
ENDBLK
  5
143
330
141
100
AcDbEntity
  8
0
100
AcDbBlockEnd
  0
BLOCK
  5
152
330
151
100
AcDbEntity
  8
0
100
AcDbBlockBegin
  2
*D7
 70
     1
 10
0.0
 20
0.0
 30
0.0
  3
*D7
  1
*D7
  0
LINE
  5
154
330
151
100
AcDbEntity
  8
치수문자_일반주서
 62
     0
370
    -2
100
AcDbLine
 10
49.73883011161555
 20
6.413574928723888
 30
0.0
 11
49.73883011161555
 21
56.18047521834936
 31
0.0
  0
LINE
  5
155
330
151
100
AcDbEntity
  8
치수문자_일반주서
 62
     0
370
    -2
100
AcDbLine
 10
-9.697872565472293
 20
6.413574928723889
 30
0.0
 11
-9.697872565472293
 21
56.18047521834936
 31
0.0
  0
LINE
  5
156
330
151
100
AcDbEntity
  8
치수문자_일반주서
 62
     0
370
    -2
100
AcDbLine
 10
46.43683011161555
 20
56.18047521834936
 30
0.0
 11
-6.395872565472294
 21
56.18047521834936
 31
0.0
  0
SOLID
  5
157
330
151
100
AcDbEntity
  8
치수문자_일반주서
 62
     0
100
AcDbTrace
 10
46.43683011161555
 20
55.63014188501602
 30
0.0
 11
46.43683011161555
 21
56.73080855168269
 31
0.0
 12
49.73883011161555
 22
56.18047521834936
 32
0.0
 13
49.73883011161555
 23
56.18047521834936
 33
0.0
  0
SOLID
  5
158
330
151
100
AcDbEntity
  8
치수문자_일반주서
 62
     0
100
AcDbTrace
 10
-6.395872565472294
 20
56.73080855168269
 30
0.0
 11
-6.395872565472294
 21
55.63014188501602
 31
0.0
 12
-9.697872565472293
 22
56.18047521834936
 32
0.0
 13
-9.697872565472293
 23
56.18047521834936
 33
0.0
  0
MTEXT
  5
159
330
151
100
AcDbEntity
  8
치수문자_일반주서
 62
     0
100
AcDbMText
 10
20.02047877307163
 20
58.80547521834936
 30
0.0
 40
3.5
 41
0.0
 71
     5
 72
     1
  1
\A1;59.44 [2 11/32]
  7
SLDTEXTSTYLE0
 73
     1
 44
1.0
  0
POINT
  5
15A
330
151
100
AcDbEntity
  8
Defpoints
 62
     0
100
AcDbPoint
 10
49.73883011161555
 20
6.351074928723888
 30
0.0
  0
POINT
  5
15B
330
151
100
AcDbEntity
  8
Defpoints
 62
     0
100
AcDbPoint
 10
-9.697872565472293
 20
6.351074928723889
 30
0.0
  0
POINT
  5
15C
330
151
100
AcDbEntity
  8
Defpoints
 62
     0
100
AcDbPoint
 10
-9.697872565472293
 20
56.18047521834936
 30
0.0
  0
ENDBLK
  5
153
330
151
100
AcDbEntity
  8
0
100
AcDbBlockEnd
  0
BLOCK
  5
161
330
160
100
AcDbEntity
  8
0
100
AcDbBlockBegin
  2
*D8
 70
     1
 10
0.0
 20
0.0
 30
0.0
  3
*D8
  1
*D8
  0
LINE
  5
163
330
160
100
AcDbEntity
  8
치수문자_일반주서
 62
     0
370
    -2
100
AcDbLine
 10
55.56250000000001
 20
6.412500000000001
 30
0.0
 11
55.56250000000001
 21
75.15652666185125
 31
0.0
  0
LINE
  5
164
330
160
100
AcDbEntity
  8
치수문자_일반주서
 62
     0
370
    -2
100
AcDbLine
 10
-52.3875
 20
5.412500000000002
 30
0.0
 11
-52.3875
 21
75.15652666185125
 31
0.0
  0
LINE
  5
165
330
160
100
AcDbEntity
  8
치수문자_일반주서
 62
     0
370
    -2
100
AcDbLine
 10
52.26050000000001
 20
75.15652666185125
 30
0.0
 11
-49.0855
 21
75.15652666185125
 31
0.0
  0
SOLID
  5
166
330
160
100
AcDbEntity
  8
치수문자_일반주서
 62
     0
100
AcDbTrace
 10
52.26050000000001
 20
74.60619332851792
 30
0.0
 11
52.26050000000001
 21
75.70685999518457
 31
0.0
 12
55.56250000000001
 22
75.15652666185125
 32
0.0
 13
55.56250000000001
 23
75.15652666185125
 33
0.0
  0
SOLID
  5
167
330
160
100
AcDbEntity
  8
치수문자_일반주서
 62
     0
100
AcDbTrace
 10
-49.0855
 20
75.70685999518457
 30
0.0
 11
-49.0855
 21
74.60619332851792
 31
0.0
 12
-52.3875
 22
75.15652666185125
 32
0.0
 13
-52.3875
 23
75.15652666185125
 33
0.0
  0
MTEXT
  5
168
330
160
100
AcDbEntity
  8
치수문자_일반주서
 62
     0
100
AcDbMText
 10
1.587500000000006
 20
77.78152666185125
 30
0.0
 40
3.5
 41
0.0
 71
     5
 72
     1
  1
\A1;107.95 [4 1/4]
  7
SLDTEXTSTYLE0
 73
     1
 44
1.0
  0
POINT
  5
169
330
160
100
AcDbEntity
  8
Defpoints
 62
     0
100
AcDbPoint
 10
55.56250000000001
 20
6.350000000000001
 30
0.0
  0
POINT
  5
16A
330
160
100
AcDbEntity
  8
Defpoints
 62
     0
100
AcDbPoint
 10
-52.3875
 20
5.350000000000002
 30
0.0
  0
POINT
  5
16B
330
160
100
AcDbEntity
  8
Defpoints
 62
     0
100
AcDbPoint
 10
-52.3875
 20
75.15652666185125
 30
0.0
  0
ENDBLK
  5
162
330
160
100
AcDbEntity
  8
0
100
AcDbBlockEnd
  0
BLOCK
  5
173
330
172
100
AcDbEntity
  8
0
100
AcDbBlockBegin
  2
*D9
 70
     1
 10
0.0
 20
0.0
 30
0.0
  3
*D9
  1
*D9
  0
LINE
  5
175
330
172
100
AcDbEntity
  8
치수문자_일반주서
 62
     0
370
    -2
100
AcDbLine
 10
55.56250000000001
 20
6.475000000000001
 30
0.0
 11
55.56250000000001
 21
57.50991283096303
 31
0.0
  0
LINE
  5
176
330
172
100
AcDbEntity
  8
치수문자_일반주서
 62
     0
370
    -2
100
AcDbLine
 10
0.0
 20
6.412499999999996
 30
0.0
 11
0.0
 21
57.50991283096303
 31
0.0
  0
LINE
  5
177
330
172
100
AcDbEntity
  8
치수문자_일반주서
 62
     0
370
    -2
100
AcDbLine
 10
52.26050000000001
 20
57.50991283096303
 30
0.0
 11
3.302
 21
57.50991283096303
 31
0.0
  0
SOLID
  5
178
330
172
100
AcDbEntity
  8
치수문자_일반주서
 62
     0
100
AcDbTrace
 10
52.26050000000001
 20
56.9595794976297
 30
0.0
 11
52.26050000000001
 21
58.06024616429637
 31
0.0
 12
55.56250000000001
 22
57.50991283096303
 32
0.0
 13
55.56250000000001
 23
57.50991283096303
 33
0.0
  0
SOLID
  5
179
330
172
100
AcDbEntity
  8
치수문자_일반주서
 62
     0
100
AcDbTrace
 10
3.302
 20
58.06024616429637
 30
0.0
 11
3.302
 21
56.9595794976297
 31
0.0
 12
0.0
 22
57.50991283096303
 32
0.0
 13
0.0
 23
57.50991283096303
 33
0.0
  0
MTEXT
  5
17A
330
172
100
AcDbEntity
  8
치수문자_일반주서
 62
     0
100
AcDbMText
 10
27.78125
 20
60.13491283096303
 30
0.0
 40
3.5
 41
0.0
 71
     5
 72
     1
  1
\A1;55.56 [2 3/16]
  7
SLDTEXTSTYLE0
 73
     1
 44
1.0
  0
POINT
  5
17B
330
172
100
AcDbEntity
  8
Defpoints
 62
     0
100
AcDbPoint
 10
55.56250000000001
 20
6.412500000000001
 30
0.0
  0
POINT
  5
17C
330
172
100
AcDbEntity
  8
Defpoints
 62
     0
100
AcDbPoint
 10
0.0
 20
6.349999999999996
 30
0.0
  0
POINT
  5
17D
330
172
100
AcDbEntity
  8
Defpoints
 62
     0
100
AcDbPoint
 10
0.0
 20
57.50991283096303
 30
0.0
  0
ENDBLK
  5
174
330
172
100
AcDbEntity
  8
0
100
AcDbBlockEnd
  0
ENDSEC
  0
SECTION
  2
ENTITIES
  0
LINE
  5
97
330
1F
100
AcDbEntity
  8
0
 62
     4
100
AcDbLine
 10
0.0
 20
6.350000000000005
 30
0.0
 11
-51.3875
 21
6.350000000000005
 31
0.0
  0
LINE
  5
98
330
1F
100
AcDbEntity
  8
0
 62
     4
100
AcDbLine
 10
-51.3875
 20
-6.349999999999991
 30
0.0
 11
0.0
 21
-6.349999999999991
 31
0.0
  0
LINE
  5
99
102
{ACAD_REACTORS
102
}
330
1F
100
AcDbEntity
  8
0
 62
     4
100
AcDbLine
 10
-51.3875
 20
6.350000000000007
 30
0.0
 11
-52.3875
 21
5.350000000000002
 31
0.0
  0
LINE
  5
9A
330
1F
100
AcDbEntity
  8
0
 62
     4
100
AcDbLine
 10
-52.3875
 20
-5.349999999999988
 30
0.0
 11
-51.3875
 21
-6.349999999999993
 31
0.0
  0
ARC
  5
9B
330
1F
100
AcDbEntity
  8
0
  6
Continuous
 62
     1
370
    15
100
AcDbCircle
 10
49.2125
 20
0.0000000000000069
 30
0.0
 40
6.350000000000007
100
AcDbArc
 50
352.657534770795
 51
7.34246522920609
  0
ARC
  5
9C
330
1F
100
AcDbEntity
  8
0
 62
     4
100
AcDbCircle
 10
45.4025
 20
0.0000000000000069
 30
0.0
 40
6.350000000000005
100
AcDbArc
 50
125.5031376465666
 51
126.8698976458441
  0
ARC
  5
9D
330
1F
100
AcDbEntity
  8
0
 62
     4
100
AcDbCircle
 10
45.4025
 20
0.0000000000000069
 30
0.0
 40
6.350000000000006
100
AcDbArc
 50
233.1301023541567
 51
234.5810978822403
  0
SPLINE
  5
9E
330
1F
100
AcDbEntity
  8
0
 62
     4
100
AcDbSpline
210
0.0
220
0.0
230
1.0
 70
     8
 71
     3
 72
     8
 73
     4
 74
     0
 42
0.000000001
 43
0.00000001
 40
0.0
 40
0.0
 40
0.0
 40
0.0
 40
0.0002221801972444
 40
0.0002221801972444
 40
0.0002221801972444
 40
0.0002221801972444
 10
41.40252444861856
 20
5.022316712384582
 30
0.0
 10
41.46584310860717
 20
5.0145489236185
 30
0.0
 10
41.52917044624044
 20
5.006356958721217
 30
0.0
 10
41.59250000000001
 20
4.99774229215618
 30
0.0
  0
LINE
  5
9F
330
1F
100
AcDbEntity
  8
0
 62
     4
100
AcDbLine
 10
41.40252444861856
 20
5.022317201016542
 30
0.0
 11
41.40252444861857
 21
1.870660971569758
 31
0.0
  0
SPLINE
  5
A0
330
1F
100
AcDbEntity
  8
0
 62
     4
100
AcDbSpline
210
0.0
220
0.0
230
1.0
 70
     8
 71
     3
 72
     8
 73
     4
 74
     0
 42
0.000000001
 43
0.00000001
 40
0.0
 40
0.0
 40
0.0
 40
0.0
 40
0.0002214257644791
 40
0.0002214257644791
 40
0.0002214257644791
 40
0.0002214257644791
 10
41.59249999999999
 20
1.762649710291411
 30
0.0
 10
41.52916900556011
 20
1.798776145512985
 30
0.0
 10
41.46584170814651
 20
1.834782249677452
 30
0.0
 10
41.40252444861857
 20
1.870664279109729
 30
0.0
  0
LINE
  5
A1
330
1F
100
AcDbEntity
  8
0
 62
     4
100
AcDbLine
 10
41.59249999999999
 20
1.762649710291414
 30
0.0
 11
41.59250000000001
 21
-0.9104789844875973
 31
0.0
  0
SPLINE
  5
A2
330
1F
100
AcDbEntity
  8
0
  6
Continuous
 62
     1
370
    15
100
AcDbSpline
210
0.0
220
0.0
230
1.0
 70
     8
 71
     3
 72
     8
 73
     4
 74
     0
 42
0.000000001
 43
0.00000001
 40
0.0
 40
0.0
 40
0.0
 40
0.0
 40
0.0002221801972444
 40
0.0002221801972444
 40
0.0002221801972444
 40
0.0002221801972444
 10
41.40252444861856
 20
-0.7979204317458256
 30
0.0
 10
41.46584310860717
 20
-0.8355409327200235
 30
0.0
 10
41.52917044624044
 20
-0.8730617627948222
 30
0.0
 10
41.59250000000001
 20
-0.9104789844875905
 30
0.0
  0
LINE
  5
A3
330
1F
100
AcDbEntity
  8
0
 62
     4
100
AcDbLine
 10
41.40252444861856
 20
-0.7979173561643299
 30
0.0
 11
41.40252444861857
 21
-4.728738701212037
 31
0.0
  0
SPLINE
  5
A4
330
1F
100
AcDbEntity
  8
0
 62
     4
100
AcDbSpline
210
0.0
220
0.0
230
1.0
 70
     8
 71
     3
 72
     8
 73
     4
 74
     0
 42
0.000000001
 43
0.00000001
 40
0.0
 40
0.0
 40
0.0
 40
0.0
 40
0.0002214257644791
 40
0.0002214257644791
 40
0.0002214257644791
 40
0.0002214257644791
 10
41.59249999999999
 20
-4.76439565934753
 30
0.0
 10
41.52916900556011
 20
-4.752916395104318
 30
0.0
 10
41.46584170814651
 20
-4.741030166898027
 30
0.0
 10
41.40252444861857
 20
-4.72873739276754
 30
0.0
  0
LINE
  5
A5
330
1F
100
AcDbEntity
  8
0
 62
     4
100
AcDbLine
 10
41.59249999999999
 20
-4.764395659347533
 30
0.0
 11
41.59249999999999
 21
-5.079999999999993
 31
0.0
  0
LINE
  5
A8
330
1F
100
AcDbEntity
  8
0
 62
     4
100
AcDbLine
 10
-51.3875
 20
0.0000000000000069
 30
0.0
 11
-51.3875
 21
-6.349999999999991
 31
0.0
  0
LINE
  5
A9
330
1F
100
AcDbEntity
  8
0
 62
     4
100
AcDbLine
 10
-51.3875
 20
6.350000000000005
 30
0.0
 11
-51.3875
 21
0.0000000000000069
 31
0.0
  0
LINE
  5
AA
330
1F
100
AcDbEntity
  8
0
 62
     4
100
AcDbLine
 10
-52.3875
 20
0.0000000000000069
 30
0.0
 11
-52.3875
 21
-5.349999999999988
 31
0.0
  0
LINE
  5
AB
330
1F
100
AcDbEntity
  8
0
 62
     4
100
AcDbLine
 10
-52.3875
 20
5.350000000000002
 30
0.0
 11
-52.3875
 21
0.0000000000000069
 31
0.0
  0
SPLINE
  5
AC
330
1F
100
AcDbEntity
  8
0
 62
     4
100
AcDbSpline
210
0.0
220
0.0
230
1.0
 70
    24
 71
     3
 72
    17
 73
    13
 74
     0
 42
0.000000001
 43
0.00000001
 40
0.0
 40
0.0
 40
0.0
 40
0.0
 40
0.1339946521104572
 40
0.2282931805618085
 40
0.3225917090131596
 40
0.416890237464511
 40
0.5111887659158624
 40
0.6054872943672116
 40
0.6997858228185608
 40
0.7940843512699145
 40
0.888382879721268
 40
1.0
 40
1.0
 40
1.0
 40
1.0
 10
41.59250000000001
 20
-0.9228657027812446
 30
0.0
 10
41.59250000000001
 20
-0.9329198686671346
 30
0.0
 10
41.59250000000001
 20
-0.9500496381902781
 30
0.0
 10
41.59250000000002
 20
-1.155141284356222
 30
0.0
 10
41.59250000000002
 20
-1.405393964947339
 30
0.0
 10
41.59249999999998
 20
-1.736154260597466
 30
0.0
 10
41.59250000000001
 20
-2.131370039555178
 30
0.0
 10
41.59249999999999
 20
-2.583302660331544
 30
0.0
 10
41.59250000000001
 20
-3.076961764820934
 30
0.0
 10
41.59249999999999
 20
-3.599406411942056
 30
0.0
 10
41.59250000000001
 20
-4.169537417345916
 30
0.0
 10
41.59249999999999
 20
-4.555294834404184
 30
0.0
 10
41.59249999999999
 20
-4.764395659347533
 30
0.0
  0
SPLINE
  5
AD
330
1F
100
AcDbEntity
  8
0
 62
     4
100
AcDbSpline
210
0.0
220
0.0
230
1.0
 70
    24
 71
     3
 72
    15
 73
    11
 74
     0
 42
0.000000001
 43
0.00000001
 40
0.0
 40
0.0
 40
0.0
 40
0.0
 40
0.1983017238477398
 40
0.317906493351052
 40
0.4375112628543641
 40
0.5571160323576765
 40
0.6767208018609888
 40
0.7963255713642986
 40
0.9159303408676085
 40
1.0
 40
1.0
 40
1.0
 40
1.0
 10
41.59250000000001
 20
4.997742292156345
 30
0.0
 10
41.59250000000001
 20
4.700215202163897
 30
0.0
 10
41.59250000000001
 20
4.223236021039546
 30
0.0
 10
41.59250000000002
 20
3.602011913922567
 30
0.0
 10
41.59250000000002
 20
3.127564755345079
 30
0.0
 10
41.59249999999998
 20
2.703636007499999
 30
0.0
 10
41.59250000000001
 20
2.338907472621841
 30
0.0
 10
41.59249999999999
 20
2.050505583893066
 30
0.0
 10
41.59249999999999
 20
1.850426399513698
 30
0.0
 10
41.59250000000001
 20
1.788295263602084
 30
0.0
 10
41.59250000000001
 20
1.762649710291411
 30
0.0
  0
SPLINE
  5
AE
330
1F
100
AcDbEntity
  8
0
  6
Continuous
 62
     1
370
    15
100
AcDbSpline
210
0.0
220
0.0
230
1.0
 70
     8
 71
     3
 72
    14
 73
    10
 74
     0
 42
0.000000001
 43
0.00000001
 40
0.0
 40
0.0
 40
0.0
 40
0.0
 40
0.25
 40
0.25
 40
0.5
 40
0.5
 40
0.75
 40
0.75
 40
1.0
 40
1.0
 40
1.0
 40
1.0
 10
49.21250000000001
 20
-3.249190843891572
 30
0.0
 10
48.89424568569714
 20
-3.043470324730654
 30
0.0
 10
48.57513492674813
 20
-2.830615554236324
 30
0.0
 10
47.94129786940667
 20
-2.394759476390684
 30
0.0
 10
47.62577943498292
 20
-2.171604307144491
 30
0.0
 10
46.98922162112083
 20
-1.715697277645496
 30
0.0
 10
46.67013138620479
 20
-1.483393654904962
 30
0.0
 10
46.03642431195196
 20
-1.014557775835515
 30
0.0
 10
45.72080217913712
 20
-0.7777901741046432
 30
0.0
 10
45.4024999999999
 20
-0.539203112056829
 30
0.0
  0
SPLINE
  5
AF
330
1F
100
AcDbEntity
  8
0
 62
     4
100
AcDbSpline
210
0.0
220
0.0
230
1.0
 70
     8
 71
     3
 72
    16
 73
    12
 74
     0
 42
0.000000001
 43
0.00000001
 40
0.0
 40
0.0
 40
0.0
 40
0.0
 40
0.249999999999998
 40
0.249999999999998
 40
0.3749999999999972
 40
0.3749999999999972
 40
0.4999999999999963
 40
0.4999999999999963
 40
0.7499999999999981
 40
0.7499999999999981
 40
1.0
 40
1.0
 40
1.0
 40
1.0
 10
41.59249999999999
 20
1.762649710291411
 30
0.0
 10
41.87641830506762
 20
1.64857274085154
 30
0.0
 10
42.17465794373309
 20
1.515793443369068
 30
0.0
 10
42.63878470506561
 20
1.281750671611732
 30
0.0
 10
42.79646723950451
 20
1.198206475931631
 30
0.0
 10
43.11763736009832
 20
1.019141109752456
 30
0.0
 10
43.28120060419193
 20
0.9235064379738478
 30
0.0
 10
43.7689471220061
 20
0.6252380776966454
 30
0.0
 10
44.09353984213838
 20
0.4084541246347223
 30
0.0
 10
44.74732987379176
 20
-0.0519960542735642
 30
0.0
 10
45.07685427748976
 20
-0.2951116125492201
 30
0.0
 10
45.40250000000002
 20
-0.5392031120568875
 30
0.0
  0
SPLINE
  5
B0
330
1F
100
AcDbEntity
  8
0
 62
     4
100
AcDbSpline
210
0.0
220
0.0
230
1.0
 70
    24
 71
     3
 72
    15
 73
    11
 74
     0
 42
0.000000001
 43
0.00000001
 40
0.0
 40
0.0
 40
0.0
 40
0.0
 40
0.1984189891503356
 40
0.3163898246055452
 40
0.4377818222810045
 40
0.5557526577362825
 40
0.6771446554116756
 40
0.7951154908669524
 40
0.9165074885423445
 40
1.0
 40
1.0
 40
1.0
 40
1.0
 10
41.59250000000001
 20
4.997742292156182
 30
0.0
 10
41.59249999999998
 20
4.700247498207934
 30
0.0
 10
41.59249999999993
 20
4.225875936890109
 30
0.0
 10
41.59250000000005
 20
3.604176741040607
 30
0.0
 10
41.59249999999994
 20
3.132001872217284
 30
0.0
 10
41.59250000000001
 20
2.705134575372522
 30
0.0
 10
41.59249999999999
 20
2.342268458876698
 30
0.0
 10
41.59250000000001
 20
2.051135394475621
 30
0.0
 10
41.59250000000002
 20
1.85165321571062
 30
0.0
 10
41.59250000000001
 20
1.788418497904107
 30
0.0
 10
41.59250000000001
 20
1.762649710291407
 30
0.0
  0
SPLINE
  5
B1
330
1F
100
AcDbEntity
  8
0
  6
Continuous
 62
     1
370
    15
100
AcDbSpline
210
0.0
220
0.0
230
1.0
 70
     8
 71
     3
 72
     8
 73
     4
 74
     0
 42
0.000000001
 43
0.00000001
 40
0.0
 40
0.0
 40
0.0
 40
0.0
 40
0.0012661060996442
 40
0.0012661060996442
 40
0.0012661060996442
 40
0.0012661060996442
 10
45.4025
 20
5.073933965983466
 30
0.0
 10
45.40081851160159
 20
5.074694543051478
 30
0.0
 10
45.39913723857318
 20
5.075454294454724
 30
0.0
 10
45.39745618020964
 20
5.076213219820391
 30
0.0
  0
SPLINE
  5
B2
330
1F
100
AcDbEntity
  8
0
  6
Continuous
 62
     1
370
    15
100
AcDbSpline
210
0.0
220
0.0
230
1.0
 70
     8
 71
     3
 72
    14
 73
    10
 74
     0
 42
0.000000001
 43
0.00000001
 40
0.0
 40
0.0
 40
0.0
 40
0.0
 40
0.25
 40
0.25
 40
0.5
 40
0.5
 40
0.75
 40
0.75
 40
1.0
 40
1.0
 40
1.0
 40
1.0
 10
49.21250000000003
 20
2.896065128233681
 30
0.0
 10
48.89424568569717
 20
3.109152800822863
 30
0.0
 10
48.57513492674815
 20
3.316233264250486
 30
0.0
 10
47.94129786940665
 20
3.714477903722292
 30
0.0
 10
47.62577943498294
 20
3.905846031041379
 30
0.0
 10
46.98922162112084
 20
4.272233570318471
 30
0.0
 10
46.6701313862048
 20
4.446832055586006
 30
0.0
 10
46.03642431195198
 20
4.775583497104845
 30
0.0
 10
45.72080217913712
 20
4.929958343921912
 30
0.0
 10
45.4024999999999
 20
5.073933965983505
 30
0.0
  0
SPLINE
  5
B3
330
1F
100
AcDbEntity
  8
0
  6
Continuous
 62
     1
370
    15
100
AcDbSpline
210
0.0
220
0.0
230
1.0
 70
     8
 71
     3
 72
    14
 73
    10
 74
     0
 42
0.000000001
 43
0.00000001
 40
0.0
 40
0.0
 40
0.0
 40
0.0
 40
0.25
 40
0.25
 40
0.5
 40
0.5
 40
0.75
 40
0.75
 40
1.0
 40
1.0
 40
1.0
 40
1.0
 10
53.04935544068938
 20
0.1541080665441919
 30
0.0
 10
52.76574066596763
 20
0.3620203275227976
 30
0.0
 10
52.46619654225464
 20
0.5741069786785831
 30
0.0
 10
51.84278814850921
 20
1.019575856265061
 30
0.0
 10
51.51520892100248
 20
1.255938074341702
 30
0.0
 10
50.86118940079633
 20
1.72827179869006
 30
0.0
 10
50.53312982417613
 20
1.966140757430781
 30
0.0
 10
49.87188588725239
 20
2.441019435176582
 30
0.0
 10
49.54095371206354
 20
2.676148432963716
 30
0.0
 10
49.21250000000001
 20
2.896065128233682
 30
0.0
  0
SPLINE
  5
B4
330
1F
100
AcDbEntity
  8
0
  6
Continuous
 62
     1
370
    15
100
AcDbSpline
210
0.0
220
0.0
230
1.0
 70
     8
 71
     3
 72
     8
 73
     4
 74
     0
 42
0.000000001
 43
0.00000001
 40
0.0
 40
0.0
 40
0.0
 40
0.0
 40
1.0
 40
1.0
 40
1.0
 40
1.0
 10
52.44449743222251
 20
0.4595014070686803
 30
0.0
 10
52.64868213924603
 20
0.3628104205131821
 30
0.0
 10
52.8503808405232
 20
0.2611706296999299
 30
0.0
 10
53.04935544068609
 20
0.1541080665487799
 30
0.0
  0
SPLINE
  5
B5
330
1F
100
AcDbEntity
  8
0
  6
Continuous
 62
     1
370
    15
100
AcDbSpline
210
0.0
220
0.0
230
1.0
 70
     8
 71
     3
 72
    10
 73
     6
 74
     0
 42
0.000000001
 43
0.00000001
 40
0.0
 40
0.0
 40
0.0
 40
0.0
 40
0.5
 40
0.5
 40
1.0
 40
1.0
 40
1.0
 40
1.0
 10
52.44449743222271
 20
0.4595014070684342
 30
0.0
 10
52.46056642353322
 20
0.3948913377143931
 30
0.0
 10
52.46125703182514
 20
0.3240615657623315
 30
0.0
 10
52.42036798974843
 20
0.1706933003179438
 30
0.0
 10
52.37780915304899
 20
0.0868190919690032
 30
0.0
 10
52.31052152860384
 20
-0.0000000000000314
 30
0.0
  0
SPLINE
  5
B6
330
1F
100
AcDbEntity
  8
0
  6
Continuous
 62
     1
370
    15
100
AcDbSpline
210
0.0
220
0.0
230
1.0
 70
     8
 71
     3
 72
     8
 73
     4
 74
     0
 42
0.000000001
 43
0.00000001
 40
0.0
 40
0.0
 40
0.0
 40
0.0
 40
1.0
 40
1.0
 40
1.0
 40
1.0
 10
54.14087870446733
 20
-0.7531678945272187
 30
0.0
 10
53.53058463372941
 20
-0.5024223246662716
 30
0.0
 10
52.91957318109273
 20
-0.2529759034829906
 30
0.0
 10
52.31052152860384
 20
-0.0000000000000355
 30
0.0
  0
SPLINE
  5
B7
330
1F
100
AcDbEntity
  8
0
  6
Continuous
 62
     1
370
    15
100
AcDbSpline
210
0.0
220
0.0
230
1.0
 70
     8
 71
     3
 72
    36
 73
    32
 74
     0
 42
0.000000001
 43
0.00000001
 40
0.0
 40
0.0
 40
0.0
 40
0.0
 40
0.1250000000000019
 40
0.1250000000000019
 40
0.1875000000000022
 40
0.1875000000000022
 40
0.2500000000000025
 40
0.2500000000000025
 40
0.3750000000000015
 40
0.3750000000000015
 40
0.4375000000000018
 40
0.4375000000000018
 40
0.5000000000000021
 40
0.5000000000000021
 40
0.5625000000000024
 40
0.5625000000000024
 40
0.6250000000000027
 40
0.6250000000000027
 40
0.687500000000003
 40
0.687500000000003
 40
0.7187500000000027
 40
0.7187500000000027
 40
0.7500000000000023
 40
0.7500000000000023
 40
0.8125000000000018
 40
0.8125000000000018
 40
0.8750000000000012
 40
0.8750000000000012
 40
0.9375000000000006
 40
0.9375000000000006
 40
1.0
 40
1.0
 40
1.0
 40
1.0
 10
49.2125
 20
-3.249190843891561
 30
0.0
 10
49.55674747828195
 20
-3.47171342023788
 30
0.0
 10
49.89099104874508
 20
-3.67327579302826
 30
0.0
 10
50.38966531681662
 20
-3.931921703699338
 30
0.0
 10
50.55543399033026
 20
-4.010804158618195
 30
0.0
 10
50.88782332426763
 20
-4.151452247941099
 30
0.0
 10
51.05375794565885
 20
-4.212812597300581
 30
0.0
 10
51.54484017315411
 20
-4.36358215910504
 30
0.0
 10
51.86591851954596
 20
-4.422763012989014
 30
0.0
 10
52.35582380522565
 20
-4.423142268802812
 30
0.0
 10
52.51704796423517
 20
-4.408324786082996
 30
0.0
 10
52.83800032973978
 20
-4.344699779981838
 30
0.0
 10
52.99884752341145
 20
-4.295521336116856
 30
0.0
 10
53.3176421350743
 20
-4.156491838644578
 30
0.0
 10
53.47331654356093
 20
-4.068035288484285
 30
0.0
 10
53.78009808716546
 20
-3.843409859941941
 30
0.0
 10
53.92843918450219
 20
-3.708642023918597
 30
0.0
 10
54.20422930956605
 20
-3.393099480810186
 30
0.0
 10
54.32972833345951
 20
-3.213808407342404
 30
0.0
 10
54.48290831597815
 20
-2.928633502651299
 30
0.0
 10
54.5271109598219
 20
-2.833034433469892
 30
0.0
 10
54.60215733766771
 20
-2.64077257963987
 30
0.0
 10
54.63301120625123
 20
-2.543453213891398
 30
0.0
 10
54.70194300861914
 20
-2.262533089093356
 30
0.0
 10
54.71800574690977
 20
-2.084099390970533
 30
0.0
 10
54.70112069114636
 20
-1.76127349749081
 30
0.0
 10
54.6683949470014
 20
-1.612136691845654
 30
0.0
 10
54.56839670926743
 20
-1.339357247386704
 30
0.0
 10
54.50133223499929
 20
-1.214496238690222
 30
0.0
 10
54.33989372491387
 20
-0.976110133756814
 30
0.0
 10
54.24504710107283
 20
-0.8624904023320938
 30
0.0
 10
54.14087870446741
 20
-0.7531678945272315
 30
0.0
  0
SPLINE
  5
B8
330
1F
100
AcDbEntity
  8
0
 62
     4
100
AcDbSpline
210
0.0
220
0.0
230
1.0
 70
     8
 71
     3
 72
    18
 73
    14
 74
     0
 42
0.000000001
 43
0.00000001
 40
0.0
 40
0.0
 40
0.0
 40
0.0
 40
0.2499999999999993
 40
0.2499999999999993
 40
0.3749999999999989
 40
0.3749999999999989
 40
0.4999999999999984
 40
0.4999999999999984
 40
0.7500000000000008
 40
0.7500000000000008
 40
0.8750000000000003
 40
0.8750000000000003
 40
1.0
 40
1.0
 40
1.0
 40
1.0
 10
45.4025
 20
-3.818074659935215
 30
0.0
 10
45.07048035352654
 20
-3.618496263461382
 30
0.0
 10
44.74685772317017
 20
-3.394529712070911
 30
0.0
 10
44.265877055602
 20
-3.031518592325979
 30
0.0
 10
44.10635283866519
 20
-2.905914011612513
 30
0.0
 10
43.78628231554574
 20
-2.648114726503859
 30
0.0
 10
43.62577144368193
 20
-2.515702160037119
 30
0.0
 10
43.15093833804686
 20
-2.119833351141883
 30
0.0
 10
42.84003935767653
 20
-1.854554121202988
 30
0.0
 10
42.36940741462917
 20
-1.471607131892995
 30
0.0
 10
42.21248282984457
 20
-1.347094567813363
 30
0.0
 10
41.90199786928784
 20
-1.115425676227192
 30
0.0
 10
41.74761414589656
 20
-1.007273018905686
 30
0.0
 10
41.59249999999999
 20
-0.9104789844875903
 30
0.0
  0
SPLINE
  5
B9
330
1F
100
AcDbEntity
  8
0
  6
Continuous
 62
     1
370
    15
100
AcDbSpline
210
0.0
220
0.0
230
1.0
 70
     8
 71
     3
 72
    14
 73
    10
 74
     0
 42
0.000000001
 43
0.00000001
 40
0.0
 40
0.0
 40
0.0
 40
0.0
 40
0.2499999999999999
 40
0.2499999999999999
 40
0.4999999999999999
 40
0.4999999999999999
 40
0.7499999999999999
 40
0.7499999999999999
 40
1.0
 40
1.0
 40
1.0
 40
1.0
 10
49.21250000000001
 20
-5.651133229099172
 30
0.0
 10
48.89424568569716
 20
-5.541931100459858
 30
0.0
 10
48.57513492674816
 20
-5.420541298211575
 30
0.0
 10
47.94129786940667
 20
-5.155804974133284
 30
0.0
 10
47.62577943498295
 20
-5.012404731849377
 30
0.0
 10
46.98922162112087
 20
-4.704025375644952
 30
0.0
 10
46.6701313862048
 20
-4.539311389442418
 30
0.0
 10
46.03642431195198
 20
-4.19207174116675
 30
0.0
 10
45.72080217913712
 20
-4.009407429489839
 30
0.0
 10
45.4024999999999
 20
-3.818074659935165
 30
0.0
  0
SPLINE
  5
BA
330
1F
100
AcDbEntity
  8
0
  6
Continuous
 62
     1
370
    15
100
AcDbSpline
210
0.0
220
0.0
230
1.0
 70
     8
 71
     3
 72
     9
 73
     5
 74
     0
 42
0.000000001
 43
0.00000001
 40
0.0
 40
0.0
 40
0.0
 40
0.0
 40
0.2276231666360464
 40
0.4686985392176186
 40
0.4686985392176186
 40
0.4686985392176186
 40
0.4686985392176186
 10
48.95242395637112
 20
-5.545035007493979
 30
0.0
 10
48.68298728539305
 20
-5.641453631640077
 30
0.0
 10
48.12819061875586
 20
-5.839989083714276
 30
0.0
 10
47.57386650913669
 20
-5.988438868555786
 30
0.0
 10
47.28870706201499
 20
-6.051571757135409
 30
0.0
  0
SPLINE
  5
BB
330
1F
100
AcDbEntity
  8
0
 62
     4
100
AcDbSpline
210
0.0
220
0.0
230
1.0
 70
     8
 71
     3
 72
     8
 73
     4
 74
     0
 42
0.000000001
 43
0.00000001
 40
0.0
 40
0.0
 40
0.0
 40
0.0
 40
0.1330909914066079
 40
0.1330909914066079
 40
0.1330909914066079
 40
0.1330909914066079
 10
41.59249999999999
 20
-4.76439565934753
 30
0.0
 10
41.74364787479973
 20
-4.907733869134332
 30
0.0
 10
41.89885457868827
 20
-5.041604823982379
 30
0.0
 10
42.05764588225072
 20
-5.166206351049468
 30
0.0
  0
SPLINE
  5
BC
330
1F
100
AcDbEntity
  8
0
 62
     4
100
AcDbSpline
210
0.0
220
0.0
230
1.0
 70
    24
 71
     3
 72
    17
 73
    13
 74
     0
 42
0.000000001
 43
0.00000001
 40
0.0
 40
0.0
 40
0.0
 40
0.0
 40
0.1369348330931981
 40
0.229570585438717
 40
0.3248927808779544
 40
0.4175285332235267
 40
0.5128507286627123
 40
0.6054864810082838
 40
0.7008086764474686
 40
0.7934444287930434
 40
0.8887666242322312
 40
1.0
 40
1.0
 40
1.0
 40
1.0
 10
41.59249999999999
 20
-0.9209743867531485
 30
0.0
 10
41.59249999999998
 20
-0.9311995066275309
 30
0.0
 10
41.59249999999994
 20
-0.948341870646373
 30
0.0
 10
41.59250000000001
 20
-1.153498536822104
 30
0.0
 10
41.59249999999995
 20
-1.402907520358415
 30
0.0
 10
41.59250000000001
 20
-1.733909478466267
 30
0.0
 10
41.59249999999999
 20
-2.127540579521043
 30
0.0
 10
41.59249999999998
 20
-2.580688848395611
 30
0.0
 10
41.59250000000005
 20
-3.072236452286219
 30
0.0
 10
41.59250000000001
 20
-3.596715826546198
 30
0.0
 10
41.59250000000001
 20
-4.167030401856637
 30
0.0
 10
41.59249999999999
 20
-4.555304201668924
 30
0.0
 10
41.59250000000001
 20
-4.764395659347531
 30
0.0
  0
SPLINE
  5
BD
330
1F
100
AcDbEntity
  8
0
  6
Continuous
 62
     1
370
    15
100
AcDbSpline
210
0.0
220
0.0
230
1.0
 70
     8
 71
     3
 72
    14
 73
    10
 74
     0
 42
0.000000001
 43
0.00000001
 40
0.0
 40
0.0
 40
0.0
 40
0.0
 40
0.2499999999999999
 40
0.2499999999999999
 40
0.4999999999999998
 40
0.4999999999999998
 40
0.7499999999999999
 40
0.7499999999999999
 40
1.0
 40
1.0
 40
1.0
 40
1.0
 10
53.04935544068198
 20
-5.057399631345528
 30
0.0
 10
52.76574066596058
 20
-5.266231839967193
 30
0.0
 10
52.46619654224798
 20
-5.437899844175342
 30
0.0
 10
51.84278814850359
 20
-5.703415122226875
 30
0.0
 10
51.51520892099754
 20
-5.797230707598673
 30
0.0
 10
50.86118940079277
 20
-5.897680268386385
 30
0.0
 10
50.53312982417327
 20
-5.905889306295723
 30
0.0
 10
49.87188588725093
 20
-5.839172499381412
 30
0.0
 10
49.54095371206282
 20
-5.763835061893846
 30
0.0
 10
49.21250000000001
 20
-5.651133229099174
 30
0.0
  0
LWPOLYLINE
  5
BE
330
1F
100
AcDbEntity
  8
0
  6
Continuous
 62
     1
370
    15
100
AcDbPolyline
 90
        9
 70
   128
 43
0.0
 10
53.0000547900917
 20
0.7621124213000633
 10
53.49094451196901
 20
0.784362206204187
 10
53.94051898765651
 20
0.7717085203392885
 10
54.34338173545841
 20
0.7243032526311122
 10
54.69469697940877
 20
0.6427154337371032
 10
54.99024769566401
 20
0.5279244056685889
 10
55.22648623168448
 20
0.3813080662274076
 10
55.40057689059584
 20
0.2046263293652765
 10
55.51042996956793
 20
-0.0000000000000012
  0
ARC
  5
BF
330
1F
100
AcDbEntity
  8
0
  6
Continuous
 62
     1
370
    15
100
AcDbCircle
 10
47.37946276734763
 20
0.0003600349303955
 30
0.0
 40
5.671976849765366
100
AcDbArc
 50
1.553284275679198
 51
7.718204336909254
  0
SPLINE
  5
C0
330
1F
100
AcDbEntity
  8
0
  6
Continuous
 62
     1
370
    15
100
AcDbSpline
210
0.0
220
0.0
230
1.0
 70
     8
 71
     3
 72
    36
 73
    32
 74
     0
 42
0.000000001
 43
0.00000001
 40
0.0
 40
0.0
 40
0.0
 40
0.0
 40
0.1249999999999993
 40
0.1249999999999993
 40
0.1874999999999988
 40
0.1874999999999988
 40
0.2499999999999983
 40
0.2499999999999983
 40
0.3749999999999989
 40
0.3749999999999989
 40
0.4374999999999993
 40
0.4374999999999993
 40
0.4999999999999996
 40
0.4999999999999996
 40
0.5624999999999999
 40
0.5624999999999999
 40
0.625
 40
0.625
 40
0.6875000000000002
 40
0.6875000000000002
 40
0.7187500000000003
 40
0.7187500000000003
 40
0.7500000000000004
 40
0.7500000000000004
 40
0.8125000000000004
 40
0.8125000000000004
 40
0.8750000000000003
 40
0.8750000000000003
 40
0.9375000000000001
 40
0.9375000000000001
 40
1.0
 40
1.0
 40
1.0
 40
1.0
 10
49.2125
 20
5.455754655404773
 30
0.0
 10
49.55674747828196
 20
5.323230675993899
 30
0.0
 10
49.89099104874508
 20
5.152686956156628
 30
0.0
 10
50.38966531681665
 20
4.849950570739558
 30
0.0
 10
50.55543399033029
 20
4.741156717380404
 30
0.0
 10
50.88782332426771
 20
4.508583448508435
 30
0.0
 10
51.05375794565891
 20
4.385205982223567
 30
0.0
 10
51.54484017315416
 20
4.00300503287927
 30
0.0
 10
51.86591851954599
 20
3.729294298262729
 30
0.0
 10
52.35582380522568
 20
3.305219742078938
 30
0.0
 10
52.51704796423522
 20
3.164626834105501
 30
0.0
 10
52.83800032973983
 20
2.889214226662293
 30
0.0
 10
52.99884752341148
 20
2.753380265050362
 30
0.0
 10
53.31764213507439
 20
2.498082794297724
 30
0.0
 10
53.47331654356097
 20
2.380256143124101
 30
0.0
 10
53.78009808716553
 20
2.175853027145769
 30
0.0
 10
53.92843918450229
 20
2.091689217636531
 30
0.0
 10
54.20422930956614
 20
1.984637561374908
 30
0.0
 10
54.32972833345955
 20
1.963396887134477
 30
0.0
 10
54.48290831597818
 20
1.995032931579246
 30
0.0
 10
54.52711095982194
 20
2.015664070835369
 30
0.0
 10
54.60215733766772
 20
2.076533016132622
 30
0.0
 10
54.6330112062512
 20
2.117314649841095
 30
0.0
 10
54.70194300861914
 20
2.261841889920908
 30
0.0
 10
54.71800574690977
 20
2.390485978012256
 30
0.0
 10
54.70112069114633
 20
2.672348328255597
 30
0.0
 10
54.66839494700138
 20
2.828914093978026
 30
0.0
 10
54.56839670926745
 20
3.144681532452685
 30
0.0
 10
54.50133223499925
 20
3.304810699474712
 30
0.0
 10
54.33989372491379
 20
3.622922008491785
 30
0.0
 10
54.24504710107273
 20
3.781246870918115
 30
0.0
 10
54.14087870446733
 20
3.932724433265841
 30
0.0
  0
ARC
  5
C1
330
1F
100
AcDbEntity
  8
0
  6
Continuous
 62
     1
370
    15
100
AcDbCircle
 10
49.31491067707857
 20
-0.0459356790927902
 30
0.0
 40
6.254574621111532
100
AcDbArc
 50
7.879716539226816
 51
39.50310359653237
  0
ARC
  5
C2
330
1F
100
AcDbEntity
  8
0
  6
Continuous
 62
     1
370
    15
100
AcDbCircle
 10
48.91017033585275
 20
-0.3177774943222915
 30
0.0
 40
6.739963051851223
100
AcDbArc
 50
39.21099534214792
 51
52.64071916549195
  0
SPLINE
  5
C3
330
1F
100
AcDbEntity
  8
0
  6
Continuous
 62
     1
370
    15
100
AcDbSpline
210
0.0
220
0.0
230
1.0
 70
     8
 71
     3
 72
    14
 73
    10
 74
     0
 42
0.000000001
 43
0.00000001
 40
0.0
 40
0.0
 40
0.0
 40
0.0
 40
0.25
 40
0.25
 40
0.5
 40
0.5
 40
0.75
 40
0.75
 40
1.0
 40
1.0
 40
1.0
 40
1.0
 10
53.0493554406688
 20
5.057399631355245
 30
0.0
 10
52.76574066594797
 20
5.266231839974949
 30
0.0
 10
52.46619654223621
 20
5.437899844181414
 30
0.0
 10
51.84278814849365
 20
5.703415122230101
 30
0.0
 10
51.5152089209887
 20
5.797230707600717
 30
0.0
 10
50.86118940078644
 20
5.897680268386728
 30
0.0
 10
50.53312982416819
 20
5.905889306295562
 30
0.0
 10
49.87188588724837
 20
5.839172499380868
 30
0.0
 10
49.54095371206155
 20
5.763835061893441
 30
0.0
 10
49.21250000000001
 20
5.651133229099208
 30
0.0
  0
ARC
  5
C4
330
1F
100
AcDbEntity
  8
0
  6
Continuous
 62
     1
370
    15
100
AcDbCircle
 10
49.13924862134276
 20
0.1121817069751782
 30
0.0
 40
6.437794020793371
100
AcDbArc
 50
306.8490942297367
 51
351.7505934298742
  0
LINE
  5
C5
330
1F
100
AcDbEntity
  8
0
  6
Continuous
 62
     1
370
    15
100
AcDbLine
 10
53.0000547900917
 20
-5.039455662008884
 30
0.0
 11
53.0493554406861
 21
-5.057399631355198
 31
0.0
  0
ARC
  5
C6
330
1F
100
AcDbEntity
  8
0
  6
Continuous
 62
     1
370
    15
100
AcDbCircle
 10
54.20101668391486
 20
0.7592495026916021
 30
0.0
 40
1.513612552796203
100
AcDbArc
 50
267.7229578388088
 51
329.8931498615877
  0
SPLINE
  5
C7
330
1F
100
AcDbEntity
  8
0
  6
Continuous
 62
     1
370
    15
100
AcDbSpline
210
0.0
220
0.0
230
1.0
 70
     8
 71
     3
 72
    12
 73
     8
 74
     0
 42
0.000000001
 43
0.00000001
 40
0.0
 40
0.0
 40
0.0
 40
0.0
 40
0.25
 40
0.25
 40
0.5
 40
0.5
 40
0.5058953850389235
 40
0.5058953850389235
 40
0.5058953850389235
 40
0.5058953850389235
 10
49.2125
 20
5.45575465540477
 30
0.0
 10
48.89424568569713
 20
5.57827211989451
 30
0.0
 10
48.57513492674813
 20
5.689225484427008
 30
0.0
 10
47.94129786940667
 20
5.885983187095881
 30
0.0
 10
47.62577943498292
 20
5.971931776842307
 30
0.0
 10
47.29999502122737
 20
6.046951360346693
 30
0.0
 10
47.29248906323227
 20
6.048672522613836
 30
0.0
 10
47.28498269403666
 20
6.050386519488802
 30
0.0
  0
LINE
  5
C9
330
1F
100
AcDbEntity
  8
0
  6
Continuous
 62
     1
370
    15
100
AcDbLine
 10
48.95242395637106
 20
5.545035007493988
 30
0.0
 11
49.21250000000001
 21
5.651133229099207
 31
0.0
  0
SPLINE
  5
CA
330
1F
100
AcDbEntity
  8
0
  6
Continuous
 62
     1
370
    15
100
AcDbSpline
210
0.0
220
0.0
230
1.0
 70
    24
 71
     3
 72
     8
 73
     4
 74
     0
 42
0.000000001
 43
0.00000001
 40
0.0
 40
0.0
 40
0.0
 40
0.0
 40
1.0
 40
1.0
 40
1.0
 40
1.0
 10
52.44449743222242
 20
4.8372493203169
 30
0.0
 10
52.64868213924598
 20
4.911566475965838
 30
0.0
 10
52.8503808405232
 20
4.984978799520897
 30
0.0
 10
53.04935544068611
 20
5.057399631355216
 30
0.0
  0
SPLINE
  5
CB
330
1F
100
AcDbEntity
  8
0
  6
Continuous
 62
     1
370
    15
100
AcDbSpline
210
0.0
220
0.0
230
1.0
 70
     8
 71
     3
 72
    10
 73
     6
 74
     0
 42
0.000000001
 43
0.00000001
 40
0.0
 40
0.0
 40
0.0
 40
0.0
 40
0.5
 40
0.5
 40
1.0
 40
1.0
 40
1.0
 40
1.0
 10
52.4444974322227
 20
4.837249320316696
 30
0.0
 10
52.4605664235332
 20
4.665965843072859
 30
0.0
 10
52.46125703182513
 20
4.494292790573064
 30
0.0
 10
52.42036798974843
 20
4.162883211925498
 30
0.0
 10
52.37780915304901
 20
4.000853033829872
 30
0.0
 10
52.31052152860387
 20
3.855234190985361
 30
0.0
  0
SPLINE
  5
CC
330
1F
100
AcDbEntity
  8
0
  6
Continuous
 62
     1
370
    15
100
AcDbSpline
210
0.0
220
0.0
230
1.0
 70
     8
 71
     3
 72
     8
 73
     4
 74
     0
 42
0.000000001
 43
0.00000001
 40
0.0
 40
0.0
 40
0.0
 40
0.0
 40
1.0
 40
1.0
 40
1.0
 40
1.0
 10
54.14087870446728
 20
3.932724433265811
 30
0.0
 10
53.53058463372938
 20
3.907810259941621
 30
0.0
 10
52.91957318109274
 20
3.886715201526147
 30
0.0
 10
52.31052152860387
 20
3.855234190985361
 30
0.0
  0
LINE
  5
CD
330
1F
100
AcDbEntity
  8
0
  6
Continuous
 62
     1
370
    15
100
AcDbLine
 10
52.31052152860386
 20
-0.0000000000000336
 30
0.0
 11
55.51042996956793
 21
-0.0000000000000012
 31
0.0
  0
LINE
  5
CE
330
1F
100
AcDbEntity
  8
중심선
100
AcDbLine
 10
-62.17501249999999
 20
0.0000000000000035
 30
0.0
 11
64.82366988838447
 21
0.0000000000000027
 31
0.0
  0
CIRCLE
  5
CF
330
1F
100
AcDbEntity
  8
외형선
100
AcDbCircle
 10
0.0000000000000104
 20
0.0
 30
0.0
 40
3.000000000000005
  0
INSERT
  5
D0
330
1F
100
AcDbEntity
  8
0
  6
Continuous
 62
     7
100
AcDbBlockReference
 66
     1
  2
블럭10
 10
-22.93944368806589
 20
-52.04609937292004
 30
0.0
  0
ATTRIB
  5
D1
330
D0
100
AcDbEntity
  8
FORMAT
 62
     2
100
AcDbText
 10
-33.08107970020252
 20
-49.97073246008785
 30
0.0
 40
4.233333333333333
  1
EM097032 [ 4 FLUTE ]
 41
0.75
  7
SLDTEXTSTYLE0
 11
-33.08107970020252
 21
-52.08739912675452
 31
0.0
100
AcDbAttribute
  2
AUTOATTR0
 70
     0
 74
     1
  0
SEQEND
  5
D2
330
D0
100
AcDbEntity
  8
0
  6
Continuous
 62
     7
  0
HATCH
  5
D3
330
1F
100
AcDbEntity
  8
중심선
100
AcDbHatch
 10
0.0
 20
0.0
 30
0.0
210
0.0
220
0.0
230
1.0
  2
SOLID
 70
     1
 71
     0
 91
        1
 92
        0
 93
        4
 72
     1
 10
-17.22453438368504
 20
-35.7989250712761
 11
-20.67080962752232
 21
-35.7989250712761
 72
     1
 10
-20.67080962752232
 20
-35.7989250712761
 11
-22.79903948672635
 21
-38.3352506518487
 72
     1
 10
-22.79903948672635
 20
-38.3352506518487
 11
-19.35273115777591
 21
-38.33521122254621
 72
     1
 10
-19.35273115777591
 20
-38.33521122254621
 11
-17.22453438368504
 21
-35.7989250712761
 97
        0
 75
     0
 76
     1
 98
        1
 10
0.0
 20
0.0
  0
HATCH
  5
D4
330
1F
100
AcDbEntity
  8
중심선
100
AcDbHatch
 10
0.0
 20
0.0
 30
0.0
210
0.0
220
0.0
230
1.0
  2
SOLID
 70
     1
 71
     0
 91
        1
 92
        0
 93
        4
 72
     1
 10
-12.21177039264909
 20
-35.7989250712761
 11
-15.65804563648637
 21
-35.7989250712761
 72
     1
 10
-15.65804563648637
 20
-35.7989250712761
 11
-20.18918364484376
 21
-41.19892507127612
 72
     1
 10
-20.18918364484376
 20
-41.19892507127612
 11
-16.74290840100648
 21
-41.19892507127612
 72
     1
 10
-16.74290840100648
 20
-41.19892507127612
 11
-12.21177039264909
 21
-35.7989250712761
 97
        0
 75
     0
 76
     1
 98
        1
 10
0.0
 20
0.0
  0
HATCH
  5
D5
330
1F
100
AcDbEntity
  8
중심선
100
AcDbHatch
 10
0.0
 20
0.0
 30
0.0
210
0.0
220
0.0
230
1.0
  2
SOLID
 70
     1
 71
     0
 91
        1
 92
        0
 93
        4
 72
     1
 10
-7.199006401613195
 20
-35.79892507127613
 11
-10.64528164545031
 21
-35.7989250712761
 72
     1
 10
-10.64528164545031
 20
-35.7989250712761
 11
-17.69371854733956
 21
-44.19892507127612
 72
     1
 10
-17.69371854733956
 20
-44.19892507127612
 11
-14.24744330350228
 21
-44.19892507127612
 72
     1
 10
-14.24744330350228
 20
-44.19892507127612
 11
-7.199006401613195
 21
-35.79892507127613
 97
        0
 75
     0
 76
     1
 98
        1
 10
0.0
 20
0.0
  0
HATCH
  5
D6
330
1F
100
AcDbEntity
  8
중심선
100
AcDbHatch
 10
0.0
 20
0.0
 30
0.0
210
0.0
220
0.0
230
1.0
  2
SOLID
 70
     1
 71
     0
 91
        1
 92
        0
 93
        6
 72
     3
 10
-2.399115970600996
 20
-39.99892507132738
 11
3.960054785062284
 21
1.540850780301639E-10
 40
0.3939339440162633
 50
17.09539180608433
 51
320.0019657685079
 73
     0
 72
     1
 10
-0.7161163149004002
 20
-38.58681907591441
 11
1.589185558800638
 21
-36.65249236586649
 72
     3
 10
-2.399115970653842
 20
-39.99892507127625
 11
6.600054785286829
 21
-1.249000902703301E-13
 40
0.6363583540795982
 50
39.99873849337408
 51
368.4976242363725
 73
     1
 72
     1
 10
4.026216521246767
 20
-39.03892507120613
 11
-3.71904866381792
 21
-39.0389250712061
 72
     1
 10
-3.71904866381792
 20
-39.0389250712061
 11
-3.719073708263854
 21
-40.95892507120602
 72
     1
 10
-3.719073708263854
 20
-40.95892507120602
 11
0.7223060612081831
 21
-40.95892507120599
 97
        0
 75
     0
 76
     1
 98
        1
 10
0.0
 20
0.0
  0
DIMENSION
  5
D7
330
1F
100
AcDbEntity
  8
치수문자_일반주서
100
AcDbDimension
  2
_D
 10
-74.1975
 20
-6.350000000000076
 30
0.0
 11
-74.19750000000002
 21
-3.601109607791913
 31
0.0
 70
   160
  1
%%c<>
 71
     2
 42
12.7
 52
-270.0
  3
SLDDIMSTYLE0
100
AcDbAlignedDimension
 13
-51.3875
 23
6.350000000000005
 33
0.0
 14
-51.3875
 24
-6.349999999999991
 34
0.0
 50
90.0000000000002
100
AcDbRotatedDimension
1001
ACAD
1000
DSTYLE
1002
{
1070
   171
1070
     6
1070
   273
1070
     7
1002
}
  0
INSERT
  5
FE
330
1F
100
AcDbEntity
  8
외형선
100
AcDbBlockReference
  2
SW_DOWELSYMBOL_0
 10
0.0000000000000104
 20
0.0
 30
0.0
  0
CIRCLE
  5
126
330
1F
100
AcDbEntity
  8
0
100
AcDbCircle
 10
43.38883011161555
 20
0.001074928723888
 30
0.0
 40
0.0
  0
ARC
  5
127
330
1F
100
AcDbEntity
  8
0
  6
Continuous
 62
     1
370
    15
100
AcDbCircle
 10
49.21250000000001
 20
0.0000000000000018
 30
0.0
 40
6.35
100
AcDbArc
 50
233.1301023541561
 51
126.9579901032744
  0
LINE
  5
128
330
1F
100
AcDbEntity
  8
0
 62
     4
100
AcDbLine
 10
45.4025
 20
-5.079999999999997
 30
0.0
 11
45.4025
 21
5.08
 31
0.0
  0
LINE
  5
129
330
1F
100
AcDbEntity
  8
0
 62
     4
100
AcDbLine
 10
45.4024999999999
 20
5.073933965983505
 30
0.0
 11
0.0
 21
6.350000000000005
 31
0.0
  0
LINE
  5
12A
330
1F
100
AcDbEntity
  8
0
 62
     4
100
AcDbLine
 10
0.0
 20
-6.349999999999991
 30
0.0
 11
45.4025
 21
-5.079999999999996
 31
0.0
  0
DIMENSION
  5
12D
102
{ACAD_XDICTIONARY
360
12E
102
}
330
1F
100
AcDbEntity
  8
치수문자_일반주서
100
AcDbDimension
  2
*D5
 10
77.30629048026417
 20
6.350000000000001
 30
0.0
 11
74.68129048026417
 21
24.98525
 31
0.0
 70
    32
 71
     5
 42
12.7
  3
SLDDIMSTYLE0
100
AcDbAlignedDimension
 13
55.43606634618403
 23
-6.349999999999998
 33
0.0
 14
55.56250000000001
 24
6.350000000000001
 34
0.0
 50
90.0
100
AcDbRotatedDimension
1001
ACAD
1000
DSTYLE
1002
{
1070
   171
1070
     6
1070
   273
1070
     7
1002
}
  0
DIMENSION
  5
13E
102
{ACAD_XDICTIONARY
360
13F
102
}
330
1F
100
AcDbEntity
  8
치수문자_일반주서
100
AcDbDimension
  2
*D6
 10
45.4025
 20
39.49986780219719
 30
0.0
 11
26.76725
 21
42.12486780219719
 31
0.0
 70
    32
 71
     5
 42
10.16
  3
SLDDIMSTYLE0
100
AcDbAlignedDimension
 13
55.56250000000001
 23
6.350000000000001
 33
0.0
 14
45.4025
 24
5.073933965983466
 34
0.0
100
AcDbRotatedDimension
1001
ACAD
1000
DSTYLE
1002
{
1070
   171
1070
     2
1070
   273
1070
     2
1002
}
  0
DIMENSION
  5
15D
102
{ACAD_REACTORS
102
}
102
{ACAD_XDICTIONARY
360
15E
102
}
330
1F
100
AcDbEntity
  8
치수문자_일반주서
100
AcDbDimension
  2
*D8
 10
-52.3875
 20
75.15652666185125
 30
0.0
 11
1.587500000000006
 21
77.78152666185125
 31
0.0
 70
    32
 71
     5
 42
107.95
  3
SLDDIMSTYLE0
100
AcDbAlignedDimension
 13
55.56250000000001
 23
6.350000000000001
 33
0.0
 14
-52.3875
 24
5.350000000000002
 34
0.0
100
AcDbRotatedDimension
1001
ACAD
1000
DSTYLE
1002
{
1070
   171
1070
     6
1070
   273
1070
     7
1002
}
  0
SPLINE
  5
16D
330
1F
100
AcDbEntity
  8
0
 62
     4
100
AcDbSpline
210
0.0
220
0.0
230
1.0
 70
     8
 71
     3
 72
     8
 73
     4
 74
     0
 42
0.000000001
 43
0.00000001
 40
0.9236140717015122
 40
0.9236140717015122
 40
0.9236140717015122
 40
0.9236140717015122
 40
1.0
 40
1.0
 40
1.0
 40
1.0
 10
41.87640927839976
 20
5.165245363829666
 30
0.0
 10
41.78180384832418
 20
5.114890981964342
 30
0.0
 10
41.68728830421229
 20
5.059227846536229
 30
0.0
 10
41.59249999999999
 20
4.997742292156185
 30
0.0
  0
LINE
  5
16E
102
{ACAD_REACTORS
102
}
330
1F
100
AcDbEntity
  8
0
 62
     4
100
AcDbLine
 10
0.0
 20
-6.349999999999996
 30
0.0
 11
0.0
 21
6.349999999999996
 31
0.0
  0
DIMENSION
  5
16F
102
{ACAD_REACTORS
102
}
102
{ACAD_XDICTIONARY
360
170
102
}
330
1F
100
AcDbEntity
  8
치수문자_일반주서
100
AcDbDimension
  2
*D9
 10
0.0
 20
57.50991283096303
 30
0.0
 11
27.78125
 21
60.13491283096303
 31
0.0
 70
    32
 71
     5
 42
55.56250000000001
  3
SLDDIMSTYLE0
100
AcDbAlignedDimension
 13
55.56250000000001
 23
6.412500000000001
 33
0.0
 14
0.0
 24
6.349999999999996
 34
0.0
100
AcDbRotatedDimension
1001
ACAD
1000
DSTYLE
1002
{
1070
   171
1070
     6
1070
   273
1070
     7
1002
}
  0
ENDSEC
  0
SECTION
  2
OBJECTS
  0
DICTIONARY
  5
C
330
0
100
AcDbDictionary
281
     1
  3
ACAD_GROUP
350
D
  3
ACAD_IMAGE_VARS
350
122
  3
ACAD_LAYOUT
350
1A
  3
ACAD_MLINESTYLE
350
17
  3
ACAD_PLOTSETTINGS
350
19
  3
ACAD_PLOTSTYLENAME
350
E
  3
ACAD_SCALELIST
350
47
  3
APPDATA
350
120
  3
DWGPROPS
350
17E
  0
DICTIONARY
  5
12E
330
12D
100
AcDbDictionary
280
     1
281
     1
  0
DICTIONARY
  5
13F
330
13E
100
AcDbDictionary
280
     1
281
     1
  0
DICTIONARY
  5
15E
330
15D
100
AcDbDictionary
280
     1
281
     1
  0
DICTIONARY
  5
170
330
16F
100
AcDbDictionary
280
     1
281
     1
  0
DICTIONARY
  5
D
102
{ACAD_REACTORS
330
C
102
}
330
C
100
AcDbDictionary
281
     1
  0
RASTERVARIABLES
  5
122
102
{ACAD_REACTORS
330
C
102
}
330
C
100
AcDbRasterVariables
 90
        0
 70
     1
 71
     1
 72
     1
  0
DICTIONARY
  5
1A
102
{ACAD_REACTORS
330
C
102
}
330
C
100
AcDbDictionary
281
     1
  3
Layout1
350
1E
  3
Layout2
350
26
  3
Model
350
22
  0
DICTIONARY
  5
17
102
{ACAD_REACTORS
330
C
102
}
330
C
100
AcDbDictionary
281
     1
  3
Standard
350
18
  0
DICTIONARY
  5
19
102
{ACAD_REACTORS
330
C
102
}
330
C
100
AcDbDictionary
281
     1
  0
ACDBDICTIONARYWDFLT
  5
E
102
{ACAD_REACTORS
330
C
102
}
330
C
100
AcDbDictionary
281
     1
  3
Normal
350
F
100
AcDbDictionaryWithDefault
340
F
  0
DICTIONARY
  5
47
102
{ACAD_REACTORS
330
C
102
}
330
C
100
AcDbDictionary
281
     1
  3
A0
350
48
  3
A1
350
49
  3
A2
350
4A
  3
A3
350
4B
  3
A4
350
4C
  3
A5
350
4D
  3
A6
350
4E
  3
A7
350
4F
  3
A8
350
50
  3
A9
350
51
  3
B0
350
52
  3
B1
350
53
  3
B2
350
54
  3
B3
350
55
  3
B4
350
56
  3
B5
350
57
  3
B6
350
58
  3
B7
350
59
  3
B8
350
5A
  3
B9
350
5B
  3
C0
350
5C
  3
C1
350
5D
  3
C2
350
5E
  3
C3
350
5F
  3
C4
350
60
  3
C5
350
61
  3
C6
350
62
  3
C7
350
63
  3
C8
350
64
  3
C9
350
65
  3
D0
350
66
  3
D1
350
67
  3
D2
350
68
  0
DICTIONARY
  5
120
102
{ACAD_REACTORS
330
C
102
}
330
C
100
AcDbDictionary
281
     1
  0
XRECORD
  5
17E
102
{ACAD_REACTORS
330
C
102
}
330
C
100
AcDbXrecord
280
     1
  1
DWGPROPS COOKIE
  2

  3

  4

  6

  7

  8
12015048
  9

300
=
301
=
302
=
303
=
304
=
305
=
306
=
307
=
308
=
309
=
 40
0.0
 41
2458272.313617662
 42
2458297.241284004
  1

 90
        0
  0
LAYOUT
  5
1E
102
{ACAD_REACTORS
330
1A
102
}
330
1A
100
AcDbPlotSettings
  1

  2
none_device
  4

  6

 40
0.0
 41
0.0
 42
0.0
 43
0.0
 44
0.0
 45
0.0
 46
0.0
 47
0.0
 48
0.0
 49
0.0
140
0.0
141
0.0
142
1.0
143
1.0
 70
   688
 72
     1
 73
     0
 74
     5
  7

 75
    16
147
1.0
148
0.0
149
0.0
100
AcDbLayout
  1
Layout1
 70
     1
 71
     1
 10
0.0
 20
0.0
 11
420.0
 21
297.0
 12
0.0
 22
0.0
 32
0.0
 14
1.000000000000000E+20
 24
1.000000000000000E+20
 34
1.000000000000000E+20
 15
-1.000000000000000E+20
 25
-1.000000000000000E+20
 35
-1.000000000000000E+20
146
0.0
 13
0.0
 23
0.0
 33
0.0
 16
1.0
 26
0.0
 36
0.0
 17
0.0
 27
1.0
 37
0.0
 76
     0
330
1B
  0
LAYOUT
  5
26
102
{ACAD_REACTORS
330
1A
102
}
330
1A
100
AcDbPlotSettings
  1

  2
none_device
  4

  6

 40
0.0
 41
0.0
 42
0.0
 43
0.0
 44
0.0
 45
0.0
 46
0.0
 47
0.0
 48
0.0
 49
0.0
140
0.0
141
0.0
142
1.0
143
1.0
 70
   688
 72
     1
 73
     0
 74
     5
  7

 75
    16
147
1.0
148
0.0
149
0.0
100
AcDbLayout
  1
Layout2
 70
     1
 71
     2
 10
0.0
 20
0.0
 11
0.0
 21
0.0
 12
0.0
 22
0.0
 32
0.0
 14
0.0
 24
0.0
 34
0.0
 15
0.0
 25
0.0
 35
0.0
146
0.0
 13
0.0
 23
0.0
 33
0.0
 16
1.0
 26
0.0
 36
0.0
 17
0.0
 27
1.0
 37
0.0
 76
     0
330
23
  0
LAYOUT
  5
22
102
{ACAD_REACTORS
330
1A
102
}
330
1A
100
AcDbPlotSettings
  1

  2
none_device
  4
ANSI_A_(11.00_x_8.50_Inches)
  6

 40
6.35
 41
19.05
 42
6.35000508
 43
19.05000254
 44
279.4
 45
215.9
 46
173.7677127623247
 47
125.6357616564422
 48
0.0
 49
0.0
140
0.0
141
0.0
142
0.0774797347947723
143
1.0
 70
  1696
 72
     0
 73
     0
 74
     0
  7

 75
     0
147
0.0235690232323232
148
0.0
149
0.0
100
AcDbLayout
  1
Model
 70
     1
 71
     0
 10
0.0
 20
0.0
 11
420.0
 21
297.0
 12
0.0
 22
0.0
 32
0.0
 14
-78.57250000000006
 24
-49.97073246008785
 34
0.0
 15
77.85662381359747
 25
79.53152666185125
 35
0.0
146
0.0
 13
0.0
 23
0.0
 33
0.0
 16
1.0
 26
0.0
 36
0.0
 17
0.0
 27
1.0
 37
0.0
 76
     0
330
1F
331
29
  0
MLINESTYLE
  5
18
102
{ACAD_REACTORS
330
17
102
}
330
17
100
AcDbMlineStyle
  2
Standard
 70
     0
  3

 62
   256
 51
90.0
 52
90.0
 71
     2
 49
0.5
 62
   256
  6
BYLAYER
 49
-0.5
 62
   256
  6
BYLAYER
  0
ACDBPLACEHOLDER
  5
F
102
{ACAD_REACTORS
330
E
102
}
330
E
  0
SCALE
  5
48
102
{ACAD_REACTORS
330
47
102
}
330
47
100
AcDbScale
 70
     0
300
1:1
140
1.0
141
1.0
290
     1
  0
SCALE
  5
49
102
{ACAD_REACTORS
330
47
102
}
330
47
100
AcDbScale
 70
     0
300
1:2
140
1.0
141
2.0
290
     0
  0
SCALE
  5
4A
102
{ACAD_REACTORS
330
47
102
}
330
47
100
AcDbScale
 70
     0
300
1:4
140
1.0
141
4.0
290
     0
  0
SCALE
  5
4B
102
{ACAD_REACTORS
330
47
102
}
330
47
100
AcDbScale
 70
     0
300
1:5
140
1.0
141
5.0
290
     0
  0
SCALE
  5
4C
102
{ACAD_REACTORS
330
47
102
}
330
47
100
AcDbScale
 70
     0
300
1:8
140
1.0
141
8.0
290
     0
  0
SCALE
  5
4D
102
{ACAD_REACTORS
330
47
102
}
330
47
100
AcDbScale
 70
     0
300
1:10
140
1.0
141
10.0
290
     0
  0
SCALE
  5
4E
102
{ACAD_REACTORS
330
47
102
}
330
47
100
AcDbScale
 70
     0
300
1:16
140
1.0
141
16.0
290
     0
  0
SCALE
  5
4F
102
{ACAD_REACTORS
330
47
102
}
330
47
100
AcDbScale
 70
     0
300
1:20
140
1.0
141
20.0
290
     0
  0
SCALE
  5
50
102
{ACAD_REACTORS
330
47
102
}
330
47
100
AcDbScale
 70
     0
300
1:30
140
1.0
141
30.0
290
     0
  0
SCALE
  5
51
102
{ACAD_REACTORS
330
47
102
}
330
47
100
AcDbScale
 70
     0
300
1:40
140
1.0
141
40.0
290
     0
  0
SCALE
  5
52
102
{ACAD_REACTORS
330
47
102
}
330
47
100
AcDbScale
 70
     0
300
1:50
140
1.0
141
50.0
290
     0
  0
SCALE
  5
53
102
{ACAD_REACTORS
330
47
102
}
330
47
100
AcDbScale
 70
     0
300
1:100
140
1.0
141
100.0
290
     0
  0
SCALE
  5
54
102
{ACAD_REACTORS
330
47
102
}
330
47
100
AcDbScale
 70
     0
300
2:1
140
2.0
141
1.0
290
     0
  0
SCALE
  5
55
102
{ACAD_REACTORS
330
47
102
}
330
47
100
AcDbScale
 70
     0
300
4:1
140
4.0
141
1.0
290
     0
  0
SCALE
  5
56
102
{ACAD_REACTORS
330
47
102
}
330
47
100
AcDbScale
 70
     0
300
8:1
140
8.0
141
1.0
290
     0
  0
SCALE
  5
57
102
{ACAD_REACTORS
330
47
102
}
330
47
100
AcDbScale
 70
     0
300
10:1
140
10.0
141
1.0
290
     0
  0
SCALE
  5
58
102
{ACAD_REACTORS
330
47
102
}
330
47
100
AcDbScale
 70
     0
300
100:1
140
100.0
141
1.0
290
     0
  0
SCALE
  5
59
102
{ACAD_REACTORS
330
47
102
}
330
47
100
AcDbScale
 70
     0
300
1/128" = 1'-0"
140
0.0078125
141
12.0
290
     0
  0
SCALE
  5
5A
102
{ACAD_REACTORS
330
47
102
}
330
47
100
AcDbScale
 70
     0
300
1/64" = 1'-0"
140
0.015625
141
12.0
290
     0
  0
SCALE
  5
5B
102
{ACAD_REACTORS
330
47
102
}
330
47
100
AcDbScale
 70
     0
300
1/32" = 1'-0"
140
0.03125
141
12.0
290
     0
  0
SCALE
  5
5C
102
{ACAD_REACTORS
330
47
102
}
330
47
100
AcDbScale
 70
     0
300
1/16" = 1'-0"
140
0.0625
141
12.0
290
     0
  0
SCALE
  5
5D
102
{ACAD_REACTORS
330
47
102
}
330
47
100
AcDbScale
 70
     0
300
3/32" = 1'-0"
140
0.09375
141
12.0
290
     0
  0
SCALE
  5
5E
102
{ACAD_REACTORS
330
47
102
}
330
47
100
AcDbScale
 70
     0
300
1/8" = 1'-0"
140
0.125
141
12.0
290
     0
  0
SCALE
  5
5F
102
{ACAD_REACTORS
330
47
102
}
330
47
100
AcDbScale
 70
     0
300
3/16" = 1'-0"
140
0.1875
141
12.0
290
     0
  0
SCALE
  5
60
102
{ACAD_REACTORS
330
47
102
}
330
47
100
AcDbScale
 70
     0
300
1/4" = 1'-0"
140
0.25
141
12.0
290
     0
  0
SCALE
  5
61
102
{ACAD_REACTORS
330
47
102
}
330
47
100
AcDbScale
 70
     0
300
3/8" = 1'-0"
140
0.375
141
12.0
290
     0
  0
SCALE
  5
62
102
{ACAD_REACTORS
330
47
102
}
330
47
100
AcDbScale
 70
     0
300
1/2" = 1'-0"
140
0.5
141
12.0
290
     0
  0
SCALE
  5
63
102
{ACAD_REACTORS
330
47
102
}
330
47
100
AcDbScale
 70
     0
300
3/4" = 1'-0"
140
0.75
141
12.0
290
     0
  0
SCALE
  5
64
102
{ACAD_REACTORS
330
47
102
}
330
47
100
AcDbScale
 70
     0
300
1" = 1'-0"
140
1.0
141
12.0
290
     0
  0
SCALE
  5
65
102
{ACAD_REACTORS
330
47
102
}
330
47
100
AcDbScale
 70
     0
300
1-1/2" = 1'-0"
140
1.5
141
12.0
290
     0
  0
SCALE
  5
66
102
{ACAD_REACTORS
330
47
102
}
330
47
100
AcDbScale
 70
     0
300
3" = 1'-0"
140
3.0
141
12.0
290
     0
  0
SCALE
  5
67
102
{ACAD_REACTORS
330
47
102
}
330
47
100
AcDbScale
 70
     0
300
6" = 1'-0"
140
6.0
141
12.0
290
     0
  0
SCALE
  5
68
102
{ACAD_REACTORS
330
47
102
}
330
47
100
AcDbScale
 70
     0
300
1'-0" = 1'-0"
140
12.0
141
12.0
290
     0
  0
ENDSEC
  0
EOF
