  0
SECTION
  2
HEADER
  9
$ACADVER
  1
AC1015
  9
$ACADMAINTVER
 70
     6
  9
$DWGCODEPAGE
  3
ANSI_949
  9
$INSBASE
 10
0.0
 20
0.0
 30
0.0
  9
$EXTMIN
 10
-115.0850000000001
 20
-49.97073246008785
 30
0.0
  9
$EXTMAX
 10
83.81579501501272
 20
84.60034652808785
 30
0.0
  9
$LIMMIN
 10
0.0
 20
0.0
  9
$LIMMAX
 10
420.0
 20
297.0
  9
$ORTHOMODE
 70
     1
  9
$REGENMODE
 70
     1
  9
$FILLMODE
 70
     1
  9
$QTEXTMODE
 70
     0
  9
$MIRRTEXT
 70
     1
  9
$LTSCALE
 40
1.0
  9
$ATTMODE
 70
     1
  9
$TEXTSIZE
 40
3.5
  9
$TRACEWID
 40
1.0
  9
$TEXTSTYLE
  7
Standard
  9
$CLAYER
  8
0
  9
$CELTYPE
  6
ByLayer
  9
$CECOLOR
 62
   256
  9
$CELTSCALE
 40
1.0
  9
$DISPSILH
 70
     0
  9
$DIMSCALE
 40
1.0
  9
$DIMASZ
 40
3.302
  9
$DIMEXO
 40
1.0
  9
$DIMDLI
 40
3.75
  9
$DIMRND
 40
0.0
  9
$DIMDLE
 40
0.0
  9
$DIMEXE
 40
1.0
  9
$DIMTP
 40
0.0
  9
$DIMTM
 40
0.0
  9
$DIMTXT
 40
3.5
  9
$DIMCEN
 40
2.5
  9
$DIMTSZ
 40
0.0
  9
$DIMTOL
 70
     0
  9
$DIMLIM
 70
     0
  9
$DIMTIH
 70
     1
  9
$DIMTOH
 70
     1
  9
$DIMSE1
 70
     0
  9
$DIMSE2
 70
     0
  9
$DIMTAD
 70
     1
  9
$DIMZIN
 70
     0
  9
$DIMBLK
  1

  9
$DIMASO
 70
     1
  9
$DIMSHO
 70
     1
  9
$DIMPOST
  1

  9
$DIMAPOST
  1

  9
$DIMALT
 70
     0
  9
$DIMALTD
 70
     3
  9
$DIMALTF
 40
0.0393700787401575
  9
$DIMLFAC
 40
1.0
  9
$DIMTOFL
 70
     1
  9
$DIMTVP
 40
0.0
  9
$DIMTIX
 70
     0
  9
$DIMSOXD
 70
     0
  9
$DIMSAH
 70
     0
  9
$DIMBLK1
  1

  9
$DIMBLK2
  1

  9
$DIMSTYLE
  2
ISO-25
  9
$DIMCLRD
 70
     0
  9
$DIMCLRE
 70
     0
  9
$DIMCLRT
 70
     0
  9
$DIMTFAC
 40
1.0
  9
$DIMGAP
 40
1.524
  9
$DIMJUST
 70
     0
  9
$DIMSD1
 70
     0
  9
$DIMSD2
 70
     0
  9
$DIMTOLJ
 70
     0
  9
$DIMTZIN
 70
     0
  9
$DIMALTZ
 70
     0
  9
$DIMALTTZ
 70
     0
  9
$DIMUPT
 70
     0
  9
$DIMDEC
 70
     2
  9
$DIMTDEC
 70
     2
  9
$DIMALTU
 70
     2
  9
$DIMALTTD
 70
     3
  9
$DIMTXSTY
  7
Standard
  9
$DIMAUNIT
 70
     0
  9
$DIMADEC
 70
     2
  9
$DIMALTRND
 40
0.0
  9
$DIMAZIN
 70
     0
  9
$DIMDSEP
 70
    44
  9
$DIMATFIT
 70
     3
  9
$DIMFRAC
 70
     0
  9
$DIMLDRBLK
  1

  9
$DIMLUNIT
 70
     2
  9
$DIMLWD
 70
    -2
  9
$DIMLWE
 70
    -2
  9
$DIMTMOVE
 70
     0
  9
$LUNITS
 70
     2
  9
$LUPREC
 70
     2
  9
$SKETCHINC
 40
1.0
  9
$FILLETRAD
 40
10.0
  9
$AUNITS
 70
     0
  9
$AUPREC
 70
     2
  9
$MENU
  1
.
  9
$ELEVATION
 40
0.0
  9
$PELEVATION
 40
0.0
  9
$THICKNESS
 40
0.0
  9
$LIMCHECK
 70
     0
  9
$CHAMFERA
 40
0.0
  9
$CHAMFERB
 40
0.0
  9
$CHAMFERC
 40
0.0
  9
$CHAMFERD
 40
0.0
  9
$SKPOLY
 70
     0
  9
$TDCREATE
 40
2458272.688757407
  9
$TDUCREATE
 40
2458272.313757407
  9
$TDUPDATE
 40
2458297.622473067
  9
$TDUUPDATE
 40
2458297.247473067
  9
$TDINDWG
 40
0.0060328819
  9
$TDUSRTIMER
 40
2458297.24129794
  9
$USRTIMER
 70
     1
  9
$ANGBASE
 50
0.0
  9
$ANGDIR
 70
     0
  9
$PDMODE
 70
     0
  9
$PDSIZE
 40
-1.0
  9
$PLINEWID
 40
0.0
  9
$SPLFRAME
 70
     0
  9
$SPLINETYPE
 70
     6
  9
$SPLINESEGS
 70
     8
  9
$HANDSEED
  5
17D
  9
$SURFTAB1
 70
     6
  9
$SURFTAB2
 70
     6
  9
$SURFTYPE
 70
     6
  9
$SURFU
 70
     6
  9
$SURFV
 70
     6
  9
$UCSBASE
  2

  9
$UCSNAME
  2

  9
$UCSORG
 10
0.0
 20
0.0
 30
0.0
  9
$UCSXDIR
 10
1.0
 20
0.0
 30
0.0
  9
$UCSYDIR
 10
0.0
 20
1.0
 30
0.0
  9
$UCSORTHOREF
  2

  9
$UCSORTHOVIEW
 70
     0
  9
$UCSORGTOP
 10
0.0
 20
0.0
 30
0.0
  9
$UCSORGBOTTOM
 10
0.0
 20
0.0
 30
0.0
  9
$UCSORGLEFT
 10
0.0
 20
0.0
 30
0.0
  9
$UCSORGRIGHT
 10
0.0
 20
0.0
 30
0.0
  9
$UCSORGFRONT
 10
0.0
 20
0.0
 30
0.0
  9
$UCSORGBACK
 10
0.0
 20
0.0
 30
0.0
  9
$PUCSBASE
  2

  9
$PUCSNAME
  2

  9
$PUCSORG
 10
0.0
 20
0.0
 30
0.0
  9
$PUCSXDIR
 10
1.0
 20
0.0
 30
0.0
  9
$PUCSYDIR
 10
0.0
 20
1.0
 30
0.0
  9
$PUCSORTHOREF
  2

  9
$PUCSORTHOVIEW
 70
     0
  9
$PUCSORGTOP
 10
0.0
 20
0.0
 30
0.0
  9
$PUCSORGBOTTOM
 10
0.0
 20
0.0
 30
0.0
  9
$PUCSORGLEFT
 10
0.0
 20
0.0
 30
0.0
  9
$PUCSORGRIGHT
 10
0.0
 20
0.0
 30
0.0
  9
$PUCSORGFRONT
 10
0.0
 20
0.0
 30
0.0
  9
$PUCSORGBACK
 10
0.0
 20
0.0
 30
0.0
  9
$USERI1
 70
     0
  9
$USERI2
 70
     0
  9
$USERI3
 70
     0
  9
$USERI4
 70
     0
  9
$USERI5
 70
     0
  9
$USERR1
 40
0.0
  9
$USERR2
 40
0.0
  9
$USERR3
 40
0.0
  9
$USERR4
 40
0.0
  9
$USERR5
 40
0.0
  9
$WORLDVIEW
 70
     1
  9
$SHADEDGE
 70
     3
  9
$SHADEDIF
 70
    70
  9
$TILEMODE
 70
     1
  9
$MAXACTVP
 70
    64
  9
$PINSBASE
 10
0.0
 20
0.0
 30
0.0
  9
$PLIMCHECK
 70
     0
  9
$PEXTMIN
 10
1.000000000000000E+20
 20
1.000000000000000E+20
 30
1.000000000000000E+20
  9
$PEXTMAX
 10
-1.000000000000000E+20
 20
-1.000000000000000E+20
 30
-1.000000000000000E+20
  9
$PLIMMIN
 10
0.0
 20
0.0
  9
$PLIMMAX
 10
0.0
 20
0.0
  9
$UNITMODE
 70
     0
  9
$VISRETAIN
 70
     1
  9
$PLINEGEN
 70
     0
  9
$PSLTSCALE
 70
     1
  9
$TREEDEPTH
 70
  3020
  9
$CMLSTYLE
  2
Standard
  9
$CMLJUST
 70
     0
  9
$CMLSCALE
 40
20.0
  9
$PROXYGRAPHICS
 70
     1
  9
$MEASUREMENT
 70
     1
  9
$CELWEIGHT
370
    -1
  9
$ENDCAPS
280
     0
  9
$JOINSTYLE
280
     0
  9
$LWDISPLAY
290
     1
  9
$INSUNITS
 70
     4
  9
$HYPERLINKBASE
  1

  9
$STYLESHEET
  1

  9
$XEDIT
290
     1
  9
$CEPSNTYPE
380
     0
  9
$PSTYLEMODE
290
     1
  9
$FINGERPRINTGUID
  2
{93D97B27-560B-473E-825F-655A33B6FEB6}
  9
$VERSIONGUID
  2
{FAEB1C32-E019-11D5-929B-00C0DF256EC4}
  9
$EXTNAMES
290
     1
  9
$PSVPSCALE
 40
0.0
  9
$OLESTARTUP
290
     0
  0
ENDSEC
  0
SECTION
  2
CLASSES
  0
CLASS
  1
ACDBDICTIONARYWDFLT
  2
AcDbDictionaryWithDefault
  3
ObjectDBX Classes
 90
        0
280
     0
281
     0
  0
CLASS
  1
VISUALSTYLE
  2
AcDbVisualStyle
  3
ObjectDBX Classes
 90
     4095
280
     0
281
     0
  0
CLASS
  1
MATERIAL
  2
AcDbMaterial
  3
ObjectDBX Classes
 90
     1153
280
     0
281
     0
  0
CLASS
  1
SCALE
  2
AcDbScale
  3
ObjectDBX Classes
 90
     1153
280
     0
281
     0
  0
CLASS
  1
SUN
  2
AcDbSun
  3
SCENEOE
 90
     1153
280
     0
281
     0
  0
CLASS
  1
ACDBPLACEHOLDER
  2
AcDbPlaceHolder
  3
ObjectDBX Classes
 90
        0
280
     0
281
     0
  0
CLASS
  1
LAYOUT
  2
AcDbLayout
  3
ObjectDBX Classes
 90
        0
280
     0
281
     0
  0
CLASS
  1
TABLESTYLE
  2
AcDbTableStyle
  3
ObjectDBX Classes
 90
     4095
280
     0
281
     0
  0
CLASS
  1
MLEADERSTYLE
  2
AcDbMLeaderStyle
  3
ACDB_MLEADERSTYLE_CLASS
 90
     4095
280
     0
281
     0
  0
CLASS
  1
RASTERVARIABLES
  2
AcDbRasterVariables
  3
ISM
 90
        0
280
     0
281
     0
  0
CLASS
  1
DICTIONARYVAR
  2
AcDbDictionaryVar
  3
ObjectDBX Classes
 90
        0
280
     0
281
     0
  0
CLASS
  1
DIMASSOC
  2
AcDbDimAssoc
  3
"AcDbDimAssoc|Product Desc:     AcDim ARX App For Dimension|Company:          Autodesk, Inc.|WEB Address:      www.autodesk.com"
 90
        0
280
     0
281
     0
  0
ENDSEC
  0
SECTION
  2
TABLES
  0
TABLE
  2
VPORT
  5
8
330
0
100
AcDbSymbolTable
 70
     1
  0
VPORT
  5
29
330
8
100
AcDbSymbolTableRecord
100
AcDbViewportTableRecord
  2
*Active
 70
     0
 10
0.0
 20
0.0
 11
1.0
 21
1.0
 12
-31.4823457750107
 22
-0.3309528202891308
 13
0.0
 23
0.0
 14
10.0
 24
10.0
 15
10.0
 25
10.0
 16
0.0
 26
0.0
 36
1.0
 17
0.0
 27
0.0
 37
0.0
 40
137.031092950499
 41
2.22554347826087
 42
50.0
 43
0.0
 44
0.0
 50
0.0
 51
0.0
 71
    16
 72
  2000
 73
     1
 74
     3
 75
     0
 76
     0
 77
     0
 78
     0
281
     0
 65
     1
110
0.0
120
0.0
130
0.0
111
1.0
121
0.0
131
0.0
112
0.0
122
1.0
132
0.0
 79
     0
146
0.0
  0
ENDTAB
  0
TABLE
  2
LTYPE
  5
5
330
0
100
AcDbSymbolTable
 70
     6
  0
LTYPE
  5
14
330
5
100
AcDbSymbolTableRecord
100
AcDbLinetypeTableRecord
  2
ByBlock
 70
     0
  3

 72
    65
 73
     0
 40
0.0
  0
LTYPE
  5
15
330
5
100
AcDbSymbolTableRecord
100
AcDbLinetypeTableRecord
  2
ByLayer
 70
     0
  3

 72
    65
 73
     0
 40
0.0
  0
LTYPE
  5
16
330
5
100
AcDbSymbolTableRecord
100
AcDbLinetypeTableRecord
  2
Continuous
 70
     0
  3
Solid line
 72
    65
 73
     0
 40
0.0
  0
LTYPE
  5
6A
330
5
100
AcDbSymbolTableRecord
100
AcDbLinetypeTableRecord
  2
HIDDEN
 70
     0
  3
Hidden __ __ __ __ __ __ __ __ __ __ __ __ __ __
 72
    65
 73
     2
 40
1.905
 49
1.27
 74
     0
 49
-0.635
 74
     0
  0
LTYPE
  5
6B
330
5
100
AcDbSymbolTableRecord
100
AcDbLinetypeTableRecord
  2
PHANTOM
 70
     0
  3
Phantom ______  __  __  ______  __  __  ______
 72
    65
 73
     6
 40
12.7
 49
6.35
 74
     0
 49
-1.27
 74
     0
 49
1.27
 74
     0
 49
-1.27
 74
     0
 49
1.27
 74
     0
 49
-1.27
 74
     0
  0
LTYPE
  5
6C
330
5
100
AcDbSymbolTableRecord
100
AcDbLinetypeTableRecord
  2
CENTER
 70
     0
  3
Center ____ _ ____ _ ____ _ ____ _ ____ _ ____
 72
    65
 73
     4
 40
10.16
 49
6.35
 74
     0
 49
-1.27
 74
     0
 49
1.27
 74
     0
 49
-1.27
 74
     0
  0
LTYPE
  5
6D
330
5
100
AcDbSymbolTableRecord
100
AcDbLinetypeTableRecord
  2
CENTERX2
 70
     0
  3
Center (2x) ________  __  ________  __  _____
 72
    65
 73
     4
 40
20.32
 49
12.7
 74
     0
 49
-2.54
 74
     0
 49
2.54
 74
     0
 49
-2.54
 74
     0
  0
LTYPE
  5
6E
330
5
100
AcDbSymbolTableRecord
100
AcDbLinetypeTableRecord
  2
DOT2
 70
     0
  3
Dot (.5x) ........................................
 72
    65
 73
     2
 40
0.635
 49
0.0
 74
     0
 49
-0.635
 74
     0
  0
ENDTAB
  0
TABLE
  2
LAYER
  5
2
330
0
100
AcDbSymbolTable
 70
    17
  0
LAYER
  5
10
330
2
100
AcDbSymbolTableRecord
100
AcDbLayerTableRecord
  2
0
 70
     0
 62
     7
  6
Continuous
370
    -3
390
F
  0
LAYER
  5
6F
330
2
100
AcDbSymbolTableRecord
100
AcDbLayerTableRecord
  2
FORMAT
 70
     0
 62
     2
  6
Continuous
370
    -3
390
F
  0
LAYER
  5
70
330
2
100
AcDbSymbolTableRecord
100
AcDbLayerTableRecord
  2
외형선
 70
     0
 62
   100
  6
Continuous
370
    30
390
F
  0
LAYER
  5
71
330
2
100
AcDbSymbolTableRecord
100
AcDbLayerTableRecord
  2
숨은선
 70
     0
 62
     2
  6
HIDDEN
370
    15
390
F
  0
LAYER
  5
72
330
2
100
AcDbSymbolTableRecord
100
AcDbLayerTableRecord
  2
중심선
 70
     0
 62
     1
  6
CENTERX2
370
    -3
390
F
  0
LAYER
  5
73
330
2
100
AcDbSymbolTableRecord
100
AcDbLayerTableRecord
  2
파단선
 70
     0
 62
     4
  6
Continuous
370
    -3
390
F
  0
LAYER
  5
74
330
2
100
AcDbSymbolTableRecord
100
AcDbLayerTableRecord
  2
해칭선
 70
     0
 62
     4
  6
Continuous
370
    -3
390
F
  0
LAYER
  5
75
330
2
100
AcDbSymbolTableRecord
100
AcDbLayerTableRecord
  2
가는실선
 70
     0
 62
     4
  6
Continuous
370
    -3
390
F
  0
LAYER
  5
76
330
2
100
AcDbSymbolTableRecord
100
AcDbLayerTableRecord
  2
치수_보조선
 70
     0
 62
     4
  6
Continuous
370
    -3
390
F
  0
LAYER
  5
77
330
2
100
AcDbSymbolTableRecord
100
AcDbLayerTableRecord
  2
치수문자_일반주서
 70
     0
 62
     7
  6
Continuous
370
    15
390
F
  0
LAYER
  5
78
330
2
100
AcDbSymbolTableRecord
100
AcDbLayerTableRecord
  2
개별주서
 70
     0
 62
   100
  6
Continuous
370
    30
390
F
  0
LAYER
  5
79
330
2
100
AcDbSymbolTableRecord
100
AcDbLayerTableRecord
  2
중간선
 70
     0
 62
     2
  6
Continuous
370
    15
390
F
  0
LAYER
  5
7A
330
2
100
AcDbSymbolTableRecord
100
AcDbLayerTableRecord
  2
윤곽선
 70
     0
 62
     3
  6
Continuous
370
    40
390
F
  0
LAYER
  5
7B
330
2
100
AcDbSymbolTableRecord
100
AcDbLayerTableRecord
  2
중심마크
 70
     0
 62
   100
  6
Continuous
370
    30
390
F
  0
LAYER
  5
7C
330
2
100
AcDbSymbolTableRecord
100
AcDbLayerTableRecord
  2
가상선
 70
     0
 62
     4
  6
PHANTOM
370
    -3
390
F
  0
LAYER
  5
7D
330
2
100
AcDbSymbolTableRecord
100
AcDbLayerTableRecord
  2
특수지정선
 70
     0
 62
     5
  6
CENTERX2
370
    60
390
F
  0
LAYER
  5
127
330
2
100
AcDbSymbolTableRecord
100
AcDbLayerTableRecord
  2
Defpoints
 70
     0
 62
     7
  6
Continuous
290
     0
370
    -3
390
F
  0
ENDTAB
  0
TABLE
  2
STYLE
  5
3
330
0
100
AcDbSymbolTable
 70
     2
  0
STYLE
  5
11
330
3
100
AcDbSymbolTableRecord
100
AcDbTextStyleTableRecord
  2
Standard
 70
     0
 40
0.0
 41
1.0
 50
0.0
 71
     0
 42
3.5
  3
txt
  4

  0
STYLE
  5
93
330
3
100
AcDbSymbolTableRecord
100
AcDbTextStyleTableRecord
  2
SLDTEXTSTYLE0
 70
     0
 40
0.0
 41
0.75
 50
0.0
 71
     0
 42
3.5
  3
TXT
  4

  0
ENDTAB
  0
TABLE
  2
VIEW
  5
6
330
0
100
AcDbSymbolTable
 70
     0
  0
ENDTAB
  0
TABLE
  2
UCS
  5
7
330
0
100
AcDbSymbolTable
 70
     0
  0
ENDTAB
  0
TABLE
  2
APPID
  5
9
330
0
100
AcDbSymbolTable
 70
     1
  0
APPID
  5
12
330
9
100
AcDbSymbolTableRecord
100
AcDbRegAppTableRecord
  2
ACAD
 70
     0
  0
ENDTAB
  0
TABLE
  2
DIMSTYLE
  5
A
330
0
100
AcDbSymbolTable
 70
     3
100
AcDbDimStyleTable
  0
DIMSTYLE
105
27
330
A
100
AcDbSymbolTableRecord
100
AcDbDimStyleTableRecord
  2
ISO-25
 70
     0
 41
2.5
 42
0.625
 43
3.75
 44
1.25
 73
     0
 74
     0
 77
     1
 78
     8
140
2.5
141
2.5
143
0.03937007874016
147
0.625
171
     3
172
     1
178
     0
271
     2
272
     2
274
     3
278
    44
283
     0
284
     8
340
11
  0
DIMSTYLE
105
DC
102
{ACAD_REACTORS
330
DB
330
13A
330
14B
330
15B
330
16A
102
}
330
A
100
AcDbSymbolTableRecord
100
AcDbDimStyleTableRecord
  2
SLDDIMSTYLE0
 70
     0
 41
3.302
 44
0.0
 45
0.000000001
 73
     0
 74
     0
 77
     1
 78
    12
 79
     3
140
3.5
143
0.0393700787401575
147
0.875
148
0.000000001
170
     1
172
     1
173
     1
178
     0
271
     2
272
     2
276
     2
284
    12
289
     0
340
93
  0
DIMSTYLE
105
F1
330
A
100
AcDbSymbolTableRecord
100
AcDbDimStyleTableRecord
  2
SLDDIMSTYLE1
 70
     0
 41
3.302
 44
0.0
 73
     0
 74
     0
 77
     1
 78
     4
 79
     1
140
3.5
147
0.875
173
     1
178
     0
179
     2
272
     2
276
     2
284
    12
340
93
  0
ENDTAB
  0
TABLE
  2
BLOCK_RECORD
  5
1
330
0
100
AcDbSymbolTable
 70
     9
  0
BLOCK_RECORD
  5
1F
330
1
100
AcDbSymbolTableRecord
100
AcDbBlockTableRecord
  2
*Model_Space
340
22
  0
BLOCK_RECORD
  5
1B
330
1
100
AcDbSymbolTableRecord
100
AcDbBlockTableRecord
  2
*Paper_Space
340
1E
  0
BLOCK_RECORD
  5
23
330
1
100
AcDbSymbolTableRecord
100
AcDbBlockTableRecord
  2
*Paper_Space0
340
26
  0
BLOCK_RECORD
  5
7E
330
1
100
AcDbSymbolTableRecord
100
AcDbBlockTableRecord
  2
블럭10
340
0
102
{BLKREFS
331
D4
102
}
  0
BLOCK_RECORD
  5
DD
330
1
100
AcDbSymbolTableRecord
100
AcDbBlockTableRecord
  2
_D
340
0
  0
BLOCK_RECORD
  5
F2
330
1
100
AcDbSymbolTableRecord
100
AcDbBlockTableRecord
  2
_D_1
340
0
  0
BLOCK_RECORD
  5
FC
330
1
100
AcDbSymbolTableRecord
100
AcDbBlockTableRecord
  2
SW_DOWELSYMBOL_0
340
0
102
{BLKREFS
331
102
102
}
  0
BLOCK_RECORD
  5
13D
330
1
100
AcDbSymbolTableRecord
100
AcDbBlockTableRecord
  2
*D5
340
0
  0
BLOCK_RECORD
  5
14E
330
1
100
AcDbSymbolTableRecord
100
AcDbBlockTableRecord
  2
*D6
340
0
  0
BLOCK_RECORD
  5
15E
330
1
100
AcDbSymbolTableRecord
100
AcDbBlockTableRecord
  2
*D7
340
0
  0
BLOCK_RECORD
  5
16D
330
1
100
AcDbSymbolTableRecord
100
AcDbBlockTableRecord
  2
*D8
340
0
  0
ENDTAB
  0
ENDSEC
  0
SECTION
  2
BLOCKS
  0
BLOCK
  5
20
330
1F
100
AcDbEntity
  8
0
100
AcDbBlockBegin
  2
*Model_Space
 70
     0
 10
0.0
 20
0.0
 30
0.0
  3
*Model_Space
  1
*Model_Space
  0
ENDBLK
  5
21
330
1F
100
AcDbEntity
  8
0
100
AcDbBlockEnd
  0
BLOCK
  5
1C
330
1B
100
AcDbEntity
 67
     1
  8
0
100
AcDbBlockBegin
  2
*Paper_Space
 70
     0
 10
0.0
 20
0.0
 30
0.0
  3
*Paper_Space
  1
*Paper_Space
  0
ENDBLK
  5
1D
330
1B
100
AcDbEntity
 67
     1
  8
0
100
AcDbBlockEnd
  0
BLOCK
  5
24
330
23
100
AcDbEntity
  8
0
100
AcDbBlockBegin
  2
*Paper_Space0
 70
     0
 10
0.0
 20
0.0
 30
0.0
  3
*Paper_Space0
  1
*Paper_Space0
  0
ENDBLK
  5
25
330
23
100
AcDbEntity
  8
0
100
AcDbBlockEnd
  0
BLOCK
  5
7F
330
7E
100
AcDbEntity
  8
0
100
AcDbBlockBegin
  2
블럭10
 70
     2
 10
0.0
 20
0.0
 30
0.0
  3
블럭10
  1
블럭10
  0
ELLIPSE
  5
81
330
7E
100
AcDbEntity
  8
중심선
100
AcDbEllipse
 10
20.54032771741204
 20
12.0471743016438
 30
0.0
 11
6.600054785286829
 21
-1.261213355974178E-13
 31
0.0
210
0.0
220
0.0
230
1.0
 40
0.636358354079598
 41
0.9219305317359503
 42
6.513795318482858
  0
ELLIPSE
  5
82
330
7E
100
AcDbEntity
  8
중심선
100
AcDbEllipse
 10
20.54032771746488
 20
12.04717430159265
 30
0.0
 11
3.960054785062283
 21
1.540847449632565E-10
 31
0.0
210
0.0
220
0.0
230
1.0
 40
0.3939339440162632
 41
1.131841032648279
 42
5.62031148352944
  0
LINE
  5
83
330
7E
100
AcDbEntity
  8
중심선
100
AcDbLine
 10
2.268634060543552
 20
16.24717430164393
 30
0.0
 11
5.714909304380834
 21
16.24717430164393
 31
0.0
  0
LINE
  5
84
330
7E
100
AcDbEntity
  8
중심선
100
AcDbLine
 10
5.245725140726316
 20
7.84717430164391
 30
0.0
 11
8.692000384563599
 21
7.84717430164391
 31
0.0
  0
LINE
  5
85
330
7E
100
AcDbEntity
  8
중심선
100
AcDbLine
 10
15.74043728645272
 20
16.24717430164393
 30
0.0
 11
8.692000384563599
 21
7.84717430164391
 31
0.0
  0
LINE
  5
86
330
7E
100
AcDbEntity
  8
중심선
100
AcDbLine
 10
0.1404042013395286
 20
13.71084872107135
 30
0.0
 11
3.58671253028996
 21
13.71088815037384
 31
0.0
  0
LINE
  5
87
330
7E
100
AcDbEntity
  8
중심선
100
AcDbLine
 10
2.750260043222114
 20
10.84717430164391
 30
0.0
 11
6.196535287059397
 21
10.84717430164391
 31
0.0
  0
LINE
  5
88
330
7E
100
AcDbEntity
  8
중심선
100
AcDbLine
 10
12.29416204261559
 20
16.24717430164393
 30
0.0
 11
5.245725140726316
 21
7.84717430164391
 31
0.0
  0
LINE
  5
89
330
7E
100
AcDbEntity
  8
중심선
100
AcDbLine
 10
10.72767329541681
 20
16.24717430164393
 30
0.0
 11
6.196535287059397
 21
10.84717430164391
 31
0.0
  0
LINE
  5
8A
330
7E
100
AcDbEntity
  8
중심선
100
AcDbLine
 10
7.28139805157953
 20
16.24717430164393
 30
0.0
 11
2.750260043222114
 21
10.84717430164391
 31
0.0
  0
LINE
  5
8B
330
7E
100
AcDbEntity
  8
중심선
100
AcDbLine
 10
5.714909304380834
 20
16.24717430164393
 30
0.0
 11
3.58671253028996
 21
13.71088815037384
 31
0.0
  0
LINE
  5
8C
330
7E
100
AcDbEntity
  8
중심선
100
AcDbLine
 10
2.268634060543552
 20
16.24717430164393
 30
0.0
 11
0.1404042013395286
 21
13.71084872107135
 31
0.0
  0
LINE
  5
8D
330
7E
100
AcDbEntity
  8
중심선
100
AcDbLine
 10
7.28139805157953
 20
16.24717430164393
 30
0.0
 11
10.72767329541681
 21
16.24717430164393
 31
0.0
  0
LINE
  5
8E
330
7E
100
AcDbEntity
  8
중심선
100
AcDbLine
 10
12.29416204261559
 20
16.24717430164393
 30
0.0
 11
15.74043728645272
 21
16.24717430164393
 31
0.0
  0
LINE
  5
8F
330
7E
100
AcDbEntity
  8
중심선
100
AcDbLine
 10
19.22036997980202
 20
11.08717430171403
 30
0.0
 11
23.66174974927406
 21
11.08717430171406
 31
0.0
  0
LINE
  5
90
330
7E
100
AcDbEntity
  8
중심선
100
AcDbLine
 10
19.22039502424796
 20
13.00717430171391
 30
0.0
 11
19.22036997980202
 21
11.08717430171403
 31
0.0
  0
LINE
  5
91
330
7E
100
AcDbEntity
  8
중심선
100
AcDbLine
 10
19.22039502424796
 20
13.00717430171391
 30
0.0
 11
26.96566020931264
 21
13.00717430171391
 31
0.0
  0
LINE
  5
92
330
7E
100
AcDbEntity
  8
중심선
100
AcDbLine
 10
22.22332737316547
 20
13.45928029700563
 30
0.0
 11
24.52862924686651
 21
15.39360700705356
 31
0.0
  0
ATTDEF
  5
94
330
7E
100
AcDbEntity
  8
FORMAT
 62
     2
100
AcDbText
 10
-10.14163601213663
 20
2.075366912832191
 30
0.0
 40
4.233333333333333
  1
EM097040 [ 4 FLUTE ]
 41
0.75
  7
SLDTEXTSTYLE0
 11
-10.14163601213663
 21
-0.0412997538344756
 31
0.0
100
AcDbAttributeDefinition
  3

  2
AUTOATTR0
 70
     0
 74
     1
  0
ENDBLK
  5
80
330
7E
100
AcDbEntity
  8
0
100
AcDbBlockEnd
  0
BLOCK
  5
DE
330
DD
100
AcDbEntity
  8
0
100
AcDbBlockBegin
  2
_D
 70
     0
 10
0.0
 20
0.0
 30
0.0
  3
_D
  1
_D
  0
LINE
  5
E0
330
DD
100
AcDbEntity
  8
치수문자_일반주서
 62
     0
370
    -2
100
AcDbLine
 10
-87.96250000000003
 20
7.937499999999993
 30
0.0
 11
-110.7100000000001
 21
7.937499999999907
 31
0.0
  0
LINE
  5
E1
330
DD
100
AcDbEntity
  8
치수문자_일반주서
 62
     0
370
    -2
100
AcDbLine
 10
-87.96250000000003
 20
-7.937499999999997
 30
0.0
 11
-110.71
 21
-7.937500000000083
 31
0.0
  0
LINE
  5
E2
330
DD
100
AcDbEntity
  8
치수문자_일반주서
 62
     0
370
    -2
100
AcDbLine
 10
-110.7100000000001
 20
4.635499999999907
 30
0.0
 11
-110.7100000000001
 21
-4.635500000000084
 31
0.0
  0
SOLID
  5
E3
330
DD
100
AcDbEntity
  8
치수문자_일반주서
 62
     0
100
AcDbTrace
 10
-110.1596666666668
 20
4.635499999999909
 30
0.0
 11
-111.2603333333334
 21
4.635499999999905
 31
0.0
 12
-110.7100000000001
 22
7.937499999999907
 32
0.0
 13
-110.7100000000001
 23
7.937499999999907
 33
0.0
  0
SOLID
  5
E4
330
DD
100
AcDbEntity
  8
치수문자_일반주서
 62
     0
100
AcDbTrace
 10
-111.2603333333334
 20
-4.635500000000086
 30
0.0
 11
-110.1596666666667
 21
-4.635500000000082
 31
0.0
 12
-110.71
 22
-7.937500000000083
 32
0.0
 13
-110.71
 23
-7.937500000000083
 33
0.0
  0
MTEXT
  5
E5
330
DD
100
AcDbEntity
  8
치수문자_일반주서
 62
     0
100
AcDbMText
 10
-115.0850000000001
 20
-0.0000000000000963
 30
0.0
 40
3.5
 41
0.0
 71
     2
 72
     1
  1
\A1;%%c15.88 [5/8]
  7
SLDTEXTSTYLE0
 11
-3.580687802255625E-15
 21
1.0
 31
0.0
 73
     1
 44
1.0
  0
POINT
  5
E6
330
DD
100
AcDbEntity
  8
Defpoints
 62
     0
100
AcDbPoint
 10
-87.90000000000003
 20
7.937499999999993
 30
0.0
  0
POINT
  5
E7
330
DD
100
AcDbEntity
  8
Defpoints
 62
     0
100
AcDbPoint
 10
-87.90000000000003
 20
-7.937499999999997
 30
0.0
  0
POINT
  5
E8
330
DD
100
AcDbEntity
  8
Defpoints
 62
     0
100
AcDbPoint
 10
-110.71
 20
-7.937500000000083
 30
0.0
  0
ENDBLK
  5
DF
330
DD
100
AcDbEntity
  8
0
100
AcDbBlockEnd
  0
BLOCK
  5
F3
330
F2
100
AcDbEntity
  8
0
100
AcDbBlockBegin
  2
_D_1
 70
     0
 10
0.0
 20
0.0
 30
0.0
  3
_D_1
  1
_D_1
  0
ARC
  5
F5
330
F2
100
AcDbEntity
  8
치수문자_일반주서
100
AcDbCircle
 10
-10.26954823475309
 20
7.938574928723888
 30
0.0
 40
28.25547184791948
100
AcDbArc
 50
178.4000000000004
 51
180.0
  0
ARC
  5
F6
330
F2
100
AcDbEntity
  8
치수문자_일반주서
100
AcDbCircle
 10
-10.26954823475309
 20
7.938574928723888
 30
0.0
 40
28.25547184791948
100
AcDbArc
 50
165.5928792869709
 51
178.4000000000004
  0
ARC
  5
F7
330
F2
100
AcDbEntity
  8
치수문자_일반주서
100
AcDbCircle
 10
-10.26954823475309
 20
7.938574928723888
 30
0.0
 40
28.25547184791947
100
AcDbArc
 50
180.0
 51
192.8071207130303
  0
SOLID
  5
F8
330
F2
100
AcDbEntity
  8
치수문자_일반주서
100
AcDbTrace
 10
-38.51400369917138
 20
8.727514005625267
 30
0.0
 11
-37.7239584722937
 21
11.97360342822098
 31
0.0
 12
-38.73619553466363
 22
12.06096548843413
 32
0.0
 13
-38.73619553466363
 23
12.06096548843413
 33
0.0
  0
SOLID
  5
F9
330
F2
100
AcDbEntity
  8
치수문자_일반주서
100
AcDbTrace
 10
-38.52502008267255
 20
7.938574928723888
 30
0.0
 11
-38.8402007169155
 21
4.612627068669824
 31
0.0
 12
-37.82591901866837
 22
4.671691750171552
 32
0.0
 13
-37.82591901866837
 23
4.671691750171552
 33
0.0
  0
LINE
  5
FA
330
F2
100
AcDbEntity
  8
치수문자_일반주서
100
AcDbLine
 10
-11.26915834978452
 20
7.966496567447201
 30
0.0
 11
-39.51361381421174
 21
8.755435644348829
 31
0.0
  0
MTEXT
  5
FB
330
F2
100
AcDbEntity
  8
치수문자_일반주서
100
AcDbMText
 10
-43.12544382490695
 20
3.041526847649617
 30
0.0
 40
3.5
 41
0.0
 71
     1
 72
     1
  1
1.60°
  7
SLDTEXTSTYLE0
 11
0.01712624063284911
 21
0.999853335185609
 31
0.0
 73
     1
 44
1.0
  0
ENDBLK
  5
F4
330
F2
100
AcDbEntity
  8
0
100
AcDbBlockEnd
  0
BLOCK
  5
FD
330
FC
100
AcDbEntity
  8
0
100
AcDbBlockBegin
  2
SW_DOWELSYMBOL_0
 70
     0
 10
0.0
 20
0.0
 30
0.0
  3
SW_DOWELSYMBOL_0
  1
SW_DOWELSYMBOL_0
  0
CIRCLE
  5
FF
330
FC
100
AcDbEntity
  8
외형선
 62
     0
100
AcDbCircle
 10
0.0
 20
0.0
 30
0.0
 40
3.000000000000004
  0
HATCH
  5
100
330
FC
100
AcDbEntity
  8
0
  6
Continuous
 62
     0
370
    30
100
AcDbHatch
 10
0.0
 20
0.0
 30
0.0
210
0.0
220
0.0
230
1.0
  2
SOLID
 70
     1
 71
     0
 91
        1
 92
        0
 93
        3
 72
     2
 10
0.0000000000000104
 20
0.0
 40
3.000000000000004
 50
0.0
 51
90.0
 73
     1
 72
     1
 10
0.0000000000000104
 20
3.000000000000004
 11
0.0000000000000104
 21
0.0
 72
     1
 10
0.0000000000000104
 20
0.0
 11
3.000000000000015
 21
0.0
 97
        0
 75
     0
 76
     1
 98
        1
 10
0.0
 20
0.0
  0
HATCH
  5
101
330
FC
100
AcDbEntity
  8
0
  6
Continuous
 62
     0
370
    30
100
AcDbHatch
 10
0.0
 20
0.0
 30
0.0
210
0.0
220
0.0
230
1.0
  2
SOLID
 70
     1
 71
     0
 91
        1
 92
        0
 93
        3
 72
     2
 10
0.0000000000000104
 20
0.0
 40
3.000000000000004
 50
180.0
 51
270.0000000000008
 73
     1
 72
     1
 10
0.0000000000000104
 20
-3.000000000000004
 11
0.0000000000000104
 21
0.0
 72
     1
 10
0.0000000000000104
 20
0.0
 11
-2.999999999999994
 21
0.0
 97
        0
 75
     0
 76
     1
 98
        1
 10
0.0
 20
0.0
  0
ENDBLK
  5
FE
330
FC
100
AcDbEntity
  8
0
100
AcDbBlockEnd
  0
BLOCK
  5
13E
330
13D
100
AcDbEntity
  8
0
100
AcDbBlockBegin
  2
*D5
 70
     1
 10
0.0
 20
0.0
 30
0.0
  3
*D5
  1
*D5
  0
LINE
  5
140
330
13D
100
AcDbEntity
  8
치수문자_일반주서
 62
     0
370
    -2
100
AcDbLine
 10
69.9125
 20
-7.9375
 30
0.0
 11
83.2654616816794
 21
-7.937500000000001
 31
0.0
  0
LINE
  5
141
330
13D
100
AcDbEntity
  8
치수문자_일반주서
 62
     0
370
    -2
100
AcDbLine
 10
69.9125
 20
7.9375
 30
0.0
 11
83.2654616816794
 21
7.937499999999999
 31
0.0
  0
LINE
  5
142
330
13D
100
AcDbEntity
  8
치수문자_일반주서
 62
     0
370
    -2
100
AcDbLine
 10
83.2654616816794
 20
11.2395
 30
0.0
 11
83.2654616816794
 21
39.9165
 31
0.0
  0
LINE
  5
143
330
13D
100
AcDbEntity
  8
치수문자_일반주서
 62
     0
370
    -2
100
AcDbLine
 10
83.2654616816794
 20
-7.937500000000001
 30
0.0
 11
83.2654616816794
 21
7.937499999999999
 31
0.0
  0
LINE
  5
144
330
13D
100
AcDbEntity
  8
치수문자_일반주서
 62
     0
370
    -2
100
AcDbLine
 10
83.2654616816794
 20
-11.2395
 30
0.0
 11
83.2654616816794
 21
-14.5415
 31
0.0
  0
SOLID
  5
145
330
13D
100
AcDbEntity
  8
치수문자_일반주서
 62
     0
100
AcDbTrace
 10
83.81579501501272
 20
-11.2395
 30
0.0
 11
82.71512834834607
 21
-11.2395
 31
0.0
 12
83.2654616816794
 22
-7.937500000000001
 32
0.0
 13
83.2654616816794
 23
-7.937500000000001
 33
0.0
  0
SOLID
  5
146
330
13D
100
AcDbEntity
  8
치수문자_일반주서
 62
     0
100
AcDbTrace
 10
82.71512834834607
 20
11.2395
 30
0.0
 11
83.81579501501272
 21
11.2395
 31
0.0
 12
83.2654616816794
 22
7.937499999999999
 32
0.0
 13
83.2654616816794
 23
7.937499999999999
 33
0.0
  0
MTEXT
  5
147
330
13D
100
AcDbEntity
  8
치수문자_일반주서
 62
     0
100
AcDbMText
 10
80.6404616816794
 20
27.229
 30
0.0
 40
3.5
 41
0.0
 71
     5
 72
     1
  1
\A1;15.88 [5/8]
  7
SLDTEXTSTYLE0
 11
0.0
 21
1.0
 31
0.0
 73
     1
 44
1.0
  0
POINT
  5
148
330
13D
100
AcDbEntity
  8
Defpoints
 62
     0
100
AcDbPoint
 10
69.85
 20
-7.9375
 30
0.0
  0
POINT
  5
149
330
13D
100
AcDbEntity
  8
Defpoints
 62
     0
100
AcDbPoint
 10
69.85
 20
7.9375
 30
0.0
  0
POINT
  5
14A
330
13D
100
AcDbEntity
  8
Defpoints
 62
     0
100
AcDbPoint
 10
83.2654616816794
 20
7.937499999999999
 30
0.0
  0
ENDBLK
  5
13F
330
13D
100
AcDbEntity
  8
0
100
AcDbBlockEnd
  0
BLOCK
  5
14F
330
14E
100
AcDbEntity
  8
0
100
AcDbBlockBegin
  2
*D6
 70
     1
 10
0.0
 20
0.0
 30
0.0
  3
*D6
  1
*D6
  0
LINE
  5
151
330
14E
100
AcDbEntity
  8
치수문자_일반주서
 62
     0
370
    -2
100
AcDbLine
 10
69.85
 20
8.0
 30
0.0
 11
69.85
 21
34.04717509350696
 31
0.0
  0
LINE
  5
152
330
14E
100
AcDbEntity
  8
치수문자_일반주서
 62
     0
370
    -2
100
AcDbLine
 10
57.14999999999999
 20
6.412499999999999
 30
0.0
 11
57.14999999999999
 21
34.04717509350696
 31
0.0
  0
LINE
  5
153
330
14E
100
AcDbEntity
  8
치수문자_일반주서
 62
     0
370
    -2
100
AcDbLine
 10
53.84799999999999
 20
34.04717509350696
 30
0.0
 11
27.79599999999999
 21
34.04717509350696
 31
0.0
  0
LINE
  5
154
330
14E
100
AcDbEntity
  8
치수문자_일반주서
 62
     0
370
    -2
100
AcDbLine
 10
69.85
 20
34.04717509350696
 30
0.0
 11
57.14999999999999
 21
34.04717509350696
 31
0.0
  0
LINE
  5
155
330
14E
100
AcDbEntity
  8
치수문자_일반주서
 62
     0
370
    -2
100
AcDbLine
 10
73.15199999999999
 20
34.04717509350696
 30
0.0
 11
76.45399999999998
 21
34.04717509350696
 31
0.0
  0
SOLID
  5
156
330
14E
100
AcDbEntity
  8
치수문자_일반주서
 62
     0
100
AcDbTrace
 10
73.15199999999999
 20
34.59750842684029
 30
0.0
 11
73.15199999999999
 21
33.49684176017362
 31
0.0
 12
69.85
 22
34.04717509350696
 32
0.0
 13
69.85
 23
34.04717509350696
 33
0.0
  0
SOLID
  5
157
330
14E
100
AcDbEntity
  8
치수문자_일반주서
 62
     0
100
AcDbTrace
 10
53.84799999999999
 20
33.49684176017362
 30
0.0
 11
53.84799999999999
 21
34.59750842684029
 31
0.0
 12
57.14999999999999
 22
34.04717509350696
 32
0.0
 13
57.14999999999999
 23
34.04717509350696
 33
0.0
  0
MTEXT
  5
158
330
14E
100
AcDbEntity
  8
치수문자_일반주서
 62
     0
100
AcDbMText
 10
39.17099999999999
 20
36.67217509350696
 30
0.0
 40
3.5
 41
0.0
 71
     5
 72
     1
  1
\A1;12.7 [0.50]
  7
SLDTEXTSTYLE0
 73
     1
 44
1.0
  0
POINT
  5
159
330
14E
100
AcDbEntity
  8
Defpoints
 62
     0
100
AcDbPoint
 10
69.85
 20
7.9375
 30
0.0
  0
POINT
  5
15A
330
14E
100
AcDbEntity
  8
Defpoints
 62
     0
100
AcDbPoint
 10
57.14999999999999
 20
6.349999999999999
 30
0.0
  0
POINT
  5
179
330
14E
100
AcDbEntity
  8
Defpoints
 62
     0
100
AcDbPoint
 10
57.14999999999999
 20
34.04717509350696
 30
0.0
  0
ENDBLK
  5
150
330
14E
100
AcDbEntity
  8
0
100
AcDbBlockEnd
  0
BLOCK
  5
15F
330
15E
100
AcDbEntity
  8
0
100
AcDbBlockBegin
  2
*D7
 70
     1
 10
0.0
 20
0.0
 30
0.0
  3
*D7
  1
*D7
  0
LINE
  5
161
330
15E
100
AcDbEntity
  8
치수문자_일반주서
 62
     0
370
    -2
100
AcDbLine
 10
69.85
 20
8.0
 30
0.0
 11
69.85
 21
53.88918798463513
 31
0.0
  0
LINE
  5
162
330
15E
100
AcDbEntity
  8
치수문자_일반주서
 62
     0
370
    -2
100
AcDbLine
 10
0.0
 20
7.999999999999996
 30
0.0
 11
0.0
 21
53.88918798463513
 31
0.0
  0
LINE
  5
163
330
15E
100
AcDbEntity
  8
치수문자_일반주서
 62
     0
370
    -2
100
AcDbLine
 10
66.548
 20
53.88918798463513
 30
0.0
 11
3.302
 21
53.88918798463513
 31
0.0
  0
SOLID
  5
164
330
15E
100
AcDbEntity
  8
치수문자_일반주서
 62
     0
100
AcDbTrace
 10
66.548
 20
53.33885465130179
 30
0.0
 11
66.548
 21
54.43952131796846
 31
0.0
 12
69.85
 22
53.88918798463513
 32
0.0
 13
69.85
 23
53.88918798463513
 33
0.0
  0
SOLID
  5
165
330
15E
100
AcDbEntity
  8
치수문자_일반주서
 62
     0
100
AcDbTrace
 10
3.302
 20
54.43952131796846
 30
0.0
 11
3.302
 21
53.33885465130179
 31
0.0
 12
0.0
 22
53.88918798463513
 32
0.0
 13
0.0
 23
53.88918798463513
 33
0.0
  0
MTEXT
  5
166
330
15E
100
AcDbEntity
  8
치수문자_일반주서
 62
     0
100
AcDbMText
 10
34.925
 20
56.51418798463513
 30
0.0
 40
3.5
 41
0.0
 71
     5
 72
     1
  1
\A1;69.85 [2 3/4]
  7
SLDTEXTSTYLE0
 73
     1
 44
1.0
  0
POINT
  5
167
330
15E
100
AcDbEntity
  8
Defpoints
 62
     0
100
AcDbPoint
 10
69.85
 20
7.9375
 30
0.0
  0
POINT
  5
168
330
15E
100
AcDbEntity
  8
Defpoints
 62
     0
100
AcDbPoint
 10
0.0
 20
7.937499999999996
 30
0.0
  0
POINT
  5
169
330
15E
100
AcDbEntity
  8
Defpoints
 62
     0
100
AcDbPoint
 10
0.0
 20
53.88918798463513
 30
0.0
  0
ENDBLK
  5
160
330
15E
100
AcDbEntity
  8
0
100
AcDbBlockEnd
  0
BLOCK
  5
16E
330
16D
100
AcDbEntity
  8
0
100
AcDbBlockBegin
  2
*D8
 70
     1
 10
0.0
 20
0.0
 30
0.0
  3
*D8
  1
*D8
  0
LINE
  5
170
330
16D
100
AcDbEntity
  8
치수문자_일반주서
 62
     0
370
    -2
100
AcDbLine
 10
69.85
 20
8.0
 30
0.0
 11
69.85
 21
80.22534652808784
 31
0.0
  0
LINE
  5
171
330
16D
100
AcDbEntity
  8
치수문자_일반주서
 62
     0
370
    -2
100
AcDbLine
 10
-88.90000000000003
 20
6.999999999999997
 30
0.0
 11
-88.90000000000003
 21
80.22534652808784
 31
0.0
  0
LINE
  5
172
330
16D
100
AcDbEntity
  8
치수문자_일반주서
 62
     0
370
    -2
100
AcDbLine
 10
66.548
 20
80.22534652808784
 30
0.0
 11
-85.59800000000004
 21
80.22534652808784
 31
0.0
  0
SOLID
  5
173
330
16D
100
AcDbEntity
  8
치수문자_일반주서
 62
     0
100
AcDbTrace
 10
66.548
 20
79.67501319475451
 30
0.0
 11
66.548
 21
80.77567986142117
 31
0.0
 12
69.85
 22
80.22534652808784
 32
0.0
 13
69.85
 23
80.22534652808784
 33
0.0
  0
SOLID
  5
174
330
16D
100
AcDbEntity
  8
치수문자_일반주서
 62
     0
100
AcDbTrace
 10
-85.59800000000004
 20
80.77567986142117
 30
0.0
 11
-85.59800000000004
 21
79.67501319475451
 31
0.0
 12
-88.90000000000003
 22
80.22534652808784
 32
0.0
 13
-88.90000000000003
 23
80.22534652808784
 33
0.0
  0
MTEXT
  5
175
330
16D
100
AcDbEntity
  8
치수문자_일반주서
 62
     0
100
AcDbMText
 10
-9.52500000000002
 20
82.85034652808784
 30
0.0
 40
3.5
 41
0.0
 71
     5
 72
     1
  1
\A1;158.75 [6 1/4]
  7
SLDTEXTSTYLE0
 73
     1
 44
1.0
  0
POINT
  5
176
330
16D
100
AcDbEntity
  8
Defpoints
 62
     0
100
AcDbPoint
 10
69.85
 20
7.9375
 30
0.0
  0
POINT
  5
177
330
16D
100
AcDbEntity
  8
Defpoints
 62
     0
100
AcDbPoint
 10
-88.90000000000003
 20
6.937499999999997
 30
0.0
  0
POINT
  5
178
330
16D
100
AcDbEntity
  8
Defpoints
 62
     0
100
AcDbPoint
 10
-88.90000000000003
 20
80.22534652808784
 30
0.0
  0
ENDBLK
  5
16F
330
16D
100
AcDbEntity
  8
0
100
AcDbBlockEnd
  0
ENDSEC
  0
SECTION
  2
ENTITIES
  0
LINE
  5
95
102
{ACAD_REACTORS
102
}
330
1F
100
AcDbEntity
  8
0
  6
Continuous
 62
     4
370
    15
100
AcDbLine
 10
-87.90000000000003
 20
7.937499999999996
 30
0.0
 11
-88.90000000000003
 21
6.937499999999997
 31
0.0
  0
LINE
  5
96
330
1F
100
AcDbEntity
  8
0
  6
Continuous
 62
     4
370
    15
100
AcDbLine
 10
-88.90000000000003
 20
-6.937500000000001
 30
0.0
 11
-87.90000000000003
 21
-7.9375
 31
0.0
  0
LINE
  5
97
330
1F
100
AcDbEntity
  8
0
  6
Continuous
 62
     4
370
    15
100
AcDbLine
 10
-0.0000000000000009
 20
7.937499999999993
 30
0.0
 11
-87.90000000000003
 21
7.937499999999993
 31
0.0
  0
LINE
  5
98
330
1F
100
AcDbEntity
  8
0
  6
Continuous
 62
     4
370
    15
100
AcDbLine
 10
-87.90000000000003
 20
-7.937499999999997
 30
0.0
 11
0.0
 21
-7.937499999999997
 31
0.0
  0
LINE
  5
9B
330
1F
100
AcDbEntity
  8
0
  6
Continuous
 62
     1
370
    15
100
AcDbLine
 10
62.77376870625059
 20
1.85086381953818
 30
0.0
 11
62.52497619478643
 21
1.984586891671356
 31
0.0
  0
SPLINE
  5
9C
330
1F
100
AcDbEntity
  8
0
  6
Continuous
 62
     1
370
    15
100
AcDbSpline
210
0.0
220
0.0
230
1.0
 70
     8
 71
     3
 72
     9
 73
     5
 74
     0
 42
0.000000001
 43
0.00000001
 40
0.0
 40
0.0
 40
0.0
 40
0.0
 40
0.0352635406949586
 40
1.0
 40
1.0
 40
1.0
 40
1.0
 10
65.86360030122574
 20
0.1971157191308218
 30
0.0
 10
65.82659535557985
 20
0.2146308591234769
 30
0.0
 10
64.77721276617962
 20
0.711323467054339
 30
0.0
 10
63.75751159941973
 20
1.291320009128442
 30
0.0
 10
62.77376870625059
 20
1.85086381953818
 30
0.0
  0
ARC
  5
9D
330
1F
100
AcDbEntity
  8
0
  6
Continuous
 62
     1
370
    15
100
AcDbCircle
 10
61.91249999999999
 20
-0.000000000000002
 30
0.0
 40
7.937500000000003
100
AcDbArc
 50
52.80292120332917
 51
56.84471304175415
  0
ARC
  5
9E
330
1F
100
AcDbEntity
  8
0
  6
Continuous
 62
     1
370
    15
100
AcDbCircle
 10
61.91249999999999
 20
-0.000000000000002
 30
0.0
 40
7.937500000000005
100
AcDbArc
 50
352.657534770795
 51
7.342465229206041
  0
ARC
  5
9F
330
1F
100
AcDbEntity
  8
0
  6
Continuous
 62
     1
370
    15
100
AcDbCircle
 10
61.91249999999999
 20
-0.000000000000002
 30
0.0
 40
7.937500000000004
100
AcDbArc
 50
303.0883973781501
 51
307.1970787966716
  0
LINE
  5
A0
330
1F
100
AcDbEntity
  8
0
  6
Continuous
 62
     4
370
    15
100
AcDbLine
 10
-87.90000000000003
 20
-0.000000000000002
 30
0.0
 11
-87.90000000000003
 21
-7.9375
 31
0.0
  0
LINE
  5
A1
330
1F
100
AcDbEntity
  8
0
  6
Continuous
 62
     4
370
    15
100
AcDbLine
 10
-87.90000000000003
 20
7.937499999999996
 30
0.0
 11
-87.90000000000003
 21
-0.000000000000002
 31
0.0
  0
LINE
  5
A2
330
1F
100
AcDbEntity
  8
0
  6
Continuous
 62
     4
370
    15
100
AcDbLine
 10
-88.90000000000003
 20
-0.000000000000002
 30
0.0
 11
-88.90000000000003
 21
-6.937500000000001
 31
0.0
  0
LINE
  5
A3
330
1F
100
AcDbEntity
  8
0
  6
Continuous
 62
     4
370
    15
100
AcDbLine
 10
-88.90000000000003
 20
6.937499999999997
 30
0.0
 11
-88.90000000000003
 21
-0.000000000000002
 31
0.0
  0
SPLINE
  5
A6
330
1F
100
AcDbEntity
  8
0
  6
Continuous
 62
     4
370
    15
100
AcDbSpline
210
0.0
220
0.0
230
1.0
 70
     8
 71
     3
 72
     8
 73
     4
 74
     0
 42
0.000000001
 43
0.00000001
 40
0.0
 40
0.0
 40
0.0
 40
0.0
 40
0.0008141881330608
 40
0.0008141881330608
 40
0.0008141881330608
 40
0.0008141881330608
 10
51.64968254163351
 20
5.547894112219756
 30
0.0
 10
51.89551881548392
 20
5.485498376277413
 30
0.0
 10
52.14148975767841
 20
5.42061183152047
 30
0.0
 10
52.38749999999997
 20
5.353287686097018
 30
0.0
  0
SPLINE
  5
A7
330
1F
100
AcDbEntity
  8
0
  6
Continuous
 62
     4
370
    15
100
AcDbSpline
210
0.0
220
0.0
230
1.0
 70
     8
 71
     3
 72
     8
 73
     4
 74
     0
 42
0.000000001
 43
0.00000001
 40
0.0
 40
0.0
 40
0.0
 40
0.0
 40
0.00081184007328
 40
0.00081184007328
 40
0.00081184007328
 40
0.00081184007328
 10
52.38749999999998
 20
-0.2116787098125179
 30
0.0
 10
52.14147522281166
 20
-0.0994706603831429
 30
0.0
 10
51.89550510311302
 20
0.0131802211166743
 30
0.0
 10
51.6496825416335
 20
0.1262352840402478
 30
0.0
  0
LINE
  5
A8
330
1F
100
AcDbEntity
  8
0
  6
Continuous
 62
     4
370
    15
100
AcDbLine
 10
52.38749999999998
 20
-0.2116787098147108
 30
0.0
 11
52.38750000000001
 21
-3.415378595394986
 31
0.0
  0
SPLINE
  5
A9
330
1F
100
AcDbEntity
  8
0
  6
Continuous
 62
     4
370
    15
100
AcDbSpline
210
0.0
220
0.0
230
1.0
 70
     8
 71
     3
 72
     8
 73
     4
 74
     0
 42
0.000000001
 43
0.00000001
 40
0.0
 40
0.0
 40
0.0
 40
0.0
 40
0.0008141881330608
 40
0.0008141881330608
 40
0.0008141881330608
 40
0.0008141881330608
 10
51.64968254163351
 20
-3.131378501982258
 30
0.0
 10
51.89551881548392
 20
-3.227955473804437
 30
0.0
 10
52.14148975767841
 20
-3.322630371656341
 30
0.0
 10
52.38749999999997
 20
-3.415378595394974
 30
0.0
  0
LINE
  5
AA
330
1F
100
AcDbEntity
  8
0
  6
Continuous
 62
     4
370
    15
100
AcDbLine
 10
51.64968254163351
 20
-3.131372165175357
 30
0.0
 11
51.64968254163351
 21
-6.369359254200109
 31
0.0
  0
SPLINE
  5
AC
330
1F
100
AcDbEntity
  8
0
  6
Continuous
 62
     4
370
    15
100
AcDbSpline
210
0.0
220
0.0
230
1.0
 70
     8
 71
     3
 72
     9
 73
     5
 74
     0
 42
0.000000001
 43
0.00000001
 40
0.0
 40
0.0
 40
0.0
 40
0.0
 40
0.7972450910526223
 40
1.0
 40
1.0
 40
1.0
 40
1.0
 10
52.38749999999998
 20
6.346470840066312
 30
0.0
 10
52.26449269370907
 20
6.351630966234707
 30
0.0
 10
52.11020224065841
 20
6.358103412696035
 30
0.0
 10
51.95600685666493
 20
6.361758229103469
 30
0.0
 10
51.92474298562323
 20
6.362499261071376
 30
0.0
  0
LINE
  5
AD
330
1F
100
AcDbEntity
  8
0
  6
Continuous
 62
     4
370
    15
100
AcDbLine
 10
52.38750000000026
 20
6.346470840066309
 30
0.0
 11
52.38750000000001
 21
5.353287686097036
 31
0.0
  0
SPLINE
  5
AE
330
1F
100
AcDbEntity
  8
0
  6
Continuous
 62
     4
370
    15
100
AcDbSpline
210
0.0
220
0.0
230
1.0
 70
    24
 71
     3
 72
    24
 73
    20
 74
     0
 42
0.000000001
 43
0.00000001
 40
0.0
 40
0.0
 40
0.0
 40
0.0
 40
0.1250000000000002
 40
0.1250000000000002
 40
0.2500000000000002
 40
0.2500000000000002
 40
0.3750000000000001
 40
0.3750000000000001
 40
0.5000000000000001
 40
0.5000000000000001
 40
0.6250000000000001
 40
0.6250000000000001
 40
0.75
 40
0.75
 40
0.875
 40
0.875
 40
0.9375
 40
0.9375
 40
1.0
 40
1.0
 40
1.0
 40
1.0
 10
52.3875
 20
5.353287686097048
 30
0.0
 10
52.3875
 20
4.998112298257199
 30
0.0
 10
52.3875
 20
4.615080478792033
 30
0.0
 10
52.38749999999998
 20
3.842743307150496
 30
0.0
 10
52.3875
 20
3.45413725943919
 30
0.0
 10
52.38750000000001
 20
2.718342242150755
 30
0.0
 10
52.38749999999998
 20
2.371465253447661
 30
0.0
 10
52.38749999999997
 20
1.747054943385054
 30
0.0
 10
52.38749999999997
 20
1.469384201375275
 30
0.0
 10
52.38749999999998
 20
0.9891848188738241
 30
0.0
 10
52.38749999999998
 20
0.7863536437902329
 30
0.0
 10
52.38749999999998
 20
0.4472699203659087
 30
0.0
 10
52.38749999999995
 20
0.3107763951880473
 30
0.0
 10
52.38749999999998
 20
0.0903040650378913
 30
0.0
 10
52.38749999999998
 20
0.0062006735822051
 30
0.0
 10
52.3875
 20
-0.0910588418567648
 30
0.0
 10
52.38749999999998
 20
-0.1187745765927885
 30
0.0
 10
52.3875
 20
-0.1700666663661533
 30
0.0
 10
52.3875
 20
-0.192802886420616
 30
0.0
 10
52.38749999999998
 20
-0.2116787098127955
 30
0.0
  0
SPLINE
  5
AF
330
1F
100
AcDbEntity
  8
0
  6
Continuous
 62
     4
370
    15
100
AcDbSpline
210
0.0
220
0.0
230
1.0
 70
    24
 71
     3
 72
    14
 73
    10
 74
     0
 42
0.000000001
 43
0.00000001
 40
0.0
 40
0.0
 40
0.0
 40
0.0
 40
0.0522334299708302
 40
0.2249830173933021
 40
0.3977326048157614
 40
0.5704821922382207
 40
0.743231779660708
 40
0.9159813670831954
 40
1.0
 40
1.0
 40
1.0
 40
1.0
 10
52.38749999999997
 20
-3.415378595394952
 30
0.0
 10
52.38749999999997
 20
-3.43998449999485
 30
0.0
 10
52.38749999999995
 20
-3.545968553993761
 30
0.0
 10
52.38749999999995
 20
-3.835604732997222
 30
0.0
 10
52.38749999999997
 20
-4.277080226624865
 30
0.0
 10
52.38749999999995
 20
-4.802433986623053
 30
0.0
 10
52.38750000000004
 20
-5.390237592475634
 30
0.0
 10
52.38749999999979
 20
-5.915012172361657
 30
0.0
 10
52.38750000000013
 20
-6.24009770074392
 30
0.0
 10
52.38750000000026
 20
-6.346470840066314
 30
0.0
  0
SPLINE
  5
B0
330
1F
100
AcDbEntity
  8
0
  6
Continuous
 62
     1
370
    15
100
AcDbSpline
210
0.0
220
0.0
230
1.0
 70
     8
 71
     3
 72
    14
 73
    10
 74
     0
 42
0.000000001
 43
0.00000001
 40
0.0
 40
0.0
 40
0.0
 40
0.0
 40
0.25
 40
0.25
 40
0.5
 40
0.5
 40
0.75
 40
0.75
 40
1.0
 40
1.0
 40
1.0
 40
1.0
 10
61.91249999999999
 20
-5.194604739878918
 30
0.0
 10
61.51693125472359
 20
-5.021552894368662
 30
0.0
 10
61.12099667028368
 20
-4.841969837947825
 30
0.0
 10
60.32573367175261
 20
-4.470621187369137
 30
0.0
 10
59.92749976849844
 20
-4.279015819024173
 30
0.0
 10
59.13429999202966
 20
-3.886124252633242
 30
0.0
 10
58.7399619754013
 20
-3.6849624325907
 30
0.0
 10
57.94566426716157
 20
-3.272985644800059
 30
0.0
 10
57.54731369515861
 20
-3.06243168980024
 30
0.0
 10
57.15000000000089
 20
-2.848493787532759
 30
0.0
  0
SPLINE
  5
B1
330
1F
100
AcDbEntity
  8
0
  6
Continuous
 62
     4
370
    15
100
AcDbSpline
210
0.0
220
0.0
230
1.0
 70
     8
 71
     3
 72
    16
 73
    12
 74
     0
 42
0.000000001
 43
0.00000001
 40
0.0
 40
0.0
 40
0.0
 40
0.0
 40
0.2499999999999977
 40
0.2499999999999977
 40
0.3749999999999981
 40
0.3749999999999981
 40
0.4999999999999984
 40
0.4999999999999984
 40
0.7499999999999992
 40
0.7499999999999992
 40
1.0
 40
1.0
 40
1.0
 40
1.0
 10
52.38749999999998
 20
-0.2116787098125118
 30
0.0
 10
52.73548014435195
 20
-0.4169690172769275
 30
0.0
 10
53.10313473701692
 20
-0.6199263205428028
 30
0.0
 10
53.67716762067574
 20
-0.9353512462002068
 30
0.0
 10
53.87234507402613
 20
-1.042206348095752
 30
0.0
 10
54.27030722554797
 20
-1.25986773401273
 30
0.0
 10
54.4741873638303
 20
-1.371406797825969
 30
0.0
 10
55.0877331280571
 20
-1.708391688795578
 30
0.0
 10
55.49779095880616
 20
-1.935698016100795
 30
0.0
 10
56.32085885981093
 20
-2.39366194035219
 30
0.0
 10
56.73638354748713
 20
-2.625777487358439
 30
0.0
 10
57.14999999999996
 20
-2.848493787532258
 30
0.0
  0
SPLINE
  5
B2
330
1F
100
AcDbEntity
  8
0
  6
Continuous
 62
     4
370
    15
100
AcDbSpline
210
0.0
220
0.0
230
1.0
 70
    24
 71
     3
 72
    24
 73
    20
 74
     0
 42
0.000000001
 43
0.00000001
 40
0.0
 40
0.0
 40
0.0
 40
0.0
 40
0.1249999999999998
 40
0.1249999999999998
 40
0.2499999999999997
 40
0.2499999999999997
 40
0.3749999999999996
 40
0.3749999999999996
 40
0.4999999999999996
 40
0.4999999999999996
 40
0.6249999999999997
 40
0.6249999999999997
 40
0.7499999999999998
 40
0.7499999999999998
 40
0.8749999999999999
 40
0.8749999999999999
 40
0.9375
 40
0.9375
 40
1.0
 40
1.0
 40
1.0
 40
1.0
 10
52.38749999999998
 20
5.353287686097021
 30
0.0
 10
52.38749999999998
 20
4.9981122982572
 30
0.0
 10
52.38749999999995
 20
4.61508047879206
 30
0.0
 10
52.38749999999998
 20
3.842743307150584
 30
0.0
 10
52.3875
 20
3.454137259439303
 30
0.0
 10
52.38749999999998
 20
2.71834224215091
 30
0.0
 10
52.38749999999997
 20
2.371465253447832
 30
0.0
 10
52.38749999999998
 20
1.747054943385244
 30
0.0
 10
52.38749999999997
 20
1.469384201375467
 30
0.0
 10
52.38749999999997
 20
0.9891848188740117
 30
0.0
 10
52.38749999999998
 20
0.7863536437904133
 30
0.0
 10
52.38749999999998
 20
0.447269920366069
 30
0.0
 10
52.38749999999997
 20
0.3107763951881948
 30
0.0
 10
52.3875
 20
0.0903040650380115
 30
0.0
 10
52.3875
 20
0.0062006735823109
 30
0.0
 10
52.38749999999997
 20
-0.0910588418566801
 30
0.0
 10
52.38749999999997
 20
-0.1187745765927072
 30
0.0
 10
52.38749999999997
 20
-0.1700666663660804
 30
0.0
 10
52.38749999999998
 20
-0.1928028864205487
 30
0.0
 10
52.38749999999998
 20
-0.2116787098127353
 30
0.0
  0
SPLINE
  5
B3
330
1F
100
AcDbEntity
  8
0
  6
Continuous
 62
     4
370
    15
100
AcDbSpline
210
0.0
220
0.0
230
1.0
 70
     8
 71
     3
 72
    18
 73
    14
 74
     0
 42
0.000000001
 43
0.00000001
 40
0.0
 40
0.0
 40
0.0
 40
0.0
 40
0.2500000000000002
 40
0.2500000000000002
 40
0.3750000000000002
 40
0.3750000000000002
 40
0.5000000000000002
 40
0.5000000000000002
 40
0.7500000000000002
 40
0.7500000000000002
 40
0.8750000000000001
 40
0.8750000000000001
 40
1.0
 40
1.0
 40
1.0
 40
1.0
 10
57.14999999999997
 20
4.763566203421256
 30
0.0
 10
56.72976045193322
 20
4.957486634097435
 30
0.0
 10
56.32032974831802
 20
5.127883999933273
 30
0.0
 10
55.71261066465527
 20
5.337126325059023
 30
0.0
 10
55.5111203025086
 20
5.399105978456637
 30
0.0
 10
55.10880230646512
 20
5.505168614046354
 30
0.0
 10
54.90694945753432
 20
5.549408307647827
 30
0.0
 10
54.30829425468172
 20
5.649041992517192
 30
0.0
 10
53.91964049106413
 20
5.672526335043416
 30
0.0
 10
53.34003937119983
 20
5.6240535828947
 30
0.0
 10
53.1461405680737
 20
5.593316197632576
 30
0.0
 10
52.76353579594306
 20
5.499022979093272
 30
0.0
 10
52.57481235867648
 20
5.435751198567986
 30
0.0
 10
52.38749999999998
 20
5.353287686097012
 30
0.0
  0
SPLINE
  5
B4
330
1F
100
AcDbEntity
  8
0
  6
Continuous
 62
     1
370
    15
100
AcDbSpline
210
0.0
220
0.0
230
1.0
 70
     8
 71
     3
 72
    14
 73
    10
 74
     0
 42
0.000000001
 43
0.00000001
 40
0.0
 40
0.0
 40
0.0
 40
0.0
 40
0.25
 40
0.25
 40
0.5
 40
0.5
 40
0.75
 40
0.75
 40
1.0
 40
1.0
 40
1.0
 40
1.0
 10
61.91249999999994
 20
2.325067845135381
 30
0.0
 10
61.51693125472355
 20
2.543898432924707
 30
0.0
 10
61.12099667028364
 20
2.759897822123119
 30
0.0
 10
60.32573367175259
 20
3.185064610349033
 30
0.0
 10
59.92749976849842
 20
3.39402781143477
 30
0.0
 10
59.13429999202962
 20
3.802387197175552
 30
0.0
 10
58.73996197540131
 20
4.00169420536838
 30
0.0
 10
57.94566426716157
 20
4.390755472385178
 30
0.0
 10
57.54731369515861
 20
4.580224956189406
 30
0.0
 10
57.15000000000089
 20
4.763566203420829
 30
0.0
  0
SPLINE
  5
B5
330
1F
100
AcDbEntity
  8
0
  6
Continuous
 62
     1
370
    15
100
AcDbSpline
210
0.0
220
0.0
230
1.0
 70
     8
 71
     3
 72
    16
 73
    12
 74
     0
 42
0.000000001
 43
0.00000001
 40
0.0
 40
0.0
 40
0.0
 40
0.0
 40
0.2499999999999985
 40
0.2499999999999985
 40
0.499999999999997
 40
0.499999999999997
 40
0.6249999999999961
 40
0.6249999999999961
 40
0.7499999999999953
 40
0.7499999999999953
 40
1.0
 40
1.0
 40
1.0
 40
1.0
 10
66.70686803073133
 20
-0.2474930677105049
 30
0.0
 10
66.3629606017001
 20
-0.0615570967903388
 30
0.0
 10
65.99242988647725
 20
0.1275813535791614
 30
0.0
 10
65.21313734434891
 20
0.5283490848677718
 30
0.0
 10
64.81393340966272
 20
0.7352683191156353
 30
0.0
 10
64.20403202902179
 20
1.061040260539847
 30
0.0
 10
63.99867570104991
 20
1.171782241302481
 30
0.0
 10
63.58378723982901
 20
1.397711042496641
 30
0.0
 10
63.37329774137922
 20
1.513432952095691
 30
0.0
 10
62.74486149464695
 20
1.861213478925418
 30
0.0
 10
62.32871386417952
 20
2.094816275383993
 30
0.0
 10
61.91249999999994
 20
2.325067845135381
 30
0.0
  0
SPLINE
  5
B6
330
1F
100
AcDbEntity
  8
0
  6
Continuous
 62
     1
370
    15
100
AcDbSpline
210
0.0
220
0.0
230
1.0
 70
     8
 71
     3
 72
     8
 73
     4
 74
     0
 42
0.000000001
 43
0.00000001
 40
0.0
 40
0.0
 40
0.0
 40
0.0
 40
1.0
 40
1.0
 40
1.0
 40
1.0
 10
65.34521216881792
 20
0.2435900045518123
 30
0.0
 10
65.8081180029751
 20
0.1029663392807043
 30
0.0
 10
66.26197066713792
 20
-0.0608114541533345
 30
0.0
 10
66.70686803073167
 20
-0.2474930677107347
 30
0.0
  0
SPLINE
  5
B7
330
1F
100
AcDbEntity
  8
0
  6
Continuous
 62
     1
370
    15
100
AcDbSpline
210
0.0
220
0.0
230
1.0
 70
     8
 71
     3
 72
     8
 73
     4
 74
     0
 42
0.000000001
 43
0.00000001
 40
0.0
 40
0.0
 40
0.0
 40
0.0
 40
1.0
 40
1.0
 40
1.0
 40
1.0
 10
65.34521216881444
 20
0.2435900045583814
 30
0.0
 10
65.36147588247348
 20
0.1697006279676406
 30
0.0
 10
65.35831327194029
 20
0.0892477438898387
 30
0.0
 10
65.32912009797562
 20
-0.0000000000021288
 30
0.0
  0
SPLINE
  5
B8
330
1F
100
AcDbEntity
  8
0
  6
Continuous
 62
     1
370
    15
100
AcDbSpline
210
0.0
220
0.0
230
1.0
 70
     8
 71
     3
 72
     8
 73
     4
 74
     0
 42
0.000000001
 43
0.00000001
 40
0.0
 40
0.0
 40
0.0
 40
0.0
 40
1.0
 40
1.0
 40
1.0
 40
1.0
 10
67.86194323908333
 20
-0.961727491841382
 30
0.0
 10
67.01583562462446
 20
-0.6478492464945371
 30
0.0
 10
66.17153784739641
 20
-0.3273588945825706
 30
0.0
 10
65.32912009798112
 20
-0.0000000000019269
 30
0.0
  0
SPLINE
  5
B9
330
1F
100
AcDbEntity
  8
0
  6
Continuous
 62
     1
370
    15
100
AcDbSpline
210
0.0
220
0.0
230
1.0
 70
     8
 71
     3
 72
    36
 73
    32
 74
     0
 42
0.000000001
 43
0.00000001
 40
0.0
 40
0.0
 40
0.0
 40
0.0
 40
0.1249999999999972
 40
0.1249999999999972
 40
0.1874999999999971
 40
0.1874999999999971
 40
0.2499999999999971
 40
0.2499999999999971
 40
0.3749999999999998
 40
0.3749999999999998
 40
0.4374999999999998
 40
0.4374999999999998
 40
0.4999999999999999
 40
0.4999999999999999
 40
0.5624999999999999
 40
0.5624999999999999
 40
0.6249999999999999
 40
0.6249999999999999
 40
0.6875
 40
0.6875
 40
0.75
 40
0.75
 40
0.7812500000000002
 40
0.7812500000000002
 40
0.8125000000000003
 40
0.8125000000000003
 40
0.8750000000000002
 40
0.8750000000000002
 40
0.9375000000000002
 40
0.9375000000000002
 40
1.0
 40
1.0
 40
1.0
 40
1.0
 10
61.9125
 20
-5.194604739878926
 30
0.0
 10
62.3773335969679
 20
-5.397958297941923
 30
0.0
 10
62.83001304153841
 20
-5.568020388432539
 30
0.0
 10
63.50152442853283
 20
-5.762199468658875
 30
0.0
 10
63.72411907450762
 20
-5.816672633682418
 30
0.0
 10
64.16896514350577
 20
-5.901723931897859
 30
0.0
 10
64.39129764375483
 20
-5.932232227551553
 30
0.0
 10
65.04682831919526
 20
-5.979746690164149
 30
0.0
 10
65.47343459133961
 20
-5.95512823914826
 30
0.0
 10
66.11508890552204
 20
-5.803308533173348
 30
0.0
 10
66.32483240015122
 20
-5.734226983478933
 30
0.0
 10
66.73822230051107
 20
-5.554017014444717
 30
0.0
 10
66.94400537622292
 20
-5.44157466266714
 30
0.0
 10
67.34249441107912
 20
-5.170415997349183
 30
0.0
 10
67.53391827865329
 20
-5.013171923199894
 30
0.0
 10
67.90188380092086
 20
-4.644585956976176
 30
0.0
 10
68.07095362039254
 20
-4.440663311760613
 30
0.0
 10
68.37292628183769
 20
-3.990550184660918
 30
0.0
 10
68.497149387897
 20
-3.757352348240564
 30
0.0
 10
68.68676996078202
 20
-3.278573486995287
 30
0.0
 10
68.7462495113854
 20
-3.046117419016584
 30
0.0
 10
68.78463541827523
 20
-2.718518093267715
 30
0.0
 10
68.78887429845562
 20
-2.614283014268429
 30
0.0
 10
68.78199664165058
 20
-2.413920332968467
 30
0.0
 10
68.77069770745253
 20
-2.317327270847861
 30
0.0
 10
68.71670451403199
 20
-2.044290995530029
 30
0.0
 10
68.65444594722108
 20
-1.882061946708364
 30
0.0
 10
68.48734676799435
 20
-1.581466517475671
 30
0.0
 10
68.3828227072079
 20
-1.444701602476884
 30
0.0
 10
68.14447559570017
 20
-1.191801455919163
 30
0.0
 10
68.00988847161031
 20
-1.074562747785221
 30
0.0
 10
67.86194323908333
 20
-0.9617274918413283
 30
0.0
  0
LWPOLYLINE
  5
BA
330
1F
100
AcDbEntity
  8
0
  6
Continuous
 62
     1
370
    15
100
AcDbPolyline
 90
        9
 70
   128
 43
0.0
 10
66.64694348761462
 20
0.9526405266250706
 10
67.26055563996127
 20
0.9804527577552252
 10
67.82252373457064
 20
0.9646356504241017
 10
68.32610216932302
 20
0.9053790657888806
 10
68.76524622426095
 20
0.8033942921713695
 10
69.13468461958001
 20
0.6599055070857265
 10
69.42998278960559
 20
0.47663508278425
 10
69.6475961132448
 20
0.2557829117065862
 10
69.78491246195992
 20
-0.0000000000000115
  0
ARC
  5
BB
330
1F
100
AcDbEntity
  8
0
  6
Continuous
 62
     1
370
    15
100
AcDbCircle
 10
59.61669505691584
 20
0.0000463919696592
 30
0.0
 40
7.094492834778438
100
AcDbArc
 50
358.0004425940117
 51
7.716544794673335
  0
SPLINE
  5
BC
330
1F
100
AcDbEntity
  8
0
  6
Continuous
 62
     1
370
    15
100
AcDbSpline
210
0.0
220
0.0
230
1.0
 70
     8
 71
     3
 72
    36
 73
    32
 74
     0
 42
0.000000001
 43
0.00000001
 40
0.0
 40
0.0
 40
0.0
 40
0.0
 40
0.1249999999999971
 40
0.1249999999999971
 40
0.187499999999997
 40
0.187499999999997
 40
0.249999999999997
 40
0.249999999999997
 40
0.3749999999999997
 40
0.3749999999999997
 40
0.4374999999999998
 40
0.4374999999999998
 40
0.4999999999999999
 40
0.4999999999999999
 40
0.5625
 40
0.5625
 40
0.625
 40
0.625
 40
0.6875000000000001
 40
0.6875000000000001
 40
0.7500000000000002
 40
0.7500000000000002
 40
0.7812500000000003
 40
0.7812500000000003
 40
0.8125000000000006
 40
0.8125000000000006
 40
0.8750000000000003
 40
0.8750000000000003
 40
0.9375000000000001
 40
0.9375000000000001
 40
1.0
 40
1.0
 40
1.0
 40
1.0
 10
61.9125
 20
6.001665422732817
 30
0.0
 10
62.37733359696794
 20
5.825657384599914
 30
0.0
 10
62.83001304153841
 20
5.607122473500799
 30
0.0
 10
63.50152442853283
 20
5.229351226631317
 30
0.0
 10
63.72411907450762
 20
5.095056753673506
 30
0.0
 10
64.16896514350577
 20
4.811784202300779
 30
0.0
 10
64.39129764375483
 20
4.662515566246842
 30
0.0
 10
65.04682831919526
 20
4.207893798812367
 30
0.0
 10
65.47343459133964
 20
3.892305786159125
 30
0.0
 10
66.11508890552207
 20
3.425820953851328
 30
0.0
 10
66.32483240015127
 20
3.274904380127428
 30
0.0
 10
66.7382223005111
 20
2.990039178350147
 30
0.0
 10
66.94400537622296
 20
2.854666208149034
 30
0.0
 10
67.34249441107914
 20
2.618751502203751
 30
0.0
 10
67.53391827865332
 20
2.518886457315277
 30
0.0
 10
67.9018838009209
 20
2.373210516054168
 30
0.0
 10
68.07095362039257
 20
2.330518123696987
 30
0.0
 10
68.37292628183772
 20
2.327178086968534
 30
0.0
 10
68.497149387897
 20
2.366887179488091
 30
0.0
 10
68.68676996078199
 20
2.537258666278359
 30
0.0
 10
68.7462495113854
 20
2.66417928926283
 30
0.0
 10
68.78463541827523
 20
2.899232244404848
 30
0.0
 10
68.7888742984556
 20
2.983787939739027
 30
0.0
 10
68.78199664165055
 20
3.163067207145397
 30
0.0
 10
68.77069770745253
 20
3.258382324838524
 30
0.0
 10
68.71670451403196
 20
3.549606161955319
 30
0.0
 10
68.65444594722103
 20
3.752337349755938
 30
0.0
 10
68.4873467679943
 20
4.164898743591463
 30
0.0
 10
68.3828227072079
 20
4.372941404861037
 30
0.0
 10
68.14447559570009
 20
4.776708558225423
 30
0.0
 10
68.00988847161031
 20
4.974166251005689
 30
0.0
 10
67.86194323908333
 20
5.165569825911001
 30
0.0
  0
ARC
  5
BD
330
1F
100
AcDbEntity
  8
0
  6
Continuous
 62
     1
370
    15
100
AcDbCircle
 10
61.99721416709744
 20
-0.0721622831224666
 30
0.0
 40
7.863134536162833
100
AcDbArc
 50
7.942872952612719
 51
41.76772913334561
  0
ARC
  5
BE
330
1F
100
AcDbEntity
  8
0
  6
Continuous
 62
     1
370
    15
100
AcDbCircle
 10
61.5321193987503
 20
-0.3999714549933269
 30
0.0
 40
8.428637244431698
100
AcDbArc
 50
41.41621950574715
 51
52.638723248643
  0
LINE
  5
BF
330
1F
100
AcDbEntity
  8
0
  6
Continuous
 62
     1
370
    15
100
AcDbLine
 10
66.71118311997876
 20
6.322700891551867
 30
0.0
 11
66.70686803073134
 21
6.321130327507603
 31
0.0
  0
SPLINE
  5
C0
330
1F
100
AcDbEntity
  8
0
  6
Continuous
 62
     1
370
    15
100
AcDbSpline
210
0.0
220
0.0
230
1.0
 70
     8
 71
     3
 72
    16
 73
    12
 74
     0
 42
0.000000001
 43
0.00000001
 40
0.0
 40
0.0
 40
0.0
 40
0.0
 40
0.2499999999999984
 40
0.2499999999999984
 40
0.4999999999999969
 40
0.4999999999999969
 40
0.6249999999999961
 40
0.6249999999999961
 40
0.7499999999999953
 40
0.7499999999999953
 40
1.0
 40
1.0
 40
1.0
 40
1.0
 10
66.70686803073124
 20
6.321130327507609
 30
0.0
 10
66.36296060170002
 20
6.589252729563398
 30
0.0
 10
65.99242988647725
 20
6.824367283117572
 30
0.0
 10
65.21313734434885
 20
7.215312471462743
 30
0.0
 10
64.81393340966272
 20
7.366758766182214
 30
0.0
 10
64.20403202902179
 20
7.528812769999791
 30
0.0
 10
63.9986757010499
 20
7.572023001274908
 30
0.0
 10
63.58378723982903
 20
7.636356317785786
 30
0.0
 10
63.3732977413792
 20
7.657474030964321
 30
0.0
 10
62.74486149464694
 20
7.686131112887284
 30
0.0
 10
62.32871386417949
 20
7.659872236602109
 30
0.0
 10
61.91249999999994
 20
7.589332366257108
 30
0.0
  0
ARC
  5
C1
330
1F
100
AcDbEntity
  8
0
  6
Continuous
 62
     1
370
    15
100
AcDbCircle
 10
61.8209357766784
 20
0.1402271337189923
 30
0.0
 40
8.047242525991766
100
AcDbArc
 50
306.8490942297369
 51
351.7505934298741
  0
LINE
  5
C2
330
1F
100
AcDbEntity
  8
0
  6
Continuous
 62
     1
370
    15
100
AcDbLine
 10
66.64694348761462
 20
-6.299319577511116
 30
0.0
 11
66.71118311997876
 21
-6.322700891551872
 31
0.0
  0
SPLINE
  5
C3
330
1F
100
AcDbEntity
  8
0
  6
Continuous
 62
     1
370
    15
100
AcDbSpline
210
0.0
220
0.0
230
1.0
 70
     8
 71
     3
 72
    11
 73
     7
 74
     0
 42
0.000000001
 43
0.00000001
 40
0.0
 40
0.0
 40
0.0
 40
0.0
 40
0.1394291537280326
 40
0.3968993742410857
 40
0.6627001765960122
 40
1.0
 40
1.0
 40
1.0
 40
1.0
 10
66.2306283300365
 20
-6.627103036177751
 30
0.0
 10
66.0507495346046
 20
-6.749881327618541
 30
0.0
 10
65.53870611013245
 20
-7.099382316043755
 30
0.0
 10
64.58029678913067
 20
-7.456741974516159
 30
0.0
 10
63.30950840419385
 20
-7.726362865343924
 30
0.0
 10
62.41357450336491
 20
-7.638482027110715
 30
0.0
 10
61.91249999999994
 20
-7.589332366257096
 30
0.0
  0
ARC
  5
C4
330
1F
100
AcDbEntity
  8
0
  6
Continuous
 62
     1
370
    15
100
AcDbCircle
 10
68.04770893331971
 20
1.070182279109059
 30
0.0
 40
2.040383838996729
100
AcDbArc
 50
264.7763016600661
 51
328.3653788878821
  0
SPLINE
  5
C5
330
1F
100
AcDbEntity
  8
0
  6
Continuous
 62
     4
370
    15
100
AcDbSpline
210
0.0
220
0.0
230
1.0
 70
     8
 71
     3
 72
    18
 73
    14
 74
     0
 42
0.000000001
 43
0.00000001
 40
0.0
 40
0.0
 40
0.0
 40
0.0
 40
0.2499999999999999
 40
0.2499999999999999
 40
0.3749999999999998
 40
0.3749999999999998
 40
0.4999999999999998
 40
0.4999999999999998
 40
0.7499999999999999
 40
0.7499999999999999
 40
0.875
 40
0.875
 40
1.0
 40
1.0
 40
1.0
 40
1.0
 10
57.14999999999997
 20
-6.349200207555509
 30
0.0
 10
56.72976045193321
 20
-6.203708999289202
 30
0.0
 10
56.32032974831802
 20
-6.020729087406537
 30
0.0
 10
55.71261066465526
 20
-5.701763378404061
 30
0.0
 10
55.51112030250859
 20
-5.587973849478637
 30
0.0
 10
55.10880230646509
 20
-5.346807858782625
 30
0.0
 10
54.90694945753427
 20
-5.218727776636465
 30
0.0
 10
54.30829425468172
 20
-4.821890283336653
 30
0.0
 10
53.91964049106413
 20
-4.54125782364637
 30
0.0
 10
53.34003937119981
 20
-4.112918798263991
 30
0.0
 10
53.14614056807368
 20
-3.968203553950201
 30
0.0
 10
52.76353579594306
 20
-3.685429953864039
 30
0.0
 10
52.57481235867648
 20
-3.54731834665453
 30
0.0
 10
52.38749999999998
 20
-3.415378595394971
 30
0.0
  0
SPLINE
  5
C6
330
1F
100
AcDbEntity
  8
0
  6
Continuous
 62
     1
370
    15
100
AcDbSpline
210
0.0
220
0.0
230
1.0
 70
     8
 71
     3
 72
    12
 73
     8
 74
     0
 42
0.000000001
 43
0.00000001
 40
0.0
 40
0.0
 40
0.0
 40
0.0
 40
0.2500000000000001
 40
0.2500000000000001
 40
0.5000000000000001
 40
0.5000000000000001
 40
0.7374586056591171
 40
0.7374586056591171
 40
0.7374586056591171
 40
0.7374586056591171
 10
61.91249999999997
 20
6.001665422732834
 30
0.0
 10
61.51693125472359
 20
6.151446504085258
 30
0.0
 10
61.12099667028367
 20
6.29379038993063
 30
0.0
 10
60.32573367175261
 20
6.562774991040436
 30
0.0
 10
59.92749976849842
 20
6.689275154067679
 30
0.0
 10
59.15419565440523
 20
6.919002313539012
 30
0.0
 10
58.7795320561549
 20
7.023053873889864
 30
0.0
 10
58.40256214525328
 20
7.119286657089743
 30
0.0
  0
SPLINE
  5
C7
330
1F
100
AcDbEntity
  8
0
  6
Continuous
 62
     4
370
    15
100
AcDbSpline
210
0.0
220
0.0
230
1.0
 70
     8
 71
     3
 72
     8
 73
     4
 74
     0
 42
0.000000001
 43
0.00000001
 40
0.0
 40
0.0
 40
0.0
 40
0.0
 40
0.0406879950310945
 40
0.0406879950310945
 40
0.0406879950310945
 40
0.0406879950310945
 10
52.38749999999998
 20
6.346470840066311
 30
0.0
 10
52.44413445753724
 20
6.387855907096442
 30
0.0
 10
52.5012900559347
 20
6.428218849872905
 30
0.0
 10
52.55894679016654
 20
6.46755308384116
 30
0.0
  0
SPLINE
  5
C8
330
1F
100
AcDbEntity
  8
0
  6
Continuous
 62
     1
370
    15
100
AcDbSpline
210
0.0
220
0.0
230
1.0
 70
     8
 71
     3
 72
     9
 73
     5
 74
     0
 42
0.000000001
 43
0.00000001
 40
0.0
 40
0.0
 40
0.0
 40
0.0
 40
0.2582369950017547
 40
0.9999999999999999
 40
0.9999999999999999
 40
0.9999999999999999
 40
0.9999999999999999
 10
59.08699485321341
 20
6.929663931764799
 30
0.0
 10
59.33023429563356
 20
7.005358876157699
 30
0.0
 10
60.2721575952696
 20
7.29848087594083
 30
0.0
 10
61.21392889252596
 20
7.465467710247013
 30
0.0
 10
61.91249999999994
 20
7.589332366257111
 30
0.0
  0
SPLINE
  5
C9
330
1F
100
AcDbEntity
  8
0
  6
Continuous
 62
     1
370
    15
100
AcDbSpline
210
0.0
220
0.0
230
1.0
 70
    24
 71
     3
 72
     8
 73
     4
 74
     0
 42
0.000000001
 43
0.00000001
 40
0.0
 40
0.0
 40
0.0
 40
0.0
 40
1.0
 40
1.0
 40
1.0
 40
1.0
 10
65.34521216881572
 20
5.825528124456218
 30
0.0
 10
65.80811800297366
 20
5.994012069357875
 30
0.0
 10
66.26197066713723
 20
6.159200929855909
 30
0.0
 10
66.70686803073167
 20
6.321130327507793
 30
0.0
  0
SPLINE
  5
CA
330
1F
100
AcDbEntity
  8
0
  6
Continuous
 62
     1
370
    15
100
AcDbSpline
210
0.0
220
0.0
230
1.0
 70
     8
 71
     3
 72
     8
 73
     4
 74
     0
 42
0.000000001
 43
0.00000001
 40
0.0
 40
0.0
 40
0.0
 40
0.0
 40
1.0
 40
1.0
 40
1.0
 40
1.0
 10
65.34521216881572
 20
5.825528124456212
 30
0.0
 10
65.36147588247329
 20
5.631654847888591
 30
0.0
 10
65.35831327193951
 20
5.440412232693289
 30
0.0
 10
65.32912009797562
 20
5.252694607457012
 30
0.0
  0
SPLINE
  5
CB
330
1F
100
AcDbEntity
  8
0
  6
Continuous
 62
     1
370
    15
100
AcDbSpline
210
0.0
220
0.0
230
1.0
 70
     8
 71
     3
 72
     8
 73
     4
 74
     0
 42
0.000000001
 43
0.00000001
 40
0.0
 40
0.0
 40
0.0
 40
0.0
 40
1.0
 40
1.0
 40
1.0
 40
1.0
 10
67.86194323908327
 20
5.165569825910981
 30
0.0
 10
67.0158356246244
 20
5.21252626458084
 30
0.0
 10
66.17153784739641
 20
5.241796498695495
 30
0.0
 10
65.32912009798112
 20
5.252694607461307
 30
0.0
  0
SPLINE
  5
CC
330
1F
100
AcDbEntity
  8
0
  6
Continuous
 62
     1
370
    15
100
AcDbSpline
210
0.0
220
0.0
230
1.0
 70
     8
 71
     3
 72
    14
 73
    10
 74
     0
 42
0.000000001
 43
0.00000001
 40
0.0
 40
0.0
 40
0.0
 40
0.0
 40
0.25
 40
0.25
 40
0.5
 40
0.5
 40
0.75
 40
0.75
 40
1.0
 40
1.0
 40
1.0
 40
1.0
 10
61.91249999999994
 20
-7.589332366257097
 30
0.0
 10
61.51693125472355
 20
-7.522291427918018
 30
0.0
 10
61.12099667028364
 20
-7.44576613891548
 30
0.0
 10
60.32573367175259
 20
-7.274052021527095
 30
0.0
 10
59.92749976849842
 20
-7.17892427049445
 30
0.0
 10
59.13429999202962
 20
-6.971243079181966
 30
0.0
 10
58.73996197540131
 20
-6.858780528461626
 30
0.0
 10
57.94566426716157
 20
-6.616471358103413
 30
0.0
 10
57.54731369515861
 20
-6.486754252231453
 30
0.0
 10
57.15000000000089
 20
-6.349200207555829
 30
0.0
  0
LINE
  5
CD
330
1F
100
AcDbEntity
  8
0
  6
Continuous
 62
     1
370
    15
100
AcDbLine
 10
59.08699485321351
 20
-6.929663931764804
 30
0.0
 11
58.37519276885249
 21
-7.105727535057306
 31
0.0
  0
SPLINE
  5
CE
330
1F
100
AcDbEntity
  8
0
  6
Continuous
 62
     4
370
    15
100
AcDbSpline
210
0.0
220
0.0
230
1.0
 70
     8
 71
     3
 72
     8
 73
     4
 74
     0
 42
0.000000001
 43
0.00000001
 40
0.0
 40
0.0
 40
0.0
 40
0.0
 40
0.0404435917330611
 40
0.0404435917330611
 40
0.0404435917330611
 40
0.0404435917330611
 10
52.38749999999998
 20
-6.346470840066316
 30
0.0
 10
52.44379426755751
 20
-6.387607316649468
 30
0.0
 10
52.50060343403543
 20
-6.427733911423511
 30
0.0
 10
52.55790785274338
 20
-6.466844157778254
 30
0.0
  0
SPLINE
  5
CF
330
1F
100
AcDbEntity
  8
0
  6
Continuous
 62
     4
370
    15
100
AcDbSpline
210
0.0
220
0.0
230
1.0
 70
    24
 71
     3
 72
    14
 73
    10
 74
     0
 42
0.000000001
 43
0.00000001
 40
0.0
 40
0.0
 40
0.0
 40
0.0
 40
0.0492655219647923
 40
0.2245769318467444
 40
0.3949475813513268
 40
0.570258991233269
 40
0.7406296407378742
 40
0.9159410506198409
 40
1.0
 40
1.0
 40
1.0
 40
1.0
 10
52.38749999999997
 20
-3.415378595394959
 30
0.0
 10
52.38749999999997
 20
-3.438512466627454
 30
0.0
 10
52.38749999999998
 20
-3.543968242105574
 30
0.0
 10
52.38750000000008
 20
-3.832115401206269
 30
0.0
 10
52.38749999999997
 20
-4.274128338582122
 30
0.0
 10
52.38750000000002
 20
-4.797372845581205
 30
0.0
 10
52.38749999999998
 20
-5.386920339223613
 30
0.0
 10
52.3875
 20
-5.911911943403454
 30
0.0
 10
52.38749999999998
 20
-6.240106696476786
 30
0.0
 10
52.38749999999998
 20
-6.346470840066317
 30
0.0
  0
LINE
  5
D0
330
1F
100
AcDbEntity
  8
0
  6
Continuous
 62
     1
370
    15
100
AcDbLine
 10
65.32912009798176
 20
-0.000000000000057
 30
0.0
 11
66.02062896963227
 21
-0.0000000000000501
 31
0.0
  0
LINE
  5
D1
330
1F
100
AcDbEntity
  8
0
  6
Continuous
 62
     1
370
    15
100
AcDbLine
 10
66.71118311997876
 20
-0.0000000000000433
 30
0.0
 11
69.78491246195992
 21
-0.0000000000000115
 31
0.0
  0
LINE
  5
D2
330
1F
100
AcDbEntity
  8
중심선
100
AcDbLine
 10
-92.17501250000001
 20
-0.0000000000000052
 30
0.0
 11
74.82366988838447
 21
-0.0000000000000063
 31
0.0
  0
CIRCLE
  5
D3
330
1F
100
AcDbEntity
  8
외형선
100
AcDbCircle
 10
0.0000000000000104
 20
0.0
 30
0.0
 40
3.000000000000005
  0
INSERT
  5
D4
330
1F
100
AcDbEntity
  8
0
  6
Continuous
 62
     7
100
AcDbBlockReference
 66
     1
  2
블럭10
 10
-22.93944368806589
 20
-52.04609937292004
 30
0.0
  0
ATTRIB
  5
D5
330
D4
100
AcDbEntity
  8
FORMAT
 62
     2
100
AcDbText
 10
-33.08107970020252
 20
-49.97073246008785
 30
0.0
 40
4.233333333333333
  1
EM097040 [ 4 FLUTE ]
 41
0.75
  7
SLDTEXTSTYLE0
 11
-33.08107970020252
 21
-52.08739912675452
 31
0.0
100
AcDbAttribute
  2
AUTOATTR0
 70
     0
 74
     1
  0
SEQEND
  5
D6
330
D4
100
AcDbEntity
  8
0
  6
Continuous
 62
     7
  0
HATCH
  5
D7
330
1F
100
AcDbEntity
  8
중심선
100
AcDbHatch
 10
0.0
 20
0.0
 30
0.0
210
0.0
220
0.0
230
1.0
  2
SOLID
 70
     1
 71
     0
 91
        1
 92
        0
 93
        4
 72
     1
 10
-17.22453438368504
 20
-35.7989250712761
 11
-20.67080962752232
 21
-35.7989250712761
 72
     1
 10
-20.67080962752232
 20
-35.7989250712761
 11
-22.79903948672635
 21
-38.3352506518487
 72
     1
 10
-22.79903948672635
 20
-38.3352506518487
 11
-19.35273115777591
 21
-38.33521122254621
 72
     1
 10
-19.35273115777591
 20
-38.33521122254621
 11
-17.22453438368504
 21
-35.7989250712761
 97
        0
 75
     0
 76
     1
 98
        1
 10
0.0
 20
0.0
  0
HATCH
  5
D8
330
1F
100
AcDbEntity
  8
중심선
100
AcDbHatch
 10
0.0
 20
0.0
 30
0.0
210
0.0
220
0.0
230
1.0
  2
SOLID
 70
     1
 71
     0
 91
        1
 92
        0
 93
        4
 72
     1
 10
-12.21177039264909
 20
-35.7989250712761
 11
-15.65804563648637
 21
-35.7989250712761
 72
     1
 10
-15.65804563648637
 20
-35.7989250712761
 11
-20.18918364484376
 21
-41.19892507127612
 72
     1
 10
-20.18918364484376
 20
-41.19892507127612
 11
-16.74290840100648
 21
-41.19892507127612
 72
     1
 10
-16.74290840100648
 20
-41.19892507127612
 11
-12.21177039264909
 21
-35.7989250712761
 97
        0
 75
     0
 76
     1
 98
        1
 10
0.0
 20
0.0
  0
HATCH
  5
D9
330
1F
100
AcDbEntity
  8
중심선
100
AcDbHatch
 10
0.0
 20
0.0
 30
0.0
210
0.0
220
0.0
230
1.0
  2
SOLID
 70
     1
 71
     0
 91
        1
 92
        0
 93
        4
 72
     1
 10
-7.199006401613195
 20
-35.79892507127613
 11
-10.64528164545031
 21
-35.7989250712761
 72
     1
 10
-10.64528164545031
 20
-35.7989250712761
 11
-17.69371854733956
 21
-44.19892507127612
 72
     1
 10
-17.69371854733956
 20
-44.19892507127612
 11
-14.24744330350228
 21
-44.19892507127612
 72
     1
 10
-14.24744330350228
 20
-44.19892507127612
 11
-7.199006401613195
 21
-35.79892507127613
 97
        0
 75
     0
 76
     1
 98
        1
 10
0.0
 20
0.0
  0
HATCH
  5
DA
330
1F
100
AcDbEntity
  8
중심선
100
AcDbHatch
 10
0.0
 20
0.0
 30
0.0
210
0.0
220
0.0
230
1.0
  2
SOLID
 70
     1
 71
     0
 91
        1
 92
        0
 93
        6
 72
     3
 10
-2.399115970600996
 20
-39.99892507132738
 11
3.960054785062284
 21
1.540850780301639E-10
 40
0.3939339440162633
 50
17.09539180608433
 51
320.0019657685079
 73
     0
 72
     1
 10
-0.7161163149004002
 20
-38.58681907591441
 11
1.589185558800638
 21
-36.65249236586649
 72
     3
 10
-2.399115970653842
 20
-39.99892507127625
 11
6.600054785286829
 21
-1.249000902703301E-13
 40
0.6363583540795982
 50
39.99873849337408
 51
368.4976242363725
 73
     1
 72
     1
 10
4.026216521246767
 20
-39.03892507120613
 11
-3.71904866381792
 21
-39.0389250712061
 72
     1
 10
-3.71904866381792
 20
-39.0389250712061
 11
-3.719073708263854
 21
-40.95892507120602
 72
     1
 10
-3.719073708263854
 20
-40.95892507120602
 11
0.7223060612081831
 21
-40.95892507120599
 97
        0
 75
     0
 76
     1
 98
        1
 10
0.0
 20
0.0
  0
DIMENSION
  5
DB
330
1F
100
AcDbEntity
  8
치수문자_일반주서
100
AcDbDimension
  2
_D
 10
-110.71
 20
-7.937500000000083
 30
0.0
 11
-110.7100000000001
 21
-0.0000000000000808
 31
0.0
 70
   160
  1
%%c<>
 71
     2
 42
15.87499999999999
 52
-270.0
  3
SLDDIMSTYLE0
100
AcDbAlignedDimension
 13
-87.90000000000003
 23
7.937499999999993
 33
0.0
 14
-87.90000000000003
 24
-7.937499999999997
 34
0.0
 50
90.0000000000002
100
AcDbRotatedDimension
1001
ACAD
1000
DSTYLE
1002
{
1070
   171
1070
     6
1070
   273
1070
     7
1002
}
  0
INSERT
  5
102
330
1F
100
AcDbEntity
  8
외형선
100
AcDbBlockReference
  2
SW_DOWELSYMBOL_0
 10
0.0000000000000104
 20
0.0
 30
0.0
  0
LINE
  5
131
330
1F
100
AcDbEntity
  8
0
  6
Continuous
 62
     4
370
    15
100
AcDbLine
 10
57.14999999999999
 20
-6.349999999999998
 30
0.0
 11
57.14999999999999
 21
6.349999999999998
 31
0.0
  0
CIRCLE
  5
132
330
1F
100
AcDbEntity
  8
0
100
AcDbCircle
 10
56.08883011161555
 20
0.0010749287238951
 30
0.0
 40
0.0
  0
ARC
  5
133
102
{ACAD_REACTORS
102
}
330
1F
100
AcDbEntity
  8
0
  6
Continuous
 62
     1
370
    15
100
AcDbCircle
 10
61.91249999999999
 20
0.0
 30
0.0
 40
7.9375
100
AcDbArc
 50
233.1207991342102
 51
126.869897645844
  0
LINE
  5
135
102
{ACAD_REACTORS
102
}
330
1F
100
AcDbEntity
  8
0
 62
     4
100
AcDbLine
 10
0.0
 20
-7.937499999999996
 30
0.0
 11
0.0
 21
7.937499999999996
 31
0.0
  0
LINE
  5
136
330
1F
100
AcDbEntity
  8
0
 62
     4
100
AcDbLine
 10
57.14999999999999
 20
6.349999999999998
 30
0.0
 11
-0.0000000000000142
 21
7.813315373285851
 31
0.0
  0
LINE
  5
137
330
1F
100
AcDbEntity
  8
0
 62
     4
100
AcDbLine
 10
0.0
 20
-7.813315373285856
 30
0.0
 11
57.14999999999997
 21
-6.349200207555509
 31
0.0
  0
DIMENSION
  5
13A
102
{ACAD_XDICTIONARY
360
13B
102
}
330
1F
100
AcDbEntity
  8
치수문자_일반주서
100
AcDbDimension
  2
*D5
 10
83.2654616816794
 20
7.937499999999999
 30
0.0
 11
80.6404616816794
 21
27.229
 31
0.0
 70
    32
 71
     5
 42
15.875
  3
SLDDIMSTYLE0
100
AcDbAlignedDimension
 13
69.85
 23
-7.9375
 33
0.0
 14
69.85
 24
7.9375
 34
0.0
 50
90.0
100
AcDbRotatedDimension
1001
ACAD
1000
DSTYLE
1002
{
1070
   171
1070
     6
1070
   273
1070
     7
1002
}
  0
DIMENSION
  5
14B
102
{ACAD_REACTORS
102
}
102
{ACAD_XDICTIONARY
360
14C
102
}
330
1F
100
AcDbEntity
  8
치수문자_일반주서
100
AcDbDimension
  2
*D6
 10
57.14999999999999
 20
34.04717509350696
 30
0.0
 11
39.17099999999999
 21
36.67217509350696
 31
0.0
 70
    32
 71
     5
 42
12.7
  3
SLDDIMSTYLE0
100
AcDbAlignedDimension
 13
69.85
 23
7.9375
 33
0.0
 14
57.14999999999999
 24
6.349999999999999
 34
0.0
100
AcDbRotatedDimension
1001
ACAD
1000
DSTYLE
1002
{
1070
   171
1070
     2
1070
   273
1070
     2
1002
}
  0
DIMENSION
  5
15B
102
{ACAD_REACTORS
102
}
102
{ACAD_XDICTIONARY
360
15C
102
}
330
1F
100
AcDbEntity
  8
치수문자_일반주서
100
AcDbDimension
  2
*D7
 10
0.0
 20
53.88918798463513
 30
0.0
 11
34.925
 21
56.51418798463513
 31
0.0
 70
    32
 71
     5
 42
69.85
  3
SLDDIMSTYLE0
100
AcDbAlignedDimension
 13
69.85
 23
7.9375
 33
0.0
 14
0.0
 24
7.937499999999996
 34
0.0
100
AcDbRotatedDimension
1001
ACAD
1000
DSTYLE
1002
{
1070
   171
1070
     6
1070
   273
1070
     7
1002
}
  0
DIMENSION
  5
16A
102
{ACAD_REACTORS
102
}
102
{ACAD_XDICTIONARY
360
16B
102
}
330
1F
100
AcDbEntity
  8
치수문자_일반주서
100
AcDbDimension
  2
*D8
 10
-88.90000000000003
 20
80.22534652808784
 30
0.0
 11
-9.52500000000002
 21
82.85034652808784
 31
0.0
 70
    32
 71
     5
 42
158.75
  3
SLDDIMSTYLE0
100
AcDbAlignedDimension
 13
69.85
 23
7.9375
 33
0.0
 14
-88.90000000000003
 24
6.937499999999997
 34
0.0
100
AcDbRotatedDimension
1001
ACAD
1000
DSTYLE
1002
{
1070
   171
1070
     6
1070
   273
1070
     7
1002
}
  0
LINE
  5
17A
330
1F
100
AcDbEntity
  8
0
  6
Continuous
 62
     4
370
    15
100
AcDbLine
 10
51.64968254163351
 20
5.547894112219756
 30
0.0
 11
51.6496825416335
 21
0.1262352840402478
 31
0.0
  0
ENDSEC
  0
SECTION
  2
OBJECTS
  0
DICTIONARY
  5
C
330
0
100
AcDbDictionary
281
     1
  3
ACAD_DETAILVIEWSTYLE
350
12D
  3
ACAD_GROUP
350
D
  3
ACAD_IMAGE_VARS
350
126
  3
ACAD_LAYOUT
350
1A
  3
ACAD_MLINESTYLE
350
17
  3
ACAD_PLOTSETTINGS
350
19
  3
ACAD_PLOTSTYLENAME
350
E
  3
ACAD_SCALELIST
350
47
  3
ACAD_SECTIONVIEWSTYLE
350
12E
  3
AcDbVariableDictionary
350
128
  3
APPDATA
350
124
  3
DWGPROPS
350
17C
  0
DICTIONARY
  5
13B
330
13A
100
AcDbDictionary
280
     1
281
     1
  0
DICTIONARY
  5
14C
330
14B
100
AcDbDictionary
280
     1
281
     1
  0
DICTIONARY
  5
15C
330
15B
100
AcDbDictionary
280
     1
281
     1
  0
DICTIONARY
  5
16B
330
16A
100
AcDbDictionary
280
     1
281
     1
  0
DICTIONARY
  5
12D
102
{ACAD_REACTORS
330
C
102
}
330
C
100
AcDbDictionary
281
     1
  0
DICTIONARY
  5
D
102
{ACAD_REACTORS
330
C
102
}
330
C
100
AcDbDictionary
281
     1
  0
RASTERVARIABLES
  5
126
102
{ACAD_REACTORS
330
C
102
}
330
C
100
AcDbRasterVariables
 90
        0
 70
     1
 71
     1
 72
     1
  0
DICTIONARY
  5
1A
102
{ACAD_REACTORS
330
C
102
}
330
C
100
AcDbDictionary
281
     1
  3
Layout1
350
1E
  3
Layout2
350
26
  3
Model
350
22
  0
DICTIONARY
  5
17
102
{ACAD_REACTORS
330
C
102
}
330
C
100
AcDbDictionary
281
     1
  3
Standard
350
18
  0
DICTIONARY
  5
19
102
{ACAD_REACTORS
330
C
102
}
330
C
100
AcDbDictionary
281
     1
  0
ACDBDICTIONARYWDFLT
  5
E
102
{ACAD_REACTORS
330
C
102
}
330
C
100
AcDbDictionary
281
     1
  3
Normal
350
F
100
AcDbDictionaryWithDefault
340
F
  0
DICTIONARY
  5
47
102
{ACAD_REACTORS
330
C
102
}
330
C
100
AcDbDictionary
281
     1
  3
A0
350
48
  3
A1
350
49
  3
A2
350
4A
  3
A3
350
4B
  3
A4
350
4C
  3
A5
350
4D
  3
A6
350
4E
  3
A7
350
4F
  3
A8
350
50
  3
A9
350
51
  3
B0
350
52
  3
B1
350
53
  3
B2
350
54
  3
B3
350
55
  3
B4
350
56
  3
B5
350
57
  3
B6
350
58
  3
B7
350
59
  3
B8
350
5A
  3
B9
350
5B
  3
C0
350
5C
  3
C1
350
5D
  3
C2
350
5E
  3
C3
350
5F
  3
C4
350
60
  3
C5
350
61
  3
C6
350
62
  3
C7
350
63
  3
C8
350
64
  3
C9
350
65
  3
D0
350
66
  3
D1
350
67
  3
D2
350
68
  0
DICTIONARY
  5
12E
102
{ACAD_REACTORS
330
C
102
}
330
C
100
AcDbDictionary
281
     1
  0
DICTIONARY
  5
128
102
{ACAD_REACTORS
330
C
102
}
330
C
100
AcDbDictionary
281
     1
  0
DICTIONARY
  5
124
102
{ACAD_REACTORS
330
C
102
}
330
C
100
AcDbDictionary
281
     1
  0
XRECORD
  5
17C
102
{ACAD_REACTORS
330
C
102
}
330
C
100
AcDbXrecord
280
     1
  1
DWGPROPS COOKIE
  2

  3

  4

  6

  7

  8
12015048
  9

300
=
301
=
302
=
303
=
304
=
305
=
306
=
307
=
308
=
309
=
 40
0.0
 41
2458272.313757407
 42
2458297.247473067
  1

 90
        0
  0
LAYOUT
  5
1E
102
{ACAD_REACTORS
330
1A
102
}
330
1A
100
AcDbPlotSettings
  1

  2
none_device
  4

  6

 40
0.0
 41
0.0
 42
0.0
 43
0.0
 44
0.0
 45
0.0
 46
0.0
 47
0.0
 48
0.0
 49
0.0
140
0.0
141
0.0
142
1.0
143
1.0
 70
   688
 72
     1
 73
     0
 74
     5
  7

 75
    16
147
1.0
148
0.0
149
0.0
100
AcDbLayout
  1
Layout1
 70
     1
 71
     1
 10
0.0
 20
0.0
 11
420.0
 21
297.0
 12
0.0
 22
0.0
 32
0.0
 14
1.000000000000000E+20
 24
1.000000000000000E+20
 34
1.000000000000000E+20
 15
-1.000000000000000E+20
 25
-1.000000000000000E+20
 35
-1.000000000000000E+20
146
0.0
 13
0.0
 23
0.0
 33
0.0
 16
1.0
 26
0.0
 36
0.0
 17
0.0
 27
1.0
 37
0.0
 76
     0
330
1B
  0
LAYOUT
  5
26
102
{ACAD_REACTORS
330
1A
102
}
330
1A
100
AcDbPlotSettings
  1

  2
none_device
  4

  6

 40
0.0
 41
0.0
 42
0.0
 43
0.0
 44
0.0
 45
0.0
 46
0.0
 47
0.0
 48
0.0
 49
0.0
140
0.0
141
0.0
142
1.0
143
1.0
 70
   688
 72
     1
 73
     0
 74
     5
  7

 75
    16
147
1.0
148
0.0
149
0.0
100
AcDbLayout
  1
Layout2
 70
     1
 71
     2
 10
0.0
 20
0.0
 11
0.0
 21
0.0
 12
0.0
 22
0.0
 32
0.0
 14
0.0
 24
0.0
 34
0.0
 15
0.0
 25
0.0
 35
0.0
146
0.0
 13
0.0
 23
0.0
 33
0.0
 16
1.0
 26
0.0
 36
0.0
 17
0.0
 27
1.0
 37
0.0
 76
     0
330
23
  0
LAYOUT
  5
22
102
{ACAD_REACTORS
330
1A
102
}
330
1A
100
AcDbPlotSettings
  1

  2
none_device
  4
ANSI_A_(11.00_x_8.50_Inches)
  6

 40
6.35
 41
19.05
 42
6.35000508
 43
19.05000254
 44
279.4
 45
215.9
 46
179.1011272815603
 47
114.7358329464143
 48
0.0
 49
0.0
140
0.0
141
0.0
142
0.0569105617973403
143
1.0
 70
  1696
 72
     0
 73
     0
 74
     0
  7

 75
     0
147
0.0235690232323232
148
0.0
149
0.0
100
AcDbLayout
  1
Model
 70
     1
 71
     0
 10
0.0
 20
0.0
 11
420.0
 21
297.0
 12
0.0
 22
0.0
 32
0.0
 14
-115.0850000000001
 24
-49.97073246008785
 34
0.0
 15
83.81579501501272
 25
84.60034652808785
 35
0.0
146
0.0
 13
0.0
 23
0.0
 33
0.0
 16
1.0
 26
0.0
 36
0.0
 17
0.0
 27
1.0
 37
0.0
 76
     0
330
1F
331
29
  0
MLINESTYLE
  5
18
102
{ACAD_REACTORS
330
17
102
}
330
17
100
AcDbMlineStyle
  2
Standard
 70
     0
  3

 62
   256
 51
90.0
 52
90.0
 71
     2
 49
0.5
 62
   256
  6
BYLAYER
 49
-0.5
 62
   256
  6
BYLAYER
  0
ACDBPLACEHOLDER
  5
F
102
{ACAD_REACTORS
330
E
102
}
330
E
  0
SCALE
  5
48
102
{ACAD_REACTORS
330
47
102
}
330
47
100
AcDbScale
 70
     0
300
1:1
140
1.0
141
1.0
290
     1
  0
SCALE
  5
49
102
{ACAD_REACTORS
330
47
102
}
330
47
100
AcDbScale
 70
     0
300
1:2
140
1.0
141
2.0
290
     0
  0
SCALE
  5
4A
102
{ACAD_REACTORS
330
47
102
}
330
47
100
AcDbScale
 70
     0
300
1:4
140
1.0
141
4.0
290
     0
  0
SCALE
  5
4B
102
{ACAD_REACTORS
330
47
102
}
330
47
100
AcDbScale
 70
     0
300
1:5
140
1.0
141
5.0
290
     0
  0
SCALE
  5
4C
102
{ACAD_REACTORS
330
47
102
}
330
47
100
AcDbScale
 70
     0
300
1:8
140
1.0
141
8.0
290
     0
  0
SCALE
  5
4D
102
{ACAD_REACTORS
330
47
102
}
330
47
100
AcDbScale
 70
     0
300
1:10
140
1.0
141
10.0
290
     0
  0
SCALE
  5
4E
102
{ACAD_REACTORS
330
47
102
}
330
47
100
AcDbScale
 70
     0
300
1:16
140
1.0
141
16.0
290
     0
  0
SCALE
  5
4F
102
{ACAD_REACTORS
330
47
102
}
330
47
100
AcDbScale
 70
     0
300
1:20
140
1.0
141
20.0
290
     0
  0
SCALE
  5
50
102
{ACAD_REACTORS
330
47
102
}
330
47
100
AcDbScale
 70
     0
300
1:30
140
1.0
141
30.0
290
     0
  0
SCALE
  5
51
102
{ACAD_REACTORS
330
47
102
}
330
47
100
AcDbScale
 70
     0
300
1:40
140
1.0
141
40.0
290
     0
  0
SCALE
  5
52
102
{ACAD_REACTORS
330
47
102
}
330
47
100
AcDbScale
 70
     0
300
1:50
140
1.0
141
50.0
290
     0
  0
SCALE
  5
53
102
{ACAD_REACTORS
330
47
102
}
330
47
100
AcDbScale
 70
     0
300
1:100
140
1.0
141
100.0
290
     0
  0
SCALE
  5
54
102
{ACAD_REACTORS
330
47
102
}
330
47
100
AcDbScale
 70
     0
300
2:1
140
2.0
141
1.0
290
     0
  0
SCALE
  5
55
102
{ACAD_REACTORS
330
47
102
}
330
47
100
AcDbScale
 70
     0
300
4:1
140
4.0
141
1.0
290
     0
  0
SCALE
  5
56
102
{ACAD_REACTORS
330
47
102
}
330
47
100
AcDbScale
 70
     0
300
8:1
140
8.0
141
1.0
290
     0
  0
SCALE
  5
57
102
{ACAD_REACTORS
330
47
102
}
330
47
100
AcDbScale
 70
     0
300
10:1
140
10.0
141
1.0
290
     0
  0
SCALE
  5
58
102
{ACAD_REACTORS
330
47
102
}
330
47
100
AcDbScale
 70
     0
300
100:1
140
100.0
141
1.0
290
     0
  0
SCALE
  5
59
102
{ACAD_REACTORS
330
47
102
}
330
47
100
AcDbScale
 70
     0
300
1/128" = 1'-0"
140
0.0078125
141
12.0
290
     0
  0
SCALE
  5
5A
102
{ACAD_REACTORS
330
47
102
}
330
47
100
AcDbScale
 70
     0
300
1/64" = 1'-0"
140
0.015625
141
12.0
290
     0
  0
SCALE
  5
5B
102
{ACAD_REACTORS
330
47
102
}
330
47
100
AcDbScale
 70
     0
300
1/32" = 1'-0"
140
0.03125
141
12.0
290
     0
  0
SCALE
  5
5C
102
{ACAD_REACTORS
330
47
102
}
330
47
100
AcDbScale
 70
     0
300
1/16" = 1'-0"
140
0.0625
141
12.0
290
     0
  0
SCALE
  5
5D
102
{ACAD_REACTORS
330
47
102
}
330
47
100
AcDbScale
 70
     0
300
3/32" = 1'-0"
140
0.09375
141
12.0
290
     0
  0
SCALE
  5
5E
102
{ACAD_REACTORS
330
47
102
}
330
47
100
AcDbScale
 70
     0
300
1/8" = 1'-0"
140
0.125
141
12.0
290
     0
  0
SCALE
  5
5F
102
{ACAD_REACTORS
330
47
102
}
330
47
100
AcDbScale
 70
     0
300
3/16" = 1'-0"
140
0.1875
141
12.0
290
     0
  0
SCALE
  5
60
102
{ACAD_REACTORS
330
47
102
}
330
47
100
AcDbScale
 70
     0
300
1/4" = 1'-0"
140
0.25
141
12.0
290
     0
  0
SCALE
  5
61
102
{ACAD_REACTORS
330
47
102
}
330
47
100
AcDbScale
 70
     0
300
3/8" = 1'-0"
140
0.375
141
12.0
290
     0
  0
SCALE
  5
62
102
{ACAD_REACTORS
330
47
102
}
330
47
100
AcDbScale
 70
     0
300
1/2" = 1'-0"
140
0.5
141
12.0
290
     0
  0
SCALE
  5
63
102
{ACAD_REACTORS
330
47
102
}
330
47
100
AcDbScale
 70
     0
300
3/4" = 1'-0"
140
0.75
141
12.0
290
     0
  0
SCALE
  5
64
102
{ACAD_REACTORS
330
47
102
}
330
47
100
AcDbScale
 70
     0
300
1" = 1'-0"
140
1.0
141
12.0
290
     0
  0
SCALE
  5
65
102
{ACAD_REACTORS
330
47
102
}
330
47
100
AcDbScale
 70
     0
300
1-1/2" = 1'-0"
140
1.5
141
12.0
290
     0
  0
SCALE
  5
66
102
{ACAD_REACTORS
330
47
102
}
330
47
100
AcDbScale
 70
     0
300
3" = 1'-0"
140
3.0
141
12.0
290
     0
  0
SCALE
  5
67
102
{ACAD_REACTORS
330
47
102
}
330
47
100
AcDbScale
 70
     0
300
6" = 1'-0"
140
6.0
141
12.0
290
     0
  0
SCALE
  5
68
102
{ACAD_REACTORS
330
47
102
}
330
47
100
AcDbScale
 70
     0
300
1'-0" = 1'-0"
140
12.0
141
12.0
290
     0
  0
ENDSEC
  0
EOF
