  0
SECTION
  2
HEADER
  9
$ACADVER
  1
AC1015
  9
$ACADMAINTVER
 70
     6
  9
$DWGCODEPAGE
  3
ANSI_949
  9
$INSBASE
 10
0.0
 20
0.0
 30
0.0
  9
$EXTMIN
 10
1.000000000000000E+20
 20
1.000000000000000E+20
 30
1.000000000000000E+20
  9
$EXTMAX
 10
-1.000000000000000E+20
 20
-1.000000000000000E+20
 30
-1.000000000000000E+20
  9
$LIMMIN
 10
0.0
 20
0.0
  9
$LIMMAX
 10
420.0
 20
297.0
  9
$ORTHOMODE
 70
     1
  9
$REGENMODE
 70
     1
  9
$FILLMODE
 70
     1
  9
$QTEXTMODE
 70
     0
  9
$MIRRTEXT
 70
     1
  9
$LTSCALE
 40
1.0
  9
$ATTMODE
 70
     1
  9
$TEXTSIZE
 40
3.5
  9
$TRACEWID
 40
1.0
  9
$TEXTSTYLE
  7
Standard
  9
$CLAYER
  8
0
  9
$CELTYPE
  6
ByLayer
  9
$CECOLOR
 62
   256
  9
$CELTSCALE
 40
1.0
  9
$DISPSILH
 70
     0
  9
$DIMSCALE
 40
1.0
  9
$DIMASZ
 40
3.302
  9
$DIMEXO
 40
1.0
  9
$DIMDLI
 40
3.75
  9
$DIMRND
 40
0.0
  9
$DIMDLE
 40
0.0
  9
$DIMEXE
 40
1.0
  9
$DIMTP
 40
0.0
  9
$DIMTM
 40
0.0
  9
$DIMTXT
 40
3.5
  9
$DIMCEN
 40
2.5
  9
$DIMTSZ
 40
0.0
  9
$DIMTOL
 70
     0
  9
$DIMLIM
 70
     0
  9
$DIMTIH
 70
     1
  9
$DIMTOH
 70
     1
  9
$DIMSE1
 70
     0
  9
$DIMSE2
 70
     0
  9
$DIMTAD
 70
     1
  9
$DIMZIN
 70
     0
  9
$DIMBLK
  1

  9
$DIMASO
 70
     1
  9
$DIMSHO
 70
     1
  9
$DIMPOST
  1

  9
$DIMAPOST
  1

  9
$DIMALT
 70
     0
  9
$DIMALTD
 70
     3
  9
$DIMALTF
 40
0.0393700787401575
  9
$DIMLFAC
 40
1.0
  9
$DIMTOFL
 70
     1
  9
$DIMTVP
 40
0.0
  9
$DIMTIX
 70
     0
  9
$DIMSOXD
 70
     0
  9
$DIMSAH
 70
     0
  9
$DIMBLK1
  1

  9
$DIMBLK2
  1

  9
$DIMSTYLE
  2
ISO-25
  9
$DIMCLRD
 70
     0
  9
$DIMCLRE
 70
     0
  9
$DIMCLRT
 70
     0
  9
$DIMTFAC
 40
1.0
  9
$DIMGAP
 40
1.524
  9
$DIMJUST
 70
     0
  9
$DIMSD1
 70
     0
  9
$DIMSD2
 70
     0
  9
$DIMTOLJ
 70
     0
  9
$DIMTZIN
 70
     0
  9
$DIMALTZ
 70
     0
  9
$DIMALTTZ
 70
     0
  9
$DIMUPT
 70
     0
  9
$DIMDEC
 70
     2
  9
$DIMTDEC
 70
     2
  9
$DIMALTU
 70
     2
  9
$DIMALTTD
 70
     3
  9
$DIMTXSTY
  7
Standard
  9
$DIMAUNIT
 70
     0
  9
$DIMADEC
 70
     2
  9
$DIMALTRND
 40
0.0
  9
$DIMAZIN
 70
     0
  9
$DIMDSEP
 70
    44
  9
$DIMATFIT
 70
     3
  9
$DIMFRAC
 70
     0
  9
$DIMLDRBLK
  1

  9
$DIMLUNIT
 70
     2
  9
$DIMLWD
 70
    -2
  9
$DIMLWE
 70
    -2
  9
$DIMTMOVE
 70
     0
  9
$LUNITS
 70
     2
  9
$LUPREC
 70
     2
  9
$SKETCHINC
 40
1.0
  9
$FILLETRAD
 40
10.0
  9
$AUNITS
 70
     0
  9
$AUPREC
 70
     2
  9
$MENU
  1
.
  9
$ELEVATION
 40
0.0
  9
$PELEVATION
 40
0.0
  9
$THICKNESS
 40
0.0
  9
$LIMCHECK
 70
     0
  9
$CHAMFERA
 40
0.0
  9
$CHAMFERB
 40
0.0
  9
$CHAMFERC
 40
0.0
  9
$CHAMFERD
 40
0.0
  9
$SKPOLY
 70
     0
  9
$TDCREATE
 40
2458288.744942349
  9
$TDUCREATE
 40
2458288.369942349
  9
$TDUPDATE
 40
2458294.690788125
  9
$TDUUPDATE
 40
2458294.315788125
  9
$TDINDWG
 40
0.0011138079
  9
$TDUSRTIMER
 40
2458294.314674907
  9
$USRTIMER
 70
     1
  9
$ANGBASE
 50
0.0
  9
$ANGDIR
 70
     0
  9
$PDMODE
 70
     0
  9
$PDSIZE
 40
-1.0
  9
$PLINEWID
 40
0.0
  9
$SPLFRAME
 70
     0
  9
$SPLINETYPE
 70
     6
  9
$SPLINESEGS
 70
     8
  9
$HANDSEED
  5
190
  9
$SURFTAB1
 70
     6
  9
$SURFTAB2
 70
     6
  9
$SURFTYPE
 70
     6
  9
$SURFU
 70
     6
  9
$SURFV
 70
     6
  9
$UCSBASE
  2

  9
$UCSNAME
  2

  9
$UCSORG
 10
0.0
 20
0.0
 30
0.0
  9
$UCSXDIR
 10
1.0
 20
0.0
 30
0.0
  9
$UCSYDIR
 10
0.0
 20
1.0
 30
0.0
  9
$UCSORTHOREF
  2

  9
$UCSORTHOVIEW
 70
     0
  9
$UCSORGTOP
 10
0.0
 20
0.0
 30
0.0
  9
$UCSORGBOTTOM
 10
0.0
 20
0.0
 30
0.0
  9
$UCSORGLEFT
 10
0.0
 20
0.0
 30
0.0
  9
$UCSORGRIGHT
 10
0.0
 20
0.0
 30
0.0
  9
$UCSORGFRONT
 10
0.0
 20
0.0
 30
0.0
  9
$UCSORGBACK
 10
0.0
 20
0.0
 30
0.0
  9
$PUCSBASE
  2

  9
$PUCSNAME
  2

  9
$PUCSORG
 10
0.0
 20
0.0
 30
0.0
  9
$PUCSXDIR
 10
1.0
 20
0.0
 30
0.0
  9
$PUCSYDIR
 10
0.0
 20
1.0
 30
0.0
  9
$PUCSORTHOREF
  2

  9
$PUCSORTHOVIEW
 70
     0
  9
$PUCSORGTOP
 10
0.0
 20
0.0
 30
0.0
  9
$PUCSORGBOTTOM
 10
0.0
 20
0.0
 30
0.0
  9
$PUCSORGLEFT
 10
0.0
 20
0.0
 30
0.0
  9
$PUCSORGRIGHT
 10
0.0
 20
0.0
 30
0.0
  9
$PUCSORGFRONT
 10
0.0
 20
0.0
 30
0.0
  9
$PUCSORGBACK
 10
0.0
 20
0.0
 30
0.0
  9
$USERI1
 70
     0
  9
$USERI2
 70
     0
  9
$USERI3
 70
     0
  9
$USERI4
 70
     0
  9
$USERI5
 70
     0
  9
$USERR1
 40
0.0
  9
$USERR2
 40
0.0
  9
$USERR3
 40
0.0
  9
$USERR4
 40
0.0
  9
$USERR5
 40
0.0
  9
$WORLDVIEW
 70
     1
  9
$SHADEDGE
 70
     3
  9
$SHADEDIF
 70
    70
  9
$TILEMODE
 70
     1
  9
$MAXACTVP
 70
    64
  9
$PINSBASE
 10
0.0
 20
0.0
 30
0.0
  9
$PLIMCHECK
 70
     0
  9
$PEXTMIN
 10
1.000000000000000E+20
 20
1.000000000000000E+20
 30
1.000000000000000E+20
  9
$PEXTMAX
 10
-1.000000000000000E+20
 20
-1.000000000000000E+20
 30
-1.000000000000000E+20
  9
$PLIMMIN
 10
0.0
 20
0.0
  9
$PLIMMAX
 10
0.0
 20
0.0
  9
$UNITMODE
 70
     0
  9
$VISRETAIN
 70
     1
  9
$PLINEGEN
 70
     0
  9
$PSLTSCALE
 70
     1
  9
$TREEDEPTH
 70
  3020
  9
$CMLSTYLE
  2
Standard
  9
$CMLJUST
 70
     0
  9
$CMLSCALE
 40
20.0
  9
$PROXYGRAPHICS
 70
     1
  9
$MEASUREMENT
 70
     1
  9
$CELWEIGHT
370
    -1
  9
$ENDCAPS
280
     0
  9
$JOINSTYLE
280
     0
  9
$LWDISPLAY
290
     1
  9
$INSUNITS
 70
     4
  9
$HYPERLINKBASE
  1

  9
$STYLESHEET
  1

  9
$XEDIT
290
     1
  9
$CEPSNTYPE
380
     0
  9
$PSTYLEMODE
290
     1
  9
$FINGERPRINTGUID
  2
{C37F68D8-D9D2-434C-9A3E-F072B12C976B}
  9
$VERSIONGUID
  2
{FAEB1C32-E019-11D5-929B-00C0DF256EC4}
  9
$EXTNAMES
290
     1
  9
$PSVPSCALE
 40
0.0
  9
$OLESTARTUP
290
     0
  0
ENDSEC
  0
SECTION
  2
CLASSES
  0
CLASS
  1
ACDBDICTIONARYWDFLT
  2
AcDbDictionaryWithDefault
  3
ObjectDBX Classes
 90
        0
280
     0
281
     0
  0
CLASS
  1
VISUALSTYLE
  2
AcDbVisualStyle
  3
ObjectDBX Classes
 90
     4095
280
     0
281
     0
  0
CLASS
  1
MATERIAL
  2
AcDbMaterial
  3
ObjectDBX Classes
 90
     1153
280
     0
281
     0
  0
CLASS
  1
SCALE
  2
AcDbScale
  3
ObjectDBX Classes
 90
     1153
280
     0
281
     0
  0
CLASS
  1
SUN
  2
AcDbSun
  3
SCENEOE
 90
     1153
280
     0
281
     0
  0
CLASS
  1
ACDBPLACEHOLDER
  2
AcDbPlaceHolder
  3
ObjectDBX Classes
 90
        0
280
     0
281
     0
  0
CLASS
  1
LAYOUT
  2
AcDbLayout
  3
ObjectDBX Classes
 90
        0
280
     0
281
     0
  0
CLASS
  1
TABLESTYLE
  2
AcDbTableStyle
  3
ObjectDBX Classes
 90
     4095
280
     0
281
     0
  0
CLASS
  1
MLEADERSTYLE
  2
AcDbMLeaderStyle
  3
ACDB_MLEADERSTYLE_CLASS
 90
     4095
280
     0
281
     0
  0
CLASS
  1
RASTERVARIABLES
  2
AcDbRasterVariables
  3
ISM
 90
        0
280
     0
281
     0
  0
ENDSEC
  0
SECTION
  2
TABLES
  0
TABLE
  2
VPORT
  5
8
330
0
100
AcDbSymbolTable
 70
     1
  0
VPORT
  5
29
330
8
100
AcDbSymbolTableRecord
100
AcDbViewportTableRecord
  2
*Active
 70
     0
 10
0.0
 20
0.0
 11
1.0
 21
1.0
 12
-26.82755788651471
 22
-12.27299091785684
 13
0.0
 23
0.0
 14
10.0
 24
10.0
 15
10.0
 25
10.0
 16
0.0
 26
0.0
 36
1.0
 17
0.0
 27
0.0
 37
0.0
 40
134.6443193822496
 41
1.859099804305284
 42
50.0
 43
0.0
 44
0.0
 50
0.0
 51
0.0
 71
    16
 72
  2000
 73
     1
 74
     3
 75
     0
 76
     0
 77
     0
 78
     0
281
     0
 65
     1
110
0.0
120
0.0
130
0.0
111
1.0
121
0.0
131
0.0
112
0.0
122
1.0
132
0.0
 79
     0
146
0.0
  0
ENDTAB
  0
TABLE
  2
LTYPE
  5
5
330
0
100
AcDbSymbolTable
 70
     6
  0
LTYPE
  5
14
330
5
100
AcDbSymbolTableRecord
100
AcDbLinetypeTableRecord
  2
ByBlock
 70
     0
  3

 72
    65
 73
     0
 40
0.0
  0
LTYPE
  5
15
330
5
100
AcDbSymbolTableRecord
100
AcDbLinetypeTableRecord
  2
ByLayer
 70
     0
  3

 72
    65
 73
     0
 40
0.0
  0
LTYPE
  5
16
330
5
100
AcDbSymbolTableRecord
100
AcDbLinetypeTableRecord
  2
Continuous
 70
     0
  3
Solid line
 72
    65
 73
     0
 40
0.0
  0
LTYPE
  5
6A
330
5
100
AcDbSymbolTableRecord
100
AcDbLinetypeTableRecord
  2
HIDDEN
 70
     0
  3
Hidden __ __ __ __ __ __ __ __ __ __ __ __ __ __
 72
    65
 73
     2
 40
1.905
 49
1.27
 74
     0
 49
-0.635
 74
     0
  0
LTYPE
  5
6B
330
5
100
AcDbSymbolTableRecord
100
AcDbLinetypeTableRecord
  2
PHANTOM
 70
     0
  3
Phantom ______  __  __  ______  __  __  ______
 72
    65
 73
     6
 40
12.7
 49
6.35
 74
     0
 49
-1.27
 74
     0
 49
1.27
 74
     0
 49
-1.27
 74
     0
 49
1.27
 74
     0
 49
-1.27
 74
     0
  0
LTYPE
  5
6C
330
5
100
AcDbSymbolTableRecord
100
AcDbLinetypeTableRecord
  2
CENTER
 70
     0
  3
Center ____ _ ____ _ ____ _ ____ _ ____ _ ____
 72
    65
 73
     4
 40
10.16
 49
6.35
 74
     0
 49
-1.27
 74
     0
 49
1.27
 74
     0
 49
-1.27
 74
     0
  0
LTYPE
  5
6D
330
5
100
AcDbSymbolTableRecord
100
AcDbLinetypeTableRecord
  2
CENTERX2
 70
     0
  3
Center (2x) ________  __  ________  __  _____
 72
    65
 73
     4
 40
20.32
 49
12.7
 74
     0
 49
-2.54
 74
     0
 49
2.54
 74
     0
 49
-2.54
 74
     0
  0
LTYPE
  5
6E
330
5
100
AcDbSymbolTableRecord
100
AcDbLinetypeTableRecord
  2
DOT2
 70
     0
  3
Dot (.5x) ........................................
 72
    65
 73
     2
 40
0.635
 49
0.0
 74
     0
 49
-0.635
 74
     0
  0
ENDTAB
  0
TABLE
  2
LAYER
  5
2
102
{ACAD_XDICTIONARY
360
181
102
}
330
0
100
AcDbSymbolTable
 70
    18
  0
LAYER
  5
10
330
2
100
AcDbSymbolTableRecord
100
AcDbLayerTableRecord
  2
0
 70
     0
 62
     7
  6
Continuous
370
    -3
390
F
  0
LAYER
  5
6F
330
2
100
AcDbSymbolTableRecord
100
AcDbLayerTableRecord
  2
FORMAT
 70
     0
 62
     2
  6
Continuous
370
    -3
390
F
  0
LAYER
  5
70
330
2
100
AcDbSymbolTableRecord
100
AcDbLayerTableRecord
  2
외형선
 70
     0
 62
     4
  6
Continuous
370
    30
390
F
  0
LAYER
  5
71
330
2
100
AcDbSymbolTableRecord
100
AcDbLayerTableRecord
  2
숨은선
 70
     0
 62
     2
  6
HIDDEN
370
    15
390
F
  0
LAYER
  5
72
330
2
100
AcDbSymbolTableRecord
100
AcDbLayerTableRecord
  2
중심선
 70
     0
 62
     1
  6
CENTERX2
370
    -3
390
F
  0
LAYER
  5
73
330
2
100
AcDbSymbolTableRecord
100
AcDbLayerTableRecord
  2
파단선
 70
     0
 62
     4
  6
Continuous
370
    -3
390
F
  0
LAYER
  5
74
330
2
100
AcDbSymbolTableRecord
100
AcDbLayerTableRecord
  2
해칭선
 70
     0
 62
   100
  6
Continuous
370
    -3
390
F
  0
LAYER
  5
75
330
2
100
AcDbSymbolTableRecord
100
AcDbLayerTableRecord
  2
가는실선
 70
     0
 62
     4
  6
Continuous
370
    -3
390
F
  0
LAYER
  5
76
330
2
100
AcDbSymbolTableRecord
100
AcDbLayerTableRecord
  2
치수_보조선
 70
     0
 62
     4
  6
Continuous
370
    -3
390
F
  0
LAYER
  5
77
330
2
100
AcDbSymbolTableRecord
100
AcDbLayerTableRecord
  2
치수문자_일반주서
 70
     0
 62
     7
  6
Continuous
370
    15
390
F
  0
LAYER
  5
78
330
2
100
AcDbSymbolTableRecord
100
AcDbLayerTableRecord
  2
개별주서
 70
     0
 62
   100
  6
Continuous
370
    30
390
F
  0
LAYER
  5
79
330
2
100
AcDbSymbolTableRecord
100
AcDbLayerTableRecord
  2
중간선
 70
     0
 62
     2
  6
Continuous
370
    15
390
F
  0
LAYER
  5
7A
330
2
100
AcDbSymbolTableRecord
100
AcDbLayerTableRecord
  2
윤곽선
 70
     0
 62
     3
  6
Continuous
370
    40
390
F
  0
LAYER
  5
7B
330
2
100
AcDbSymbolTableRecord
100
AcDbLayerTableRecord
  2
중심마크
 70
     0
 62
   100
  6
Continuous
370
    30
390
F
  0
LAYER
  5
7C
330
2
100
AcDbSymbolTableRecord
100
AcDbLayerTableRecord
  2
가상선
 70
     0
 62
     4
  6
PHANTOM
370
    -3
390
F
  0
LAYER
  5
7D
330
2
100
AcDbSymbolTableRecord
100
AcDbLayerTableRecord
  2
특수지정선
 70
     0
 62
     5
  6
CENTERX2
370
    60
390
F
  0
LAYER
  5
7E
330
2
100
AcDbSymbolTableRecord
100
AcDbLayerTableRecord
  2
참조1
 70
     0
 62
    -4
  6
Continuous
370
    -3
390
F
  0
LAYER
  5
188
330
2
100
AcDbSymbolTableRecord
100
AcDbLayerTableRecord
  2
Defpoints
 70
     0
 62
     7
  6
Continuous
290
     0
370
    -3
390
F
  0
ENDTAB
  0
TABLE
  2
STYLE
  5
3
330
0
100
AcDbSymbolTable
 70
     2
  0
STYLE
  5
11
330
3
100
AcDbSymbolTableRecord
100
AcDbTextStyleTableRecord
  2
Standard
 70
     0
 40
0.0
 41
1.0
 50
0.0
 71
     0
 42
3.5
  3
txt
  4

  0
STYLE
  5
94
330
3
100
AcDbSymbolTableRecord
100
AcDbTextStyleTableRecord
  2
SLDTEXTSTYLE0
 70
     0
 40
0.0
 41
0.75
 50
0.0
 71
     0
 42
3.5
  3
TXT
  4

  0
ENDTAB
  0
TABLE
  2
VIEW
  5
6
330
0
100
AcDbSymbolTable
 70
     0
  0
ENDTAB
  0
TABLE
  2
UCS
  5
7
330
0
100
AcDbSymbolTable
 70
     0
  0
ENDTAB
  0
TABLE
  2
APPID
  5
9
330
0
100
AcDbSymbolTable
 70
     1
  0
APPID
  5
12
330
9
100
AcDbSymbolTableRecord
100
AcDbRegAppTableRecord
  2
ACAD
 70
     0
  0
ENDTAB
  0
TABLE
  2
DIMSTYLE
  5
A
330
0
100
AcDbSymbolTable
 70
     4
100
AcDbDimStyleTable
  0
DIMSTYLE
105
27
330
A
100
AcDbSymbolTableRecord
100
AcDbDimStyleTableRecord
  2
ISO-25
 70
     0
 41
2.5
 42
0.625
 43
3.75
 44
1.25
 73
     0
 74
     0
 77
     1
 78
     8
140
2.5
141
2.5
143
0.03937007874016
147
0.625
171
     3
172
     1
178
     0
271
     2
272
     2
274
     3
278
    44
283
     0
284
     8
340
11
  0
DIMSTYLE
105
D8
102
{ACAD_REACTORS
330
D7
330
EC
330
100
330
115
102
}
330
A
100
AcDbSymbolTableRecord
100
AcDbDimStyleTableRecord
  2
SLDDIMSTYLE0
 70
     0
 41
3.302
 44
0.0
 45
0.000000001
 73
     0
 74
     0
 77
     1
 78
    12
 79
     3
140
3.5
143
0.0393700787401575
147
0.875
148
0.000000001
170
     1
172
     1
173
     1
178
     0
271
     2
272
     2
276
     2
284
    12
289
     0
340
94
  0
DIMSTYLE
105
101
330
A
100
AcDbSymbolTableRecord
100
AcDbDimStyleTableRecord
  2
SLDDIMSTYLE1
 70
     0
 41
3.302
 44
0.0
 45
0.000000001
 73
     0
 74
     0
 77
     1
 78
    12
 79
     3
140
3.5
143
0.0393700787401575
147
0.875
148
0.000000001
170
     1
173
     1
178
     0
271
     2
272
     2
276
     2
284
    12
340
94
  0
DIMSTYLE
105
116
330
A
100
AcDbSymbolTableRecord
100
AcDbDimStyleTableRecord
  2
SLDDIMSTYLE2
 70
     0
 41
3.302
 44
0.0
 45
0.000000001
 73
     0
 74
     0
 77
     1
 78
     4
 79
     1
140
3.5
143
0.0393700787401575
147
0.875
148
0.000000001
170
     1
173
     1
178
     0
271
     2
272
     2
276
     2
284
    12
340
94
  0
ENDTAB
  0
TABLE
  2
BLOCK_RECORD
  5
1
330
0
100
AcDbSymbolTable
 70
     8
  0
BLOCK_RECORD
  5
1F
330
1
100
AcDbSymbolTableRecord
100
AcDbBlockTableRecord
  2
*Model_Space
340
22
  0
BLOCK_RECORD
  5
1B
330
1
100
AcDbSymbolTableRecord
100
AcDbBlockTableRecord
  2
*Paper_Space
340
1E
  0
BLOCK_RECORD
  5
23
330
1
100
AcDbSymbolTableRecord
100
AcDbBlockTableRecord
  2
*Paper_Space0
340
26
  0
BLOCK_RECORD
  5
7F
330
1
100
AcDbSymbolTableRecord
100
AcDbBlockTableRecord
  2
블럭10
340
0
102
{BLKREFS
331
D0
102
}
  0
BLOCK_RECORD
  5
D9
330
1
100
AcDbSymbolTableRecord
100
AcDbBlockTableRecord
  2
_D
340
0
  0
BLOCK_RECORD
  5
ED
330
1
100
AcDbSymbolTableRecord
100
AcDbBlockTableRecord
  2
_D_1
340
0
  0
BLOCK_RECORD
  5
102
330
1
100
AcDbSymbolTableRecord
100
AcDbBlockTableRecord
  2
_D_2
340
0
  0
BLOCK_RECORD
  5
117
330
1
100
AcDbSymbolTableRecord
100
AcDbBlockTableRecord
  2
_D_3
340
0
  0
BLOCK_RECORD
  5
130
330
1
100
AcDbSymbolTableRecord
100
AcDbBlockTableRecord
  2
SW_DOWELSYMBOL_0
340
0
102
{BLKREFS
331
136
102
}
  0
ENDTAB
  0
ENDSEC
  0
SECTION
  2
BLOCKS
  0
BLOCK
  5
20
330
1F
100
AcDbEntity
  8
0
100
AcDbBlockBegin
  2
*Model_Space
 70
     0
 10
0.0
 20
0.0
 30
0.0
  3
*Model_Space
  1
*Model_Space
  0
ENDBLK
  5
21
330
1F
100
AcDbEntity
  8
0
100
AcDbBlockEnd
  0
BLOCK
  5
1C
330
1B
100
AcDbEntity
 67
     1
  8
0
100
AcDbBlockBegin
  2
*Paper_Space
 70
     0
 10
0.0
 20
0.0
 30
0.0
  3
*Paper_Space
  1
*Paper_Space
  0
ENDBLK
  5
1D
330
1B
100
AcDbEntity
 67
     1
  8
0
100
AcDbBlockEnd
  0
BLOCK
  5
24
330
23
100
AcDbEntity
  8
0
100
AcDbBlockBegin
  2
*Paper_Space0
 70
     0
 10
0.0
 20
0.0
 30
0.0
  3
*Paper_Space0
  1
*Paper_Space0
  0
ENDBLK
  5
25
330
23
100
AcDbEntity
  8
0
100
AcDbBlockEnd
  0
BLOCK
  5
80
330
7F
100
AcDbEntity
  8
0
100
AcDbBlockBegin
  2
블럭10
 70
     2
 10
0.0
 20
0.0
 30
0.0
  3
블럭10
  1
블럭10
  0
ELLIPSE
  5
82
330
7F
100
AcDbEntity
  8
중심선
100
AcDbEllipse
 10
20.54032771741204
 20
12.0471743016438
 30
0.0
 11
6.600054785286829
 21
-1.261213355974178E-13
 31
0.0
210
0.0
220
0.0
230
1.0
 40
0.636358354079598
 41
0.9219305317359503
 42
6.513795318482858
  0
ELLIPSE
  5
83
330
7F
100
AcDbEntity
  8
중심선
100
AcDbEllipse
 10
20.54032771746488
 20
12.04717430159265
 30
0.0
 11
3.960054785062283
 21
1.540847449632565E-10
 31
0.0
210
0.0
220
0.0
230
1.0
 40
0.3939339440162632
 41
1.131841032648279
 42
5.62031148352944
  0
LINE
  5
84
330
7F
100
AcDbEntity
  8
중심선
100
AcDbLine
 10
2.268634060543552
 20
16.24717430164393
 30
0.0
 11
5.714909304380834
 21
16.24717430164393
 31
0.0
  0
LINE
  5
85
330
7F
100
AcDbEntity
  8
중심선
100
AcDbLine
 10
5.245725140726316
 20
7.84717430164391
 30
0.0
 11
8.692000384563599
 21
7.84717430164391
 31
0.0
  0
LINE
  5
86
330
7F
100
AcDbEntity
  8
중심선
100
AcDbLine
 10
15.74043728645272
 20
16.24717430164393
 30
0.0
 11
8.692000384563599
 21
7.84717430164391
 31
0.0
  0
LINE
  5
87
330
7F
100
AcDbEntity
  8
중심선
100
AcDbLine
 10
0.1404042013395286
 20
13.71084872107135
 30
0.0
 11
3.58671253028996
 21
13.71088815037384
 31
0.0
  0
LINE
  5
88
330
7F
100
AcDbEntity
  8
중심선
100
AcDbLine
 10
2.750260043222114
 20
10.84717430164391
 30
0.0
 11
6.196535287059397
 21
10.84717430164391
 31
0.0
  0
LINE
  5
89
330
7F
100
AcDbEntity
  8
중심선
100
AcDbLine
 10
12.29416204261559
 20
16.24717430164393
 30
0.0
 11
5.245725140726316
 21
7.84717430164391
 31
0.0
  0
LINE
  5
8A
330
7F
100
AcDbEntity
  8
중심선
100
AcDbLine
 10
10.72767329541681
 20
16.24717430164393
 30
0.0
 11
6.196535287059397
 21
10.84717430164391
 31
0.0
  0
LINE
  5
8B
330
7F
100
AcDbEntity
  8
중심선
100
AcDbLine
 10
7.28139805157953
 20
16.24717430164393
 30
0.0
 11
2.750260043222114
 21
10.84717430164391
 31
0.0
  0
LINE
  5
8C
330
7F
100
AcDbEntity
  8
중심선
100
AcDbLine
 10
5.714909304380834
 20
16.24717430164393
 30
0.0
 11
3.58671253028996
 21
13.71088815037384
 31
0.0
  0
LINE
  5
8D
330
7F
100
AcDbEntity
  8
중심선
100
AcDbLine
 10
2.268634060543552
 20
16.24717430164393
 30
0.0
 11
0.1404042013395286
 21
13.71084872107135
 31
0.0
  0
LINE
  5
8E
330
7F
100
AcDbEntity
  8
중심선
100
AcDbLine
 10
7.28139805157953
 20
16.24717430164393
 30
0.0
 11
10.72767329541681
 21
16.24717430164393
 31
0.0
  0
LINE
  5
8F
330
7F
100
AcDbEntity
  8
중심선
100
AcDbLine
 10
12.29416204261559
 20
16.24717430164393
 30
0.0
 11
15.74043728645272
 21
16.24717430164393
 31
0.0
  0
LINE
  5
90
330
7F
100
AcDbEntity
  8
중심선
100
AcDbLine
 10
19.22036997980202
 20
11.08717430171403
 30
0.0
 11
23.66174974927406
 21
11.08717430171406
 31
0.0
  0
LINE
  5
91
330
7F
100
AcDbEntity
  8
중심선
100
AcDbLine
 10
19.22039502424796
 20
13.00717430171391
 30
0.0
 11
19.22036997980202
 21
11.08717430171403
 31
0.0
  0
LINE
  5
92
330
7F
100
AcDbEntity
  8
중심선
100
AcDbLine
 10
19.22039502424796
 20
13.00717430171391
 30
0.0
 11
26.96566020931264
 21
13.00717430171391
 31
0.0
  0
LINE
  5
93
330
7F
100
AcDbEntity
  8
중심선
100
AcDbLine
 10
22.22332737316547
 20
13.45928029700563
 30
0.0
 11
24.52862924686651
 21
15.39360700705356
 31
0.0
  0
ATTDEF
  5
95
330
7F
100
AcDbEntity
  8
FORMAT
 62
     2
100
AcDbText
 10
3.448148490846466
 20
2.075366912832191
 30
0.0
 40
4.233333333333333
  1
EM154016
 41
0.75
  7
SLDTEXTSTYLE0
 11
3.448148490846466
 21
-0.0412997538344756
 31
0.0
100
AcDbAttributeDefinition
  3

  2
AUTOATTR0
 70
     0
 74
     1
  0
ENDBLK
  5
81
330
7F
100
AcDbEntity
  8
0
100
AcDbBlockEnd
  0
BLOCK
  5
DA
330
D9
100
AcDbEntity
  8
0
100
AcDbBlockBegin
  2
_D
 70
     0
 10
0.0
 20
0.0
 30
0.0
  3
_D
  1
_D
  0
LINE
  5
DC
330
D9
100
AcDbEntity
  8
치수문자_일반주서
 62
     0
370
    -2
100
AcDbLine
 10
-32.18260042445854
 20
3.17500000000001
 30
0.0
 11
-45.55010042445854
 21
3.174999999999961
 31
0.0
  0
LINE
  5
DD
330
D9
100
AcDbEntity
  8
치수문자_일반주서
 62
     0
370
    -2
100
AcDbLine
 10
-32.18260042445854
 20
-3.175000000000012
 30
0.0
 11
-45.55010042445852
 21
-3.175000000000062
 31
0.0
  0
LINE
  5
DE
330
D9
100
AcDbEntity
  8
치수문자_일반주서
 62
     0
370
    -2
100
AcDbLine
 10
-45.55010042445853
 20
-0.1270000000000389
 30
0.0
 11
-45.55010042445853
 21
0.1269999999999381
 31
0.0
  0
SOLID
  5
DF
330
D9
100
AcDbEntity
  8
치수문자_일반주서
 62
     0
100
AcDbTrace
 10
-44.99976709112519
 20
-0.127000000000037
 30
0.0
 11
-46.10043375779186
 21
-0.1270000000000407
 31
0.0
 12
-45.55010042445854
 22
3.174999999999961
 32
0.0
 13
-45.55010042445854
 23
3.174999999999961
 33
0.0
  0
SOLID
  5
E0
330
D9
100
AcDbEntity
  8
치수문자_일반주서
 62
     0
100
AcDbTrace
 10
-46.10043375779187
 20
0.1269999999999362
 30
0.0
 11
-44.9997670911252
 21
0.1269999999999399
 31
0.0
 12
-45.55010042445852
 22
-3.175000000000062
 32
0.0
 13
-45.55010042445852
 23
-3.175000000000062
 33
0.0
  0
MTEXT
  5
E1
330
D9
100
AcDbEntity
  8
치수문자_일반주서
 62
     0
100
AcDbMText
 10
-49.92510042445853
 20
-0.0000000000000039
 30
0.0
 40
3.5
 41
0.0
 71
     2
 72
     1
  1
\A1;%%c6.35 [1/4]
  7
SLDTEXTSTYLE0
 11
-3.356894814614635E-15
 21
1.0
 31
0.0
 73
     1
 44
1.0
  0
POINT
  5
E2
330
D9
100
AcDbEntity
  8
Defpoints
 62
     0
100
AcDbPoint
 10
-32.12010042445854
 20
3.17500000000001
 30
0.0
  0
POINT
  5
E3
330
D9
100
AcDbEntity
  8
Defpoints
 62
     0
100
AcDbPoint
 10
-32.12010042445854
 20
-3.175000000000012
 30
0.0
  0
POINT
  5
E4
330
D9
100
AcDbEntity
  8
Defpoints
 62
     0
100
AcDbPoint
 10
-45.55010042445852
 20
-3.175000000000062
 30
0.0
  0
ENDBLK
  5
DB
330
D9
100
AcDbEntity
  8
0
100
AcDbBlockEnd
  0
BLOCK
  5
EE
330
ED
100
AcDbEntity
  8
0
100
AcDbBlockBegin
  2
_D_1
 70
     0
 10
0.0
 20
0.0
 30
0.0
  3
_D_1
  1
_D_1
  0
LINE
  5
F0
330
ED
100
AcDbEntity
  8
치수문자_일반주서
 62
     0
370
    -2
100
AcDbLine
 10
30.63239957554147
 20
3.175000000000004
 30
0.0
 11
48.44447422706596
 21
3.175000000000072
 31
0.0
  0
LINE
  5
F1
330
ED
100
AcDbEntity
  8
치수문자_일반주서
 62
     0
370
    -2
100
AcDbLine
 10
30.63239957554147
 20
-3.174999999999996
 30
0.0
 11
48.44447422706598
 21
-3.17499999999993
 31
0.0
  0
LINE
  5
F2
330
ED
100
AcDbEntity
  8
치수문자_일반주서
 62
     0
370
    -2
100
AcDbLine
 10
48.44447422706596
 20
3.175000000000072
 30
0.0
 11
48.44447422706585
 21
35.15400000000007
 31
0.0
  0
LINE
  5
F3
330
ED
100
AcDbEntity
  8
치수문자_일반주서
 62
     0
370
    -2
100
AcDbLine
 10
48.44447422706596
 20
3.175000000000072
 30
0.0
 11
48.44447422706598
 21
-3.17499999999993
 31
0.0
  0
LINE
  5
F4
330
ED
100
AcDbEntity
  8
치수문자_일반주서
 62
     0
370
    -2
100
AcDbLine
 10
48.44447422706595
 20
6.477000000000071
 30
0.0
 11
48.44447422706593
 21
9.779000000000071
 31
0.0
  0
LINE
  5
F5
330
ED
100
AcDbEntity
  8
치수문자_일반주서
 62
     0
370
    -2
100
AcDbLine
 10
48.444474227066
 20
-6.476999999999929
 30
0.0
 11
48.44447422706601
 21
-9.778999999999929
 31
0.0
  0
SOLID
  5
F6
330
ED
100
AcDbEntity
  8
치수문자_일반주서
 62
     0
100
AcDbTrace
 10
47.89414089373261
 20
6.47700000000007
 30
0.0
 11
48.99480756039928
 21
6.477000000000073
 31
0.0
 12
48.44447422706596
 22
3.175000000000072
 32
0.0
 13
48.44447422706596
 23
3.175000000000072
 33
0.0
  0
SOLID
  5
F7
330
ED
100
AcDbEntity
  8
치수문자_일반주서
 62
     0
100
AcDbTrace
 10
48.99480756039933
 20
-6.476999999999927
 30
0.0
 11
47.89414089373266
 21
-6.476999999999931
 31
0.0
 12
48.44447422706598
 22
-3.17499999999993
 32
0.0
 13
48.44447422706598
 23
-3.17499999999993
 33
0.0
  0
MTEXT
  5
F8
330
ED
100
AcDbEntity
  8
치수문자_일반주서
 62
     0
100
AcDbMText
 10
44.0694742270659
 20
22.46650000000006
 30
0.0
 40
3.5
 41
0.0
 71
     2
 72
     1
  1
\A1;%%c6.35 [1/4]
  7
SLDTEXTSTYLE0
 11
-3.356894814614647E-15
 21
1.0
 31
0.0
 73
     1
 44
1.0
  0
POINT
  5
F9
330
ED
100
AcDbEntity
  8
Defpoints
 62
     0
100
AcDbPoint
 10
30.56989957554147
 20
3.175000000000003
 30
0.0
  0
POINT
  5
FA
330
ED
100
AcDbEntity
  8
Defpoints
 62
     0
100
AcDbPoint
 10
30.56989957554147
 20
-3.174999999999996
 30
0.0
  0
POINT
  5
FB
330
ED
100
AcDbEntity
  8
Defpoints
 62
     0
100
AcDbPoint
 10
48.44447422706598
 20
-3.17499999999993
 30
0.0
  0
ENDBLK
  5
EF
330
ED
100
AcDbEntity
  8
0
100
AcDbBlockEnd
  0
BLOCK
  5
103
330
102
100
AcDbEntity
  8
0
100
AcDbBlockBegin
  2
_D_2
 70
     0
 10
0.0
 20
0.0
 30
0.0
  3
_D_2
  1
_D_2
  0
LINE
  5
105
330
102
100
AcDbEntity
  8
치수문자_일반주서
 62
     0
370
    -2
100
AcDbLine
 10
30.56989957554147
 20
3.237500000000006
 30
0.0
 11
30.56989957554148
 21
25.25437499999999
 31
0.0
  0
LINE
  5
106
330
102
100
AcDbEntity
  8
치수문자_일반주서
 62
     0
370
    -2
100
AcDbLine
 10
11.51989957554147
 20
2.190705964211356
 30
0.0
 11
11.51989957554147
 21
25.25437499999999
 31
0.0
  0
LINE
  5
107
330
102
100
AcDbEntity
  8
치수문자_일반주서
 62
     0
370
    -2
100
AcDbLine
 10
11.51989957554147
 20
25.25437499999999
 30
0.0
 11
-20.02160042445853
 21
25.25437499999999
 31
0.0
  0
LINE
  5
108
330
102
100
AcDbEntity
  8
치수문자_일반주서
 62
     0
370
    -2
100
AcDbLine
 10
30.56989957554148
 20
25.25437499999999
 30
0.0
 11
11.51989957554147
 21
25.25437499999999
 31
0.0
  0
LINE
  5
109
330
102
100
AcDbEntity
  8
치수문자_일반주서
 62
     0
370
    -2
100
AcDbLine
 10
33.87189957554148
 20
25.25437499999999
 30
0.0
 11
37.17389957554148
 21
25.25437499999999
 31
0.0
  0
LINE
  5
10A
330
102
100
AcDbEntity
  8
치수문자_일반주서
 62
     0
370
    -2
100
AcDbLine
 10
8.217899575541466
 20
25.25437499999999
 30
0.0
 11
4.915899575541467
 21
25.25437499999999
 31
0.0
  0
SOLID
  5
10B
330
102
100
AcDbEntity
  8
치수문자_일반주서
 62
     0
100
AcDbTrace
 10
33.87189957554148
 20
25.80470833333333
 30
0.0
 11
33.87189957554148
 21
24.70404166666666
 31
0.0
 12
30.56989957554148
 22
25.25437499999999
 32
0.0
 13
30.56989957554148
 23
25.25437499999999
 33
0.0
  0
SOLID
  5
10C
330
102
100
AcDbEntity
  8
치수문자_일반주서
 62
     0
100
AcDbTrace
 10
8.217899575541466
 20
24.70404166666666
 30
0.0
 11
8.217899575541466
 21
25.80470833333333
 31
0.0
 12
11.51989957554147
 22
25.25437499999999
 32
0.0
 13
11.51989957554147
 23
25.25437499999999
 33
0.0
  0
MTEXT
  5
10D
330
102
100
AcDbEntity
  8
치수문자_일반주서
 62
     0
100
AcDbMText
 10
-7.552850424458533
 20
29.62937499999999
 30
0.0
 40
3.5
 41
0.0
 71
     2
 72
     1
  1
\A1;19.05 [3/4]
  7
SLDTEXTSTYLE0
 73
     1
 44
1.0
  0
POINT
  5
10E
330
102
100
AcDbEntity
  8
Defpoints
 62
     0
100
AcDbPoint
 10
30.56989957554147
 20
3.175000000000006
 30
0.0
  0
POINT
  5
189
330
102
100
AcDbEntity
  8
Defpoints
 62
     0
100
AcDbPoint
 10
11.51989957554147
 20
2.128205964211356
 30
0.0
  0
POINT
  5
18A
330
102
100
AcDbEntity
  8
Defpoints
 62
     0
100
AcDbPoint
 10
11.51989957554147
 20
25.25437499999999
 30
0.0
  0
ENDBLK
  5
104
330
102
100
AcDbEntity
  8
0
100
AcDbBlockEnd
  0
BLOCK
  5
118
330
117
100
AcDbEntity
  8
0
100
AcDbBlockBegin
  2
_D_3
 70
     0
 10
0.0
 20
0.0
 30
0.0
  3
_D_3
  1
_D_3
  0
LINE
  5
11A
330
117
100
AcDbEntity
  8
치수문자_일반주서
 62
     0
370
    -2
100
AcDbLine
 10
30.56989957554147
 20
3.237500000000006
 30
0.0
 11
30.56989957554147
 21
40.07842844013392
 31
0.0
  0
LINE
  5
11B
330
117
100
AcDbEntity
  8
치수문자_일반주서
 62
     0
370
    -2
100
AcDbLine
 10
-32.93010042445853
 20
2.427499999999994
 30
0.0
 11
-32.93010042445854
 21
40.07842844013392
 31
0.0
  0
LINE
  5
11C
330
117
100
AcDbEntity
  8
치수문자_일반주서
 62
     0
370
    -2
100
AcDbLine
 10
27.26789957554147
 20
40.07842844013392
 30
0.0
 11
-29.62810042445854
 21
40.07842844013392
 31
0.0
  0
SOLID
  5
11D
330
117
100
AcDbEntity
  8
치수문자_일반주서
 62
     0
100
AcDbTrace
 10
27.26789957554147
 20
39.52809510680058
 30
0.0
 11
27.26789957554147
 21
40.62876177346725
 31
0.0
 12
30.56989957554147
 22
40.07842844013392
 32
0.0
 13
30.56989957554147
 23
40.07842844013392
 33
0.0
  0
SOLID
  5
11E
330
117
100
AcDbEntity
  8
치수문자_일반주서
 62
     0
100
AcDbTrace
 10
-29.62810042445854
 20
40.62876177346725
 30
0.0
 11
-29.62810042445854
 21
39.52809510680058
 31
0.0
 12
-32.93010042445854
 22
40.07842844013392
 32
0.0
 13
-32.93010042445854
 23
40.07842844013392
 33
0.0
  0
MTEXT
  5
11F
330
117
100
AcDbEntity
  8
치수문자_일반주서
 62
     0
100
AcDbMText
 10
-1.180100424458532
 20
44.45342844013392
 30
0.0
 40
3.5
 41
0.0
 71
     2
 72
     1
  1
\A1;63.5 [2 1/2]
  7
SLDTEXTSTYLE0
 73
     1
 44
1.0
  0
POINT
  5
120
330
117
100
AcDbEntity
  8
Defpoints
 62
     0
100
AcDbPoint
 10
30.56989957554147
 20
3.175000000000006
 30
0.0
  0
POINT
  5
121
330
117
100
AcDbEntity
  8
Defpoints
 62
     0
100
AcDbPoint
 10
-32.93010042445853
 20
2.364999999999994
 30
0.0
  0
POINT
  5
122
330
117
100
AcDbEntity
  8
Defpoints
 62
     0
100
AcDbPoint
 10
-32.93010042445853
 20
40.07842844013392
 30
0.0
  0
ENDBLK
  5
119
330
117
100
AcDbEntity
  8
0
100
AcDbBlockEnd
  0
BLOCK
  5
131
330
130
100
AcDbEntity
  8
0
100
AcDbBlockBegin
  2
SW_DOWELSYMBOL_0
 70
     0
 10
0.0
 20
0.0
 30
0.0
  3
SW_DOWELSYMBOL_0
  1
SW_DOWELSYMBOL_0
  0
CIRCLE
  5
133
330
130
100
AcDbEntity
  8
해칭선
 62
     0
100
AcDbCircle
 10
0.0
 20
0.0
 30
0.0
 40
3.000000000000001
  0
HATCH
  5
134
330
130
100
AcDbEntity
  8
0
  6
Continuous
 62
     0
370
     0
100
AcDbHatch
 10
0.0
 20
0.0
 30
0.0
210
0.0
220
0.0
230
1.0
  2
SOLID
 70
     1
 71
     0
 91
        1
 92
        0
 93
        3
 72
     2
 10
0.0
 20
0.0
 40
3.000000000000001
 50
0.0
 51
90.0
 73
     1
 72
     1
 10
0.0
 20
3.000000000000001
 11
0.0
 21
0.0
 72
     1
 10
0.0
 20
0.0
 11
3.000000000000001
 21
0.0
 97
        0
 75
     0
 76
     1
 98
        1
 10
0.0
 20
0.0
  0
HATCH
  5
135
330
130
100
AcDbEntity
  8
0
  6
Continuous
 62
     0
370
     0
100
AcDbHatch
 10
0.0
 20
0.0
 30
0.0
210
0.0
220
0.0
230
1.0
  2
SOLID
 70
     1
 71
     0
 91
        1
 92
        0
 93
        3
 72
     2
 10
0.0
 20
0.0
 40
3.000000000000001
 50
180.0
 51
270.0000000000008
 73
     1
 72
     1
 10
0.0
 20
-3.000000000000001
 11
0.0
 21
0.0
 72
     1
 10
0.0
 20
0.0
 11
-3.000000000000001
 21
0.0
 97
        0
 75
     0
 76
     1
 98
        1
 10
0.0
 20
0.0
  0
ENDBLK
  5
132
330
130
100
AcDbEntity
  8
0
100
AcDbBlockEnd
  0
ENDSEC
  0
SECTION
  2
ENTITIES
  0
LINE
  5
96
330
1F
100
AcDbEntity
  8
외형선
  6
Continuous
370
    15
100
AcDbLine
 10
10.0
 20
3.174999999999999
 30
0.0
 11
-32.12010042445853
 21
3.174999999999997
 31
0.0
  0
LINE
  5
97
330
1F
100
AcDbEntity
  8
외형선
  6
Continuous
370
    15
100
AcDbLine
 10
-32.12010042445853
 20
-3.175000000000003
 30
0.0
 11
10.0
 21
-3.175000000000001
 31
0.0
  0
LINE
  5
98
330
1F
100
AcDbEntity
  8
외형선
  6
Continuous
370
    15
100
AcDbLine
 10
-32.12010042445853
 20
3.174999999999994
 30
0.0
 11
-32.93010042445853
 21
2.364999999999994
 31
0.0
  0
LINE
  5
99
330
1F
100
AcDbEntity
  8
외형선
  6
Continuous
370
    15
100
AcDbLine
 10
-32.93010042445853
 20
-2.365000000000001
 30
0.0
 11
-32.12010042445853
 21
-3.175000000000001
 31
0.0
  0
SPLINE
  5
9A
330
1F
100
AcDbEntity
  8
외형선
  6
Continuous
370
    15
100
AcDbSpline
210
0.0
220
0.0
230
1.0
 70
     8
 71
     3
 72
     9
 73
     5
 74
     0
 42
0.000000001
 43
0.00000001
 40
0.0
 40
0.0
 40
0.0
 40
0.0
 40
0.4408313065475966
 40
0.9999999999999999
 40
0.9999999999999999
 40
0.9999999999999999
 40
0.9999999999999999
 10
11.51989957554147
 20
2.128158881799235
 30
0.0
 10
11.29791573081941
 20
2.116566854006159
 30
0.0
 10
10.79435838036592
 20
2.090271017887212
 30
0.0
 10
10.28489905439136
 20
2.090427998567094
 30
0.0
 10
10.00002534871903
 20
2.090515777248761
 30
0.0
  0
SPLINE
  5
9B
330
1F
100
AcDbEntity
  8
0
  6
Continuous
 62
     1
370
    15
100
AcDbSpline
210
0.0
220
0.0
230
1.0
 70
     8
 71
     3
 72
     9
 73
     5
 74
     0
 42
0.000000001
 43
0.00000001
 40
0.0
 40
0.0
 40
0.0
 40
0.0
 40
0.5191813500268773
 40
1.0
 40
1.0
 40
1.0
 40
1.0
 10
22.34343716925051
 20
0.813601927581431
 30
0.0
 10
22.19154961745856
 20
0.8862383171039071
 30
0.0
 10
21.89899759920117
 20
1.026143938749823
 30
0.0
 10
21.60540064491557
 20
1.180068178279356
 30
0.0
 10
21.46423375371975
 20
1.254077823328086
 30
0.0
  0
LINE
  5
9C
330
1F
100
AcDbEntity
  8
0
  6
Continuous
 62
     1
370
    15
100
AcDbLine
 10
20.60732913084244
 20
0.883394694691301
 30
0.0
 11
20.55364322228278
 21
0.9129062769711868
 31
0.0
  0
LINE
  5
9D
330
1F
100
AcDbEntity
  8
0
  6
Continuous
 62
     1
370
    15
100
AcDbLine
 10
15.05781044062554
 20
3.175000000000001
 30
0.0
 11
13.51986130996985
 21
3.175000000000001
 31
0.0
  0
SPLINE
  5
9E
330
1F
100
AcDbEntity
  8
0
  6
Continuous
 62
     1
370
    15
100
AcDbSpline
210
0.0
220
0.0
230
1.0
 70
     8
 71
     3
 72
    16
 73
    12
 74
     0
 42
0.000000001
 43
0.00000001
 40
0.0
 40
0.0
 40
0.0
 40
0.0
 40
0.1882578967149552
 40
0.3222656525373997
 40
0.442223724299824
 40
0.5455352912755991
 40
0.648462898223918
 40
0.7828657018604956
 40
0.9039249614397628
 40
0.9939866584464578
 40
1.0
 40
1.0
 40
1.0
 40
1.0
 10
21.2948927042952
 20
2.522977740605024
 30
0.0
 10
21.13666352928452
 20
2.515135831311884
 30
0.0
 10
20.86580196530733
 20
2.501711810011361
 30
0.0
 10
20.48009065829236
 20
2.48972701164549
 30
0.0
 10
20.17289966775248
 20
2.483121826491936
 30
0.0
 10
19.89344425345146
 20
2.479895742383806
 30
0.0
 10
19.6011619436849
 20
2.479095063754825
 30
0.0
 10
19.29385635432264
 20
2.481304990858175
 30
0.0
 10
18.9977252066076
 20
2.486993687584881
 30
0.0
 10
18.81155372427069
 20
2.491713465670484
 30
0.0
 10
18.72916721956245
 20
2.494602010017312
 30
0.0
 10
18.72401064403943
 20
2.494782804155002
 30
0.0
  0
SPLINE
  5
9F
330
1F
100
AcDbEntity
  8
0
  6
Continuous
 62
     1
370
    15
100
AcDbSpline
210
0.0
220
0.0
230
1.0
 70
     8
 71
     3
 72
    26
 73
    22
 74
     0
 42
0.000000001
 43
0.00000001
 40
0.0
 40
0.0
 40
0.0
 40
0.0
 40
0.072259067905604
 40
0.1247547795335042
 40
0.1593755265237344
 40
0.1949463536260441
 40
0.2359515903785901
 40
0.2773896693552775
 40
0.3113530416620782
 40
0.3638974102235952
 40
0.4256525370091807
 40
0.5001215702135124
 40
0.562436142708178
 40
0.6128284431232943
 40
0.6734408000751263
 40
0.743014133002574
 40
0.7842813058115878
 40
0.8155039916697883
 40
0.8507642426885864
 40
0.9121060936140708
 40
1.0
 40
1.0
 40
1.0
 40
1.0
 10
16.51855419939105
 20
-2.642044063253782
 30
0.0
 10
16.6330970144695
 20
-2.630909380649871
 30
0.0
 10
16.83085439020712
 20
-2.611685428366939
 30
0.0
 10
17.0838967883932
 20
-2.58994105075826
 30
0.0
 10
17.28051228998774
 20
-2.574162313232716
 30
0.0
 10
17.45834162867963
 20
-2.560779713701264
 30
0.0
 10
17.64638949799832
 20
-2.547618364616544
 30
0.0
 10
17.83159764658587
 20
-2.535837154912809
 30
0.0
 10
18.03527489266898
 20
-2.524086056570234
 30
0.0
 10
18.27138035922852
 20
-2.512046195669144
 30
0.0
 10
18.57200435621419
 20
-2.499368885772623
 30
0.0
 10
18.88813201676759
 20
-2.489366232165987
 30
0.0
 10
19.18600778272998
 20
-2.483135114138976
 30
0.0
 10
19.46201502201934
 20
-2.479890741973078
 30
0.0
 10
19.74947812481477
 20
-2.479058367048815
 30
0.0
 10
20.02250202642441
 20
-2.481089607529312
 30
0.0
 10
20.24871995388198
 20
-2.48478278555582
 30
0.0
 10
20.41889742894222
 20
-2.488533657526535
 30
0.0
 10
20.62099262709525
 20
-2.494084341794946
 30
0.0
 10
20.91555897665654
 20
-2.504205351290728
 30
0.0
 10
21.15428978424614
 20
-2.516019612282721
 30
0.0
 10
21.2948927042952
 20
-2.522977740605025
 30
0.0
  0
SPLINE
  5
A0
330
1F
100
AcDbEntity
  8
0
  6
Continuous
 62
     1
370
    15
100
AcDbSpline
210
0.0
220
0.0
230
1.0
 70
     8
 71
     3
 72
    15
 73
    11
 74
     0
 42
0.000000001
 43
0.00000001
 40
0.0
 40
0.0
 40
0.0
 40
0.0
 40
0.1730254210722799
 40
0.3271909804890677
 40
0.4371665681846208
 40
0.531131545813458
 40
0.6513475000401674
 40
0.8117373320317575
 40
0.9940173292617145
 40
1.0
 40
1.0
 40
1.0
 40
1.0
 10
23.84298704139686
 20
-2.388029011199565
 30
0.0
 10
23.97470580949388
 20
-2.367659907231196
 30
0.0
 10
24.2237859308737
 20
-2.329141942311405
 30
0.0
 10
24.58537146465442
 20
-2.281277045343751
 30
0.0
 10
24.87767281997691
 20
-2.244964454595218
 30
0.0
 10
25.12151537046699
 20
-2.21799129487833
 30
0.0
 10
25.42270860706241
 20
-2.187178663376773
 30
0.0
 10
25.79078626525599
 20
-2.15571091043775
 30
0.0
 10
26.06873576246151
 20
-2.135183523382735
 30
0.0
 10
26.21865413112847
 20
-2.127266732964376
 30
0.0
 10
26.22341828456917
 20
-2.127015150688994
 30
0.0
  0
SPLINE
  5
A1
330
1F
100
AcDbEntity
  8
0
  6
Continuous
 62
     1
370
    15
100
AcDbSpline
210
0.0
220
0.0
230
1.0
 70
     8
 71
     3
 72
     9
 73
     5
 74
     0
 42
0.000000001
 43
0.00000001
 40
0.0
 40
0.0
 40
0.0
 40
0.0
 40
0.4989859041946908
 40
1.0
 40
1.0
 40
1.0
 40
1.0
 10
12.11288625988321
 20
2.171549273237206
 30
0.0
 10
12.0140998908006
 20
2.163340377579163
 30
0.0
 10
11.81612562288607
 20
2.146889220163622
 30
0.0
 10
11.61877501294014
 20
2.134410764153961
 30
0.0
 10
11.51989957554146
 20
2.128158881799235
 30
0.0
  0
SPLINE
  5
A2
330
1F
100
AcDbEntity
  8
0
  6
Continuous
 62
     1
370
    15
100
AcDbSpline
210
0.0
220
0.0
230
1.0
 70
     8
 71
     3
 72
    26
 73
    22
 74
     0
 42
0.000000001
 43
0.00000001
 40
0.0
 40
0.0
 40
0.0
 40
0.0
 40
0.0717260165547252
 40
0.1250145392235505
 40
0.1764015849935359
 40
0.2214339003052325
 40
0.2779659708015813
 40
0.3218476568413043
 40
0.3626193777231393
 40
0.4192736281116637
 40
0.4748869386653881
 40
0.5224884986753304
 40
0.5668385080288043
 40
0.6348847014072931
 40
0.7010446107059582
 40
0.7520524110065988
 40
0.7926612476210848
 40
0.8269994275168746
 40
0.8742135294591088
 40
0.9341418903260325
 40
1.0
 40
1.0
 40
1.0
 40
1.0
 10
29.38932414993263
 20
2.171549182467718
 30
0.0
 10
29.25620800981538
 20
2.160661924576801
 30
0.0
 10
29.02419382975454
 20
2.141686027210431
 30
0.0
 10
28.69375665470774
 20
2.122071281723357
 30
0.0
 10
28.4497515367459
 20
2.108783189027943
 30
0.0
 10
28.16503233819748
 20
2.097423791349196
 30
0.0
 10
27.88431895444998
 20
2.092307023765148
 30
0.0
 10
27.61518593084796
 20
2.089207524346812
 30
0.0
 10
27.3542911133631
 20
2.089297384341239
 30
0.0
 10
27.06947644519512
 20
2.092882797274493
 30
0.0
 10
26.77268712783647
 20
2.100921254422825
 30
0.0
 10
26.49859089298917
 20
2.111949873721986
 30
0.0
 10
26.20168831030871
 20
2.12746351270212
 30
0.0
 10
25.87026071469746
 20
2.149477618134702
 30
0.0
 10
25.52640912884111
 20
2.177859240787594
 30
0.0
 10
25.2324509624939
 20
2.206262731779067
 30
0.0
 10
25.00180434035322
 20
2.23117736690328
 30
0.0
 10
24.78568703681228
 20
2.255944970887085
 30
0.0
 10
24.51278916662266
 20
2.290931265582743
 30
0.0
 10
24.18100857225381
 20
2.335482190473306
 30
0.0
 10
23.95914716983035
 20
2.369971447147773
 30
0.0
 10
23.84298704139686
 20
2.388029011199563
 30
0.0
  0
LINE
  5
A3
330
1F
100
AcDbEntity
  8
0
  6
Continuous
 62
     1
370
    15
100
AcDbLine
 10
13.51986130996984
 20
-3.175000000000002
 30
0.0
 11
15.05781044062556
 21
-3.175000000000002
 31
0.0
  0
SPLINE
  5
A4
330
1F
100
AcDbEntity
  8
외형선
  6
Continuous
370
    15
100
AcDbSpline
210
0.0
220
0.0
230
1.0
 70
     8
 71
     3
 72
    10
 73
     6
 74
     0
 42
0.000000001
 43
0.00000001
 40
0.0
 40
0.0
 40
0.0
 40
0.0
 40
0.5
 40
0.5
 40
1.0
 40
1.0
 40
1.0
 40
1.0
 10
11.51989957553873
 20
2.967235837494239
 30
0.0
 10
11.26644740589622
 20
2.915192446839619
 30
0.0
 10
11.01114959662308
 20
2.853531803249384
 30
0.0
 10
10.5041520504406
 20
2.712733212209185
 30
0.0
 10
10.25380041451377
 20
2.633800190334835
 30
0.0
 10
9.999999999999998
 20
2.546391070007531
 30
0.0
  0
SPLINE
  5
A5
330
1F
100
AcDbEntity
  8
외형선
  6
Continuous
370
    15
100
AcDbSpline
210
0.0
220
0.0
230
1.0
 70
     8
 71
     3
 72
    10
 73
     6
 74
     0
 42
0.000000001
 43
0.00000001
 40
0.0
 40
0.0
 40
0.0
 40
0.0
 40
0.5
 40
0.5
 40
1.0
 40
1.0
 40
1.0
 40
1.0
 10
11.51989957553874
 20
-2.539836339255424
 30
0.0
 10
11.2664649203691
 20
-2.452069243292338
 30
0.0
 10
11.01118488026533
 20
-2.355967129220175
 30
0.0
 10
10.50422187300988
 20
-2.149833619755526
 30
0.0
 10
10.2538877031562
 20
-2.040050320536849
 30
0.0
 10
10.00010523114347
 20
-1.923636599617985
 30
0.0
  0
LINE
  5
A6
330
1F
100
AcDbEntity
  8
외형선
  6
Continuous
370
    15
100
AcDbLine
 10
11.51989957554146
 20
-2.539836339256369
 30
0.0
 11
11.51989957554147
 21
-2.967235837494804
 31
0.0
  0
SPLINE
  5
A7
330
1F
100
AcDbEntity
  8
외형선
  6
Continuous
370
    15
100
AcDbSpline
210
0.0
220
0.0
230
1.0
 70
     8
 71
     3
 72
    10
 73
     6
 74
     0
 42
0.000000001
 43
0.00000001
 40
0.0
 40
0.0
 40
0.0
 40
0.0
 40
0.5
 40
0.5
 40
1.0
 40
1.0
 40
1.0
 40
1.0
 10
11.51989957553873
 20
-2.967235837494241
 30
0.0
 10
11.26644740589622
 20
-2.915192446839621
 30
0.0
 10
11.01114959662308
 20
-2.853531803249385
 30
0.0
 10
10.5041520504406
 20
-2.712733212209187
 30
0.0
 10
10.25380041451377
 20
-2.633800190334837
 30
0.0
 10
9.999999999999998
 20
-2.546391070007532
 30
0.0
  0
LINE
  5
A8
330
1F
100
AcDbEntity
  8
외형선
  6
Continuous
370
    15
100
AcDbLine
 10
10.0
 20
-3.175000000000001
 30
0.0
 11
10.0
 21
-2.546393956815467
 31
0.0
  0
LINE
  5
A9
330
1F
100
AcDbEntity
  8
외형선
  6
Continuous
370
    15
100
AcDbLine
 10
-32.12010042445853
 20
3.174999999999994
 30
0.0
 11
-32.12010042445853
 21
-3.175000000000003
 31
0.0
  0
LINE
  5
AA
330
1F
100
AcDbEntity
  8
외형선
  6
Continuous
370
    15
100
AcDbLine
 10
10.0
 20
-1.923528344234837
 30
0.0
 11
10.0
 21
3.174999999999999
 31
0.0
  0
LINE
  5
AB
330
1F
100
AcDbEntity
  8
외형선
  6
Continuous
370
    15
100
AcDbLine
 10
-32.93010042445853
 20
2.364999999999994
 30
0.0
 11
-32.93010042445853
 21
-2.365000000000003
 31
0.0
  0
SPLINE
  5
AC
330
1F
100
AcDbEntity
  8
외형선
  6
Continuous
370
    15
100
AcDbSpline
210
0.0
220
0.0
230
1.0
 70
     8
 71
     3
 72
    10
 73
     6
 74
     0
 42
0.000000001
 43
0.00000001
 40
0.0
 40
0.0
 40
0.0
 40
0.0
 40
0.5
 40
0.5
 40
1.0
 40
1.0
 40
1.0
 40
1.0
 10
11.51989957553593
 20
-2.057329546831207
 30
0.0
 10
11.26646492036674
 20
-1.976869002691258
 30
0.0
 10
11.01118488026345
 20
-1.88963431422535
 30
0.0
 10
10.50422187300895
 20
-1.704104802809987
 30
0.0
 10
10.25388770315573
 20
-1.606026687191543
 30
0.0
 10
10.00010523114347
 20
-1.50271296698229
 30
0.0
  0
SPLINE
  5
AD
330
1F
100
AcDbEntity
  8
외형선
  6
Continuous
370
    15
100
AcDbSpline
210
0.0
220
0.0
230
1.0
 70
     8
 71
     3
 72
    10
 73
     6
 74
     0
 42
0.000000001
 43
0.00000001
 40
0.0
 40
0.0
 40
0.0
 40
0.0
 40
0.5
 40
0.5
 40
1.0
 40
1.0
 40
1.0
 40
1.0
 10
11.51989957553464
 20
0.8053902999457558
 30
0.0
 10
11.26645380070613
 20
0.9163666264609593
 30
0.0
 10
11.01116247924279
 20
1.02503422059951
 30
0.0
 10
10.50417754375878
 20
1.234648251113087
 30
0.0
 10
10.25383228501739
 20
1.335440136933537
 30
0.0
 10
10.00003842158797
 20
1.432125640136966
 30
0.0
  0
SPLINE
  5
AE
330
1F
100
AcDbEntity
  8
외형선
  6
Continuous
370
    15
100
AcDbSpline
210
0.0
220
0.0
230
1.0
 70
    24
 71
     3
 72
    10
 73
     6
 74
     0
 42
0.000000001
 43
0.00000001
 40
0.0
 40
0.0
 40
0.0
 40
0.0
 40
0.5
 40
0.5
 40
1.0
 40
1.0
 40
1.0
 40
1.0
 10
11.51989957554144
 20
0.805390299942778
 30
0.0
 10
11.51989957554144
 20
0.3261034567860108
 30
0.0
 10
11.51989957554144
 20
-0.1986805674612387
 30
0.0
 10
11.51989957554144
 20
-1.199343008944241
 30
0.0
 10
11.51989957554144
 20
-1.670914183845444
 30
0.0
 10
11.51989957554144
 20
-2.057329546832956
 30
0.0
  0
SPLINE
  5
AF
330
1F
100
AcDbEntity
  8
외형선
  6
Continuous
370
    15
100
AcDbSpline
210
0.0
220
0.0
230
1.0
 70
    24
 71
     3
 72
     8
 73
     4
 74
     0
 42
0.000000001
 43
0.00000001
 40
0.0
 40
0.0
 40
0.0
 40
0.0
 40
1.0
 40
1.0
 40
1.0
 40
1.0
 10
11.51989957554153
 20
-2.057329546832984
 30
0.0
 10
11.51989957554153
 20
-2.213075893367483
 30
0.0
 10
11.51989957554153
 20
-2.374922603529043
 30
0.0
 10
11.51989957554153
 20
-2.53983633924406
 30
0.0
  0
SPLINE
  5
B0
330
1F
100
AcDbEntity
  8
외형선
  6
Continuous
370
    15
100
AcDbSpline
210
0.0
220
0.0
230
1.0
 70
    24
 71
     3
 72
    13
 73
     9
 74
     0
 42
0.000000001
 43
0.00000001
 40
0.0
 40
0.0
 40
0.0
 40
0.0
 40
0.059085275215806
 40
0.2502112343880141
 40
0.4359507354466347
 40
0.6270766946188429
 40
0.8135383473094214
 40
1.0
 40
1.0
 40
1.0
 40
1.0
 10
11.51989957554147
 20
2.117693469442563
 30
0.0
 10
11.51989957554147
 20
2.120304288302557
 30
0.0
 10
11.51989957554147
 20
2.131360447512052
 30
0.0
 10
11.51989957554147
 20
2.049897800056617
 30
0.0
 10
11.51989957554147
 20
1.873076554311224
 30
0.0
 10
11.51989957554147
 20
1.59811562401132
 30
0.0
 10
11.51989957554147
 20
1.244403764293295
 30
0.0
 10
11.51989957554147
 20
0.9517281213929438
 30
0.0
 10
11.51989957554147
 20
0.8053902999427683
 30
0.0
  0
SPLINE
  5
B1
330
1F
100
AcDbEntity
  8
외형선
  6
Continuous
370
    15
100
AcDbSpline
210
0.0
220
0.0
230
1.0
 70
    24
 71
     3
 72
    11
 73
     7
 74
     0
 42
0.000000001
 43
0.00000001
 40
0.0
 40
0.0
 40
0.0
 40
0.0
 40
0.1906484248150057
 40
0.4116161368046122
 40
0.6389919274113336
 40
0.9999999999999999
 40
0.9999999999999999
 40
0.9999999999999999
 40
0.9999999999999999
 10
11.51989957554147
 20
2.967235837494803
 30
0.0
 10
11.51989957554147
 20
2.906840807086359
 30
0.0
 10
11.51989957554147
 20
2.776445976271244
 30
0.0
 10
11.51989957554147
 20
2.581895431468021
 30
0.0
 10
11.51989957554147
 20
2.348220262398239
 30
0.0
 10
11.51989957554147
 20
2.211837636449325
 30
0.0
 10
11.51989957554147
 20
2.128158881799235
 30
0.0
  0
SPLINE
  5
B2
330
1F
100
AcDbEntity
  8
0
  6
Continuous
 62
     1
370
    15
100
AcDbSpline
210
0.0
220
0.0
230
1.0
 70
     8
 71
     3
 72
    21
 73
    17
 74
     0
 42
0.000000001
 43
0.00000001
 40
0.0
 40
0.0
 40
0.0
 40
0.0
 40
0.0770919415784909
 40
0.1541079951816935
 40
0.2310871047002283
 40
0.3080685583973942
 40
0.3850916226526389
 40
0.4608275653959911
 40
0.536526433862261
 40
0.6121490609275095
 40
0.6877456780215585
 40
0.7649101093245552
 40
0.842132732638954
 40
0.9194157432077167
 40
0.9966292584640372
 40
1.0
 40
1.0
 40
1.0
 40
1.0
 10
30.56989957554148
 20
-3.012887259811284
 30
0.0
 10
30.17120131428575
 20
-2.926594035436674
 30
0.0
 10
29.37419726345392
 20
-2.754092532246546
 30
0.0
 10
28.17940769259808
 20
-2.327705942446076
 30
0.0
 10
26.985282249999
 20
-1.80210802837536
 30
0.0
 10
25.79110830968044
 20
-1.189072354469369
 30
0.0
 10
24.60327438189205
 20
-0.5245618632516736
 30
0.0
 10
23.42166742584654
 20
0.1596416146553503
 30
0.0
 10
22.24750439347542
 20
0.8327427261966996
 30
0.0
 10
21.07434486731677
 20
1.468055082418168
 30
0.0
 10
19.8936938724175
 20
2.040849670703589
 30
0.0
 10
18.70463072460746
 20
2.521691450607281
 30
0.0
 10
17.50669409008675
 20
2.891288464433409
 30
0.0
 10
16.30818158711729
 20
3.107054259757695
 30
0.0
 10
15.49186988413073
 20
3.197708075429313
 30
0.0
 10
15.07523766026028
 20
3.172904784723729
 30
0.0
 10
15.05781044062555
 20
3.171867293214373
 30
0.0
  0
SPLINE
  5
B3
330
1F
100
AcDbEntity
  8
0
  6
Continuous
 62
     1
370
    15
100
AcDbSpline
210
0.0
220
0.0
230
1.0
 70
     8
 71
     3
 72
    14
 73
    10
 74
     0
 42
0.000000001
 43
0.00000001
 40
0.0
 40
0.0
 40
0.0
 40
0.0
 40
0.1561744721818959
 40
0.3122786975639793
 40
0.4683315934122989
 40
0.6243522700428624
 40
0.7803599593180311
 40
0.9363739421754245
 40
1.0
 40
1.0
 40
1.0
 40
1.0
 10
30.56989957554147
 20
-2.504986939369087
 30
0.0
 10
30.14102461338694
 20
-2.413487007121488
 30
0.0
 10
29.28346759572382
 20
-2.230528299015896
 30
0.0
 10
27.99748438176754
 20
-1.798072585599922
 30
0.0
 10
26.71197833979565
 20
-1.277823306019719
 30
0.0
 10
25.4267796192191
 20
-0.6847202539904741
 30
0.0
 10
24.14170051960446
 20
-0.0579217862863912
 30
0.0
 10
23.11030611357487
 20
0.4562881154873539
 30
0.0
 10
22.50723079524888
 20
0.7334142613897515
 30
0.0
 10
22.33252993033716
 20
0.8136930854563473
 30
0.0
  0
LINE
  5
B4
330
1F
100
AcDbEntity
  8
0
  6
Continuous
 62
     1
370
    15
100
AcDbLine
 10
30.56989957554147
 20
-3.012887259811285
 30
0.0
 11
30.56989957554147
 21
-2.504986939369087
 31
0.0
  0
SPLINE
  5
B5
330
1F
100
AcDbEntity
  8
0
  6
Continuous
 62
     1
370
    15
100
AcDbSpline
210
0.0
220
0.0
230
1.0
 70
     8
 71
     3
 72
    56
 73
    52
 74
     0
 42
0.000000001
 43
0.00000001
 40
0.0
 40
0.0
 40
0.0
 40
0.0
 40
0.0625000000000001
 40
0.0625000000000001
 40
0.09375
 40
0.09375
 40
0.1249999999999998
 40
0.1249999999999998
 40
0.1874999999999999
 40
0.1874999999999999
 40
0.21875
 40
0.21875
 40
0.2500000000000001
 40
0.2500000000000001
 40
0.2812500000000001
 40
0.2812500000000001
 40
0.3125000000000002
 40
0.3125000000000002
 40
0.3750000000000003
 40
0.3750000000000003
 40
0.4375000000000004
 40
0.4375000000000004
 40
0.4687500000000005
 40
0.4687500000000005
 40
0.5000000000000006
 40
0.5000000000000006
 40
0.5625000000000007
 40
0.5625000000000007
 40
0.5937500000000006
 40
0.5937500000000006
 40
0.6250000000000006
 40
0.6250000000000006
 40
0.6562500000000004
 40
0.6562500000000004
 40
0.6875000000000004
 40
0.6875000000000004
 40
0.7500000000000004
 40
0.7500000000000004
 40
0.7812500000000003
 40
0.7812500000000003
 40
0.8125000000000003
 40
0.8125000000000003
 40
0.8437500000000002
 40
0.8437500000000002
 40
0.8750000000000002
 40
0.8750000000000002
 40
0.9375000000000001
 40
0.9375000000000001
 40
0.96875
 40
0.96875
 40
1.0
 40
1.0
 40
1.0
 40
1.0
 10
30.56989957554147
 20
-3.174999999999994
 30
0.0
 10
30.17639553812436
 20
-3.162924105869787
 30
0.0
 10
29.77445915378532
 20
-3.128530208564978
 30
0.0
 10
29.17983890074087
 20
-3.040962796368697
 30
0.0
 10
28.98363487054336
 20
-3.005903212736783
 30
0.0
 10
28.58641061756624
 20
-2.923909125740599
 30
0.0
 10
28.3866985386574
 20
-2.877024885926609
 30
0.0
 10
27.78952294249209
 20
-2.719907703119355
 30
0.0
 10
27.39651729412428
 20
-2.593541766784543
 30
0.0
 10
26.79862132438792
 20
-2.37425873609726
 30
0.0
 10
26.59924554612704
 20
-2.296347579433366
 30
0.0
 10
26.20382720802768
 20
-2.132330515678202
 30
0.0
 10
26.0070405591826
 20
-2.046144470367106
 30
0.0
 10
25.60919123464448
 20
-1.865489370259208
 30
0.0
 10
25.40945275473342
 20
-1.771201493358658
 30
0.0
 10
25.01185669356847
 20
-1.576365850099273
 30
0.0
 10
24.81539932091032
 20
-1.476068319501414
 30
0.0
 10
24.22157817306079
 20
-1.166401111287358
 30
0.0
 10
23.81953393756332
 20
-0.9480740976925747
 30
0.0
 10
23.03105331492527
 20
-0.5028952054049204
 30
0.0
 10
22.63070887562627
 20
-0.2734761805740449
 30
0.0
 10
22.03537568011814
 20
0.0702126607643899
 30
0.0
 10
21.83924351540896
 20
0.1844173712322008
 30
0.0
 10
21.44244890694512
 20
0.4125327979414284
 30
0.0
 10
21.24279268414645
 20
0.5262465028395892
 30
0.0
 10
20.64530288647419
 20
0.8633500173903572
 30
0.0
 10
20.25249559418552
 20
1.082056874156469
 30
0.0
 10
19.65468738449049
 20
1.396483424163176
 30
0.0
 10
19.45517981003616
 20
1.49879554268969
 30
0.0
 10
19.05918343220627
 20
1.696667232686146
 30
0.0
 10
18.86279374492996
 20
1.792230848527367
 30
0.0
 10
18.46527030111719
 20
1.976748549368074
 30
0.0
 10
18.26553488833056
 20
2.065461702782154
 30
0.0
 10
17.86762503655184
 20
2.2342306603335
 30
0.0
 10
17.67073296729129
 20
2.31412532339652
 30
0.0
 10
17.07779669933532
 20
2.540159520129932
 30
0.0
 10
16.67570479228275
 20
2.67285964067802
 30
0.0
 10
16.08332449829458
 20
2.838036846797967
 30
0.0
 10
15.88609495876817
 20
2.887663967205968
 30
0.0
 10
15.48802882713246
 20
2.975724373755566
 30
0.0
 10
15.28830882463935
 20
3.014050184500038
 30
0.0
 10
14.89100240563394
 20
3.078642147920071
 30
0.0
 10
14.69476059459201
 20
3.104875711241918
 30
0.0
 10
14.29845325778266
 20
3.145322858393691
 30
0.0
 10
14.09888231866563
 20
3.159478199629102
 30
0.0
 10
13.50116588088668
 20
3.183266298458877
 30
0.0
 10
13.10840340584885
 20
3.174295825102913
 30
0.0
 10
12.5107706733029
 20
3.123788141804981
 30
0.0
 10
12.31116065699076
 20
3.100772685658418
 30
0.0
 10
11.91464347866619
 20
3.042844764420034
 30
0.0
 10
11.71846936600327
 20
3.008009783883923
 30
0.0
 10
11.51989957553873
 20
2.967235837494241
 30
0.0
  0
SPLINE
  5
B6
330
1F
100
AcDbEntity
  8
0
  6
Continuous
 62
     1
370
    15
100
AcDbSpline
210
0.0
220
0.0
230
1.0
 70
     8
 71
     3
 72
    16
 73
    12
 74
     0
 42
0.000000001
 43
0.00000001
 40
0.0
 40
0.0
 40
0.0
 40
0.0
 40
0.1055643918888693
 40
0.2271141503166913
 40
0.3487155471445681
 40
0.4703531005719828
 40
0.5919371342442924
 40
0.7134742045718029
 40
0.8275812610003352
 40
0.9416700605463503
 40
0.9999999999999999
 40
0.9999999999999999
 40
0.9999999999999999
 40
0.9999999999999999
 10
22.68789554097056
 20
-0.3038785971963784
 30
0.0
 10
22.31568791098812
 20
-0.1538444143825274
 30
0.0
 10
21.51491012870486
 20
0.1689432731939664
 30
0.0
 10
20.2853363652802
 20
0.66201570377311
 30
0.0
 10
18.99903414314091
 20
1.140214560936155
 30
0.0
 10
17.71253979323761
 20
1.55675872297599
 30
0.0
 10
16.42637562080832
 20
1.888171452592758
 30
0.0
 10
15.16677174740034
 20
2.113691301985949
 30
0.0
 10
13.93375851677883
 20
2.221907078426085
 30
0.0
 10
12.92359708730986
 20
2.237910533714933
 30
0.0
 10
12.31569546141314
 20
2.178286305674319
 30
0.0
 10
12.11003994370053
 20
2.158115194159657
 30
0.0
  0
SPLINE
  5
B7
330
1F
100
AcDbEntity
  8
외형선
  6
Continuous
370
    15
100
AcDbSpline
210
0.0
220
0.0
230
1.0
 70
    24
 71
     3
 72
    11
 73
     7
 74
     0
 42
0.000000001
 43
0.00000001
 40
0.0
 40
0.0
 40
0.0
 40
0.0
 40
0.1906484248150063
 40
0.4116161368046128
 40
0.6389919274113339
 40
1.0
 40
1.0
 40
1.0
 40
1.0
 10
11.51989957554147
 20
2.967235837494802
 30
0.0
 10
11.51989957554147
 20
2.906840807086359
 30
0.0
 10
11.51989957554147
 20
2.776445976271243
 30
0.0
 10
11.51989957554147
 20
2.581895431468019
 30
0.0
 10
11.51989957554147
 20
2.34822026239824
 30
0.0
 10
11.51989957554147
 20
2.211837636449325
 30
0.0
 10
11.51989957554147
 20
2.128158881799235
 30
0.0
  0
LINE
  5
B8
330
1F
100
AcDbEntity
  8
0
  6
Continuous
 62
     1
370
    15
100
AcDbLine
 10
30.56989957554147
 20
-3.174999999999996
 30
0.0
 11
30.56989957554147
 21
-3.012887259811285
 31
0.0
  0
SPLINE
  5
B9
330
1F
100
AcDbEntity
  8
0
  6
Continuous
 62
     1
370
    15
100
AcDbSpline
210
0.0
220
0.0
230
1.0
 70
     8
 71
     3
 72
     8
 73
     4
 74
     0
 42
0.000000001
 43
0.00000001
 40
0.0
 40
0.0
 40
0.0
 40
0.0
 40
1.0
 40
1.0
 40
1.0
 40
1.0
 10
28.60482430856265
 20
0.8886594965445269
 30
0.0
 10
28.4921685603168
 20
1.022151308112281
 30
0.0
 10
28.39166000470883
 20
1.150592603090891
 30
0.0
 10
28.30614422208718
 20
1.272800256195025
 30
0.0
  0
LINE
  5
BA
330
1F
100
AcDbEntity
  8
0
  6
Continuous
 62
     1
370
    15
100
AcDbLine
 10
28.34627713741814
 20
1.306475770647302
 30
0.0
 11
30.56989957554147
 21
0.0000000000000018
 31
0.0
  0
LINE
  5
BB
330
1F
100
AcDbEntity
  8
0
  6
Continuous
 62
     1
370
    15
100
AcDbLine
 10
30.56989957554147
 20
0.0000000000000018
 30
0.0
 11
30.56989957554147
 21
-0.8484963536441206
 31
0.0
  0
SPLINE
  5
BC
330
1F
100
AcDbEntity
  8
0
  6
Continuous
 62
     1
370
    15
100
AcDbSpline
210
0.0
220
0.0
230
1.0
 70
     8
 71
     3
 72
    10
 73
     6
 74
     0
 42
0.000000001
 43
0.00000001
 40
0.0
 40
0.0
 40
0.0
 40
0.0
 40
0.5
 40
0.5
 40
1.0
 40
1.0
 40
1.0
 40
1.0
 10
30.56989957554147
 20
-0.8484963536441203
 30
0.0
 10
30.22973116127182
 20
-0.5810651575656127
 30
0.0
 10
29.89524818985196
 20
-0.3026650804819457
 30
0.0
 10
29.23793673311476
 20
0.2766199837640468
 30
0.0
 10
28.91204816468778
 20
0.5805576266505992
 30
0.0
 10
28.60482430856266
 20
0.8886594965445258
 30
0.0
  0
SPLINE
  5
BD
330
1F
100
AcDbEntity
  8
0
  6
Continuous
 62
     1
370
    15
100
AcDbSpline
210
0.0
220
0.0
230
1.0
 70
     8
 71
     3
 72
    14
 73
    10
 74
     0
 42
0.000000001
 43
0.00000001
 40
0.0
 40
0.0
 40
0.0
 40
0.0
 40
0.1448374690733397
 40
0.2899348819534956
 40
0.4347025980965897
 40
0.6104660872446138
 40
0.7862367628780115
 40
0.9620366226686468
 40
1.0
 40
1.0
 40
1.0
 40
1.0
 10
28.60482430856267
 20
0.8886594965445213
 30
0.0
 10
28.25190851694282
 20
1.038246358046217
 30
0.0
 10
27.54544354598278
 20
1.337688548722214
 30
0.0
 10
26.48567555459602
 20
1.72760490308241
 30
0.0
 10
25.35128221559514
 20
2.079853313183186
 30
0.0
 10
24.14165457218864
 20
2.360955875390555
 30
0.0
 10
22.85654367357359
 20
2.519880595897842
 30
0.0
 10
21.90721020529378
 20
2.56780912083109
 30
0.0
 10
21.38622311093702
 20
2.519822328289495
 30
0.0
 10
21.29369817580729
 20
2.511300092489247
 30
0.0
  0
SPLINE
  5
BE
330
1F
100
AcDbEntity
  8
0
  6
Continuous
 62
     1
370
    15
100
AcDbSpline
210
0.0
220
0.0
230
1.0
 70
    24
 71
     3
 72
    10
 73
     6
 74
     0
 42
0.000000001
 43
0.00000001
 40
0.0
 40
0.0
 40
0.0
 40
0.0
 40
0.5
 40
0.5
 40
1.0
 40
1.0
 40
1.0
 40
1.0
 10
30.56989957554147
 20
-2.504986939369086
 30
0.0
 10
30.56989957554148
 20
-2.312960160087081
 30
0.0
 10
30.56989957554148
 20
-2.070326961403038
 30
0.0
 10
30.56989957554147
 20
-1.506228125303408
 30
0.0
 10
30.56989957554148
 20
-1.185251131687908
 30
0.0
 10
30.56989957554147
 20
-0.8484963536442225
 30
0.0
  0
SPLINE
  5
BF
330
1F
100
AcDbEntity
  8
0
  6
Continuous
 62
     1
370
    15
100
AcDbSpline
210
0.0
220
0.0
230
1.0
 70
     8
 71
     3
 72
    12
 73
     8
 74
     0
 42
0.000000001
 43
0.00000001
 40
0.0
 40
0.0
 40
0.0
 40
0.0
 40
0.0187186591985868
 40
0.2758195950298299
 40
0.5328564930184462
 40
0.7898609788799791
 40
1.0
 40
1.0
 40
1.0
 40
1.0
 10
16.51987168237845
 20
-2.637126725924267
 30
0.0
 10
16.48866974051607
 20
-2.641826434512053
 30
0.0
 10
16.02890887424226
 20
-2.711076678650214
 30
0.0
 10
15.14075969075263
 20
-2.711383182126869
 30
0.0
 10
13.85549779260907
 20
-2.6195113196928
 30
0.0
 10
12.64840713059316
 20
-2.391826091582953
 30
0.0
 10
11.87003923381646
 20
-2.161113084079696
 30
0.0
 10
11.51989957554146
 20
-2.057329546832962
 30
0.0
  0
SPLINE
  5
C0
330
1F
100
AcDbEntity
  8
0
  6
Continuous
 62
     1
370
    15
100
AcDbSpline
210
0.0
220
0.0
230
1.0
 70
     8
 71
     3
 72
    17
 73
    13
 74
     0
 42
0.000000001
 43
0.00000001
 40
0.0
 40
0.0
 40
0.0
 40
0.0
 40
0.0804193438915302
 40
0.1846809408511645
 40
0.2889728266078352
 40
0.3933078672066707
 40
0.4976731214208695
 40
0.6019936467562937
 40
0.7062749258554243
 40
0.8041836588198412
 40
0.9020771370297865
 40
1.0
 40
1.0
 40
1.0
 40
1.0
 10
23.84799060322164
 20
-2.375724038249358
 30
0.0
 10
23.51753006667372
 20
-2.425024142428045
 30
0.0
 10
22.75863600150744
 20
-2.538240555086929
 30
0.0
 10
21.57115570076087
 20
-2.555104408328508
 30
0.0
 10
20.28535049963483
 20
-2.449831602269771
 30
0.0
 10
18.99904759995606
 20
-2.207061782637241
 30
0.0
 10
17.71253867649162
 20
-1.845363978750482
 30
0.0
 10
16.42638003885253
 20
-1.382901932490917
 30
0.0
 10
15.16676350290956
 20
-0.8560418591599755
 30
0.0
 10
13.93376406610941
 20
-0.2980381821284927
 30
0.0
 10
12.72689788440697
 20
0.2652967438374687
 30
0.0
 10
11.92227259328754
 20
0.6253411048121099
 30
0.0
 10
11.51989957554147
 20
0.8053902999427677
 30
0.0
  0
SPLINE
  5
C1
330
1F
100
AcDbEntity
  8
외형선
  6
Continuous
370
    15
100
AcDbSpline
210
0.0
220
0.0
230
1.0
 70
    24
 71
     3
 72
    10
 73
     6
 74
     0
 42
0.000000001
 43
0.00000001
 40
0.0
 40
0.0
 40
0.0
 40
0.0
 40
0.5
 40
0.5
 40
1.0
 40
1.0
 40
1.0
 40
1.0
 10
11.51989957554144
 20
0.805390299942778
 30
0.0
 10
11.51989957554144
 20
0.3261034567860108
 30
0.0
 10
11.51989957554144
 20
-0.1986805674612387
 30
0.0
 10
11.51989957554144
 20
-1.199343008944241
 30
0.0
 10
11.51989957554144
 20
-1.670914183845444
 30
0.0
 10
11.51989957554144
 20
-2.057329546832956
 30
0.0
  0
SPLINE
  5
C2
330
1F
100
AcDbEntity
  8
외형선
  6
Continuous
370
    15
100
AcDbSpline
210
0.0
220
0.0
230
1.0
 70
    24
 71
     3
 72
    13
 73
     9
 74
     0
 42
0.000000001
 43
0.00000001
 40
0.0
 40
0.0
 40
0.0
 40
0.0
 40
0.0599749924397214
 40
0.2509202252896245
 40
0.4364840933935251
 40
0.6274293262434282
 40
0.813714663121714
 40
0.9999999999999999
 40
0.9999999999999999
 40
0.9999999999999999
 40
0.9999999999999999
 10
11.51989957554147
 20
2.117619642343538
 30
0.0
 10
11.51989957554147
 20
2.120285111552698
 30
0.0
 10
11.51989957554147
 20
2.131436761719847
 30
0.0
 10
11.51989957554147
 20
2.049934556689642
 30
0.0
 10
11.51989957554147
 20
1.873066505000805
 30
0.0
 10
11.51989957554147
 20
1.598118262369779
 30
0.0
 10
11.51989957554147
 20
1.244403111507565
 30
0.0
 10
11.51989957554147
 20
0.9517279037977007
 30
0.0
 10
11.51989957554147
 20
0.8053902999427683
 30
0.0
  0
SPLINE
  5
C3
330
1F
100
AcDbEntity
  8
0
  6
Continuous
 62
     1
370
    15
100
AcDbSpline
210
0.0
220
0.0
230
1.0
 70
    24
 71
     3
 72
     8
 73
     4
 74
     0
 42
0.000000001
 43
0.00000001
 40
0.0
 40
0.0
 40
0.0
 40
0.0
 40
1.0
 40
1.0
 40
1.0
 40
1.0
 10
28.63754910551206
 20
1.550881971644894
 30
0.0
 10
28.53275593540989
 20
1.462950061262263
 30
0.0
 10
28.4219373644075
 20
1.369962239208863
 30
0.0
 10
28.30614422208722
 20
1.272800256195063
 30
0.0
  0
LINE
  5
C4
330
1F
100
AcDbEntity
  8
0
  6
Continuous
 62
     1
370
    15
100
AcDbLine
 10
30.56989957554147
 20
2.222499999999999
 30
0.0
 11
29.38816033632548
 21
2.166938396100939
 31
0.0
  0
SPLINE
  5
C5
330
1F
100
AcDbEntity
  8
0
  6
Continuous
 62
     1
370
    15
100
AcDbSpline
210
0.0
220
0.0
230
1.0
 70
     8
 71
     3
 72
     8
 73
     4
 74
     0
 42
0.000000001
 43
0.00000001
 40
0.0
 40
0.0
 40
0.0
 40
0.0
 40
1.0
 40
1.0
 40
1.0
 40
1.0
 10
30.56989957554147
 20
2.222500000000001
 30
0.0
 10
29.91679439711304
 20
2.045248916505809
 30
0.0
 10
29.26991417239987
 20
1.827618470580119
 30
0.0
 10
28.63754910551702
 20
1.550881971648702
 30
0.0
  0
SPLINE
  5
C6
330
1F
100
AcDbEntity
  8
0
  6
Continuous
 62
     1
370
    15
100
AcDbSpline
210
0.0
220
0.0
230
1.0
 70
     8
 71
     3
 72
    14
 73
    10
 74
     0
 42
0.000000001
 43
0.00000001
 40
0.0
 40
0.0
 40
0.0
 40
0.0
 40
0.0024788727687728
 40
0.1687846996243383
 40
0.3352205758338037
 40
0.5015067876715836
 40
0.6676775804031676
 40
0.8338146498550448
 40
1.0
 40
1.0
 40
1.0
 40
1.0
 10
18.72275928081775
 20
-2.495285866952037
 30
0.0
 10
18.71680814930415
 20
-2.497682089901417
 30
0.0
 10
18.31159979912116
 20
-2.660839221577956
 30
0.0
 10
17.50668509596241
 20
-2.880030506734404
 30
0.0
 10
16.30817634756024
 20
-3.119942518627271
 30
0.0
 10
15.11034525786133
 20
-3.19983479510761
 30
0.0
 10
13.91337585008054
 20
-3.12982355758311
 30
0.0
 10
12.71671581562496
 20
-2.919658758640456
 30
0.0
 10
11.9188769596215
 20
-2.666456074371328
 30
0.0
 10
11.51989957553456
 20
-2.539836339253979
 30
0.0
  0
SPLINE
  5
C7
330
1F
100
AcDbEntity
  8
외형선
  6
Continuous
370
    15
100
AcDbSpline
210
0.0
220
0.0
230
1.0
 70
    24
 71
     3
 72
     8
 73
     4
 74
     0
 42
0.000000001
 43
0.00000001
 40
0.0
 40
0.0
 40
0.0
 40
0.0
 40
1.0
 40
1.0
 40
1.0
 40
1.0
 10
11.51989957554153
 20
-2.057329546832984
 30
0.0
 10
11.51989957554153
 20
-2.213075893367478
 30
0.0
 10
11.51989957554153
 20
-2.37492260352903
 30
0.0
 10
11.51989957554153
 20
-2.53983633924404
 30
0.0
  0
SPLINE
  5
C8
330
1F
100
AcDbEntity
  8
0
  6
Continuous
 62
     1
370
    15
100
AcDbSpline
210
0.0
220
0.0
230
1.0
 70
     8
 71
     3
 72
     9
 73
     5
 74
     0
 42
0.000000001
 43
0.00000001
 40
0.0
 40
0.0
 40
0.0
 40
0.0
 40
0.5971419965954832
 40
1.0
 40
1.0
 40
1.0
 40
1.0
 10
11.51989957553874
 20
-2.967235837494244
 30
0.0
 10
11.91800295490102
 20
-3.039844293920143
 30
0.0
 10
12.58468421602822
 20
-3.161437577996401
 30
0.0
 10
13.25130699015938
 20
-3.159404494464744
 30
0.0
 10
13.51986130996984
 20
-3.158585450492426
 30
0.0
  0
SPLINE
  5
C9
330
1F
100
AcDbEntity
  8
0
  6
Continuous
 62
     1
370
    15
100
AcDbSpline
210
0.0
220
0.0
230
1.0
 70
     8
 71
     3
 72
    11
 73
     7
 74
     0
 42
0.000000001
 43
0.00000001
 40
0.0
 40
0.0
 40
0.0
 40
0.0
 40
0.1734584546565711
 40
0.4487954757129563
 40
0.7242644711613075
 40
1.0
 40
1.0
 40
1.0
 40
1.0
 10
26.22359558045265
 20
2.127088703044975
 30
0.0
 10
26.47487136427732
 20
2.235278541036101
 30
0.0
 10
27.12500649409856
 20
2.515202110657824
 30
0.0
 10
28.1741656482603
 20
2.839027618315435
 30
0.0
 10
29.37158311189995
 20
3.100991723571295
 30
0.0
 10
30.17033201006999
 20
3.148533937125497
 30
0.0
 10
30.56989957554147
 20
3.175000000000003
 30
0.0
  0
LINE
  5
CA
330
1F
100
AcDbEntity
  8
0
  6
Continuous
 62
     1
370
    15
100
AcDbLine
 10
30.56989957554147
 20
0.0000000000000018
 30
0.0
 11
30.56989957554147
 21
2.222500000000001
 31
0.0
  0
SPLINE
  5
CB
330
1F
100
AcDbEntity
  8
0
  6
Continuous
 62
     1
370
    15
100
AcDbSpline
210
0.0
220
0.0
230
1.0
 70
    27
 71
     3
 72
    10
 73
     6
 74
     0
 42
0.000000001
 43
0.00000001
 40
0.0
 40
0.0
 40
0.0
 40
0.0
 40
0.5
 40
0.5
 40
1.0
 40
1.0
 40
1.0
 40
1.0
 10
30.56989957554147
 20
3.175000000000003
 30
0.0
 10
30.56989957554147
 20
2.357222415363221
 30
0.0
 10
30.56989957554147
 20
2.513782338653096
 30
0.0
 10
30.56989957554146
 20
2.842244636050714
 30
0.0
 10
30.56989957554147
 20
3.013308158669675
 30
0.0
 10
30.56989957554147
 20
3.175000000000006
 30
0.0
  0
LINE
  5
CC
330
1F
100
AcDbEntity
  8
중심선
 48
0.8
100
AcDbLine
 10
-35.93010042445853
 20
-0.0000000000000046
 30
0.0
 11
33.56989957554148
 21
0.0000000000000039
 31
0.0
  0
LINE
  5
CD
330
1F
100
AcDbEntity
  8
참조1
100
AcDbLine
 10
-6.737684671492223
 20
0.0010749287238892
 30
0.0
 11
-6.737684671492218
 21
-39.99892507127611
 31
0.0
  0
LINE
  5
CE
330
1F
100
AcDbEntity
  8
참조1
100
AcDbLine
 10
-6.737684671492218
 20
-39.99892507127611
 30
0.0
 11
-15.54395731641845
 21
-39.9989250712761
 31
0.0
  0
CIRCLE
  5
CF
330
1F
100
AcDbEntity
  8
해칭선
100
AcDbCircle
 10
0.0
 20
0.0
 30
0.0
 40
3.000000000000001
  0
INSERT
  5
D0
330
1F
100
AcDbEntity
  8
0
  6
Continuous
 62
     7
100
AcDbBlockReference
 66
     1
  2
블럭10
 10
-15.12037335658373
 20
-52.04717430164393
 30
0.0
  0
ATTRIB
  5
D1
330
D0
100
AcDbEntity
  8
FORMAT
 62
     2
100
AcDbText
 10
-25.26200936872036
 20
-49.97180738881175
 30
0.0
 40
4.233333333333333
  1
EM154016 [ 2 FLUTE ]
 41
0.75
  7
SLDTEXTSTYLE0
 11
-25.26200936872036
 21
-52.08847405547841
 31
0.0
100
AcDbAttribute
  2
AUTOATTR0
 70
     0
 74
     1
  0
SEQEND
  5
D2
330
D0
100
AcDbEntity
  8
0
  6
Continuous
 62
     7
  0
HATCH
  5
D3
330
1F
100
AcDbEntity
  8
중심선
100
AcDbHatch
 10
0.0
 20
0.0
 30
0.0
210
0.0
220
0.0
230
1.0
  2
SOLID
 70
     1
 71
     0
 91
        1
 92
        0
 93
        4
 72
     1
 10
-9.405464052202888
 20
-35.8
 11
-12.85173929604017
 21
-35.8
 72
     1
 10
-12.85173929604017
 20
-35.8
 11
-14.97996915524419
 21
-38.33632558057257
 72
     1
 10
-14.97996915524419
 20
-38.33632558057257
 11
-11.53366082629376
 21
-38.33628615127008
 72
     1
 10
-11.53366082629376
 20
-38.33628615127008
 11
-9.405464052202888
 21
-35.8
 97
        0
 75
     0
 76
     1
 98
        1
 10
5.557584247033699
 20
-0.0010749287238938
  0
HATCH
  5
D4
330
1F
100
AcDbEntity
  8
중심선
100
AcDbHatch
 10
0.0
 20
0.0
 30
0.0
210
0.0
220
0.0
230
1.0
  2
SOLID
 70
     1
 71
     0
 91
        1
 92
        0
 93
        4
 72
     1
 10
-4.392700061166909
 20
-35.80000000000003
 11
-7.83897530500419
 21
-35.79999999999998
 72
     1
 10
-7.83897530500419
 20
-35.79999999999998
 11
-12.37011331336161
 21
-41.20000000000002
 72
     1
 10
-12.37011331336161
 20
-41.20000000000002
 11
-8.923838069524326
 21
-41.20000000000002
 72
     1
 10
-8.923838069524326
 20
-41.20000000000002
 11
-4.392700061166909
 21
-35.80000000000003
 97
        0
 75
     0
 76
     1
 98
        1
 10
5.557584247033699
 20
-0.0010749287238938
  0
HATCH
  5
D5
330
1F
100
AcDbEntity
  8
중심선
100
AcDbHatch
 10
0.0
 20
0.0
 30
0.0
210
0.0
220
0.0
230
1.0
  2
SOLID
 70
     1
 71
     0
 91
        1
 92
        0
 93
        4
 72
     1
 10
0.6200639298689588
 20
-35.8
 11
-2.826211313968129
 21
-35.8
 72
     1
 10
-2.826211313968129
 20
-35.8
 11
-9.874648215857405
 21
-44.20000000000002
 72
     1
 10
-9.874648215857405
 20
-44.20000000000002
 11
-6.428372972020124
 21
-44.20000000000002
 72
     1
 10
-6.428372972020124
 20
-44.20000000000002
 11
0.6200639298689588
 21
-35.8
 97
        0
 75
     0
 76
     1
 98
        1
 10
5.557584247033699
 20
-0.0010749287238938
  0
HATCH
  5
D6
330
1F
100
AcDbEntity
  8
중심선
100
AcDbHatch
 10
0.0
 20
0.0
 30
0.0
210
0.0
220
0.0
230
1.0
  2
SOLID
 70
     1
 71
     0
 91
        1
 92
        0
 93
        6
 72
     3
 10
5.419954360881158
 20
-40.00000000005127
 11
3.960054785062283
 21
1.540882976769353E-10
 40
0.3939339440162628
 50
17.09539180608437
 51
320.0019657685075
 73
     0
 72
     1
 10
7.102954016581753
 20
-38.58789400463827
 11
9.408255890282819
 21
-36.65356729459035
 72
     3
 10
5.419954360828312
 20
-40.00000000000015
 11
6.600054785286829
 21
-1.278976924368180E-13
 40
0.636358354079598
 50
39.99873849337413
 51
368.4976242363725
 73
     1
 72
     1
 10
11.84528685272892
 20
-39.03999999993002
 11
4.100021667664235
 21
-39.03999999993002
 72
     1
 10
4.100021667664234
 20
-39.03999999993002
 11
4.0999966232183
 21
-40.95999999992991
 72
     1
 10
4.0999966232183
 20
-40.95999999992991
 11
8.541376392690337
 21
-40.95999999992988
 97
        0
 75
     0
 76
     1
 98
        1
 10
5.557584247033699
 20
-0.0010749287238938
  0
DIMENSION
  5
D7
330
1F
100
AcDbEntity
  8
치수문자_일반주서
100
AcDbDimension
  2
_D
 10
-45.55010042445852
 20
-3.175000000000062
 30
0.0
 11
-45.55010042445853
 21
0.0000000000000107
 31
0.0
 70
   160
  1
%%c<>
 71
     2
 42
6.350000000000023
 52
-270.0
  3
SLDDIMSTYLE0
100
AcDbAlignedDimension
 13
-32.12010042445854
 23
3.17500000000001
 33
0.0
 14
-32.12010042445854
 24
-3.175000000000012
 34
0.0
 50
90.0000000000002
100
AcDbRotatedDimension
1001
ACAD
1000
DSTYLE
1002
{
1070
   171
1070
     6
1070
   273
1070
     7
1002
}
  0
DIMENSION
  5
EC
330
1F
100
AcDbEntity
  8
치수문자_일반주서
100
AcDbDimension
  2
_D_1
 10
48.44447422706598
 20
-3.17499999999993
 30
0.0
 11
48.4444742270659
 21
22.46650000000007
 31
0.0
 70
   160
  1
%%c<>
 71
     2
 42
6.35
 52
-270.0
  3
SLDDIMSTYLE0
100
AcDbAlignedDimension
 13
30.56989957554147
 23
3.175000000000003
 33
0.0
 14
30.56989957554147
 24
-3.174999999999996
 34
0.0
 50
90.0000000000002
100
AcDbRotatedDimension
1001
ACAD
1000
DSTYLE
1002
{
1070
   171
1070
     6
1070
   273
1070
     7
1002
}
  0
DIMENSION
  5
100
330
1F
100
AcDbEntity
  8
치수문자_일반주서
100
AcDbDimension
  2
_D_2
 10
11.51989957554147
 20
25.25437499999999
 30
0.0
 11
-7.552850424458533
 21
25.25437499999999
 31
0.0
 70
   160
  1
<>
 71
     2
 42
19.05000000000001
  3
SLDDIMSTYLE0
100
AcDbAlignedDimension
 13
30.56989957554147
 23
3.175000000000006
 33
0.0
 14
11.51989957554147
 24
2.128205964211356
 34
0.0
100
AcDbRotatedDimension
1001
ACAD
1000
DSTYLE
1002
{
1070
   171
1070
     6
1070
   273
1070
     7
1002
}
  0
DIMENSION
  5
115
330
1F
100
AcDbEntity
  8
치수문자_일반주서
100
AcDbDimension
  2
_D_3
 10
-32.93010042445854
 20
40.07842844013392
 30
0.0
 11
-1.180100424458532
 21
40.07842844013392
 31
0.0
 70
   160
  1
<>
 71
     2
 42
63.5
  3
SLDDIMSTYLE0
100
AcDbAlignedDimension
 13
30.56989957554147
 23
3.175000000000006
 33
0.0
 14
-32.93010042445853
 24
2.364999999999994
 34
0.0
100
AcDbRotatedDimension
1001
ACAD
1000
DSTYLE
1002
{
1070
   171
1070
     6
1070
   273
1070
     7
1002
}
  0
LINE
  5
129
330
1F
100
AcDbEntity
  8
참조1
100
AcDbLine
 10
82.42838331323583
 20
7.441074928723896
 30
0.0
 11
82.42838331323583
 21
-7.438925071276109
 31
0.0
  0
LINE
  5
12A
330
1F
100
AcDbEntity
  8
참조1
100
AcDbLine
 10
95.12838331323583
 20
5.441074928723896
 30
0.0
 11
82.42838331323583
 21
5.441074928723896
 31
0.0
  0
SOLID
  5
12B
330
1F
100
AcDbEntity
  8
참조1
100
AcDbTrace
 10
82.42838331323583
 20
5.441074928723896
 30
0.0
 11
88.77838331323582
 21
4.425074928723896
 31
0.0
 12
88.77838331323582
 22
6.457074928723896
 32
0.0
 13
88.77838331323582
 23
6.457074928723896
 33
0.0
  0
LINE
  5
12C
330
1F
100
AcDbEntity
  8
참조1
100
AcDbLine
 10
95.12838331323583
 20
-5.438925071276109
 30
0.0
 11
82.42838331323583
 21
-5.438925071276109
 31
0.0
  0
SOLID
  5
12D
330
1F
100
AcDbEntity
  8
참조1
100
AcDbTrace
 10
82.42838331323583
 20
-5.438925071276109
 30
0.0
 11
88.77838331323582
 21
-6.454925071276109
 31
0.0
 12
88.77838331323582
 22
-4.422925071276109
 32
0.0
 13
88.77838331323582
 23
-4.422925071276109
 33
0.0
  0
MTEXT
  5
12E
330
1F
100
AcDbEntity
  8
참조1
100
AcDbMText
 10
91.82587340570609
 20
10.98929157337383
 30
0.0
 40
3.5
 41
0.0
 71
     1
 72
     1
  1
A
  7
SLDTEXTSTYLE0
 73
     1
 44
1.0
  0
MTEXT
  5
12F
330
1F
100
AcDbEntity
  8
참조1
100
AcDbMText
 10
91.82587340570609
 20
0.1092915733738259
 30
0.0
 40
3.5
 41
0.0
 71
     1
 72
     1
  1
A
  7
SLDTEXTSTYLE0
 73
     1
 44
1.0
  0
INSERT
  5
136
330
1F
100
AcDbEntity
  8
해칭선
100
AcDbBlockReference
  2
SW_DOWELSYMBOL_0
 10
0.0
 20
0.0
 30
0.0
  0
ENDSEC
  0
SECTION
  2
OBJECTS
  0
DICTIONARY
  5
C
330
0
100
AcDbDictionary
281
     1
  3
ACAD_GROUP
350
D
  3
ACAD_IMAGE_VARS
350
15A
  3
ACAD_LAYOUT
350
1A
  3
ACAD_MLINESTYLE
350
17
  3
ACAD_PLOTSETTINGS
350
19
  3
ACAD_PLOTSTYLENAME
350
E
  3
ACAD_SCALELIST
350
47
  3
APPDATA
350
158
  3
DWGPROPS
350
18F
  0
DICTIONARY
  5
181
330
2
100
AcDbDictionary
280
     1
281
     1
  3
ACAD_LAYERSTATES
360
182
  0
DICTIONARY
  5
D
102
{ACAD_REACTORS
330
C
102
}
330
C
100
AcDbDictionary
281
     1
  0
RASTERVARIABLES
  5
15A
102
{ACAD_REACTORS
330
C
102
}
330
C
100
AcDbRasterVariables
 90
        0
 70
     1
 71
     1
 72
     1
  0
DICTIONARY
  5
1A
102
{ACAD_REACTORS
330
C
102
}
330
C
100
AcDbDictionary
281
     1
  3
Layout1
350
1E
  3
Layout2
350
26
  3
Model
350
22
  0
DICTIONARY
  5
17
102
{ACAD_REACTORS
330
C
102
}
330
C
100
AcDbDictionary
281
     1
  3
Standard
350
18
  0
DICTIONARY
  5
19
102
{ACAD_REACTORS
330
C
102
}
330
C
100
AcDbDictionary
281
     1
  0
ACDBDICTIONARYWDFLT
  5
E
102
{ACAD_REACTORS
330
C
102
}
330
C
100
AcDbDictionary
281
     1
  3
Normal
350
F
100
AcDbDictionaryWithDefault
340
F
  0
DICTIONARY
  5
47
102
{ACAD_REACTORS
330
C
102
}
330
C
100
AcDbDictionary
281
     1
  3
A0
350
48
  3
A1
350
49
  3
A2
350
4A
  3
A3
350
4B
  3
A4
350
4C
  3
A5
350
4D
  3
A6
350
4E
  3
A7
350
4F
  3
A8
350
50
  3
A9
350
51
  3
B0
350
52
  3
B1
350
53
  3
B2
350
54
  3
B3
350
55
  3
B4
350
56
  3
B5
350
57
  3
B6
350
58
  3
B7
350
59
  3
B8
350
5A
  3
B9
350
5B
  3
C0
350
5C
  3
C1
350
5D
  3
C2
350
5E
  3
C3
350
5F
  3
C4
350
60
  3
C5
350
61
  3
C6
350
62
  3
C7
350
63
  3
C8
350
64
  3
C9
350
65
  3
D0
350
66
  3
D1
350
67
  3
D2
350
68
  0
DICTIONARY
  5
158
102
{ACAD_REACTORS
330
C
102
}
330
C
100
AcDbDictionary
281
     1
  0
XRECORD
  5
18F
102
{ACAD_REACTORS
330
C
102
}
330
C
100
AcDbXrecord
280
     1
  1
DWGPROPS COOKIE
  2

  3

  4

  6

  7

  8
12017012
  9

300
=
301
=
302
=
303
=
304
=
305
=
306
=
307
=
308
=
309
=
 40
0.0
 41
2458288.369942349
 42
2458294.315788125
  1

 90
        0
  0
DICTIONARY
  5
182
102
{ACAD_REACTORS
330
181
102
}
330
181
100
AcDbDictionary
281
     1
  0
LAYOUT
  5
1E
102
{ACAD_REACTORS
330
1A
102
}
330
1A
100
AcDbPlotSettings
  1

  2
none_device
  4

  6

 40
0.0
 41
0.0
 42
0.0
 43
0.0
 44
0.0
 45
0.0
 46
0.0
 47
0.0
 48
0.0
 49
0.0
140
0.0
141
0.0
142
1.0
143
1.0
 70
   688
 72
     1
 73
     0
 74
     5
  7

 75
    16
147
1.0
148
0.0
149
0.0
100
AcDbLayout
  1
Layout1
 70
     1
 71
     1
 10
0.0
 20
0.0
 11
420.0
 21
297.0
 12
0.0
 22
0.0
 32
0.0
 14
1.000000000000000E+20
 24
1.000000000000000E+20
 34
1.000000000000000E+20
 15
-1.000000000000000E+20
 25
-1.000000000000000E+20
 35
-1.000000000000000E+20
146
0.0
 13
0.0
 23
0.0
 33
0.0
 16
1.0
 26
0.0
 36
0.0
 17
0.0
 27
1.0
 37
0.0
 76
     0
330
1B
  0
LAYOUT
  5
26
102
{ACAD_REACTORS
330
1A
102
}
330
1A
100
AcDbPlotSettings
  1

  2
none_device
  4

  6

 40
0.0
 41
0.0
 42
0.0
 43
0.0
 44
0.0
 45
0.0
 46
0.0
 47
0.0
 48
0.0
 49
0.0
140
0.0
141
0.0
142
1.0
143
1.0
 70
   688
 72
     1
 73
     0
 74
     5
  7

 75
    16
147
1.0
148
0.0
149
0.0
100
AcDbLayout
  1
Layout2
 70
     1
 71
     2
 10
0.0
 20
0.0
 11
0.0
 21
0.0
 12
0.0
 22
0.0
 32
0.0
 14
0.0
 24
0.0
 34
0.0
 15
0.0
 25
0.0
 35
0.0
146
0.0
 13
0.0
 23
0.0
 33
0.0
 16
1.0
 26
0.0
 36
0.0
 17
0.0
 27
1.0
 37
0.0
 76
     0
330
23
  0
LAYOUT
  5
22
102
{ACAD_REACTORS
330
1A
102
}
330
1A
100
AcDbPlotSettings
  1

  2
none_device
  4
ANSI_A_(11.00_x_8.50_Inches)
  6

 40
6.35
 41
19.05
 42
6.35000508
 43
19.05000254
 44
279.4
 45
215.9
 46
104.0846500636617
 47
86.43276660156326
 48
0.0
 49
0.0
140
0.0
141
0.0
142
0.0693502696206758
143
1.0
 70
  1696
 72
     0
 73
     0
 74
     0
  7

 75
     0
147
0.0235690232323232
148
0.0
149
0.0
100
AcDbLayout
  1
Model
 70
     1
 71
     0
 10
0.0
 20
0.0
 11
420.0
 21
297.0
 12
0.0
 22
0.0
 32
0.0
 14
1.000000000000000E+20
 24
1.000000000000000E+20
 34
1.000000000000000E+20
 15
-1.000000000000000E+20
 25
-1.000000000000000E+20
 35
-1.000000000000000E+20
146
0.0
 13
0.0
 23
0.0
 33
0.0
 16
1.0
 26
0.0
 36
0.0
 17
0.0
 27
1.0
 37
0.0
 76
     0
330
1F
331
29
  0
MLINESTYLE
  5
18
102
{ACAD_REACTORS
330
17
102
}
330
17
100
AcDbMlineStyle
  2
Standard
 70
     0
  3

 62
   256
 51
90.0
 52
90.0
 71
     2
 49
0.5
 62
   256
  6
BYLAYER
 49
-0.5
 62
   256
  6
BYLAYER
  0
ACDBPLACEHOLDER
  5
F
102
{ACAD_REACTORS
330
E
102
}
330
E
  0
SCALE
  5
48
102
{ACAD_REACTORS
330
47
102
}
330
47
100
AcDbScale
 70
     0
300
1:1
140
1.0
141
1.0
290
     1
  0
SCALE
  5
49
102
{ACAD_REACTORS
330
47
102
}
330
47
100
AcDbScale
 70
     0
300
1:2
140
1.0
141
2.0
290
     0
  0
SCALE
  5
4A
102
{ACAD_REACTORS
330
47
102
}
330
47
100
AcDbScale
 70
     0
300
1:4
140
1.0
141
4.0
290
     0
  0
SCALE
  5
4B
102
{ACAD_REACTORS
330
47
102
}
330
47
100
AcDbScale
 70
     0
300
1:5
140
1.0
141
5.0
290
     0
  0
SCALE
  5
4C
102
{ACAD_REACTORS
330
47
102
}
330
47
100
AcDbScale
 70
     0
300
1:8
140
1.0
141
8.0
290
     0
  0
SCALE
  5
4D
102
{ACAD_REACTORS
330
47
102
}
330
47
100
AcDbScale
 70
     0
300
1:10
140
1.0
141
10.0
290
     0
  0
SCALE
  5
4E
102
{ACAD_REACTORS
330
47
102
}
330
47
100
AcDbScale
 70
     0
300
1:16
140
1.0
141
16.0
290
     0
  0
SCALE
  5
4F
102
{ACAD_REACTORS
330
47
102
}
330
47
100
AcDbScale
 70
     0
300
1:20
140
1.0
141
20.0
290
     0
  0
SCALE
  5
50
102
{ACAD_REACTORS
330
47
102
}
330
47
100
AcDbScale
 70
     0
300
1:30
140
1.0
141
30.0
290
     0
  0
SCALE
  5
51
102
{ACAD_REACTORS
330
47
102
}
330
47
100
AcDbScale
 70
     0
300
1:40
140
1.0
141
40.0
290
     0
  0
SCALE
  5
52
102
{ACAD_REACTORS
330
47
102
}
330
47
100
AcDbScale
 70
     0
300
1:50
140
1.0
141
50.0
290
     0
  0
SCALE
  5
53
102
{ACAD_REACTORS
330
47
102
}
330
47
100
AcDbScale
 70
     0
300
1:100
140
1.0
141
100.0
290
     0
  0
SCALE
  5
54
102
{ACAD_REACTORS
330
47
102
}
330
47
100
AcDbScale
 70
     0
300
2:1
140
2.0
141
1.0
290
     0
  0
SCALE
  5
55
102
{ACAD_REACTORS
330
47
102
}
330
47
100
AcDbScale
 70
     0
300
4:1
140
4.0
141
1.0
290
     0
  0
SCALE
  5
56
102
{ACAD_REACTORS
330
47
102
}
330
47
100
AcDbScale
 70
     0
300
8:1
140
8.0
141
1.0
290
     0
  0
SCALE
  5
57
102
{ACAD_REACTORS
330
47
102
}
330
47
100
AcDbScale
 70
     0
300
10:1
140
10.0
141
1.0
290
     0
  0
SCALE
  5
58
102
{ACAD_REACTORS
330
47
102
}
330
47
100
AcDbScale
 70
     0
300
100:1
140
100.0
141
1.0
290
     0
  0
SCALE
  5
59
102
{ACAD_REACTORS
330
47
102
}
330
47
100
AcDbScale
 70
     0
300
1/128" = 1'-0"
140
0.0078125
141
12.0
290
     0
  0
SCALE
  5
5A
102
{ACAD_REACTORS
330
47
102
}
330
47
100
AcDbScale
 70
     0
300
1/64" = 1'-0"
140
0.015625
141
12.0
290
     0
  0
SCALE
  5
5B
102
{ACAD_REACTORS
330
47
102
}
330
47
100
AcDbScale
 70
     0
300
1/32" = 1'-0"
140
0.03125
141
12.0
290
     0
  0
SCALE
  5
5C
102
{ACAD_REACTORS
330
47
102
}
330
47
100
AcDbScale
 70
     0
300
1/16" = 1'-0"
140
0.0625
141
12.0
290
     0
  0
SCALE
  5
5D
102
{ACAD_REACTORS
330
47
102
}
330
47
100
AcDbScale
 70
     0
300
3/32" = 1'-0"
140
0.09375
141
12.0
290
     0
  0
SCALE
  5
5E
102
{ACAD_REACTORS
330
47
102
}
330
47
100
AcDbScale
 70
     0
300
1/8" = 1'-0"
140
0.125
141
12.0
290
     0
  0
SCALE
  5
5F
102
{ACAD_REACTORS
330
47
102
}
330
47
100
AcDbScale
 70
     0
300
3/16" = 1'-0"
140
0.1875
141
12.0
290
     0
  0
SCALE
  5
60
102
{ACAD_REACTORS
330
47
102
}
330
47
100
AcDbScale
 70
     0
300
1/4" = 1'-0"
140
0.25
141
12.0
290
     0
  0
SCALE
  5
61
102
{ACAD_REACTORS
330
47
102
}
330
47
100
AcDbScale
 70
     0
300
3/8" = 1'-0"
140
0.375
141
12.0
290
     0
  0
SCALE
  5
62
102
{ACAD_REACTORS
330
47
102
}
330
47
100
AcDbScale
 70
     0
300
1/2" = 1'-0"
140
0.5
141
12.0
290
     0
  0
SCALE
  5
63
102
{ACAD_REACTORS
330
47
102
}
330
47
100
AcDbScale
 70
     0
300
3/4" = 1'-0"
140
0.75
141
12.0
290
     0
  0
SCALE
  5
64
102
{ACAD_REACTORS
330
47
102
}
330
47
100
AcDbScale
 70
     0
300
1" = 1'-0"
140
1.0
141
12.0
290
     0
  0
SCALE
  5
65
102
{ACAD_REACTORS
330
47
102
}
330
47
100
AcDbScale
 70
     0
300
1-1/2" = 1'-0"
140
1.5
141
12.0
290
     0
  0
SCALE
  5
66
102
{ACAD_REACTORS
330
47
102
}
330
47
100
AcDbScale
 70
     0
300
3" = 1'-0"
140
3.0
141
12.0
290
     0
  0
SCALE
  5
67
102
{ACAD_REACTORS
330
47
102
}
330
47
100
AcDbScale
 70
     0
300
6" = 1'-0"
140
6.0
141
12.0
290
     0
  0
SCALE
  5
68
102
{ACAD_REACTORS
330
47
102
}
330
47
100
AcDbScale
 70
     0
300
1'-0" = 1'-0"
140
12.0
141
12.0
290
     0
  0
ENDSEC
  0
EOF
