  0
SECTION
  2
HEADER
  9
$ACADVER
  1
AC1015
  9
$ACADMAINTVER
 70
     6
  9
$DWGCODEPAGE
  3
ANSI_949
  9
$INSBASE
 10
0.0
 20
0.0
 30
0.0
  9
$EXTMIN
 10
1.000000000000000E+20
 20
1.000000000000000E+20
 30
1.000000000000000E+20
  9
$EXTMAX
 10
-1.000000000000000E+20
 20
-1.000000000000000E+20
 30
-1.000000000000000E+20
  9
$LIMMIN
 10
0.0
 20
0.0
  9
$LIMMAX
 10
420.0
 20
297.0
  9
$ORTHOMODE
 70
     1
  9
$REGENMODE
 70
     1
  9
$FILLMODE
 70
     1
  9
$QTEXTMODE
 70
     0
  9
$MIRRTEXT
 70
     1
  9
$LTSCALE
 40
1.0
  9
$ATTMODE
 70
     1
  9
$TEXTSIZE
 40
3.5
  9
$TRACEWID
 40
1.0
  9
$TEXTSTYLE
  7
Standard
  9
$CLAYER
  8
0
  9
$CELTYPE
  6
ByLayer
  9
$CECOLOR
 62
   256
  9
$CELTSCALE
 40
1.0
  9
$DISPSILH
 70
     0
  9
$DIMSCALE
 40
1.0
  9
$DIMASZ
 40
3.302
  9
$DIMEXO
 40
1.0
  9
$DIMDLI
 40
3.75
  9
$DIMRND
 40
0.0
  9
$DIMDLE
 40
0.0
  9
$DIMEXE
 40
1.0
  9
$DIMTP
 40
0.0
  9
$DIMTM
 40
0.0
  9
$DIMTXT
 40
3.5
  9
$DIMCEN
 40
2.5
  9
$DIMTSZ
 40
0.0
  9
$DIMTOL
 70
     0
  9
$DIMLIM
 70
     0
  9
$DIMTIH
 70
     1
  9
$DIMTOH
 70
     1
  9
$DIMSE1
 70
     0
  9
$DIMSE2
 70
     0
  9
$DIMTAD
 70
     1
  9
$DIMZIN
 70
     0
  9
$DIMBLK
  1

  9
$DIMASO
 70
     1
  9
$DIMSHO
 70
     1
  9
$DIMPOST
  1

  9
$DIMAPOST
  1

  9
$DIMALT
 70
     0
  9
$DIMALTD
 70
     3
  9
$DIMALTF
 40
0.0393700787401575
  9
$DIMLFAC
 40
1.0
  9
$DIMTOFL
 70
     1
  9
$DIMTVP
 40
0.0
  9
$DIMTIX
 70
     0
  9
$DIMSOXD
 70
     0
  9
$DIMSAH
 70
     0
  9
$DIMBLK1
  1

  9
$DIMBLK2
  1

  9
$DIMSTYLE
  2
ISO-25
  9
$DIMCLRD
 70
     0
  9
$DIMCLRE
 70
     0
  9
$DIMCLRT
 70
     0
  9
$DIMTFAC
 40
1.0
  9
$DIMGAP
 40
1.524
  9
$DIMJUST
 70
     0
  9
$DIMSD1
 70
     0
  9
$DIMSD2
 70
     0
  9
$DIMTOLJ
 70
     0
  9
$DIMTZIN
 70
     0
  9
$DIMALTZ
 70
     0
  9
$DIMALTTZ
 70
     0
  9
$DIMUPT
 70
     0
  9
$DIMDEC
 70
     2
  9
$DIMTDEC
 70
     2
  9
$DIMALTU
 70
     2
  9
$DIMALTTD
 70
     3
  9
$DIMTXSTY
  7
Standard
  9
$DIMAUNIT
 70
     0
  9
$DIMADEC
 70
     2
  9
$DIMALTRND
 40
0.0
  9
$DIMAZIN
 70
     0
  9
$DIMDSEP
 70
    44
  9
$DIMATFIT
 70
     3
  9
$DIMFRAC
 70
     0
  9
$DIMLDRBLK
  1

  9
$DIMLUNIT
 70
     2
  9
$DIMLWD
 70
    -2
  9
$DIMLWE
 70
    -2
  9
$DIMTMOVE
 70
     0
  9
$LUNITS
 70
     2
  9
$LUPREC
 70
     2
  9
$SKETCHINC
 40
1.0
  9
$FILLETRAD
 40
10.0
  9
$AUNITS
 70
     0
  9
$AUPREC
 70
     2
  9
$MENU
  1
.
  9
$ELEVATION
 40
0.0
  9
$PELEVATION
 40
0.0
  9
$THICKNESS
 40
0.0
  9
$LIMCHECK
 70
     0
  9
$CHAMFERA
 40
0.0
  9
$CHAMFERB
 40
0.0
  9
$CHAMFERC
 40
0.0
  9
$CHAMFERD
 40
0.0
  9
$SKPOLY
 70
     0
  9
$TDCREATE
 40
2458288.746644097
  9
$TDUCREATE
 40
2458288.371644097
  9
$TDUPDATE
 40
2458294.701925926
  9
$TDUUPDATE
 40
2458294.326925926
  9
$TDINDWG
 40
0.0013052894
  9
$TDUSRTIMER
 40
2458294.325621238
  9
$USRTIMER
 70
     1
  9
$ANGBASE
 50
0.0
  9
$ANGDIR
 70
     0
  9
$PDMODE
 70
     0
  9
$PDSIZE
 40
-1.0
  9
$PLINEWID
 40
0.0
  9
$SPLFRAME
 70
     0
  9
$SPLINETYPE
 70
     6
  9
$SPLINESEGS
 70
     8
  9
$HANDSEED
  5
18B
  9
$SURFTAB1
 70
     6
  9
$SURFTAB2
 70
     6
  9
$SURFTYPE
 70
     6
  9
$SURFU
 70
     6
  9
$SURFV
 70
     6
  9
$UCSBASE
  2

  9
$UCSNAME
  2

  9
$UCSORG
 10
0.0
 20
0.0
 30
0.0
  9
$UCSXDIR
 10
1.0
 20
0.0
 30
0.0
  9
$UCSYDIR
 10
0.0
 20
1.0
 30
0.0
  9
$UCSORTHOREF
  2

  9
$UCSORTHOVIEW
 70
     0
  9
$UCSORGTOP
 10
0.0
 20
0.0
 30
0.0
  9
$UCSORGBOTTOM
 10
0.0
 20
0.0
 30
0.0
  9
$UCSORGLEFT
 10
0.0
 20
0.0
 30
0.0
  9
$UCSORGRIGHT
 10
0.0
 20
0.0
 30
0.0
  9
$UCSORGFRONT
 10
0.0
 20
0.0
 30
0.0
  9
$UCSORGBACK
 10
0.0
 20
0.0
 30
0.0
  9
$PUCSBASE
  2

  9
$PUCSNAME
  2

  9
$PUCSORG
 10
0.0
 20
0.0
 30
0.0
  9
$PUCSXDIR
 10
1.0
 20
0.0
 30
0.0
  9
$PUCSYDIR
 10
0.0
 20
1.0
 30
0.0
  9
$PUCSORTHOREF
  2

  9
$PUCSORTHOVIEW
 70
     0
  9
$PUCSORGTOP
 10
0.0
 20
0.0
 30
0.0
  9
$PUCSORGBOTTOM
 10
0.0
 20
0.0
 30
0.0
  9
$PUCSORGLEFT
 10
0.0
 20
0.0
 30
0.0
  9
$PUCSORGRIGHT
 10
0.0
 20
0.0
 30
0.0
  9
$PUCSORGFRONT
 10
0.0
 20
0.0
 30
0.0
  9
$PUCSORGBACK
 10
0.0
 20
0.0
 30
0.0
  9
$USERI1
 70
     0
  9
$USERI2
 70
     0
  9
$USERI3
 70
     0
  9
$USERI4
 70
     0
  9
$USERI5
 70
     0
  9
$USERR1
 40
0.0
  9
$USERR2
 40
0.0
  9
$USERR3
 40
0.0
  9
$USERR4
 40
0.0
  9
$USERR5
 40
0.0
  9
$WORLDVIEW
 70
     1
  9
$SHADEDGE
 70
     3
  9
$SHADEDIF
 70
    70
  9
$TILEMODE
 70
     1
  9
$MAXACTVP
 70
    64
  9
$PINSBASE
 10
0.0
 20
0.0
 30
0.0
  9
$PLIMCHECK
 70
     0
  9
$PEXTMIN
 10
1.000000000000000E+20
 20
1.000000000000000E+20
 30
1.000000000000000E+20
  9
$PEXTMAX
 10
-1.000000000000000E+20
 20
-1.000000000000000E+20
 30
-1.000000000000000E+20
  9
$PLIMMIN
 10
0.0
 20
0.0
  9
$PLIMMAX
 10
0.0
 20
0.0
  9
$UNITMODE
 70
     0
  9
$VISRETAIN
 70
     1
  9
$PLINEGEN
 70
     0
  9
$PSLTSCALE
 70
     1
  9
$TREEDEPTH
 70
  3020
  9
$CMLSTYLE
  2
Standard
  9
$CMLJUST
 70
     0
  9
$CMLSCALE
 40
20.0
  9
$PROXYGRAPHICS
 70
     1
  9
$MEASUREMENT
 70
     1
  9
$CELWEIGHT
370
    -1
  9
$ENDCAPS
280
     0
  9
$JOINSTYLE
280
     0
  9
$LWDISPLAY
290
     1
  9
$INSUNITS
 70
     4
  9
$HYPERLINKBASE
  1

  9
$STYLESHEET
  1

  9
$XEDIT
290
     1
  9
$CEPSNTYPE
380
     0
  9
$PSTYLEMODE
290
     1
  9
$FINGERPRINTGUID
  2
{4105FF67-142A-461E-B4B7-2A5C35CE2064}
  9
$VERSIONGUID
  2
{FAEB1C32-E019-11D5-929B-00C0DF256EC4}
  9
$EXTNAMES
290
     1
  9
$PSVPSCALE
 40
0.0
  9
$OLESTARTUP
290
     0
  0
ENDSEC
  0
SECTION
  2
CLASSES
  0
CLASS
  1
ACDBDICTIONARYWDFLT
  2
AcDbDictionaryWithDefault
  3
ObjectDBX Classes
 90
        0
280
     0
281
     0
  0
CLASS
  1
VISUALSTYLE
  2
AcDbVisualStyle
  3
ObjectDBX Classes
 90
     4095
280
     0
281
     0
  0
CLASS
  1
MATERIAL
  2
AcDbMaterial
  3
ObjectDBX Classes
 90
     1153
280
     0
281
     0
  0
CLASS
  1
SCALE
  2
AcDbScale
  3
ObjectDBX Classes
 90
     1153
280
     0
281
     0
  0
CLASS
  1
SUN
  2
AcDbSun
  3
SCENEOE
 90
     1153
280
     0
281
     0
  0
CLASS
  1
ACDBPLACEHOLDER
  2
AcDbPlaceHolder
  3
ObjectDBX Classes
 90
        0
280
     0
281
     0
  0
CLASS
  1
LAYOUT
  2
AcDbLayout
  3
ObjectDBX Classes
 90
        0
280
     0
281
     0
  0
CLASS
  1
TABLESTYLE
  2
AcDbTableStyle
  3
ObjectDBX Classes
 90
     4095
280
     0
281
     0
  0
CLASS
  1
MLEADERSTYLE
  2
AcDbMLeaderStyle
  3
ACDB_MLEADERSTYLE_CLASS
 90
     4095
280
     0
281
     0
  0
CLASS
  1
RASTERVARIABLES
  2
AcDbRasterVariables
  3
ISM
 90
        0
280
     0
281
     0
  0
ENDSEC
  0
SECTION
  2
TABLES
  0
TABLE
  2
VPORT
  5
8
330
0
100
AcDbSymbolTable
 70
     1
  0
VPORT
  5
29
330
8
100
AcDbSymbolTableRecord
100
AcDbViewportTableRecord
  2
*Active
 70
     0
 10
0.0
 20
0.0
 11
1.0
 21
1.0
 12
-2.378609120187722
 22
-35.06900785417657
 13
0.0
 23
0.0
 14
10.0
 24
10.0
 15
10.0
 25
10.0
 16
0.0
 26
0.0
 36
1.0
 17
0.0
 27
0.0
 37
0.0
 40
228.5522044453913
 41
1.915322580645161
 42
50.0
 43
0.0
 44
0.0
 50
0.0
 51
0.0
 71
    16
 72
  2000
 73
     1
 74
     3
 75
     0
 76
     0
 77
     0
 78
     0
281
     0
 65
     1
110
0.0
120
0.0
130
0.0
111
1.0
121
0.0
131
0.0
112
0.0
122
1.0
132
0.0
 79
     0
146
0.0
  0
ENDTAB
  0
TABLE
  2
LTYPE
  5
5
330
0
100
AcDbSymbolTable
 70
     6
  0
LTYPE
  5
14
330
5
100
AcDbSymbolTableRecord
100
AcDbLinetypeTableRecord
  2
ByBlock
 70
     0
  3

 72
    65
 73
     0
 40
0.0
  0
LTYPE
  5
15
330
5
100
AcDbSymbolTableRecord
100
AcDbLinetypeTableRecord
  2
ByLayer
 70
     0
  3

 72
    65
 73
     0
 40
0.0
  0
LTYPE
  5
16
330
5
100
AcDbSymbolTableRecord
100
AcDbLinetypeTableRecord
  2
Continuous
 70
     0
  3
Solid line
 72
    65
 73
     0
 40
0.0
  0
LTYPE
  5
6A
330
5
100
AcDbSymbolTableRecord
100
AcDbLinetypeTableRecord
  2
HIDDEN
 70
     0
  3
Hidden __ __ __ __ __ __ __ __ __ __ __ __ __ __
 72
    65
 73
     2
 40
1.905
 49
1.27
 74
     0
 49
-0.635
 74
     0
  0
LTYPE
  5
6B
330
5
100
AcDbSymbolTableRecord
100
AcDbLinetypeTableRecord
  2
PHANTOM
 70
     0
  3
Phantom ______  __  __  ______  __  __  ______
 72
    65
 73
     6
 40
12.7
 49
6.35
 74
     0
 49
-1.27
 74
     0
 49
1.27
 74
     0
 49
-1.27
 74
     0
 49
1.27
 74
     0
 49
-1.27
 74
     0
  0
LTYPE
  5
6C
330
5
100
AcDbSymbolTableRecord
100
AcDbLinetypeTableRecord
  2
CENTER
 70
     0
  3
Center ____ _ ____ _ ____ _ ____ _ ____ _ ____
 72
    65
 73
     4
 40
10.16
 49
6.35
 74
     0
 49
-1.27
 74
     0
 49
1.27
 74
     0
 49
-1.27
 74
     0
  0
LTYPE
  5
6D
330
5
100
AcDbSymbolTableRecord
100
AcDbLinetypeTableRecord
  2
CENTERX2
 70
     0
  3
Center (2x) ________  __  ________  __  _____
 72
    65
 73
     4
 40
20.32
 49
12.7
 74
     0
 49
-2.54
 74
     0
 49
2.54
 74
     0
 49
-2.54
 74
     0
  0
LTYPE
  5
6E
330
5
100
AcDbSymbolTableRecord
100
AcDbLinetypeTableRecord
  2
DOT2
 70
     0
  3
Dot (.5x) ........................................
 72
    65
 73
     2
 40
0.635
 49
0.0
 74
     0
 49
-0.635
 74
     0
  0
ENDTAB
  0
TABLE
  2
LAYER
  5
2
102
{ACAD_XDICTIONARY
360
17B
102
}
330
0
100
AcDbSymbolTable
 70
    18
  0
LAYER
  5
10
330
2
100
AcDbSymbolTableRecord
100
AcDbLayerTableRecord
  2
0
 70
     0
 62
     7
  6
Continuous
370
    -3
390
F
  0
LAYER
  5
6F
330
2
100
AcDbSymbolTableRecord
100
AcDbLayerTableRecord
  2
FORMAT
 70
     0
 62
     2
  6
Continuous
370
    -3
390
F
  0
LAYER
  5
70
330
2
100
AcDbSymbolTableRecord
100
AcDbLayerTableRecord
  2
외형선
 70
     0
 62
     4
  6
Continuous
370
    30
390
F
  0
LAYER
  5
71
330
2
100
AcDbSymbolTableRecord
100
AcDbLayerTableRecord
  2
숨은선
 70
     0
 62
     2
  6
HIDDEN
370
    15
390
F
  0
LAYER
  5
72
330
2
100
AcDbSymbolTableRecord
100
AcDbLayerTableRecord
  2
중심선
 70
     0
 62
     1
  6
CENTERX2
370
    -3
390
F
  0
LAYER
  5
73
330
2
100
AcDbSymbolTableRecord
100
AcDbLayerTableRecord
  2
파단선
 70
     0
 62
     4
  6
Continuous
370
    -3
390
F
  0
LAYER
  5
74
330
2
100
AcDbSymbolTableRecord
100
AcDbLayerTableRecord
  2
해칭선
 70
     0
 62
   100
  6
Continuous
370
    -3
390
F
  0
LAYER
  5
75
330
2
100
AcDbSymbolTableRecord
100
AcDbLayerTableRecord
  2
가는실선
 70
     0
 62
     4
  6
Continuous
370
    -3
390
F
  0
LAYER
  5
76
330
2
100
AcDbSymbolTableRecord
100
AcDbLayerTableRecord
  2
치수_보조선
 70
     0
 62
     4
  6
Continuous
370
    -3
390
F
  0
LAYER
  5
77
330
2
100
AcDbSymbolTableRecord
100
AcDbLayerTableRecord
  2
치수문자_일반주서
 70
     0
 62
     7
  6
Continuous
370
    15
390
F
  0
LAYER
  5
78
330
2
100
AcDbSymbolTableRecord
100
AcDbLayerTableRecord
  2
개별주서
 70
     0
 62
   100
  6
Continuous
370
    30
390
F
  0
LAYER
  5
79
330
2
100
AcDbSymbolTableRecord
100
AcDbLayerTableRecord
  2
중간선
 70
     0
 62
     2
  6
Continuous
370
    15
390
F
  0
LAYER
  5
7A
330
2
100
AcDbSymbolTableRecord
100
AcDbLayerTableRecord
  2
윤곽선
 70
     0
 62
     3
  6
Continuous
370
    40
390
F
  0
LAYER
  5
7B
330
2
100
AcDbSymbolTableRecord
100
AcDbLayerTableRecord
  2
중심마크
 70
     0
 62
   100
  6
Continuous
370
    30
390
F
  0
LAYER
  5
7C
330
2
100
AcDbSymbolTableRecord
100
AcDbLayerTableRecord
  2
가상선
 70
     0
 62
     4
  6
PHANTOM
370
    -3
390
F
  0
LAYER
  5
7D
330
2
100
AcDbSymbolTableRecord
100
AcDbLayerTableRecord
  2
특수지정선
 70
     0
 62
     5
  6
CENTERX2
370
    60
390
F
  0
LAYER
  5
7E
330
2
100
AcDbSymbolTableRecord
100
AcDbLayerTableRecord
  2
참조1
 70
     0
 62
    -4
  6
Continuous
370
    -3
390
F
  0
LAYER
  5
182
330
2
100
AcDbSymbolTableRecord
100
AcDbLayerTableRecord
  2
Defpoints
 70
     0
 62
     7
  6
Continuous
290
     0
370
    -3
390
F
  0
ENDTAB
  0
TABLE
  2
STYLE
  5
3
330
0
100
AcDbSymbolTable
 70
     2
  0
STYLE
  5
11
330
3
100
AcDbSymbolTableRecord
100
AcDbTextStyleTableRecord
  2
Standard
 70
     0
 40
0.0
 41
1.0
 50
0.0
 71
     0
 42
3.5
  3
txt
  4

  0
STYLE
  5
94
330
3
100
AcDbSymbolTableRecord
100
AcDbTextStyleTableRecord
  2
SLDTEXTSTYLE0
 70
     0
 40
0.0
 41
0.75
 50
0.0
 71
     0
 42
3.5
  3
TXT
  4

  0
ENDTAB
  0
TABLE
  2
VIEW
  5
6
330
0
100
AcDbSymbolTable
 70
     0
  0
ENDTAB
  0
TABLE
  2
UCS
  5
7
330
0
100
AcDbSymbolTable
 70
     0
  0
ENDTAB
  0
TABLE
  2
APPID
  5
9
330
0
100
AcDbSymbolTable
 70
     1
  0
APPID
  5
12
330
9
100
AcDbSymbolTableRecord
100
AcDbRegAppTableRecord
  2
ACAD
 70
     0
  0
ENDTAB
  0
TABLE
  2
DIMSTYLE
  5
A
330
0
100
AcDbSymbolTable
 70
     4
100
AcDbDimStyleTable
  0
DIMSTYLE
105
27
330
A
100
AcDbSymbolTableRecord
100
AcDbDimStyleTableRecord
  2
ISO-25
 70
     0
 41
2.5
 42
0.625
 43
3.75
 44
1.25
 73
     0
 74
     0
 77
     1
 78
     8
140
2.5
141
2.5
143
0.03937007874016
147
0.625
171
     3
172
     1
178
     0
271
     2
272
     2
274
     3
278
    44
283
     0
284
     8
340
11
  0
DIMSTYLE
105
D2
102
{ACAD_REACTORS
330
D1
330
E6
330
FB
330
110
102
}
330
A
100
AcDbSymbolTableRecord
100
AcDbDimStyleTableRecord
  2
SLDDIMSTYLE0
 70
     0
 41
3.302
 44
0.0
 45
0.000000001
 73
     0
 74
     0
 77
     1
 78
     4
 79
     1
140
3.5
143
0.0393700787401575
147
0.875
148
0.000000001
170
     1
172
     1
173
     1
178
     0
271
     2
272
     2
276
     2
284
    12
289
     0
340
94
  0
DIMSTYLE
105
E7
330
A
100
AcDbSymbolTableRecord
100
AcDbDimStyleTableRecord
  2
SLDDIMSTYLE1
 70
     0
 41
3.302
 44
0.0
 45
0.000000001
 73
     0
 74
     0
 77
     1
 78
    12
 79
     3
140
3.5
143
0.0393700787401575
147
0.875
148
0.000000001
170
     1
172
     1
173
     1
178
     0
271
     2
272
     2
276
     2
284
    12
289
     0
340
94
  0
DIMSTYLE
105
FC
330
A
100
AcDbSymbolTableRecord
100
AcDbDimStyleTableRecord
  2
SLDDIMSTYLE2
 70
     0
 41
3.302
 44
0.0
 45
0.000000001
 73
     0
 74
     0
 77
     1
 78
     4
 79
     1
140
3.5
143
0.0393700787401575
147
0.875
148
0.000000001
170
     1
173
     1
178
     0
271
     2
272
     2
276
     2
284
    12
340
94
  0
ENDTAB
  0
TABLE
  2
BLOCK_RECORD
  5
1
330
0
100
AcDbSymbolTable
 70
     8
  0
BLOCK_RECORD
  5
1F
330
1
100
AcDbSymbolTableRecord
100
AcDbBlockTableRecord
  2
*Model_Space
340
22
  0
BLOCK_RECORD
  5
1B
330
1
100
AcDbSymbolTableRecord
100
AcDbBlockTableRecord
  2
*Paper_Space
340
1E
  0
BLOCK_RECORD
  5
23
330
1
100
AcDbSymbolTableRecord
100
AcDbBlockTableRecord
  2
*Paper_Space0
340
26
  0
BLOCK_RECORD
  5
7F
330
1
100
AcDbSymbolTableRecord
100
AcDbBlockTableRecord
  2
블럭10
340
0
102
{BLKREFS
331
CA
102
}
  0
BLOCK_RECORD
  5
D3
330
1
100
AcDbSymbolTableRecord
100
AcDbBlockTableRecord
  2
_D
340
0
  0
BLOCK_RECORD
  5
E8
330
1
100
AcDbSymbolTableRecord
100
AcDbBlockTableRecord
  2
_D_1
340
0
  0
BLOCK_RECORD
  5
FD
330
1
100
AcDbSymbolTableRecord
100
AcDbBlockTableRecord
  2
_D_2
340
0
  0
BLOCK_RECORD
  5
111
330
1
100
AcDbSymbolTableRecord
100
AcDbBlockTableRecord
  2
_D_3
340
0
  0
BLOCK_RECORD
  5
12A
330
1
100
AcDbSymbolTableRecord
100
AcDbBlockTableRecord
  2
SW_DOWELSYMBOL_0
340
0
102
{BLKREFS
331
130
102
}
  0
ENDTAB
  0
ENDSEC
  0
SECTION
  2
BLOCKS
  0
BLOCK
  5
20
330
1F
100
AcDbEntity
  8
0
100
AcDbBlockBegin
  2
*Model_Space
 70
     0
 10
0.0
 20
0.0
 30
0.0
  3
*Model_Space
  1
*Model_Space
  0
ENDBLK
  5
21
330
1F
100
AcDbEntity
  8
0
100
AcDbBlockEnd
  0
BLOCK
  5
1C
330
1B
100
AcDbEntity
 67
     1
  8
0
100
AcDbBlockBegin
  2
*Paper_Space
 70
     0
 10
0.0
 20
0.0
 30
0.0
  3
*Paper_Space
  1
*Paper_Space
  0
ENDBLK
  5
1D
330
1B
100
AcDbEntity
 67
     1
  8
0
100
AcDbBlockEnd
  0
BLOCK
  5
24
330
23
100
AcDbEntity
  8
0
100
AcDbBlockBegin
  2
*Paper_Space0
 70
     0
 10
0.0
 20
0.0
 30
0.0
  3
*Paper_Space0
  1
*Paper_Space0
  0
ENDBLK
  5
25
330
23
100
AcDbEntity
  8
0
100
AcDbBlockEnd
  0
BLOCK
  5
80
330
7F
100
AcDbEntity
  8
0
100
AcDbBlockBegin
  2
블럭10
 70
     2
 10
0.0
 20
0.0
 30
0.0
  3
블럭10
  1
블럭10
  0
ELLIPSE
  5
82
330
7F
100
AcDbEntity
  8
중심선
100
AcDbEllipse
 10
20.54032771741204
 20
12.0471743016438
 30
0.0
 11
6.600054785286829
 21
-1.261213355974178E-13
 31
0.0
210
0.0
220
0.0
230
1.0
 40
0.636358354079598
 41
0.9219305317359503
 42
6.513795318482858
  0
ELLIPSE
  5
83
330
7F
100
AcDbEntity
  8
중심선
100
AcDbEllipse
 10
20.54032771746488
 20
12.04717430159265
 30
0.0
 11
3.960054785062283
 21
1.540847449632565E-10
 31
0.0
210
0.0
220
0.0
230
1.0
 40
0.3939339440162632
 41
1.131841032648279
 42
5.62031148352944
  0
LINE
  5
84
330
7F
100
AcDbEntity
  8
중심선
100
AcDbLine
 10
2.268634060543552
 20
16.24717430164393
 30
0.0
 11
5.714909304380834
 21
16.24717430164393
 31
0.0
  0
LINE
  5
85
330
7F
100
AcDbEntity
  8
중심선
100
AcDbLine
 10
5.245725140726316
 20
7.84717430164391
 30
0.0
 11
8.692000384563599
 21
7.84717430164391
 31
0.0
  0
LINE
  5
86
330
7F
100
AcDbEntity
  8
중심선
100
AcDbLine
 10
15.74043728645272
 20
16.24717430164393
 30
0.0
 11
8.692000384563599
 21
7.84717430164391
 31
0.0
  0
LINE
  5
87
330
7F
100
AcDbEntity
  8
중심선
100
AcDbLine
 10
0.1404042013395286
 20
13.71084872107135
 30
0.0
 11
3.58671253028996
 21
13.71088815037384
 31
0.0
  0
LINE
  5
88
330
7F
100
AcDbEntity
  8
중심선
100
AcDbLine
 10
2.750260043222114
 20
10.84717430164391
 30
0.0
 11
6.196535287059397
 21
10.84717430164391
 31
0.0
  0
LINE
  5
89
330
7F
100
AcDbEntity
  8
중심선
100
AcDbLine
 10
12.29416204261559
 20
16.24717430164393
 30
0.0
 11
5.245725140726316
 21
7.84717430164391
 31
0.0
  0
LINE
  5
8A
330
7F
100
AcDbEntity
  8
중심선
100
AcDbLine
 10
10.72767329541681
 20
16.24717430164393
 30
0.0
 11
6.196535287059397
 21
10.84717430164391
 31
0.0
  0
LINE
  5
8B
330
7F
100
AcDbEntity
  8
중심선
100
AcDbLine
 10
7.28139805157953
 20
16.24717430164393
 30
0.0
 11
2.750260043222114
 21
10.84717430164391
 31
0.0
  0
LINE
  5
8C
330
7F
100
AcDbEntity
  8
중심선
100
AcDbLine
 10
5.714909304380834
 20
16.24717430164393
 30
0.0
 11
3.58671253028996
 21
13.71088815037384
 31
0.0
  0
LINE
  5
8D
330
7F
100
AcDbEntity
  8
중심선
100
AcDbLine
 10
2.268634060543552
 20
16.24717430164393
 30
0.0
 11
0.1404042013395286
 21
13.71084872107135
 31
0.0
  0
LINE
  5
8E
330
7F
100
AcDbEntity
  8
중심선
100
AcDbLine
 10
7.28139805157953
 20
16.24717430164393
 30
0.0
 11
10.72767329541681
 21
16.24717430164393
 31
0.0
  0
LINE
  5
8F
330
7F
100
AcDbEntity
  8
중심선
100
AcDbLine
 10
12.29416204261559
 20
16.24717430164393
 30
0.0
 11
15.74043728645272
 21
16.24717430164393
 31
0.0
  0
LINE
  5
90
330
7F
100
AcDbEntity
  8
중심선
100
AcDbLine
 10
19.22036997980202
 20
11.08717430171403
 30
0.0
 11
23.66174974927406
 21
11.08717430171406
 31
0.0
  0
LINE
  5
91
330
7F
100
AcDbEntity
  8
중심선
100
AcDbLine
 10
19.22039502424796
 20
13.00717430171391
 30
0.0
 11
19.22036997980202
 21
11.08717430171403
 31
0.0
  0
LINE
  5
92
330
7F
100
AcDbEntity
  8
중심선
100
AcDbLine
 10
19.22039502424796
 20
13.00717430171391
 30
0.0
 11
26.96566020931264
 21
13.00717430171391
 31
0.0
  0
LINE
  5
93
330
7F
100
AcDbEntity
  8
중심선
100
AcDbLine
 10
22.22332737316547
 20
13.45928029700563
 30
0.0
 11
24.52862924686651
 21
15.39360700705356
 31
0.0
  0
ATTDEF
  5
95
330
7F
100
AcDbEntity
  8
FORMAT
 62
     2
100
AcDbText
 10
3.448148490846466
 20
2.075366912832191
 30
0.0
 40
4.233333333333333
  1
EM154064
 41
0.75
  7
SLDTEXTSTYLE0
 11
3.448148490846466
 21
-0.0412997538344756
 31
0.0
100
AcDbAttributeDefinition
  3

  2
AUTOATTR0
 70
     0
 74
     1
  0
ENDBLK
  5
81
330
7F
100
AcDbEntity
  8
0
100
AcDbBlockEnd
  0
BLOCK
  5
D4
330
D3
100
AcDbEntity
  8
0
100
AcDbBlockBegin
  2
_D
 70
     0
 10
0.0
 20
0.0
 30
0.0
  3
_D
  1
_D
  0
LINE
  5
D6
330
D3
100
AcDbEntity
  8
치수문자_일반주서
 62
     0
370
    -2
100
AcDbLine
 10
-50.56249999999995
 20
12.69999999999999
 30
0.0
 11
-63.92999999999998
 21
12.69999999999994
 31
0.0
  0
LINE
  5
D7
330
D3
100
AcDbEntity
  8
치수문자_일반주서
 62
     0
370
    -2
100
AcDbLine
 10
-50.56249999999995
 20
-12.70000000000002
 30
0.0
 11
-63.92999999999989
 21
-12.70000000000007
 31
0.0
  0
LINE
  5
D8
330
D3
100
AcDbEntity
  8
치수문자_일반주서
 62
     0
370
    -2
100
AcDbLine
 10
-63.92999999999996
 20
9.397999999999938
 30
0.0
 11
-63.92999999999991
 21
-9.398000000000069
 31
0.0
  0
SOLID
  5
D9
330
D3
100
AcDbEntity
  8
치수문자_일반주서
 62
     0
100
AcDbTrace
 10
-63.37966666666663
 20
9.39799999999994
 30
0.0
 11
-64.48033333333329
 21
9.397999999999936
 31
0.0
 12
-63.92999999999998
 22
12.69999999999994
 32
0.0
 13
-63.92999999999998
 23
12.69999999999994
 33
0.0
  0
SOLID
  5
DA
330
D3
100
AcDbEntity
  8
치수문자_일반주서
 62
     0
100
AcDbTrace
 10
-64.48033333333323
 20
-9.39800000000007
 30
0.0
 11
-63.37966666666657
 21
-9.398000000000067
 31
0.0
 12
-63.92999999999989
 22
-12.70000000000007
 32
0.0
 13
-63.92999999999989
 23
-12.70000000000007
 33
0.0
  0
MTEXT
  5
DB
330
D3
100
AcDbEntity
  8
치수문자_일반주서
 62
     0
100
AcDbMText
 10
-68.30499999999994
 20
-0.0000000000000295
 30
0.0
 40
3.5
 41
0.0
 71
     2
 72
     1
  1
\A1;%%c25.40 [1]
  7
SLDTEXTSTYLE0
 11
-3.356894814614646E-15
 21
1.0
 31
0.0
 73
     1
 44
1.0
  0
POINT
  5
DC
330
D3
100
AcDbEntity
  8
Defpoints
 62
     0
100
AcDbPoint
 10
-50.49999999999995
 20
12.69999999999999
 30
0.0
  0
POINT
  5
DD
330
D3
100
AcDbEntity
  8
Defpoints
 62
     0
100
AcDbPoint
 10
-50.49999999999995
 20
-12.70000000000002
 30
0.0
  0
POINT
  5
DE
330
D3
100
AcDbEntity
  8
Defpoints
 62
     0
100
AcDbPoint
 10
-63.92999999999989
 20
-12.70000000000007
 30
0.0
  0
ENDBLK
  5
D5
330
D3
100
AcDbEntity
  8
0
100
AcDbBlockEnd
  0
BLOCK
  5
E9
330
E8
100
AcDbEntity
  8
0
100
AcDbBlockBegin
  2
_D_1
 70
     0
 10
0.0
 20
0.0
 30
0.0
  3
_D_1
  1
_D_1
  0
LINE
  5
EB
330
E8
100
AcDbEntity
  8
치수문자_일반주서
 62
     0
370
    -2
100
AcDbLine
 10
50.16250000000006
 20
12.70000000000001
 30
0.0
 11
74.80556031021177
 21
12.7000000000001
 31
0.0
  0
LINE
  5
EC
330
E8
100
AcDbEntity
  8
치수문자_일반주서
 62
     0
370
    -2
100
AcDbLine
 10
50.16250000000008
 20
-12.69999999999999
 30
0.0
 11
74.80556031021186
 21
-12.6999999999999
 31
0.0
  0
LINE
  5
ED
330
E8
100
AcDbEntity
  8
치수문자_일반주서
 62
     0
370
    -2
100
AcDbLine
 10
74.80556031021177
 20
12.7000000000001
 30
0.0
 11
74.80556031021167
 21
41.6165000000001
 31
0.0
  0
LINE
  5
EE
330
E8
100
AcDbEntity
  8
치수문자_일반주서
 62
     0
370
    -2
100
AcDbLine
 10
74.80556031021177
 20
12.7000000000001
 30
0.0
 11
74.80556031021186
 21
-12.6999999999999
 31
0.0
  0
LINE
  5
EF
330
E8
100
AcDbEntity
  8
치수문자_일반주서
 62
     0
370
    -2
100
AcDbLine
 10
74.80556031021176
 20
16.0020000000001
 30
0.0
 11
74.80556031021175
 21
19.3040000000001
 31
0.0
  0
LINE
  5
F0
330
E8
100
AcDbEntity
  8
치수문자_일반주서
 62
     0
370
    -2
100
AcDbLine
 10
74.80556031021187
 20
-16.0019999999999
 30
0.0
 11
74.80556031021189
 21
-19.3039999999999
 31
0.0
  0
SOLID
  5
F1
330
E8
100
AcDbEntity
  8
치수문자_일반주서
 62
     0
100
AcDbTrace
 10
74.25522697687843
 20
16.00200000000009
 30
0.0
 11
75.35589364354509
 21
16.0020000000001
 31
0.0
 12
74.80556031021177
 22
12.7000000000001
 32
0.0
 13
74.80556031021177
 23
12.7000000000001
 33
0.0
  0
SOLID
  5
F2
330
E8
100
AcDbEntity
  8
치수문자_일반주서
 62
     0
100
AcDbTrace
 10
75.3558936435452
 20
-16.00199999999989
 30
0.0
 11
74.25522697687855
 21
-16.0019999999999
 31
0.0
 12
74.80556031021186
 22
-12.6999999999999
 32
0.0
 13
74.80556031021186
 23
-12.6999999999999
 33
0.0
  0
MTEXT
  5
F3
330
E8
100
AcDbEntity
  8
치수문자_일반주서
 62
     0
100
AcDbMText
 10
70.43056031021172
 20
30.46025000000008
 30
0.0
 40
3.5
 41
0.0
 71
     2
 72
     1
  1
\A1;%%c25.40 [1]
  7
SLDTEXTSTYLE0
 11
-3.356894814614647E-15
 21
1.0
 31
0.0
 73
     1
 44
1.0
  0
POINT
  5
F4
330
E8
100
AcDbEntity
  8
Defpoints
 62
     0
100
AcDbPoint
 10
50.10000000000006
 20
12.70000000000001
 30
0.0
  0
POINT
  5
F5
330
E8
100
AcDbEntity
  8
Defpoints
 62
     0
100
AcDbPoint
 10
50.10000000000008
 20
-12.69999999999999
 30
0.0
  0
POINT
  5
F6
330
E8
100
AcDbEntity
  8
Defpoints
 62
     0
100
AcDbPoint
 10
74.80556031021186
 20
-12.6999999999999
 30
0.0
  0
ENDBLK
  5
EA
330
E8
100
AcDbEntity
  8
0
100
AcDbBlockEnd
  0
BLOCK
  5
FE
330
FD
100
AcDbEntity
  8
0
100
AcDbBlockBegin
  2
_D_2
 70
     0
 10
0.0
 20
0.0
 30
0.0
  3
_D_2
  1
_D_2
  0
LINE
  5
100
330
FD
100
AcDbEntity
  8
치수문자_일반주서
 62
     0
370
    -2
100
AcDbLine
 10
50.10000000000005
 20
12.76250000000001
 30
0.0
 11
50.10000000000005
 21
24.13645082958879
 31
0.0
  0
LINE
  5
101
330
FD
100
AcDbEntity
  8
치수문자_일반주서
 62
     0
370
    -2
100
AcDbLine
 10
12.00000000000004
 20
10.10509315903132
 30
0.0
 11
12.00000000000005
 21
24.13645082958879
 31
0.0
  0
LINE
  5
102
330
FD
100
AcDbEntity
  8
치수문자_일반주서
 62
     0
370
    -2
100
AcDbLine
 10
12.00000000000005
 20
24.13645082958879
 30
0.0
 11
-33.04793442283773
 21
24.13645082958879
 31
0.0
  0
LINE
  5
103
330
FD
100
AcDbEntity
  8
치수문자_일반주서
 62
     0
370
    -2
100
AcDbLine
 10
50.10000000000005
 20
24.13645082958879
 30
0.0
 11
12.00000000000005
 21
24.13645082958879
 31
0.0
  0
LINE
  5
104
330
FD
100
AcDbEntity
  8
치수문자_일반주서
 62
     0
370
    -2
100
AcDbLine
 10
53.40200000000005
 20
24.13645082958879
 30
0.0
 11
56.70400000000005
 21
24.13645082958879
 31
0.0
  0
LINE
  5
105
330
FD
100
AcDbEntity
  8
치수문자_일반주서
 62
     0
370
    -2
100
AcDbLine
 10
8.698000000000047
 20
24.13645082958879
 30
0.0
 11
5.396000000000047
 21
24.13645082958879
 31
0.0
  0
SOLID
  5
106
330
FD
100
AcDbEntity
  8
치수문자_일반주서
 62
     0
100
AcDbTrace
 10
53.40200000000005
 20
24.68678416292212
 30
0.0
 11
53.40200000000005
 21
23.58611749625545
 31
0.0
 12
50.10000000000005
 22
24.13645082958879
 32
0.0
 13
50.10000000000005
 23
24.13645082958879
 33
0.0
  0
SOLID
  5
107
330
FD
100
AcDbEntity
  8
치수문자_일반주서
 62
     0
100
AcDbTrace
 10
8.698000000000047
 20
23.58611749625545
 30
0.0
 11
8.698000000000047
 21
24.68678416292212
 31
0.0
 12
12.00000000000005
 22
24.13645082958879
 32
0.0
 13
12.00000000000005
 23
24.13645082958879
 33
0.0
  0
MTEXT
  5
108
330
FD
100
AcDbEntity
  8
치수문자_일반주서
 62
     0
100
AcDbMText
 10
-18.82918442283773
 20
28.51145082958879
 30
0.0
 40
3.5
 41
0.0
 71
     2
 72
     1
  1
\A1;38.10 [1 1/2]
  7
SLDTEXTSTYLE0
 73
     1
 44
1.0
  0
POINT
  5
109
330
FD
100
AcDbEntity
  8
Defpoints
 62
     0
100
AcDbPoint
 10
50.10000000000005
 20
12.70000000000001
 30
0.0
  0
POINT
  5
183
330
FD
100
AcDbEntity
  8
Defpoints
 62
     0
100
AcDbPoint
 10
12.00000000000004
 20
10.04259315903132
 30
0.0
  0
POINT
  5
184
330
FD
100
AcDbEntity
  8
Defpoints
 62
     0
100
AcDbPoint
 10
12.00000000000004
 20
24.13645082958879
 30
0.0
  0
ENDBLK
  5
FF
330
FD
100
AcDbEntity
  8
0
100
AcDbBlockEnd
  0
BLOCK
  5
112
330
111
100
AcDbEntity
  8
0
100
AcDbBlockBegin
  2
_D_3
 70
     0
 10
0.0
 20
0.0
 30
0.0
  3
_D_3
  1
_D_3
  0
LINE
  5
114
330
111
100
AcDbEntity
  8
치수문자_일반주서
 62
     0
370
    -2
100
AcDbLine
 10
50.10000000000005
 20
12.76250000000001
 30
0.0
 11
50.10000000000004
 21
46.74592844013392
 31
0.0
  0
LINE
  5
115
330
111
100
AcDbEntity
  8
치수문자_일반주서
 62
     0
370
    -2
100
AcDbLine
 10
-51.49999999999995
 20
11.76249999999999
 30
0.0
 11
-51.49999999999996
 21
46.74592844013392
 31
0.0
  0
LINE
  5
116
330
111
100
AcDbEntity
  8
치수문자_일반주서
 62
     0
370
    -2
100
AcDbLine
 10
46.79800000000004
 20
46.74592844013392
 30
0.0
 11
-48.19799999999996
 21
46.74592844013392
 31
0.0
  0
SOLID
  5
117
330
111
100
AcDbEntity
  8
치수문자_일반주서
 62
     0
100
AcDbTrace
 10
46.79800000000004
 20
46.19559510680058
 30
0.0
 11
46.79800000000004
 21
47.29626177346725
 31
0.0
 12
50.10000000000004
 22
46.74592844013392
 32
0.0
 13
50.10000000000004
 23
46.74592844013392
 33
0.0
  0
SOLID
  5
118
330
111
100
AcDbEntity
  8
치수문자_일반주서
 62
     0
100
AcDbTrace
 10
-48.19799999999996
 20
47.29626177346725
 30
0.0
 11
-48.19799999999996
 21
46.19559510680058
 31
0.0
 12
-51.49999999999996
 22
46.74592844013392
 32
0.0
 13
-51.49999999999996
 23
46.74592844013392
 33
0.0
  0
MTEXT
  5
119
330
111
100
AcDbEntity
  8
치수문자_일반주서
 62
     0
100
AcDbMText
 10
-0.699999999999954
 20
51.12092844013392
 30
0.0
 40
3.5
 41
0.0
 71
     2
 72
     1
  1
\A1;101.60 [4]
  7
SLDTEXTSTYLE0
 73
     1
 44
1.0
  0
POINT
  5
11A
330
111
100
AcDbEntity
  8
Defpoints
 62
     0
100
AcDbPoint
 10
50.10000000000005
 20
12.70000000000001
 30
0.0
  0
POINT
  5
11B
330
111
100
AcDbEntity
  8
Defpoints
 62
     0
100
AcDbPoint
 10
-51.49999999999995
 20
11.69999999999999
 30
0.0
  0
POINT
  5
11C
330
111
100
AcDbEntity
  8
Defpoints
 62
     0
100
AcDbPoint
 10
-51.49999999999995
 20
46.74592844013392
 30
0.0
  0
ENDBLK
  5
113
330
111
100
AcDbEntity
  8
0
100
AcDbBlockEnd
  0
BLOCK
  5
12B
330
12A
100
AcDbEntity
  8
0
100
AcDbBlockBegin
  2
SW_DOWELSYMBOL_0
 70
     0
 10
0.0
 20
0.0
 30
0.0
  3
SW_DOWELSYMBOL_0
  1
SW_DOWELSYMBOL_0
  0
CIRCLE
  5
12D
330
12A
100
AcDbEntity
  8
해칭선
 62
     0
100
AcDbCircle
 10
0.0
 20
0.0
 30
0.0
 40
3.000000000000002
  0
HATCH
  5
12E
330
12A
100
AcDbEntity
  8
0
  6
Continuous
 62
     0
370
     0
100
AcDbHatch
 10
0.0
 20
0.0
 30
0.0
210
0.0
220
0.0
230
1.0
  2
SOLID
 70
     1
 71
     0
 91
        1
 92
        0
 93
        3
 72
     2
 10
-0.0000000000000234
 20
0.0
 40
3.000000000000002
 50
0.0
 51
90.0
 73
     1
 72
     1
 10
-0.0000000000000234
 20
3.000000000000002
 11
-0.0000000000000234
 21
0.0
 72
     1
 10
-0.0000000000000234
 20
0.0
 11
2.999999999999979
 21
0.0
 97
        0
 75
     0
 76
     1
 98
        1
 10
0.0
 20
0.0
  0
HATCH
  5
12F
330
12A
100
AcDbEntity
  8
0
  6
Continuous
 62
     0
370
     0
100
AcDbHatch
 10
0.0
 20
0.0
 30
0.0
210
0.0
220
0.0
230
1.0
  2
SOLID
 70
     1
 71
     0
 91
        1
 92
        0
 93
        3
 72
     2
 10
-0.0000000000000234
 20
0.0
 40
3.000000000000002
 50
180.0
 51
270.0000000000008
 73
     1
 72
     1
 10
-0.0000000000000234
 20
-3.000000000000002
 11
-0.0000000000000234
 21
0.0
 72
     1
 10
-0.0000000000000234
 20
0.0
 11
-3.000000000000026
 21
0.0
 97
        0
 75
     0
 76
     1
 98
        1
 10
0.0
 20
0.0
  0
ENDBLK
  5
12C
330
12A
100
AcDbEntity
  8
0
100
AcDbBlockEnd
  0
ENDSEC
  0
SECTION
  2
ENTITIES
  0
LINE
  5
96
330
1F
100
AcDbEntity
  8
외형선
  6
Continuous
370
    15
100
AcDbLine
 10
8.950093251418528
 20
12.7
 30
0.0
 11
-50.49999999999995
 21
12.69999999999999
 31
0.0
  0
LINE
  5
97
330
1F
100
AcDbEntity
  8
외형선
  6
Continuous
370
    15
100
AcDbLine
 10
-50.49999999999995
 20
-12.7
 30
0.0
 11
8.950093251418528
 21
-12.7
 31
0.0
  0
LINE
  5
98
330
1F
100
AcDbEntity
  8
외형선
  6
Continuous
370
    15
100
AcDbLine
 10
-50.49999999999995
 20
12.69999999999999
 30
0.0
 11
-51.49999999999995
 21
11.69999999999999
 31
0.0
  0
LINE
  5
99
330
1F
100
AcDbEntity
  8
외형선
  6
Continuous
370
    15
100
AcDbLine
 10
-51.49999999999995
 20
-11.7
 30
0.0
 11
-50.49999999999995
 21
-12.7
 31
0.0
  0
SPLINE
  5
9A
330
1F
100
AcDbEntity
  8
외형선
  6
Continuous
370
    15
100
AcDbSpline
210
0.0
220
0.0
230
1.0
 70
     8
 71
     3
 72
     9
 73
     5
 74
     0
 42
0.000000001
 43
0.00000001
 40
0.0
 40
0.0
 40
0.0
 40
0.0
 40
0.515662644121395
 40
1.0
 40
1.0
 40
1.0
 40
1.0
 10
12.00000000000005
 20
9.998127191207429
 30
0.0
 10
11.56354917290295
 20
9.989726938390751
 30
0.0
 10
10.7171608760723
 20
9.973436728284511
 30
0.0
 10
9.870243305483882
 20
9.958216067704356
 30
0.0
 10
9.460049488697958
 20
9.950844133204237
 30
0.0
  0
SPLINE
  5
9B
330
1F
100
AcDbEntity
  8
외형선
  6
Continuous
370
    15
100
AcDbSpline
210
0.0
220
0.0
230
1.0
 70
     8
 71
     3
 72
    31
 73
    27
 74
     0
 42
0.000000001
 43
0.00000001
 40
0.0
 40
0.0
 40
0.0
 40
0.0
 40
0.0057436718414234
 40
0.0067042544584463
 40
0.0070910409145508
 40
0.007431225020421
 40
0.0077484031277573
 40
0.0080697142284627
 40
0.0084199543600385
 40
0.0088173601744706
 40
0.0097938144270649
 40
0.0110469841929987
 40
0.0244236694662268
 40
0.0946671458986396
 40
0.137524320858135
 40
0.1791890516556714
 40
0.199108750720968
 40
0.2188222685625102
 40
0.2393901633904895
 40
0.2624330823401245
 40
0.2898352130081973
 40
0.3234363767162168
 40
0.415553526823725
 40
0.5480099032856716
 40
0.7176539290864614
 40
1.0
 40
1.0
 40
1.0
 40
1.0
 10
9.462329095810873
 20
9.953934184292583
 30
0.0
 10
9.46160905134984
 20
9.953937129160956
 30
0.0
 10
9.46076858528189
 20
9.95394056653472
 30
0.0
 10
9.458494717857345
 20
9.954578204444422
 30
0.0
 10
9.457735440591946
 20
9.954822223995151
 30
0.0
 10
9.457171631186151
 20
9.955015978829023
 30
0.0
 10
9.456574777880352
 20
9.95523370687917
 30
0.0
 10
9.455955800607326
 20
9.95547191527006
 30
0.0
 10
9.45532296676894
 20
9.955727213765682
 30
0.0
 10
9.454395294834502
 20
9.956117589880485
 30
0.0
 10
9.453195446107186
 20
9.95665441799534
 30
0.0
 10
9.447291696010637
 20
9.959472730946771
 30
0.0
 10
9.427802489857601
 20
9.971264221064649
 30
0.0
 10
9.39848006507492
 20
9.992433685399284
 30
0.0
 10
9.351297949882976
 20
10.03023018735594
 30
0.0
 10
9.310770585353202
 20
10.06490602669465
 30
0.0
 10
9.273754078048382
 20
10.09820427867974
 30
0.0
 10
9.244484242035622
 20
10.12536586261826
 30
0.0
 10
9.214043243182036
 20
10.15450162778891
 30
0.0
 10
9.18356504544567
 20
10.18456479711654
 30
0.0
 10
9.153921885133721
 20
10.21463295280156
 30
0.0
 10
9.111643396629306
 20
10.2585949471045
 30
0.0
 10
9.06689350159372
 20
10.30673086316579
 30
0.0
 10
9.02719687973299
 20
10.34777578819973
 30
0.0
 10
8.989219812695408
 20
10.38187151681649
 30
0.0
 10
8.979388723445744
 20
10.37109218279136
 30
0.0
 10
8.973247506099122
 20
10.36435862240767
 30
0.0
  0
SPLINE
  5
9C
330
1F
100
AcDbEntity
  8
외형선
  6
Continuous
370
    15
100
AcDbSpline
210
0.0
220
0.0
230
1.0
 70
     8
 71
     3
 72
     9
 73
     5
 74
     0
 42
0.000000001
 43
0.00000001
 40
0.0
 40
0.0
 40
0.0
 40
0.0
 40
0.5638991163984782
 40
1.0
 40
1.0
 40
1.0
 40
1.0
 10
8.950128919212883
 20
-9.941641951943808
 30
0.0
 10
9.458008235869189
 20
-9.950399960513773
 30
0.0
 10
10.35866458003947
 20
-9.965931122587415
 30
0.0
 10
11.25868548872542
 20
-9.98365381445669
 30
0.0
 10
11.65118540226321
 20
-9.991382696040679
 30
0.0
  0
SPLINE
  5
9D
330
1F
100
AcDbEntity
  8
0
  6
Continuous
 62
     1
370
    15
100
AcDbSpline
210
0.0
220
0.0
230
1.0
 70
     8
 71
     3
 72
    15
 73
    11
 74
     0
 42
0.000000001
 43
0.00000001
 40
0.0
 40
0.0
 40
0.0
 40
0.0
 40
0.1523780079529282
 40
0.2617818672823228
 40
0.3367820406215963
 40
0.41527249314134
 40
0.5026770916791354
 40
0.6238466093219132
 40
0.7897220380713881
 40
1.0
 40
1.0
 40
1.0
 40
1.0
 10
17.19752455416688
 20
3.254330266756255
 30
0.0
 10
17.02078619330312
 20
3.337636539272623
 30
0.0
 10
16.71715380731192
 20
3.480754774434233
 30
0.0
 10
16.32336377892752
 20
3.670578311932296
 30
0.0
 10
16.01003150646826
 20
3.823313660788489
 30
0.0
 10
15.72517016672642
 20
3.96358502517965
 30
0.0
 10
15.38753836677133
 20
4.131578269308434
 30
0.0
 10
14.94751031721433
 20
4.353490825090115
 30
0.0
 10
14.36311711340266
 20
4.65299387442364
 30
0.0
 10
13.92151410916069
 20
4.886130025305022
 30
0.0
 10
13.6746483835955
 20
5.016458226177663
 30
0.0
  0
SPLINE
  5
9E
330
1F
100
AcDbEntity
  8
0
  6
Continuous
 62
     1
370
    15
100
AcDbSpline
210
0.0
220
0.0
230
1.0
 70
     8
 71
     3
 72
     9
 73
     5
 74
     0
 42
0.000000001
 43
0.00000001
 40
0.0
 40
0.0
 40
0.0
 40
0.0
 40
0.4971658552529772
 40
1.0
 40
1.0
 40
1.0
 40
1.0
 10
12.99991034987796
 20
10.09191507978073
 30
0.0
 10
12.83290535713085
 20
10.08137625987933
 30
0.0
 10
12.49699131359274
 20
10.06017846483759
 30
0.0
 10
12.16628861074967
 20
10.0188889627012
 30
0.0
 10
12.00000000000005
 20
9.998127191207429
 30
0.0
  0
SPLINE
  5
9F
330
1F
100
AcDbEntity
  8
0
  6
Continuous
 62
     1
370
    15
100
AcDbSpline
210
0.0
220
0.0
230
1.0
 70
     8
 71
     3
 72
    32
 73
    28
 74
     0
 42
0.000000001
 43
0.00000001
 40
0.0
 40
0.0
 40
0.0
 40
0.0
 40
0.0560480196410728
 40
0.1012701075602194
 40
0.1356178952656207
 40
0.1609812205072087
 40
0.1803522423377864
 40
0.1985040994357261
 40
0.2157091079474124
 40
0.2329135705829895
 40
0.2501875635004419
 40
0.3275919133550588
 40
0.373853203190933
 40
0.4288176280559221
 40
0.4893692670130159
 40
0.5461135466607053
 40
0.6020045289148004
 40
0.6588373856463986
 40
0.7101985474915511
 40
0.7541313305823928
 40
0.7931992388124388
 40
0.8090886374769922
 40
0.8323548845697663
 40
0.8631225680888952
 40
0.9013659962901287
 40
0.946954118033703
 40
1.0
 40
1.0
 40
1.0
 40
1.0
 10
45.3815339006115
 20
8.686198405103488
 30
0.0
 10
44.96572327435488
 20
8.65206660558652
 30
0.0
 10
44.21441774892588
 20
8.590395719970175
 30
0.0
 10
43.21025619132085
 20
8.52414013206439
 30
0.0
 10
42.43426977372886
 20
8.479857181766807
 30
0.0
 10
41.84919055965818
 20
8.451083349665216
 30
0.0
 10
41.38373522269202
 20
8.430817021935729
 30
0.0
 10
40.9788934531646
 20
8.415127355451862
 30
0.0
 10
40.59015527664187
 20
8.40180605003045
 30
0.0
 10
40.20785251554421
 20
8.390377352323512
 30
0.0
 10
39.37925001254339
 20
8.369241567842337
 30
0.0
 10
38.34488161630514
 20
8.35551699162029
 30
0.0
 10
37.04229413953847
 20
8.358079669025125
 30
0.0
 10
35.83618995843442
 20
8.376662816497275
 30
0.0
 10
34.54615079224902
 20
8.416130354099137
 30
0.0
 10
33.27469182448831
 20
8.473559194775275
 30
0.0
 10
32.02954191048917
 20
8.547134463929671
 30
0.0
 10
30.79641205769062
 20
8.638181040045678
 30
0.0
 10
29.65815689551787
 20
8.736688974533257
 30
0.0
 10
28.6655657735844
 20
8.83445922937322
 30
0.0
 10
27.91176526892215
 20
8.915124149472055
 30
0.0
 10
27.31867422420947
 20
8.98153320174334
 30
0.0
 10
26.7995529795853
 20
9.043412077134766
 30
0.0
 10
26.12167003122066
 20
9.128729397724404
 30
0.0
 10
25.28657706707996
 20
9.24071178639734
 30
0.0
 10
24.29407206974019
 20
9.382358111664029
 30
0.0
 10
23.5795730492801
 20
9.492742193993596
 30
0.0
 10
23.19531174710437
 20
9.552107329565253
 30
0.0
  0
SPLINE
  5
A0
330
1F
100
AcDbEntity
  8
0
  6
Continuous
 62
     1
370
    15
100
AcDbSpline
210
0.0
220
0.0
230
1.0
 70
     8
 71
     3
 72
    20
 73
    16
 74
     0
 42
0.000000001
 43
0.00000001
 40
0.0
 40
0.0
 40
0.0
 40
0.0
 40
0.1065790684831399
 40
0.2000965721817544
 40
0.2822561702850688
 40
0.3708527652839668
 40
0.4541034804353638
 40
0.533660188499715
 40
0.6101993282391771
 40
0.6875197261225504
 40
0.7687379804796571
 40
0.8488271652016011
 40
0.9224243825776258
 40
0.9887693076746585
 40
1.0
 40
1.0
 40
1.0
 40
1.0
 10
23.19531174710437
 20
-9.552107329565256
 30
0.0
 10
23.48440329932653
 20
-9.50581910108785
 30
0.0
 10
24.0271574204653
 20
-9.418915396800367
 30
0.0
 10
24.8602250347308
 20
-9.2860679218004
 30
0.0
 10
25.69695682946946
 20
-9.165321849924851
 30
0.0
 10
26.5488034420333
 20
-9.064354947144059
 30
0.0
 10
27.37765426331674
 20
-8.973574391496962
 30
0.0
 10
28.17397717455021
 20
-8.886266524654458
 30
0.0
 10
28.94771640288826
 20
-8.806201070163395
 30
0.0
 10
29.71315526969083
 20
-8.73266106984769
 30
0.0
 10
30.46289482284868
 20
-8.66702885344663
 30
0.0
 10
31.15187666862776
 20
-8.6087296131496
 30
0.0
 10
31.84013324511917
 20
-8.556564523440144
 30
0.0
 10
32.33785502639991
 20
-8.52413350299647
 30
0.0
 10
32.59673288111328
 20
-8.510771029898864
 30
0.0
 10
32.63421086237511
 20
-8.508836532578037
 30
0.0
  0
SPLINE
  5
A1
330
1F
100
AcDbEntity
  8
0
  6
Continuous
 62
     1
370
    15
100
AcDbSpline
210
0.0
220
0.0
230
1.0
 70
     8
 71
     3
 72
     9
 73
     5
 74
     0
 42
0.000000001
 43
0.00000001
 40
0.0
 40
0.0
 40
0.0
 40
0.0
 40
0.1881667769156095
 40
1.0
 40
1.0
 40
1.0
 40
1.0
 10
12.38555777859927
 20
-10.04222289401286
 30
0.0
 10
12.42372867947168
 20
-10.04673797074491
 30
0.0
 10
12.62658542973388
 20
-10.07073305003609
 30
0.0
 10
12.83263359983452
 20
-10.08242398796281
 30
0.0
 10
12.99991034987796
 20
-10.09191507978074
 30
0.0
  0
SPLINE
  5
A2
330
1F
100
AcDbEntity
  8
외형선
  6
Continuous
370
    15
100
AcDbSpline
210
0.0
220
0.0
230
1.0
 70
     8
 71
     3
 72
    10
 73
     6
 74
     0
 42
0.000000001
 43
0.00000001
 40
0.0
 40
0.0
 40
0.0
 40
0.0
 40
0.5
 40
0.5
 40
1.0
 40
1.0
 40
1.0
 40
1.0
 10
12.00000000000005
 20
5.889298411669295
 30
0.0
 10
11.49069452677493
 20
6.149524126076868
 30
0.0
 10
10.98128197101155
 20
6.405036952763689
 30
0.0
 10
9.965909508860243
 20
6.904827879747282
 30
0.0
 10
9.459141376770996
 20
7.149250334486544
 30
0.0
 10
8.950190929123648
 20
7.388095446313301
 30
0.0
  0
LINE
  5
A3
330
1F
100
AcDbEntity
  8
외형선
  6
Continuous
370
    15
100
AcDbLine
 10
12.00000000000005
 20
5.889298411669293
 30
0.0
 11
12.00000000000005
 21
2.552668673523865
 31
0.0
  0
SPLINE
  5
A4
330
1F
100
AcDbEntity
  8
외형선
  6
Continuous
370
    15
100
AcDbSpline
210
0.0
220
0.0
230
1.0
 70
     8
 71
     3
 72
    10
 73
     6
 74
     0
 42
0.000000001
 43
0.00000001
 40
0.0
 40
0.0
 40
0.0
 40
0.0
 40
0.5
 40
0.5
 40
1.0
 40
1.0
 40
1.0
 40
1.0
 10
12.00000000000005
 20
2.552668673523865
 30
0.0
 10
11.49067823580301
 20
2.840398917525575
 30
0.0
 10
10.9812493823444
 20
3.126098210806454
 30
0.0
 10
9.965844662471122
 20
3.691391542212079
 30
0.0
 10
9.45906008291877
 20
3.97114182401061
 30
0.0
 10
8.950093251418535
 20
4.247884556131949
 30
0.0
  0
LINE
  5
A5
330
1F
100
AcDbEntity
  8
외형선
  6
Continuous
370
    15
100
AcDbLine
 10
8.95009325141853
 20
7.388538148347155
 30
0.0
 11
8.950093251418528
 21
12.7
 31
0.0
  0
LINE
  5
A6
330
1F
100
AcDbEntity
  8
외형선
  6
Continuous
370
    15
100
AcDbLine
 10
-50.49999999999995
 20
12.69999999999999
 30
0.0
 11
-50.49999999999995
 21
-12.69999999999999
 31
0.0
  0
LINE
  5
A7
330
1F
100
AcDbEntity
  8
외형선
  6
Continuous
370
    15
100
AcDbLine
 10
8.950093251418528
 20
-12.7
 30
0.0
 11
8.950093251418537
 21
4.247887383451644
 31
0.0
  0
LINE
  5
A8
330
1F
100
AcDbEntity
  8
외형선
  6
Continuous
370
    15
100
AcDbLine
 10
-51.49999999999995
 20
11.69999999999999
 30
0.0
 11
-51.49999999999995
 21
-11.7
 31
0.0
  0
SPLINE
  5
A9
330
1F
100
AcDbEntity
  8
외형선
  6
Continuous
370
    15
100
AcDbSpline
210
0.0
220
0.0
230
1.0
 70
    24
 71
     3
 72
    11
 73
     7
 74
     0
 42
0.000000001
 43
0.00000001
 40
0.0
 40
0.0
 40
0.0
 40
0.0
 40
0.1882350835824225
 40
0.4485886664008216
 40
0.716492520758571
 40
0.9999999999999999
 40
0.9999999999999999
 40
0.9999999999999999
 40
0.9999999999999999
 10
12.00000000000004
 20
2.551978221305421
 30
0.0
 10
12.00000000000004
 20
2.541755603324312
 30
0.0
 10
12.00000000000004
 20
2.517393776187752
 30
0.0
 10
12.00000000000004
 20
2.309838252252294
 30
0.0
 10
12.00000000000004
 20
1.963033572811952
 30
0.0
 10
12.00000000000004
 20
1.609273658946094
 30
0.0
 10
12.00000000000004
 20
1.427388421328403
 30
0.0
  0
SPLINE
  5
AA
330
1F
100
AcDbEntity
  8
외형선
  6
Continuous
370
    15
100
AcDbSpline
210
0.0
220
0.0
230
1.0
 70
     8
 71
     3
 72
    10
 73
     6
 74
     0
 42
0.000000001
 43
0.00000001
 40
0.0
 40
0.0
 40
0.0
 40
0.0
 40
0.5000000000000001
 40
0.5000000000000001
 40
1.0
 40
1.0
 40
1.0
 40
1.0
 10
12.00000000000005
 20
1.427388421328402
 30
0.0
 10
11.49068216062097
 20
1.63032654369739
 30
0.0
 10
10.98125723360013
 20
1.832131897479652
 30
0.0
 10
9.965860285249338
 20
2.232031839091478
 30
0.0
 10
9.459079668221316
 20
2.430236286889677
 30
0.0
 10
8.950116783915147
 20
2.626617235975031
 30
0.0
  0
SPLINE
  5
AB
330
1F
100
AcDbEntity
  8
외형선
  6
Continuous
370
    15
100
AcDbSpline
210
0.0
220
0.0
230
1.0
 70
     8
 71
     3
 72
    10
 73
     6
 74
     0
 42
0.000000001
 43
0.00000001
 40
0.0
 40
0.0
 40
0.0
 40
0.0
 40
0.5
 40
0.5
 40
1.0
 40
1.0
 40
1.0
 40
1.0
 10
12.00000000000005
 20
10.0281831292939
 30
0.0
 10
11.5785815491548
 20
9.996966061800174
 30
0.0
 10
11.15708939413323
 20
9.960234220103212
 30
0.0
 10
10.31603706439586
 20
9.875945502487857
 30
0.0
 10
9.897257853417893
 20
9.82842760516436
 30
0.0
 10
9.476779018918812
 20
9.775485043068102
 30
0.0
  0
SPLINE
  5
AC
330
1F
100
AcDbEntity
  8
외형선
  6
Continuous
370
    15
100
AcDbSpline
210
0.0
220
0.0
230
1.0
 70
    24
 71
     3
 72
    16
 73
    12
 74
     0
 42
0.000000001
 43
0.00000001
 40
0.0
 40
0.0
 40
0.0
 40
0.0
 40
0.1444875235140693
 40
0.2626375916777463
 40
0.3807876598414235
 40
0.5023702431143741
 40
0.6239528263873245
 40
0.7307406492956605
 40
0.8375284722039968
 40
0.946826757144846
 40
1.0
 40
1.0
 40
1.0
 40
1.0
 10
12.00000000000004
 20
9.989580684973296
 30
0.0
 10
12.00000000000004
 20
9.94185976882659
 30
0.0
 10
12.00000000000004
 20
9.855116594159293
 30
0.0
 10
12.00000000000004
 20
9.570012633131991
 30
0.0
 10
12.00000000000004
 20
9.21863850640517
 30
0.0
 10
12.00000000000004
 20
8.76675726753342
 30
0.0
 10
12.00000000000004
 20
8.240930245800646
 30
0.0
 10
12.00000000000004
 20
7.661026951668432
 30
0.0
 10
12.00000000000004
 20
7.033758927234916
 30
0.0
 10
12.00000000000004
 20
6.467416726199928
 30
0.0
 10
12.00000000000004
 20
6.087275728614127
 30
0.0
 10
12.00000000000004
 20
5.962864209512704
 30
0.0
  0
SPLINE
  5
AD
330
1F
100
AcDbEntity
  8
외형선
  6
Continuous
370
    15
100
AcDbSpline
210
0.0
220
0.0
230
1.0
 70
     8
 71
     3
 72
     8
 73
     4
 74
     0
 42
0.000000001
 43
0.00000001
 40
0.0
 40
0.0
 40
0.0
 40
0.0
 40
1.0
 40
1.0
 40
1.0
 40
1.0
 10
8.954843245206593
 20
10.29125955065699
 30
0.0
 10
8.95136717597513
 20
10.29267918435882
 30
0.0
 10
8.950093251418528
 20
10.29145667860096
 30
0.0
 10
8.950093251418528
 20
10.28906100045566
 30
0.0
  0
SPLINE
  5
AE
330
1F
100
AcDbEntity
  8
외형선
  6
Continuous
370
    15
100
AcDbSpline
210
0.0
220
0.0
230
1.0
 70
     8
 71
     3
 72
    10
 73
     6
 74
     0
 42
0.000000001
 43
0.00000001
 40
0.0
 40
0.0
 40
0.0
 40
0.0
 40
0.5
 40
0.5
 40
1.0
 40
1.0
 40
1.0
 40
1.0
 10
12.00000000000005
 20
-10.0281831292939
 30
0.0
 10
11.49068418458116
 20
-9.99045496111887
 30
0.0
 10
10.9812612823558
 20
-9.944668624714534
 30
0.0
 10
9.96586834164414
 20
-9.837360304839018
 30
0.0
 10
9.459089768019703
 20
-9.77582687469319
 30
0.0
 10
8.950128919212881
 20
-9.706417418031668
 30
0.0
  0
SPLINE
  5
AF
330
1F
100
AcDbEntity
  8
외형선
  6
Continuous
370
    15
100
AcDbSpline
210
0.0
220
0.0
230
1.0
 70
    24
 71
     3
 72
    14
 73
    10
 74
     0
 42
0.000000001
 43
0.00000001
 40
0.0
 40
0.0
 40
0.0
 40
0.0
 40
0.25
 40
0.25
 40
0.5
 40
0.5
 40
0.75
 40
0.75
 40
1.0
 40
1.0
 40
1.0
 40
1.0
 10
12.00000000000002
 20
1.427388421328411
 30
0.0
 10
12.00000000000002
 20
0.3039609947000275
 30
0.0
 10
12.00000000000002
 20
-0.8481983035655662
 30
0.0
 10
12.00000000000002
 20
-3.102063151810456
 30
0.0
 10
12.00000000000002
 20
-4.202574900751785
 30
0.0
 10
12.00000000000002
 20
-6.238560242141843
 30
0.0
 10
12.00000000000002
 20
-7.172948976479754
 30
0.0
 10
12.00000000000002
 20
-8.79383146366613
 30
0.0
 10
12.00000000000002
 20
-9.480020473356872
 30
0.0
 10
12.00000000000002
 20
-10.02818312929391
 30
0.0
  0
SPLINE
  5
B0
330
1F
100
AcDbEntity
  8
0
  6
Continuous
 62
     1
370
    15
100
AcDbSpline
210
0.0
220
0.0
230
1.0
 70
     8
 71
     3
 72
    44
 73
    40
 74
     0
 42
0.000000001
 43
0.00000001
 40
0.0
 40
0.0
 40
0.0
 40
0.0
 40
0.0624999999999999
 40
0.0624999999999999
 40
0.1249999999999998
 40
0.1249999999999998
 40
0.1874999999999997
 40
0.1874999999999997
 40
0.2499999999999996
 40
0.2499999999999996
 40
0.3124999999999997
 40
0.3124999999999997
 40
0.3749999999999998
 40
0.3749999999999998
 40
0.4375
 40
0.4375
 40
0.5000000000000001
 40
0.5000000000000001
 40
0.5625000000000002
 40
0.5625000000000002
 40
0.6250000000000003
 40
0.6250000000000003
 40
0.6875000000000003
 40
0.6875000000000003
 40
0.7500000000000003
 40
0.7500000000000003
 40
0.7812500000000003
 40
0.7812500000000003
 40
0.8125000000000003
 40
0.8125000000000003
 40
0.8437500000000002
 40
0.8437500000000002
 40
0.8750000000000002
 40
0.8750000000000002
 40
0.9375000000000001
 40
0.9375000000000001
 40
0.96875
 40
0.96875
 40
1.0
 40
1.0
 40
1.0
 40
1.0
 10
50.10000000000004
 20
-12.05154903924513
 30
0.0
 10
49.30895787455668
 20
-11.9071494162766
 30
0.0
 10
48.51259063939916
 20
-11.73887281937317
 30
0.0
 10
46.92314963114092
 20
-11.35730120945462
 30
0.0
 10
46.13301252693664
 20
-11.14434336264861
 30
0.0
 10
44.54397570823369
 20
-10.67498700334208
 30
0.0
 10
43.74742603318087
 20
-10.41872662182522
 30
0.0
 10
42.16421841861526
 20
-9.867683737935641
 30
0.0
 10
41.3691448039437
 20
-9.571945357426161
 30
0.0
 10
39.77938353162001
 20
-8.94424346034112
 30
0.0
 10
38.9890960813773
 20
-8.61292358160937
 30
0.0
 10
37.40054730655288
 20
-7.916867087530413
 30
0.0
 10
36.60385747564324
 20
-7.552291910351337
 30
0.0
 10
35.01960932782129
 20
-6.796520384636283
 30
0.0
 10
34.22567985513479
 20
-6.404337579790387
 30
0.0
 10
32.63568230064075
 20
-5.596113723916484
 30
0.0
 10
31.84509418477009
 20
-5.181032485972048
 30
0.0
 10
30.25711722224588
 20
-4.33109867366391
 30
0.0
 10
29.46032954440108
 20
-3.896317127483279
 30
0.0
 10
27.87512387617773
 20
-3.014775515952846
 30
0.0
 10
27.08218886606861
 20
-2.56719679252642
 30
0.0
 10
25.49203905292261
 20
-1.662948182236736
 30
0.0
 10
24.70100000472216
 20
-1.207458159819899
 30
0.0
 10
23.11367852231521
 20
-0.2925459076083853
 30
0.0
 10
22.31683532383174
 20
0.1669875981888329
 30
0.0
 10
21.12727531801015
 20
0.8533607836894126
 30
0.0
 10
20.73217557709259
 20
1.081574563772602
 30
0.0
 10
19.93869437590894
 20
1.537353718925528
 30
0.0
 10
19.54111040906282
 20
1.764764980151405
 30
0.0
 10
18.74600139833589
 20
2.21762844673397
 30
0.0
 10
18.34847720820914
 20
2.443080166107112
 30
0.0
 10
17.55523424012654
 20
2.891038556990025
 30
0.0
 10
17.16016111261189
 20
3.113426672945725
 30
0.0
 10
15.97022427530432
 20
3.776591681535899
 30
0.0
 10
15.17336789233876
 20
4.212831899754129
 30
0.0
 10
13.9832146326509
 20
4.852648646626175
 30
0.0
 10
13.58812538720815
 20
5.06336777631521
 30
0.0
 10
12.79503456659374
 20
5.480178095846508
 30
0.0
 10
12.39755054184612
 20
5.686173019927671
 30
0.0
 10
11.99999999999629
 20
5.889298411671215
 30
0.0
  0
SPLINE
  5
B1
330
1F
100
AcDbEntity
  8
0
  6
Continuous
 62
     1
370
    15
100
AcDbSpline
210
0.0
220
0.0
230
1.0
 70
     8
 71
     3
 72
    17
 73
    13
 74
     0
 42
0.000000001
 43
0.00000001
 40
0.0
 40
0.0
 40
0.0
 40
0.0
 40
0.1041390088931046
 40
0.2082723208478097
 40
0.312400666075111
 40
0.4165247769235146
 40
0.520645387565706
 40
0.6247632336835515
 40
0.7288790521517141
 40
0.8329935807201803
 40
0.9371075576959791
 40
1.0
 40
1.0
 40
1.0
 40
1.0
 10
50.10000000000005
 20
-10.01994775747635
 30
0.0
 10
48.95672231003896
 20
-9.78773578712518
 30
0.0
 10
46.67022947327558
 20
-9.323324549609717
 30
0.0
 10
43.24061230412257
 20
-8.335424717382123
 30
0.0
 10
39.81118062861882
 20
-7.162811657895068
 30
0.0
 10
36.38191007215111
 20
-5.811819279551902
 30
0.0
 10
32.95277038466211
 20
-4.321105378989941
 30
0.0
 10
29.52374036800214
 20
-2.725389912226108
 30
0.0
 10
26.0947681381501
 20
-1.063228324605636
 30
0.0
 10
22.66591522011344
 20
0.6230595745726015
 30
0.0
 10
19.68937810102209
 20
2.079102440625736
 30
0.0
 10
17.85629688923884
 20
2.942065738174364
 30
0.0
 10
17.16598238008515
 20
3.26704647625383
 30
0.0
  0
LINE
  5
B2
330
1F
100
AcDbEntity
  8
0
  6
Continuous
 62
     1
370
    15
100
AcDbLine
 10
50.09999999999977
 20
-12.05154903924513
 30
0.0
 11
50.10000000000005
 21
-10.01994775747635
 31
0.0
  0
SPLINE
  5
B3
330
1F
100
AcDbEntity
  8
0
  6
Continuous
 62
     1
370
    15
100
AcDbSpline
210
0.0
220
0.0
230
1.0
 70
     8
 71
     3
 72
    44
 73
    40
 74
     0
 42
0.000000001
 43
0.00000001
 40
0.0
 40
0.0
 40
0.0
 40
0.0
 40
0.0625
 40
0.0625
 40
0.1249999999999999
 40
0.1249999999999999
 40
0.1874999999999999
 40
0.1874999999999999
 40
0.2499999999999998
 40
0.2499999999999998
 40
0.3124999999999998
 40
0.3124999999999998
 40
0.3749999999999998
 40
0.3749999999999998
 40
0.4374999999999997
 40
0.4374999999999997
 40
0.4999999999999997
 40
0.4999999999999997
 40
0.5624999999999997
 40
0.5624999999999997
 40
0.6249999999999996
 40
0.6249999999999996
 40
0.6874999999999996
 40
0.6874999999999996
 40
0.7499999999999996
 40
0.7499999999999996
 40
0.7812499999999994
 40
0.7812499999999994
 40
0.8124999999999994
 40
0.8124999999999994
 40
0.8437499999999996
 40
0.8437499999999996
 40
0.8749999999999997
 40
0.8749999999999997
 40
0.9374999999999998
 40
0.9374999999999998
 40
0.9687499999999999
 40
0.9687499999999999
 40
1.0
 40
1.0
 40
1.0
 40
1.0
 10
50.10000000000008
 20
-12.69999999999999
 30
0.0
 10
49.30895787455677
 20
-12.67045007716505
 30
0.0
 10
48.51259063939932
 20
-12.62679180146506
 30
0.0
 10
46.92314963114126
 20
-12.49032776008258
 30
0.0
 10
46.13301252693704
 20
-12.39771592936382
 30
0.0
 10
44.54397570823425
 20
-12.16413301851544
 30
0.0
 10
43.74742603318148
 20
-12.02317103260827
 30
0.0
 10
42.16421841861606
 20
-11.69554951397602
 30
0.0
 10
41.36914480394456
 20
-11.50833221979439
 30
0.0
 10
39.77938353162104
 20
-11.08966134442441
 30
0.0
 10
38.98909608137843
 20
-10.85867131570701
 30
0.0
 10
37.40054730655412
 20
-10.35445701614152
 30
0.0
 10
36.60385747564457
 20
-10.08131043032333
 30
0.0
 10
35.01960932782278
 20
-9.497834478838614
 30
0.0
 10
34.22567985513636
 20
-9.186758043953795
 30
0.0
 10
32.63568230064248
 20
-8.529626778831826
 30
0.0
 10
31.84509418477188
 20
-8.184370900952466
 30
0.0
 10
30.25711722224784
 20
-7.462300566295573
 30
0.0
 10
29.4603295444031
 20
-7.085515887097918
 30
0.0
 10
27.8751238761799
 20
-6.307102904698131
 30
0.0
 10
27.08218886607087
 20
-5.904769220205139
 30
0.0
 10
25.49203905292503
 20
-5.077871122673719
 30
0.0
 10
24.70100000472465
 20
-4.654395065089294
 30
0.0
 10
23.11367852231786
 20
-3.790015924400272
 30
0.0
 10
22.31683532383447
 20
-3.348981530224512
 30
0.0
 10
21.12727531801298
 20
-2.679970581577934
 30
0.0
 10
20.73217557709547
 20
-2.455818424114548
 30
0.0
 10
19.93869437591191
 20
-2.004718034674421
 30
0.0
 10
19.54111040906583
 20
-1.777918541232276
 30
0.0
 10
18.74600139833898
 20
-1.322813607173143
 30
0.0
 10
18.34847720821226
 20
-1.094508655453782
 30
0.0
 10
17.55523424012973
 20
-0.637399450801928
 30
0.0
 10
17.16016111261512
 20
-0.408720092192885
 30
0.0
 10
15.97022427530768
 20
0.2784883661847496
 30
0.0
 10
15.1733678923422
 20
0.7376625064755203
 30
0.0
 10
13.98321463265444
 20
1.42193782692389
 30
0.0
 10
13.58812538721173
 20
1.649135667079277
 30
0.0
 10
12.7950345665974
 20
2.102257568640219
 30
0.0
 10
12.39755054184983
 20
2.328081148602785
 30
0.0
 10
12.00000000000005
 20
2.552668673523864
 30
0.0
  0
SPLINE
  5
B4
330
1F
100
AcDbEntity
  8
0
  6
Continuous
 62
     1
370
    15
100
AcDbSpline
210
0.0
220
0.0
230
1.0
 70
     8
 71
     3
 72
     9
 73
     5
 74
     0
 42
0.000000001
 43
0.00000001
 40
0.0
 40
0.0
 40
0.0
 40
0.0
 40
0.4651838338326702
 40
1.0
 40
1.0
 40
1.0
 40
1.0
 10
18.55312472709928
 20
-1.20991326960384
 30
0.0
 10
17.53698878449053
 20
-0.8008735278341865
 30
0.0
 10
15.35261377249418
 20
0.0784342039060956
 30
0.0
 10
13.16823896175309
 20
0.957336998363135
 30
0.0
 10
12.00000000000005
 20
1.427388421328402
 30
0.0
  0
SPLINE
  5
B5
330
1F
100
AcDbEntity
  8
외형선
  6
Continuous
370
    15
100
AcDbSpline
210
0.0
220
0.0
230
1.0
 70
    24
 71
     3
 72
    11
 73
     7
 74
     0
 42
0.000000001
 43
0.00000001
 40
0.0
 40
0.0
 40
0.0
 40
0.0
 40
0.1871003991443468
 40
0.4478179040205323
 40
0.7160962342003976
 40
1.0
 40
1.0
 40
1.0
 40
1.0
 10
12.00000000000004
 20
2.55161294131904
 30
0.0
 10
12.00000000000004
 20
2.541441149886079
 30
0.0
 10
12.00000000000004
 20
2.517095342285059
 30
0.0
 10
12.00000000000004
 20
2.309805219208136
 30
0.0
 10
12.00000000000004
 20
1.963042498717388
 30
0.0
 10
12.00000000000004
 20
1.609276689852706
 30
0.0
 10
12.00000000000004
 20
1.427388421328403
 30
0.0
  0
LINE
  5
B6
330
1F
100
AcDbEntity
  8
0
  6
Continuous
 62
     1
370
    15
100
AcDbLine
 10
50.10000000000008
 20
-12.69999999999999
 30
0.0
 11
50.09999999999999
 21
-12.05154903924511
 31
0.0
  0
SPLINE
  5
B7
330
1F
100
AcDbEntity
  8
0
  6
Continuous
 62
     1
370
    15
100
AcDbSpline
210
0.0
220
0.0
230
1.0
 70
     8
 71
     3
 72
    10
 73
     6
 74
     0
 42
0.000000001
 43
0.00000001
 40
0.0
 40
0.0
 40
0.0
 40
0.0
 40
0.5
 40
0.5
 40
1.0
 40
1.0
 40
1.0
 40
1.0
 10
50.10000000000004
 20
-3.393985414576483
 30
0.0
 10
49.24940223300549
 20
-2.725276500219905
 30
0.0
 10
48.40743926415037
 20
-2.038875865003507
 30
0.0
 10
46.74054037091931
 20
-0.631188113945532
 30
0.0
 10
45.9156032680789
 20
0.0900965873561361
 30
0.0
 10
45.10000000000172
 20
0.8305052561804257
 30
0.0
  0
LINE
  5
B8
330
1F
100
AcDbEntity
  8
0
  6
Continuous
 62
     1
370
    15
100
AcDbLine
 10
45.10000000000006
 20
2.937719435296589
 30
0.0
 11
50.10000000000005
 21
0.0000000000000028
 31
0.0
  0
LINE
  5
B9
330
1F
100
AcDbEntity
  8
0
  6
Continuous
 62
     1
370
    15
100
AcDbLine
 10
50.10000000000005
 20
0.0000000000000028
 30
0.0
 11
50.10000000000005
 21
-3.393985414576489
 31
0.0
  0
SPLINE
  5
BA
330
1F
100
AcDbEntity
  8
0
  6
Continuous
 62
     1
370
    15
100
AcDbSpline
210
0.0
220
0.0
230
1.0
 70
     8
 71
     3
 72
    17
 73
    13
 74
     0
 42
0.000000001
 43
0.00000001
 40
0.0
 40
0.0
 40
0.0
 40
0.0
 40
0.0823496050411305
 40
0.1647608359498318
 40
0.2715871821723642
 40
0.3784098872384174
 40
0.4852297164135802
 40
0.5920474362087619
 40
0.6988638140487607
 40
0.8056796179399883
 40
0.9183977816017322
 40
1.0
 40
1.0
 40
1.0
 40
1.0
 10
45.10000000000004
 20
2.289784744250642
 30
0.0
 10
44.21891798316175
 20
2.68316338385347
 30
0.0
 10
42.45609459667272
 20
3.470215045769732
 30
0.0
 10
39.54982708528667
 20
4.701767990745088
 30
0.0
 10
36.3819016405822
 20
5.957348369899292
 30
0.0
 10
32.95274305858461
 20
7.17054218114948
 30
0.0
 10
29.52370693170007
 20
8.210356135050414
 30
0.0
 10
26.09474594497057
 20
9.050304675150025
 30
0.0
 10
22.66582207505625
 20
9.673134954749843
 30
0.0
 10
19.17381306762063
 20
10.05955922735358
 30
0.0
 10
15.951424300664
 20
10.2123579921478
 30
0.0
 10
13.8720759139609
 20
10.10826782870654
 30
0.0
 10
12.99888165930248
 20
10.06455657124502
 30
0.0
  0
SPLINE
  5
BB
330
1F
100
AcDbEntity
  8
0
  6
Continuous
 62
     1
370
    15
100
AcDbSpline
210
0.0
220
0.0
230
1.0
 70
    24
 71
     3
 72
     8
 73
     4
 74
     0
 42
0.000000001
 43
0.00000001
 40
0.0
 40
0.0
 40
0.0
 40
0.0
 40
1.0
 40
1.0
 40
1.0
 40
1.0
 10
45.10000000000006
 20
0.8305052561692957
 30
0.0
 10
45.10000000000006
 20
1.322728240362192
 30
0.0
 10
45.10000000000006
 20
1.810406971894825
 30
0.0
 10
45.10000000000006
 20
2.289784744250643
 30
0.0
  0
SPLINE
  5
BC
330
1F
100
AcDbEntity
  8
0
  6
Continuous
 62
     1
370
    15
100
AcDbSpline
210
0.0
220
0.0
230
1.0
 70
    24
 71
     3
 72
    12
 73
     8
 74
     0
 42
0.000000001
 43
0.00000001
 40
0.0
 40
0.0
 40
0.0
 40
0.0
 40
0.5000000000000001
 40
0.5000000000000001
 40
0.75
 40
0.75
 40
1.0
 40
1.0
 40
1.0
 40
1.0
 10
50.10000000000005
 20
-10.01994775747634
 30
0.0
 10
50.10000000000006
 20
-9.251840640348322
 30
0.0
 10
50.10000000000004
 20
-8.28130784561215
 30
0.0
 10
50.10000000000004
 20
-6.589011337313261
 30
0.0
 10
50.10000000000006
 20
-5.986484557406005
 30
0.0
 10
50.10000000000007
 20
-4.725678605577809
 30
0.0
 10
50.10000000000004
 20
-4.067494970664263
 30
0.0
 10
50.10000000000005
 20
-3.393985414576892
 30
0.0
  0
SPLINE
  5
BD
330
1F
100
AcDbEntity
  8
외형선
  6
Continuous
370
    15
100
AcDbSpline
210
0.0
220
0.0
230
1.0
 70
    24
 71
     3
 72
    16
 73
    12
 74
     0
 42
0.000000001
 43
0.00000001
 40
0.0
 40
0.0
 40
0.0
 40
0.0
 40
0.144531682342431
 40
0.2626756519760173
 40
0.3808196216096038
 40
0.5023959291769696
 40
0.6239722367443356
 40
0.7307545476054805
 40
0.8375368584666255
 40
0.9468295017782317
 40
1.0
 40
1.0
 40
1.0
 40
1.0
 10
12.00000000000004
 20
9.989383963406457
 30
0.0
 10
12.00000000000004
 20
9.941759570894751
 30
0.0
 10
12.00000000000004
 20
9.855205756878146
 30
0.0
 10
12.00000000000004
 20
9.570000276744766
 30
0.0
 10
12.00000000000004
 20
9.218641925576861
 30
0.0
 10
12.00000000000004
 20
8.766756336290433
 30
0.0
 10
12.00000000000004
 20
8.240930461771603
 30
0.0
 10
12.00000000000004
 20
7.661026896969589
 30
0.0
 10
12.00000000000004
 20
7.033758942551808
 30
0.0
 10
12.00000000000004
 20
6.467416724534495
 30
0.0
 10
12.00000000000004
 20
6.087275728203469
 30
0.0
 10
12.00000000000004
 20
5.962864209512703
 30
0.0
  0
SPLINE
  5
BE
330
1F
100
AcDbEntity
  8
0
  6
Continuous
 62
     1
370
    15
100
AcDbSpline
210
0.0
220
0.0
230
1.0
 70
    24
 71
     3
 72
    10
 73
     6
 74
     0
 42
0.000000001
 43
0.00000001
 40
0.0
 40
0.0
 40
0.0
 40
0.0
 40
0.5
 40
0.5
 40
1.0
 40
1.0
 40
1.0
 40
1.0
 10
45.10000000000007
 20
2.289784744250639
 30
0.0
 10
45.10000000000007
 20
3.318117051978199
 30
0.0
 10
45.10000000000008
 20
4.293337801787543
 30
0.0
 10
45.10000000000007
 20
6.003026800807382
 30
0.0
 10
45.10000000000007
 20
6.735761112039309
 30
0.0
 10
45.10000000000007
 20
7.298596457508377
 30
0.0
  0
SPLINE
  5
BF
330
1F
100
AcDbEntity
  8
0
  6
Continuous
 62
     1
370
    15
100
AcDbSpline
210
0.0
220
0.0
230
1.0
 70
     8
 71
     3
 72
     9
 73
     5
 74
     0
 42
0.000000001
 43
0.00000001
 40
0.0
 40
0.0
 40
0.0
 40
0.0
 40
0.7256375557636154
 40
1.0
 40
1.0
 40
1.0
 40
1.0
 10
50.10000000000005
 20
8.889999999999997
 30
0.0
 10
48.95671983735986
 20
8.879824013492584
 30
0.0
 10
47.38116720290851
 20
8.865800502131318
 30
0.0
 10
45.80562844779882
 20
8.70498280590182
 30
0.0
 10
45.37335978395777
 20
8.660860469687828
 30
0.0
  0
SPLINE
  5
C0
330
1F
100
AcDbEntity
  8
0
  6
Continuous
 62
     1
370
    15
100
AcDbSpline
210
0.0
220
0.0
230
1.0
 70
     8
 71
     3
 72
     8
 73
     4
 74
     0
 42
0.000000001
 43
0.00000001
 40
0.0
 40
0.0
 40
0.0
 40
0.0
 40
1.0
 40
1.0
 40
1.0
 40
1.0
 10
50.10000000000005
 20
8.890000000000002
 30
0.0
 10
48.41935188656212
 20
8.434389401781292
 30
0.0
 10
46.75204233969722
 20
7.90736356168451
 30
0.0
 10
45.10000000000006
 20
7.298596457508378
 30
0.0
  0
SPLINE
  5
C1
330
1F
100
AcDbEntity
  8
0
  6
Continuous
 62
     1
370
    15
100
AcDbSpline
210
0.0
220
0.0
230
1.0
 70
     8
 71
     3
 72
    11
 73
     7
 74
     0
 42
0.000000001
 43
0.00000001
 40
0.0
 40
0.0
 40
0.0
 40
0.0
 40
0.047592471174764
 40
0.3537821555073192
 40
0.6768910747200607
 40
1.0
 40
1.0
 40
1.0
 40
1.0
 10
23.19879218601193
 20
-9.53644298008085
 30
0.0
 10
23.02113613310989
 20
-9.569214247697499
 30
0.0
 10
21.70051672035006
 20
-9.812821890039755
 30
0.0
 10
19.1738145158653
 20
-10.04778449730008
 30
0.0
 10
15.61846072419854
 20
-10.22170050227391
 30
0.0
 10
13.20615358228242
 20
-10.09268892069099
 30
0.0
 10
12.00000000000005
 20
-10.0281831292939
 30
0.0
  0
SPLINE
  5
C2
330
1F
100
AcDbEntity
  8
외형선
  6
Continuous
370
    15
100
AcDbSpline
210
0.0
220
0.0
230
1.0
 70
    24
 71
     3
 72
    14
 73
    10
 74
     0
 42
0.000000001
 43
0.00000001
 40
0.0
 40
0.0
 40
0.0
 40
0.0
 40
0.25
 40
0.25
 40
0.5
 40
0.5
 40
0.75
 40
0.75
 40
1.0
 40
1.0
 40
1.0
 40
1.0
 10
12.00000000000002
 20
1.427388421328411
 30
0.0
 10
12.00000000000002
 20
0.3039609947000275
 30
0.0
 10
12.00000000000002
 20
-0.8481983035655662
 30
0.0
 10
12.00000000000002
 20
-3.102063151810456
 30
0.0
 10
12.00000000000002
 20
-4.202574900751785
 30
0.0
 10
12.00000000000002
 20
-6.238560242141843
 30
0.0
 10
12.00000000000002
 20
-7.172948976479754
 30
0.0
 10
12.00000000000002
 20
-8.79383146366613
 30
0.0
 10
12.00000000000002
 20
-9.480020473356872
 30
0.0
 10
12.00000000000002
 20
-10.02818312929391
 30
0.0
  0
LINE
  5
C3
330
1F
100
AcDbEntity
  8
0
  6
Continuous
 62
     1
370
    15
100
AcDbLine
 10
50.10000000000005
 20
0.0000000000000028
 30
0.0
 11
50.10000000000005
 21
8.89
 31
0.0
  0
SPLINE
  5
C4
330
1F
100
AcDbEntity
  8
0
  6
Continuous
 62
     1
370
    15
100
AcDbSpline
210
0.0
220
0.0
230
1.0
 70
     8
 71
     3
 72
    14
 73
    10
 74
     0
 42
0.000000001
 43
0.00000001
 40
0.0
 40
0.0
 40
0.0
 40
0.0
 40
0.0395349088680604
 40
0.1995840016693312
 40
0.3597447270707889
 40
0.519832063883284
 40
0.6798445115458419
 40
0.8398709090847968
 40
0.9999999999999999
 40
0.9999999999999999
 40
0.9999999999999999
 40
0.9999999999999999
 10
32.64523157030619
 20
8.51370722121142
 30
0.0
 10
32.87525096547645
 20
8.616414895393218
 30
0.0
 10
34.03645741982413
 20
9.134913842330556
 30
0.0
 10
36.12932448714353
 20
9.924882609533354
 30
0.0
 10
38.92433109122591
 20
10.8633079700949
 30
0.0
 10
41.71860442235958
 20
11.61623017807961
 30
0.0
 10
44.51183270657238
 20
12.18123810069024
 30
0.0
 10
47.30530885981291
 20
12.56378368303344
 30
0.0
 10
49.16823710173139
 20
12.64742971982826
 30
0.0
 10
50.10000000000006
 20
12.70000000000001
 30
0.0
  0
SPLINE
  5
C5
330
1F
100
AcDbEntity
  8
0
  6
Continuous
 62
     1
370
    15
100
AcDbSpline
210
0.0
220
0.0
230
1.0
 70
    24
 71
     3
 72
    10
 73
     6
 74
     0
 42
0.000000001
 43
0.00000001
 40
0.0
 40
0.0
 40
0.0
 40
0.0
 40
0.5
 40
0.5
 40
1.0
 40
1.0
 40
1.0
 40
1.0
 10
50.10000000000005
 20
8.889999999999997
 30
0.0
 10
50.10000000000005
 20
9.428889661452882
 30
0.0
 10
50.10000000000005
 20
10.05512935461238
 30
0.0
 10
50.10000000000007
 20
11.36897854420286
 30
0.0
 10
50.10000000000004
 20
12.05323263467869
 30
0.0
 10
50.10000000000005
 20
12.70000000000001
 30
0.0
  0
LINE
  5
C6
330
1F
100
AcDbEntity
  8
중심선
100
AcDbLine
 10
-54.49999999999994
 20
-0.0000000000000055
 30
0.0
 11
53.10000000000007
 21
0.0000000000000077
 31
0.0
  0
LINE
  5
C7
330
1F
100
AcDbEntity
  8
참조1
100
AcDbLine
 10
-6.73768467149223
 20
0.0010749287238892
 30
0.0
 11
-6.737684671492225
 21
-39.99892507127611
 31
0.0
  0
LINE
  5
C8
330
1F
100
AcDbEntity
  8
참조1
100
AcDbLine
 10
-6.737684671492225
 20
-39.99892507127611
 30
0.0
 11
-15.54395731641845
 21
-39.9989250712761
 31
0.0
  0
CIRCLE
  5
C9
330
1F
100
AcDbEntity
  8
해칭선
100
AcDbCircle
 10
0.0
 20
0.0
 30
0.0
 40
3.000000000000002
  0
INSERT
  5
CA
330
1F
100
AcDbEntity
  8
0
  6
Continuous
 62
     7
100
AcDbBlockReference
 66
     1
  2
블럭10
 10
-14.64027293212515
 20
-52.04717430164393
 30
0.0
  0
ATTRIB
  5
CB
330
CA
100
AcDbEntity
  8
FORMAT
 62
     2
100
AcDbText
 10
-24.78190894426178
 20
-49.97180738881175
 30
0.0
 40
4.233333333333333
  1
EM154064 [ 2 FLUTE ]
 41
0.75
  7
SLDTEXTSTYLE0
 11
-24.78190894426178
 21
-52.08847405547841
 31
0.0
100
AcDbAttribute
  2
AUTOATTR0
 70
     0
 74
     1
  0
SEQEND
  5
CC
330
CA
100
AcDbEntity
  8
0
  6
Continuous
 62
     7
  0
HATCH
  5
CD
330
1F
100
AcDbEntity
  8
중심선
100
AcDbHatch
 10
0.0
 20
0.0
 30
0.0
210
0.0
220
0.0
230
1.0
  2
SOLID
 70
     1
 71
     0
 91
        1
 92
        0
 93
        4
 72
     1
 10
-8.925363627744304
 20
-35.8
 11
-12.37163887158158
 21
-35.8
 72
     1
 10
-12.37163887158158
 20
-35.8
 11
-14.49986873078561
 21
-38.33632558057257
 72
     1
 10
-14.49986873078561
 20
-38.33632558057257
 11
-11.05356040183518
 21
-38.33628615127008
 72
     1
 10
-11.05356040183518
 20
-38.33628615127008
 11
-8.925363627744304
 21
-35.8
 97
        0
 75
     0
 76
     1
 98
        1
 10
6.037684671492284
 20
-0.0010749287238951
  0
HATCH
  5
CE
330
1F
100
AcDbEntity
  8
중심선
100
AcDbHatch
 10
0.0
 20
0.0
 30
0.0
210
0.0
220
0.0
230
1.0
  2
SOLID
 70
     1
 71
     0
 91
        1
 92
        0
 93
        4
 72
     1
 10
-3.912599636708324
 20
-35.80000000000003
 11
-7.358874880545605
 21
-35.79999999999998
 72
     1
 10
-7.358874880545605
 20
-35.79999999999998
 11
-11.89001288890302
 21
-41.20000000000002
 72
     1
 10
-11.89001288890302
 20
-41.20000000000002
 11
-8.443737645065742
 21
-41.20000000000002
 72
     1
 10
-8.443737645065742
 20
-41.20000000000002
 11
-3.912599636708325
 21
-35.80000000000003
 97
        0
 75
     0
 76
     1
 98
        1
 10
6.037684671492284
 20
-0.0010749287238951
  0
HATCH
  5
CF
330
1F
100
AcDbEntity
  8
중심선
100
AcDbHatch
 10
0.0
 20
0.0
 30
0.0
210
0.0
220
0.0
230
1.0
  2
SOLID
 70
     1
 71
     0
 91
        1
 92
        0
 93
        4
 72
     1
 10
1.100164354327544
 20
-35.8
 11
-2.346110889509544
 21
-35.8
 72
     1
 10
-2.346110889509544
 20
-35.8
 11
-9.394547791398821
 21
-44.20000000000002
 72
     1
 10
-9.394547791398821
 20
-44.20000000000002
 11
-5.94827254756154
 21
-44.20000000000002
 72
     1
 10
-5.948272547561539
 20
-44.20000000000002
 11
1.100164354327544
 21
-35.8
 97
        0
 75
     0
 76
     1
 98
        1
 10
6.037684671492284
 20
-0.0010749287238951
  0
HATCH
  5
D0
330
1F
100
AcDbEntity
  8
중심선
100
AcDbHatch
 10
0.0
 20
0.0
 30
0.0
210
0.0
220
0.0
230
1.0
  2
SOLID
 70
     1
 71
     0
 91
        1
 92
        0
 93
        6
 72
     3
 10
5.900054785339743
 20
-40.00000000005127
 11
3.960054785062284
 21
1.540882976769353E-10
 40
0.3939339440162627
 50
17.09539180608437
 51
320.0019657685075
 73
     0
 72
     1
 10
7.583054441040339
 20
-38.58789400463827
 11
9.888356314741404
 21
-36.65356729459035
 72
     3
 10
5.900054785286897
 20
-40.00000000000015
 11
6.60005478528683
 21
-1.278976924368180E-13
 40
0.636358354079598
 50
39.99873849337413
 51
368.4976242363725
 73
     1
 72
     1
 10
12.32538727718751
 20
-39.03999999993002
 11
4.580122092122819
 21
-39.03999999993002
 72
     1
 10
4.580122092122819
 20
-39.03999999993002
 11
4.580097047676885
 21
-40.95999999992991
 72
     1
 10
4.580097047676885
 20
-40.95999999992991
 11
9.021476817148923
 21
-40.95999999992988
 97
        0
 75
     0
 76
     1
 98
        1
 10
6.037684671492284
 20
-0.0010749287238951
  0
DIMENSION
  5
D1
330
1F
100
AcDbEntity
  8
치수문자_일반주서
100
AcDbDimension
  2
_D
 10
-63.92999999999989
 20
-12.70000000000007
 30
0.0
 11
-63.92999999999994
 21
-0.000000000000015
 31
0.0
 70
   160
  1
%%c<>
 71
     2
 42
25.40000000000001
 52
-270.0
  3
SLDDIMSTYLE0
100
AcDbAlignedDimension
 13
-50.49999999999995
 23
12.69999999999999
 33
0.0
 14
-50.49999999999995
 24
-12.70000000000002
 34
0.0
 50
90.0000000000002
100
AcDbRotatedDimension
1001
ACAD
1000
DSTYLE
1002
{
1070
   171
1070
     6
1070
   273
1070
     7
1002
}
  0
DIMENSION
  5
E6
330
1F
100
AcDbEntity
  8
치수문자_일반주서
100
AcDbDimension
  2
_D_1
 10
74.80556031021186
 20
-12.6999999999999
 30
0.0
 11
74.80556031021172
 21
30.4602500000001
 31
0.0
 70
   160
  1
%%c<>
 71
     2
 42
25.4
 52
-270.0
  3
SLDDIMSTYLE0
100
AcDbAlignedDimension
 13
50.10000000000006
 23
12.70000000000001
 33
0.0
 14
50.10000000000008
 24
-12.69999999999999
 34
0.0
 50
90.0000000000002
100
AcDbRotatedDimension
1001
ACAD
1000
DSTYLE
1002
{
1070
   171
1070
     6
1070
   273
1070
     7
1002
}
  0
DIMENSION
  5
FB
330
1F
100
AcDbEntity
  8
치수문자_일반주서
100
AcDbDimension
  2
_D_2
 10
12.00000000000005
 20
24.13645082958879
 30
0.0
 11
-18.82918442283773
 21
24.13645082958879
 31
0.0
 70
   160
  1
<>
 71
     2
 42
38.10000000000001
  3
SLDDIMSTYLE0
100
AcDbAlignedDimension
 13
50.10000000000005
 23
12.70000000000001
 33
0.0
 14
12.00000000000004
 24
10.04259315903132
 34
0.0
 50
0.0000000000000214
100
AcDbRotatedDimension
1001
ACAD
1000
DSTYLE
1002
{
1070
   171
1070
     6
1070
   273
1070
     7
1002
}
  0
DIMENSION
  5
110
330
1F
100
AcDbEntity
  8
치수문자_일반주서
100
AcDbDimension
  2
_D_3
 10
-51.49999999999996
 20
46.74592844013392
 30
0.0
 11
-0.699999999999954
 21
46.74592844013392
 31
0.0
 70
   160
  1
<>
 71
     2
 42
101.6
  3
SLDDIMSTYLE0
100
AcDbAlignedDimension
 13
50.10000000000005
 23
12.70000000000001
 33
0.0
 14
-51.49999999999995
 24
11.69999999999999
 34
0.0
100
AcDbRotatedDimension
1001
ACAD
1000
DSTYLE
1002
{
1070
   171
1070
     6
1070
   273
1070
     7
1002
}
  0
LINE
  5
123
330
1F
100
AcDbEntity
  8
참조1
100
AcDbLine
 10
82.42838331323583
 20
7.441074928723896
 30
0.0
 11
82.42838331323583
 21
-7.438925071276109
 31
0.0
  0
LINE
  5
124
330
1F
100
AcDbEntity
  8
참조1
100
AcDbLine
 10
95.12838331323583
 20
5.441074928723896
 30
0.0
 11
82.42838331323583
 21
5.441074928723896
 31
0.0
  0
SOLID
  5
125
330
1F
100
AcDbEntity
  8
참조1
100
AcDbTrace
 10
82.42838331323583
 20
5.441074928723896
 30
0.0
 11
88.77838331323582
 21
4.425074928723896
 31
0.0
 12
88.77838331323582
 22
6.457074928723896
 32
0.0
 13
88.77838331323582
 23
6.457074928723896
 33
0.0
  0
LINE
  5
126
330
1F
100
AcDbEntity
  8
참조1
100
AcDbLine
 10
95.12838331323583
 20
-5.438925071276109
 30
0.0
 11
82.42838331323583
 21
-5.438925071276109
 31
0.0
  0
SOLID
  5
127
330
1F
100
AcDbEntity
  8
참조1
100
AcDbTrace
 10
82.42838331323583
 20
-5.438925071276109
 30
0.0
 11
88.77838331323582
 21
-6.454925071276109
 31
0.0
 12
88.77838331323582
 22
-4.422925071276109
 32
0.0
 13
88.77838331323582
 23
-4.422925071276109
 33
0.0
  0
MTEXT
  5
128
330
1F
100
AcDbEntity
  8
참조1
100
AcDbMText
 10
91.82587340570609
 20
10.98929157337383
 30
0.0
 40
3.5
 41
0.0
 71
     1
 72
     1
  1
A
  7
SLDTEXTSTYLE0
 73
     1
 44
1.0
  0
MTEXT
  5
129
330
1F
100
AcDbEntity
  8
참조1
100
AcDbMText
 10
91.82587340570609
 20
0.1092915733738259
 30
0.0
 40
3.5
 41
0.0
 71
     1
 72
     1
  1
A
  7
SLDTEXTSTYLE0
 73
     1
 44
1.0
  0
INSERT
  5
130
330
1F
100
AcDbEntity
  8
해칭선
100
AcDbBlockReference
  2
SW_DOWELSYMBOL_0
 10
0.0
 20
0.0
 30
0.0
  0
ENDSEC
  0
SECTION
  2
OBJECTS
  0
DICTIONARY
  5
C
330
0
100
AcDbDictionary
281
     1
  3
ACAD_GROUP
350
D
  3
ACAD_IMAGE_VARS
350
154
  3
ACAD_LAYOUT
350
1A
  3
ACAD_MLINESTYLE
350
17
  3
ACAD_PLOTSETTINGS
350
19
  3
ACAD_PLOTSTYLENAME
350
E
  3
ACAD_SCALELIST
350
47
  3
APPDATA
350
152
  3
DWGPROPS
350
18A
  0
DICTIONARY
  5
17B
330
2
100
AcDbDictionary
280
     1
281
     1
  3
ACAD_LAYERSTATES
360
17C
  0
DICTIONARY
  5
D
102
{ACAD_REACTORS
330
C
102
}
330
C
100
AcDbDictionary
281
     1
  0
RASTERVARIABLES
  5
154
102
{ACAD_REACTORS
330
C
102
}
330
C
100
AcDbRasterVariables
 90
        0
 70
     1
 71
     1
 72
     1
  0
DICTIONARY
  5
1A
102
{ACAD_REACTORS
330
C
102
}
330
C
100
AcDbDictionary
281
     1
  3
Layout1
350
1E
  3
Layout2
350
26
  3
Model
350
22
  0
DICTIONARY
  5
17
102
{ACAD_REACTORS
330
C
102
}
330
C
100
AcDbDictionary
281
     1
  3
Standard
350
18
  0
DICTIONARY
  5
19
102
{ACAD_REACTORS
330
C
102
}
330
C
100
AcDbDictionary
281
     1
  0
ACDBDICTIONARYWDFLT
  5
E
102
{ACAD_REACTORS
330
C
102
}
330
C
100
AcDbDictionary
281
     1
  3
Normal
350
F
100
AcDbDictionaryWithDefault
340
F
  0
DICTIONARY
  5
47
102
{ACAD_REACTORS
330
C
102
}
330
C
100
AcDbDictionary
281
     1
  3
A0
350
48
  3
A1
350
49
  3
A2
350
4A
  3
A3
350
4B
  3
A4
350
4C
  3
A5
350
4D
  3
A6
350
4E
  3
A7
350
4F
  3
A8
350
50
  3
A9
350
51
  3
B0
350
52
  3
B1
350
53
  3
B2
350
54
  3
B3
350
55
  3
B4
350
56
  3
B5
350
57
  3
B6
350
58
  3
B7
350
59
  3
B8
350
5A
  3
B9
350
5B
  3
C0
350
5C
  3
C1
350
5D
  3
C2
350
5E
  3
C3
350
5F
  3
C4
350
60
  3
C5
350
61
  3
C6
350
62
  3
C7
350
63
  3
C8
350
64
  3
C9
350
65
  3
D0
350
66
  3
D1
350
67
  3
D2
350
68
  0
DICTIONARY
  5
152
102
{ACAD_REACTORS
330
C
102
}
330
C
100
AcDbDictionary
281
     1
  0
XRECORD
  5
18A
102
{ACAD_REACTORS
330
C
102
}
330
C
100
AcDbXrecord
280
     1
  1
DWGPROPS COOKIE
  2

  3

  4

  6

  7

  8
12017012
  9

300
=
301
=
302
=
303
=
304
=
305
=
306
=
307
=
308
=
309
=
 40
0.0
 41
2458288.371644097
 42
2458294.326925926
  1

 90
        0
  0
DICTIONARY
  5
17C
102
{ACAD_REACTORS
330
17B
102
}
330
17B
100
AcDbDictionary
281
     1
  0
LAYOUT
  5
1E
102
{ACAD_REACTORS
330
1A
102
}
330
1A
100
AcDbPlotSettings
  1

  2
none_device
  4

  6

 40
0.0
 41
0.0
 42
0.0
 43
0.0
 44
0.0
 45
0.0
 46
0.0
 47
0.0
 48
0.0
 49
0.0
140
0.0
141
0.0
142
1.0
143
1.0
 70
   688
 72
     1
 73
     0
 74
     5
  7

 75
    16
147
1.0
148
0.0
149
0.0
100
AcDbLayout
  1
Layout1
 70
     1
 71
     1
 10
0.0
 20
0.0
 11
420.0
 21
297.0
 12
0.0
 22
0.0
 32
0.0
 14
1.000000000000000E+20
 24
1.000000000000000E+20
 34
1.000000000000000E+20
 15
-1.000000000000000E+20
 25
-1.000000000000000E+20
 35
-1.000000000000000E+20
146
0.0
 13
0.0
 23
0.0
 33
0.0
 16
1.0
 26
0.0
 36
0.0
 17
0.0
 27
1.0
 37
0.0
 76
     0
330
1B
  0
LAYOUT
  5
26
102
{ACAD_REACTORS
330
1A
102
}
330
1A
100
AcDbPlotSettings
  1

  2
none_device
  4

  6

 40
0.0
 41
0.0
 42
0.0
 43
0.0
 44
0.0
 45
0.0
 46
0.0
 47
0.0
 48
0.0
 49
0.0
140
0.0
141
0.0
142
1.0
143
1.0
 70
   688
 72
     1
 73
     0
 74
     5
  7

 75
    16
147
1.0
148
0.0
149
0.0
100
AcDbLayout
  1
Layout2
 70
     1
 71
     2
 10
0.0
 20
0.0
 11
0.0
 21
0.0
 12
0.0
 22
0.0
 32
0.0
 14
0.0
 24
0.0
 34
0.0
 15
0.0
 25
0.0
 35
0.0
146
0.0
 13
0.0
 23
0.0
 33
0.0
 16
1.0
 26
0.0
 36
0.0
 17
0.0
 27
1.0
 37
0.0
 76
     0
330
23
  0
LAYOUT
  5
22
102
{ACAD_REACTORS
330
1A
102
}
330
1A
100
AcDbPlotSettings
  1

  2
none_device
  4
ANSI_A_(11.00_x_8.50_Inches)
  6

 40
6.35
 41
19.05
 42
6.35000508
 43
19.05000254
 44
279.4
 45
215.9
 46
96.71020781905403
 47
84.60414964632025
 48
0.0
 49
0.0
140
0.0
141
0.0
142
0.0495599371803182
143
1.0
 70
  1696
 72
     0
 73
     0
 74
     0
  7

 75
     0
147
0.0235690232323232
148
0.0
149
0.0
100
AcDbLayout
  1
Model
 70
     1
 71
     0
 10
0.0
 20
0.0
 11
420.0
 21
297.0
 12
0.0
 22
0.0
 32
0.0
 14
1.000000000000000E+20
 24
1.000000000000000E+20
 34
1.000000000000000E+20
 15
-1.000000000000000E+20
 25
-1.000000000000000E+20
 35
-1.000000000000000E+20
146
0.0
 13
0.0
 23
0.0
 33
0.0
 16
1.0
 26
0.0
 36
0.0
 17
0.0
 27
1.0
 37
0.0
 76
     0
330
1F
331
29
  0
MLINESTYLE
  5
18
102
{ACAD_REACTORS
330
17
102
}
330
17
100
AcDbMlineStyle
  2
Standard
 70
     0
  3

 62
   256
 51
90.0
 52
90.0
 71
     2
 49
0.5
 62
   256
  6
BYLAYER
 49
-0.5
 62
   256
  6
BYLAYER
  0
ACDBPLACEHOLDER
  5
F
102
{ACAD_REACTORS
330
E
102
}
330
E
  0
SCALE
  5
48
102
{ACAD_REACTORS
330
47
102
}
330
47
100
AcDbScale
 70
     0
300
1:1
140
1.0
141
1.0
290
     1
  0
SCALE
  5
49
102
{ACAD_REACTORS
330
47
102
}
330
47
100
AcDbScale
 70
     0
300
1:2
140
1.0
141
2.0
290
     0
  0
SCALE
  5
4A
102
{ACAD_REACTORS
330
47
102
}
330
47
100
AcDbScale
 70
     0
300
1:4
140
1.0
141
4.0
290
     0
  0
SCALE
  5
4B
102
{ACAD_REACTORS
330
47
102
}
330
47
100
AcDbScale
 70
     0
300
1:5
140
1.0
141
5.0
290
     0
  0
SCALE
  5
4C
102
{ACAD_REACTORS
330
47
102
}
330
47
100
AcDbScale
 70
     0
300
1:8
140
1.0
141
8.0
290
     0
  0
SCALE
  5
4D
102
{ACAD_REACTORS
330
47
102
}
330
47
100
AcDbScale
 70
     0
300
1:10
140
1.0
141
10.0
290
     0
  0
SCALE
  5
4E
102
{ACAD_REACTORS
330
47
102
}
330
47
100
AcDbScale
 70
     0
300
1:16
140
1.0
141
16.0
290
     0
  0
SCALE
  5
4F
102
{ACAD_REACTORS
330
47
102
}
330
47
100
AcDbScale
 70
     0
300
1:20
140
1.0
141
20.0
290
     0
  0
SCALE
  5
50
102
{ACAD_REACTORS
330
47
102
}
330
47
100
AcDbScale
 70
     0
300
1:30
140
1.0
141
30.0
290
     0
  0
SCALE
  5
51
102
{ACAD_REACTORS
330
47
102
}
330
47
100
AcDbScale
 70
     0
300
1:40
140
1.0
141
40.0
290
     0
  0
SCALE
  5
52
102
{ACAD_REACTORS
330
47
102
}
330
47
100
AcDbScale
 70
     0
300
1:50
140
1.0
141
50.0
290
     0
  0
SCALE
  5
53
102
{ACAD_REACTORS
330
47
102
}
330
47
100
AcDbScale
 70
     0
300
1:100
140
1.0
141
100.0
290
     0
  0
SCALE
  5
54
102
{ACAD_REACTORS
330
47
102
}
330
47
100
AcDbScale
 70
     0
300
2:1
140
2.0
141
1.0
290
     0
  0
SCALE
  5
55
102
{ACAD_REACTORS
330
47
102
}
330
47
100
AcDbScale
 70
     0
300
4:1
140
4.0
141
1.0
290
     0
  0
SCALE
  5
56
102
{ACAD_REACTORS
330
47
102
}
330
47
100
AcDbScale
 70
     0
300
8:1
140
8.0
141
1.0
290
     0
  0
SCALE
  5
57
102
{ACAD_REACTORS
330
47
102
}
330
47
100
AcDbScale
 70
     0
300
10:1
140
10.0
141
1.0
290
     0
  0
SCALE
  5
58
102
{ACAD_REACTORS
330
47
102
}
330
47
100
AcDbScale
 70
     0
300
100:1
140
100.0
141
1.0
290
     0
  0
SCALE
  5
59
102
{ACAD_REACTORS
330
47
102
}
330
47
100
AcDbScale
 70
     0
300
1/128" = 1'-0"
140
0.0078125
141
12.0
290
     0
  0
SCALE
  5
5A
102
{ACAD_REACTORS
330
47
102
}
330
47
100
AcDbScale
 70
     0
300
1/64" = 1'-0"
140
0.015625
141
12.0
290
     0
  0
SCALE
  5
5B
102
{ACAD_REACTORS
330
47
102
}
330
47
100
AcDbScale
 70
     0
300
1/32" = 1'-0"
140
0.03125
141
12.0
290
     0
  0
SCALE
  5
5C
102
{ACAD_REACTORS
330
47
102
}
330
47
100
AcDbScale
 70
     0
300
1/16" = 1'-0"
140
0.0625
141
12.0
290
     0
  0
SCALE
  5
5D
102
{ACAD_REACTORS
330
47
102
}
330
47
100
AcDbScale
 70
     0
300
3/32" = 1'-0"
140
0.09375
141
12.0
290
     0
  0
SCALE
  5
5E
102
{ACAD_REACTORS
330
47
102
}
330
47
100
AcDbScale
 70
     0
300
1/8" = 1'-0"
140
0.125
141
12.0
290
     0
  0
SCALE
  5
5F
102
{ACAD_REACTORS
330
47
102
}
330
47
100
AcDbScale
 70
     0
300
3/16" = 1'-0"
140
0.1875
141
12.0
290
     0
  0
SCALE
  5
60
102
{ACAD_REACTORS
330
47
102
}
330
47
100
AcDbScale
 70
     0
300
1/4" = 1'-0"
140
0.25
141
12.0
290
     0
  0
SCALE
  5
61
102
{ACAD_REACTORS
330
47
102
}
330
47
100
AcDbScale
 70
     0
300
3/8" = 1'-0"
140
0.375
141
12.0
290
     0
  0
SCALE
  5
62
102
{ACAD_REACTORS
330
47
102
}
330
47
100
AcDbScale
 70
     0
300
1/2" = 1'-0"
140
0.5
141
12.0
290
     0
  0
SCALE
  5
63
102
{ACAD_REACTORS
330
47
102
}
330
47
100
AcDbScale
 70
     0
300
3/4" = 1'-0"
140
0.75
141
12.0
290
     0
  0
SCALE
  5
64
102
{ACAD_REACTORS
330
47
102
}
330
47
100
AcDbScale
 70
     0
300
1" = 1'-0"
140
1.0
141
12.0
290
     0
  0
SCALE
  5
65
102
{ACAD_REACTORS
330
47
102
}
330
47
100
AcDbScale
 70
     0
300
1-1/2" = 1'-0"
140
1.5
141
12.0
290
     0
  0
SCALE
  5
66
102
{ACAD_REACTORS
330
47
102
}
330
47
100
AcDbScale
 70
     0
300
3" = 1'-0"
140
3.0
141
12.0
290
     0
  0
SCALE
  5
67
102
{ACAD_REACTORS
330
47
102
}
330
47
100
AcDbScale
 70
     0
300
6" = 1'-0"
140
6.0
141
12.0
290
     0
  0
SCALE
  5
68
102
{ACAD_REACTORS
330
47
102
}
330
47
100
AcDbScale
 70
     0
300
1'-0" = 1'-0"
140
12.0
141
12.0
290
     0
  0
ENDSEC
  0
EOF
