  0
SECTION
  2
HEADER
  9
$ACADVER
  1
AC1015
  9
$ACADMAINTVER
 70
     6
  9
$DWGCODEPAGE
  3
ANSI_949
  9
$INSBASE
 10
0.0
 20
0.0
 30
0.0
  9
$EXTMIN
 10
1.000000000000000E+20
 20
1.000000000000000E+20
 30
1.000000000000000E+20
  9
$EXTMAX
 10
-1.000000000000000E+20
 20
-1.000000000000000E+20
 30
-1.000000000000000E+20
  9
$LIMMIN
 10
0.0
 20
0.0
  9
$LIMMAX
 10
420.0
 20
297.0
  9
$ORTHOMODE
 70
     1
  9
$REGENMODE
 70
     1
  9
$FILLMODE
 70
     1
  9
$QTEXTMODE
 70
     0
  9
$MIRRTEXT
 70
     1
  9
$LTSCALE
 40
1.0
  9
$ATTMODE
 70
     1
  9
$TEXTSIZE
 40
3.5
  9
$TRACEWID
 40
1.0
  9
$TEXTSTYLE
  7
Standard
  9
$CLAYER
  8
0
  9
$CELTYPE
  6
ByLayer
  9
$CECOLOR
 62
   256
  9
$CELTSCALE
 40
1.0
  9
$DISPSILH
 70
     0
  9
$DIMSCALE
 40
1.0
  9
$DIMASZ
 40
3.302
  9
$DIMEXO
 40
1.0
  9
$DIMDLI
 40
3.75
  9
$DIMRND
 40
0.0
  9
$DIMDLE
 40
0.0
  9
$DIMEXE
 40
1.0
  9
$DIMTP
 40
0.0
  9
$DIMTM
 40
0.0
  9
$DIMTXT
 40
3.5
  9
$DIMCEN
 40
2.5
  9
$DIMTSZ
 40
0.0
  9
$DIMTOL
 70
     0
  9
$DIMLIM
 70
     0
  9
$DIMTIH
 70
     1
  9
$DIMTOH
 70
     1
  9
$DIMSE1
 70
     0
  9
$DIMSE2
 70
     0
  9
$DIMTAD
 70
     1
  9
$DIMZIN
 70
     0
  9
$DIMBLK
  1

  9
$DIMASO
 70
     1
  9
$DIMSHO
 70
     1
  9
$DIMPOST
  1

  9
$DIMAPOST
  1

  9
$DIMALT
 70
     0
  9
$DIMALTD
 70
     3
  9
$DIMALTF
 40
0.0393700787401575
  9
$DIMLFAC
 40
1.0
  9
$DIMTOFL
 70
     1
  9
$DIMTVP
 40
0.0
  9
$DIMTIX
 70
     0
  9
$DIMSOXD
 70
     0
  9
$DIMSAH
 70
     0
  9
$DIMBLK1
  1

  9
$DIMBLK2
  1

  9
$DIMSTYLE
  2
ISO-25
  9
$DIMCLRD
 70
     0
  9
$DIMCLRE
 70
     0
  9
$DIMCLRT
 70
     0
  9
$DIMTFAC
 40
1.0
  9
$DIMGAP
 40
1.524
  9
$DIMJUST
 70
     0
  9
$DIMSD1
 70
     0
  9
$DIMSD2
 70
     0
  9
$DIMTOLJ
 70
     0
  9
$DIMTZIN
 70
     0
  9
$DIMALTZ
 70
     0
  9
$DIMALTTZ
 70
     0
  9
$DIMUPT
 70
     0
  9
$DIMDEC
 70
     2
  9
$DIMTDEC
 70
     2
  9
$DIMALTU
 70
     2
  9
$DIMALTTD
 70
     3
  9
$DIMTXSTY
  7
Standard
  9
$DIMAUNIT
 70
     0
  9
$DIMADEC
 70
     2
  9
$DIMALTRND
 40
0.0
  9
$DIMAZIN
 70
     0
  9
$DIMDSEP
 70
    44
  9
$DIMATFIT
 70
     3
  9
$DIMFRAC
 70
     0
  9
$DIMLDRBLK
  1

  9
$DIMLUNIT
 70
     2
  9
$DIMLWD
 70
    -2
  9
$DIMLWE
 70
    -2
  9
$DIMTMOVE
 70
     0
  9
$LUNITS
 70
     2
  9
$LUPREC
 70
     2
  9
$SKETCHINC
 40
1.0
  9
$FILLETRAD
 40
10.0
  9
$AUNITS
 70
     0
  9
$AUPREC
 70
     2
  9
$MENU
  1
.
  9
$ELEVATION
 40
0.0
  9
$PELEVATION
 40
0.0
  9
$THICKNESS
 40
0.0
  9
$LIMCHECK
 70
     0
  9
$CHAMFERA
 40
0.0
  9
$CHAMFERB
 40
0.0
  9
$CHAMFERC
 40
0.0
  9
$CHAMFERD
 40
0.0
  9
$SKPOLY
 70
     0
  9
$TDCREATE
 40
2458288.746832951
  9
$TDUCREATE
 40
2458288.371832951
  9
$TDUPDATE
 40
2458294.7271764
  9
$TDUUPDATE
 40
2458294.3521764
  9
$TDINDWG
 40
0.0006751042
  9
$TDUSRTIMER
 40
2458294.35093375
  9
$USRTIMER
 70
     1
  9
$ANGBASE
 50
0.0
  9
$ANGDIR
 70
     0
  9
$PDMODE
 70
     0
  9
$PDSIZE
 40
-1.0
  9
$PLINEWID
 40
0.0
  9
$SPLFRAME
 70
     0
  9
$SPLINETYPE
 70
     6
  9
$SPLINESEGS
 70
     8
  9
$HANDSEED
  5
19D
  9
$SURFTAB1
 70
     6
  9
$SURFTAB2
 70
     6
  9
$SURFTYPE
 70
     6
  9
$SURFU
 70
     6
  9
$SURFV
 70
     6
  9
$UCSBASE
  2

  9
$UCSNAME
  2

  9
$UCSORG
 10
0.0
 20
0.0
 30
0.0
  9
$UCSXDIR
 10
1.0
 20
0.0
 30
0.0
  9
$UCSYDIR
 10
0.0
 20
1.0
 30
0.0
  9
$UCSORTHOREF
  2

  9
$UCSORTHOVIEW
 70
     0
  9
$UCSORGTOP
 10
0.0
 20
0.0
 30
0.0
  9
$UCSORGBOTTOM
 10
0.0
 20
0.0
 30
0.0
  9
$UCSORGLEFT
 10
0.0
 20
0.0
 30
0.0
  9
$UCSORGRIGHT
 10
0.0
 20
0.0
 30
0.0
  9
$UCSORGFRONT
 10
0.0
 20
0.0
 30
0.0
  9
$UCSORGBACK
 10
0.0
 20
0.0
 30
0.0
  9
$PUCSBASE
  2

  9
$PUCSNAME
  2

  9
$PUCSORG
 10
0.0
 20
0.0
 30
0.0
  9
$PUCSXDIR
 10
1.0
 20
0.0
 30
0.0
  9
$PUCSYDIR
 10
0.0
 20
1.0
 30
0.0
  9
$PUCSORTHOREF
  2

  9
$PUCSORTHOVIEW
 70
     0
  9
$PUCSORGTOP
 10
0.0
 20
0.0
 30
0.0
  9
$PUCSORGBOTTOM
 10
0.0
 20
0.0
 30
0.0
  9
$PUCSORGLEFT
 10
0.0
 20
0.0
 30
0.0
  9
$PUCSORGRIGHT
 10
0.0
 20
0.0
 30
0.0
  9
$PUCSORGFRONT
 10
0.0
 20
0.0
 30
0.0
  9
$PUCSORGBACK
 10
0.0
 20
0.0
 30
0.0
  9
$USERI1
 70
     0
  9
$USERI2
 70
     0
  9
$USERI3
 70
     0
  9
$USERI4
 70
     0
  9
$USERI5
 70
     0
  9
$USERR1
 40
0.0
  9
$USERR2
 40
0.0
  9
$USERR3
 40
0.0
  9
$USERR4
 40
0.0
  9
$USERR5
 40
0.0
  9
$WORLDVIEW
 70
     1
  9
$SHADEDGE
 70
     3
  9
$SHADEDIF
 70
    70
  9
$TILEMODE
 70
     1
  9
$MAXACTVP
 70
    64
  9
$PINSBASE
 10
0.0
 20
0.0
 30
0.0
  9
$PLIMCHECK
 70
     0
  9
$PEXTMIN
 10
1.000000000000000E+20
 20
1.000000000000000E+20
 30
1.000000000000000E+20
  9
$PEXTMAX
 10
-1.000000000000000E+20
 20
-1.000000000000000E+20
 30
-1.000000000000000E+20
  9
$PLIMMIN
 10
0.0
 20
0.0
  9
$PLIMMAX
 10
0.0
 20
0.0
  9
$UNITMODE
 70
     0
  9
$VISRETAIN
 70
     1
  9
$PLINEGEN
 70
     0
  9
$PSLTSCALE
 70
     1
  9
$TREEDEPTH
 70
  3020
  9
$CMLSTYLE
  2
Standard
  9
$CMLJUST
 70
     0
  9
$CMLSCALE
 40
20.0
  9
$PROXYGRAPHICS
 70
     1
  9
$MEASUREMENT
 70
     1
  9
$CELWEIGHT
370
    -1
  9
$ENDCAPS
280
     0
  9
$JOINSTYLE
280
     0
  9
$LWDISPLAY
290
     1
  9
$INSUNITS
 70
     4
  9
$HYPERLINKBASE
  1

  9
$STYLESHEET
  1

  9
$XEDIT
290
     1
  9
$CEPSNTYPE
380
     0
  9
$PSTYLEMODE
290
     1
  9
$FINGERPRINTGUID
  2
{29BC397B-A293-48C2-868C-BBD9D01EB0C1}
  9
$VERSIONGUID
  2
{FAEB1C32-E019-11D5-929B-00C0DF256EC4}
  9
$EXTNAMES
290
     1
  9
$PSVPSCALE
 40
0.0
  9
$OLESTARTUP
290
     0
  0
ENDSEC
  0
SECTION
  2
CLASSES
  0
CLASS
  1
ACDBDICTIONARYWDFLT
  2
AcDbDictionaryWithDefault
  3
ObjectDBX Classes
 90
        0
280
     0
281
     0
  0
CLASS
  1
VISUALSTYLE
  2
AcDbVisualStyle
  3
ObjectDBX Classes
 90
     4095
280
     0
281
     0
  0
CLASS
  1
MATERIAL
  2
AcDbMaterial
  3
ObjectDBX Classes
 90
     1153
280
     0
281
     0
  0
CLASS
  1
SCALE
  2
AcDbScale
  3
ObjectDBX Classes
 90
     1153
280
     0
281
     0
  0
CLASS
  1
SUN
  2
AcDbSun
  3
SCENEOE
 90
     1153
280
     0
281
     0
  0
CLASS
  1
ACDBPLACEHOLDER
  2
AcDbPlaceHolder
  3
ObjectDBX Classes
 90
        0
280
     0
281
     0
  0
CLASS
  1
LAYOUT
  2
AcDbLayout
  3
ObjectDBX Classes
 90
        0
280
     0
281
     0
  0
CLASS
  1
TABLESTYLE
  2
AcDbTableStyle
  3
ObjectDBX Classes
 90
     4095
280
     0
281
     0
  0
CLASS
  1
MLEADERSTYLE
  2
AcDbMLeaderStyle
  3
ACDB_MLEADERSTYLE_CLASS
 90
     4095
280
     0
281
     0
  0
CLASS
  1
RASTERVARIABLES
  2
AcDbRasterVariables
  3
ISM
 90
        0
280
     0
281
     0
  0
ENDSEC
  0
SECTION
  2
TABLES
  0
TABLE
  2
VPORT
  5
8
330
0
100
AcDbSymbolTable
 70
     1
  0
VPORT
  5
29
330
8
100
AcDbSymbolTableRecord
100
AcDbViewportTableRecord
  2
*Active
 70
     0
 10
0.0
 20
0.0
 11
1.0
 21
1.0
 12
5.935723345998312
 22
17.16361025742836
 13
0.0
 23
0.0
 14
10.0
 24
10.0
 15
10.0
 25
10.0
 16
0.0
 26
0.0
 36
1.0
 17
0.0
 27
0.0
 37
0.0
 40
168.3053992278117
 41
1.859099804305284
 42
50.0
 43
0.0
 44
0.0
 50
0.0
 51
0.0
 71
    16
 72
  2000
 73
     1
 74
     3
 75
     0
 76
     0
 77
     0
 78
     0
281
     0
 65
     1
110
0.0
120
0.0
130
0.0
111
1.0
121
0.0
131
0.0
112
0.0
122
1.0
132
0.0
 79
     0
146
0.0
  0
ENDTAB
  0
TABLE
  2
LTYPE
  5
5
330
0
100
AcDbSymbolTable
 70
     6
  0
LTYPE
  5
14
330
5
100
AcDbSymbolTableRecord
100
AcDbLinetypeTableRecord
  2
ByBlock
 70
     0
  3

 72
    65
 73
     0
 40
0.0
  0
LTYPE
  5
15
330
5
100
AcDbSymbolTableRecord
100
AcDbLinetypeTableRecord
  2
ByLayer
 70
     0
  3

 72
    65
 73
     0
 40
0.0
  0
LTYPE
  5
16
330
5
100
AcDbSymbolTableRecord
100
AcDbLinetypeTableRecord
  2
Continuous
 70
     0
  3
Solid line
 72
    65
 73
     0
 40
0.0
  0
LTYPE
  5
6A
330
5
100
AcDbSymbolTableRecord
100
AcDbLinetypeTableRecord
  2
HIDDEN
 70
     0
  3
Hidden __ __ __ __ __ __ __ __ __ __ __ __ __ __
 72
    65
 73
     2
 40
1.905
 49
1.27
 74
     0
 49
-0.635
 74
     0
  0
LTYPE
  5
6B
330
5
100
AcDbSymbolTableRecord
100
AcDbLinetypeTableRecord
  2
PHANTOM
 70
     0
  3
Phantom ______  __  __  ______  __  __  ______
 72
    65
 73
     6
 40
12.7
 49
6.35
 74
     0
 49
-1.27
 74
     0
 49
1.27
 74
     0
 49
-1.27
 74
     0
 49
1.27
 74
     0
 49
-1.27
 74
     0
  0
LTYPE
  5
6C
330
5
100
AcDbSymbolTableRecord
100
AcDbLinetypeTableRecord
  2
CENTER
 70
     0
  3
Center ____ _ ____ _ ____ _ ____ _ ____ _ ____
 72
    65
 73
     4
 40
10.16
 49
6.35
 74
     0
 49
-1.27
 74
     0
 49
1.27
 74
     0
 49
-1.27
 74
     0
  0
LTYPE
  5
6D
330
5
100
AcDbSymbolTableRecord
100
AcDbLinetypeTableRecord
  2
CENTERX2
 70
     0
  3
Center (2x) ________  __  ________  __  _____
 72
    65
 73
     4
 40
20.32
 49
12.7
 74
     0
 49
-2.54
 74
     0
 49
2.54
 74
     0
 49
-2.54
 74
     0
  0
LTYPE
  5
6E
330
5
100
AcDbSymbolTableRecord
100
AcDbLinetypeTableRecord
  2
DOT2
 70
     0
  3
Dot (.5x) ........................................
 72
    65
 73
     2
 40
0.635
 49
0.0
 74
     0
 49
-0.635
 74
     0
  0
ENDTAB
  0
TABLE
  2
LAYER
  5
2
102
{ACAD_XDICTIONARY
360
18E
102
}
330
0
100
AcDbSymbolTable
 70
    18
  0
LAYER
  5
10
330
2
100
AcDbSymbolTableRecord
100
AcDbLayerTableRecord
  2
0
 70
     0
 62
     7
  6
Continuous
370
    -3
390
F
  0
LAYER
  5
6F
330
2
100
AcDbSymbolTableRecord
100
AcDbLayerTableRecord
  2
FORMAT
 70
     0
 62
     2
  6
Continuous
370
    -3
390
F
  0
LAYER
  5
70
330
2
100
AcDbSymbolTableRecord
100
AcDbLayerTableRecord
  2
외형선
 70
     0
 62
     4
  6
Continuous
370
    30
390
F
  0
LAYER
  5
71
330
2
100
AcDbSymbolTableRecord
100
AcDbLayerTableRecord
  2
숨은선
 70
     0
 62
     2
  6
HIDDEN
370
    15
390
F
  0
LAYER
  5
72
330
2
100
AcDbSymbolTableRecord
100
AcDbLayerTableRecord
  2
중심선
 70
     0
 62
     1
  6
CENTERX2
370
    -3
390
F
  0
LAYER
  5
73
330
2
100
AcDbSymbolTableRecord
100
AcDbLayerTableRecord
  2
파단선
 70
     0
 62
     4
  6
Continuous
370
    -3
390
F
  0
LAYER
  5
74
330
2
100
AcDbSymbolTableRecord
100
AcDbLayerTableRecord
  2
해칭선
 70
     0
 62
   100
  6
Continuous
370
    -3
390
F
  0
LAYER
  5
75
330
2
100
AcDbSymbolTableRecord
100
AcDbLayerTableRecord
  2
가는실선
 70
     0
 62
     4
  6
Continuous
370
    -3
390
F
  0
LAYER
  5
76
330
2
100
AcDbSymbolTableRecord
100
AcDbLayerTableRecord
  2
치수_보조선
 70
     0
 62
     4
  6
Continuous
370
    -3
390
F
  0
LAYER
  5
77
330
2
100
AcDbSymbolTableRecord
100
AcDbLayerTableRecord
  2
치수문자_일반주서
 70
     0
 62
     7
  6
Continuous
370
    15
390
F
  0
LAYER
  5
78
330
2
100
AcDbSymbolTableRecord
100
AcDbLayerTableRecord
  2
개별주서
 70
     0
 62
   100
  6
Continuous
370
    30
390
F
  0
LAYER
  5
79
330
2
100
AcDbSymbolTableRecord
100
AcDbLayerTableRecord
  2
중간선
 70
     0
 62
     2
  6
Continuous
370
    15
390
F
  0
LAYER
  5
7A
330
2
100
AcDbSymbolTableRecord
100
AcDbLayerTableRecord
  2
윤곽선
 70
     0
 62
     3
  6
Continuous
370
    40
390
F
  0
LAYER
  5
7B
330
2
100
AcDbSymbolTableRecord
100
AcDbLayerTableRecord
  2
중심마크
 70
     0
 62
   100
  6
Continuous
370
    30
390
F
  0
LAYER
  5
7C
330
2
100
AcDbSymbolTableRecord
100
AcDbLayerTableRecord
  2
가상선
 70
     0
 62
     4
  6
PHANTOM
370
    -3
390
F
  0
LAYER
  5
7D
330
2
100
AcDbSymbolTableRecord
100
AcDbLayerTableRecord
  2
특수지정선
 70
     0
 62
     5
  6
CENTERX2
370
    60
390
F
  0
LAYER
  5
7E
330
2
100
AcDbSymbolTableRecord
100
AcDbLayerTableRecord
  2
참조1
 70
     0
 62
    -4
  6
Continuous
370
    -3
390
F
  0
LAYER
  5
195
330
2
100
AcDbSymbolTableRecord
100
AcDbLayerTableRecord
  2
Defpoints
 70
     0
 62
     7
  6
Continuous
290
     0
370
    -3
390
F
  0
ENDTAB
  0
TABLE
  2
STYLE
  5
3
330
0
100
AcDbSymbolTable
 70
     2
  0
STYLE
  5
11
330
3
100
AcDbSymbolTableRecord
100
AcDbTextStyleTableRecord
  2
Standard
 70
     0
 40
0.0
 41
1.0
 50
0.0
 71
     0
 42
3.5
  3
txt
  4

  0
STYLE
  5
94
330
3
100
AcDbSymbolTableRecord
100
AcDbTextStyleTableRecord
  2
SLDTEXTSTYLE0
 70
     0
 40
0.0
 41
0.75
 50
0.0
 71
     0
 42
3.5
  3
TXT
  4

  0
ENDTAB
  0
TABLE
  2
VIEW
  5
6
330
0
100
AcDbSymbolTable
 70
     0
  0
ENDTAB
  0
TABLE
  2
UCS
  5
7
330
0
100
AcDbSymbolTable
 70
     0
  0
ENDTAB
  0
TABLE
  2
APPID
  5
9
330
0
100
AcDbSymbolTable
 70
     1
  0
APPID
  5
12
330
9
100
AcDbSymbolTableRecord
100
AcDbRegAppTableRecord
  2
ACAD
 70
     0
  0
ENDTAB
  0
TABLE
  2
DIMSTYLE
  5
A
330
0
100
AcDbSymbolTable
 70
     3
100
AcDbDimStyleTable
  0
DIMSTYLE
105
27
330
A
100
AcDbSymbolTableRecord
100
AcDbDimStyleTableRecord
  2
ISO-25
 70
     0
 41
2.5
 42
0.625
 43
3.75
 44
1.25
 73
     0
 74
     0
 77
     1
 78
     8
140
2.5
141
2.5
143
0.03937007874016
147
0.625
171
     3
172
     1
178
     0
271
     2
272
     2
274
     3
278
    44
283
     0
284
     8
340
11
  0
DIMSTYLE
105
E6
102
{ACAD_REACTORS
330
E5
330
FA
330
10E
330
123
102
}
330
A
100
AcDbSymbolTableRecord
100
AcDbDimStyleTableRecord
  2
SLDDIMSTYLE0
 70
     0
 41
3.302
 44
0.0
 45
0.000000001
 73
     0
 74
     0
 77
     1
 78
    12
 79
     3
140
3.5
143
0.0393700787401575
147
0.875
148
0.000000001
170
     1
172
     1
173
     1
178
     0
271
     2
272
     2
276
     2
284
    12
289
     0
340
94
  0
DIMSTYLE
105
10F
330
A
100
AcDbSymbolTableRecord
100
AcDbDimStyleTableRecord
  2
SLDDIMSTYLE1
 70
     0
 41
3.302
 44
0.0
 45
0.000000001
 73
     0
 74
     0
 77
     1
 78
    12
 79
     3
140
3.5
143
0.0393700787401575
147
0.875
148
0.000000001
170
     1
173
     1
178
     0
271
     2
272
     2
276
     2
284
    12
340
94
  0
ENDTAB
  0
TABLE
  2
BLOCK_RECORD
  5
1
330
0
100
AcDbSymbolTable
 70
     8
  0
BLOCK_RECORD
  5
1F
330
1
100
AcDbSymbolTableRecord
100
AcDbBlockTableRecord
  2
*Model_Space
340
22
  0
BLOCK_RECORD
  5
1B
330
1
100
AcDbSymbolTableRecord
100
AcDbBlockTableRecord
  2
*Paper_Space
340
1E
  0
BLOCK_RECORD
  5
23
330
1
100
AcDbSymbolTableRecord
100
AcDbBlockTableRecord
  2
*Paper_Space0
340
26
  0
BLOCK_RECORD
  5
7F
330
1
100
AcDbSymbolTableRecord
100
AcDbBlockTableRecord
  2
블럭10
340
0
102
{BLKREFS
331
DE
102
}
  0
BLOCK_RECORD
  5
E7
330
1
100
AcDbSymbolTableRecord
100
AcDbBlockTableRecord
  2
_D
340
0
  0
BLOCK_RECORD
  5
FB
330
1
100
AcDbSymbolTableRecord
100
AcDbBlockTableRecord
  2
_D_1
340
0
  0
BLOCK_RECORD
  5
110
330
1
100
AcDbSymbolTableRecord
100
AcDbBlockTableRecord
  2
_D_2
340
0
  0
BLOCK_RECORD
  5
124
330
1
100
AcDbSymbolTableRecord
100
AcDbBlockTableRecord
  2
_D_3
340
0
  0
BLOCK_RECORD
  5
13D
330
1
100
AcDbSymbolTableRecord
100
AcDbBlockTableRecord
  2
SW_DOWELSYMBOL_0
340
0
102
{BLKREFS
331
143
102
}
  0
ENDTAB
  0
ENDSEC
  0
SECTION
  2
BLOCKS
  0
BLOCK
  5
20
330
1F
100
AcDbEntity
  8
0
100
AcDbBlockBegin
  2
*Model_Space
 70
     0
 10
0.0
 20
0.0
 30
0.0
  3
*Model_Space
  1
*Model_Space
  0
ENDBLK
  5
21
330
1F
100
AcDbEntity
  8
0
100
AcDbBlockEnd
  0
BLOCK
  5
1C
330
1B
100
AcDbEntity
 67
     1
  8
0
100
AcDbBlockBegin
  2
*Paper_Space
 70
     0
 10
0.0
 20
0.0
 30
0.0
  3
*Paper_Space
  1
*Paper_Space
  0
ENDBLK
  5
1D
330
1B
100
AcDbEntity
 67
     1
  8
0
100
AcDbBlockEnd
  0
BLOCK
  5
24
330
23
100
AcDbEntity
  8
0
100
AcDbBlockBegin
  2
*Paper_Space0
 70
     0
 10
0.0
 20
0.0
 30
0.0
  3
*Paper_Space0
  1
*Paper_Space0
  0
ENDBLK
  5
25
330
23
100
AcDbEntity
  8
0
100
AcDbBlockEnd
  0
BLOCK
  5
80
330
7F
100
AcDbEntity
  8
0
100
AcDbBlockBegin
  2
블럭10
 70
     2
 10
0.0
 20
0.0
 30
0.0
  3
블럭10
  1
블럭10
  0
ELLIPSE
  5
82
330
7F
100
AcDbEntity
  8
중심선
100
AcDbEllipse
 10
20.54032771741204
 20
12.0471743016438
 30
0.0
 11
6.600054785286829
 21
-1.261213355974178E-13
 31
0.0
210
0.0
220
0.0
230
1.0
 40
0.636358354079598
 41
0.9219305317359503
 42
6.513795318482858
  0
ELLIPSE
  5
83
330
7F
100
AcDbEntity
  8
중심선
100
AcDbEllipse
 10
20.54032771746488
 20
12.04717430159265
 30
0.0
 11
3.960054785062283
 21
1.540847449632565E-10
 31
0.0
210
0.0
220
0.0
230
1.0
 40
0.3939339440162632
 41
1.131841032648279
 42
5.62031148352944
  0
LINE
  5
84
330
7F
100
AcDbEntity
  8
중심선
100
AcDbLine
 10
2.268634060543552
 20
16.24717430164393
 30
0.0
 11
5.714909304380834
 21
16.24717430164393
 31
0.0
  0
LINE
  5
85
330
7F
100
AcDbEntity
  8
중심선
100
AcDbLine
 10
5.245725140726316
 20
7.84717430164391
 30
0.0
 11
8.692000384563599
 21
7.84717430164391
 31
0.0
  0
LINE
  5
86
330
7F
100
AcDbEntity
  8
중심선
100
AcDbLine
 10
15.74043728645272
 20
16.24717430164393
 30
0.0
 11
8.692000384563599
 21
7.84717430164391
 31
0.0
  0
LINE
  5
87
330
7F
100
AcDbEntity
  8
중심선
100
AcDbLine
 10
0.1404042013395286
 20
13.71084872107135
 30
0.0
 11
3.58671253028996
 21
13.71088815037384
 31
0.0
  0
LINE
  5
88
330
7F
100
AcDbEntity
  8
중심선
100
AcDbLine
 10
2.750260043222114
 20
10.84717430164391
 30
0.0
 11
6.196535287059397
 21
10.84717430164391
 31
0.0
  0
LINE
  5
89
330
7F
100
AcDbEntity
  8
중심선
100
AcDbLine
 10
12.29416204261559
 20
16.24717430164393
 30
0.0
 11
5.245725140726316
 21
7.84717430164391
 31
0.0
  0
LINE
  5
8A
330
7F
100
AcDbEntity
  8
중심선
100
AcDbLine
 10
10.72767329541681
 20
16.24717430164393
 30
0.0
 11
6.196535287059397
 21
10.84717430164391
 31
0.0
  0
LINE
  5
8B
330
7F
100
AcDbEntity
  8
중심선
100
AcDbLine
 10
7.28139805157953
 20
16.24717430164393
 30
0.0
 11
2.750260043222114
 21
10.84717430164391
 31
0.0
  0
LINE
  5
8C
330
7F
100
AcDbEntity
  8
중심선
100
AcDbLine
 10
5.714909304380834
 20
16.24717430164393
 30
0.0
 11
3.58671253028996
 21
13.71088815037384
 31
0.0
  0
LINE
  5
8D
330
7F
100
AcDbEntity
  8
중심선
100
AcDbLine
 10
2.268634060543552
 20
16.24717430164393
 30
0.0
 11
0.1404042013395286
 21
13.71084872107135
 31
0.0
  0
LINE
  5
8E
330
7F
100
AcDbEntity
  8
중심선
100
AcDbLine
 10
7.28139805157953
 20
16.24717430164393
 30
0.0
 11
10.72767329541681
 21
16.24717430164393
 31
0.0
  0
LINE
  5
8F
330
7F
100
AcDbEntity
  8
중심선
100
AcDbLine
 10
12.29416204261559
 20
16.24717430164393
 30
0.0
 11
15.74043728645272
 21
16.24717430164393
 31
0.0
  0
LINE
  5
90
330
7F
100
AcDbEntity
  8
중심선
100
AcDbLine
 10
19.22036997980202
 20
11.08717430171403
 30
0.0
 11
23.66174974927406
 21
11.08717430171406
 31
0.0
  0
LINE
  5
91
330
7F
100
AcDbEntity
  8
중심선
100
AcDbLine
 10
19.22039502424796
 20
13.00717430171391
 30
0.0
 11
19.22036997980202
 21
11.08717430171403
 31
0.0
  0
LINE
  5
92
330
7F
100
AcDbEntity
  8
중심선
100
AcDbLine
 10
19.22039502424796
 20
13.00717430171391
 30
0.0
 11
26.96566020931264
 21
13.00717430171391
 31
0.0
  0
LINE
  5
93
330
7F
100
AcDbEntity
  8
중심선
100
AcDbLine
 10
22.22332737316547
 20
13.45928029700563
 30
0.0
 11
24.52862924686651
 21
15.39360700705356
 31
0.0
  0
ATTDEF
  5
95
330
7F
100
AcDbEntity
  8
FORMAT
 62
     2
100
AcDbText
 10
3.448148490846466
 20
2.075366912832191
 30
0.0
 40
4.233333333333333
  1
EM206008
 41
0.75
  7
SLDTEXTSTYLE0
 11
3.448148490846466
 21
-0.0412997538344756
 31
0.0
100
AcDbAttributeDefinition
  3

  2
AUTOATTR0
 70
     0
 74
     1
  0
ENDBLK
  5
81
330
7F
100
AcDbEntity
  8
0
100
AcDbBlockEnd
  0
BLOCK
  5
E8
330
E7
100
AcDbEntity
  8
0
100
AcDbBlockBegin
  2
_D
 70
     0
 10
0.0
 20
0.0
 30
0.0
  3
_D
  1
_D
  0
LINE
  5
EA
330
E7
100
AcDbEntity
  8
치수문자_일반주서
 62
     0
370
    -2
100
AcDbLine
 10
-27.73249999999996
 20
1.587499999999991
 30
0.0
 11
-41.09999999999996
 21
1.587499999999941
 31
0.0
  0
LINE
  5
EB
330
E7
100
AcDbEntity
  8
치수문자_일반주서
 62
     0
370
    -2
100
AcDbLine
 10
-27.73249999999996
 20
-1.587499999999992
 30
0.0
 11
-41.09999999999994
 21
-1.587500000000042
 31
0.0
  0
LINE
  5
EC
330
E7
100
AcDbEntity
  8
치수문자_일반주서
 62
     0
370
    -2
100
AcDbLine
 10
-41.09999999999994
 20
-1.714500000000059
 30
0.0
 11
-41.09999999999996
 21
1.714499999999957
 31
0.0
  0
SOLID
  5
ED
330
E7
100
AcDbEntity
  8
치수문자_일반주서
 62
     0
100
AcDbTrace
 10
-40.54966666666661
 20
-1.714500000000056
 30
0.0
 11
-41.65033333333328
 21
-1.714500000000061
 31
0.0
 12
-41.09999999999996
 22
1.587499999999941
 32
0.0
 13
-41.09999999999996
 23
1.587499999999941
 33
0.0
  0
SOLID
  5
EE
330
E7
100
AcDbEntity
  8
치수문자_일반주서
 62
     0
100
AcDbTrace
 10
-41.65033333333329
 20
1.714499999999955
 30
0.0
 11
-40.54966666666662
 21
1.71449999999996
 31
0.0
 12
-41.09999999999994
 22
-1.587500000000042
 32
0.0
 13
-41.09999999999994
 23
-1.587500000000042
 33
0.0
  0
MTEXT
  5
EF
330
E7
100
AcDbEntity
  8
치수문자_일반주서
 62
     0
100
AcDbMText
 10
-45.47499999999995
 20
-0.0000000000000267
 30
0.0
 40
3.5
 41
0.0
 71
     2
 72
     1
  1
\A1;%%c3.18 [1/8]
  7
SLDTEXTSTYLE0
 11
-4.475859752819552E-15
 21
1.0
 31
0.0
 73
     1
 44
1.0
  0
POINT
  5
F0
330
E7
100
AcDbEntity
  8
Defpoints
 62
     0
100
AcDbPoint
 10
-27.66999999999996
 20
1.587499999999991
 30
0.0
  0
POINT
  5
F1
330
E7
100
AcDbEntity
  8
Defpoints
 62
     0
100
AcDbPoint
 10
-27.66999999999996
 20
-1.587499999999992
 30
0.0
  0
POINT
  5
F2
330
E7
100
AcDbEntity
  8
Defpoints
 62
     0
100
AcDbPoint
 10
-41.09999999999994
 20
-1.587500000000042
 30
0.0
  0
ENDBLK
  5
E9
330
E7
100
AcDbEntity
  8
0
100
AcDbBlockEnd
  0
BLOCK
  5
FC
330
FB
100
AcDbEntity
  8
0
100
AcDbBlockBegin
  2
_D_1
 70
     0
 10
0.0
 20
0.0
 30
0.0
  3
_D_1
  1
_D_1
  0
LINE
  5
FE
330
FB
100
AcDbEntity
  8
치수문자_일반주서
 62
     0
370
    -2
100
AcDbLine
 10
29.11250000000005
 20
1.587500000000003
 30
0.0
 11
36.41490044649647
 21
1.587500000000031
 31
0.0
  0
LINE
  5
FF
330
FB
100
AcDbEntity
  8
치수문자_일반주서
 62
     0
370
    -2
100
AcDbLine
 10
29.11250000000003
 20
-1.587499999999996
 30
0.0
 11
36.41490044649649
 21
-1.587499999999967
 31
0.0
  0
LINE
  5
100
330
FB
100
AcDbEntity
  8
치수문자_일반주서
 62
     0
370
    -2
100
AcDbLine
 10
36.41490044649647
 20
1.587500000000031
 30
0.0
 11
36.41490044649633
 21
32.91025000000003
 31
0.0
  0
LINE
  5
101
330
FB
100
AcDbEntity
  8
치수문자_일반주서
 62
     0
370
    -2
100
AcDbLine
 10
36.41490044649647
 20
1.587500000000031
 30
0.0
 11
36.41490044649649
 21
-1.587499999999967
 31
0.0
  0
LINE
  5
102
330
FB
100
AcDbEntity
  8
치수문자_일반주서
 62
     0
370
    -2
100
AcDbLine
 10
36.41490044649646
 20
4.88950000000003
 30
0.0
 11
36.41490044649645
 21
8.19150000000003
 31
0.0
  0
LINE
  5
103
330
FB
100
AcDbEntity
  8
치수문자_일반주서
 62
     0
370
    -2
100
AcDbLine
 10
36.4149004464965
 20
-4.889499999999966
 30
0.0
 11
36.41490044649652
 21
-8.191499999999966
 31
0.0
  0
SOLID
  5
104
330
FB
100
AcDbEntity
  8
치수문자_일반주서
 62
     0
100
AcDbTrace
 10
35.86456711316313
 20
4.889500000000027
 30
0.0
 11
36.96523377982979
 21
4.889500000000033
 31
0.0
 12
36.41490044649647
 22
1.587500000000031
 32
0.0
 13
36.41490044649647
 23
1.587500000000031
 33
0.0
  0
SOLID
  5
105
330
FB
100
AcDbEntity
  8
치수문자_일반주서
 62
     0
100
AcDbTrace
 10
36.96523377982984
 20
-4.889499999999964
 30
0.0
 11
35.86456711316317
 21
-4.889499999999969
 31
0.0
 12
36.41490044649649
 22
-1.587499999999967
 32
0.0
 13
36.41490044649649
 23
-1.587499999999967
 33
0.0
  0
MTEXT
  5
106
330
FB
100
AcDbEntity
  8
치수문자_일반주서
 62
     0
100
AcDbMText
 10
32.03990044649639
 20
20.66025000000001
 30
0.0
 40
3.5
 41
0.0
 71
     2
 72
     1
  1
\A1;%%c3.18 [1/8]
  7
SLDTEXTSTYLE0
 11
-4.475859752819529E-15
 21
1.0
 31
0.0
 73
     1
 44
1.0
  0
POINT
  5
107
330
FB
100
AcDbEntity
  8
Defpoints
 62
     0
100
AcDbPoint
 10
29.05000000000005
 20
1.587500000000003
 30
0.0
  0
POINT
  5
108
330
FB
100
AcDbEntity
  8
Defpoints
 62
     0
100
AcDbPoint
 10
29.05000000000003
 20
-1.587499999999997
 30
0.0
  0
POINT
  5
109
330
FB
100
AcDbEntity
  8
Defpoints
 62
     0
100
AcDbPoint
 10
36.41490044649649
 20
-1.587499999999969
 30
0.0
  0
ENDBLK
  5
FD
330
FB
100
AcDbEntity
  8
0
100
AcDbBlockEnd
  0
BLOCK
  5
111
330
110
100
AcDbEntity
  8
0
100
AcDbBlockBegin
  2
_D_2
 70
     0
 10
0.0
 20
0.0
 30
0.0
  3
_D_2
  1
_D_2
  0
LINE
  5
113
330
110
100
AcDbEntity
  8
치수문자_일반주서
 62
     0
370
    -2
100
AcDbLine
 10
29.05000000000005
 20
1.650000000000003
 30
0.0
 11
29.05000000000005
 21
24.14312499999999
 31
0.0
  0
LINE
  5
114
330
110
100
AcDbEntity
  8
치수문자_일반주서
 62
     0
370
    -2
100
AcDbLine
 10
10.00000000000002
 20
1.109813479171005
 30
0.0
 11
10.00000000000002
 21
24.14312499999999
 31
0.0
  0
LINE
  5
115
330
110
100
AcDbEntity
  8
치수문자_일반주서
 62
     0
370
    -2
100
AcDbLine
 10
25.74800000000005
 20
24.14312499999999
 30
0.0
 11
13.30200000000002
 21
24.14312499999999
 31
0.0
  0
SOLID
  5
116
330
110
100
AcDbEntity
  8
치수문자_일반주서
 62
     0
100
AcDbTrace
 10
25.74800000000005
 20
23.59279166666666
 30
0.0
 11
25.74800000000005
 21
24.69345833333333
 31
0.0
 12
29.05000000000005
 22
24.14312499999999
 32
0.0
 13
29.05000000000005
 23
24.14312499999999
 33
0.0
  0
SOLID
  5
117
330
110
100
AcDbEntity
  8
치수문자_일반주서
 62
     0
100
AcDbTrace
 10
13.30200000000002
 20
24.69345833333333
 30
0.0
 11
13.30200000000002
 21
23.59279166666666
 31
0.0
 12
10.00000000000002
 22
24.14312499999999
 32
0.0
 13
10.00000000000002
 23
24.14312499999999
 33
0.0
  0
MTEXT
  5
118
330
110
100
AcDbEntity
  8
치수문자_일반주서
 62
     0
100
AcDbMText
 10
14.98589312695032
 20
28.51812499999999
 30
0.0
 40
3.5
 41
0.0
 71
     2
 72
     1
  1
\A1;19.05 [3/4]
  7
SLDTEXTSTYLE0
 73
     1
 44
1.0
  0
POINT
  5
119
330
110
100
AcDbEntity
  8
Defpoints
 62
     0
100
AcDbPoint
 10
29.05000000000005
 20
1.587500000000003
 30
0.0
  0
POINT
  5
11A
330
110
100
AcDbEntity
  8
Defpoints
 62
     0
100
AcDbPoint
 10
10.00000000000002
 20
1.047313479171005
 30
0.0
  0
POINT
  5
11B
330
110
100
AcDbEntity
  8
Defpoints
 62
     0
100
AcDbPoint
 10
10.00000000000002
 20
24.14312499999999
 30
0.0
  0
ENDBLK
  5
112
330
110
100
AcDbEntity
  8
0
100
AcDbBlockEnd
  0
BLOCK
  5
125
330
124
100
AcDbEntity
  8
0
100
AcDbBlockBegin
  2
_D_3
 70
     0
 10
0.0
 20
0.0
 30
0.0
  3
_D_3
  1
_D_3
  0
LINE
  5
127
330
124
100
AcDbEntity
  8
치수문자_일반주서
 62
     0
370
    -2
100
AcDbLine
 10
29.05000000000005
 20
1.650000000000003
 30
0.0
 11
29.05000000000005
 21
38.96717844013392
 31
0.0
  0
LINE
  5
128
330
124
100
AcDbEntity
  8
치수문자_일반주서
 62
     0
370
    -2
100
AcDbLine
 10
-28.09999999999997
 20
1.219999999999995
 30
0.0
 11
-28.09999999999997
 21
38.96717844013392
 31
0.0
  0
LINE
  5
129
330
124
100
AcDbEntity
  8
치수문자_일반주서
 62
     0
370
    -2
100
AcDbLine
 10
25.74800000000005
 20
38.96717844013392
 30
0.0
 11
-24.79799999999997
 21
38.96717844013392
 31
0.0
  0
SOLID
  5
12A
330
124
100
AcDbEntity
  8
치수문자_일반주서
 62
     0
100
AcDbTrace
 10
25.74800000000005
 20
38.41684510680059
 30
0.0
 11
25.74800000000005
 21
39.51751177346726
 31
0.0
 12
29.05000000000005
 22
38.96717844013392
 32
0.0
 13
29.05000000000005
 23
38.96717844013392
 33
0.0
  0
SOLID
  5
12B
330
124
100
AcDbEntity
  8
치수문자_일반주서
 62
     0
100
AcDbTrace
 10
-24.79799999999997
 20
39.51751177346726
 30
0.0
 11
-24.79799999999997
 21
38.41684510680059
 31
0.0
 12
-28.09999999999997
 22
38.96717844013392
 32
0.0
 13
-28.09999999999997
 23
38.96717844013392
 33
0.0
  0
MTEXT
  5
12C
330
124
100
AcDbEntity
  8
치수문자_일반주서
 62
     0
100
AcDbMText
 10
0.4750000000000281
 20
43.34217844013392
 30
0.0
 40
3.5
 41
0.0
 71
     2
 72
     1
  1
\A1;57.15 [2 1/4]
  7
SLDTEXTSTYLE0
 73
     1
 44
1.0
  0
POINT
  5
12D
330
124
100
AcDbEntity
  8
Defpoints
 62
     0
100
AcDbPoint
 10
29.05000000000005
 20
1.587500000000003
 30
0.0
  0
POINT
  5
12E
330
124
100
AcDbEntity
  8
Defpoints
 62
     0
100
AcDbPoint
 10
-28.09999999999997
 20
1.157499999999995
 30
0.0
  0
POINT
  5
12F
330
124
100
AcDbEntity
  8
Defpoints
 62
     0
100
AcDbPoint
 10
-28.09999999999997
 20
38.96717844013392
 30
0.0
  0
ENDBLK
  5
126
330
124
100
AcDbEntity
  8
0
100
AcDbBlockEnd
  0
BLOCK
  5
13E
330
13D
100
AcDbEntity
  8
0
100
AcDbBlockBegin
  2
SW_DOWELSYMBOL_0
 70
     0
 10
0.0
 20
0.0
 30
0.0
  3
SW_DOWELSYMBOL_0
  1
SW_DOWELSYMBOL_0
  0
CIRCLE
  5
140
330
13D
100
AcDbEntity
  8
해칭선
 62
     0
100
AcDbCircle
 10
0.0
 20
0.0
 30
0.0
 40
3.000000000000002
  0
HATCH
  5
141
330
13D
100
AcDbEntity
  8
0
  6
Continuous
 62
     0
370
     0
100
AcDbHatch
 10
0.0
 20
0.0
 30
0.0
210
0.0
220
0.0
230
1.0
  2
SOLID
 70
     1
 71
     0
 91
        1
 92
        0
 93
        3
 72
     2
 10
-0.0000000000000234
 20
0.0
 40
3.000000000000002
 50
0.0
 51
90.0
 73
     1
 72
     1
 10
-0.0000000000000234
 20
3.000000000000002
 11
-0.0000000000000234
 21
0.0
 72
     1
 10
-0.0000000000000234
 20
0.0
 11
2.999999999999979
 21
0.0
 97
        0
 75
     0
 76
     1
 98
        1
 10
0.0
 20
0.0
  0
HATCH
  5
142
330
13D
100
AcDbEntity
  8
0
  6
Continuous
 62
     0
370
     0
100
AcDbHatch
 10
0.0
 20
0.0
 30
0.0
210
0.0
220
0.0
230
1.0
  2
SOLID
 70
     1
 71
     0
 91
        1
 92
        0
 93
        3
 72
     2
 10
-0.0000000000000234
 20
0.0
 40
3.000000000000002
 50
180.0
 51
270.0000000000008
 73
     1
 72
     1
 10
-0.0000000000000234
 20
-3.000000000000002
 11
-0.0000000000000234
 21
0.0
 72
     1
 10
-0.0000000000000234
 20
0.0
 11
-3.000000000000026
 21
0.0
 97
        0
 75
     0
 76
     1
 98
        1
 10
0.0
 20
0.0
  0
ENDBLK
  5
13F
330
13D
100
AcDbEntity
  8
0
100
AcDbBlockEnd
  0
ENDSEC
  0
SECTION
  2
ENTITIES
  0
LINE
  5
96
330
1F
100
AcDbEntity
  8
외형선
  6
Continuous
370
    15
100
AcDbLine
 10
9.110064185511806
 20
1.587499999999999
 30
0.0
 11
-27.66999999999997
 21
1.587499999999997
 31
0.0
  0
LINE
  5
97
330
1F
100
AcDbEntity
  8
외형선
  6
Continuous
370
    15
100
AcDbLine
 10
-27.66999999999997
 20
-1.587500000000003
 30
0.0
 11
9.110064185511806
 21
-1.5875
 31
0.0
  0
LINE
  5
98
330
1F
100
AcDbEntity
  8
외형선
  6
Continuous
370
    15
100
AcDbLine
 10
-27.66999999999997
 20
1.587499999999995
 30
0.0
 11
-28.09999999999997
 21
1.157499999999995
 31
0.0
  0
LINE
  5
99
330
1F
100
AcDbEntity
  8
외형선
  6
Continuous
370
    15
100
AcDbLine
 10
-28.09999999999997
 20
-1.1575
 30
0.0
 11
-27.66999999999997
 21
-1.5875
 31
0.0
  0
SPLINE
  5
9A
330
1F
100
AcDbEntity
  8
외형선
  6
Continuous
370
    15
100
AcDbSpline
210
0.0
220
0.0
230
1.0
 70
     8
 71
     3
 72
     9
 73
     5
 74
     0
 42
0.000000001
 43
0.00000001
 40
0.0
 40
0.0
 40
0.0
 40
0.0
 40
0.461474910051148
 40
1.0
 40
1.0
 40
1.0
 40
1.0
 10
10.00000000000002
 20
1.047313479165092
 30
0.0
 10
9.913116040097947
 20
1.049736895885709
 30
0.0
 10
9.724841535873129
 20
1.054988355212822
 30
0.0
 10
9.53640874168444
 20
1.06785819898296
 30
0.0
 10
9.434932954244664
 20
1.074788932756902
 30
0.0
  0
SPLINE
  5
9B
330
1F
100
AcDbEntity
  8
외형선
  6
Continuous
370
    15
100
AcDbSpline
210
0.0
220
0.0
230
1.0
 70
     8
 71
     3
 72
     9
 73
     5
 74
     0
 42
0.000000001
 43
0.00000001
 40
0.0
 40
0.0
 40
0.0
 40
0.0
 40
0.9233153489105266
 40
1.0
 40
1.0
 40
1.0
 40
1.0
 10
9.110080354082852
 20
-1.102922225500155
 30
0.0
 10
9.258144075310277
 20
-1.087951937214867
 30
0.0
 10
9.418505019598848
 20
-1.0717383127983
 30
0.0
 10
9.57887290655481
 20
-1.065175746584621
 30
0.0
 10
9.591170662011987
 20
-1.064672498484273
 30
0.0
  0
ARC
  5
9C
330
1F
100
AcDbEntity
  8
외형선
  6
Continuous
370
    15
100
AcDbCircle
 10
9.460064153994473
 20
1.423437006349646
 30
0.0
 40
0.3499999684912761
100
AcDbArc
 50
180.0201419001716
 51
265.9807150277789
  0
SPLINE
  5
9D
330
1F
100
AcDbEntity
  8
0
  6
Continuous
 62
     1
370
    15
100
AcDbSpline
210
0.0
220
0.0
230
1.0
 70
     8
 71
     3
 72
     9
 73
     5
 74
     0
 42
0.000000001
 43
0.00000001
 40
0.0
 40
0.0
 40
0.0
 40
0.0
 40
0.4738822716611264
 40
1.0
 40
1.0
 40
1.0
 40
1.0
 10
16.29824589663177
 20
0.4067946820115648
 30
0.0
 10
16.22891139180887
 20
0.4399371778107272
 30
0.0
 10
16.08259972545373
 20
0.5098754257282663
 30
0.0
 10
15.93628077405377
 20
0.5866394575793555
 30
0.0
 10
15.8592997797303
 20
0.6270263756349836
 30
0.0
  0
SPLINE
  5
9E
330
1F
100
AcDbEntity
  8
0
  6
Continuous
 62
     1
370
    15
100
AcDbSpline
210
0.0
220
0.0
230
1.0
 70
     8
 71
     3
 72
     9
 73
     5
 74
     0
 42
0.000000001
 43
0.00000001
 40
0.0
 40
0.0
 40
0.0
 40
0.0
 40
0.4805991144598181
 40
1.0
 40
1.0
 40
1.0
 40
1.0
 10
24.93645687440873
 20
0.4067986537147896
 30
0.0
 10
24.86614095065103
 20
0.4404220750050815
 30
0.0
 10
24.71983205901535
 20
0.5103835465905706
 30
0.0
 10
24.57350358124182
 20
0.587159065636085
 30
0.0
 10
24.4975004403065
 20
0.6270363382161322
 30
0.0
  0
LINE
  5
9F
330
1F
100
AcDbEntity
  8
0
  6
Continuous
 62
     1
370
    15
100
AcDbLine
 10
11.88677210677641
 20
-1.587500000000002
 30
0.0
 11
12.65611852925746
 21
-1.587500000000002
 31
0.0
  0
LINE
  5
A0
330
1F
100
AcDbEntity
  8
0
  6
Continuous
 62
     1
370
    15
100
AcDbLine
 10
21.29435261927706
 20
1.587500000000001
 30
0.0
 11
20.52505406604828
 21
1.587500000000001
 31
0.0
  0
LINE
  5
A1
330
1F
100
AcDbEntity
  8
0
  6
Continuous
 62
     1
370
    15
100
AcDbLine
 10
20.52505406604828
 20
-1.587500000000002
 30
0.0
 11
21.29435261927705
 21
-1.587500000000002
 31
0.0
  0
LINE
  5
A2
330
1F
100
AcDbEntity
  8
0
  6
Continuous
 62
     1
370
    15
100
AcDbLine
 10
12.65611852925746
 20
1.587500000000001
 30
0.0
 11
11.8867721067764
 21
1.587500000000001
 31
0.0
  0
SPLINE
  5
A3
330
1F
100
AcDbEntity
  8
0
  6
Continuous
 62
     1
370
    15
100
AcDbSpline
210
0.0
220
0.0
230
1.0
 70
     8
 71
     3
 72
    17
 73
    13
 74
     0
 42
0.000000001
 43
0.00000001
 40
0.0
 40
0.0
 40
0.0
 40
0.0
 40
0.1246805661603653
 40
0.213163017592995
 40
0.2898836077880191
 40
0.3708213353655379
 40
0.4515945308773348
 40
0.6522419697305352
 40
0.6981178159492853
 40
0.7646094762331764
 40
0.8648819780378371
 40
1.0
 40
1.0
 40
1.0
 40
1.0
 10
22.02557548568578
 20
-1.320996384413967
 30
0.0
 10
22.12509772353777
 20
-1.3114532964955
 30
0.0
 10
22.29524822246034
 20
-1.295137735213565
 30
0.0
 10
22.52552846791601
 20
-1.277832163857168
 30
0.0
 10
22.72089295381886
 20
-1.265308760988371
 30
0.0
 10
22.91074521339993
 20
-1.255399035167828
 30
0.0
 10
23.19885516587897
 20
-1.243862505190633
 30
0.0
 10
23.45947083896536
 20
-1.239375751233375
 30
0.0
 10
23.70863353092392
 20
-1.239907650128376
 30
0.0
 10
23.87759807269267
 20
-1.241841646741271
 30
0.0
 10
24.11754677737174
 20
-1.247509621981497
 30
0.0
 10
24.30521334126383
 20
-1.256395004793004
 30
0.0
 10
24.41293702739935
 20
-1.261495360281642
 30
0.0
  0
SPLINE
  5
A4
330
1F
100
AcDbEntity
  8
0
  6
Continuous
 62
     1
370
    15
100
AcDbSpline
210
0.0
220
0.0
230
1.0
 70
     8
 71
     3
 72
    15
 73
    11
 74
     0
 42
0.000000001
 43
0.00000001
 40
0.0
 40
0.0
 40
0.0
 40
0.0
 40
0.2542215345204401
 40
0.4203544287534454
 40
0.5256703262338734
 40
0.6305216672597791
 40
0.7368169919003832
 40
0.8433879503209346
 40
0.9497367420184619
 40
1.0
 40
1.0
 40
1.0
 40
1.0
 10
15.77472104741914
 20
1.261495546027824
 30
0.0
 10
15.66198268568434
 20
1.256182398847217
 30
0.0
 10
15.47557019417363
 20
1.247397128346039
 30
0.0
 10
15.24313794271242
 20
1.241986337122674
 30
0.0
 10
15.07656008964195
 20
1.239934128649353
 30
0.0
 10
14.93644243400023
 20
1.239572919335878
 30
0.0
 10
14.79574727583321
 20
1.240481045999774
 30
0.0
 10
14.65439894697963
 20
1.242837807488794
 30
0.0
 10
14.53785590231485
 20
1.24551774849745
 30
0.0
 10
14.46855124103969
 20
1.248184341493911
 30
0.0
 10
14.44630852040526
 20
1.249040161030068
 30
0.0
  0
SPLINE
  5
A5
330
1F
100
AcDbEntity
  8
0
  6
Continuous
 62
     1
370
    15
100
AcDbSpline
210
0.0
220
0.0
230
1.0
 70
     8
 71
     3
 72
    17
 73
    13
 74
     0
 42
0.000000001
 43
0.00000001
 40
0.0
 40
0.0
 40
0.0
 40
0.0
 40
0.1266061387117055
 40
0.21568155848234
 40
0.2924191742849948
 40
0.3733352846123697
 40
0.4541078086400878
 40
0.6547662556065268
 40
0.7006235895643926
 40
0.7667611058333985
 40
0.8662218158240848
 40
1.0
 40
1.0
 40
1.0
 40
1.0
 10
13.38727553809041
 20
-1.321004461461857
 30
0.0
 10
13.48837534466244
 20
-1.311316894113323
 30
0.0
 10
13.66060525440933
 20
-1.294813510905403
 30
0.0
 10
13.89286875547426
 20
-1.277440445608835
 30
0.0
 10
14.08862239780649
 20
-1.264964908724563
 30
0.0
 10
14.27848719430925
 20
-1.255124022300718
 30
0.0
 10
14.56659544194885
 20
-1.243702666814861
 30
0.0
 10
14.82722073121789
 20
-1.23931913391027
 30
0.0
 10
15.07610218720746
 20
-1.239949600711645
 30
0.0
 10
15.24412886321985
 20
-1.241936380375739
 30
0.0
 10
15.4821066158908
 20
-1.247624474517096
 30
0.0
 10
15.66806272108099
 20
-1.256439523110145
 30
0.0
 10
15.77472104741914
 20
-1.261495546027825
 30
0.0
  0
SPLINE
  5
A6
330
1F
100
AcDbEntity
  8
0
  6
Continuous
 62
     1
370
    15
100
AcDbSpline
210
0.0
220
0.0
230
1.0
 70
     8
 71
     3
 72
    15
 73
    11
 74
     0
 42
0.000000001
 43
0.00000001
 40
0.0
 40
0.0
 40
0.0
 40
0.0
 40
0.2565483103250286
 40
0.4241929214954844
 40
0.5304661314430981
 40
0.636271384979559
 40
0.7435335931110191
 40
0.8510791322091883
 40
0.95840493801695
 40
1.0
 40
1.0
 40
1.0
 40
1.0
 10
24.41293702739935
 20
1.261495360281641
 30
0.0
 10
24.30019522814649
 20
1.256182081529311
 30
0.0
 10
24.11378093003968
 20
1.247396776204887
 30
0.0
 10
23.88134829392441
 20
1.241986256457681
 30
0.0
 10
23.71477431511102
 20
1.239933935305106
 30
0.0
 10
23.57466050828058
 20
1.239573567927732
 30
0.0
 10
23.43396663932759
 20
1.240478638408732
 30
0.0
 10
23.2926156534604
 20
1.242846863045465
 30
0.0
 10
23.18007138919739
 20
1.24540099046272
 30
0.0
 10
23.11476523585189
 20
1.247900339430807
 30
0.0
 10
23.09652458538714
 20
1.248598432161443
 30
0.0
  0
SPLINE
  5
A7
330
1F
100
AcDbEntity
  8
0
  6
Continuous
 62
     1
370
    15
100
AcDbSpline
210
0.0
220
0.0
230
1.0
 70
     8
 71
     3
 72
    14
 73
    10
 74
     0
 42
0.000000001
 43
0.00000001
 40
0.0
 40
0.0
 40
0.0
 40
0.0
 40
0.2776710058380437
 40
0.4759026391559506
 40
0.5972406650127433
 40
0.7012713066343559
 40
0.8075757418245998
 40
0.917346690029314
 40
1.0
 40
1.0
 40
1.0
 40
1.0
 10
25.68624836949113
 20
-1.194026189777901
 30
0.0
 10
25.79776385100652
 20
-1.17725821148886
 30
0.0
 10
25.98889115938265
 20
-1.148519434471145
 30
0.0
 10
26.2281229075362
 20
-1.119661707729784
 30
0.0
 10
26.39775702319702
 20
-1.101526647882607
 30
0.0
 10
26.53050760294212
 20
-1.088817341650429
 30
0.0
 10
26.6587452454644
 20
-1.078101201983432
 30
0.0
 10
26.77848718014128
 20
-1.06930585431891
 30
0.0
 10
26.85563817580324
 20
-1.064850234777319
 30
0.0
 10
26.88877737155465
 20
-1.062936381988826
 30
0.0
  0
SPLINE
  5
A8
330
1F
100
AcDbEntity
  8
0
  6
Continuous
 62
     1
370
    15
100
AcDbSpline
210
0.0
220
0.0
230
1.0
 70
     8
 71
     3
 72
    23
 73
    19
 74
     0
 42
0.000000001
 43
0.00000001
 40
0.0
 40
0.0
 40
0.0
 40
0.0
 40
0.1111539256937515
 40
0.1906031050803448
 40
0.2425949802588079
 40
0.2923639550314525
 40
0.3438808985392043
 40
0.3953825654024185
 40
0.4466160022375947
 40
0.4982344386649524
 40
0.5500160592640271
 40
0.6001567578891432
 40
0.6478992602230531
 40
0.6943059613532226
 40
0.7399210198409791
 40
0.79314070377866
 40
0.8794778209365534
 40
1.0
 40
1.0
 40
1.0
 40
1.0
 10
19.82131794173442
 20
1.085774604091673
 30
0.0
 10
19.71783545280313
 20
1.077634474726822
 30
0.0
 10
19.54038707580121
 20
1.063676047950504
 30
0.0
 10
19.31571248467327
 20
1.053095469426364
 30
0.0
 10
19.14998110015512
 20
1.047850041289534
 30
0.0
 10
19.00899381729164
 20
1.045206266350682
 30
0.0
 10
18.86765748657582
 20
1.044368593204828
 30
0.0
 10
18.72512060517505
 20
1.045416253644345
 30
0.0
 10
18.58255180444078
 20
1.04838266697257
 30
0.0
 10
18.43959834827618
 20
1.05322034246211
 30
0.0
 10
18.29757998882496
 20
1.059865723374978
 30
0.0
 10
18.15930331978577
 20
1.068089127030581
 30
0.0
 10
18.02637126910747
 20
1.077610123311457
 30
0.0
 10
17.89747111098353
 20
1.088353127771425
 30
0.0
 10
17.76322343846402
 20
1.101138638776491
 30
0.0
 10
17.59170786322128
 20
1.11944699355097
 30
0.0
 10
17.35132128260151
 20
1.148424313017331
 30
0.0
 10
17.15967449863775
 20
1.177239650133467
 30
0.0
 10
17.04801556700772
 20
1.194028294797367
 30
0.0
  0
SPLINE
  5
A9
330
1F
100
AcDbEntity
  8
0
  6
Continuous
 62
     1
370
    15
100
AcDbSpline
210
0.0
220
0.0
230
1.0
 70
     8
 71
     3
 72
    14
 73
    10
 74
     0
 42
0.000000001
 43
0.00000001
 40
0.0
 40
0.0
 40
0.0
 40
0.0
 40
0.2811358237152727
 40
0.4825299300781322
 40
0.6066727210395502
 40
0.7130765974167493
 40
0.8213270974452282
 40
0.9326935515217529
 40
1.0
 40
1.0
 40
1.0
 40
1.0
 10
17.04801556700772
 20
-1.194028294797368
 30
0.0
 10
17.15967454191944
 20
-1.177239925559538
 30
0.0
 10
17.35132140017011
 20
-1.148425061173346
 30
0.0
 10
17.59170759327004
 20
-1.119445275697529
 30
0.0
 10
17.76322399954761
 20
-1.101142209271064
 30
0.0
 10
17.89746930722898
 20
-1.088341649453503
 30
0.0
 10
18.026378259323
 20
-1.077654606035426
 30
0.0
 10
18.13966989437465
 20
-1.069351135173363
 30
0.0
 10
18.2104454507474
 20
-1.065283087535055
 30
0.0
 10
18.23710674784623
 20
-1.063750645654614
 30
0.0
  0
SPLINE
  5
AA
330
1F
100
AcDbEntity
  8
0
  6
Continuous
 62
     1
370
    15
100
AcDbSpline
210
0.0
220
0.0
230
1.0
 70
     8
 71
     3
 72
    23
 73
    19
 74
     0
 42
0.000000001
 43
0.00000001
 40
0.0
 40
0.0
 40
0.0
 40
0.0
 40
0.1125257101693387
 40
0.1926874369925048
 40
0.244770882593719
 40
0.2945382503397835
 40
0.3460479657844687
 40
0.3975341794393363
 40
0.4487786460836655
 40
0.5004124075362991
 40
0.5521978925344384
 40
0.6022764282800308
 40
0.6498685699049942
 40
0.6959577749057619
 40
0.7410611570880763
 40
0.7936683050221642
 40
0.8796133398579687
 40
1.0
 40
1.0
 40
1.0
 40
1.0
 10
28.45954602244655
 20
1.085775342948178
 30
0.0
 10
28.35480028155488
 20
1.077544862346357
 30
0.0
 10
28.17543515408381
 20
1.063451103595625
 30
0.0
 10
27.94875462498528
 20
1.052881618995481
 30
0.0
 10
27.78227404596313
 20
1.047701302444867
 30
0.0
 10
27.64121106323601
 20
1.045134020663778
 30
0.0
 10
27.49990368386936
 20
1.044374441871213
 30
0.0
 10
27.35738974569152
 20
1.045501795431959
 30
0.0
 10
27.21481167310115
 20
1.04854733936316
 30
0.0
 10
27.07182290215479
 20
1.053463727582783
 30
0.0
 10
26.92986991645749
 20
1.060182558267423
 30
0.0
 10
26.79165685185408
 20
1.068474514879842
 30
0.0
 10
26.65874495901832
 20
1.078066811909855
 30
0.0
 10
26.53050767637447
 20
1.088826157773001
 30
0.0
 10
26.39775700040934
 20
1.101523912046364
 30
0.0
 10
26.22812291858351
 20
1.119663034047234
 30
0.0
 10
25.98889115454263
 20
1.148518853390463
 30
0.0
 10
25.7977638492231
 20
1.177257997376731
 30
0.0
 10
25.68624836949113
 20
1.194026189777901
 30
0.0
  0
SPLINE
  5
AB
330
1F
100
AcDbEntity
  8
0
  6
Continuous
 62
     1
370
    15
100
AcDbSpline
210
0.0
220
0.0
230
1.0
 70
     8
 71
     3
 72
     9
 73
     5
 74
     0
 42
0.000000001
 43
0.00000001
 40
0.0
 40
0.0
 40
0.0
 40
0.0
 40
0.495347251547173
 40
1.0
 40
1.0
 40
1.0
 40
1.0
 10
11.18307323589127
 20
1.085772438267463
 30
0.0
 10
10.98693486055192
 20
1.071398964514269
 30
0.0
 10
10.59097349258887
 20
1.042381999731888
 30
0.0
 10
10.19820945238317
 20
1.045659486473116
 30
0.0
 10
9.999999999999925
 20
1.047313479165095
 30
0.0
  0
SPLINE
  5
AC
330
1F
100
AcDbEntity
  8
외형선
  6
Continuous
370
    15
100
AcDbSpline
210
0.0
220
0.0
230
1.0
 70
     8
 71
     3
 72
    10
 73
     6
 74
     0
 42
0.000000001
 43
0.00000001
 40
0.0
 40
0.0
 40
0.0
 40
0.0
 40
0.5
 40
0.5
 40
1.0
 40
1.0
 40
1.0
 40
1.0
 10
10.00000000000002
 20
-0.9025523134634885
 30
0.0
 10
9.85292805518286
 20
-0.8322957089004376
 30
0.0
 10
9.70333196872517
 20
-0.7576951772441242
 30
0.0
 10
9.404910168006769
 20
-0.6026189046097629
 30
0.0
 10
9.257489378363967
 20
-0.5224141348206488
 30
0.0
 10
9.11013122038316
 20
-0.4403097925227831
 30
0.0
  0
LINE
  5
AD
330
1F
100
AcDbEntity
  8
외형선
  6
Continuous
370
    15
100
AcDbLine
 10
10.00000000000002
 20
-0.9025523134634863
 30
0.0
 11
10.00000000000002
 21
-1.22813176707446
 31
0.0
  0
SPLINE
  5
AE
330
1F
100
AcDbEntity
  8
외형선
  6
Continuous
370
    15
100
AcDbSpline
210
0.0
220
0.0
230
1.0
 70
     8
 71
     3
 72
    10
 73
     6
 74
     0
 42
0.000000001
 43
0.00000001
 40
0.0
 40
0.0
 40
0.0
 40
0.0
 40
0.5
 40
0.5
 40
1.0
 40
1.0
 40
1.0
 40
1.0
 10
10.00000000000002
 20
-1.228131767074458
 30
0.0
 10
9.85291690443145
 20
-1.174013371068683
 30
0.0
 10
9.703309283164085
 20
-1.114219423476172
 30
0.0
 10
9.404864976040567
 20
-0.9854718939680325
 30
0.0
 10
9.257434226662372
 20
-0.9167581516176707
 30
0.0
 10
9.110064185511806
 20
-0.8443866435154799
 30
0.0
  0
LINE
  5
AF
330
1F
100
AcDbEntity
  8
외형선
  6
Continuous
370
    15
100
AcDbLine
 10
9.110064185511806
 20
-1.5875
 30
0.0
 11
9.110064185511806
 21
-0.8439273248499903
 31
0.0
  0
LINE
  5
B0
330
1F
100
AcDbEntity
  8
외형선
  6
Continuous
370
    15
100
AcDbLine
 10
9.592424720034131
 20
1.065173899406423
 30
0.0
 11
10.00000000000002
 21
1.228131767074458
 31
0.0
  0
LINE
  5
B1
330
1F
100
AcDbEntity
  8
외형선
  6
Continuous
370
    15
100
AcDbLine
 10
9.110064185511806
 20
-0.4402444256559254
 30
0.0
 11
9.110064185511806
 21
1.587499999999999
 31
0.0
  0
LINE
  5
B2
330
1F
100
AcDbEntity
  8
외형선
  6
Continuous
370
    15
100
AcDbLine
 10
-27.66999999999997
 20
1.587499999999995
 30
0.0
 11
-27.66999999999997
 21
-1.587500000000003
 31
0.0
  0
LINE
  5
B3
330
1F
100
AcDbEntity
  8
외형선
  6
Continuous
370
    15
100
AcDbLine
 10
-28.09999999999997
 20
1.157499999999995
 30
0.0
 11
-28.09999999999997
 21
-1.1575
 31
0.0
  0
SPLINE
  5
B4
330
1F
100
AcDbEntity
  8
외형선
  6
Continuous
370
    15
100
AcDbSpline
210
0.0
220
0.0
230
1.0
 70
    24
 71
     3
 72
     8
 73
     4
 74
     0
 42
0.000000001
 43
0.00000001
 40
0.0
 40
0.0
 40
0.0
 40
0.0
 40
1.0
 40
1.0
 40
1.0
 40
1.0
 10
10.00000000000002
 20
-0.6988684431467013
 30
0.0
 10
10.00000000000002
 20
-0.7623609056502345
 30
0.0
 10
10.00000000000002
 20
-0.8306723561222037
 30
0.0
 10
10.00000000000002
 20
-0.9025523134631213
 30
0.0
  0
SPLINE
  5
B5
330
1F
100
AcDbEntity
  8
외형선
  6
Continuous
370
    15
100
AcDbSpline
210
0.0
220
0.0
230
1.0
 70
     8
 71
     3
 72
    10
 73
     6
 74
     0
 42
0.000000001
 43
0.00000001
 40
0.0
 40
0.0
 40
0.0
 40
0.0
 40
0.5
 40
0.5
 40
1.0
 40
1.0
 40
1.0
 40
1.0
 10
9.999999999998803
 20
-0.6988684431461856
 30
0.0
 10
9.852928055181827
 20
-0.6367714107901947
 30
0.0
 10
9.70333196872434
 20
-0.571266947729238
 30
0.0
 10
9.404910168006355
 20
-0.4359245946838438
 30
0.0
 10
9.257489378363761
 20
-0.3663204641637695
 30
0.0
 10
9.11013122038316
 20
-0.2954443459535427
 30
0.0
  0
SPLINE
  5
B6
330
1F
100
AcDbEntity
  8
외형선
  6
Continuous
370
    15
100
AcDbSpline
210
0.0
220
0.0
230
1.0
 70
    24
 71
     3
 72
    10
 73
     6
 74
     0
 42
0.000000001
 43
0.00000001
 40
0.0
 40
0.0
 40
0.0
 40
0.0
 40
0.5
 40
0.5
 40
1.0
 40
1.0
 40
1.0
 40
1.0
 10
10.00000000000002
 20
0.7636590534532604
 30
0.0
 10
10.00000000000002
 20
0.5523041869925078
 30
0.0
 10
10.00000000000002
 20
0.3033970999587094
 30
0.0
 10
10.00000000000002
 20
-0.2078287320527844
 30
0.0
 10
10.00000000000002
 20
-0.4679469611972957
 30
0.0
 10
10.00000000000002
 20
-0.6988684431467008
 30
0.0
  0
SPLINE
  5
B7
330
1F
100
AcDbEntity
  8
외형선
  6
Continuous
370
    15
100
AcDbSpline
210
0.0
220
0.0
230
1.0
 70
     8
 71
     3
 72
    12
 73
     8
 74
     0
 42
0.000000001
 43
0.00000001
 40
0.0
 40
0.0
 40
0.0
 40
0.0
 40
0.2499999999999999
 40
0.2499999999999999
 40
0.4999999999999998
 40
0.4999999999999998
 40
1.0
 40
1.0
 40
1.0
 40
1.0
 10
9.40572199805992
 20
0.9632125651210579
 30
0.0
 10
9.344363367884586
 20
0.9816600426477915
 30
0.0
 10
9.300996683871375
 20
1.018565570360619
 30
0.0
 10
9.230402890832003
 20
1.092989779388517
 30
0.0
 10
9.203128122780296
 20
1.132756949344236
 30
0.0
 10
9.13663831867018
 20
1.252125777084901
 30
0.0
 10
9.1100641855118
 20
1.334004778597224
 30
0.0
 10
9.110064185511797
 20
1.421610331800522
 30
0.0
  0
SPLINE
  5
B8
330
1F
100
AcDbEntity
  8
외형선
  6
Continuous
370
    15
100
AcDbSpline
210
0.0
220
0.0
230
1.0
 70
     8
 71
     3
 72
     8
 73
     4
 74
     0
 42
0.000000001
 43
0.00000001
 40
0.0
 40
0.0
 40
0.0
 40
0.0
 40
1.0
 40
1.0
 40
1.0
 40
1.0
 10
9.999999999999993
 20
0.7636590534532713
 30
0.0
 10
9.804092715832383
 20
0.8363759884552967
 30
0.0
 10
9.603699589526872
 20
0.9036905849375446
 30
0.0
 10
9.405721998059926
 20
0.9632125651210568
 30
0.0
  0
SPLINE
  5
B9
330
1F
100
AcDbEntity
  8
외형선
  6
Continuous
370
    15
100
AcDbSpline
210
0.0
220
0.0
230
1.0
 70
    24
 71
     3
 72
    11
 73
     7
 74
     0
 42
0.000000001
 43
0.00000001
 40
0.0
 40
0.0
 40
0.0
 40
0.0
 40
0.1239825494308596
 40
0.4208177480805781
 40
0.7104088740402891
 40
1.0
 40
1.0
 40
1.0
 40
1.0
 10
10.00000000000002
 20
1.041399435293415
 30
0.0
 10
10.00000000000002
 20
1.042724644691041
 30
0.0
 10
10.00000000000002
 20
1.047222629584916
 30
0.0
 10
10.00000000000002
 20
1.001967871525983
 30
0.0
 10
10.00000000000002
 20
0.9113150129320692
 30
0.0
 10
10.00000000000002
 20
0.8128777066128633
 30
0.0
 10
10.00000000000002
 20
0.7636590534532604
 30
0.0
  0
SPLINE
  5
BA
330
1F
100
AcDbEntity
  8
외형선
  6
Continuous
370
    15
100
AcDbSpline
210
0.0
220
0.0
230
1.0
 70
    24
 71
     3
 72
    10
 73
     6
 74
     0
 42
0.000000001
 43
0.00000001
 40
0.0
 40
0.0
 40
0.0
 40
0.0
 40
0.1883550669885018
 40
0.6751647219642629
 40
0.9999999999999999
 40
0.9999999999999999
 40
0.9999999999999999
 40
0.9999999999999999
 10
10.00000000000002
 20
1.228131767074459
 30
0.0
 10
10.00000000000002
 20
1.215699349518856
 30
0.0
 10
10.00000000000002
 20
1.171134953792857
 30
0.0
 10
10.00000000000002
 20
1.108047947033144
 30
0.0
 10
10.00000000000002
 20
1.06467295235653
 30
0.0
 10
10.00000000000002
 20
1.047313479165096
 30
0.0
  0
SPLINE
  5
BB
330
1F
100
AcDbEntity
  8
0
  6
Continuous
 62
     1
370
    15
100
AcDbSpline
210
0.0
220
0.0
230
1.0
 70
     8
 71
     3
 72
    21
 73
    17
 74
     0
 42
0.000000001
 43
0.00000001
 40
0.0
 40
0.0
 40
0.0
 40
0.0
 40
0.0778300552616545
 40
0.1556493847540996
 40
0.233459371390961
 40
0.3112614098673795
 40
0.3890569049308602
 40
0.4566645535093207
 40
0.5242686431900399
 40
0.5919243503883074
 40
0.6596849256170662
 40
0.7274242118500589
 40
0.7950669004066088
 40
0.8626676159118822
 40
0.9415817657176873
 40
1.0
 40
1.0
 40
1.0
 40
1.0
 10
10.00000000000002
 20
1.22813176707446
 30
0.0
 10
10.2731067219529
 20
1.317447187579504
 30
0.0
 10
10.81928252898868
 20
1.496065720020824
 30
0.0
 10
11.63846266019068
 20
1.603245382442855
 30
0.0
 10
12.45753736167072
 20
1.57698032350857
 30
0.0
 10
13.27647116481085
 20
1.4097522808925
 30
0.0
 10
14.05973903388882
 20
1.131653530694299
 30
0.0
 10
14.80673509332357
 20
0.7820068018155653
 30
0.0
 10
15.51825356918606
 20
0.3968810673031609
 30
0.0
 10
16.23036652714829
 20
-0.0148809642384801
 30
0.0
 10
16.94329287475726
 20
-0.4254312031828953
 30
0.0
 10
17.65607963067464
 20
-0.8074547966285917
 30
0.0
 10
18.36807456073667
 20
-1.136732657651379
 30
0.0
 10
19.11905665954554
 20
-1.400181144018839
 30
0.0
 10
19.83823604844985
 20
-1.5665774975402
 30
0.0
 10
20.32008564145075
 20
-1.571512385545204
 30
0.0
 10
20.52505406604828
 20
-1.573611580469603
 30
0.0
  0
SPLINE
  5
BC
330
1F
100
AcDbEntity
  8
0
  6
Continuous
 62
     1
370
    15
100
AcDbSpline
210
0.0
220
0.0
230
1.0
 70
     8
 71
     3
 72
    10
 73
     6
 74
     0
 42
0.000000001
 43
0.00000001
 40
0.0
 40
0.0
 40
0.0
 40
0.0
 40
0.2308310539750727
 40
0.6153990551202879
 40
1.0
 40
1.0
 40
1.0
 40
1.0
 10
26.88877737155465
 20
1.062936381988825
 30
0.0
 10
27.05506631840574
 20
1.134610402470503
 30
0.0
 10
27.49839514703104
 20
1.325694417041005
 30
0.0
 10
28.2188009950642
 20
1.521859693500594
 30
0.0
 10
28.77292575391207
 20
1.564724798643174
 30
0.0
 10
29.05000000000005
 20
1.587500000000003
 30
0.0
  0
SPLINE
  5
BD
330
1F
100
AcDbEntity
  8
0
  6
Continuous
 62
     1
370
    15
100
AcDbSpline
210
0.0
220
0.0
230
1.0
 70
    24
 71
     3
 72
    10
 73
     6
 74
     0
 42
0.000000001
 43
0.00000001
 40
0.0
 40
0.0
 40
0.0
 40
0.0
 40
0.5
 40
0.5
 40
1.0
 40
1.0
 40
1.0
 40
1.0
 10
29.05000000000003
 20
1.111249999999999
 30
0.0
 10
29.05000000000004
 20
1.17861120768161
 30
0.0
 10
29.05000000000004
 20
1.256891169326548
 30
0.0
 10
29.05000000000002
 20
1.421122318025359
 30
0.0
 10
29.05000000000004
 20
1.506654079334839
 30
0.0
 10
29.05000000000005
 20
1.587500000000003
 30
0.0
  0
LINE
  5
BE
330
1F
100
AcDbEntity
  8
0
  6
Continuous
 62
     1
370
    15
100
AcDbLine
 10
29.05000000000003
 20
1.111249999999999
 30
0.0
 11
28.45682610663856
 21
1.0753105574196
 31
0.0
  0
SPLINE
  5
BF
330
1F
100
AcDbEntity
  8
0
  6
Continuous
 62
     1
370
    15
100
AcDbSpline
210
0.0
220
0.0
230
1.0
 70
     8
 71
     3
 72
    14
 73
    10
 74
     0
 42
0.000000001
 43
0.00000001
 40
0.0
 40
0.0
 40
0.0
 40
0.0
 40
0.1352456628418802
 40
0.2922311587736374
 40
0.4492214391377212
 40
0.6062177253537723
 40
0.7632212346190755
 40
0.9202331790600301
 40
1.0
 40
1.0
 40
1.0
 40
1.0
 10
16.4724843121968
 20
-0.1525104895707858
 30
0.0
 10
16.23393209260533
 20
-0.0561592178436978
 30
0.0
 10
15.71848198430322
 20
0.1520311462276407
 30
0.0
 10
14.92612330419793
 20
0.464883386859039
 30
0.0
 10
14.09539756162704
 20
0.7492810825610126
 30
0.0
 10
13.26463591051098
 20
0.9673743603504096
 30
0.0
 10
12.43383517405628
 20
1.092965061280254
 30
0.0
 10
11.73924333289006
 20
1.13006990048615
 30
0.0
 10
11.32160385349427
 20
1.088129260960302
 30
0.0
 10
11.18090807143446
 20
1.074000158302875
 30
0.0
  0
SPLINE
  5
C0
330
1F
100
AcDbEntity
  8
외형선
  6
Continuous
370
    15
100
AcDbSpline
210
0.0
220
0.0
230
1.0
 70
    24
 71
     3
 72
    10
 73
     6
 74
     0
 42
0.000000001
 43
0.00000001
 40
0.0
 40
0.0
 40
0.0
 40
0.0
 40
0.1883550669885029
 40
0.6751647219642636
 40
1.0
 40
1.0
 40
1.0
 40
1.0
 10
10.00000000000002
 20
1.228131767074459
 30
0.0
 10
10.00000000000002
 20
1.215699349518856
 30
0.0
 10
10.00000000000002
 20
1.171134953792857
 30
0.0
 10
10.00000000000002
 20
1.108047947033144
 30
0.0
 10
10.00000000000002
 20
1.06467295235653
 30
0.0
 10
10.00000000000002
 20
1.047313479165095
 30
0.0
  0
SPLINE
  5
C1
330
1F
100
AcDbEntity
  8
0
  6
Continuous
 62
     1
370
    15
100
AcDbSpline
210
0.0
220
0.0
230
1.0
 70
     8
 71
     3
 72
    10
 73
     6
 74
     0
 42
0.000000001
 43
0.00000001
 40
0.0
 40
0.0
 40
0.0
 40
0.0
 40
0.4342334271607245
 40
0.868407012560999
 40
1.0
 40
1.0
 40
1.0
 40
1.0
 10
10.00000000000002
 20
-1.228131767074461
 30
0.0
 10
10.27310632569583
 20
-1.315519339248919
 30
0.0
 10
10.81928134027208
 20
-1.490282440706078
 30
0.0
 10
11.4482012383807
 20
-1.594764750049474
 30
0.0
 10
11.8040130050687
 20
-1.57683404917832
 30
0.0
 10
11.88677210677641
 20
-1.572663504986094
 30
0.0
  0
SPLINE
  5
C2
330
1F
100
AcDbEntity
  8
0
  6
Continuous
 62
     1
370
    15
100
AcDbSpline
210
0.0
220
0.0
230
1.0
 70
     8
 71
     3
 72
    21
 73
    17
 74
     0
 42
0.000000001
 43
0.00000001
 40
0.0
 40
0.0
 40
0.0
 40
0.0
 40
0.0121264151064184
 40
0.0779351722009564
 40
0.1547574673065026
 40
0.2315809252423908
 40
0.3084060979272492
 40
0.3852335360972591
 40
0.4620637889278572
 40
0.5388974036577371
 40
0.6157349252156963
 40
0.6925768958508737
 40
0.7694238547669092
 40
0.8462763377605486
 40
0.9231348768652099
 40
1.0
 40
1.0
 40
1.0
 40
1.0
 10
18.23710674784623
 20
1.063750645654614
 30
0.0
 10
18.28080154543411
 20
1.083979561143348
 30
0.0
 10
18.56162333360589
 20
1.213988636225946
 30
0.0
 10
19.1190432478331
 20
1.398340191455141
 30
0.0
 10
19.91016917974386
 20
1.573024190833785
 30
0.0
 10
20.74080742192097
 20
1.606513779676683
 30
0.0
 10
21.57152257390074
 20
1.496441880387339
 30
0.0
 10
22.40225246906164
 20
1.250249396973647
 30
0.0
 10
23.23302280215785
 20
0.890909970870666
 30
0.0
 10
24.06383569498201
 20
0.4508136918735777
 30
0.0
 10
24.8946995392265
 20
-0.0301849625567346
 30
0.0
 10
25.72562103326728
 20
-0.5082640279766487
 30
0.0
 10
26.55660716069103
 20
-0.9410354575096043
 30
0.0
 10
27.38766521020915
 20
-1.285770539411938
 30
0.0
 10
28.21880068775799
 20
-1.524303010659385
 30
0.0
 10
28.77292565147374
 20
-1.565539260950884
 30
0.0
 10
29.05000000000003
 20
-1.587499999999994
 30
0.0
  0
SPLINE
  5
C3
330
1F
100
AcDbEntity
  8
0
  6
Continuous
 62
     1
370
    15
100
AcDbSpline
210
0.0
220
0.0
230
1.0
 70
     8
 71
     3
 72
    15
 73
    11
 74
     0
 42
0.000000001
 43
0.00000001
 40
0.0
 40
0.0
 40
0.0
 40
0.0
 40
0.0401332050831165
 40
0.197290539997225
 40
0.3544391835260292
 40
0.5115803477567741
 40
0.6687152500257838
 40
0.8258451120706051
 40
0.9829711591756074
 40
0.9999999999999999
 40
0.9999999999999999
 40
0.9999999999999999
 40
0.9999999999999999
 10
25.10686658457885
 20
-0.1499612600581161
 30
0.0
 10
25.03614050833227
 20
-0.1222137791363427
 30
0.0
 10
24.68845868861032
 20
0.0141898667544346
 30
0.0
 10
24.06384194568047
 20
0.2716372065197479
 30
0.0
 10
23.23302890258396
 20
0.5843317808769519
 30
0.0
 10
22.40225992774189
 20
0.8447995851948835
 30
0.0
 10
21.57152731257237
 20
1.030959223792449
 30
0.0
 10
20.74082423938895
 20
1.114022462745542
 30
0.0
 10
20.15702261430922
 20
1.127113413827014
 30
0.0
 10
19.85012138463688
 20
1.085074812509097
 30
0.0
 10
19.82011262489986
 20
1.080964283893827
 30
0.0
  0
SPLINE
  5
C4
330
1F
100
AcDbEntity
  8
0
  6
Continuous
 62
     1
370
    15
100
AcDbSpline
210
0.0
220
0.0
230
1.0
 70
     8
 71
     3
 72
    21
 73
    17
 74
     0
 42
0.000000001
 43
0.00000001
 40
0.0
 40
0.0
 40
0.0
 40
0.0
 40
0.0437182064357474
 40
0.1118873373205413
 40
0.1801372215193881
 40
0.2484643787847127
 40
0.3166921048867068
 40
0.384851002880184
 40
0.4644005347199344
 40
0.5439500081948752
 40
0.6234999962777351
 40
0.7030510715859105
 40
0.7826038059863556
 40
0.8621587702015774
 40
0.9405825056948456
 40
1.0
 40
1.0
 40
1.0
 40
1.0
 10
23.09726527734949
 20
-1.248350744064529
 30
0.0
 10
22.94516273659575
 20
-1.302481936051162
 30
0.0
 10
22.55588902955022
 20
-1.441019068087277
 30
0.0
 10
21.92913086983107
 20
-1.560687971323632
 30
0.0
 10
21.21657731657248
 20
-1.605279897865023
 30
0.0
 10
20.50354301585041
 20
-1.539398906724001
 30
0.0
 10
19.79114141310482
 20
-1.371673807733424
 30
0.0
 10
19.03995329396816
 20
-1.097734350921955
 30
0.0
 10
18.24881897041598
 20
-0.720257899761382
 30
0.0
 10
17.41820011287373
 20
-0.2585457816529295
 30
0.0
 10
16.5875294454052
 20
0.2266588600896868
 30
0.0
 10
15.75685639203018
 20
0.6910033379239189
 30
0.0
 10
14.9261629706571
 20
1.093987456257292
 30
0.0
 10
14.09937596703479
 20
1.391792029613824
 30
0.0
 10
13.34271569728122
 20
1.565855306035297
 30
0.0
 10
12.86293261824835
 20
1.57197280903293
 30
0.0
 10
12.65611852925746
 20
1.574609804509938
 30
0.0
  0
SPLINE
  5
C5
330
1F
100
AcDbEntity
  8
0
  6
Continuous
 62
     1
370
    15
100
AcDbSpline
210
0.0
220
0.0
230
1.0
 70
     8
 71
     3
 72
    15
 73
    11
 74
     0
 42
0.000000001
 43
0.00000001
 40
0.0
 40
0.0
 40
0.0
 40
0.0
 40
0.0797375269397419
 40
0.2245091147562674
 40
0.3692773268289782
 40
0.5140432500705732
 40
0.658807972991305
 40
0.8035725849395743
 40
0.9483381753412855
 40
1.0
 40
1.0
 40
1.0
 40
1.0
 10
22.02907400155793
 20
-1.305611355386878
 30
0.0
 10
21.87656195538625
 20
-1.323274312607016
 30
0.0
 10
21.44714878206891
 20
-1.373006164617772
 30
0.0
 10
20.74084533795765
 20
-1.319923786758906
 30
0.0
 10
19.91016653379059
 20
-1.159118664507695
 30
0.0
 10
19.07950300754254
 20
-0.8877902226810297
 30
0.0
 10
18.24884737460098
 20
-0.5368441406689585
 30
0.0
 10
17.4181923422279
 20
-0.139505218382992
 30
0.0
 10
16.76561051688934
 20
0.1902776790743926
 30
0.0
 10
16.38991194380933
 20
0.36100936770772
 30
0.0
 10
16.29110051363794
 20
0.4059130312780411
 30
0.0
  0
SPLINE
  5
C6
330
1F
100
AcDbEntity
  8
0
  6
Continuous
 62
     1
370
    15
100
AcDbSpline
210
0.0
220
0.0
230
1.0
 70
     8
 71
     3
 72
    18
 73
    14
 74
     0
 42
0.000000001
 43
0.00000001
 40
0.0
 40
0.0
 40
0.0
 40
0.0
 40
0.0919315137427333
 40
0.1837255239322147
 40
0.2754560334828537
 40
0.3671979529227777
 40
0.4590260294040993
 40
0.5509943695978063
 40
0.6428763201858961
 40
0.7346431193633562
 40
0.826369158481629
 40
0.9181294121152906
 40
1.0
 40
1.0
 40
1.0
 40
1.0
 10
29.05000000000004
 20
-1.506443629905643
 30
0.0
 10
28.81226167393683
 20
-1.453421739529286
 30
0.0
 10
28.33714061113173
 20
-1.347457264533978
 30
0.0
 10
27.62510052957241
 20
-1.071546860326205
 30
0.0
 10
26.91362858784562
 20
-0.7314447185899837
 30
0.0
 10
26.20204897288147
 20
-0.3406173306725721
 30
0.0
 10
25.48974850143924
 20
0.0725766603353593
 30
0.0
 10
24.77672702756364
 20
0.4807208443430487
 30
0.0
 10
24.06410530859574
 20
0.8568892471040559
 30
0.0
 10
23.35230397836085
 20
1.176557877381254
 30
0.0
 10
22.64087087125125
 20
1.415072796715016
 30
0.0
 10
21.95498872958848
 20
1.563406854522549
 30
0.0
 10
21.506040932941
 20
1.576282787200571
 30
0.0
 10
21.29435261927706
 20
1.582354059842546
 30
0.0
  0
SPLINE
  5
C7
330
1F
100
AcDbEntity
  8
0
  6
Continuous
 62
     1
370
    15
100
AcDbSpline
210
0.0
220
0.0
230
1.0
 70
     8
 71
     3
 72
    13
 73
     9
 74
     0
 42
0.000000001
 43
0.00000001
 40
0.0
 40
0.0
 40
0.0
 40
0.0
 40
0.0790102776358885
 40
0.2631706293234199
 40
0.4473464666423184
 40
0.6315411126514058
 40
0.8157578666321377
 40
1.0
 40
1.0
 40
1.0
 40
1.0
 10
14.44678253032635
 20
-1.248869911395671
 30
0.0
 10
14.32966980031829
 20
-1.293145104334727
 30
0.0
 10
13.93958598109621
 20
-1.440618708248437
 30
0.0
 10
13.27653958109281
 20
-1.56614447200031
 30
0.0
 10
12.45756027561457
 20
-1.608299722466825
 30
0.0
 10
11.63848485470452
 20
-1.500682756157292
 30
0.0
 10
10.81929211356482
 20
-1.268344381983759
 30
0.0
 10
10.27310991150154
 20
-1.024488601885513
 30
0.0
 10
10.00000000000009
 20
-0.9025523134635199
 30
0.0
  0
SPLINE
  5
C8
330
1F
100
AcDbEntity
  8
외형선
  6
Continuous
370
    15
100
AcDbSpline
210
0.0
220
0.0
230
1.0
 70
    24
 71
     3
 72
     8
 73
     4
 74
     0
 42
0.000000001
 43
0.00000001
 40
0.0
 40
0.0
 40
0.0
 40
0.0
 40
1.0
 40
1.0
 40
1.0
 40
1.0
 10
10.00000000000002
 20
-0.6988684431467013
 30
0.0
 10
10.00000000000002
 20
-0.7623609056502347
 30
0.0
 10
10.00000000000002
 20
-0.8306723561222038
 30
0.0
 10
10.00000000000002
 20
-0.9025523134631216
 30
0.0
  0
SPLINE
  5
C9
330
1F
100
AcDbEntity
  8
0
  6
Continuous
 62
     1
370
    15
100
AcDbSpline
210
0.0
220
0.0
230
1.0
 70
     8
 71
     3
 72
    12
 73
     8
 74
     0
 42
0.000000001
 43
0.00000001
 40
0.0
 40
0.0
 40
0.0
 40
0.0
 40
0.2011035600279307
 40
0.4021891230614849
 40
0.6032581317650106
 40
0.8043120401782035
 40
1.0
 40
1.0
 40
1.0
 40
1.0
 10
29.05000000000003
 20
-1.252493469684544
 30
0.0
 10
28.77292680911074
 20
-1.190838655933076
 30
0.0
 10
28.21880522293826
 20
-1.067534545992019
 30
0.0
 10
27.38767219201851
 20
-0.7552129014226897
 30
0.0
 10
26.55661699800993
 20
-0.3833558288080587
 30
0.0
 10
25.73300703297327
 20
0.0245748039365771
 30
0.0
 10
25.18641861095505
 20
0.2864593962720858
 30
0.0
 10
24.91682071436097
 20
0.4156306929917573
 30
0.0
  0
SPLINE
  5
CA
330
1F
100
AcDbEntity
  8
0
  6
Continuous
 62
     1
370
    15
100
AcDbSpline
210
0.0
220
0.0
230
1.0
 70
     8
 71
     3
 72
    12
 73
     8
 74
     0
 42
0.000000001
 43
0.00000001
 40
0.0
 40
0.0
 40
0.0
 40
0.0
 40
0.0367940741309161
 40
0.2819116036621535
 40
0.5270417866249
 40
0.7634887085976751
 40
1.0
 40
1.0
 40
1.0
 40
1.0
 10
13.38939781152764
 20
-1.313251185777555
 30
0.0
 10
13.34782826064558
 20
-1.319837564174308
 30
0.0
 10
13.02932755015129
 20
-1.370301573393503
 30
0.0
 10
12.4338795349496
 20
-1.349592584668335
 30
0.0
 10
11.61284304268736
 20
-1.239961275685641
 30
0.0
 10
10.80158366857405
 20
-1.01753210451197
 30
0.0
 10
10.26721879847446
 20
-0.8050993009421933
 30
0.0
 10
9.999999999998803
 20
-0.6988684431461857
 30
0.0
  0
LINE
  5
CB
330
1F
100
AcDbEntity
  8
0
  6
Continuous
 62
     1
370
    15
100
AcDbLine
 10
29.05000000000003
 20
-1.506443629905644
 30
0.0
 11
29.05000000000003
 21
-1.252493469684544
 31
0.0
  0
LINE
  5
CC
330
1F
100
AcDbEntity
  8
0
  6
Continuous
 62
     1
370
    15
100
AcDbLine
 10
29.05000000000003
 20
-1.587499999999997
 30
0.0
 11
29.05000000000003
 21
-1.506443629905644
 31
0.0
  0
SPLINE
  5
CD
330
1F
100
AcDbEntity
  8
0
  6
Continuous
 62
     1
370
    15
100
AcDbSpline
210
0.0
220
0.0
230
1.0
 70
     8
 71
     3
 72
     8
 73
     4
 74
     0
 42
0.000000001
 43
0.00000001
 40
0.0
 40
0.0
 40
0.0
 40
0.0
 40
1.0
 40
1.0
 40
1.0
 40
1.0
 10
28.06720542367678
 20
0.4445952940610533
 30
0.0
 10
28.01098835895955
 20
0.511194162703526
 30
0.0
 10
27.96080531521141
 20
0.5753123870125364
 30
0.0
 10
27.91808004190777
 20
0.6363646498196517
 30
0.0
  0
LINE
  5
CE
330
1F
100
AcDbEntity
  8
0
  6
Continuous
 62
     1
370
    15
100
AcDbLine
 10
27.93818878093836
 20
0.653237885323653
 30
0.0
 11
29.05000000000003
 21
0.0000000000000021
 31
0.0
  0
LINE
  5
CF
330
1F
100
AcDbEntity
  8
0
  6
Continuous
 62
     1
370
    15
100
AcDbLine
 10
29.05000000000003
 20
0.0000000000000021
 30
0.0
 11
29.05000000000003
 21
-0.4242481768220591
 31
0.0
  0
SPLINE
  5
D0
330
1F
100
AcDbEntity
  8
0
  6
Continuous
 62
     1
370
    15
100
AcDbSpline
210
0.0
220
0.0
230
1.0
 70
     8
 71
     3
 72
    10
 73
     6
 74
     0
 42
0.000000001
 43
0.00000001
 40
0.0
 40
0.0
 40
0.0
 40
0.0
 40
0.5
 40
0.5
 40
1.0
 40
1.0
 40
1.0
 40
1.0
 10
29.05000000000003
 20
-0.4242481768220589
 30
0.0
 10
28.87986692683637
 20
-0.2904929793885266
 30
0.0
 10
28.71257873072159
 20
-0.1512488725117595
 30
0.0
 10
28.38382815369418
 20
0.1384796765982964
 30
0.0
 10
28.22083634150343
 20
0.2904950568556947
 30
0.0
 10
28.06720542368458
 20
0.4445952940531501
 30
0.0
  0
SPLINE
  5
D1
330
1F
100
AcDbEntity
  8
0
  6
Continuous
 62
     1
370
    15
100
AcDbSpline
210
0.0
220
0.0
230
1.0
 70
     8
 71
     3
 72
    19
 73
    15
 74
     0
 42
0.000000001
 43
0.00000001
 40
0.0
 40
0.0
 40
0.0
 40
0.0
 40
0.0799623879521173
 40
0.1637770837208612
 40
0.2475872648410082
 40
0.3313935609698333
 40
0.4151966044736584
 40
0.4989970299902444
 40
0.5827954739878103
 40
0.6665925743213401
 40
0.750388969786822
 40
0.8341852996740908
 40
0.917982203318935
 40
0.9999999999999999
 40
0.9999999999999999
 40
0.9999999999999999
 40
0.9999999999999999
 10
25.68736946231753
 20
-1.191376461233359
 30
0.0
 10
25.42314259598601
 20
-1.224391614775708
 30
0.0
 10
24.88195933824752
 20
-1.292012476336273
 30
0.0
 10
24.0638432664419
 20
-1.250320656154599
 30
0.0
 10
23.23303088942874
 20
-1.103384593087143
 30
0.0
 10
22.40226228403214
 20
-0.8541444170802319
 30
0.0
 10
21.5715301485245
 20
-0.5281382753044637
 30
0.0
 10
20.7408274140948
 20
-0.1541291298977591
 30
0.0
 10
19.91014692274044
 20
0.233840799118252
 30
0.0
 10
19.07948151344502
 20
0.6004677774493907
 30
0.0
 10
18.24882403030819
 20
0.9133081290338784
 30
0.0
 10
17.41816723475079
 20
1.141087275869451
 30
0.0
 10
16.59338682335379
 20
1.273184225547799
 30
0.0
 10
16.04549001317102
 20
1.264553111506868
 30
0.0
 10
15.77448093441353
 20
1.260283858206957
 30
0.0
  0
SPLINE
  5
D2
330
1F
100
AcDbEntity
  8
외형선
  6
Continuous
370
    15
100
AcDbSpline
210
0.0
220
0.0
230
1.0
 70
    24
 71
     3
 72
    10
 73
     6
 74
     0
 42
0.000000001
 43
0.00000001
 40
0.0
 40
0.0
 40
0.0
 40
0.0
 40
0.5
 40
0.5
 40
1.0
 40
1.0
 40
1.0
 40
1.0
 10
10.00000000000002
 20
0.7636590534532604
 30
0.0
 10
10.00000000000002
 20
0.5523041869925082
 30
0.0
 10
10.00000000000002
 20
0.3033970999587092
 30
0.0
 10
10.00000000000002
 20
-0.2078287320527845
 30
0.0
 10
10.00000000000002
 20
-0.4679469611972957
 30
0.0
 10
10.00000000000002
 20
-0.6988684431467008
 30
0.0
  0
SPLINE
  5
D3
330
1F
100
AcDbEntity
  8
0
  6
Continuous
 62
     1
370
    15
100
AcDbSpline
210
0.0
220
0.0
230
1.0
 70
     8
 71
     3
 72
    12
 73
     8
 74
     0
 42
0.000000001
 43
0.00000001
 40
0.0
 40
0.0
 40
0.0
 40
0.0
 40
0.2065086129901884
 40
0.4130562590878137
 40
0.6402774779108514
 40
0.8674830723038089
 40
1.0
 40
1.0
 40
1.0
 40
1.0
 10
28.06720542368707
 20
0.4445952940566371
 30
0.0
 10
27.81546539681071
 20
0.5501295348567897
 30
0.0
 10
27.31193776056072
 20
0.7612179639512927
 30
0.0
 10
26.53138575754414
 20
1.02140054575414
 30
0.0
 10
25.72562774825644
 20
1.202792509242047
 30
0.0
 10
25.01011777758604
 20
1.285841372404361
 30
0.0
 10
24.57160552213931
 20
1.257752756748375
 30
0.0
 10
24.41006351884342
 20
1.247405289405066
 30
0.0
  0
SPLINE
  5
D4
330
1F
100
AcDbEntity
  8
0
  6
Continuous
 62
     1
370
    15
100
AcDbSpline
210
0.0
220
0.0
230
1.0
 70
     8
 71
     3
 72
    16
 73
    12
 74
     0
 42
0.000000001
 43
0.00000001
 40
0.0
 40
0.0
 40
0.0
 40
0.0
 40
0.0662832082319136
 40
0.1840249806214052
 40
0.3017693534705218
 40
0.4195172215088942
 40
0.5372694770218369
 40
0.6550270092298909
 40
0.7727907036729064
 40
0.8863796656069016
 40
1.0
 40
1.0
 40
1.0
 40
1.0
 10
17.0551386814001
 20
-1.179582770342551
 30
0.0
 10
16.89926176434007
 20
-1.206172463370542
 30
0.0
 10
16.46649383704044
 20
-1.279994595321137
 30
0.0
 10
15.75682723337003
 20
-1.276654697561325
 30
0.0
 10
14.92612962261072
 20
-1.175919668776958
 30
0.0
 10
14.09540432862986
 20
-0.963567150517066
 30
0.0
 10
13.26464288954903
 20
-0.6653506879798108
 30
0.0
 10
12.43384341639557
 20
-0.3061326988620052
 30
0.0
 10
11.61281392007321
 20
0.0748785780901225
 30
0.0
 10
10.80156300906711
 20
0.4491094637629257
 30
0.0
 10
10.26721226360192
 20
0.6587995390726922
 30
0.0
 10
10.00000000000002
 20
0.7636590534532602
 30
0.0
  0
SPLINE
  5
D5
330
1F
100
AcDbEntity
  8
0
  6
Continuous
 62
     1
370
    15
100
AcDbSpline
210
0.0
220
0.0
230
1.0
 70
    24
 71
     3
 72
    10
 73
     6
 74
     0
 42
0.000000001
 43
0.00000001
 40
0.0
 40
0.0
 40
0.0
 40
0.0
 40
0.5
 40
0.5
 40
1.0
 40
1.0
 40
1.0
 40
1.0
 10
29.05000000000003
 20
-1.252493469684543
 30
0.0
 10
29.05000000000004
 20
-1.15648008004354
 30
0.0
 10
29.05000000000004
 20
-1.035163480701519
 30
0.0
 10
29.05000000000002
 20
-0.7531140626517032
 30
0.0
 10
29.05000000000004
 20
-0.5926255658439529
 30
0.0
 10
29.05000000000004
 20
-0.42424817682211
 30
0.0
  0
SPLINE
  5
D6
330
1F
100
AcDbEntity
  8
0
  6
Continuous
 62
     1
370
    15
100
AcDbSpline
210
0.0
220
0.0
230
1.0
 70
    24
 71
     3
 72
     8
 73
     4
 74
     0
 42
0.000000001
 43
0.00000001
 40
0.0
 40
0.0
 40
0.0
 40
0.0
 40
1.0
 40
1.0
 40
1.0
 40
1.0
 10
28.08390102197995
 20
0.7755049730396714
 30
0.0
 10
28.03157355845535
 20
0.731597017695729
 30
0.0
 10
27.97593116363166
 20
0.6849075047213347
 30
0.0
 10
27.91808004190779
 20
0.636364649819643
 30
0.0
  0
SPLINE
  5
D7
330
1F
100
AcDbEntity
  8
0
  6
Continuous
 62
     1
370
    15
100
AcDbSpline
210
0.0
220
0.0
230
1.0
 70
     8
 71
     3
 72
     8
 73
     4
 74
     0
 42
0.000000001
 43
0.00000001
 40
0.0
 40
0.0
 40
0.0
 40
0.0
 40
1.0
 40
1.0
 40
1.0
 40
1.0
 10
29.05000000000003
 20
1.111250000000002
 30
0.0
 10
28.72348911934131
 20
1.022562296472509
 30
0.0
 10
28.40010172563281
 20
0.9136763805407295
 30
0.0
 10
28.08390102198986
 20
0.7755049730440079
 30
0.0
  0
SPLINE
  5
D8
330
1F
100
AcDbEntity
  8
외형선
  6
Continuous
370
    15
100
AcDbSpline
210
0.0
220
0.0
230
1.0
 70
    24
 71
     3
 72
    11
 73
     7
 74
     0
 42
0.000000001
 43
0.00000001
 40
0.0
 40
0.0
 40
0.0
 40
0.0
 40
0.1307890344511664
 40
0.4253086419952086
 40
0.7086330104579908
 40
1.0
 40
1.0
 40
1.0
 40
1.0
 10
10.00000000000002
 20
1.041319922339964
 30
0.0
 10
10.00000000000002
 20
1.042771098433404
 30
0.0
 10
10.00000000000002
 20
1.047490131158027
 30
0.0
 10
10.00000000000002
 20
1.002218061816387
 30
0.0
 10
10.00000000000002
 20
0.9120984076465828
 30
0.0
 10
10.00000000000002
 20
0.8135983305047192
 30
0.0
 10
10.00000000000002
 20
0.7636590534532604
 30
0.0
  0
LINE
  5
D9
330
1F
100
AcDbEntity
  8
0
  6
Continuous
 62
     1
370
    15
100
AcDbLine
 10
29.05000000000003
 20
0.0000000000000021
 30
0.0
 11
29.05000000000003
 21
1.111250000000002
 31
0.0
  0
LINE
  5
DA
330
1F
100
AcDbEntity
  8
중심선
 48
0.8
100
AcDbLine
 10
-31.09999999999997
 20
-0.0000000000000038
 30
0.0
 11
32.05000000000003
 21
0.0000000000000039
 31
0.0
  0
LINE
  5
DB
330
1F
100
AcDbEntity
  8
참조1
100
AcDbLine
 10
-3.562684671492226
 20
0.0010749287238892
 30
0.0
 11
-3.562684671492222
 21
-39.99892507127611
 31
0.0
  0
LINE
  5
DC
330
1F
100
AcDbEntity
  8
참조1
100
AcDbLine
 10
-3.562684671492222
 20
-39.99892507127611
 30
0.0
 11
-15.54395731641845
 21
-39.9989250712761
 31
0.0
  0
CIRCLE
  5
DD
330
1F
100
AcDbEntity
  8
해칭선
100
AcDbCircle
 10
0.0
 20
0.0
 30
0.0
 40
3.000000000000002
  0
INSERT
  5
DE
330
1F
100
AcDbEntity
  8
0
  6
Continuous
 62
     7
100
AcDbBlockReference
 66
     1
  2
블럭10
 10
-13.46527293212517
 20
-52.04717430164393
 30
0.0
  0
ATTRIB
  5
DF
330
DE
100
AcDbEntity
  8
FORMAT
 62
     2
100
AcDbText
 10
-23.6069089442618
 20
-49.97180738881175
 30
0.0
 40
4.233333333333333
  1
EM206008 [ 2 FLUTE ]
 41
0.75
  7
SLDTEXTSTYLE0
 11
-23.6069089442618
 21
-52.08847405547841
 31
0.0
100
AcDbAttribute
  2
AUTOATTR0
 70
     0
 74
     1
  0
SEQEND
  5
E0
330
DE
100
AcDbEntity
  8
0
  6
Continuous
 62
     7
  0
HATCH
  5
E1
330
1F
100
AcDbEntity
  8
중심선
100
AcDbHatch
 10
0.0
 20
0.0
 30
0.0
210
0.0
220
0.0
230
1.0
  2
SOLID
 70
     1
 71
     0
 91
        1
 92
        0
 93
        4
 72
     1
 10
-7.750363627744317
 20
-35.8
 11
-11.1966388715816
 21
-35.8
 72
     1
 10
-11.1966388715816
 20
-35.8
 11
-13.32486873078562
 21
-38.3363255805726
 72
     1
 10
-13.32486873078562
 20
-38.3363255805726
 11
-9.878560401835191
 21
-38.33628615127011
 72
     1
 10
-9.878560401835191
 20
-38.33628615127011
 11
-7.750363627744317
 21
-35.8
 97
        0
 75
     0
 76
     1
 98
        1
 10
4.037684671492258
 20
-0.0010749287238935
  0
HATCH
  5
E2
330
1F
100
AcDbEntity
  8
중심선
100
AcDbHatch
 10
0.0
 20
0.0
 30
0.0
210
0.0
220
0.0
230
1.0
  2
SOLID
 70
     1
 71
     0
 91
        1
 92
        0
 93
        4
 72
     1
 10
-2.737599636708339
 20
-35.8
 11
-6.183874880545622
 21
-35.8
 72
     1
 10
-6.183874880545622
 20
-35.8
 11
-10.71501288890304
 21
-41.20000000000002
 72
     1
 10
-10.71501288890304
 20
-41.20000000000002
 11
-7.268737645065755
 21
-41.20000000000002
 72
     1
 10
-7.268737645065755
 20
-41.20000000000002
 11
-2.737599636708339
 21
-35.8
 97
        0
 75
     0
 76
     1
 98
        1
 10
4.037684671492258
 20
-0.0010749287238935
  0
HATCH
  5
E3
330
1F
100
AcDbEntity
  8
중심선
100
AcDbHatch
 10
0.0
 20
0.0
 30
0.0
210
0.0
220
0.0
230
1.0
  2
SOLID
 70
     1
 71
     0
 91
        1
 92
        0
 93
        4
 72
     1
 10
2.275164354327529
 20
-35.8
 11
-1.171110889509587
 21
-35.8
 72
     1
 10
-1.171110889509587
 20
-35.8
 11
-8.219547791398835
 21
-44.20000000000002
 72
     1
 10
-8.219547791398835
 20
-44.20000000000002
 11
-4.773272547561554
 21
-44.20000000000002
 72
     1
 10
-4.773272547561554
 20
-44.20000000000002
 11
2.275164354327529
 21
-35.8
 97
        0
 75
     0
 76
     1
 98
        1
 10
4.037684671492258
 20
-0.0010749287238935
  0
HATCH
  5
E4
330
1F
100
AcDbEntity
  8
중심선
100
AcDbHatch
 10
0.0
 20
0.0
 30
0.0
210
0.0
220
0.0
230
1.0
  2
SOLID
 70
     1
 71
     0
 91
        1
 92
        0
 93
        6
 72
     3
 10
7.075054785339729
 20
-40.00000000005127
 11
3.960054785062283
 21
1.540882976769353E-10
 40
0.3939339440162628
 50
17.09539180608437
 51
320.0019657685086
 73
     0
 72
     1
 10
8.758054441040324
 20
-38.58789400463833
 11
11.06335631474139
 21
-36.65356729459038
 72
     3
 10
7.075054785286882
 20
-40.00000000000015
 11
6.600054785286829
 21
-1.278976924368180E-13
 40
0.636358354079598
 50
39.99873849337386
 51
368.4976242363725
 73
     1
 72
     1
 10
13.50038727718749
 20
-39.03999999993002
 11
5.755122092122805
 21
-39.03999999993002
 72
     1
 10
5.755122092122805
 20
-39.03999999993002
 11
5.755097047676871
 21
-40.95999999992991
 72
     1
 10
5.755097047676871
 20
-40.95999999992991
 11
10.19647681714891
 21
-40.95999999992988
 97
        0
 75
     0
 76
     1
 98
        1
 10
4.037684671492258
 20
-0.0010749287238935
  0
DIMENSION
  5
E5
330
1F
100
AcDbEntity
  8
치수문자_일반주서
100
AcDbDimension
  2
_D
 10
-41.09999999999994
 20
-1.587500000000042
 30
0.0
 11
-41.09999999999995
 21
-0.0000000000000072
 31
0.0
 70
   160
  1
%%c<>
 71
     2
 42
3.174999999999983
 52
-270.0
  3
SLDDIMSTYLE0
100
AcDbAlignedDimension
 13
-27.66999999999996
 23
1.587499999999991
 33
0.0
 14
-27.66999999999996
 24
-1.587499999999992
 34
0.0
 50
90.0000000000002
100
AcDbRotatedDimension
1001
ACAD
1000
DSTYLE
1002
{
1070
   171
1070
     6
1070
   273
1070
     7
1002
}
  0
DIMENSION
  5
FA
330
1F
100
AcDbEntity
  8
치수문자_일반주서
100
AcDbDimension
  2
_D_1
 10
36.41490044649649
 20
-1.587499999999967
 30
0.0
 11
36.41490044649639
 21
20.66025000000003
 31
0.0
 70
   160
  1
%%c<>
 71
     2
 42
3.175
 52
-270.0
  3
SLDDIMSTYLE0
100
AcDbAlignedDimension
 13
29.05000000000005
 23
1.587500000000003
 33
0.0
 14
29.05000000000003
 24
-1.587499999999997
 34
0.0
 50
90.0000000000002
100
AcDbRotatedDimension
1001
ACAD
1000
DSTYLE
1002
{
1070
   171
1070
     6
1070
   273
1070
     7
1002
}
  0
DIMENSION
  5
10E
330
1F
100
AcDbEntity
  8
치수문자_일반주서
100
AcDbDimension
  2
_D_2
 10
10.00000000000002
 20
24.14312499999999
 30
0.0
 11
14.98589312695032
 21
24.14312499999999
 31
0.0
 70
   160
  1
<>
 71
     2
 42
19.05000000000002
  3
SLDDIMSTYLE0
100
AcDbAlignedDimension
 13
29.05000000000005
 23
1.587500000000003
 33
0.0
 14
10.00000000000002
 24
1.047313479171005
 34
0.0
100
AcDbRotatedDimension
1001
ACAD
1000
DSTYLE
1002
{
1070
   171
1070
     6
1070
   273
1070
     7
1002
}
  0
DIMENSION
  5
123
330
1F
100
AcDbEntity
  8
치수문자_일반주서
100
AcDbDimension
  2
_D_3
 10
-28.09999999999997
 20
38.96717844013392
 30
0.0
 11
0.4750000000000281
 21
38.96717844013392
 31
0.0
 70
   160
  1
<>
 71
     2
 42
57.15000000000002
  3
SLDDIMSTYLE0
100
AcDbAlignedDimension
 13
29.05000000000005
 23
1.587500000000003
 33
0.0
 14
-28.09999999999997
 24
1.157499999999995
 34
0.0
100
AcDbRotatedDimension
1001
ACAD
1000
DSTYLE
1002
{
1070
   171
1070
     6
1070
   273
1070
     7
1002
}
  0
LINE
  5
136
330
1F
100
AcDbEntity
  8
참조1
100
AcDbLine
 10
82.42838331323583
 20
7.441074928723896
 30
0.0
 11
82.42838331323583
 21
-7.438925071276109
 31
0.0
  0
LINE
  5
137
330
1F
100
AcDbEntity
  8
참조1
100
AcDbLine
 10
95.12838331323583
 20
5.441074928723896
 30
0.0
 11
82.42838331323583
 21
5.441074928723896
 31
0.0
  0
SOLID
  5
138
330
1F
100
AcDbEntity
  8
참조1
100
AcDbTrace
 10
82.42838331323583
 20
5.441074928723896
 30
0.0
 11
88.77838331323582
 21
4.425074928723896
 31
0.0
 12
88.77838331323582
 22
6.457074928723896
 32
0.0
 13
88.77838331323582
 23
6.457074928723896
 33
0.0
  0
LINE
  5
139
330
1F
100
AcDbEntity
  8
참조1
100
AcDbLine
 10
95.12838331323583
 20
-5.438925071276109
 30
0.0
 11
82.42838331323583
 21
-5.438925071276109
 31
0.0
  0
SOLID
  5
13A
330
1F
100
AcDbEntity
  8
참조1
100
AcDbTrace
 10
82.42838331323583
 20
-5.438925071276109
 30
0.0
 11
88.77838331323582
 21
-6.454925071276109
 31
0.0
 12
88.77838331323582
 22
-4.422925071276109
 32
0.0
 13
88.77838331323582
 23
-4.422925071276109
 33
0.0
  0
MTEXT
  5
13B
330
1F
100
AcDbEntity
  8
참조1
100
AcDbMText
 10
91.82587340570609
 20
10.98929157337383
 30
0.0
 40
3.5
 41
0.0
 71
     1
 72
     1
  1
A
  7
SLDTEXTSTYLE0
 73
     1
 44
1.0
  0
MTEXT
  5
13C
330
1F
100
AcDbEntity
  8
참조1
100
AcDbMText
 10
91.82587340570609
 20
0.1092915733738259
 30
0.0
 40
3.5
 41
0.0
 71
     1
 72
     1
  1
A
  7
SLDTEXTSTYLE0
 73
     1
 44
1.0
  0
INSERT
  5
143
330
1F
100
AcDbEntity
  8
해칭선
100
AcDbBlockReference
  2
SW_DOWELSYMBOL_0
 10
0.0
 20
0.0
 30
0.0
  0
ENDSEC
  0
SECTION
  2
OBJECTS
  0
DICTIONARY
  5
C
330
0
100
AcDbDictionary
281
     1
  3
ACAD_GROUP
350
D
  3
ACAD_IMAGE_VARS
350
167
  3
ACAD_LAYOUT
350
1A
  3
ACAD_MLINESTYLE
350
17
  3
ACAD_PLOTSETTINGS
350
19
  3
ACAD_PLOTSTYLENAME
350
E
  3
ACAD_SCALELIST
350
47
  3
APPDATA
350
165
  3
DWGPROPS
350
19C
  0
DICTIONARY
  5
18E
330
2
100
AcDbDictionary
280
     1
281
     1
  3
ACAD_LAYERSTATES
360
18F
  0
DICTIONARY
  5
D
102
{ACAD_REACTORS
330
C
102
}
330
C
100
AcDbDictionary
281
     1
  0
RASTERVARIABLES
  5
167
102
{ACAD_REACTORS
330
C
102
}
330
C
100
AcDbRasterVariables
 90
        0
 70
     1
 71
     1
 72
     1
  0
DICTIONARY
  5
1A
102
{ACAD_REACTORS
330
C
102
}
330
C
100
AcDbDictionary
281
     1
  3
Layout1
350
1E
  3
Layout2
350
26
  3
Model
350
22
  0
DICTIONARY
  5
17
102
{ACAD_REACTORS
330
C
102
}
330
C
100
AcDbDictionary
281
     1
  3
Standard
350
18
  0
DICTIONARY
  5
19
102
{ACAD_REACTORS
330
C
102
}
330
C
100
AcDbDictionary
281
     1
  0
ACDBDICTIONARYWDFLT
  5
E
102
{ACAD_REACTORS
330
C
102
}
330
C
100
AcDbDictionary
281
     1
  3
Normal
350
F
100
AcDbDictionaryWithDefault
340
F
  0
DICTIONARY
  5
47
102
{ACAD_REACTORS
330
C
102
}
330
C
100
AcDbDictionary
281
     1
  3
A0
350
48
  3
A1
350
49
  3
A2
350
4A
  3
A3
350
4B
  3
A4
350
4C
  3
A5
350
4D
  3
A6
350
4E
  3
A7
350
4F
  3
A8
350
50
  3
A9
350
51
  3
B0
350
52
  3
B1
350
53
  3
B2
350
54
  3
B3
350
55
  3
B4
350
56
  3
B5
350
57
  3
B6
350
58
  3
B7
350
59
  3
B8
350
5A
  3
B9
350
5B
  3
C0
350
5C
  3
C1
350
5D
  3
C2
350
5E
  3
C3
350
5F
  3
C4
350
60
  3
C5
350
61
  3
C6
350
62
  3
C7
350
63
  3
C8
350
64
  3
C9
350
65
  3
D0
350
66
  3
D1
350
67
  3
D2
350
68
  0
DICTIONARY
  5
165
102
{ACAD_REACTORS
330
C
102
}
330
C
100
AcDbDictionary
281
     1
  0
XRECORD
  5
19C
102
{ACAD_REACTORS
330
C
102
}
330
C
100
AcDbXrecord
280
     1
  1
DWGPROPS COOKIE
  2

  3

  4

  6

  7

  8
12017012
  9

300
=
301
=
302
=
303
=
304
=
305
=
306
=
307
=
308
=
309
=
 40
0.0
 41
2458288.371832951
 42
2458294.3521764
  1

 90
        0
  0
DICTIONARY
  5
18F
102
{ACAD_REACTORS
330
18E
102
}
330
18E
100
AcDbDictionary
281
     1
  0
LAYOUT
  5
1E
102
{ACAD_REACTORS
330
1A
102
}
330
1A
100
AcDbPlotSettings
  1

  2
none_device
  4

  6

 40
0.0
 41
0.0
 42
0.0
 43
0.0
 44
0.0
 45
0.0
 46
0.0
 47
0.0
 48
0.0
 49
0.0
140
0.0
141
0.0
142
1.0
143
1.0
 70
   688
 72
     1
 73
     0
 74
     5
  7

 75
    16
147
1.0
148
0.0
149
0.0
100
AcDbLayout
  1
Layout1
 70
     1
 71
     1
 10
0.0
 20
0.0
 11
420.0
 21
297.0
 12
0.0
 22
0.0
 32
0.0
 14
1.000000000000000E+20
 24
1.000000000000000E+20
 34
1.000000000000000E+20
 15
-1.000000000000000E+20
 25
-1.000000000000000E+20
 35
-1.000000000000000E+20
146
0.0
 13
0.0
 23
0.0
 33
0.0
 16
1.0
 26
0.0
 36
0.0
 17
0.0
 27
1.0
 37
0.0
 76
     0
330
1B
  0
LAYOUT
  5
26
102
{ACAD_REACTORS
330
1A
102
}
330
1A
100
AcDbPlotSettings
  1

  2
none_device
  4

  6

 40
0.0
 41
0.0
 42
0.0
 43
0.0
 44
0.0
 45
0.0
 46
0.0
 47
0.0
 48
0.0
 49
0.0
140
0.0
141
0.0
142
1.0
143
1.0
 70
   688
 72
     1
 73
     0
 74
     5
  7

 75
    16
147
1.0
148
0.0
149
0.0
100
AcDbLayout
  1
Layout2
 70
     1
 71
     2
 10
0.0
 20
0.0
 11
0.0
 21
0.0
 12
0.0
 22
0.0
 32
0.0
 14
0.0
 24
0.0
 34
0.0
 15
0.0
 25
0.0
 35
0.0
146
0.0
 13
0.0
 23
0.0
 33
0.0
 16
1.0
 26
0.0
 36
0.0
 17
0.0
 27
1.0
 37
0.0
 76
     0
330
23
  0
LAYOUT
  5
22
102
{ACAD_REACTORS
330
1A
102
}
330
1A
100
AcDbPlotSettings
  1

  2
none_device
  4
ANSI_A_(11.00_x_8.50_Inches)
  6

 40
6.35
 41
19.05
 42
6.35000508
 43
19.05000254
 44
279.4
 45
215.9
 46
97.46218223942628
 47
86.33525913288335
 48
0.0
 49
0.0
140
0.0
141
0.0
142
0.0720910612815179
143
1.0
 70
  1696
 72
     0
 73
     0
 74
     0
  7

 75
     0
147
0.0235690232323232
148
0.0
149
0.0
100
AcDbLayout
  1
Model
 70
     1
 71
     0
 10
0.0
 20
0.0
 11
420.0
 21
297.0
 12
0.0
 22
0.0
 32
0.0
 14
1.000000000000000E+20
 24
1.000000000000000E+20
 34
1.000000000000000E+20
 15
-1.000000000000000E+20
 25
-1.000000000000000E+20
 35
-1.000000000000000E+20
146
0.0
 13
0.0
 23
0.0
 33
0.0
 16
1.0
 26
0.0
 36
0.0
 17
0.0
 27
1.0
 37
0.0
 76
     0
330
1F
331
29
  0
MLINESTYLE
  5
18
102
{ACAD_REACTORS
330
17
102
}
330
17
100
AcDbMlineStyle
  2
Standard
 70
     0
  3

 62
   256
 51
90.0
 52
90.0
 71
     2
 49
0.5
 62
   256
  6
BYLAYER
 49
-0.5
 62
   256
  6
BYLAYER
  0
ACDBPLACEHOLDER
  5
F
102
{ACAD_REACTORS
330
E
102
}
330
E
  0
SCALE
  5
48
102
{ACAD_REACTORS
330
47
102
}
330
47
100
AcDbScale
 70
     0
300
1:1
140
1.0
141
1.0
290
     1
  0
SCALE
  5
49
102
{ACAD_REACTORS
330
47
102
}
330
47
100
AcDbScale
 70
     0
300
1:2
140
1.0
141
2.0
290
     0
  0
SCALE
  5
4A
102
{ACAD_REACTORS
330
47
102
}
330
47
100
AcDbScale
 70
     0
300
1:4
140
1.0
141
4.0
290
     0
  0
SCALE
  5
4B
102
{ACAD_REACTORS
330
47
102
}
330
47
100
AcDbScale
 70
     0
300
1:5
140
1.0
141
5.0
290
     0
  0
SCALE
  5
4C
102
{ACAD_REACTORS
330
47
102
}
330
47
100
AcDbScale
 70
     0
300
1:8
140
1.0
141
8.0
290
     0
  0
SCALE
  5
4D
102
{ACAD_REACTORS
330
47
102
}
330
47
100
AcDbScale
 70
     0
300
1:10
140
1.0
141
10.0
290
     0
  0
SCALE
  5
4E
102
{ACAD_REACTORS
330
47
102
}
330
47
100
AcDbScale
 70
     0
300
1:16
140
1.0
141
16.0
290
     0
  0
SCALE
  5
4F
102
{ACAD_REACTORS
330
47
102
}
330
47
100
AcDbScale
 70
     0
300
1:20
140
1.0
141
20.0
290
     0
  0
SCALE
  5
50
102
{ACAD_REACTORS
330
47
102
}
330
47
100
AcDbScale
 70
     0
300
1:30
140
1.0
141
30.0
290
     0
  0
SCALE
  5
51
102
{ACAD_REACTORS
330
47
102
}
330
47
100
AcDbScale
 70
     0
300
1:40
140
1.0
141
40.0
290
     0
  0
SCALE
  5
52
102
{ACAD_REACTORS
330
47
102
}
330
47
100
AcDbScale
 70
     0
300
1:50
140
1.0
141
50.0
290
     0
  0
SCALE
  5
53
102
{ACAD_REACTORS
330
47
102
}
330
47
100
AcDbScale
 70
     0
300
1:100
140
1.0
141
100.0
290
     0
  0
SCALE
  5
54
102
{ACAD_REACTORS
330
47
102
}
330
47
100
AcDbScale
 70
     0
300
2:1
140
2.0
141
1.0
290
     0
  0
SCALE
  5
55
102
{ACAD_REACTORS
330
47
102
}
330
47
100
AcDbScale
 70
     0
300
4:1
140
4.0
141
1.0
290
     0
  0
SCALE
  5
56
102
{ACAD_REACTORS
330
47
102
}
330
47
100
AcDbScale
 70
     0
300
8:1
140
8.0
141
1.0
290
     0
  0
SCALE
  5
57
102
{ACAD_REACTORS
330
47
102
}
330
47
100
AcDbScale
 70
     0
300
10:1
140
10.0
141
1.0
290
     0
  0
SCALE
  5
58
102
{ACAD_REACTORS
330
47
102
}
330
47
100
AcDbScale
 70
     0
300
100:1
140
100.0
141
1.0
290
     0
  0
SCALE
  5
59
102
{ACAD_REACTORS
330
47
102
}
330
47
100
AcDbScale
 70
     0
300
1/128" = 1'-0"
140
0.0078125
141
12.0
290
     0
  0
SCALE
  5
5A
102
{ACAD_REACTORS
330
47
102
}
330
47
100
AcDbScale
 70
     0
300
1/64" = 1'-0"
140
0.015625
141
12.0
290
     0
  0
SCALE
  5
5B
102
{ACAD_REACTORS
330
47
102
}
330
47
100
AcDbScale
 70
     0
300
1/32" = 1'-0"
140
0.03125
141
12.0
290
     0
  0
SCALE
  5
5C
102
{ACAD_REACTORS
330
47
102
}
330
47
100
AcDbScale
 70
     0
300
1/16" = 1'-0"
140
0.0625
141
12.0
290
     0
  0
SCALE
  5
5D
102
{ACAD_REACTORS
330
47
102
}
330
47
100
AcDbScale
 70
     0
300
3/32" = 1'-0"
140
0.09375
141
12.0
290
     0
  0
SCALE
  5
5E
102
{ACAD_REACTORS
330
47
102
}
330
47
100
AcDbScale
 70
     0
300
1/8" = 1'-0"
140
0.125
141
12.0
290
     0
  0
SCALE
  5
5F
102
{ACAD_REACTORS
330
47
102
}
330
47
100
AcDbScale
 70
     0
300
3/16" = 1'-0"
140
0.1875
141
12.0
290
     0
  0
SCALE
  5
60
102
{ACAD_REACTORS
330
47
102
}
330
47
100
AcDbScale
 70
     0
300
1/4" = 1'-0"
140
0.25
141
12.0
290
     0
  0
SCALE
  5
61
102
{ACAD_REACTORS
330
47
102
}
330
47
100
AcDbScale
 70
     0
300
3/8" = 1'-0"
140
0.375
141
12.0
290
     0
  0
SCALE
  5
62
102
{ACAD_REACTORS
330
47
102
}
330
47
100
AcDbScale
 70
     0
300
1/2" = 1'-0"
140
0.5
141
12.0
290
     0
  0
SCALE
  5
63
102
{ACAD_REACTORS
330
47
102
}
330
47
100
AcDbScale
 70
     0
300
3/4" = 1'-0"
140
0.75
141
12.0
290
     0
  0
SCALE
  5
64
102
{ACAD_REACTORS
330
47
102
}
330
47
100
AcDbScale
 70
     0
300
1" = 1'-0"
140
1.0
141
12.0
290
     0
  0
SCALE
  5
65
102
{ACAD_REACTORS
330
47
102
}
330
47
100
AcDbScale
 70
     0
300
1-1/2" = 1'-0"
140
1.5
141
12.0
290
     0
  0
SCALE
  5
66
102
{ACAD_REACTORS
330
47
102
}
330
47
100
AcDbScale
 70
     0
300
3" = 1'-0"
140
3.0
141
12.0
290
     0
  0
SCALE
  5
67
102
{ACAD_REACTORS
330
47
102
}
330
47
100
AcDbScale
 70
     0
300
6" = 1'-0"
140
6.0
141
12.0
290
     0
  0
SCALE
  5
68
102
{ACAD_REACTORS
330
47
102
}
330
47
100
AcDbScale
 70
     0
300
1'-0" = 1'-0"
140
12.0
141
12.0
290
     0
  0
ENDSEC
  0
EOF
