  0
SECTION
  2
HEADER
  9
$ACADVER
  1
AC1015
  9
$ACADMAINTVER
 70
     6
  9
$DWGCODEPAGE
  3
ANSI_949
  9
$INSBASE
 10
0.0
 20
0.0
 30
0.0
  9
$EXTMIN
 10
-51.82500000000001
 20
-49.97180738881175
 30
0.0
  9
$EXTMAX
 10
95.12838331323583
 20
48.7625
 30
0.0
  9
$LIMMIN
 10
0.0
 20
0.0
  9
$LIMMAX
 10
420.0
 20
297.0
  9
$ORTHOMODE
 70
     1
  9
$REGENMODE
 70
     1
  9
$FILLMODE
 70
     1
  9
$QTEXTMODE
 70
     0
  9
$MIRRTEXT
 70
     1
  9
$LTSCALE
 40
1.0
  9
$ATTMODE
 70
     1
  9
$TEXTSIZE
 40
3.5
  9
$TRACEWID
 40
1.0
  9
$TEXTSTYLE
  7
Standard
  9
$CLAYER
  8
0
  9
$CELTYPE
  6
ByLayer
  9
$CECOLOR
 62
   256
  9
$CELTSCALE
 40
1.0
  9
$DISPSILH
 70
     0
  9
$DIMSCALE
 40
1.0
  9
$DIMASZ
 40
3.302
  9
$DIMEXO
 40
1.0
  9
$DIMDLI
 40
3.75
  9
$DIMRND
 40
0.0
  9
$DIMDLE
 40
0.0
  9
$DIMEXE
 40
1.0
  9
$DIMTP
 40
0.0
  9
$DIMTM
 40
0.0
  9
$DIMTXT
 40
3.5
  9
$DIMCEN
 40
2.5
  9
$DIMTSZ
 40
0.0
  9
$DIMTOL
 70
     0
  9
$DIMLIM
 70
     0
  9
$DIMTIH
 70
     1
  9
$DIMTOH
 70
     1
  9
$DIMSE1
 70
     0
  9
$DIMSE2
 70
     0
  9
$DIMTAD
 70
     1
  9
$DIMZIN
 70
     0
  9
$DIMBLK
  1

  9
$DIMASO
 70
     1
  9
$DIMSHO
 70
     1
  9
$DIMPOST
  1

  9
$DIMAPOST
  1

  9
$DIMALT
 70
     0
  9
$DIMALTD
 70
     3
  9
$DIMALTF
 40
0.0393700787401575
  9
$DIMLFAC
 40
1.0
  9
$DIMTOFL
 70
     1
  9
$DIMTVP
 40
0.0
  9
$DIMTIX
 70
     0
  9
$DIMSOXD
 70
     0
  9
$DIMSAH
 70
     0
  9
$DIMBLK1
  1

  9
$DIMBLK2
  1

  9
$DIMSTYLE
  2
ISO-25
  9
$DIMCLRD
 70
     0
  9
$DIMCLRE
 70
     0
  9
$DIMCLRT
 70
     0
  9
$DIMTFAC
 40
1.0
  9
$DIMGAP
 40
1.524
  9
$DIMJUST
 70
     0
  9
$DIMSD1
 70
     0
  9
$DIMSD2
 70
     0
  9
$DIMTOLJ
 70
     0
  9
$DIMTZIN
 70
     0
  9
$DIMALTZ
 70
     0
  9
$DIMALTTZ
 70
     0
  9
$DIMUPT
 70
     0
  9
$DIMDEC
 70
     2
  9
$DIMTDEC
 70
     2
  9
$DIMALTU
 70
     2
  9
$DIMALTTD
 70
     3
  9
$DIMTXSTY
  7
Standard
  9
$DIMAUNIT
 70
     0
  9
$DIMADEC
 70
     2
  9
$DIMALTRND
 40
0.0
  9
$DIMAZIN
 70
     0
  9
$DIMDSEP
 70
    44
  9
$DIMATFIT
 70
     3
  9
$DIMFRAC
 70
     0
  9
$DIMLDRBLK
  1

  9
$DIMLUNIT
 70
     2
  9
$DIMLWD
 70
    -2
  9
$DIMLWE
 70
    -2
  9
$DIMTMOVE
 70
     0
  9
$LUNITS
 70
     2
  9
$LUPREC
 70
     2
  9
$SKETCHINC
 40
1.0
  9
$FILLETRAD
 40
10.0
  9
$AUNITS
 70
     0
  9
$AUPREC
 70
     2
  9
$MENU
  1
.
  9
$ELEVATION
 40
0.0
  9
$PELEVATION
 40
0.0
  9
$THICKNESS
 40
0.0
  9
$LIMCHECK
 70
     0
  9
$CHAMFERA
 40
0.0
  9
$CHAMFERB
 40
0.0
  9
$CHAMFERC
 40
0.0
  9
$CHAMFERD
 40
0.0
  9
$SKPOLY
 70
     0
  9
$TDCREATE
 40
2458288.747021817
  9
$TDUCREATE
 40
2458288.372021817
  9
$TDUPDATE
 40
2458294.725929583
  9
$TDUUPDATE
 40
2458294.350929583
  9
$TDINDWG
 40
0.0014891435
  9
$TDUSRTIMER
 40
2458294.349440706
  9
$USRTIMER
 70
     1
  9
$ANGBASE
 50
0.0
  9
$ANGDIR
 70
     0
  9
$PDMODE
 70
     0
  9
$PDSIZE
 40
-1.0
  9
$PLINEWID
 40
0.0
  9
$SPLFRAME
 70
     0
  9
$SPLINETYPE
 70
     6
  9
$SPLINESEGS
 70
     8
  9
$HANDSEED
  5
193
  9
$SURFTAB1
 70
     6
  9
$SURFTAB2
 70
     6
  9
$SURFTYPE
 70
     6
  9
$SURFU
 70
     6
  9
$SURFV
 70
     6
  9
$UCSBASE
  2

  9
$UCSNAME
  2

  9
$UCSORG
 10
0.0
 20
0.0
 30
0.0
  9
$UCSXDIR
 10
1.0
 20
0.0
 30
0.0
  9
$UCSYDIR
 10
0.0
 20
1.0
 30
0.0
  9
$UCSORTHOREF
  2

  9
$UCSORTHOVIEW
 70
     0
  9
$UCSORGTOP
 10
0.0
 20
0.0
 30
0.0
  9
$UCSORGBOTTOM
 10
0.0
 20
0.0
 30
0.0
  9
$UCSORGLEFT
 10
0.0
 20
0.0
 30
0.0
  9
$UCSORGRIGHT
 10
0.0
 20
0.0
 30
0.0
  9
$UCSORGFRONT
 10
0.0
 20
0.0
 30
0.0
  9
$UCSORGBACK
 10
0.0
 20
0.0
 30
0.0
  9
$PUCSBASE
  2

  9
$PUCSNAME
  2

  9
$PUCSORG
 10
0.0
 20
0.0
 30
0.0
  9
$PUCSXDIR
 10
1.0
 20
0.0
 30
0.0
  9
$PUCSYDIR
 10
0.0
 20
1.0
 30
0.0
  9
$PUCSORTHOREF
  2

  9
$PUCSORTHOVIEW
 70
     0
  9
$PUCSORGTOP
 10
0.0
 20
0.0
 30
0.0
  9
$PUCSORGBOTTOM
 10
0.0
 20
0.0
 30
0.0
  9
$PUCSORGLEFT
 10
0.0
 20
0.0
 30
0.0
  9
$PUCSORGRIGHT
 10
0.0
 20
0.0
 30
0.0
  9
$PUCSORGFRONT
 10
0.0
 20
0.0
 30
0.0
  9
$PUCSORGBACK
 10
0.0
 20
0.0
 30
0.0
  9
$USERI1
 70
     0
  9
$USERI2
 70
     0
  9
$USERI3
 70
     0
  9
$USERI4
 70
     0
  9
$USERI5
 70
     0
  9
$USERR1
 40
0.0
  9
$USERR2
 40
0.0
  9
$USERR3
 40
0.0
  9
$USERR4
 40
0.0
  9
$USERR5
 40
0.0
  9
$WORLDVIEW
 70
     1
  9
$SHADEDGE
 70
     3
  9
$SHADEDIF
 70
    70
  9
$TILEMODE
 70
     1
  9
$MAXACTVP
 70
    64
  9
$PINSBASE
 10
0.0
 20
0.0
 30
0.0
  9
$PLIMCHECK
 70
     0
  9
$PEXTMIN
 10
1.000000000000000E+20
 20
1.000000000000000E+20
 30
1.000000000000000E+20
  9
$PEXTMAX
 10
-1.000000000000000E+20
 20
-1.000000000000000E+20
 30
-1.000000000000000E+20
  9
$PLIMMIN
 10
0.0
 20
0.0
  9
$PLIMMAX
 10
0.0
 20
0.0
  9
$UNITMODE
 70
     0
  9
$VISRETAIN
 70
     1
  9
$PLINEGEN
 70
     0
  9
$PSLTSCALE
 70
     1
  9
$TREEDEPTH
 70
  3020
  9
$CMLSTYLE
  2
Standard
  9
$CMLJUST
 70
     0
  9
$CMLSCALE
 40
20.0
  9
$PROXYGRAPHICS
 70
     1
  9
$MEASUREMENT
 70
     1
  9
$CELWEIGHT
370
    -1
  9
$ENDCAPS
280
     0
  9
$JOINSTYLE
280
     0
  9
$LWDISPLAY
290
     1
  9
$INSUNITS
 70
     4
  9
$HYPERLINKBASE
  1

  9
$STYLESHEET
  1

  9
$XEDIT
290
     1
  9
$CEPSNTYPE
380
     0
  9
$PSTYLEMODE
290
     1
  9
$FINGERPRINTGUID
  2
{1D0BF254-D285-423F-AAA6-1F880E9CFBB4}
  9
$VERSIONGUID
  2
{FAEB1C32-E019-11D5-929B-00C0DF256EC4}
  9
$EXTNAMES
290
     1
  9
$PSVPSCALE
 40
0.0
  9
$OLESTARTUP
290
     0
  0
ENDSEC
  0
SECTION
  2
CLASSES
  0
CLASS
  1
ACDBDICTIONARYWDFLT
  2
AcDbDictionaryWithDefault
  3
ObjectDBX Classes
 90
        0
280
     0
281
     0
  0
CLASS
  1
VISUALSTYLE
  2
AcDbVisualStyle
  3
ObjectDBX Classes
 90
     4095
280
     0
281
     0
  0
CLASS
  1
MATERIAL
  2
AcDbMaterial
  3
ObjectDBX Classes
 90
     1153
280
     0
281
     0
  0
CLASS
  1
SCALE
  2
AcDbScale
  3
ObjectDBX Classes
 90
     1153
280
     0
281
     0
  0
CLASS
  1
SUN
  2
AcDbSun
  3
SCENEOE
 90
     1153
280
     0
281
     0
  0
CLASS
  1
ACDBPLACEHOLDER
  2
AcDbPlaceHolder
  3
ObjectDBX Classes
 90
        0
280
     0
281
     0
  0
CLASS
  1
LAYOUT
  2
AcDbLayout
  3
ObjectDBX Classes
 90
        0
280
     0
281
     0
  0
CLASS
  1
TABLESTYLE
  2
AcDbTableStyle
  3
ObjectDBX Classes
 90
     4095
280
     0
281
     0
  0
CLASS
  1
MLEADERSTYLE
  2
AcDbMLeaderStyle
  3
ACDB_MLEADERSTYLE_CLASS
 90
     4095
280
     0
281
     0
  0
CLASS
  1
RASTERVARIABLES
  2
AcDbRasterVariables
  3
ISM
 90
        0
280
     0
281
     0
  0
ENDSEC
  0
SECTION
  2
TABLES
  0
TABLE
  2
VPORT
  5
8
330
0
100
AcDbSymbolTable
 70
     1
  0
VPORT
  5
29
330
8
100
AcDbSymbolTableRecord
100
AcDbViewportTableRecord
  2
*Active
 70
     0
 10
0.0
 20
0.0
 11
1.0
 21
1.0
 12
-2.39780500601098
 22
-1.92471612826396
 13
0.0
 23
0.0
 14
10.0
 24
10.0
 15
10.0
 25
10.0
 16
0.0
 26
0.0
 36
1.0
 17
0.0
 27
0.0
 37
0.0
 40
42.78363848535577
 41
1.859099804305284
 42
50.0
 43
0.0
 44
0.0
 50
0.0
 51
0.0
 71
    16
 72
  2000
 73
     1
 74
     3
 75
     0
 76
     0
 77
     0
 78
     0
281
     0
 65
     1
110
0.0
120
0.0
130
0.0
111
1.0
121
0.0
131
0.0
112
0.0
122
1.0
132
0.0
 79
     0
146
0.0
  0
ENDTAB
  0
TABLE
  2
LTYPE
  5
5
330
0
100
AcDbSymbolTable
 70
     6
  0
LTYPE
  5
14
330
5
100
AcDbSymbolTableRecord
100
AcDbLinetypeTableRecord
  2
ByBlock
 70
     0
  3

 72
    65
 73
     0
 40
0.0
  0
LTYPE
  5
15
330
5
100
AcDbSymbolTableRecord
100
AcDbLinetypeTableRecord
  2
ByLayer
 70
     0
  3

 72
    65
 73
     0
 40
0.0
  0
LTYPE
  5
16
330
5
100
AcDbSymbolTableRecord
100
AcDbLinetypeTableRecord
  2
Continuous
 70
     0
  3
Solid line
 72
    65
 73
     0
 40
0.0
  0
LTYPE
  5
6A
330
5
100
AcDbSymbolTableRecord
100
AcDbLinetypeTableRecord
  2
HIDDEN
 70
     0
  3
Hidden __ __ __ __ __ __ __ __ __ __ __ __ __ __
 72
    65
 73
     2
 40
1.905
 49
1.27
 74
     0
 49
-0.635
 74
     0
  0
LTYPE
  5
6B
330
5
100
AcDbSymbolTableRecord
100
AcDbLinetypeTableRecord
  2
PHANTOM
 70
     0
  3
Phantom ______  __  __  ______  __  __  ______
 72
    65
 73
     6
 40
12.7
 49
6.35
 74
     0
 49
-1.27
 74
     0
 49
1.27
 74
     0
 49
-1.27
 74
     0
 49
1.27
 74
     0
 49
-1.27
 74
     0
  0
LTYPE
  5
6C
330
5
100
AcDbSymbolTableRecord
100
AcDbLinetypeTableRecord
  2
CENTER
 70
     0
  3
Center ____ _ ____ _ ____ _ ____ _ ____ _ ____
 72
    65
 73
     4
 40
10.16
 49
6.35
 74
     0
 49
-1.27
 74
     0
 49
1.27
 74
     0
 49
-1.27
 74
     0
  0
LTYPE
  5
6D
330
5
100
AcDbSymbolTableRecord
100
AcDbLinetypeTableRecord
  2
CENTERX2
 70
     0
  3
Center (2x) ________  __  ________  __  _____
 72
    65
 73
     4
 40
20.32
 49
12.7
 74
     0
 49
-2.54
 74
     0
 49
2.54
 74
     0
 49
-2.54
 74
     0
  0
LTYPE
  5
6E
330
5
100
AcDbSymbolTableRecord
100
AcDbLinetypeTableRecord
  2
DOT2
 70
     0
  3
Dot (.5x) ........................................
 72
    65
 73
     2
 40
0.635
 49
0.0
 74
     0
 49
-0.635
 74
     0
  0
ENDTAB
  0
TABLE
  2
LAYER
  5
2
102
{ACAD_XDICTIONARY
360
184
102
}
330
0
100
AcDbSymbolTable
 70
    18
  0
LAYER
  5
10
330
2
100
AcDbSymbolTableRecord
100
AcDbLayerTableRecord
  2
0
 70
     0
 62
     7
  6
Continuous
370
    -3
390
F
  0
LAYER
  5
6F
330
2
100
AcDbSymbolTableRecord
100
AcDbLayerTableRecord
  2
FORMAT
 70
     0
 62
     2
  6
Continuous
370
    -3
390
F
  0
LAYER
  5
70
330
2
100
AcDbSymbolTableRecord
100
AcDbLayerTableRecord
  2
외형선
 70
     0
 62
     4
  6
Continuous
370
    30
390
F
  0
LAYER
  5
71
330
2
100
AcDbSymbolTableRecord
100
AcDbLayerTableRecord
  2
숨은선
 70
     0
 62
     2
  6
HIDDEN
370
    15
390
F
  0
LAYER
  5
72
330
2
100
AcDbSymbolTableRecord
100
AcDbLayerTableRecord
  2
중심선
 70
     0
 62
     1
  6
CENTERX2
370
    -3
390
F
  0
LAYER
  5
73
330
2
100
AcDbSymbolTableRecord
100
AcDbLayerTableRecord
  2
파단선
 70
     0
 62
     4
  6
Continuous
370
    -3
390
F
  0
LAYER
  5
74
330
2
100
AcDbSymbolTableRecord
100
AcDbLayerTableRecord
  2
해칭선
 70
     0
 62
   100
  6
Continuous
370
    -3
390
F
  0
LAYER
  5
75
330
2
100
AcDbSymbolTableRecord
100
AcDbLayerTableRecord
  2
가는실선
 70
     0
 62
     4
  6
Continuous
370
    -3
390
F
  0
LAYER
  5
76
330
2
100
AcDbSymbolTableRecord
100
AcDbLayerTableRecord
  2
치수_보조선
 70
     0
 62
     4
  6
Continuous
370
    -3
390
F
  0
LAYER
  5
77
330
2
100
AcDbSymbolTableRecord
100
AcDbLayerTableRecord
  2
치수문자_일반주서
 70
     0
 62
     7
  6
Continuous
370
    15
390
F
  0
LAYER
  5
78
330
2
100
AcDbSymbolTableRecord
100
AcDbLayerTableRecord
  2
개별주서
 70
     0
 62
   100
  6
Continuous
370
    30
390
F
  0
LAYER
  5
79
330
2
100
AcDbSymbolTableRecord
100
AcDbLayerTableRecord
  2
중간선
 70
     0
 62
     2
  6
Continuous
370
    15
390
F
  0
LAYER
  5
7A
330
2
100
AcDbSymbolTableRecord
100
AcDbLayerTableRecord
  2
윤곽선
 70
     0
 62
     3
  6
Continuous
370
    40
390
F
  0
LAYER
  5
7B
330
2
100
AcDbSymbolTableRecord
100
AcDbLayerTableRecord
  2
중심마크
 70
     0
 62
   100
  6
Continuous
370
    30
390
F
  0
LAYER
  5
7C
330
2
100
AcDbSymbolTableRecord
100
AcDbLayerTableRecord
  2
가상선
 70
     0
 62
     4
  6
PHANTOM
370
    -3
390
F
  0
LAYER
  5
7D
330
2
100
AcDbSymbolTableRecord
100
AcDbLayerTableRecord
  2
특수지정선
 70
     0
 62
     5
  6
CENTERX2
370
    60
390
F
  0
LAYER
  5
7E
330
2
100
AcDbSymbolTableRecord
100
AcDbLayerTableRecord
  2
참조1
 70
     0
 62
    -4
  6
Continuous
370
    -3
390
F
  0
LAYER
  5
18B
330
2
100
AcDbSymbolTableRecord
100
AcDbLayerTableRecord
  2
Defpoints
 70
     0
 62
     7
  6
Continuous
290
     0
370
    -3
390
F
  0
ENDTAB
  0
TABLE
  2
STYLE
  5
3
330
0
100
AcDbSymbolTable
 70
     2
  0
STYLE
  5
11
330
3
100
AcDbSymbolTableRecord
100
AcDbTextStyleTableRecord
  2
Standard
 70
     0
 40
0.0
 41
1.0
 50
0.0
 71
     0
 42
3.5
  3
txt
  4

  0
STYLE
  5
94
330
3
100
AcDbSymbolTableRecord
100
AcDbTextStyleTableRecord
  2
SLDTEXTSTYLE0
 70
     0
 40
0.0
 41
0.75
 50
0.0
 71
     0
 42
3.5
  3
TXT
  4

  0
ENDTAB
  0
TABLE
  2
VIEW
  5
6
330
0
100
AcDbSymbolTable
 70
     0
  0
ENDTAB
  0
TABLE
  2
UCS
  5
7
330
0
100
AcDbSymbolTable
 70
     0
  0
ENDTAB
  0
TABLE
  2
APPID
  5
9
330
0
100
AcDbSymbolTable
 70
     1
  0
APPID
  5
12
330
9
100
AcDbSymbolTableRecord
100
AcDbRegAppTableRecord
  2
ACAD
 70
     0
  0
ENDTAB
  0
TABLE
  2
DIMSTYLE
  5
A
330
0
100
AcDbSymbolTable
 70
     4
100
AcDbDimStyleTable
  0
DIMSTYLE
105
27
330
A
100
AcDbSymbolTableRecord
100
AcDbDimStyleTableRecord
  2
ISO-25
 70
     0
 41
2.5
 42
0.625
 43
3.75
 44
1.25
 73
     0
 74
     0
 77
     1
 78
     8
140
2.5
141
2.5
143
0.03937007874016
147
0.625
171
     3
172
     1
178
     0
271
     2
272
     2
274
     3
278
    44
283
     0
284
     8
340
11
  0
DIMSTYLE
105
DB
102
{ACAD_REACTORS
330
DA
330
EF
330
103
330
118
102
}
330
A
100
AcDbSymbolTableRecord
100
AcDbDimStyleTableRecord
  2
SLDDIMSTYLE0
 70
     0
 41
3.302
 44
0.0
 45
0.000000001
 73
     0
 74
     0
 77
     1
 78
    12
 79
     3
140
3.5
143
0.0393700787401575
147
0.875
148
0.000000001
170
     1
172
     1
173
     1
178
     0
271
     2
272
     2
276
     2
284
    12
289
     0
340
94
  0
DIMSTYLE
105
104
330
A
100
AcDbSymbolTableRecord
100
AcDbDimStyleTableRecord
  2
SLDDIMSTYLE1
 70
     0
 41
3.302
 44
0.0
 45
0.000000001
 73
     0
 74
     0
 77
     1
 78
    12
 79
     3
140
3.5
143
0.0393700787401575
147
0.875
148
0.000000001
170
     1
173
     1
178
     0
271
     2
272
     2
276
     2
284
    12
340
94
  0
DIMSTYLE
105
119
330
A
100
AcDbSymbolTableRecord
100
AcDbDimStyleTableRecord
  2
SLDDIMSTYLE2
 70
     0
 41
3.302
 44
0.0
 45
0.000000001
 73
     0
 74
     0
 77
     1
 78
     4
 79
     1
140
3.5
143
0.0393700787401575
147
0.875
148
0.000000001
170
     1
173
     1
178
     0
271
     2
272
     2
276
     2
284
    12
340
94
  0
ENDTAB
  0
TABLE
  2
BLOCK_RECORD
  5
1
330
0
100
AcDbSymbolTable
 70
     8
  0
BLOCK_RECORD
  5
1F
330
1
100
AcDbSymbolTableRecord
100
AcDbBlockTableRecord
  2
*Model_Space
340
22
  0
BLOCK_RECORD
  5
1B
330
1
100
AcDbSymbolTableRecord
100
AcDbBlockTableRecord
  2
*Paper_Space
340
1E
  0
BLOCK_RECORD
  5
23
330
1
100
AcDbSymbolTableRecord
100
AcDbBlockTableRecord
  2
*Paper_Space0
340
26
  0
BLOCK_RECORD
  5
7F
330
1
100
AcDbSymbolTableRecord
100
AcDbBlockTableRecord
  2
블럭10
340
0
102
{BLKREFS
331
D3
102
}
  0
BLOCK_RECORD
  5
DC
330
1
100
AcDbSymbolTableRecord
100
AcDbBlockTableRecord
  2
_D
340
0
  0
BLOCK_RECORD
  5
F0
330
1
100
AcDbSymbolTableRecord
100
AcDbBlockTableRecord
  2
_D_1
340
0
  0
BLOCK_RECORD
  5
105
330
1
100
AcDbSymbolTableRecord
100
AcDbBlockTableRecord
  2
_D_2
340
0
  0
BLOCK_RECORD
  5
11A
330
1
100
AcDbSymbolTableRecord
100
AcDbBlockTableRecord
  2
_D_3
340
0
  0
BLOCK_RECORD
  5
133
330
1
100
AcDbSymbolTableRecord
100
AcDbBlockTableRecord
  2
SW_DOWELSYMBOL_0
340
0
102
{BLKREFS
331
139
102
}
  0
ENDTAB
  0
ENDSEC
  0
SECTION
  2
BLOCKS
  0
BLOCK
  5
20
330
1F
100
AcDbEntity
  8
0
100
AcDbBlockBegin
  2
*Model_Space
 70
     0
 10
0.0
 20
0.0
 30
0.0
  3
*Model_Space
  1
*Model_Space
  0
ENDBLK
  5
21
330
1F
100
AcDbEntity
  8
0
100
AcDbBlockEnd
  0
BLOCK
  5
1C
330
1B
100
AcDbEntity
 67
     1
  8
0
100
AcDbBlockBegin
  2
*Paper_Space
 70
     0
 10
0.0
 20
0.0
 30
0.0
  3
*Paper_Space
  1
*Paper_Space
  0
ENDBLK
  5
1D
330
1B
100
AcDbEntity
 67
     1
  8
0
100
AcDbBlockEnd
  0
BLOCK
  5
24
330
23
100
AcDbEntity
  8
0
100
AcDbBlockBegin
  2
*Paper_Space0
 70
     0
 10
0.0
 20
0.0
 30
0.0
  3
*Paper_Space0
  1
*Paper_Space0
  0
ENDBLK
  5
25
330
23
100
AcDbEntity
  8
0
100
AcDbBlockEnd
  0
BLOCK
  5
80
330
7F
100
AcDbEntity
  8
0
100
AcDbBlockBegin
  2
블럭10
 70
     2
 10
0.0
 20
0.0
 30
0.0
  3
블럭10
  1
블럭10
  0
ELLIPSE
  5
82
330
7F
100
AcDbEntity
  8
중심선
100
AcDbEllipse
 10
20.54032771741204
 20
12.0471743016438
 30
0.0
 11
6.600054785286829
 21
-1.261213355974178E-13
 31
0.0
210
0.0
220
0.0
230
1.0
 40
0.636358354079598
 41
0.9219305317359503
 42
6.513795318482858
  0
ELLIPSE
  5
83
330
7F
100
AcDbEntity
  8
중심선
100
AcDbEllipse
 10
20.54032771746488
 20
12.04717430159265
 30
0.0
 11
3.960054785062283
 21
1.540847449632565E-10
 31
0.0
210
0.0
220
0.0
230
1.0
 40
0.3939339440162632
 41
1.131841032648279
 42
5.62031148352944
  0
LINE
  5
84
330
7F
100
AcDbEntity
  8
중심선
100
AcDbLine
 10
2.268634060543552
 20
16.24717430164393
 30
0.0
 11
5.714909304380834
 21
16.24717430164393
 31
0.0
  0
LINE
  5
85
330
7F
100
AcDbEntity
  8
중심선
100
AcDbLine
 10
5.245725140726316
 20
7.84717430164391
 30
0.0
 11
8.692000384563599
 21
7.84717430164391
 31
0.0
  0
LINE
  5
86
330
7F
100
AcDbEntity
  8
중심선
100
AcDbLine
 10
15.74043728645272
 20
16.24717430164393
 30
0.0
 11
8.692000384563599
 21
7.84717430164391
 31
0.0
  0
LINE
  5
87
330
7F
100
AcDbEntity
  8
중심선
100
AcDbLine
 10
0.1404042013395286
 20
13.71084872107135
 30
0.0
 11
3.58671253028996
 21
13.71088815037384
 31
0.0
  0
LINE
  5
88
330
7F
100
AcDbEntity
  8
중심선
100
AcDbLine
 10
2.750260043222114
 20
10.84717430164391
 30
0.0
 11
6.196535287059397
 21
10.84717430164391
 31
0.0
  0
LINE
  5
89
330
7F
100
AcDbEntity
  8
중심선
100
AcDbLine
 10
12.29416204261559
 20
16.24717430164393
 30
0.0
 11
5.245725140726316
 21
7.84717430164391
 31
0.0
  0
LINE
  5
8A
330
7F
100
AcDbEntity
  8
중심선
100
AcDbLine
 10
10.72767329541681
 20
16.24717430164393
 30
0.0
 11
6.196535287059397
 21
10.84717430164391
 31
0.0
  0
LINE
  5
8B
330
7F
100
AcDbEntity
  8
중심선
100
AcDbLine
 10
7.28139805157953
 20
16.24717430164393
 30
0.0
 11
2.750260043222114
 21
10.84717430164391
 31
0.0
  0
LINE
  5
8C
330
7F
100
AcDbEntity
  8
중심선
100
AcDbLine
 10
5.714909304380834
 20
16.24717430164393
 30
0.0
 11
3.58671253028996
 21
13.71088815037384
 31
0.0
  0
LINE
  5
8D
330
7F
100
AcDbEntity
  8
중심선
100
AcDbLine
 10
2.268634060543552
 20
16.24717430164393
 30
0.0
 11
0.1404042013395286
 21
13.71084872107135
 31
0.0
  0
LINE
  5
8E
330
7F
100
AcDbEntity
  8
중심선
100
AcDbLine
 10
7.28139805157953
 20
16.24717430164393
 30
0.0
 11
10.72767329541681
 21
16.24717430164393
 31
0.0
  0
LINE
  5
8F
330
7F
100
AcDbEntity
  8
중심선
100
AcDbLine
 10
12.29416204261559
 20
16.24717430164393
 30
0.0
 11
15.74043728645272
 21
16.24717430164393
 31
0.0
  0
LINE
  5
90
330
7F
100
AcDbEntity
  8
중심선
100
AcDbLine
 10
19.22036997980202
 20
11.08717430171403
 30
0.0
 11
23.66174974927406
 21
11.08717430171406
 31
0.0
  0
LINE
  5
91
330
7F
100
AcDbEntity
  8
중심선
100
AcDbLine
 10
19.22039502424796
 20
13.00717430171391
 30
0.0
 11
19.22036997980202
 21
11.08717430171403
 31
0.0
  0
LINE
  5
92
330
7F
100
AcDbEntity
  8
중심선
100
AcDbLine
 10
19.22039502424796
 20
13.00717430171391
 30
0.0
 11
26.96566020931264
 21
13.00717430171391
 31
0.0
  0
LINE
  5
93
330
7F
100
AcDbEntity
  8
중심선
100
AcDbLine
 10
22.22332737316547
 20
13.45928029700563
 30
0.0
 11
24.52862924686651
 21
15.39360700705356
 31
0.0
  0
ATTDEF
  5
95
330
7F
100
AcDbEntity
  8
FORMAT
 62
     2
100
AcDbText
 10
3.448148490846466
 20
2.075366912832191
 30
0.0
 40
4.233333333333333
  1
EM206012
 41
0.75
  7
SLDTEXTSTYLE0
 11
3.448148490846466
 21
-0.0412997538344756
 31
0.0
100
AcDbAttributeDefinition
  3

  2
AUTOATTR0
 70
     0
 74
     1
  0
ENDBLK
  5
81
330
7F
100
AcDbEntity
  8
0
100
AcDbBlockEnd
  0
BLOCK
  5
DD
330
DC
100
AcDbEntity
  8
0
100
AcDbBlockBegin
  2
_D
 70
     0
 10
0.0
 20
0.0
 30
0.0
  3
_D
  1
_D
  0
LINE
  5
DF
330
DC
100
AcDbEntity
  8
치수문자_일반주서
 62
     0
370
    -2
100
AcDbLine
 10
-34.08249999999998
 20
2.381250000000001
 30
0.0
 11
-47.44999999999998
 21
2.381249999999951
 31
0.0
  0
LINE
  5
E0
330
DC
100
AcDbEntity
  8
치수문자_일반주서
 62
     0
370
    -2
100
AcDbLine
 10
-34.08249999999998
 20
-2.381250000000002
 30
0.0
 11
-47.44999999999997
 21
-2.381250000000052
 31
0.0
  0
LINE
  5
E1
330
DC
100
AcDbEntity
  8
치수문자_일반주서
 62
     0
370
    -2
100
AcDbLine
 10
-47.44999999999997
 20
-0.9207500000000484
 30
0.0
 11
-47.44999999999997
 21
0.920749999999948
 31
0.0
  0
SOLID
  5
E2
330
DC
100
AcDbEntity
  8
치수문자_일반주서
 62
     0
100
AcDbTrace
 10
-46.89966666666664
 20
-0.9207500000000467
 30
0.0
 11
-48.00033333333331
 21
-0.92075000000005
 31
0.0
 12
-47.44999999999998
 22
2.381249999999951
 32
0.0
 13
-47.44999999999998
 23
2.381249999999951
 33
0.0
  0
SOLID
  5
E3
330
DC
100
AcDbEntity
  8
치수문자_일반주서
 62
     0
100
AcDbTrace
 10
-48.00033333333331
 20
0.9207499999999463
 30
0.0
 11
-46.89966666666664
 21
0.9207499999999497
 31
0.0
 12
-47.44999999999997
 22
-2.381250000000052
 32
0.0
 13
-47.44999999999997
 23
-2.381250000000052
 33
0.0
  0
MTEXT
  5
E4
330
DC
100
AcDbEntity
  8
치수문자_일반주서
 62
     0
100
AcDbMText
 10
-51.82499999999997
 20
-0.0000000000000107
 30
0.0
 40
3.5
 41
0.0
 71
     2
 72
     1
  1
\A1;%%c4.76 [3/16]
  7
SLDTEXTSTYLE0
 11
-2.983906501879684E-15
 21
1.0
 31
0.0
 73
     1
 44
1.0
  0
POINT
  5
E5
330
DC
100
AcDbEntity
  8
Defpoints
 62
     0
100
AcDbPoint
 10
-34.01999999999998
 20
2.381250000000001
 30
0.0
  0
POINT
  5
E6
330
DC
100
AcDbEntity
  8
Defpoints
 62
     0
100
AcDbPoint
 10
-34.01999999999998
 20
-2.381250000000001
 30
0.0
  0
POINT
  5
E7
330
DC
100
AcDbEntity
  8
Defpoints
 62
     0
100
AcDbPoint
 10
-47.44999999999997
 20
-2.381250000000052
 30
0.0
  0
ENDBLK
  5
DE
330
DC
100
AcDbEntity
  8
0
100
AcDbBlockEnd
  0
BLOCK
  5
F1
330
F0
100
AcDbEntity
  8
0
100
AcDbBlockBegin
  2
_D_1
 70
     0
 10
0.0
 20
0.0
 30
0.0
  3
_D_1
  1
_D_1
  0
LINE
  5
F3
330
F0
100
AcDbEntity
  8
치수문자_일반주서
 62
     0
370
    -2
100
AcDbLine
 10
29.11250000000003
 20
2.381250000000004
 30
0.0
 11
40.29291898389517
 21
2.381250000000044
 31
0.0
  0
LINE
  5
F4
330
F0
100
AcDbEntity
  8
치수문자_일반주서
 62
     0
370
    -2
100
AcDbLine
 10
29.11250000000003
 20
-2.381249999999996
 30
0.0
 11
40.29291898389518
 21
-2.381249999999952
 31
0.0
  0
LINE
  5
F5
330
F0
100
AcDbEntity
  8
치수문자_일반주서
 62
     0
370
    -2
100
AcDbLine
 10
40.29291898389517
 20
2.381250000000044
 30
0.0
 11
40.29291898389503
 21
48.7625
 31
0.0
  0
LINE
  5
F6
330
F0
100
AcDbEntity
  8
치수문자_일반주서
 62
     0
370
    -2
100
AcDbLine
 10
40.29291898389517
 20
2.381250000000044
 30
0.0
 11
40.29291898389518
 21
-2.381249999999952
 31
0.0
  0
LINE
  5
F7
330
F0
100
AcDbEntity
  8
치수문자_일반주서
 62
     0
370
    -2
100
AcDbLine
 10
40.29291898389516
 20
5.683250000000044
 30
0.0
 11
40.29291898389516
 21
8.985250000000043
 31
0.0
  0
LINE
  5
F8
330
F0
100
AcDbEntity
  8
치수문자_일반주서
 62
     0
370
    -2
100
AcDbLine
 10
40.29291898389519
 20
-5.683249999999951
 30
0.0
 11
40.2929189838952
 21
-8.98524999999995
 31
0.0
  0
SOLID
  5
F9
330
F0
100
AcDbEntity
  8
치수문자_일반주서
 62
     0
100
AcDbTrace
 10
39.74258565056183
 20
5.683250000000042
 30
0.0
 11
40.8432523172285
 21
5.683250000000045
 31
0.0
 12
40.29291898389517
 22
2.381250000000044
 32
0.0
 13
40.29291898389517
 23
2.381250000000044
 33
0.0
  0
SOLID
  5
FA
330
F0
100
AcDbEntity
  8
치수문자_일반주서
 62
     0
100
AcDbTrace
 10
40.84325231722853
 20
-5.68324999999995
 30
0.0
 11
39.74258565056186
 21
-5.683249999999953
 31
0.0
 12
40.29291898389518
 22
-2.381249999999952
 32
0.0
 13
40.29291898389518
 23
-2.381249999999952
 33
0.0
  0
MTEXT
  5
FB
330
F0
100
AcDbEntity
  8
치수문자_일반주서
 62
     0
100
AcDbMText
 10
35.91791898389507
 20
34.76249999999999
 30
0.0
 40
3.5
 41
0.0
 71
     2
 72
     1
  1
\A1;%%c4.76 [3/16]
  7
SLDTEXTSTYLE0
 11
-2.983906501879687E-15
 21
1.0
 31
0.0
 73
     1
 44
1.0
  0
POINT
  5
FC
330
F0
100
AcDbEntity
  8
Defpoints
 62
     0
100
AcDbPoint
 10
29.05000000000003
 20
2.381250000000003
 30
0.0
  0
POINT
  5
FD
330
F0
100
AcDbEntity
  8
Defpoints
 62
     0
100
AcDbPoint
 10
29.05000000000003
 20
-2.381249999999996
 30
0.0
  0
POINT
  5
FE
330
F0
100
AcDbEntity
  8
Defpoints
 62
     0
100
AcDbPoint
 10
40.29291898389518
 20
-2.381249999999954
 30
0.0
  0
ENDBLK
  5
F2
330
F0
100
AcDbEntity
  8
0
100
AcDbBlockEnd
  0
BLOCK
  5
106
330
105
100
AcDbEntity
  8
0
100
AcDbBlockBegin
  2
_D_2
 70
     0
 10
0.0
 20
0.0
 30
0.0
  3
_D_2
  1
_D_2
  0
LINE
  5
108
330
105
100
AcDbEntity
  8
치수문자_일반주서
 62
     0
370
    -2
100
AcDbLine
 10
29.05000000000003
 20
2.443750000000003
 30
0.0
 11
29.05000000000003
 21
24.69874999999999
 31
0.0
  0
LINE
  5
109
330
105
100
AcDbEntity
  8
치수문자_일반주서
 62
     0
370
    -2
100
AcDbLine
 10
10.00000000000002
 20
1.9591959873144
 30
0.0
 11
10.00000000000002
 21
24.69874999999999
 31
0.0
  0
LINE
  5
10A
330
105
100
AcDbEntity
  8
치수문자_일반주서
 62
     0
370
    -2
100
AcDbLine
 10
25.74800000000003
 20
24.69874999999999
 30
0.0
 11
13.30200000000002
 21
24.69874999999999
 31
0.0
  0
SOLID
  5
10B
330
105
100
AcDbEntity
  8
치수문자_일반주서
 62
     0
100
AcDbTrace
 10
25.74800000000003
 20
24.14841666666666
 30
0.0
 11
25.74800000000003
 21
25.24908333333333
 31
0.0
 12
29.05000000000003
 22
24.69874999999999
 32
0.0
 13
29.05000000000003
 23
24.69874999999999
 33
0.0
  0
SOLID
  5
10C
330
105
100
AcDbEntity
  8
치수문자_일반주서
 62
     0
100
AcDbTrace
 10
13.30200000000002
 20
25.24908333333333
 30
0.0
 11
13.30200000000002
 21
24.14841666666666
 31
0.0
 12
10.00000000000002
 22
24.69874999999999
 32
0.0
 13
10.00000000000002
 23
24.69874999999999
 33
0.0
  0
MTEXT
  5
10D
330
105
100
AcDbEntity
  8
치수문자_일반주서
 62
     0
100
AcDbMText
 10
13.79856570721769
 20
29.07374999999999
 30
0.0
 40
3.5
 41
0.0
 71
     2
 72
     1
  1
\A1;19.05 [3/4]
  7
SLDTEXTSTYLE0
 73
     1
 44
1.0
  0
POINT
  5
10E
330
105
100
AcDbEntity
  8
Defpoints
 62
     0
100
AcDbPoint
 10
29.05000000000003
 20
2.381250000000003
 30
0.0
  0
POINT
  5
10F
330
105
100
AcDbEntity
  8
Defpoints
 62
     0
100
AcDbPoint
 10
10.00000000000002
 20
1.8966959873144
 30
0.0
  0
POINT
  5
110
330
105
100
AcDbEntity
  8
Defpoints
 62
     0
100
AcDbPoint
 10
10.00000000000002
 20
24.69874999999999
 30
0.0
  0
ENDBLK
  5
107
330
105
100
AcDbEntity
  8
0
100
AcDbBlockEnd
  0
BLOCK
  5
11B
330
11A
100
AcDbEntity
  8
0
100
AcDbBlockBegin
  2
_D_3
 70
     0
 10
0.0
 20
0.0
 30
0.0
  3
_D_3
  1
_D_3
  0
LINE
  5
11D
330
11A
100
AcDbEntity
  8
치수문자_일반주서
 62
     0
370
    -2
100
AcDbLine
 10
29.05000000000003
 20
2.443750000000003
 30
0.0
 11
29.05000000000003
 21
39.52280344013392
 31
0.0
  0
LINE
  5
11E
330
11A
100
AcDbEntity
  8
치수문자_일반주서
 62
     0
370
    -2
100
AcDbLine
 10
-34.44999999999997
 20
2.013749999999995
 30
0.0
 11
-34.44999999999997
 21
39.52280344013392
 31
0.0
  0
LINE
  5
11F
330
11A
100
AcDbEntity
  8
치수문자_일반주서
 62
     0
370
    -2
100
AcDbLine
 10
25.74800000000003
 20
39.52280344013392
 30
0.0
 11
-31.14799999999997
 21
39.52280344013392
 31
0.0
  0
SOLID
  5
120
330
11A
100
AcDbEntity
  8
치수문자_일반주서
 62
     0
100
AcDbTrace
 10
25.74800000000003
 20
38.97247010680059
 30
0.0
 11
25.74800000000003
 21
40.07313677346725
 31
0.0
 12
29.05000000000003
 22
39.52280344013392
 32
0.0
 13
29.05000000000003
 23
39.52280344013392
 33
0.0
  0
SOLID
  5
121
330
11A
100
AcDbEntity
  8
치수문자_일반주서
 62
     0
100
AcDbTrace
 10
-31.14799999999997
 20
40.07313677346725
 30
0.0
 11
-31.14799999999997
 21
38.97247010680059
 31
0.0
 12
-34.44999999999997
 22
39.52280344013392
 32
0.0
 13
-34.44999999999997
 23
39.52280344013392
 33
0.0
  0
MTEXT
  5
122
330
11A
100
AcDbEntity
  8
치수문자_일반주서
 62
     0
100
AcDbMText
 10
-2.699999999999974
 20
43.89780344013392
 30
0.0
 40
3.5
 41
0.0
 71
     2
 72
     1
  1
\A1;63.5 [2 1/2]
  7
SLDTEXTSTYLE0
 73
     1
 44
1.0
  0
POINT
  5
123
330
11A
100
AcDbEntity
  8
Defpoints
 62
     0
100
AcDbPoint
 10
29.05000000000003
 20
2.381250000000003
 30
0.0
  0
POINT
  5
124
330
11A
100
AcDbEntity
  8
Defpoints
 62
     0
100
AcDbPoint
 10
-34.44999999999997
 20
1.951249999999994
 30
0.0
  0
POINT
  5
125
330
11A
100
AcDbEntity
  8
Defpoints
 62
     0
100
AcDbPoint
 10
-34.44999999999997
 20
39.52280344013392
 30
0.0
  0
ENDBLK
  5
11C
330
11A
100
AcDbEntity
  8
0
100
AcDbBlockEnd
  0
BLOCK
  5
134
330
133
100
AcDbEntity
  8
0
100
AcDbBlockBegin
  2
SW_DOWELSYMBOL_0
 70
     0
 10
0.0
 20
0.0
 30
0.0
  3
SW_DOWELSYMBOL_0
  1
SW_DOWELSYMBOL_0
  0
CIRCLE
  5
136
330
133
100
AcDbEntity
  8
해칭선
 62
     0
100
AcDbCircle
 10
0.0
 20
0.0
 30
0.0
 40
3.000000000000002
  0
HATCH
  5
137
330
133
100
AcDbEntity
  8
0
  6
Continuous
 62
     0
370
     0
100
AcDbHatch
 10
0.0
 20
0.0
 30
0.0
210
0.0
220
0.0
230
1.0
  2
SOLID
 70
     1
 71
     0
 91
        1
 92
        0
 93
        3
 72
     2
 10
-0.0000000000000234
 20
0.0
 40
3.000000000000002
 50
0.0
 51
90.0
 73
     1
 72
     1
 10
-0.0000000000000234
 20
3.000000000000002
 11
-0.0000000000000234
 21
0.0
 72
     1
 10
-0.0000000000000234
 20
0.0
 11
2.999999999999979
 21
0.0
 97
        0
 75
     0
 76
     1
 98
        1
 10
0.0
 20
0.0
  0
HATCH
  5
138
330
133
100
AcDbEntity
  8
0
  6
Continuous
 62
     0
370
     0
100
AcDbHatch
 10
0.0
 20
0.0
 30
0.0
210
0.0
220
0.0
230
1.0
  2
SOLID
 70
     1
 71
     0
 91
        1
 92
        0
 93
        3
 72
     2
 10
-0.0000000000000234
 20
0.0
 40
3.000000000000002
 50
180.0
 51
270.0000000000008
 73
     1
 72
     1
 10
-0.0000000000000234
 20
-3.000000000000002
 11
-0.0000000000000234
 21
0.0
 72
     1
 10
-0.0000000000000234
 20
0.0
 11
-3.000000000000026
 21
0.0
 97
        0
 75
     0
 76
     1
 98
        1
 10
0.0
 20
0.0
  0
ENDBLK
  5
135
330
133
100
AcDbEntity
  8
0
100
AcDbBlockEnd
  0
ENDSEC
  0
SECTION
  2
ENTITIES
  0
LINE
  5
96
330
1F
100
AcDbEntity
  8
외형선
  6
Continuous
370
    15
100
AcDbLine
 10
9.109935059209073
 20
2.38125
 30
0.0
 11
-34.01999999999997
 21
2.381249999999997
 31
0.0
  0
LINE
  5
97
330
1F
100
AcDbEntity
  8
외형선
  6
Continuous
370
    15
100
AcDbLine
 10
-34.01999999999997
 20
-2.381250000000003
 30
0.0
 11
9.109935059209072
 21
-2.381250000000001
 31
0.0
  0
LINE
  5
98
330
1F
100
AcDbEntity
  8
외형선
  6
Continuous
370
    15
100
AcDbLine
 10
-34.01999999999997
 20
2.381249999999994
 30
0.0
 11
-34.44999999999997
 21
1.951249999999994
 31
0.0
  0
LINE
  5
99
330
1F
100
AcDbEntity
  8
외형선
  6
Continuous
370
    15
100
AcDbLine
 10
-34.44999999999997
 20
-1.95125
 30
0.0
 11
-34.01999999999997
 21
-2.38125
 31
0.0
  0
SPLINE
  5
9A
330
1F
100
AcDbEntity
  8
외형선
  6
Continuous
370
    15
100
AcDbSpline
210
0.0
220
0.0
230
1.0
 70
     8
 71
     3
 72
     9
 73
     5
 74
     0
 42
0.000000001
 43
0.00000001
 40
0.0
 40
0.0
 40
0.0
 40
0.0
 40
0.4249904844944564
 40
1.0
 40
1.0
 40
1.0
 40
1.0
 10
9.85667118258383
 20
0.6416454580100331
 30
0.0
 10
9.778130351549658
 20
0.6794282504063133
 30
0.0
 10
9.59332425847301
 20
0.7683309288773952
 30
0.0
 10
9.400914290439303
 20
0.8682046543305253
 30
0.0
 10
9.290276727941805
 20
0.9256329968150635
 30
0.0
  0
SPLINE
  5
9B
330
1F
100
AcDbEntity
  8
외형선
  6
Continuous
370
    15
100
AcDbSpline
210
0.0
220
0.0
230
1.0
 70
     8
 71
     3
 72
     9
 73
     5
 74
     0
 42
0.000000001
 43
0.00000001
 40
0.0
 40
0.0
 40
0.0
 40
0.0
 40
0.4973388272293491
 40
1.0
 40
1.0
 40
1.0
 40
1.0
 10
9.228611309720332
 20
1.896721793665346
 30
0.0
 10
9.207845479477758
 20
1.894434356738301
 30
0.0
 10
9.166091590367074
 20
1.889835003537209
 30
0.0
 10
9.125149663664754
 20
1.881313602443674
 30
0.0
 10
9.104569746773073
 20
1.877030224976348
 30
0.0
  0
SPLINE
  5
9C
330
1F
100
AcDbEntity
  8
0
  6
Continuous
 62
     1
370
    15
100
AcDbSpline
210
0.0
220
0.0
230
1.0
 70
     8
 71
     3
 72
     9
 73
     5
 74
     0
 42
0.000000001
 43
0.00000001
 40
0.0
 40
0.0
 40
0.0
 40
0.0
 40
0.4403627720817208
 40
0.9999999999999999
 40
0.9999999999999999
 40
0.9999999999999999
 40
0.9999999999999999
 10
22.88159142718528
 20
0.6101378452144686
 30
0.0
 10
22.78419395566778
 20
0.6563648589628756
 30
0.0
 10
22.56301842110324
 20
0.7613397039750427
 30
0.0
 10
22.34272926759574
 20
0.8762700536174319
 30
0.0
 10
22.21944725638633
 20
0.9405893558949772
 30
0.0
  0
LINE
  5
9D
330
1F
100
AcDbEntity
  8
0
  6
Continuous
 62
     1
370
    15
100
AcDbLine
 10
17.41668802617491
 20
2.381250000000001
 30
0.0
 11
16.26167424070384
 21
2.381250000000001
 31
0.0
  0
LINE
  5
9E
330
1F
100
AcDbEntity
  8
0
  6
Continuous
 62
     1
370
    15
100
AcDbLine
 10
16.26167424070384
 20
-2.381250000000002
 30
0.0
 11
17.4166880261749
 21
-2.381250000000002
 31
0.0
  0
SPLINE
  5
9F
330
1F
100
AcDbEntity
  8
0
  6
Continuous
 62
     1
370
    15
100
AcDbSpline
210
0.0
220
0.0
230
1.0
 70
     8
 71
     3
 72
    15
 73
    11
 74
     0
 42
0.000000001
 43
0.00000001
 40
0.0
 40
0.0
 40
0.0
 40
0.0
 40
0.1828324736139397
 40
0.3476432658669726
 40
0.4955329226351185
 40
0.6167045575338468
 40
0.7080619851071825
 40
0.8013809453948599
 40
0.9106481550819838
 40
1.0
 40
1.0
 40
1.0
 40
1.0
 10
22.09293924994538
 20
1.892229343638398
 30
0.0
 10
21.97955398372429
 20
1.886424393094223
 30
0.0
 10
21.76395976530591
 20
1.875386682311866
 30
0.0
 10
21.44232032582724
 20
1.865053693396789
 30
0.0
 10
21.15539401832511
 20
1.860852286045344
 30
0.0
 10
20.91746194285321
 20
1.859309002543324
 30
0.0
 10
20.71753831773434
 20
1.859919364529494
 30
0.0
 10
20.5306549983576
 20
1.862161410085603
 30
0.0
 10
20.34106514210214
 20
1.865682692965829
 30
0.0
 10
20.21221155241477
 20
1.869830774805766
 30
0.0
 10
20.15424477784843
 20
1.871696853395286
 30
0.0
  0
SPLINE
  5
A0
330
1F
100
AcDbEntity
  8
0
  6
Continuous
 62
     1
370
    15
100
AcDbSpline
210
0.0
220
0.0
230
1.0
 70
     8
 71
     3
 72
    18
 73
    14
 74
     0
 42
0.000000001
 43
0.00000001
 40
0.0
 40
0.0
 40
0.0
 40
0.0
 40
0.1330406997932295
 40
0.241714170476743
 40
0.3294923771949255
 40
0.4051576391457768
 40
0.4731753114035792
 40
0.5735062610227001
 40
0.6640816522292877
 40
0.7099904102228476
 40
0.7813793467448229
 40
0.8784562172855492
 40
1.0
 40
1.0
 40
1.0
 40
1.0
 10
18.5116788932548
 20
-1.981536329501516
 30
0.0
 10
18.66688469753513
 20
-1.966586119784414
 30
0.0
 10
18.94886940066057
 20
-1.939423923961339
 30
0.0
 10
19.34522970108913
 20
-1.910653594351925
 30
0.0
 10
19.67580336386821
 20
-1.89123247902809
 30
0.0
 10
19.95542369030993
 20
-1.878059073855754
 30
0.0
 10
20.24267049518876
 20
-1.868088804351317
 30
0.0
 10
20.55214194105698
 20
-1.861177687546125
 30
0.0
 10
20.83459648277279
 20
-1.859220496312496
 30
0.0
 10
21.0821710490382
 20
-1.86019408024081
 30
0.0
 10
21.33833119610381
 20
-1.863667494451773
 30
0.0
 10
21.68525575403555
 20
-1.872555518092933
 30
0.0
 10
21.94727030574229
 20
-1.885199710542146
 30
0.0
 10
22.09293924994537
 20
-1.892229343638398
 30
0.0
  0
SPLINE
  5
A1
330
1F
100
AcDbEntity
  8
0
  6
Continuous
 62
     1
370
    15
100
AcDbSpline
210
0.0
220
0.0
230
1.0
 70
     8
 71
     3
 72
    14
 73
    10
 74
     0
 42
0.000000001
 43
0.00000001
 40
0.0
 40
0.0
 40
0.0
 40
0.0
 40
0.216673584335688
 40
0.3533086178852263
 40
0.482739378496683
 40
0.6476347574451687
 40
0.78841992808353
 40
0.8993131307646208
 40
1.0
 40
1.0
 40
1.0
 40
1.0
 10
24.00601522300709
 20
-1.791018004204259
 30
0.0
 10
24.13305976450784
 20
-1.771622593409689
 30
0.0
 10
24.34021898747041
 20
-1.739996376479946
 30
0.0
 10
24.62646054440498
 20
-1.702410657752558
 30
0.0
 10
24.88325148672798
 20
-1.671936338580371
 30
0.0
 10
25.14016114589855
 20
-1.645200560572552
 30
0.0
 10
25.38621958383941
 20
-1.623361203513851
 30
0.0
 10
25.59415994120391
 20
-1.607335897036502
 30
0.0
 10
25.71857073173937
 20
-1.599581902367549
 30
0.0
 10
25.77777542377228
 20
-1.59589192608475
 30
0.0
  0
SPLINE
  5
A2
330
1F
100
AcDbEntity
  8
0
  6
Continuous
 62
     1
370
    15
100
AcDbSpline
210
0.0
220
0.0
230
1.0
 70
     8
 71
     3
 72
    25
 73
    21
 74
     0
 42
0.000000001
 43
0.00000001
 40
0.0
 40
0.0
 40
0.0
 40
0.0
 40
0.0708007329204447
 40
0.1252833043322613
 40
0.1819426715444003
 40
0.2207361854001607
 40
0.2642429355712643
 40
0.3127185574496515
 40
0.3662239267681436
 40
0.4190850152837449
 40
0.4627175576277308
 40
0.5007315071953334
 40
0.5598567613797368
 40
0.6364266774074226
 40
0.7156982942039477
 40
0.8140848734227543
 40
0.837451944163176
 40
0.8754636344390033
 40
0.9294942707324688
 40
1.0
 40
1.0
 40
1.0
 40
1.0
 10
15.20697129647493
 20
1.628653423370788
 30
0.0
 10
15.10817741284528
 20
1.620617158569912
 30
0.0
 10
14.93335967186443
 20
1.606396828253924
 30
0.0
 10
14.68035694835096
 20
1.590908084125036
 30
0.0
 10
14.47318967325473
 20
1.581026577318638
 30
0.0
 10
14.28246203517361
 20
1.574253720202391
 30
0.0
 10
14.10120886878511
 20
1.569669820801471
 30
0.0
 10
13.89902744214216
 20
1.566932510482572
 30
0.0
 10
13.68322898307534
 20
1.566846760467753
 30
0.0
 10
13.47399953500571
 20
1.569662521918006
 30
0.0
 10
13.28848624638125
 20
1.574484364006265
 30
0.0
 10
13.09583897696934
 20
1.581442987820786
 30
0.0
 10
12.85461726865067
 20
1.593051484377072
 30
0.0
 10
12.55697169624691
 20
1.612598253962136
 30
0.0
 10
12.20461526956137
 20
1.642535771609477
 30
0.0
 10
11.92579587596316
 20
1.671943707339357
 30
0.0
 10
11.70645029956586
 20
1.698107657262513
 30
0.0
 10
11.54632326697886
 20
1.718372383250343
 30
0.0
 10
11.32066093217858
 20
1.749293731717124
 30
0.0
 10
11.14704356881418
 20
1.775928600357065
 30
0.0
 10
11.04875084313223
 20
1.791007817009522
 30
0.0
  0
SPLINE
  5
A3
330
1F
100
AcDbEntity
  8
0
  6
Continuous
 62
     1
370
    15
100
AcDbSpline
210
0.0
220
0.0
230
1.0
 70
     8
 71
     3
 72
    16
 73
    12
 74
     0
 42
0.000000001
 43
0.00000001
 40
0.0
 40
0.0
 40
0.0
 40
0.0
 40
0.1658016204078873
 40
0.2928603309863375
 40
0.4247973994131429
 40
0.5166918818119133
 40
0.6205508475027
 40
0.7356521578000883
 40
0.861188734720016
 40
0.984050073003295
 40
1.0
 40
1.0
 40
1.0
 40
1.0
 10
11.04875084313223
 20
-1.791007817009523
 30
0.0
 10
11.14702282466436
 20
-1.775931822590352
 30
0.0
 10
11.32060354702028
 20
-1.749302645476854
 30
0.0
 10
11.57161312052219
 20
-1.714903912412947
 30
0.0
 10
11.77785830818771
 20
-1.689250988647409
 30
0.0
 10
11.96943426917914
 20
-1.667526734692517
 30
0.0
 10
12.15276488089841
 20
-1.648484793412869
 30
0.0
 10
12.35591972608463
 20
-1.62953766624789
 30
0.0
 10
12.57006044405618
 20
-1.61231923310415
 30
0.0
 10
12.72576110955062
 20
-1.601240293005404
 30
0.0
 10
12.80758426404323
 20
-1.596726433402978
 30
0.0
 10
12.81698604665911
 20
-1.59620777426543
 30
0.0
  0
SPLINE
  5
A4
330
1F
100
AcDbEntity
  8
0
  6
Continuous
 62
     1
370
    15
100
AcDbSpline
210
0.0
220
0.0
230
1.0
 70
     8
 71
     3
 72
    25
 73
    21
 74
     0
 42
0.000000001
 43
0.00000001
 40
0.0
 40
0.0
 40
0.0
 40
0.0
 40
0.0753302364133132
 40
0.1287973404764418
 40
0.1639922594407126
 40
0.2054493750923026
 40
0.2575533757042421
 40
0.307812980874161
 40
0.3714777072517906
 40
0.4254731485635496
 40
0.479273735653659
 40
0.552254802683799
 40
0.6360323019272484
 40
0.7103418954971112
 40
0.7402983907736553
 40
0.7679727956385227
 40
0.7959738471484664
 40
0.8423740212980828
 40
0.9103632531991228
 40
1.0
 40
1.0
 40
1.0
 40
1.0
 10
28.16440510202286
 20
1.628662416032064
 30
0.0
 10
28.06038853648311
 20
1.620224215511646
 30
0.0
 10
27.8825441854644
 20
1.605796837646089
 30
0.0
 10
27.65614320209663
 20
1.592121959045483
 30
0.0
 10
27.47421149819083
 20
1.583065770576036
 30
0.0
 10
27.29493964408681
 20
1.575925206738787
 30
0.0
 10
27.09544415998476
 20
1.570337193765333
 30
0.0
 10
26.86538441806835
 20
1.56688443332749
 30
0.0
 10
26.63289874631705
 20
1.566802479919008
 30
0.0
 10
26.39525152925094
 20
1.570341200484477
 30
0.0
 10
26.14448975014186
 20
1.577512775915222
 30
0.0
 10
25.85276029699216
 20
1.590502239693431
 30
0.0
 10
25.52973415912326
 20
1.611357545406061
 30
0.0
 10
25.26821393851445
 20
1.633486888349191
 30
0.0
 10
25.08818310164454
 20
1.650869478271713
 30
0.0
 10
24.97090200931712
 20
1.662942257751995
 30
0.0
 10
24.83089006781925
 20
1.678225281075108
 30
0.0
 10
24.63355847445082
 20
1.701499433609223
 30
0.0
 10
24.35046674182459
 20
1.738451848254776
 30
0.0
 10
24.13088448308111
 20
1.771961920431187
 30
0.0
 10
24.00601522300709
 20
1.791018004204258
 30
0.0
  0
SPLINE
  5
A5
330
1F
100
AcDbEntity
  8
외형선
  6
Continuous
370
    15
100
AcDbSpline
210
0.0
220
0.0
230
1.0
 70
     8
 71
     3
 72
     8
 73
     4
 74
     0
 42
0.000000001
 43
0.00000001
 40
0.0
 40
0.0
 40
0.0
 40
0.0
 40
1.0
 40
1.0
 40
1.0
 40
1.0
 10
9.109935059209073
 20
0.3869458860999428
 30
0.0
 10
9.404216905456426
 20
0.2186162673183167
 30
0.0
 10
9.704345845530582
 20
0.0461740461599605
 30
0.0
 10
9.999999999998055
 20
-0.124453698230324
 30
0.0
  0
SPLINE
  5
A6
330
1F
100
AcDbEntity
  8
외형선
  6
Continuous
370
    15
100
AcDbSpline
210
0.0
220
0.0
230
1.0
 70
    24
 71
     3
 72
     8
 73
     4
 74
     0
 42
0.000000001
 43
0.00000001
 40
0.0
 40
0.0
 40
0.0
 40
0.0
 40
1.0
 40
1.0
 40
1.0
 40
1.0
 10
9.999999999999915
 20
-0.1554679053276634
 30
0.0
 10
9.830772027058718
 20
-0.0873074384167416
 30
0.0
 10
9.660075802768777
 20
-0.018555599431017
 30
0.0
 10
9.489850652781248
 20
0.0500065035208588
 30
0.0
  0
SPLINE
  5
A7
330
1F
100
AcDbEntity
  8
외형선
  6
Continuous
370
    15
100
AcDbSpline
210
0.0
220
0.0
230
1.0
 70
     8
 71
     3
 72
    14
 73
    10
 74
     0
 42
0.000000001
 43
0.00000001
 40
0.0
 40
0.0
 40
0.0
 40
0.0
 40
0.25
 40
0.25
 40
0.5
 40
0.5
 40
0.75
 40
0.75
 40
1.0
 40
1.0
 40
1.0
 40
1.0
 10
9.109935059221986
 20
0.3840387503372886
 30
0.0
 10
9.109934572550706
 20
0.37501872958122
 30
0.0
 10
9.12332096876111
 20
0.3538082019274565
 30
0.0
 10
9.164080461002769
 20
0.301021642050768
 30
0.0
 10
9.191851365428011
 20
0.2690308317937485
 30
0.0
 10
9.257093982371678
 20
0.2030980156503487
 30
0.0
 10
9.295233508950684
 20
0.1683496487600389
 30
0.0
 10
9.383444859227533
 20
0.1030477271704009
 30
0.0
 10
9.434134732499231
 20
0.0724473747006712
 30
0.0
 10
9.489850652781197
 20
0.0500065035208803
 30
0.0
  0
LINE
  5
A8
330
1F
100
AcDbEntity
  8
외형선
  6
Continuous
370
    15
100
AcDbLine
 10
9.109935059209073
 20
1.020938228434641
 30
0.0
 11
9.109935059209073
 21
2.38125
 31
0.0
  0
SPLINE
  5
A9
330
1F
100
AcDbEntity
  8
외형선
  6
Continuous
370
    15
100
AcDbSpline
210
0.0
220
0.0
230
1.0
 70
     8
 71
     3
 72
     8
 73
     4
 74
     0
 42
0.000000001
 43
0.00000001
 40
0.0
 40
0.0
 40
0.0
 40
0.0
 40
1.0
 40
1.0
 40
1.0
 40
1.0
 10
10.00000000000002
 20
0.5371434947215348
 30
0.0
 10
9.704323127378379
 20
0.7036138499263119
 30
0.0
 10
9.404170786542094
 20
0.8667091369430688
 30
0.0
 10
9.109867221197172
 20
1.020846029378804
 30
0.0
  0
LINE
  5
AA
330
1F
100
AcDbEntity
  8
외형선
  6
Continuous
370
    15
100
AcDbLine
 10
10.00000000000002
 20
0.5371434947215344
 30
0.0
 11
10.00000000000002
 21
-0.1244536982314597
 31
0.0
  0
LINE
  5
AB
330
1F
100
AcDbEntity
  8
외형선
  6
Continuous
370
    15
100
AcDbLine
 10
-34.01999999999997
 20
2.381249999999994
 30
0.0
 11
-34.01999999999997
 21
-2.381250000000003
 31
0.0
  0
LINE
  5
AC
330
1F
100
AcDbEntity
  8
외형선
  6
Continuous
370
    15
100
AcDbLine
 10
9.109935059209073
 20
-2.381250000000001
 30
0.0
 11
9.109935059209073
 21
0.3875742064702399
 31
0.0
  0
LINE
  5
AD
330
1F
100
AcDbEntity
  8
외형선
  6
Continuous
370
    15
100
AcDbLine
 10
-34.44999999999997
 20
1.951249999999994
 30
0.0
 11
-34.44999999999997
 21
-1.95125
 31
0.0
  0
LINE
  5
AE
330
1F
100
AcDbEntity
  8
외형선
  6
Continuous
370
    15
100
AcDbLine
 10
10.00000000000001
 20
0.5745918772829748
 30
0.0
 11
9.84182168481869
 21
0.6459862745800037
 31
0.0
  0
LINE
  5
AF
330
1F
100
AcDbEntity
  8
외형선
  6
Continuous
370
    15
100
AcDbLine
 10
10.00000000000002
 20
1.896695987314401
 30
0.0
 11
9.228620105725625
 21
1.891599431796031
 31
0.0
  0
SPLINE
  5
B0
330
1F
100
AcDbEntity
  8
외형선
  6
Continuous
370
    15
100
AcDbSpline
210
0.0
220
0.0
230
1.0
 70
    24
 71
     3
 72
    13
 73
     9
 74
     0
 42
0.000000001
 43
0.00000001
 40
0.0
 40
0.0
 40
0.0
 40
0.0
 40
0.1336824151311702
 40
0.2691248766990259
 40
0.4648441169690419
 40
0.6662392284658514
 40
0.8422695460173408
 40
1.0
 40
1.0
 40
1.0
 40
1.0
 10
10.00000000000002
 20
1.896695987314401
 30
0.0
 10
10.00000000000002
 20
1.872923824504864
 30
0.0
 10
10.00000000000002
 20
1.825066517478293
 30
0.0
 10
10.00000000000002
 20
1.694888779795523
 30
0.0
 10
10.00000000000002
 20
1.498593520770559
 30
0.0
 10
10.00000000000002
 20
1.226151089715834
 30
0.0
 10
10.00000000000002
 20
0.9295175714309487
 30
0.0
 10
10.00000000000002
 20
0.7169508907206956
 30
0.0
 10
10.00000000000002
 20
0.6164949896395082
 30
0.0
  0
SPLINE
  5
B1
330
1F
100
AcDbEntity
  8
외형선
  6
Continuous
370
    15
100
AcDbSpline
210
0.0
220
0.0
230
1.0
 70
     8
 71
     3
 72
     8
 73
     4
 74
     0
 42
0.000000001
 43
0.00000001
 40
0.0
 40
0.0
 40
0.0
 40
0.0
 40
1.0
 40
1.0
 40
1.0
 40
1.0
 10
9.99999999999995
 20
-1.896695987314405
 30
0.0
 10
9.879365132014499
 20
-1.901897865445991
 30
0.0
 10
9.75798488985642
 20
-1.904667102028025
 30
0.0
 10
9.636559914155722
 20
-1.904971710871267
 30
0.0
  0
SPLINE
  5
B2
330
1F
100
AcDbEntity
  8
외형선
  6
Continuous
370
    15
100
AcDbSpline
210
0.0
220
0.0
230
1.0
 70
     8
 71
     3
 72
    16
 73
    12
 74
     0
 42
0.000000001
 43
0.00000001
 40
0.0
 40
0.0
 40
0.0
 40
0.0
 40
0.188963233436422
 40
0.4788860211709015
 40
0.6362857453930074
 40
0.7399761103428693
 40
0.8289742666347013
 40
0.899013163332973
 40
0.9502855093802954
 40
0.9832666380333995
 40
0.9999999999999999
 40
0.9999999999999999
 40
0.9999999999999999
 40
0.9999999999999999
 10
9.371592251290247
 20
-2.070913496450559
 30
0.0
 10
9.387684923752683
 20
-2.05919050036361
 30
0.0
 10
9.428468285390782
 20
-2.029481128597543
 30
0.0
 10
9.482420199467976
 20
-1.992439022232554
 30
0.0
 10
9.529347327321759
 20
-1.961946094131742
 30
0.0
 10
9.55936433456101
 20
-1.943223615902079
 30
0.0
 10
9.582499292880897
 20
-1.929639709491876
 30
0.0
 10
9.601688757191624
 20
-1.918993155788519
 30
0.0
 10
9.616891898171462
 20
-1.911757588274996
 30
0.0
 10
9.627370509584987
 20
-1.906727470295999
 30
0.0
 10
9.634244411760331
 20
-1.905415145409637
 30
0.0
 10
9.636558093179758
 20
-1.90497343099061
 30
0.0
  0
SPLINE
  5
B3
330
1F
100
AcDbEntity
  8
외형선
  6
Continuous
370
    15
100
AcDbSpline
210
0.0
220
0.0
230
1.0
 70
    24
 71
     3
 72
    14
 73
    10
 74
     0
 42
0.000000001
 43
0.00000001
 40
0.0
 40
0.0
 40
0.0
 40
0.0
 40
0.25
 40
0.25
 40
0.5
 40
0.5
 40
0.75
 40
0.75
 40
1.0
 40
1.0
 40
1.0
 40
1.0
 10
10.00000000000002
 20
-0.1554679053277068
 30
0.0
 10
10.00000000000002
 20
-0.3564870183153145
 30
0.0
 10
10.00000000000002
 20
-0.5561242374556923
 30
0.0
 10
10.00000000000002
 20
-0.9320040355955141
 30
0.0
 10
10.00000000000002
 20
-1.108018392712587
 30
0.0
 10
10.00000000000002
 20
-1.417484824420139
 30
0.0
 10
10.00000000000002
 20
-1.550772002357563
 30
0.0
 10
10.00000000000002
 20
-1.76384744239523
 30
0.0
 10
10.00000000000002
 20
-1.843636150118571
 30
0.0
 10
10.00000000000002
 20
-1.8966959873144
 30
0.0
  0
SPLINE
  5
B4
330
1F
100
AcDbEntity
  8
외형선
  6
Continuous
370
    15
100
AcDbSpline
210
0.0
220
0.0
230
1.0
 70
     8
 71
     3
 72
    20
 73
    16
 74
     0
 42
0.000000001
 43
0.00000001
 40
0.0
 40
0.0
 40
0.0
 40
0.0
 40
0.4999999999999982
 40
0.4999999999999982
 40
0.7499999999999964
 40
0.7499999999999964
 40
0.8749999999999964
 40
0.8749999999999964
 40
0.9374999999999963
 40
0.9374999999999963
 40
0.9531249999999972
 40
0.9531249999999972
 40
0.9687499999999982
 40
0.9687499999999982
 40
1.0
 40
1.0
 40
1.0
 40
1.0
 10
9.371544563835563
 20
-2.070908841931237
 30
0.0
 10
9.321773149423281
 20
-2.10754343037739
 30
0.0
 10
9.267074381089525
 20
-2.152591017441078
 30
0.0
 10
9.184229446791907
 20
-2.239093121849744
 30
0.0
 10
9.156159167840375
 20
-2.271837898969631
 30
0.0
 10
9.12702137634399
 20
-2.316984147677949
 30
0.0
 10
9.120572117739762
 20
-2.329873074199898
 30
0.0
 10
9.114585702800683
 20
-2.345390142438989
 30
0.0
 10
9.113159407190013
 20
-2.349904889513954
 30
0.0
 10
9.111559252415443
 20
-2.355861570070387
 30
0.0
 10
9.111288582219323
 20
-2.356945676384853
 30
0.0
 10
9.110408140453199
 20
-2.360281650632814
 30
0.0
 10
9.110121683055779
 20
-2.360745315883393
 30
0.0
 10
9.109938103080696
 20
-2.360375372900597
 30
0.0
 10
9.109935059209073
 20
-2.359693752490316
 30
0.0
 10
9.109935059209073
 20
-2.359002763535648
 30
0.0
  0
SPLINE
  5
B5
330
1F
100
AcDbEntity
  8
0
  6
Continuous
 62
     1
370
    15
100
AcDbSpline
210
0.0
220
0.0
230
1.0
 70
     8
 71
     3
 72
    18
 73
    14
 74
     0
 42
0.000000001
 43
0.00000001
 40
0.0
 40
0.0
 40
0.0
 40
0.0
 40
0.0076798552368809
 40
0.105785270441053
 40
0.2039008950135525
 40
0.3020698165378238
 40
0.4003346390868046
 40
0.4986037186324965
 40
0.5967753999949631
 40
0.6975748473987758
 40
0.798361094474259
 40
0.8991606662704876
 40
1.0
 40
1.0
 40
1.0
 40
1.0
 10
20.15456392286496
 20
-1.871569391922963
 30
0.0
 10
20.12857032598128
 20
-1.882041742740327
 30
0.0
 10
19.77052455672361
 20
-2.026291917932218
 30
0.0
 10
19.08047305017744
 20
-2.204550860974087
 30
0.0
 10
18.08411848977078
 20
-2.375035353067934
 30
0.0
 10
17.0871447429852
 20
-2.396361141179037
 30
0.0
 10
16.08938554797551
 20
-2.281304008981035
 30
0.0
 10
15.0915946910826
 20
-2.032834827402854
 30
0.0
 10
14.08552855871992
 20
-1.662959787747869
 30
0.0
 10
13.07093434077222
 20
-1.189636872667443
 30
0.0
 10
12.04749381702057
 20
-0.6398263007118862
 30
0.0
 10
11.02389433823014
 20
-0.0483638595733083
 30
0.0
 10
10.34134297769751
 20
0.3419487208894385
 30
0.0
 10
9.99999999999772
 20
0.5371434947228321
 30
0.0
  0
SPLINE
  5
B6
330
1F
100
AcDbEntity
  8
0
  6
Continuous
 62
     1
370
    15
100
AcDbSpline
210
0.0
220
0.0
230
1.0
 70
     8
 71
     3
 72
    18
 73
    14
 74
     0
 42
0.000000001
 43
0.00000001
 40
0.0
 40
0.0
 40
0.0
 40
0.0
 40
0.0309809236594842
 40
0.1287733152288331
 40
0.2262969869242218
 40
0.3237182462463826
 40
0.4214147279552707
 40
0.5190820448795957
 40
0.6164983580860093
 40
0.7140421626958116
 40
0.8118281771449946
 40
0.9059083365365295
 40
1.0
 40
1.0
 40
1.0
 40
1.0
 10
18.51433418873992
 20
-1.972708320978247
 30
0.0
 10
18.42642500654142
 20
-1.983960709542005
 30
0.0
 10
18.06102735232103
 20
-2.030731664324517
 30
0.0
 10
17.41830565242565
 20
-2.030598510931128
 30
0.0
 10
16.58764727786403
 20
-1.969698968153424
 30
0.0
 10
15.75740905055652
 20
-1.82315621198867
 30
0.0
 10
14.9261859870701
 20
-1.604846107767711
 30
0.0
 10
14.09504839715304
 20
-1.321290708151153
 30
0.0
 10
13.26485618917404
 20
-0.9837822935359635
 30
0.0
 10
12.43411375936223
 20
-0.6064838877064491
 30
0.0
 10
11.61221670572669
 20
-0.2109133095608229
 30
0.0
 10
10.80098306349235
 20
0.1911511859775148
 30
0.0
 10
10.26700523625301
 20
0.446773104280906
 30
0.0
 10
10.00000000000001
 20
0.5745918772829748
 30
0.0
  0
SPLINE
  5
B7
330
1F
100
AcDbEntity
  8
0
  6
Continuous
 62
     1
370
    15
100
AcDbSpline
210
0.0
220
0.0
230
1.0
 70
     8
 71
     3
 72
    19
 73
    15
 74
     0
 42
0.000000001
 43
0.00000001
 40
0.0
 40
0.0
 40
0.0
 40
0.0
 40
0.0857760566998071
 40
0.1714677287971274
 40
0.2571121940280908
 40
0.3427470583575167
 40
0.4284100150623621
 40
0.5141385021518402
 40
0.5999402423506712
 40
0.6856702725084629
 40
0.7713340924463964
 40
0.8569691323397702
 40
0.9426130838682681
 40
1.0
 40
1.0
 40
1.0
 40
1.0
 10
29.05000000000003
 20
-2.259665444858463
 30
0.0
 10
28.71729993208093
 20
-2.186360675920271
 30
0.0
 10
28.05222709926947
 20
-2.039823253667119
 30
0.0
 10
27.05523585536671
 20
-1.666069582420192
 30
0.0
 10
26.05888194736122
 20
-1.204960155583421
 30
0.0
 10
25.06266821501293
 20
-0.6713008582452515
 30
0.0
 10
24.06605776925743
 20
-0.0992148139861598
 30
0.0
 10
23.06866231403898
 20
0.4789255311335178
 30
0.0
 10
22.0707148537534
 20
1.028939888860627
 30
0.0
 10
21.07330470277467
 20
1.519072788476737
 30
0.0
 10
20.07668420774542
 20
1.922173297264312
 30
0.0
 10
19.08046189379846
 20
2.208151605424507
 30
0.0
 10
18.19387650629839
 20
2.366118051468382
 30
0.0
 10
17.63922541424268
 20
2.365953663848875
 30
0.0
 10
17.4166880261749
 20
2.365887708166104
 30
0.0
  0
SPLINE
  5
B8
330
1F
100
AcDbEntity
  8
0
  6
Continuous
 62
     1
370
    15
100
AcDbSpline
210
0.0
220
0.0
230
1.0
 70
     8
 71
     3
 72
    15
 73
    11
 74
     0
 42
0.000000001
 43
0.00000001
 40
0.0
 40
0.0
 40
0.0
 40
0.0
 40
0.1345120528275152
 40
0.2686613024881034
 40
0.4029688483530285
 40
0.5376291450312806
 40
0.671859221407571
 40
0.8060422722118249
 40
0.9406585275243641
 40
1.0
 40
1.0
 40
1.0
 40
1.0
 10
29.05000000000004
 20
-1.878740204526814
 30
0.0
 10
28.77269009207825
 20
-1.82082726454836
 30
0.0
 10
28.21881823086549
 20
-1.705157586192635
 30
0.0
 10
27.38860871538437
 20
-1.441797469814627
 30
0.0
 10
26.5578911045213
 20
-1.125561892905644
 30
0.0
 10
25.72639136511998
 20
-0.7635218429488514
 30
0.0
 10
24.89587341112624
 20
-0.3694128182785141
 30
0.0
 10
24.0655281207759
 20
0.0384440134036315
 30
0.0
 10
23.38882745303009
 20
0.3723961914798903
 30
0.0
 10
22.98908676383979
 20
0.5568865818635004
 30
0.0
 10
22.86678588222251
 20
0.6133315173028594
 30
0.0
  0
LINE
  5
B9
330
1F
100
AcDbEntity
  8
0
  6
Continuous
 62
     1
370
    15
100
AcDbLine
 10
29.05000000000003
 20
-2.259665444858465
 30
0.0
 11
29.05000000000003
 21
-1.878740204526814
 31
0.0
  0
SPLINE
  5
BA
330
1F
100
AcDbEntity
  8
0
  6
Continuous
 62
     1
370
    15
100
AcDbSpline
210
0.0
220
0.0
230
1.0
 70
     8
 71
     3
 72
    32
 73
    28
 74
     0
 42
0.000000001
 43
0.00000001
 40
0.0
 40
0.0
 40
0.0
 40
0.0
 40
0.0037138955019643
 40
0.0459283444568841
 40
0.0884357159454668
 40
0.1306502717123823
 40
0.1731568867538802
 40
0.215371634444434
 40
0.2578783409210202
 40
0.3000163938696591
 40
0.342445848186877
 40
0.3845294316164115
 40
0.4269049309410914
 40
0.4689883273961865
 40
0.5113630748157904
 40
0.553446206013064
 40
0.5958195578417078
 40
0.6379027795898793
 40
0.6802753744831902
 40
0.7223587928115506
 40
0.764731410778655
 40
0.8068148793653853
 40
0.8491884680879977
 40
0.8863793617419216
 40
0.9237709926590622
 40
0.9617782074645923
 40
1.0
 40
1.0
 40
1.0
 40
1.0
 10
12.8176763697355
 20
1.596521254476776
 30
0.0
 10
12.83776039882483
 20
1.605689662612673
 30
0.0
 10
13.0861320090678
 20
1.71907190687993
 30
0.0
 10
13.56540635380253
 20
1.895349271118209
 30
0.0
 10
14.25157552508925
 20
2.114626884238622
 30
0.0
 10
14.94008073393723
 20
2.270230353820048
 30
0.0
 10
15.62728471819355
 20
2.364012215280518
 30
0.0
 10
16.31490406236734
 20
2.392057919776777
 30
0.0
 10
17.00230652023789
 20
2.354081090669571
 30
0.0
 10
17.68898293145449
 20
2.250291334771782
 30
0.0
 10
18.37488485650785
 20
2.085437898533228
 30
0.0
 10
19.06126795641541
 20
1.862319591695126
 30
0.0
 10
19.7455623944044
 20
1.587969993221995
 30
0.0
 10
20.43261956737078
 20
1.270931860049106
 30
0.0
 10
21.11636508089637
 20
0.917026948187187
 30
0.0
 10
21.8035570231637
 20
0.5400139290319892
 30
0.0
 10
22.48759189515285
 20
0.1463774563752113
 30
0.0
 10
23.17398657359375
 20
-0.2508184643529073
 30
0.0
 10
23.8589783066476
 20
-0.6400005884624984
 30
0.0
 10
24.54447162856003
 20
-1.0140442281139
 30
0.0
 10
25.23014071966787
 20
-1.356743514339065
 30
0.0
 10
25.91542653227868
 20
-1.665522036922064
 30
0.0
 10
26.57443877329354
 20
-1.915417175381329
 30
0.0
 10
27.20663271297386
 20
-2.111219140091384
 30
0.0
 10
27.81623412382872
 20
-2.252175578157539
 30
0.0
 10
28.43067163543859
 20
-2.349056864656751
 30
0.0
 10
28.84317016318686
 20
-2.369158362765556
 30
0.0
 10
29.05000000000003
 20
-2.381249999999996
 30
0.0
  0
SPLINE
  5
BB
330
1F
100
AcDbEntity
  8
0
  6
Continuous
 62
     1
370
    15
100
AcDbSpline
210
0.0
220
0.0
230
1.0
 70
     8
 71
     3
 72
    15
 73
    11
 74
     0
 42
0.000000001
 43
0.00000001
 40
0.0
 40
0.0
 40
0.0
 40
0.0
 40
0.0377343360240545
 40
0.1952373200586678
 40
0.3527488054941649
 40
0.5102655608410421
 40
0.6677843474983289
 40
0.8253019241223395
 40
0.9828150510033029
 40
1.0
 40
1.0
 40
1.0
 40
1.0
 10
23.11859603715496
 20
-0.2176948926397493
 30
0.0
 10
23.01905823190213
 20
-0.1786401154765329
 30
0.0
 10
22.50404998239444
 20
0.0234291623285457
 30
0.0
 10
21.5735388513482
 20
0.407009932967385
 30
0.0
 10
20.32705164116439
 20
0.8760862245865468
 30
0.0
 10
19.08051763072742
 20
1.266907923595489
 30
0.0
 10
17.83396592916127
 20
1.546271072740999
 30
0.0
 10
16.5874254629165
 20
1.67100331585676
 30
0.0
 10
15.71107289699569
 20
1.690687731793608
 30
0.0
 10
15.25023976475628
 20
1.627598437792793
 30
0.0
 10
15.20490787524498
 20
1.621392380317948
 30
0.0
  0
LINE
  5
BC
330
1F
100
AcDbEntity
  8
0
  6
Continuous
 62
     1
370
    15
100
AcDbLine
 10
29.05000000000003
 20
-2.381249999999996
 30
0.0
 11
29.05000000000003
 21
-2.259665444858464
 31
0.0
  0
SPLINE
  5
BD
330
1F
100
AcDbEntity
  8
0
  6
Continuous
 62
     1
370
    15
100
AcDbSpline
210
0.0
220
0.0
230
1.0
 70
     8
 71
     3
 72
    16
 73
    12
 74
     0
 42
0.000000001
 43
0.00000001
 40
0.0
 40
0.0
 40
0.0
 40
0.0
 40
0.1195100544930868
 40
0.2400139190134462
 40
0.3494437111091736
 40
0.4596358496610215
 40
0.5690649510378
 40
0.6792533718046286
 40
0.7886827500615039
 40
0.8988692099517419
 40
0.9999999999999999
 40
0.9999999999999999
 40
0.9999999999999999
 40
0.9999999999999999
 10
10.00000000000002
 20
-0.1244536982290913
 30
0.0
 10
10.24939970554829
 20
-0.2680110457069859
 30
0.0
 10
10.7502730503337
 20
-0.5563195208180712
 30
0.0
 10
11.4794085989905
 20
-0.957292140792534
 30
0.0
 10
12.19012197574391
 20
-1.317162845044821
 30
0.0
 10
12.8760323142955
 20
-1.631158858652503
 30
0.0
 10
13.56536782556662
 20
-1.898136397069288
 30
0.0
 10
14.2515808194704
 20
-2.114120216565383
 30
0.0
 10
14.94009776474733
 20
-2.269490199231225
 30
0.0
 10
15.60988069976445
 20
-2.365030416041942
 30
0.0
 10
16.05070669631999
 20
-2.37444114272034
 30
0.0
 10
16.26167424070384
 20
-2.37894486508182
 30
0.0
  0
SPLINE
  5
BE
330
1F
100
AcDbEntity
  8
0
  6
Continuous
 62
     1
370
    15
100
AcDbSpline
210
0.0
220
0.0
230
1.0
 70
     8
 71
     3
 72
    13
 73
     9
 74
     0
 42
0.000000001
 43
0.00000001
 40
0.0
 40
0.0
 40
0.0
 40
0.0
 40
0.0413006301037161
 40
0.2515835580805922
 40
0.4361468732819383
 40
0.6217063660725755
 40
0.8103207519314714
 40
1.0
 40
1.0
 40
1.0
 40
1.0
 10
25.77913095827746
 20
1.596497710764913
 30
0.0
 10
25.82413455092136
 20
1.616829613806718
 30
0.0
 10
26.09827477433507
 20
1.740681780152884
 30
0.0
 10
26.57445576010158
 20
1.913366986963165
 30
0.0
 10
27.20662839241397
 20
2.111740601323148
 30
0.0
 10
27.81623529962146
 20
2.252033668233425
 30
0.0
 10
28.43067133754427
 20
2.349092818408739
 30
0.0
 10
28.84317006370259
 20
2.369170369818812
 30
0.0
 10
29.05000000000003
 20
2.381250000000003
 30
0.0
  0
SPLINE
  5
BF
330
1F
100
AcDbEntity
  8
0
  6
Continuous
 62
     1
370
    15
100
AcDbSpline
210
0.0
220
0.0
230
1.0
 70
    24
 71
     3
 72
    10
 73
     6
 74
     0
 42
0.000000001
 43
0.00000001
 40
0.0
 40
0.0
 40
0.0
 40
0.0
 40
0.4999999999999996
 40
0.4999999999999996
 40
1.0
 40
1.0
 40
1.0
 40
1.0
 10
29.05000000000003
 20
1.666875
 30
0.0
 10
29.05000000000004
 20
1.767916811522416
 30
0.0
 10
29.05000000000003
 20
1.885336753989823
 30
0.0
 10
29.05000000000003
 20
2.131683477038037
 30
0.0
 10
29.05000000000003
 20
2.259981119002258
 30
0.0
 10
29.05000000000003
 20
2.381250000000003
 30
0.0
  0
LINE
  5
C0
330
1F
100
AcDbEntity
  8
0
  6
Continuous
 62
     1
370
    15
100
AcDbLine
 10
29.05000000000003
 20
1.666874999999999
 30
0.0
 11
28.16080636424905
 21
1.612987041958637
 31
0.0
  0
LINE
  5
C1
330
1F
100
AcDbEntity
  8
0
  6
Continuous
 62
     1
370
    15
100
AcDbLine
 10
10.17743598462739
 20
-0.2258316228309082
 30
0.0
 11
10.00000000000001
 21
-0.1554679053277033
 31
0.0
  0
SPLINE
  5
C2
330
1F
100
AcDbEntity
  8
0
  6
Continuous
 62
     1
370
    15
100
AcDbSpline
210
0.0
220
0.0
230
1.0
 70
     8
 71
     3
 72
     8
 73
     4
 74
     0
 42
0.000000001
 43
0.00000001
 40
0.0
 40
0.0
 40
0.0
 40
0.0
 40
1.0
 40
1.0
 40
1.0
 40
1.0
 10
27.57593131851585
 20
0.6667656290393983
 30
0.0
 10
27.49157539430448
 20
0.7667237491412899
 30
0.0
 10
27.4162684614756
 20
0.8629558787205024
 30
0.0
 10
27.35215717569905
 20
0.9545781160976495
 30
0.0
  0
LINE
  5
C3
330
1F
100
AcDbEntity
  8
0
  6
Continuous
 62
     1
370
    15
100
AcDbLine
 10
27.38228317140753
 20
0.9798568279854776
 30
0.0
 11
29.05000000000003
 21
0.0000000000000022
 31
0.0
  0
LINE
  5
C4
330
1F
100
AcDbEntity
  8
0
  6
Continuous
 62
     1
370
    15
100
AcDbLine
 10
29.05000000000003
 20
0.0000000000000022
 30
0.0
 11
29.05000000000003
 21
-0.6363722652330897
 31
0.0
  0
SPLINE
  5
C5
330
1F
100
AcDbEntity
  8
0
  6
Continuous
 62
     1
370
    15
100
AcDbSpline
210
0.0
220
0.0
230
1.0
 70
     8
 71
     3
 72
    10
 73
     6
 74
     0
 42
0.000000001
 43
0.00000001
 40
0.0
 40
0.0
 40
0.0
 40
0.0
 40
0.5
 40
0.5
 40
1.0
 40
1.0
 40
1.0
 40
1.0
 10
29.05000000000003
 20
-0.6363722652330895
 30
0.0
 10
28.7948250770854
 20
-0.4357598858607779
 30
0.0
 10
28.5439163412784
 20
-0.2269170311293363
 30
0.0
 10
28.05084008684133
 20
0.2076325360986287
 30
0.0
 10
27.80638005573243
 20
0.4356364190385033
 30
0.0
 10
27.57593131851551
 20
0.666765629039589
 30
0.0
  0
SPLINE
  5
C6
330
1F
100
AcDbEntity
  8
0
  6
Continuous
 62
     1
370
    15
100
AcDbSpline
210
0.0
220
0.0
230
1.0
 70
     8
 71
     3
 72
    14
 73
    10
 74
     0
 42
0.000000001
 43
0.00000001
 40
0.0
 40
0.0
 40
0.0
 40
0.0
 40
0.1855093085178858
 40
0.3373550642077721
 40
0.488708921041987
 40
0.6400090246477314
 40
0.7918044430597815
 40
0.9433426392886665
 40
0.9999999999999999
 40
0.9999999999999999
 40
0.9999999999999999
 40
0.9999999999999999
 10
27.57593131836699
 20
0.6667656291038275
 30
0.0
 10
27.23681704667313
 20
0.8096648240827574
 30
0.0
 10
26.62012606865667
 20
1.069531929849625
 30
0.0
 10
25.72643434827379
 20
1.382845823720092
 30
0.0
 10
24.8958849789354
 20
1.621151899601182
 30
0.0
 10
24.0655025148813
 20
1.79446511680191
 30
0.0
 10
23.23413408862308
 20
1.89003770567148
 30
0.0
 10
22.5761199587325
 20
1.920044604353603
 30
0.0
 10
22.19567025930718
 20
1.891088182034967
 30
0.0
 10
22.09213646555265
 20
1.88320811730963
 30
0.0
  0
SPLINE
  5
C7
330
1F
100
AcDbEntity
  8
0
  6
Continuous
 62
     1
370
    15
100
AcDbSpline
210
0.0
220
0.0
230
1.0
 70
     8
 71
     3
 72
     9
 73
     5
 74
     0
 42
0.000000001
 43
0.00000001
 40
0.0
 40
0.0
 40
0.0
 40
0.0
 40
0.2385336558399503
 40
1.0
 40
1.0
 40
1.0
 40
1.0
 10
11.05190895901834
 20
-1.783160089213072
 30
0.0
 10
10.96827161369509
 20
-1.798515653165498
 30
0.0
 10
10.61764039971091
 20
-1.86289048487784
 30
0.0
 10
10.26700049009322
 20
-1.882082167164952
 30
0.0
 10
10.00000000000002
 20
-1.896695987314401
 30
0.0
  0
SPLINE
  5
C8
330
1F
100
AcDbEntity
  8
0
  6
Continuous
 62
     1
370
    15
100
AcDbSpline
210
0.0
220
0.0
230
1.0
 70
    24
 71
     3
 72
    10
 73
     6
 74
     0
 42
0.000000001
 43
0.00000001
 40
0.0
 40
0.0
 40
0.0
 40
0.0
 40
0.5
 40
0.5
 40
1.0
 40
1.0
 40
1.0
 40
1.0
 10
29.05000000000003
 20
-1.878740204526814
 30
0.0
 10
29.05000000000003
 20
-1.73472012006531
 30
0.0
 10
29.05000000000003
 20
-1.552745221052278
 30
0.0
 10
29.05000000000003
 20
-1.129671093977555
 30
0.0
 10
29.05000000000003
 20
-0.8889383487659299
 30
0.0
 10
29.05000000000003
 20
-0.6363722652331657
 30
0.0
  0
SPLINE
  5
C9
330
1F
100
AcDbEntity
  8
0
  6
Continuous
 62
     1
370
    15
100
AcDbSpline
210
0.0
220
0.0
230
1.0
 70
     8
 71
     3
 72
    24
 73
    20
 74
     0
 42
0.000000001
 43
0.00000001
 40
0.0
 40
0.0
 40
0.0
 40
0.0
 40
0.0552012938407842
 40
0.1145250623158349
 40
0.1737359958520236
 40
0.233067493516748
 40
0.292486355728391
 40
0.3517138615987172
 40
0.4109701708195916
 40
0.4704160058671604
 40
0.5296961975296439
 40
0.5889132825445214
 40
0.6483000232514605
 40
0.7076687413764242
 40
0.7668827696818198
 40
0.8261754039619393
 40
0.8856172973397803
 40
0.9428050961551455
 40
0.9999999999999999
 40
0.9999999999999999
 40
0.9999999999999999
 40
0.9999999999999999
 10
24.0071303253127
 20
-1.788392999627272
 30
0.0
 10
23.74931864102187
 20
-1.823868662721903
 30
0.0
 10
23.21444169965309
 20
-1.897469338429371
 30
0.0
 10
22.40321357931847
 20
-1.915323123810699
 30
0.0
 10
21.57305233588532
 20
-1.862215213648433
 30
0.0
 10
20.74210076065443
 20
-1.732144417729351
 30
0.0
 10
19.91075790885722
 20
-1.532920612359618
 30
0.0
 10
19.08039641214362
 20
-1.270915911768265
 30
0.0
 10
18.2498345168816
 20
-0.9574451756097256
 30
0.0
 10
17.41837178877447
 20
-0.6064359051448507
 30
0.0
 10
16.58767592093856
 20
-0.2298520759676363
 30
0.0
 10
15.75741923906874
 20
0.1562852100403411
 30
0.0
 10
14.92621848496233
 20
0.5351429452226316
 30
0.0
 10
14.09509898613482
 20
0.8925719253059402
 30
0.0
 10
13.26488208619912
 20
1.214492538502184
 30
0.0
 10
12.43413033589442
 20
1.487339041710398
 30
0.0
 10
11.612274841592
 20
1.695599010448693
 30
0.0
 10
10.80099797955746
 20
1.841444555429551
 30
0.0
 10
10.26701038296253
 20
1.878278080698767
 30
0.0
 10
10.00000000000002
 20
1.896695987314401
 30
0.0
  0
SPLINE
  5
CA
330
1F
100
AcDbEntity
  8
외형선
  6
Continuous
370
    15
100
AcDbSpline
210
0.0
220
0.0
230
1.0
 70
    24
 71
     3
 72
    13
 73
     9
 74
     0
 42
0.000000001
 43
0.00000001
 40
0.0
 40
0.0
 40
0.0
 40
0.0
 40
0.1336824151311701
 40
0.2691248766990259
 40
0.4648441169690418
 40
0.6662392284658512
 40
0.8422695460173408
 40
1.0
 40
1.0
 40
1.0
 40
1.0
 10
10.00000000000002
 20
1.896695987314401
 30
0.0
 10
10.00000000000002
 20
1.872923824504864
 30
0.0
 10
10.00000000000002
 20
1.825066517478293
 30
0.0
 10
10.00000000000002
 20
1.694888779795523
 30
0.0
 10
10.00000000000002
 20
1.498593520770561
 30
0.0
 10
10.00000000000002
 20
1.226151089715834
 30
0.0
 10
10.00000000000002
 20
0.929517571430949
 30
0.0
 10
10.00000000000002
 20
0.7169508907206955
 30
0.0
 10
10.00000000000002
 20
0.6164949896395081
 30
0.0
  0
SPLINE
  5
CB
330
1F
100
AcDbEntity
  8
0
  6
Continuous
 62
     1
370
    15
100
AcDbSpline
210
0.0
220
0.0
230
1.0
 70
    24
 71
     3
 72
     8
 73
     4
 74
     0
 42
0.000000001
 43
0.00000001
 40
0.0
 40
0.0
 40
0.0
 40
0.0
 40
1.0
 40
1.0
 40
1.0
 40
1.0
 10
27.60082768727661
 20
1.163237450647045
 30
0.0
 10
27.52223140605039
 20
1.097287340058222
 30
0.0
 10
27.43894673701126
 20
1.027403204984752
 30
0.0
 10
27.35215717569905
 20
0.9545781160976421
 30
0.0
  0
SPLINE
  5
CC
330
1F
100
AcDbEntity
  8
0
  6
Continuous
 62
     1
370
    15
100
AcDbSpline
210
0.0
220
0.0
230
1.0
 70
     8
 71
     3
 72
     8
 73
     4
 74
     0
 42
0.000000001
 43
0.00000001
 40
0.0
 40
0.0
 40
0.0
 40
0.0
 40
1.0
 40
1.0
 40
1.0
 40
1.0
 10
29.05000000000003
 20
1.666875000000002
 30
0.0
 10
28.56029178022733
 20
1.533921906597772
 30
0.0
 10
28.07506137700288
 20
1.370657944986301
 30
0.0
 10
27.60082768727661
 20
1.163237450647047
 30
0.0
  0
SPLINE
  5
CD
330
1F
100
AcDbEntity
  8
외형선
  6
Continuous
370
    15
100
AcDbSpline
210
0.0
220
0.0
230
1.0
 70
    24
 71
     3
 72
    14
 73
    10
 74
     0
 42
0.000000001
 43
0.00000001
 40
0.0
 40
0.0
 40
0.0
 40
0.0
 40
0.25
 40
0.25
 40
0.5
 40
0.5
 40
0.75
 40
0.75
 40
1.0
 40
1.0
 40
1.0
 40
1.0
 10
10.00000000000002
 20
-0.1554679053277068
 30
0.0
 10
10.00000000000002
 20
-0.3564870183153145
 30
0.0
 10
10.00000000000002
 20
-0.5561242374556923
 30
0.0
 10
10.00000000000002
 20
-0.9320040355955141
 30
0.0
 10
10.00000000000002
 20
-1.108018392712587
 30
0.0
 10
10.00000000000002
 20
-1.417484824420139
 30
0.0
 10
10.00000000000002
 20
-1.550772002357563
 30
0.0
 10
10.00000000000002
 20
-1.76384744239523
 30
0.0
 10
10.00000000000002
 20
-1.843636150118571
 30
0.0
 10
10.00000000000002
 20
-1.8966959873144
 30
0.0
  0
LINE
  5
CE
330
1F
100
AcDbEntity
  8
0
  6
Continuous
 62
     1
370
    15
100
AcDbLine
 10
29.05000000000003
 20
0.0000000000000022
 30
0.0
 11
29.05000000000003
 21
1.666875000000002
 31
0.0
  0
LINE
  5
CF
330
1F
100
AcDbEntity
  8
중심선
 48
0.8
100
AcDbLine
 10
-37.44999999999997
 20
-0.0000000000000041
 30
0.0
 11
32.05000000000003
 21
0.000000000000004
 31
0.0
  0
LINE
  5
D0
330
1F
100
AcDbEntity
  8
참조1
100
AcDbLine
 10
-6.737684671492223
 20
0.0010749287238892
 30
0.0
 11
-6.737684671492218
 21
-39.99892507127611
 31
0.0
  0
LINE
  5
D1
330
1F
100
AcDbEntity
  8
참조1
100
AcDbLine
 10
-6.737684671492218
 20
-39.99892507127611
 30
0.0
 11
-15.54395731641845
 21
-39.9989250712761
 31
0.0
  0
CIRCLE
  5
D2
330
1F
100
AcDbEntity
  8
해칭선
100
AcDbCircle
 10
0.0
 20
0.0
 30
0.0
 40
3.000000000000002
  0
INSERT
  5
D3
330
1F
100
AcDbEntity
  8
0
  6
Continuous
 62
     7
100
AcDbBlockReference
 66
     1
  2
블럭10
 10
-16.64027293212517
 20
-52.04717430164393
 30
0.0
  0
ATTRIB
  5
D4
330
D3
100
AcDbEntity
  8
FORMAT
 62
     2
100
AcDbText
 10
-26.7819089442618
 20
-49.97180738881175
 30
0.0
 40
4.233333333333333
  1
EM206012 [ 2 FLUTE ]
 41
0.75
  7
SLDTEXTSTYLE0
 11
-26.7819089442618
 21
-52.08847405547841
 31
0.0
100
AcDbAttribute
  2
AUTOATTR0
 70
     0
 74
     1
  0
SEQEND
  5
D5
330
D3
100
AcDbEntity
  8
0
  6
Continuous
 62
     7
  0
HATCH
  5
D6
330
1F
100
AcDbEntity
  8
중심선
100
AcDbHatch
 10
0.0
 20
0.0
 30
0.0
210
0.0
220
0.0
230
1.0
  2
SOLID
 70
     1
 71
     0
 91
        1
 92
        0
 93
        4
 72
     1
 10
-10.92536362774433
 20
-35.8
 11
-14.37163887158161
 21
-35.8
 72
     1
 10
-14.37163887158161
 20
-35.8
 11
-16.49986873078563
 21
-38.33632558057257
 72
     1
 10
-16.49986873078563
 20
-38.33632558057257
 11
-13.0535604018352
 21
-38.33628615127008
 72
     1
 10
-13.0535604018352
 20
-38.33628615127008
 11
-10.92536362774433
 21
-35.8
 97
        0
 75
     0
 76
     1
 98
        1
 10
4.037684671492257
 20
-0.0010749287238934
  0
HATCH
  5
D7
330
1F
100
AcDbEntity
  8
중심선
100
AcDbHatch
 10
0.0
 20
0.0
 30
0.0
210
0.0
220
0.0
230
1.0
  2
SOLID
 70
     1
 71
     0
 91
        1
 92
        0
 93
        4
 72
     1
 10
-5.912599636708351
 20
-35.80000000000003
 11
-9.358874880545631
 21
-35.79999999999998
 72
     1
 10
-9.358874880545631
 20
-35.79999999999998
 11
-13.89001288890305
 21
-41.20000000000002
 72
     1
 10
-13.89001288890305
 20
-41.20000000000002
 11
-10.44373764506577
 21
-41.20000000000002
 72
     1
 10
-10.44373764506577
 20
-41.20000000000002
 11
-5.91259963670835
 21
-35.80000000000003
 97
        0
 75
     0
 76
     1
 98
        1
 10
4.037684671492257
 20
-0.0010749287238934
  0
HATCH
  5
D8
330
1F
100
AcDbEntity
  8
중심선
100
AcDbHatch
 10
0.0
 20
0.0
 30
0.0
210
0.0
220
0.0
230
1.0
  2
SOLID
 70
     1
 71
     0
 91
        1
 92
        0
 93
        4
 72
     1
 10
-0.899835645672483
 20
-35.8
 11
-4.34611088950957
 21
-35.8
 72
     1
 10
-4.34611088950957
 20
-35.8
 11
-11.39454779139885
 21
-44.20000000000002
 72
     1
 10
-11.39454779139885
 20
-44.20000000000002
 11
-7.948272547561565
 21
-44.20000000000002
 72
     1
 10
-7.948272547561566
 20
-44.20000000000002
 11
-0.899835645672483
 21
-35.8
 97
        0
 75
     0
 76
     1
 98
        1
 10
4.037684671492257
 20
-0.0010749287238934
  0
HATCH
  5
D9
330
1F
100
AcDbEntity
  8
중심선
100
AcDbHatch
 10
0.0
 20
0.0
 30
0.0
210
0.0
220
0.0
230
1.0
  2
SOLID
 70
     1
 71
     0
 91
        1
 92
        0
 93
        6
 72
     3
 10
3.900054785339717
 20
-40.00000000005127
 11
3.960054785062283
 21
1.540882976769353E-10
 40
0.3939339440162628
 50
17.09539180608437
 51
320.0019657685075
 73
     0
 72
     1
 10
5.583054441040312
 20
-38.58789400463827
 11
7.888356314741378
 21
-36.65356729459035
 72
     3
 10
3.90005478528687
 20
-40.00000000000015
 11
6.600054785286829
 21
-1.278976924368180E-13
 40
0.6363583540795981
 50
39.99873849337412
 51
368.4976242363725
 73
     1
 72
     1
 10
10.32538727718748
 20
-39.03999999993002
 11
2.580122092122792
 21
-39.03999999993002
 72
     1
 10
2.580122092122792
 20
-39.03999999993002
 11
2.580097047676858
 21
-40.95999999992991
 72
     1
 10
2.580097047676858
 20
-40.95999999992991
 11
7.021476817148895
 21
-40.95999999992988
 97
        0
 75
     0
 76
     1
 98
        1
 10
4.037684671492257
 20
-0.0010749287238934
  0
DIMENSION
  5
DA
330
1F
100
AcDbEntity
  8
치수문자_일반주서
100
AcDbDimension
  2
_D
 10
-47.44999999999997
 20
-2.381250000000052
 30
0.0
 11
-47.44999999999997
 21
0.0000000000000024
 31
0.0
 70
   160
  1
%%c<>
 71
     2
 42
4.762500000000003
 52
-270.0
  3
SLDDIMSTYLE0
100
AcDbAlignedDimension
 13
-34.01999999999998
 23
2.381250000000001
 33
0.0
 14
-34.01999999999998
 24
-2.381250000000001
 34
0.0
 50
90.0000000000002
100
AcDbRotatedDimension
1001
ACAD
1000
DSTYLE
1002
{
1070
   171
1070
     6
1070
   273
1070
     7
1002
}
  0
DIMENSION
  5
EF
330
1F
100
AcDbEntity
  8
치수문자_일반주서
100
AcDbDimension
  2
_D_1
 10
40.29291898389518
 20
-2.381249999999952
 30
0.0
 11
40.29291898389507
 21
34.7625
 31
0.0
 70
   160
  1
%%c<>
 71
     2
 42
4.762499999999999
 52
-270.0
  3
SLDDIMSTYLE0
100
AcDbAlignedDimension
 13
29.05000000000003
 23
2.381250000000003
 33
0.0
 14
29.05000000000003
 24
-2.381249999999996
 34
0.0
 50
90.0000000000002
100
AcDbRotatedDimension
1001
ACAD
1000
DSTYLE
1002
{
1070
   171
1070
     6
1070
   273
1070
     7
1002
}
  0
DIMENSION
  5
103
330
1F
100
AcDbEntity
  8
치수문자_일반주서
100
AcDbDimension
  2
_D_2
 10
10.00000000000002
 20
24.69874999999999
 30
0.0
 11
13.79856570721769
 21
24.69874999999999
 31
0.0
 70
   160
  1
<>
 71
     2
 42
19.05000000000001
  3
SLDDIMSTYLE0
100
AcDbAlignedDimension
 13
29.05000000000003
 23
2.381250000000003
 33
0.0
 14
10.00000000000002
 24
1.8966959873144
 34
0.0
100
AcDbRotatedDimension
1001
ACAD
1000
DSTYLE
1002
{
1070
   171
1070
     6
1070
   273
1070
     7
1002
}
  0
DIMENSION
  5
118
330
1F
100
AcDbEntity
  8
치수문자_일반주서
100
AcDbDimension
  2
_D_3
 10
-34.44999999999997
 20
39.52280344013392
 30
0.0
 11
-2.699999999999974
 21
39.52280344013392
 31
0.0
 70
   160
  1
<>
 71
     2
 42
63.50000000000001
  3
SLDDIMSTYLE0
100
AcDbAlignedDimension
 13
29.05000000000003
 23
2.381250000000003
 33
0.0
 14
-34.44999999999997
 24
1.951249999999994
 34
0.0
100
AcDbRotatedDimension
1001
ACAD
1000
DSTYLE
1002
{
1070
   171
1070
     6
1070
   273
1070
     7
1002
}
  0
LINE
  5
12C
330
1F
100
AcDbEntity
  8
참조1
100
AcDbLine
 10
82.42838331323583
 20
7.441074928723896
 30
0.0
 11
82.42838331323583
 21
-7.438925071276109
 31
0.0
  0
LINE
  5
12D
330
1F
100
AcDbEntity
  8
참조1
100
AcDbLine
 10
95.12838331323583
 20
5.441074928723896
 30
0.0
 11
82.42838331323583
 21
5.441074928723896
 31
0.0
  0
SOLID
  5
12E
330
1F
100
AcDbEntity
  8
참조1
100
AcDbTrace
 10
82.42838331323583
 20
5.441074928723896
 30
0.0
 11
88.77838331323582
 21
4.425074928723896
 31
0.0
 12
88.77838331323582
 22
6.457074928723896
 32
0.0
 13
88.77838331323582
 23
6.457074928723896
 33
0.0
  0
LINE
  5
12F
330
1F
100
AcDbEntity
  8
참조1
100
AcDbLine
 10
95.12838331323583
 20
-5.438925071276109
 30
0.0
 11
82.42838331323583
 21
-5.438925071276109
 31
0.0
  0
SOLID
  5
130
330
1F
100
AcDbEntity
  8
참조1
100
AcDbTrace
 10
82.42838331323583
 20
-5.438925071276109
 30
0.0
 11
88.77838331323582
 21
-6.454925071276109
 31
0.0
 12
88.77838331323582
 22
-4.422925071276109
 32
0.0
 13
88.77838331323582
 23
-4.422925071276109
 33
0.0
  0
MTEXT
  5
131
330
1F
100
AcDbEntity
  8
참조1
100
AcDbMText
 10
91.82587340570609
 20
10.98929157337383
 30
0.0
 40
3.5
 41
0.0
 71
     1
 72
     1
  1
A
  7
SLDTEXTSTYLE0
 73
     1
 44
1.0
  0
MTEXT
  5
132
330
1F
100
AcDbEntity
  8
참조1
100
AcDbMText
 10
91.82587340570609
 20
0.1092915733738259
 30
0.0
 40
3.5
 41
0.0
 71
     1
 72
     1
  1
A
  7
SLDTEXTSTYLE0
 73
     1
 44
1.0
  0
INSERT
  5
139
330
1F
100
AcDbEntity
  8
해칭선
100
AcDbBlockReference
  2
SW_DOWELSYMBOL_0
 10
0.0
 20
0.0
 30
0.0
  0
ENDSEC
  0
SECTION
  2
OBJECTS
  0
DICTIONARY
  5
C
330
0
100
AcDbDictionary
281
     1
  3
ACAD_GROUP
350
D
  3
ACAD_IMAGE_VARS
350
15D
  3
ACAD_LAYOUT
350
1A
  3
ACAD_MLINESTYLE
350
17
  3
ACAD_PLOTSETTINGS
350
19
  3
ACAD_PLOTSTYLENAME
350
E
  3
ACAD_SCALELIST
350
47
  3
APPDATA
350
15B
  3
DWGPROPS
350
192
  0
DICTIONARY
  5
184
330
2
100
AcDbDictionary
280
     1
281
     1
  3
ACAD_LAYERSTATES
360
185
  0
DICTIONARY
  5
D
102
{ACAD_REACTORS
330
C
102
}
330
C
100
AcDbDictionary
281
     1
  0
RASTERVARIABLES
  5
15D
102
{ACAD_REACTORS
330
C
102
}
330
C
100
AcDbRasterVariables
 90
        0
 70
     1
 71
     1
 72
     1
  0
DICTIONARY
  5
1A
102
{ACAD_REACTORS
330
C
102
}
330
C
100
AcDbDictionary
281
     1
  3
Layout1
350
1E
  3
Layout2
350
26
  3
Model
350
22
  0
DICTIONARY
  5
17
102
{ACAD_REACTORS
330
C
102
}
330
C
100
AcDbDictionary
281
     1
  3
Standard
350
18
  0
DICTIONARY
  5
19
102
{ACAD_REACTORS
330
C
102
}
330
C
100
AcDbDictionary
281
     1
  0
ACDBDICTIONARYWDFLT
  5
E
102
{ACAD_REACTORS
330
C
102
}
330
C
100
AcDbDictionary
281
     1
  3
Normal
350
F
100
AcDbDictionaryWithDefault
340
F
  0
DICTIONARY
  5
47
102
{ACAD_REACTORS
330
C
102
}
330
C
100
AcDbDictionary
281
     1
  3
A0
350
48
  3
A1
350
49
  3
A2
350
4A
  3
A3
350
4B
  3
A4
350
4C
  3
A5
350
4D
  3
A6
350
4E
  3
A7
350
4F
  3
A8
350
50
  3
A9
350
51
  3
B0
350
52
  3
B1
350
53
  3
B2
350
54
  3
B3
350
55
  3
B4
350
56
  3
B5
350
57
  3
B6
350
58
  3
B7
350
59
  3
B8
350
5A
  3
B9
350
5B
  3
C0
350
5C
  3
C1
350
5D
  3
C2
350
5E
  3
C3
350
5F
  3
C4
350
60
  3
C5
350
61
  3
C6
350
62
  3
C7
350
63
  3
C8
350
64
  3
C9
350
65
  3
D0
350
66
  3
D1
350
67
  3
D2
350
68
  0
DICTIONARY
  5
15B
102
{ACAD_REACTORS
330
C
102
}
330
C
100
AcDbDictionary
281
     1
  0
XRECORD
  5
192
102
{ACAD_REACTORS
330
C
102
}
330
C
100
AcDbXrecord
280
     1
  1
DWGPROPS COOKIE
  2

  3

  4

  6

  7

  8
12017012
  9

300
=
301
=
302
=
303
=
304
=
305
=
306
=
307
=
308
=
309
=
 40
0.0
 41
2458288.372021817
 42
2458294.350929583
  1

 90
        0
  0
DICTIONARY
  5
185
102
{ACAD_REACTORS
330
184
102
}
330
184
100
AcDbDictionary
281
     1
  0
LAYOUT
  5
1E
102
{ACAD_REACTORS
330
1A
102
}
330
1A
100
AcDbPlotSettings
  1

  2
none_device
  4

  6

 40
0.0
 41
0.0
 42
0.0
 43
0.0
 44
0.0
 45
0.0
 46
0.0
 47
0.0
 48
0.0
 49
0.0
140
0.0
141
0.0
142
1.0
143
1.0
 70
   688
 72
     1
 73
     0
 74
     5
  7

 75
    16
147
1.0
148
0.0
149
0.0
100
AcDbLayout
  1
Layout1
 70
     1
 71
     1
 10
0.0
 20
0.0
 11
420.0
 21
297.0
 12
0.0
 22
0.0
 32
0.0
 14
1.000000000000000E+20
 24
1.000000000000000E+20
 34
1.000000000000000E+20
 15
-1.000000000000000E+20
 25
-1.000000000000000E+20
 35
-1.000000000000000E+20
146
0.0
 13
0.0
 23
0.0
 33
0.0
 16
1.0
 26
0.0
 36
0.0
 17
0.0
 27
1.0
 37
0.0
 76
     0
330
1B
  0
LAYOUT
  5
26
102
{ACAD_REACTORS
330
1A
102
}
330
1A
100
AcDbPlotSettings
  1

  2
none_device
  4

  6

 40
0.0
 41
0.0
 42
0.0
 43
0.0
 44
0.0
 45
0.0
 46
0.0
 47
0.0
 48
0.0
 49
0.0
140
0.0
141
0.0
142
1.0
143
1.0
 70
   688
 72
     1
 73
     0
 74
     5
  7

 75
    16
147
1.0
148
0.0
149
0.0
100
AcDbLayout
  1
Layout2
 70
     1
 71
     2
 10
0.0
 20
0.0
 11
0.0
 21
0.0
 12
0.0
 22
0.0
 32
0.0
 14
0.0
 24
0.0
 34
0.0
 15
0.0
 25
0.0
 35
0.0
146
0.0
 13
0.0
 23
0.0
 33
0.0
 16
1.0
 26
0.0
 36
0.0
 17
0.0
 27
1.0
 37
0.0
 76
     0
330
23
  0
LAYOUT
  5
22
102
{ACAD_REACTORS
330
1A
102
}
330
1A
100
AcDbPlotSettings
  1

  2
none_device
  4
ANSI_A_(11.00_x_8.50_Inches)
  6

 40
6.35
 41
19.05
 42
6.35000508
 43
19.05000254
 44
279.4
 45
215.9
 46
104.4891758046164
 47
89.24963599621229
 48
0.0
 49
0.0
140
0.0
141
0.0
142
0.0691828515513351
143
1.0
 70
  1696
 72
     0
 73
     0
 74
     0
  7

 75
     0
147
0.0235690232323232
148
0.0
149
0.0
100
AcDbLayout
  1
Model
 70
     1
 71
     0
 10
0.0
 20
0.0
 11
420.0
 21
297.0
 12
0.0
 22
0.0
 32
0.0
 14
-51.82500000000001
 24
-49.97180738881175
 34
0.0
 15
95.12838331323583
 25
48.7625
 35
0.0
146
0.0
 13
0.0
 23
0.0
 33
0.0
 16
1.0
 26
0.0
 36
0.0
 17
0.0
 27
1.0
 37
0.0
 76
     0
330
1F
331
29
  0
MLINESTYLE
  5
18
102
{ACAD_REACTORS
330
17
102
}
330
17
100
AcDbMlineStyle
  2
Standard
 70
     0
  3

 62
   256
 51
90.0
 52
90.0
 71
     2
 49
0.5
 62
   256
  6
BYLAYER
 49
-0.5
 62
   256
  6
BYLAYER
  0
ACDBPLACEHOLDER
  5
F
102
{ACAD_REACTORS
330
E
102
}
330
E
  0
SCALE
  5
48
102
{ACAD_REACTORS
330
47
102
}
330
47
100
AcDbScale
 70
     0
300
1:1
140
1.0
141
1.0
290
     1
  0
SCALE
  5
49
102
{ACAD_REACTORS
330
47
102
}
330
47
100
AcDbScale
 70
     0
300
1:2
140
1.0
141
2.0
290
     0
  0
SCALE
  5
4A
102
{ACAD_REACTORS
330
47
102
}
330
47
100
AcDbScale
 70
     0
300
1:4
140
1.0
141
4.0
290
     0
  0
SCALE
  5
4B
102
{ACAD_REACTORS
330
47
102
}
330
47
100
AcDbScale
 70
     0
300
1:5
140
1.0
141
5.0
290
     0
  0
SCALE
  5
4C
102
{ACAD_REACTORS
330
47
102
}
330
47
100
AcDbScale
 70
     0
300
1:8
140
1.0
141
8.0
290
     0
  0
SCALE
  5
4D
102
{ACAD_REACTORS
330
47
102
}
330
47
100
AcDbScale
 70
     0
300
1:10
140
1.0
141
10.0
290
     0
  0
SCALE
  5
4E
102
{ACAD_REACTORS
330
47
102
}
330
47
100
AcDbScale
 70
     0
300
1:16
140
1.0
141
16.0
290
     0
  0
SCALE
  5
4F
102
{ACAD_REACTORS
330
47
102
}
330
47
100
AcDbScale
 70
     0
300
1:20
140
1.0
141
20.0
290
     0
  0
SCALE
  5
50
102
{ACAD_REACTORS
330
47
102
}
330
47
100
AcDbScale
 70
     0
300
1:30
140
1.0
141
30.0
290
     0
  0
SCALE
  5
51
102
{ACAD_REACTORS
330
47
102
}
330
47
100
AcDbScale
 70
     0
300
1:40
140
1.0
141
40.0
290
     0
  0
SCALE
  5
52
102
{ACAD_REACTORS
330
47
102
}
330
47
100
AcDbScale
 70
     0
300
1:50
140
1.0
141
50.0
290
     0
  0
SCALE
  5
53
102
{ACAD_REACTORS
330
47
102
}
330
47
100
AcDbScale
 70
     0
300
1:100
140
1.0
141
100.0
290
     0
  0
SCALE
  5
54
102
{ACAD_REACTORS
330
47
102
}
330
47
100
AcDbScale
 70
     0
300
2:1
140
2.0
141
1.0
290
     0
  0
SCALE
  5
55
102
{ACAD_REACTORS
330
47
102
}
330
47
100
AcDbScale
 70
     0
300
4:1
140
4.0
141
1.0
290
     0
  0
SCALE
  5
56
102
{ACAD_REACTORS
330
47
102
}
330
47
100
AcDbScale
 70
     0
300
8:1
140
8.0
141
1.0
290
     0
  0
SCALE
  5
57
102
{ACAD_REACTORS
330
47
102
}
330
47
100
AcDbScale
 70
     0
300
10:1
140
10.0
141
1.0
290
     0
  0
SCALE
  5
58
102
{ACAD_REACTORS
330
47
102
}
330
47
100
AcDbScale
 70
     0
300
100:1
140
100.0
141
1.0
290
     0
  0
SCALE
  5
59
102
{ACAD_REACTORS
330
47
102
}
330
47
100
AcDbScale
 70
     0
300
1/128" = 1'-0"
140
0.0078125
141
12.0
290
     0
  0
SCALE
  5
5A
102
{ACAD_REACTORS
330
47
102
}
330
47
100
AcDbScale
 70
     0
300
1/64" = 1'-0"
140
0.015625
141
12.0
290
     0
  0
SCALE
  5
5B
102
{ACAD_REACTORS
330
47
102
}
330
47
100
AcDbScale
 70
     0
300
1/32" = 1'-0"
140
0.03125
141
12.0
290
     0
  0
SCALE
  5
5C
102
{ACAD_REACTORS
330
47
102
}
330
47
100
AcDbScale
 70
     0
300
1/16" = 1'-0"
140
0.0625
141
12.0
290
     0
  0
SCALE
  5
5D
102
{ACAD_REACTORS
330
47
102
}
330
47
100
AcDbScale
 70
     0
300
3/32" = 1'-0"
140
0.09375
141
12.0
290
     0
  0
SCALE
  5
5E
102
{ACAD_REACTORS
330
47
102
}
330
47
100
AcDbScale
 70
     0
300
1/8" = 1'-0"
140
0.125
141
12.0
290
     0
  0
SCALE
  5
5F
102
{ACAD_REACTORS
330
47
102
}
330
47
100
AcDbScale
 70
     0
300
3/16" = 1'-0"
140
0.1875
141
12.0
290
     0
  0
SCALE
  5
60
102
{ACAD_REACTORS
330
47
102
}
330
47
100
AcDbScale
 70
     0
300
1/4" = 1'-0"
140
0.25
141
12.0
290
     0
  0
SCALE
  5
61
102
{ACAD_REACTORS
330
47
102
}
330
47
100
AcDbScale
 70
     0
300
3/8" = 1'-0"
140
0.375
141
12.0
290
     0
  0
SCALE
  5
62
102
{ACAD_REACTORS
330
47
102
}
330
47
100
AcDbScale
 70
     0
300
1/2" = 1'-0"
140
0.5
141
12.0
290
     0
  0
SCALE
  5
63
102
{ACAD_REACTORS
330
47
102
}
330
47
100
AcDbScale
 70
     0
300
3/4" = 1'-0"
140
0.75
141
12.0
290
     0
  0
SCALE
  5
64
102
{ACAD_REACTORS
330
47
102
}
330
47
100
AcDbScale
 70
     0
300
1" = 1'-0"
140
1.0
141
12.0
290
     0
  0
SCALE
  5
65
102
{ACAD_REACTORS
330
47
102
}
330
47
100
AcDbScale
 70
     0
300
1-1/2" = 1'-0"
140
1.5
141
12.0
290
     0
  0
SCALE
  5
66
102
{ACAD_REACTORS
330
47
102
}
330
47
100
AcDbScale
 70
     0
300
3" = 1'-0"
140
3.0
141
12.0
290
     0
  0
SCALE
  5
67
102
{ACAD_REACTORS
330
47
102
}
330
47
100
AcDbScale
 70
     0
300
6" = 1'-0"
140
6.0
141
12.0
290
     0
  0
SCALE
  5
68
102
{ACAD_REACTORS
330
47
102
}
330
47
100
AcDbScale
 70
     0
300
1'-0" = 1'-0"
140
12.0
141
12.0
290
     0
  0
ENDSEC
  0
EOF
