  0
SECTION
  2
HEADER
  9
$ACADVER
  1
AC1015
  9
$ACADMAINTVER
 70
     6
  9
$DWGCODEPAGE
  3
ANSI_949
  9
$INSBASE
 10
0.0
 20
0.0
 30
0.0
  9
$EXTMIN
 10
1.000000000000000E+20
 20
1.000000000000000E+20
 30
1.000000000000000E+20
  9
$EXTMAX
 10
-1.000000000000000E+20
 20
-1.000000000000000E+20
 30
-1.000000000000000E+20
  9
$LIMMIN
 10
0.0
 20
0.0
  9
$LIMMAX
 10
420.0
 20
297.0
  9
$ORTHOMODE
 70
     1
  9
$REGENMODE
 70
     1
  9
$FILLMODE
 70
     1
  9
$QTEXTMODE
 70
     0
  9
$MIRRTEXT
 70
     1
  9
$LTSCALE
 40
1.0
  9
$ATTMODE
 70
     1
  9
$TEXTSIZE
 40
3.5
  9
$TRACEWID
 40
1.0
  9
$TEXTSTYLE
  7
Standard
  9
$CLAYER
  8
0
  9
$CELTYPE
  6
ByLayer
  9
$CECOLOR
 62
   256
  9
$CELTSCALE
 40
1.0
  9
$DISPSILH
 70
     0
  9
$DIMSCALE
 40
1.0
  9
$DIMASZ
 40
3.302
  9
$DIMEXO
 40
1.0
  9
$DIMDLI
 40
3.75
  9
$DIMRND
 40
0.0
  9
$DIMDLE
 40
0.0
  9
$DIMEXE
 40
1.0
  9
$DIMTP
 40
0.0
  9
$DIMTM
 40
0.0
  9
$DIMTXT
 40
3.5
  9
$DIMCEN
 40
2.5
  9
$DIMTSZ
 40
0.0
  9
$DIMTOL
 70
     0
  9
$DIMLIM
 70
     0
  9
$DIMTIH
 70
     1
  9
$DIMTOH
 70
     1
  9
$DIMSE1
 70
     0
  9
$DIMSE2
 70
     0
  9
$DIMTAD
 70
     1
  9
$DIMZIN
 70
     0
  9
$DIMBLK
  1

  9
$DIMASO
 70
     1
  9
$DIMSHO
 70
     1
  9
$DIMPOST
  1

  9
$DIMAPOST
  1

  9
$DIMALT
 70
     0
  9
$DIMALTD
 70
     3
  9
$DIMALTF
 40
0.0393700787401575
  9
$DIMLFAC
 40
1.0
  9
$DIMTOFL
 70
     1
  9
$DIMTVP
 40
0.0
  9
$DIMTIX
 70
     0
  9
$DIMSOXD
 70
     0
  9
$DIMSAH
 70
     0
  9
$DIMBLK1
  1

  9
$DIMBLK2
  1

  9
$DIMSTYLE
  2
ISO-25
  9
$DIMCLRD
 70
     0
  9
$DIMCLRE
 70
     0
  9
$DIMCLRT
 70
     0
  9
$DIMTFAC
 40
1.0
  9
$DIMGAP
 40
1.524
  9
$DIMJUST
 70
     0
  9
$DIMSD1
 70
     0
  9
$DIMSD2
 70
     0
  9
$DIMTOLJ
 70
     0
  9
$DIMTZIN
 70
     0
  9
$DIMALTZ
 70
     0
  9
$DIMALTTZ
 70
     0
  9
$DIMUPT
 70
     0
  9
$DIMDEC
 70
     2
  9
$DIMTDEC
 70
     2
  9
$DIMALTU
 70
     2
  9
$DIMALTTD
 70
     3
  9
$DIMTXSTY
  7
Standard
  9
$DIMAUNIT
 70
     0
  9
$DIMADEC
 70
     2
  9
$DIMALTRND
 40
0.0
  9
$DIMAZIN
 70
     0
  9
$DIMDSEP
 70
    44
  9
$DIMATFIT
 70
     3
  9
$DIMFRAC
 70
     0
  9
$DIMLDRBLK
  1

  9
$DIMLUNIT
 70
     2
  9
$DIMLWD
 70
    -2
  9
$DIMLWE
 70
    -2
  9
$DIMTMOVE
 70
     0
  9
$LUNITS
 70
     2
  9
$LUPREC
 70
     2
  9
$SKETCHINC
 40
1.0
  9
$FILLETRAD
 40
10.0
  9
$AUNITS
 70
     0
  9
$AUPREC
 70
     2
  9
$MENU
  1
.
  9
$ELEVATION
 40
0.0
  9
$PELEVATION
 40
0.0
  9
$THICKNESS
 40
0.0
  9
$LIMCHECK
 70
     0
  9
$CHAMFERA
 40
0.0
  9
$CHAMFERB
 40
0.0
  9
$CHAMFERC
 40
0.0
  9
$CHAMFERD
 40
0.0
  9
$SKPOLY
 70
     0
  9
$TDCREATE
 40
2458288.747211042
  9
$TDUCREATE
 40
2458288.372211042
  9
$TDUPDATE
 40
2458294.72443559
  9
$TDUUPDATE
 40
2458294.34943559
  9
$TDINDWG
 40
0.0013673958
  9
$TDUSRTIMER
 40
2458294.348068692
  9
$USRTIMER
 70
     1
  9
$ANGBASE
 50
0.0
  9
$ANGDIR
 70
     0
  9
$PDMODE
 70
     0
  9
$PDSIZE
 40
-1.0
  9
$PLINEWID
 40
0.0
  9
$SPLFRAME
 70
     0
  9
$SPLINETYPE
 70
     6
  9
$SPLINESEGS
 70
     8
  9
$HANDSEED
  5
19D
  9
$SURFTAB1
 70
     6
  9
$SURFTAB2
 70
     6
  9
$SURFTYPE
 70
     6
  9
$SURFU
 70
     6
  9
$SURFV
 70
     6
  9
$UCSBASE
  2

  9
$UCSNAME
  2

  9
$UCSORG
 10
0.0
 20
0.0
 30
0.0
  9
$UCSXDIR
 10
1.0
 20
0.0
 30
0.0
  9
$UCSYDIR
 10
0.0
 20
1.0
 30
0.0
  9
$UCSORTHOREF
  2

  9
$UCSORTHOVIEW
 70
     0
  9
$UCSORGTOP
 10
0.0
 20
0.0
 30
0.0
  9
$UCSORGBOTTOM
 10
0.0
 20
0.0
 30
0.0
  9
$UCSORGLEFT
 10
0.0
 20
0.0
 30
0.0
  9
$UCSORGRIGHT
 10
0.0
 20
0.0
 30
0.0
  9
$UCSORGFRONT
 10
0.0
 20
0.0
 30
0.0
  9
$UCSORGBACK
 10
0.0
 20
0.0
 30
0.0
  9
$PUCSBASE
  2

  9
$PUCSNAME
  2

  9
$PUCSORG
 10
0.0
 20
0.0
 30
0.0
  9
$PUCSXDIR
 10
1.0
 20
0.0
 30
0.0
  9
$PUCSYDIR
 10
0.0
 20
1.0
 30
0.0
  9
$PUCSORTHOREF
  2

  9
$PUCSORTHOVIEW
 70
     0
  9
$PUCSORGTOP
 10
0.0
 20
0.0
 30
0.0
  9
$PUCSORGBOTTOM
 10
0.0
 20
0.0
 30
0.0
  9
$PUCSORGLEFT
 10
0.0
 20
0.0
 30
0.0
  9
$PUCSORGRIGHT
 10
0.0
 20
0.0
 30
0.0
  9
$PUCSORGFRONT
 10
0.0
 20
0.0
 30
0.0
  9
$PUCSORGBACK
 10
0.0
 20
0.0
 30
0.0
  9
$USERI1
 70
     0
  9
$USERI2
 70
     0
  9
$USERI3
 70
     0
  9
$USERI4
 70
     0
  9
$USERI5
 70
     0
  9
$USERR1
 40
0.0
  9
$USERR2
 40
0.0
  9
$USERR3
 40
0.0
  9
$USERR4
 40
0.0
  9
$USERR5
 40
0.0
  9
$WORLDVIEW
 70
     1
  9
$SHADEDGE
 70
     3
  9
$SHADEDIF
 70
    70
  9
$TILEMODE
 70
     1
  9
$MAXACTVP
 70
    64
  9
$PINSBASE
 10
0.0
 20
0.0
 30
0.0
  9
$PLIMCHECK
 70
     0
  9
$PEXTMIN
 10
1.000000000000000E+20
 20
1.000000000000000E+20
 30
1.000000000000000E+20
  9
$PEXTMAX
 10
-1.000000000000000E+20
 20
-1.000000000000000E+20
 30
-1.000000000000000E+20
  9
$PLIMMIN
 10
0.0
 20
0.0
  9
$PLIMMAX
 10
0.0
 20
0.0
  9
$UNITMODE
 70
     0
  9
$VISRETAIN
 70
     1
  9
$PLINEGEN
 70
     0
  9
$PSLTSCALE
 70
     1
  9
$TREEDEPTH
 70
  3020
  9
$CMLSTYLE
  2
Standard
  9
$CMLJUST
 70
     0
  9
$CMLSCALE
 40
20.0
  9
$PROXYGRAPHICS
 70
     1
  9
$MEASUREMENT
 70
     1
  9
$CELWEIGHT
370
    -1
  9
$ENDCAPS
280
     0
  9
$JOINSTYLE
280
     0
  9
$LWDISPLAY
290
     1
  9
$INSUNITS
 70
     4
  9
$HYPERLINKBASE
  1

  9
$STYLESHEET
  1

  9
$XEDIT
290
     1
  9
$CEPSNTYPE
380
     0
  9
$PSTYLEMODE
290
     1
  9
$FINGERPRINTGUID
  2
{955FAC04-FDD9-4424-B66B-D285B4868E3B}
  9
$VERSIONGUID
  2
{FAEB1C32-E019-11D5-929B-00C0DF256EC4}
  9
$EXTNAMES
290
     1
  9
$PSVPSCALE
 40
0.0
  9
$OLESTARTUP
290
     0
  0
ENDSEC
  0
SECTION
  2
CLASSES
  0
CLASS
  1
ACDBDICTIONARYWDFLT
  2
AcDbDictionaryWithDefault
  3
ObjectDBX Classes
 90
        0
280
     0
281
     0
  0
CLASS
  1
VISUALSTYLE
  2
AcDbVisualStyle
  3
ObjectDBX Classes
 90
     4095
280
     0
281
     0
  0
CLASS
  1
MATERIAL
  2
AcDbMaterial
  3
ObjectDBX Classes
 90
     1153
280
     0
281
     0
  0
CLASS
  1
SCALE
  2
AcDbScale
  3
ObjectDBX Classes
 90
     1153
280
     0
281
     0
  0
CLASS
  1
SUN
  2
AcDbSun
  3
SCENEOE
 90
     1153
280
     0
281
     0
  0
CLASS
  1
ACDBPLACEHOLDER
  2
AcDbPlaceHolder
  3
ObjectDBX Classes
 90
        0
280
     0
281
     0
  0
CLASS
  1
LAYOUT
  2
AcDbLayout
  3
ObjectDBX Classes
 90
        0
280
     0
281
     0
  0
CLASS
  1
TABLESTYLE
  2
AcDbTableStyle
  3
ObjectDBX Classes
 90
     4095
280
     0
281
     0
  0
CLASS
  1
MLEADERSTYLE
  2
AcDbMLeaderStyle
  3
ACDB_MLEADERSTYLE_CLASS
 90
     4095
280
     0
281
     0
  0
CLASS
  1
RASTERVARIABLES
  2
AcDbRasterVariables
  3
ISM
 90
        0
280
     0
281
     0
  0
ENDSEC
  0
SECTION
  2
TABLES
  0
TABLE
  2
VPORT
  5
8
330
0
100
AcDbSymbolTable
 70
     1
  0
VPORT
  5
29
330
8
100
AcDbSymbolTableRecord
100
AcDbViewportTableRecord
  2
*Active
 70
     0
 10
0.0
 20
0.0
 11
1.0
 21
1.0
 12
-8.49145121535543
 22
-16.08740237161291
 13
0.0
 23
0.0
 14
10.0
 24
10.0
 15
10.0
 25
10.0
 16
0.0
 26
0.0
 36
1.0
 17
0.0
 27
0.0
 37
0.0
 40
168.3053992278117
 41
1.859099804305284
 42
50.0
 43
0.0
 44
0.0
 50
0.0
 51
0.0
 71
    16
 72
  2000
 73
     1
 74
     3
 75
     0
 76
     0
 77
     0
 78
     0
281
     0
 65
     1
110
0.0
120
0.0
130
0.0
111
1.0
121
0.0
131
0.0
112
0.0
122
1.0
132
0.0
 79
     0
146
0.0
  0
ENDTAB
  0
TABLE
  2
LTYPE
  5
5
330
0
100
AcDbSymbolTable
 70
     6
  0
LTYPE
  5
14
330
5
100
AcDbSymbolTableRecord
100
AcDbLinetypeTableRecord
  2
ByBlock
 70
     0
  3

 72
    65
 73
     0
 40
0.0
  0
LTYPE
  5
15
330
5
100
AcDbSymbolTableRecord
100
AcDbLinetypeTableRecord
  2
ByLayer
 70
     0
  3

 72
    65
 73
     0
 40
0.0
  0
LTYPE
  5
16
330
5
100
AcDbSymbolTableRecord
100
AcDbLinetypeTableRecord
  2
Continuous
 70
     0
  3
Solid line
 72
    65
 73
     0
 40
0.0
  0
LTYPE
  5
6A
330
5
100
AcDbSymbolTableRecord
100
AcDbLinetypeTableRecord
  2
HIDDEN
 70
     0
  3
Hidden __ __ __ __ __ __ __ __ __ __ __ __ __ __
 72
    65
 73
     2
 40
1.905
 49
1.27
 74
     0
 49
-0.635
 74
     0
  0
LTYPE
  5
6B
330
5
100
AcDbSymbolTableRecord
100
AcDbLinetypeTableRecord
  2
PHANTOM
 70
     0
  3
Phantom ______  __  __  ______  __  __  ______
 72
    65
 73
     6
 40
12.7
 49
6.35
 74
     0
 49
-1.27
 74
     0
 49
1.27
 74
     0
 49
-1.27
 74
     0
 49
1.27
 74
     0
 49
-1.27
 74
     0
  0
LTYPE
  5
6C
330
5
100
AcDbSymbolTableRecord
100
AcDbLinetypeTableRecord
  2
CENTER
 70
     0
  3
Center ____ _ ____ _ ____ _ ____ _ ____ _ ____
 72
    65
 73
     4
 40
10.16
 49
6.35
 74
     0
 49
-1.27
 74
     0
 49
1.27
 74
     0
 49
-1.27
 74
     0
  0
LTYPE
  5
6D
330
5
100
AcDbSymbolTableRecord
100
AcDbLinetypeTableRecord
  2
CENTERX2
 70
     0
  3
Center (2x) ________  __  ________  __  _____
 72
    65
 73
     4
 40
20.32
 49
12.7
 74
     0
 49
-2.54
 74
     0
 49
2.54
 74
     0
 49
-2.54
 74
     0
  0
LTYPE
  5
6E
330
5
100
AcDbSymbolTableRecord
100
AcDbLinetypeTableRecord
  2
DOT2
 70
     0
  3
Dot (.5x) ........................................
 72
    65
 73
     2
 40
0.635
 49
0.0
 74
     0
 49
-0.635
 74
     0
  0
ENDTAB
  0
TABLE
  2
LAYER
  5
2
102
{ACAD_XDICTIONARY
360
18C
102
}
330
0
100
AcDbSymbolTable
 70
    18
  0
LAYER
  5
10
330
2
100
AcDbSymbolTableRecord
100
AcDbLayerTableRecord
  2
0
 70
     0
 62
     7
  6
Continuous
370
    -3
390
F
  0
LAYER
  5
6F
330
2
100
AcDbSymbolTableRecord
100
AcDbLayerTableRecord
  2
FORMAT
 70
     0
 62
     2
  6
Continuous
370
    -3
390
F
  0
LAYER
  5
70
330
2
100
AcDbSymbolTableRecord
100
AcDbLayerTableRecord
  2
외형선
 70
     0
 62
     4
  6
Continuous
370
    30
390
F
  0
LAYER
  5
71
330
2
100
AcDbSymbolTableRecord
100
AcDbLayerTableRecord
  2
숨은선
 70
     0
 62
     2
  6
HIDDEN
370
    15
390
F
  0
LAYER
  5
72
330
2
100
AcDbSymbolTableRecord
100
AcDbLayerTableRecord
  2
중심선
 70
     0
 62
     1
  6
CENTERX2
370
    -3
390
F
  0
LAYER
  5
73
330
2
100
AcDbSymbolTableRecord
100
AcDbLayerTableRecord
  2
파단선
 70
     0
 62
     4
  6
Continuous
370
    -3
390
F
  0
LAYER
  5
74
330
2
100
AcDbSymbolTableRecord
100
AcDbLayerTableRecord
  2
해칭선
 70
     0
 62
   100
  6
Continuous
370
    -3
390
F
  0
LAYER
  5
75
330
2
100
AcDbSymbolTableRecord
100
AcDbLayerTableRecord
  2
가는실선
 70
     0
 62
     4
  6
Continuous
370
    -3
390
F
  0
LAYER
  5
76
330
2
100
AcDbSymbolTableRecord
100
AcDbLayerTableRecord
  2
치수_보조선
 70
     0
 62
     4
  6
Continuous
370
    -3
390
F
  0
LAYER
  5
77
330
2
100
AcDbSymbolTableRecord
100
AcDbLayerTableRecord
  2
치수문자_일반주서
 70
     0
 62
     7
  6
Continuous
370
    15
390
F
  0
LAYER
  5
78
330
2
100
AcDbSymbolTableRecord
100
AcDbLayerTableRecord
  2
개별주서
 70
     0
 62
   100
  6
Continuous
370
    30
390
F
  0
LAYER
  5
79
330
2
100
AcDbSymbolTableRecord
100
AcDbLayerTableRecord
  2
중간선
 70
     0
 62
     2
  6
Continuous
370
    15
390
F
  0
LAYER
  5
7A
330
2
100
AcDbSymbolTableRecord
100
AcDbLayerTableRecord
  2
윤곽선
 70
     0
 62
     3
  6
Continuous
370
    40
390
F
  0
LAYER
  5
7B
330
2
100
AcDbSymbolTableRecord
100
AcDbLayerTableRecord
  2
중심마크
 70
     0
 62
   100
  6
Continuous
370
    30
390
F
  0
LAYER
  5
7C
330
2
100
AcDbSymbolTableRecord
100
AcDbLayerTableRecord
  2
가상선
 70
     0
 62
     4
  6
PHANTOM
370
    -3
390
F
  0
LAYER
  5
7D
330
2
100
AcDbSymbolTableRecord
100
AcDbLayerTableRecord
  2
특수지정선
 70
     0
 62
     5
  6
CENTERX2
370
    60
390
F
  0
LAYER
  5
7E
330
2
100
AcDbSymbolTableRecord
100
AcDbLayerTableRecord
  2
참조1
 70
     0
 62
    -4
  6
Continuous
370
    -3
390
F
  0
LAYER
  5
193
330
2
100
AcDbSymbolTableRecord
100
AcDbLayerTableRecord
  2
Defpoints
 70
     0
 62
     7
  6
Continuous
290
     0
370
    -3
390
F
  0
ENDTAB
  0
TABLE
  2
STYLE
  5
3
330
0
100
AcDbSymbolTable
 70
     2
  0
STYLE
  5
11
330
3
100
AcDbSymbolTableRecord
100
AcDbTextStyleTableRecord
  2
Standard
 70
     0
 40
0.0
 41
1.0
 50
0.0
 71
     0
 42
3.5
  3
txt
  4

  0
STYLE
  5
94
330
3
100
AcDbSymbolTableRecord
100
AcDbTextStyleTableRecord
  2
SLDTEXTSTYLE0
 70
     0
 40
0.0
 41
0.75
 50
0.0
 71
     0
 42
3.5
  3
TXT
  4

  0
ENDTAB
  0
TABLE
  2
VIEW
  5
6
330
0
100
AcDbSymbolTable
 70
     0
  0
ENDTAB
  0
TABLE
  2
UCS
  5
7
330
0
100
AcDbSymbolTable
 70
     0
  0
ENDTAB
  0
TABLE
  2
APPID
  5
9
330
0
100
AcDbSymbolTable
 70
     1
  0
APPID
  5
12
330
9
100
AcDbSymbolTableRecord
100
AcDbRegAppTableRecord
  2
ACAD
 70
     0
  0
ENDTAB
  0
TABLE
  2
DIMSTYLE
  5
A
330
0
100
AcDbSymbolTable
 70
     4
100
AcDbDimStyleTable
  0
DIMSTYLE
105
27
330
A
100
AcDbSymbolTableRecord
100
AcDbDimStyleTableRecord
  2
ISO-25
 70
     0
 41
2.5
 42
0.625
 43
3.75
 44
1.25
 73
     0
 74
     0
 77
     1
 78
     8
140
2.5
141
2.5
143
0.03937007874016
147
0.625
171
     3
172
     1
178
     0
271
     2
272
     2
274
     3
278
    44
283
     0
284
     8
340
11
  0
DIMSTYLE
105
E3
102
{ACAD_REACTORS
330
E2
330
F7
330
10B
330
120
102
}
330
A
100
AcDbSymbolTableRecord
100
AcDbDimStyleTableRecord
  2
SLDDIMSTYLE0
 70
     0
 41
3.302
 44
0.0
 45
0.000000001
 73
     0
 74
     0
 77
     1
 78
    12
 79
     3
140
3.5
143
0.0393700787401575
147
0.875
148
0.000000001
170
     1
172
     1
173
     1
178
     0
271
     2
272
     2
276
     2
284
    12
289
     0
340
94
  0
DIMSTYLE
105
10C
330
A
100
AcDbSymbolTableRecord
100
AcDbDimStyleTableRecord
  2
SLDDIMSTYLE1
 70
     0
 41
3.302
 44
0.0
 45
0.000000001
 73
     0
 74
     0
 77
     1
 78
    12
 79
     3
140
3.5
143
0.0393700787401575
147
0.875
148
0.000000001
170
     1
173
     1
178
     0
271
     2
272
     2
276
     2
284
    12
340
94
  0
DIMSTYLE
105
121
330
A
100
AcDbSymbolTableRecord
100
AcDbDimStyleTableRecord
  2
SLDDIMSTYLE2
 70
     0
 41
3.302
 44
0.0
 45
0.000000001
 73
     0
 74
     0
 77
     1
 78
     4
 79
     1
140
3.5
143
0.0393700787401575
147
0.875
148
0.000000001
170
     1
173
     1
178
     0
271
     2
272
     2
276
     2
284
    12
340
94
  0
ENDTAB
  0
TABLE
  2
BLOCK_RECORD
  5
1
330
0
100
AcDbSymbolTable
 70
     8
  0
BLOCK_RECORD
  5
1F
330
1
100
AcDbSymbolTableRecord
100
AcDbBlockTableRecord
  2
*Model_Space
340
22
  0
BLOCK_RECORD
  5
1B
330
1
100
AcDbSymbolTableRecord
100
AcDbBlockTableRecord
  2
*Paper_Space
340
1E
  0
BLOCK_RECORD
  5
23
330
1
100
AcDbSymbolTableRecord
100
AcDbBlockTableRecord
  2
*Paper_Space0
340
26
  0
BLOCK_RECORD
  5
7F
330
1
100
AcDbSymbolTableRecord
100
AcDbBlockTableRecord
  2
블럭10
340
0
102
{BLKREFS
331
DB
102
}
  0
BLOCK_RECORD
  5
E4
330
1
100
AcDbSymbolTableRecord
100
AcDbBlockTableRecord
  2
_D
340
0
  0
BLOCK_RECORD
  5
F8
330
1
100
AcDbSymbolTableRecord
100
AcDbBlockTableRecord
  2
_D_1
340
0
  0
BLOCK_RECORD
  5
10D
330
1
100
AcDbSymbolTableRecord
100
AcDbBlockTableRecord
  2
_D_2
340
0
  0
BLOCK_RECORD
  5
122
330
1
100
AcDbSymbolTableRecord
100
AcDbBlockTableRecord
  2
_D_3
340
0
  0
BLOCK_RECORD
  5
13B
330
1
100
AcDbSymbolTableRecord
100
AcDbBlockTableRecord
  2
SW_DOWELSYMBOL_0
340
0
102
{BLKREFS
331
141
102
}
  0
ENDTAB
  0
ENDSEC
  0
SECTION
  2
BLOCKS
  0
BLOCK
  5
20
330
1F
100
AcDbEntity
  8
0
100
AcDbBlockBegin
  2
*Model_Space
 70
     0
 10
0.0
 20
0.0
 30
0.0
  3
*Model_Space
  1
*Model_Space
  0
ENDBLK
  5
21
330
1F
100
AcDbEntity
  8
0
100
AcDbBlockEnd
  0
BLOCK
  5
1C
330
1B
100
AcDbEntity
 67
     1
  8
0
100
AcDbBlockBegin
  2
*Paper_Space
 70
     0
 10
0.0
 20
0.0
 30
0.0
  3
*Paper_Space
  1
*Paper_Space
  0
ENDBLK
  5
1D
330
1B
100
AcDbEntity
 67
     1
  8
0
100
AcDbBlockEnd
  0
BLOCK
  5
24
330
23
100
AcDbEntity
  8
0
100
AcDbBlockBegin
  2
*Paper_Space0
 70
     0
 10
0.0
 20
0.0
 30
0.0
  3
*Paper_Space0
  1
*Paper_Space0
  0
ENDBLK
  5
25
330
23
100
AcDbEntity
  8
0
100
AcDbBlockEnd
  0
BLOCK
  5
80
330
7F
100
AcDbEntity
  8
0
100
AcDbBlockBegin
  2
블럭10
 70
     2
 10
0.0
 20
0.0
 30
0.0
  3
블럭10
  1
블럭10
  0
ELLIPSE
  5
82
330
7F
100
AcDbEntity
  8
중심선
100
AcDbEllipse
 10
20.54032771741204
 20
12.0471743016438
 30
0.0
 11
6.600054785286829
 21
-1.261213355974178E-13
 31
0.0
210
0.0
220
0.0
230
1.0
 40
0.636358354079598
 41
0.9219305317359503
 42
6.513795318482858
  0
ELLIPSE
  5
83
330
7F
100
AcDbEntity
  8
중심선
100
AcDbEllipse
 10
20.54032771746488
 20
12.04717430159265
 30
0.0
 11
3.960054785062283
 21
1.540847449632565E-10
 31
0.0
210
0.0
220
0.0
230
1.0
 40
0.3939339440162632
 41
1.131841032648279
 42
5.62031148352944
  0
LINE
  5
84
330
7F
100
AcDbEntity
  8
중심선
100
AcDbLine
 10
2.268634060543552
 20
16.24717430164393
 30
0.0
 11
5.714909304380834
 21
16.24717430164393
 31
0.0
  0
LINE
  5
85
330
7F
100
AcDbEntity
  8
중심선
100
AcDbLine
 10
5.245725140726316
 20
7.84717430164391
 30
0.0
 11
8.692000384563599
 21
7.84717430164391
 31
0.0
  0
LINE
  5
86
330
7F
100
AcDbEntity
  8
중심선
100
AcDbLine
 10
15.74043728645272
 20
16.24717430164393
 30
0.0
 11
8.692000384563599
 21
7.84717430164391
 31
0.0
  0
LINE
  5
87
330
7F
100
AcDbEntity
  8
중심선
100
AcDbLine
 10
0.1404042013395286
 20
13.71084872107135
 30
0.0
 11
3.58671253028996
 21
13.71088815037384
 31
0.0
  0
LINE
  5
88
330
7F
100
AcDbEntity
  8
중심선
100
AcDbLine
 10
2.750260043222114
 20
10.84717430164391
 30
0.0
 11
6.196535287059397
 21
10.84717430164391
 31
0.0
  0
LINE
  5
89
330
7F
100
AcDbEntity
  8
중심선
100
AcDbLine
 10
12.29416204261559
 20
16.24717430164393
 30
0.0
 11
5.245725140726316
 21
7.84717430164391
 31
0.0
  0
LINE
  5
8A
330
7F
100
AcDbEntity
  8
중심선
100
AcDbLine
 10
10.72767329541681
 20
16.24717430164393
 30
0.0
 11
6.196535287059397
 21
10.84717430164391
 31
0.0
  0
LINE
  5
8B
330
7F
100
AcDbEntity
  8
중심선
100
AcDbLine
 10
7.28139805157953
 20
16.24717430164393
 30
0.0
 11
2.750260043222114
 21
10.84717430164391
 31
0.0
  0
LINE
  5
8C
330
7F
100
AcDbEntity
  8
중심선
100
AcDbLine
 10
5.714909304380834
 20
16.24717430164393
 30
0.0
 11
3.58671253028996
 21
13.71088815037384
 31
0.0
  0
LINE
  5
8D
330
7F
100
AcDbEntity
  8
중심선
100
AcDbLine
 10
2.268634060543552
 20
16.24717430164393
 30
0.0
 11
0.1404042013395286
 21
13.71084872107135
 31
0.0
  0
LINE
  5
8E
330
7F
100
AcDbEntity
  8
중심선
100
AcDbLine
 10
7.28139805157953
 20
16.24717430164393
 30
0.0
 11
10.72767329541681
 21
16.24717430164393
 31
0.0
  0
LINE
  5
8F
330
7F
100
AcDbEntity
  8
중심선
100
AcDbLine
 10
12.29416204261559
 20
16.24717430164393
 30
0.0
 11
15.74043728645272
 21
16.24717430164393
 31
0.0
  0
LINE
  5
90
330
7F
100
AcDbEntity
  8
중심선
100
AcDbLine
 10
19.22036997980202
 20
11.08717430171403
 30
0.0
 11
23.66174974927406
 21
11.08717430171406
 31
0.0
  0
LINE
  5
91
330
7F
100
AcDbEntity
  8
중심선
100
AcDbLine
 10
19.22039502424796
 20
13.00717430171391
 30
0.0
 11
19.22036997980202
 21
11.08717430171403
 31
0.0
  0
LINE
  5
92
330
7F
100
AcDbEntity
  8
중심선
100
AcDbLine
 10
19.22039502424796
 20
13.00717430171391
 30
0.0
 11
26.96566020931264
 21
13.00717430171391
 31
0.0
  0
LINE
  5
93
330
7F
100
AcDbEntity
  8
중심선
100
AcDbLine
 10
22.22332737316547
 20
13.45928029700563
 30
0.0
 11
24.52862924686651
 21
15.39360700705356
 31
0.0
  0
ATTDEF
  5
95
330
7F
100
AcDbEntity
  8
FORMAT
 62
     2
100
AcDbText
 10
3.448148490846466
 20
2.075366912832191
 30
0.0
 40
4.233333333333333
  1
EM206016
 41
0.75
  7
SLDTEXTSTYLE0
 11
3.448148490846466
 21
-0.0412997538344756
 31
0.0
100
AcDbAttributeDefinition
  3

  2
AUTOATTR0
 70
     0
 74
     1
  0
ENDBLK
  5
81
330
7F
100
AcDbEntity
  8
0
100
AcDbBlockEnd
  0
BLOCK
  5
E5
330
E4
100
AcDbEntity
  8
0
100
AcDbBlockBegin
  2
_D
 70
     0
 10
0.0
 20
0.0
 30
0.0
  3
_D
  1
_D
  0
LINE
  5
E7
330
E4
100
AcDbEntity
  8
치수문자_일반주서
 62
     0
370
    -2
100
AcDbLine
 10
-36.87749999999996
 20
3.175000000000009
 30
0.0
 11
-50.24499999999996
 21
3.174999999999959
 31
0.0
  0
LINE
  5
E8
330
E4
100
AcDbEntity
  8
치수문자_일반주서
 62
     0
370
    -2
100
AcDbLine
 10
-36.87749999999996
 20
-3.175000000000014
 30
0.0
 11
-50.24499999999994
 21
-3.175000000000063
 31
0.0
  0
LINE
  5
E9
330
E4
100
AcDbEntity
  8
치수문자_일반주서
 62
     0
370
    -2
100
AcDbLine
 10
-50.24499999999995
 20
-0.1270000000000402
 30
0.0
 11
-50.24499999999995
 21
0.1269999999999367
 31
0.0
  0
SOLID
  5
EA
330
E4
100
AcDbEntity
  8
치수문자_일반주서
 62
     0
100
AcDbTrace
 10
-49.69466666666661
 20
-0.1270000000000383
 30
0.0
 11
-50.79533333333328
 21
-0.1270000000000421
 31
0.0
 12
-50.24499999999996
 22
3.174999999999959
 32
0.0
 13
-50.24499999999996
 23
3.174999999999959
 33
0.0
  0
SOLID
  5
EB
330
E4
100
AcDbEntity
  8
치수문자_일반주서
 62
     0
100
AcDbTrace
 10
-50.79533333333329
 20
0.1269999999999349
 30
0.0
 11
-49.69466666666662
 21
0.1269999999999386
 31
0.0
 12
-50.24499999999994
 22
-3.175000000000063
 32
0.0
 13
-50.24499999999994
 23
-3.175000000000063
 33
0.0
  0
MTEXT
  5
EC
330
E4
100
AcDbEntity
  8
치수문자_일반주서
 62
     0
100
AcDbMText
 10
-54.61999999999995
 20
-0.0000000000000035
 30
0.0
 40
3.5
 41
0.0
 71
     2
 72
     1
  1
\A1;%%c6.35 [1/4]
  7
SLDTEXTSTYLE0
 11
-3.356894814614635E-15
 21
1.0
 31
0.0
 73
     1
 44
1.0
  0
POINT
  5
ED
330
E4
100
AcDbEntity
  8
Defpoints
 62
     0
100
AcDbPoint
 10
-36.81499999999996
 20
3.175000000000009
 30
0.0
  0
POINT
  5
EE
330
E4
100
AcDbEntity
  8
Defpoints
 62
     0
100
AcDbPoint
 10
-36.81499999999996
 20
-3.175000000000013
 30
0.0
  0
POINT
  5
EF
330
E4
100
AcDbEntity
  8
Defpoints
 62
     0
100
AcDbPoint
 10
-50.24499999999994
 20
-3.175000000000063
 30
0.0
  0
ENDBLK
  5
E6
330
E4
100
AcDbEntity
  8
0
100
AcDbBlockEnd
  0
BLOCK
  5
F9
330
F8
100
AcDbEntity
  8
0
100
AcDbBlockBegin
  2
_D_1
 70
     0
 10
0.0
 20
0.0
 30
0.0
  3
_D_1
  1
_D_1
  0
LINE
  5
FB
330
F8
100
AcDbEntity
  8
치수문자_일반주서
 62
     0
370
    -2
100
AcDbLine
 10
38.63750000000003
 20
3.172316538354121
 30
0.0
 11
55.40531483199381
 21
3.172316538354185
 31
0.0
  0
LINE
  5
FC
330
F8
100
AcDbEntity
  8
치수문자_일반주서
 62
     0
370
    -2
100
AcDbLine
 10
38.6374999999996
 20
-3.174999999999996
 30
0.0
 11
55.40531483199383
 21
-3.174999999999933
 31
0.0
  0
LINE
  5
FD
330
F8
100
AcDbEntity
  8
치수문자_일반주서
 62
     0
370
    -2
100
AcDbLine
 10
55.40531483199381
 20
3.172316538354185
 30
0.0
 11
55.40531483199371
 21
35.15131653835418
 31
0.0
  0
LINE
  5
FE
330
F8
100
AcDbEntity
  8
치수문자_일반주서
 62
     0
370
    -2
100
AcDbLine
 10
55.40531483199381
 20
3.172316538354185
 30
0.0
 11
55.40531483199383
 21
-3.174999999999933
 31
0.0
  0
LINE
  5
FF
330
F8
100
AcDbEntity
  8
치수문자_일반주서
 62
     0
370
    -2
100
AcDbLine
 10
55.4053148319938
 20
6.474316538354184
 30
0.0
 11
55.40531483199378
 21
9.776316538354184
 31
0.0
  0
LINE
  5
100
330
F8
100
AcDbEntity
  8
치수문자_일반주서
 62
     0
370
    -2
100
AcDbLine
 10
55.40531483199385
 20
-6.476999999999933
 30
0.0
 11
55.40531483199386
 21
-9.778999999999932
 31
0.0
  0
SOLID
  5
101
330
F8
100
AcDbEntity
  8
치수문자_일반주서
 62
     0
100
AcDbTrace
 10
54.85498149866046
 20
6.474316538354183
 30
0.0
 11
55.95564816532713
 21
6.474316538354186
 31
0.0
 12
55.40531483199381
 22
3.172316538354185
 32
0.0
 13
55.40531483199381
 23
3.172316538354185
 33
0.0
  0
SOLID
  5
102
330
F8
100
AcDbEntity
  8
치수문자_일반주서
 62
     0
100
AcDbTrace
 10
55.95564816532718
 20
-6.476999999999931
 30
0.0
 11
54.85498149866051
 21
-6.476999999999935
 31
0.0
 12
55.40531483199383
 22
-3.174999999999933
 32
0.0
 13
55.40531483199383
 23
-3.174999999999933
 33
0.0
  0
MTEXT
  5
103
330
F8
100
AcDbEntity
  8
치수문자_일반주서
 62
     0
100
AcDbMText
 10
51.03031483199375
 20
22.46381653835417
 30
0.0
 40
3.5
 41
0.0
 71
     2
 72
     1
  1
\A1;%%c6.35 [1/4]
  7
SLDTEXTSTYLE0
 11
-3.358314012543385E-15
 21
1.0
 31
0.0
 73
     1
 44
1.0
  0
POINT
  5
104
330
F8
100
AcDbEntity
  8
Defpoints
 62
     0
100
AcDbPoint
 10
38.57500000000003
 20
3.17231653835412
 30
0.0
  0
POINT
  5
105
330
F8
100
AcDbEntity
  8
Defpoints
 62
     0
100
AcDbPoint
 10
38.5749999999996
 20
-3.174999999999996
 30
0.0
  0
POINT
  5
106
330
F8
100
AcDbEntity
  8
Defpoints
 62
     0
100
AcDbPoint
 10
55.40531483199383
 20
-3.174999999999933
 30
0.0
  0
ENDBLK
  5
FA
330
F8
100
AcDbEntity
  8
0
100
AcDbBlockEnd
  0
BLOCK
  5
10E
330
10D
100
AcDbEntity
  8
0
100
AcDbBlockBegin
  2
_D_2
 70
     0
 10
0.0
 20
0.0
 30
0.0
  3
_D_2
  1
_D_2
  0
LINE
  5
110
330
10D
100
AcDbEntity
  8
치수문자_일반주서
 62
     0
370
    -2
100
AcDbLine
 10
38.5749999999996
 20
3.237500000000003
 30
0.0
 11
38.57499999999959
 21
25.25437499999999
 31
0.0
  0
LINE
  5
111
330
10D
100
AcDbEntity
  8
치수문자_일반주서
 62
     0
370
    -2
100
AcDbLine
 10
10.00000000000003
 20
2.544764358750504
 30
0.0
 11
10.00000000000003
 21
25.25437499999999
 31
0.0
  0
LINE
  5
112
330
10D
100
AcDbEntity
  8
치수문자_일반주서
 62
     0
370
    -2
100
AcDbLine
 10
10.00000000000003
 20
25.25437499999999
 30
0.0
 11
-26.35399999999997
 21
25.25437499999999
 31
0.0
  0
LINE
  5
113
330
10D
100
AcDbEntity
  8
치수문자_일반주서
 62
     0
370
    -2
100
AcDbLine
 10
38.57499999999959
 20
25.25437499999999
 30
0.0
 11
10.00000000000003
 21
25.25437499999999
 31
0.0
  0
LINE
  5
114
330
10D
100
AcDbEntity
  8
치수문자_일반주서
 62
     0
370
    -2
100
AcDbLine
 10
41.87699999999959
 20
25.25437499999999
 30
0.0
 11
45.17899999999959
 21
25.25437499999999
 31
0.0
  0
LINE
  5
115
330
10D
100
AcDbEntity
  8
치수문자_일반주서
 62
     0
370
    -2
100
AcDbLine
 10
6.698000000000032
 20
25.25437499999999
 30
0.0
 11
3.396000000000033
 21
25.25437499999999
 31
0.0
  0
SOLID
  5
116
330
10D
100
AcDbEntity
  8
치수문자_일반주서
 62
     0
100
AcDbTrace
 10
41.87699999999959
 20
25.80470833333333
 30
0.0
 11
41.87699999999959
 21
24.70404166666666
 31
0.0
 12
38.57499999999959
 22
25.25437499999999
 32
0.0
 13
38.57499999999959
 23
25.25437499999999
 33
0.0
  0
SOLID
  5
117
330
10D
100
AcDbEntity
  8
치수문자_일반주서
 62
     0
100
AcDbTrace
 10
6.698000000000032
 20
24.70404166666666
 30
0.0
 11
6.698000000000032
 21
25.80470833333333
 31
0.0
 12
10.00000000000003
 22
25.25437499999999
 32
0.0
 13
10.00000000000003
 23
25.25437499999999
 33
0.0
  0
MTEXT
  5
118
330
10D
100
AcDbEntity
  8
치수문자_일반주서
 62
     0
100
AcDbMText
 10
-11.47899999999997
 20
29.62937499999999
 30
0.0
 40
3.5
 41
0.0
 71
     2
 72
     1
  1
\A1;28.58 [1 1/8]
  7
SLDTEXTSTYLE0
 73
     1
 44
1.0
  0
POINT
  5
119
330
10D
100
AcDbEntity
  8
Defpoints
 62
     0
100
AcDbPoint
 10
38.5749999999996
 20
3.175000000000003
 30
0.0
  0
POINT
  5
194
330
10D
100
AcDbEntity
  8
Defpoints
 62
     0
100
AcDbPoint
 10
10.00000000000003
 20
2.482264358750504
 30
0.0
  0
POINT
  5
195
330
10D
100
AcDbEntity
  8
Defpoints
 62
     0
100
AcDbPoint
 10
10.00000000000003
 20
25.25437499999999
 30
0.0
  0
ENDBLK
  5
10F
330
10D
100
AcDbEntity
  8
0
100
AcDbBlockEnd
  0
BLOCK
  5
123
330
122
100
AcDbEntity
  8
0
100
AcDbBlockBegin
  2
_D_3
 70
     0
 10
0.0
 20
0.0
 30
0.0
  3
_D_3
  1
_D_3
  0
LINE
  5
125
330
122
100
AcDbEntity
  8
치수문자_일반주서
 62
     0
370
    -2
100
AcDbLine
 10
38.5749999999996
 20
3.237500000000003
 30
0.0
 11
38.57499999999959
 21
40.07842844013392
 31
0.0
  0
LINE
  5
126
330
122
100
AcDbEntity
  8
치수문자_일반주서
 62
     0
370
    -2
100
AcDbLine
 10
-37.62499999999997
 20
2.427499999999992
 30
0.0
 11
-37.62499999999999
 21
40.07842844013392
 31
0.0
  0
LINE
  5
127
330
122
100
AcDbEntity
  8
치수문자_일반주서
 62
     0
370
    -2
100
AcDbLine
 10
35.27299999999959
 20
40.07842844013392
 30
0.0
 11
-34.32299999999999
 21
40.07842844013392
 31
0.0
  0
SOLID
  5
128
330
122
100
AcDbEntity
  8
치수문자_일반주서
 62
     0
100
AcDbTrace
 10
35.27299999999959
 20
39.52809510680058
 30
0.0
 11
35.27299999999959
 21
40.62876177346725
 31
0.0
 12
38.57499999999959
 22
40.07842844013392
 32
0.0
 13
38.57499999999959
 23
40.07842844013392
 33
0.0
  0
SOLID
  5
129
330
122
100
AcDbEntity
  8
치수문자_일반주서
 62
     0
100
AcDbTrace
 10
-34.32299999999999
 20
40.62876177346725
 30
0.0
 11
-34.32299999999999
 21
39.52809510680058
 31
0.0
 12
-37.62499999999999
 22
40.07842844013392
 32
0.0
 13
-37.62499999999999
 23
40.07842844013392
 33
0.0
  0
MTEXT
  5
12A
330
122
100
AcDbEntity
  8
치수문자_일반주서
 62
     0
100
AcDbMText
 10
0.4750000000000334
 20
44.45342844013392
 30
0.0
 40
3.5
 41
0.0
 71
     2
 72
     1
  1
\A1;76.2 [3]
  7
SLDTEXTSTYLE0
 73
     1
 44
1.0
  0
POINT
  5
12B
330
122
100
AcDbEntity
  8
Defpoints
 62
     0
100
AcDbPoint
 10
38.5749999999996
 20
3.175000000000003
 30
0.0
  0
POINT
  5
12C
330
122
100
AcDbEntity
  8
Defpoints
 62
     0
100
AcDbPoint
 10
-37.62499999999997
 20
2.364999999999992
 30
0.0
  0
POINT
  5
12D
330
122
100
AcDbEntity
  8
Defpoints
 62
     0
100
AcDbPoint
 10
-37.62499999999997
 20
40.07842844013392
 30
0.0
  0
ENDBLK
  5
124
330
122
100
AcDbEntity
  8
0
100
AcDbBlockEnd
  0
BLOCK
  5
13C
330
13B
100
AcDbEntity
  8
0
100
AcDbBlockBegin
  2
SW_DOWELSYMBOL_0
 70
     0
 10
0.0
 20
0.0
 30
0.0
  3
SW_DOWELSYMBOL_0
  1
SW_DOWELSYMBOL_0
  0
CIRCLE
  5
13E
330
13B
100
AcDbEntity
  8
해칭선
 62
     0
100
AcDbCircle
 10
0.0
 20
0.0
 30
0.0
 40
3.000000000000002
  0
HATCH
  5
13F
330
13B
100
AcDbEntity
  8
0
  6
Continuous
 62
     0
370
     0
100
AcDbHatch
 10
0.0
 20
0.0
 30
0.0
210
0.0
220
0.0
230
1.0
  2
SOLID
 70
     1
 71
     0
 91
        1
 92
        0
 93
        3
 72
     2
 10
-0.0000000000000234
 20
0.0
 40
3.000000000000002
 50
0.0
 51
90.0
 73
     1
 72
     1
 10
-0.0000000000000234
 20
3.000000000000002
 11
-0.0000000000000234
 21
0.0
 72
     1
 10
-0.0000000000000234
 20
0.0
 11
2.999999999999979
 21
0.0
 97
        0
 75
     0
 76
     1
 98
        1
 10
0.0
 20
0.0
  0
HATCH
  5
140
330
13B
100
AcDbEntity
  8
0
  6
Continuous
 62
     0
370
     0
100
AcDbHatch
 10
0.0
 20
0.0
 30
0.0
210
0.0
220
0.0
230
1.0
  2
SOLID
 70
     1
 71
     0
 91
        1
 92
        0
 93
        3
 72
     2
 10
-0.0000000000000234
 20
0.0
 40
3.000000000000002
 50
180.0
 51
270.0000000000008
 73
     1
 72
     1
 10
-0.0000000000000234
 20
-3.000000000000002
 11
-0.0000000000000234
 21
0.0
 72
     1
 10
-0.0000000000000234
 20
0.0
 11
-3.000000000000026
 21
0.0
 97
        0
 75
     0
 76
     1
 98
        1
 10
0.0
 20
0.0
  0
ENDBLK
  5
13D
330
13B
100
AcDbEntity
  8
0
100
AcDbBlockEnd
  0
ENDSEC
  0
SECTION
  2
ENTITIES
  0
LINE
  5
96
330
1F
100
AcDbEntity
  8
외형선
  6
Continuous
370
    15
100
AcDbLine
 10
8.479918330987054
 20
3.174999999999998
 30
0.0
 11
-36.81499999999997
 21
3.174999999999995
 31
0.0
  0
LINE
  5
97
330
1F
100
AcDbEntity
  8
외형선
  6
Continuous
370
    15
100
AcDbLine
 10
-36.81499999999997
 20
-3.175000000000004
 30
0.0
 11
8.479918330987054
 21
-3.175000000000002
 31
0.0
  0
LINE
  5
98
330
1F
100
AcDbEntity
  8
외형선
  6
Continuous
370
    15
100
AcDbLine
 10
-36.81499999999997
 20
3.174999999999992
 30
0.0
 11
-37.62499999999997
 21
2.364999999999992
 31
0.0
  0
LINE
  5
99
330
1F
100
AcDbEntity
  8
외형선
  6
Continuous
370
    15
100
AcDbLine
 10
-37.62499999999997
 20
-2.365000000000002
 30
0.0
 11
-36.81499999999997
 21
-3.175000000000002
 31
0.0
  0
SPLINE
  5
9A
330
1F
100
AcDbEntity
  8
외형선
  6
Continuous
370
    15
100
AcDbSpline
210
0.0
220
0.0
230
1.0
 70
     8
 71
     3
 72
    18
 73
    14
 74
     0
 42
0.000000001
 43
0.00000001
 40
0.0
 40
0.0
 40
0.0
 40
0.0
 40
0.1099828352369213
 40
0.1689468231691982
 40
0.2311544473546709
 40
0.3795233038631131
 40
0.5644243152591157
 40
0.8924332449284097
 40
0.9706564393554536
 40
0.9895611452754857
 40
0.9954624294712174
 40
0.9978395629970153
 40
1.0
 40
1.0
 40
1.0
 40
1.0
 10
8.480692254367769
 20
-2.992282801740062
 30
0.0
 10
8.481702185516289
 20
-2.991300524332206
 30
0.0
 10
8.48325356086313
 20
-2.989791628447037
 30
0.0
 10
8.500028053409817
 20
-2.96867985348581
 30
0.0
 10
8.529670980751009
 20
-2.932680198269903
 30
0.0
 10
8.593151992460548
 20
-2.859373686787507
 30
0.0
 10
8.713718016516895
 20
-2.729498449935556
 30
0.0
 10
8.830093239415318
 20
-2.612539489192006
 30
0.0
 10
8.920223764267913
 20
-2.535123583841834
 30
0.0
 10
8.944771590235096
 20
-2.518561501795555
 30
0.0
 10
8.95167236907032
 20
-2.515346520472377
 30
0.0
 10
8.954208419992925
 20
-2.514572308048102
 30
0.0
 10
8.955149187286388
 20
-2.514466395507827
 30
0.0
 10
8.955597107260104
 20
-2.514415968220882
 30
0.0
  0
LINE
  5
9B
330
1F
100
AcDbEntity
  8
외형선
  6
Continuous
370
    15
100
AcDbLine
 10
10.00000000000003
 20
2.482264358750031
 30
0.0
 11
9.43556054662169
 21
2.497079083884557
 31
0.0
  0
SPLINE
  5
9C
330
1F
100
AcDbEntity
  8
외형선
  6
Continuous
370
    15
100
AcDbSpline
210
0.0
220
0.0
230
1.0
 70
     8
 71
     3
 72
     9
 73
     5
 74
     0
 42
0.000000001
 43
0.00000001
 40
0.0
 40
0.0
 40
0.0
 40
0.0
 40
0.4234928242596109
 40
1.0
 40
1.0
 40
1.0
 40
1.0
 10
8.956916418084923
 20
-2.514719288311359
 30
0.0
 10
9.104213444704392
 20
-2.508095285728086
 30
0.0
 10
9.452028137614452
 20
-2.492453928416181
 30
0.0
 10
9.799614162478834
 20
-2.485990545424371
 30
0.0
 10
10.00000000000023
 20
-2.482264358750033
 30
0.0
  0
SPLINE
  5
9D
330
1F
100
AcDbEntity
  8
0
  6
Continuous
 62
     1
370
    15
100
AcDbSpline
210
0.0
220
0.0
230
1.0
 70
     8
 71
     3
 72
     9
 73
     5
 74
     0
 42
0.000000001
 43
0.00000001
 40
0.0
 40
0.0
 40
0.0
 40
0.0
 40
0.4370435182869395
 40
1.0
 40
1.0
 40
1.0
 40
1.0
 10
13.07202490621099
 20
0.813636388449017
 30
0.0
 10
12.94392441604689
 20
0.8746631358740306
 30
0.0
 10
12.65081747176312
 20
1.014298538005647
 30
0.0
 10
12.3577381302244
 20
1.167762601438758
 30
0.0
 10
12.19274721524898
 20
1.254156190658452
 30
0.0
  0
SPLINE
  5
9E
330
1F
100
AcDbEntity
  8
0
  6
Continuous
 62
     1
370
    15
100
AcDbSpline
210
0.0
220
0.0
230
1.0
 70
     8
 71
     3
 72
     9
 73
     5
 74
     0
 42
0.000000001
 43
0.00000001
 40
0.0
 40
0.0
 40
0.0
 40
0.0
 40
0.4369074201436007
 40
1.0
 40
1.0
 40
1.0
 40
1.0
 10
30.3482753442383
 20
0.8137244786513103
 30
0.0
 10
30.22027145956079
 20
0.874706161369578
 30
0.0
 10
29.92729432349972
 20
1.014281915652315
 30
0.0
 10
29.63429441030203
 20
1.167701869290293
 30
0.0
 10
29.46930833328184
 20
1.254091506785751
 30
0.0
  0
LINE
  5
9F
330
1F
100
AcDbEntity
  8
0
  6
Continuous
 62
     1
370
    15
100
AcDbLine
 10
11.54318943268681
 20
0.7694958815292829
 30
0.0
 11
11.28256007464129
 21
0.9127644525460437
 31
0.0
  0
LINE
  5
A0
330
1F
100
AcDbEntity
  8
0
  6
Continuous
 62
     1
370
    15
100
AcDbLine
 10
23.06415668388944
 20
3.175
 30
0.0
 11
21.52498637497698
 21
3.175
 31
0.0
  0
LINE
  5
A1
330
1F
100
AcDbEntity
  8
0
  6
Continuous
 62
     1
370
    15
100
AcDbLine
 10
21.52498637497695
 20
-3.175000000000004
 30
0.0
 11
23.06415668388945
 21
-3.175000000000004
 31
0.0
  0
SPLINE
  5
A2
330
1F
100
AcDbEntity
  8
0
  6
Continuous
 62
     1
370
    15
100
AcDbSpline
210
0.0
220
0.0
230
1.0
 70
     8
 71
     3
 72
    11
 73
     7
 74
     0
 42
0.000000001
 43
0.00000001
 40
0.0
 40
0.0
 40
0.0
 40
0.0
 40
0.2155654027821088
 40
0.4833914469440578
 40
0.6808046852601072
 40
1.0
 40
1.0
 40
1.0
 40
1.0
 10
24.52352252412418
 20
-2.642057274717097
 30
0.0
 10
24.86713021492483
 20
-2.610588995086975
 30
0.0
 10
25.6376481955171
 20
-2.540023417183823
 30
0.0
 10
26.72024531734109
 20
-2.489077456897453
 30
0.0
 10
27.96903656250438
 20
-2.47011060385989
 30
0.0
 10
28.79175277825417
 20
-2.502790586323613
 30
0.0
 10
29.30008187941683
 20
-2.522982465119458
 30
0.0
  0
SPLINE
  5
A3
330
1F
100
AcDbEntity
  8
0
  6
Continuous
 62
     1
370
    15
100
AcDbSpline
210
0.0
220
0.0
230
1.0
 70
     8
 71
     3
 72
     9
 73
     5
 74
     0
 42
0.000000001
 43
0.00000001
 40
0.0
 40
0.0
 40
0.0
 40
0.0
 40
0.3653495384158144
 40
1.0
 40
1.0
 40
1.0
 40
1.0
 10
12.02357945699516
 20
2.522979086020648
 30
0.0
 10
11.77828313330921
 20
2.511297727049947
 30
0.0
 10
11.10688137172614
 20
2.479324622550205
 30
0.0
 10
10.42974494547548
 20
2.481123010810517
 30
0.0
 10
10.00000000000003
 20
2.482264358750031
 30
0.0
  0
SPLINE
  5
A4
330
1F
100
AcDbEntity
  8
0
  6
Continuous
 62
     1
370
    15
100
AcDbSpline
210
0.0
220
0.0
230
1.0
 70
     8
 71
     3
 72
     9
 73
     5
 74
     0
 42
0.000000001
 43
0.00000001
 40
0.0
 40
0.0
 40
0.0
 40
0.0
 40
0.4592057442812408
 40
1.0
 40
1.0
 40
1.0
 40
1.0
 10
10.00000000000003
 20
-2.482264358750036
 30
0.0
 10
10.30970465383579
 20
-2.480474405871663
 30
0.0
 10
10.98414014967332
 20
-2.47657647362525
 30
0.0
 10
11.65875280705044
 20
-2.506692507757112
 30
0.0
 10
12.02357945699516
 20
-2.522979086020652
 30
0.0
  0
SPLINE
  5
A5
330
1F
100
AcDbEntity
  8
0
  6
Continuous
 62
     1
370
    15
100
AcDbSpline
210
0.0
220
0.0
230
1.0
 70
     8
 71
     3
 72
    15
 73
    11
 74
     0
 42
0.000000001
 43
0.00000001
 40
0.0
 40
0.0
 40
0.0
 40
0.0
 40
0.1924204493754102
 40
0.3274994231356195
 40
0.4101252220634919
 40
0.483129217849703
 40
0.5590135043055426
 40
0.8480581553087101
 40
0.9383836983850736
 40
0.9999999999999999
 40
0.9999999999999999
 40
0.9999999999999999
 40
0.9999999999999999
 10
29.30008187941683
 20
2.522982465119455
 30
0.0
 10
29.13104233192729
 20
2.514744679661177
 30
0.0
 10
28.84333718172297
 20
2.500723976590072
 30
0.0
 10
28.4841040458207
 20
2.489761359221781
 30
0.0
 10
28.23220195238738
 20
2.484303204819573
 30
0.0
 10
28.03121915995938
 20
2.481325184846776
 30
0.0
 10
27.64849796789134
 20
2.478097229766338
 30
0.0
 10
27.25151763135177
 20
2.481259722197916
 30
0.0
 10
26.86570860225993
 20
2.49031992462513
 30
0.0
 10
26.73281102676847
 20
2.494794059534176
 30
0.0
 10
26.67891766308045
 20
2.496608435597476
 30
0.0
  0
SPLINE
  5
A6
330
1F
100
AcDbEntity
  8
0
  6
Continuous
 62
     1
370
    15
100
AcDbSpline
210
0.0
220
0.0
230
1.0
 70
     8
 71
     3
 72
    15
 73
    11
 74
     0
 42
0.000000001
 43
0.00000001
 40
0.0
 40
0.0
 40
0.0
 40
0.0
 40
0.195408432730378
 40
0.3328897177856484
 40
0.416708672960874
 40
0.4953133492770459
 40
0.5820468081703498
 40
0.6769985061229347
 40
0.9308328012575642
 40
1.0
 40
1.0
 40
1.0
 40
1.0
 10
31.84807486654958
 20
-2.388030990252236
 30
0.0
 10
32.00289758135649
 20
-2.364468514010527
 30
0.0
 10
32.26664714998434
 20
-2.32432845476725
 30
0.0
 10
32.59597086075314
 20
-2.280668858049704
 30
0.0
 10
32.83233419461854
 20
-2.251402043703792
 30
0.0
 10
33.02890072194825
 20
-2.228708482938691
 30
0.0
 10
33.23453374077981
 20
-2.206687919470915
 30
0.0
 10
33.57881860607722
 20
-2.173373547331835
 30
0.0
 10
33.909216083035
 20
-2.14507187313429
 30
0.0
 10
34.16425000841158
 20
-2.131699674304355
 30
0.0
 10
34.21886270382313
 20
-2.128836165770721
 30
0.0
  0
SPLINE
  5
A7
330
1F
100
AcDbEntity
  8
0
  6
Continuous
 62
     1
370
    15
100
AcDbSpline
210
0.0
220
0.0
230
1.0
 70
     8
 71
     3
 72
    21
 73
    17
 74
     0
 42
0.000000001
 43
0.00000001
 40
0.0
 40
0.0
 40
0.0
 40
0.0
 40
0.0930581658032905
 40
0.1567318142980071
 40
0.2251044956143908
 40
0.3042969489719082
 40
0.3759350667581118
 40
0.4394737455238522
 40
0.4963891751785126
 40
0.5719160368391473
 40
0.6651501015319388
 40
0.7694436137854258
 40
0.8229312315040861
 40
0.8651180213766632
 40
0.9210545242034787
 40
0.9999999999999999
 40
0.9999999999999999
 40
0.9999999999999999
 40
0.9999999999999999
 10
20.11783308504547
 20
2.171536048084696
 30
0.0
 10
19.94875433838427
 20
2.157930333204646
 30
0.0
 10
19.66398600564646
 20
2.135015112820019
 30
0.0
 10
19.2426441766318
 20
2.112232291309222
 30
0.0
 10
18.84867849915964
 20
2.097029179988888
 30
0.0
 10
18.44449485150341
 20
2.089101985864777
 30
0.0
 10
18.04639102575903
 20
2.08902340623053
 30
0.0
 10
17.69082276698095
 20
2.095180779364461
 30
0.0
 10
17.33087555523277
 20
2.10688738967007
 30
0.0
 10
16.91346786623362
 20
2.127571193870439
 30
0.0
 10
16.40892458411999
 20
2.163264647751634
 30
0.0
 10
15.94494355285959
 20
2.206950543252167
 30
0.0
 10
15.5745894072641
 20
2.248935430897769
 30
0.0
 10
15.29098734517874
 20
2.284297866521803
 30
0.0
 10
14.9641704888925
 20
2.328145147159146
 30
0.0
 10
14.71659106638263
 20
2.365916210693016
 30
0.0
 10
14.57168456733096
 20
2.388023349188878
 30
0.0
  0
SPLINE
  5
A8
330
1F
100
AcDbEntity
  8
0
  6
Continuous
 62
     1
370
    15
100
AcDbSpline
210
0.0
220
0.0
230
1.0
 70
     8
 71
     3
 72
    14
 73
    10
 74
     0
 42
0.000000001
 43
0.00000001
 40
0.0
 40
0.0
 40
0.0
 40
0.0
 40
0.1874962712086868
 40
0.3191932669575135
 40
0.4201602405611051
 40
0.5494995174217662
 40
0.6977370416265025
 40
0.9657376375745156
 40
1.0
 40
1.0
 40
1.0
 40
1.0
 10
14.57168456733096
 20
-2.388023349188882
 30
0.0
 10
14.71882505602477
 20
-2.365585256757875
 30
0.0
 10
14.96931672172635
 20
-2.327386694294859
 30
0.0
 10
15.30106268591236
 20
-2.28297627927699
 30
0.0
 10
15.59056078674186
 20
-2.247020463012137
 30
0.0
 10
15.89024226748092
 20
-2.21321372001773
 30
0.0
 10
16.32142162083537
 20
-2.171479831121057
 30
0.0
 10
16.67771399416671
 20
-2.141548503575808
 30
0.0
 10
16.9164014250107
 20
-2.129579053576943
 30
0.0
 10
16.9434573213269
 20
-2.128222282518717
 30
0.0
  0
SPLINE
  5
A9
330
1F
100
AcDbEntity
  8
0
  6
Continuous
 62
     1
370
    15
100
AcDbSpline
210
0.0
220
0.0
230
1.0
 70
     8
 71
     3
 72
    25
 73
    21
 74
     0
 42
0.000000001
 43
0.00000001
 40
0.0
 40
0.0
 40
0.0
 40
0.0
 40
0.0683084319718071
 40
0.1234539309772564
 40
0.1753866162648165
 40
0.2072602649173028
 40
0.2363377114123952
 40
0.2652764008785637
 40
0.2956286648145717
 40
0.3295701869585501
 40
0.4208167150187162
 40
0.5094284977369963
 40
0.6066040194683403
 40
0.6963126803506404
 40
0.7262534723652493
 40
0.7560695799046253
 40
0.7929159667518343
 40
0.8456002460658267
 40
0.9146439021400051
 40
1.0
 40
1.0
 40
1.0
 40
1.0
 10
37.39431577039728
 20
2.171539814434573
 30
0.0
 10
37.26708038197826
 20
2.161153172827684
 30
0.0
 10
37.03712767473082
 20
2.142381379961008
 30
0.0
 10
36.711745725852
 20
2.122374657698724
 30
0.0
 10
36.45431951935725
 20
2.109809477945257
 30
0.0
 10
36.24827894206992
 20
2.102006532514769
 30
0.0
 10
36.08337742152234
 20
2.096975830791322
 30
0.0
 10
35.92030389479197
 20
2.093195570096423
 30
0.0
 10
35.74776625059986
 20
2.090501229077893
 30
0.0
 10
35.46037304458761
 20
2.088402944144451
 30
0.0
 10
35.06474105851724
 20
2.09195355416233
 30
0.0
 10
34.55314074347744
 20
2.10813475967529
 30
0.0
 10
34.04097836111418
 20
2.136860390674193
 30
0.0
 10
33.64860448827675
 20
2.167552393611718
 30
0.0
 10
33.37326223932929
 20
2.192964491629391
 30
0.0
 10
33.19287669199223
 20
2.211031889417817
 30
0.0
 10
32.97011078056919
 20
2.23509338661194
 30
0.0
 10
32.67633433358616
 20
2.270143901139703
 30
0.0
 10
32.29260993045755
 20
2.320455013171543
 30
0.0
 10
32.00633493875713
 20
2.363973092730565
 30
0.0
 10
31.84807486654958
 20
2.388030990252232
 30
0.0
  0
LINE
  5
AA
330
1F
100
AcDbEntity
  8
외형선
  6
Continuous
370
    15
100
AcDbLine
 10
8.479918330987054
 20
2.801811166049049
 30
0.0
 11
8.479918330987054
 21
3.174999999999998
 31
0.0
  0
SPLINE
  5
AB
330
1F
100
AcDbEntity
  8
외형선
  6
Continuous
370
    15
100
AcDbSpline
210
0.0
220
0.0
230
1.0
 70
     8
 71
     3
 72
    10
 73
     6
 74
     0
 42
0.000000001
 43
0.00000001
 40
0.0
 40
0.0
 40
0.0
 40
0.0
 40
0.5
 40
0.5
 40
1.0
 40
1.0
 40
1.0
 40
1.0
 10
10.00000000000003
 20
2.287677385399893
 30
0.0
 10
9.747085122615808
 20
2.389061639609873
 30
0.0
 10
9.495915819690085
 20
2.482956787685294
 30
0.0
 10
8.987345473136124
 20
2.65509369748857
 30
0.0
 10
8.73220057520621
 20
2.733016912113718
 30
0.0
 10
8.479832951514528
 20
2.801747157172218
 30
0.0
  0
LINE
  5
AC
330
1F
100
AcDbEntity
  8
외형선
  6
Continuous
370
    15
100
AcDbLine
 10
10.00000000000003
 20
2.287677385399891
 30
0.0
 11
10.00000000000003
 21
1.590653006593676
 31
0.0
  0
SPLINE
  5
AD
330
1F
100
AcDbEntity
  8
외형선
  6
Continuous
370
    15
100
AcDbSpline
210
0.0
220
0.0
230
1.0
 70
     8
 71
     3
 72
    10
 73
     6
 74
     0
 42
0.000000001
 43
0.00000001
 40
0.0
 40
0.0
 40
0.0
 40
0.0
 40
0.5
 40
0.5
 40
1.0
 40
1.0
 40
1.0
 40
1.0
 10
8.479918330987058
 20
2.28023746721041
 30
0.0
 10
8.732272348721992
 20
2.178577378969881
 30
0.0
 10
8.98740292268818
 20
2.069269282447659
 30
0.0
 10
9.495944398221368
 20
1.838375483774887
 30
0.0
 10
9.747099383367518
 20
1.717181644114386
 30
0.0
 10
10.00000000000003
 20
1.590653006593679
 30
0.0
  0
LINE
  5
AE
330
1F
100
AcDbEntity
  8
외형선
  6
Continuous
370
    15
100
AcDbLine
 10
8.479918330987054
 20
-3.175000000000002
 30
0.0
 11
8.479918330987058
 21
2.280234104121794
 31
0.0
  0
SPLINE
  5
AF
330
1F
100
AcDbEntity
  8
외형선
  6
Continuous
370
    15
100
AcDbSpline
210
0.0
220
0.0
230
1.0
 70
     8
 71
     3
 72
     9
 73
     5
 74
     0
 42
0.000000001
 43
0.00000001
 40
0.0
 40
0.0
 40
0.0
 40
0.0
 40
0.2688980616146896
 40
1.0
 40
1.0
 40
1.0
 40
1.0
 10
9.440046128435405
 20
-2.495516379870918
 30
0.0
 10
9.375322192553677
 20
-2.520107360875728
 30
0.0
 10
9.13462155122859
 20
-2.611558302757366
 30
0.0
 10
8.893642852741278
 20
-2.679575378511199
 30
0.0
 10
8.717462859167636
 20
-2.729302794438127
 30
0.0
  0
LINE
  5
B0
330
1F
100
AcDbEntity
  8
외형선
  6
Continuous
370
    15
100
AcDbLine
 10
-36.81499999999997
 20
3.174999999999992
 30
0.0
 11
-36.81499999999997
 21
-3.175000000000004
 31
0.0
  0
LINE
  5
B1
330
1F
100
AcDbEntity
  8
외형선
  6
Continuous
370
    15
100
AcDbLine
 10
-37.62499999999997
 20
2.364999999999992
 30
0.0
 11
-37.62499999999997
 21
-2.365000000000004
 31
0.0
  0
SPLINE
  5
B2
330
1F
100
AcDbEntity
  8
외형선
  6
Continuous
370
    15
100
AcDbSpline
210
0.0
220
0.0
230
1.0
 70
    24
 71
     3
 72
    10
 73
     6
 74
     0
 42
0.000000001
 43
0.00000001
 40
0.0
 40
0.0
 40
0.0
 40
0.0
 40
0.5
 40
0.5
 40
1.0
 40
1.0
 40
1.0
 40
1.0
 10
10.00000000000003
 20
1.590653006593679
 30
0.0
 10
10.00000000000003
 20
1.552734751178404
 30
0.0
 10
10.00000000000003
 20
1.481734935931401
 30
0.0
 10
10.00000000000003
 20
1.287487911284538
 30
0.0
 10
10.00000000000003
 20
1.164957879069917
 30
0.0
 10
10.00000000000003
 20
1.033451178620679
 30
0.0
  0
SPLINE
  5
B3
330
1F
100
AcDbEntity
  8
외형선
  6
Continuous
370
    15
100
AcDbSpline
210
0.0
220
0.0
230
1.0
 70
     8
 71
     3
 72
    10
 73
     6
 74
     0
 42
0.000000001
 43
0.00000001
 40
0.0
 40
0.0
 40
0.0
 40
0.0
 40
0.5
 40
0.5
 40
1.0
 40
1.0
 40
1.0
 40
1.0
 10
10.00000000000004
 20
1.033451178620674
 30
0.0
 10
9.81028817634148
 20
1.101416248344647
 30
0.0
 10
9.622293438060865
 20
1.167334219957084
 30
0.0
 10
9.241803205131253
 20
1.295275702797038
 30
0.0
 10
9.050558999115868
 20
1.357144356237505
 30
0.0
 10
8.859856485206082
 20
1.416406657039522
 30
0.0
  0
SPLINE
  5
B4
330
1F
100
AcDbEntity
  8
외형선
  6
Continuous
370
    15
100
AcDbSpline
210
0.0
220
0.0
230
1.0
 70
     8
 71
     3
 72
    14
 73
    10
 74
     0
 42
0.000000001
 43
0.00000001
 40
0.0
 40
0.0
 40
0.0
 40
0.0
 40
0.25
 40
0.25
 40
0.5
 40
0.5
 40
0.75
 40
0.75
 40
1.0
 40
1.0
 40
1.0
 40
1.0
 10
8.479918330987058
 20
1.954271467829185
 30
0.0
 10
8.479918330987058
 20
1.906234235781176
 30
0.0
 10
8.492542409178178
 20
1.85330369383062
 30
0.0
 10
8.532056546177841
 20
1.747794892280082
 30
0.0
 10
8.559050009536847
 20
1.695123248138258
 30
0.0
 10
8.624337543302342
 20
1.595499887739048
 30
0.0
 10
8.662594040446201
 20
1.54845058641571
 30
0.0
 10
8.751988884229673
 20
1.467581151286934
 30
0.0
 10
8.80336288783909
 20
1.433962485182064
 30
0.0
 10
8.859856485206082
 20
1.416406657039523
 30
0.0
  0
SPLINE
  5
B5
330
1F
100
AcDbEntity
  8
외형선
  6
Continuous
370
    15
100
AcDbSpline
210
0.0
220
0.0
230
1.0
 70
     8
 71
     3
 72
    10
 73
     6
 74
     0
 42
0.000000001
 43
0.00000001
 40
0.0
 40
0.0
 40
0.0
 40
0.0
 40
0.5
 40
0.5
 40
1.0
 40
1.0
 40
1.0
 40
1.0
 10
10.00000000000004
 20
-2.248695922901794
 30
0.0
 10
9.834669717684275
 20
-2.213142051139411
 30
0.0
 10
9.670895589045049
 20
-2.174654546757997
 30
0.0
 10
9.339796216635513
 20
-2.091600719042973
 30
0.0
 10
9.173338717266759
 20
-2.047090035493978
 30
0.0
 10
9.006990943484277
 20
-1.999854492090132
 30
0.0
  0
SPLINE
  5
B6
330
1F
100
AcDbEntity
  8
외형선
  6
Continuous
370
    15
100
AcDbSpline
210
0.0
220
0.0
230
1.0
 70
     8
 71
     3
 72
    16
 73
    12
 74
     0
 42
0.000000001
 43
0.00000001
 40
0.0
 40
0.0
 40
0.0
 40
0.0
 40
0.227903628409887
 40
0.4555153502681031
 40
0.6043689756353173
 40
0.728171356152396
 40
0.8210263773044911
 40
0.8941093370128452
 40
0.9476350187013485
 40
0.982151061447189
 40
0.9999999999999999
 40
0.9999999999999999
 40
0.9999999999999999
 40
0.9999999999999999
 10
8.749897423569784
 20
-2.297508979828168
 30
0.0
 10
8.768483633944786
 20
-2.273706413413947
 30
0.0
 10
8.805632248858009
 20
-2.226131767704696
 30
0.0
 10
8.854916587848312
 20
-2.163705446895981
 30
0.0
 10
8.895976511031735
 20
-2.11257590160755
 30
0.0
 10
8.926444108560325
 20
-2.075671646386614
 30
0.0
 10
8.951267946507897
 20
-2.047078289793556
 30
0.0
 10
8.970842899771672
 20
-2.025704768567758
 30
0.0
 10
8.986428588888963
 20
-2.011588358787775
 30
0.0
 10
8.99732315215338
 20
-2.001563046319241
 30
0.0
 10
9.004536370848562
 20
-2.00028244458028
 30
0.0
 10
9.006995042542227
 20
-1.999845943292922
 30
0.0
  0
SPLINE
  5
B7
330
1F
100
AcDbEntity
  8
외형선
  6
Continuous
370
    15
100
AcDbSpline
210
0.0
220
0.0
230
1.0
 70
    24
 71
     3
 72
    14
 73
    10
 74
     0
 42
0.000000001
 43
0.00000001
 40
0.0
 40
0.0
 40
0.0
 40
0.0
 40
0.25
 40
0.25
 40
0.5
 40
0.5
 40
0.75
 40
0.75
 40
1.0
 40
1.0
 40
1.0
 40
1.0
 10
10.00000000000002
 20
1.033451178620681
 30
0.0
 10
10.00000000000002
 20
0.7623168604209136
 30
0.0
 10
10.00000000000002
 20
0.4733104625554851
 30
0.0
 10
10.00000000000002
 20
-0.116615741159484
 30
0.0
 10
10.00000000000002
 20
-0.4172719273188121
 30
0.0
 10
10.00000000000002
 20
-1.000604095203758
 30
0.0
 10
10.00000000000002
 20
-1.282969253162247
 30
0.0
 10
10.00000000000002
 20
-1.803200729482613
 30
0.0
 10
10.00000000000002
 20
-2.040901318159451
 30
0.0
 10
10.00000000000002
 20
-2.248695922901791
 30
0.0
  0
SPLINE
  5
B8
330
1F
100
AcDbEntity
  8
외형선
  6
Continuous
370
    15
100
AcDbSpline
210
0.0
220
0.0
230
1.0
 70
     8
 71
     3
 72
    14
 73
    10
 74
     0
 42
0.000000001
 43
0.00000001
 40
0.0
 40
0.0
 40
0.0
 40
0.0
 40
0.25
 40
0.25
 40
0.5
 40
0.5
 40
0.75
 40
0.75
 40
1.0
 40
1.0
 40
1.0
 40
1.0
 10
8.749896085947832
 20
-2.297508173652727
 30
0.0
 10
8.720807931431027
 20
-2.334897693151488
 30
0.0
 10
8.690315167236562
 20
-2.371961720027164
 30
0.0
 10
8.62395436359735
 20
-2.445125865293816
 30
0.0
 10
8.588471340787352
 20
-2.480635837305841
 30
0.0
 10
8.526443072122106
 20
-2.526656763183137
 30
0.0
 10
8.50519997417738
 20
-2.531753604138509
 30
0.0
 10
8.483074772655007
 20
-2.517352019788632
 30
0.0
 10
8.479918330987054
 20
-2.499594859941126
 30
0.0
 10
8.479918330987054
 20
-2.479011054467141
 30
0.0
  0
SPLINE
  5
B9
330
1F
100
AcDbEntity
  8
외형선
  6
Continuous
370
    15
100
AcDbSpline
210
0.0
220
0.0
230
1.0
 70
    24
 71
     3
 72
    10
 73
     6
 74
     0
 42
0.000000001
 43
0.00000001
 40
0.0
 40
0.0
 40
0.0
 40
0.0
 40
0.0930752096030609
 40
0.7134786551497293
 40
1.0
 40
1.0
 40
1.0
 40
1.0
 10
10.00000000000003
 20
2.475969540475341
 30
0.0
 10
10.00000000000003
 20
2.477918683005508
 30
0.0
 10
10.00000000000003
 20
2.492860057803915
 30
0.0
 10
10.00000000000003
 20
2.449032991507614
 30
0.0
 10
10.00000000000003
 20
2.366215941701787
 30
0.0
 10
10.00000000000003
 20
2.340051862013865
 30
0.0
  0
SPLINE
  5
BA
330
1F
100
AcDbEntity
  8
외형선
  6
Continuous
370
    15
100
AcDbSpline
210
0.0
220
0.0
230
1.0
 70
    24
 71
     3
 72
    12
 73
     8
 74
     0
 42
0.000000001
 43
0.00000001
 40
0.0
 40
0.0
 40
0.0
 40
0.0
 40
0.1534947228612318
 40
0.4628612523246891
 40
0.6188785700964149
 40
0.843660069326753
 40
1.0
 40
1.0
 40
1.0
 40
1.0
 10
10.00000000000003
 20
-2.248695922901791
 30
0.0
 10
10.00000000000003
 20
-2.271314948543104
 30
0.0
 10
10.00000000000003
 20
-2.339522313197376
 30
0.0
 10
10.00000000000003
 20
-2.405472112859119
 30
0.0
 10
10.00000000000003
 20
-2.454776837707465
 30
0.0
 10
10.00000000000004
 20
-2.479554571200441
 30
0.0
 10
10.00000000000003
 20
-2.479634827386205
 30
0.0
 10
10.00000000000003
 20
-2.479667749299101
 30
0.0
  0
SPLINE
  5
BB
330
1F
100
AcDbEntity
  8
0
  6
Continuous
 62
     1
370
    15
100
AcDbSpline
210
0.0
220
0.0
230
1.0
 70
     8
 71
     3
 72
    21
 73
    17
 74
     0
 42
0.000000001
 43
0.00000001
 40
0.0
 40
0.0
 40
0.0
 40
0.0
 40
0.038137854967771
 40
0.1133263283732958
 40
0.188504810571273
 40
0.2636892985275475
 40
0.3388957567155138
 40
0.414140030953106
 40
0.4894224353644346
 40
0.5646666635253992
 40
0.6398730915351308
 40
0.7118525317914287
 40
0.7838296544344483
 40
0.8558385098975811
 40
0.9279128663189413
 40
1.0
 40
1.0
 40
1.0
 40
1.0
 10
26.6704207561199
 20
-2.49958817204919
 30
0.0
 10
26.45849202145207
 20
-2.577285584525617
 30
0.0
 10
25.82874749604548
 20
-2.808162818903373
 30
0.0
 10
24.78134871938884
 20
-3.043356112610239
 30
0.0
 10
23.52811716229217
 20
-3.192337402397247
 30
0.0
 10
22.27477224196674
 20
-3.169386387303726
 30
0.0
 10
21.02098388090003
 20
-2.984169535240385
 30
0.0
 10
19.76653652933348
 20
-2.64390371480914
 30
0.0
 10
18.51166089550679
 20
-2.167034620238621
 30
0.0
 10
17.25722361317688
 20
-1.577775806007863
 30
0.0
 10
16.02120807868627
 20
-0.9164283062388187
 30
0.0
 10
14.80359174522942
 20
-0.2201244712985578
 30
0.0
 10
13.60371148743335
 20
0.4770343937913268
 30
0.0
 10
12.40323024105144
 20
1.14961206578992
 30
0.0
 10
11.2018254156263
 20
1.775241096592252
 30
0.0
 10
10.40063214221282
 20
2.116855196533399
 30
0.0
 10
9.999999999995856
 20
2.287677385401568
 30
0.0
  0
SPLINE
  5
BC
330
1F
100
AcDbEntity
  8
0
  6
Continuous
 62
     1
370
    15
100
AcDbSpline
210
0.0
220
0.0
230
1.0
 70
     8
 71
     3
 72
    17
 73
    13
 74
     0
 42
0.000000001
 43
0.00000001
 40
0.0
 40
0.0
 40
0.0
 40
0.0
 40
0.0870921568163971
 40
0.1963619137365376
 40
0.3056650312794547
 40
0.4150255678307305
 40
0.5244439971475661
 40
0.633804463739201
 40
0.7431075354588539
 40
0.8523772709425976
 40
0.9616379113116366
 40
1.0
 40
1.0
 40
1.0
 40
1.0
 10
24.52703736976042
 20
-2.630579573540646
 30
0.0
 10
24.1940746661955
 20
-2.660065526016411
 30
0.0
 10
23.44336190324567
 20
-2.726545887373081
 30
0.0
 10
22.27476389869391
 20
-2.663266674502925
 30
0.0
 10
21.02097030642393
 20
-2.472983968439141
 30
0.0
 10
19.76651846662886
 20
-2.150474947896851
 30
0.0
 10
18.51168059146375
 20
-1.717835606228498
 30
0.0
 10
17.25722911631611
 20
-1.196016634402082
 30
0.0
 10
16.00343707402414
 20
-0.6116124928015897
 30
0.0
 10
14.75008271686838
 20
0.0013639585803489
 30
0.0
 10
13.76796636466478
 20
0.4905468464856965
 30
0.0
 10
13.20357476490672
 20
0.7489167620821747
 30
0.0
 10
13.05690872815795
 20
0.8160582495740024
 30
0.0
  0
SPLINE
  5
BD
330
1F
100
AcDbEntity
  8
0
  6
Continuous
 62
     1
370
    15
100
AcDbSpline
210
0.0
220
0.0
230
1.0
 70
     8
 71
     3
 72
    20
 73
    16
 74
     0
 42
0.000000001
 43
0.00000001
 40
0.0
 40
0.0
 40
0.0
 40
0.0
 40
0.0808969176385424
 40
0.1617447612838603
 40
0.24256046358135
 40
0.3233611304812856
 40
0.4041639492278354
 40
0.4849860954217524
 40
0.5658446402158669
 40
0.6467523398303442
 40
0.7276354009842378
 40
0.8084736043487294
 40
0.8892839344808334
 40
0.9700835263608655
 40
1.0
 40
1.0
 40
1.0
 40
1.0
 10
38.57500000000003
 20
-3.012887259811285
 30
0.0
 10
38.15666917989491
 20
-2.921608396817821
 30
0.0
 10
37.32026130910418
 20
-2.739106042758956
 30
0.0
 10
36.06614903430528
 20
-2.281657771375821
 30
0.0
 10
34.81261975862432
 20
-1.7173666676877
 30
0.0
 10
33.55937353072422
 20
-1.061234427206942
 30
0.0
 10
32.30608766377853
 20
-0.3509760383098709
 30
0.0
 10
31.05243749192297
 20
0.3777411964556365
 30
0.0
 10
29.79815167045721
 20
1.086933853371271
 30
0.0
 10
28.54331233333004
 20
1.73986506814062
 30
0.0
 10
27.28871341461138
 20
2.302099321645399
 30
0.0
 10
26.03477257954338
 20
2.74798451908122
 30
0.0
 10
24.78134307304516
 20
3.040847310712892
 30
0.0
 10
23.79120886431402
 20
3.179455822820559
 30
0.0
 10
23.21882101349713
 20
3.160822375147502
 30
0.0
 10
23.06415668388944
 20
3.155787450509391
 30
0.0
  0
SPLINE
  5
BE
330
1F
100
AcDbEntity
  8
0
  6
Continuous
 62
     1
370
    15
100
AcDbSpline
210
0.0
220
0.0
230
1.0
 70
     8
 71
     3
 72
    14
 73
    10
 74
     0
 42
0.000000001
 43
0.00000001
 40
0.0
 40
0.0
 40
0.0
 40
0.0
 40
0.1522572043749761
 40
0.3044179216415859
 40
0.4565154403359347
 40
0.608583394379307
 40
0.7606555797161764
 40
0.9127657690846647
 40
1.0
 40
1.0
 40
1.0
 40
1.0
 10
38.57500000000003
 20
-2.504986939369088
 30
0.0
 10
38.15667174315733
 20
-2.416067685516633
 30
0.0
 10
37.3202803288084
 20
-2.238285526946188
 30
0.0
 10
36.06615972836198
 20
-1.820856476919956
 30
0.0
 10
34.81262484152337
 20
-1.318681712935205
 30
0.0
 10
33.55937382167918
 20
-0.7452877963783187
 30
0.0
 10
32.30607693313861
 20
-0.1358974598492992
 30
0.0
 10
31.23085141826847
 20
0.3991357874892359
 30
0.0
 10
30.5733045152619
 20
0.7047807683837266
 30
0.0
 10
30.3336473788786
 20
0.8161796671332593
 30
0.0
  0
LINE
  5
BF
330
1F
100
AcDbEntity
  8
0
  6
Continuous
 62
     1
370
    15
100
AcDbLine
 10
38.57500000000003
 20
-3.012887259811287
 30
0.0
 11
38.57500000000003
 21
-2.504986939369088
 31
0.0
  0
SPLINE
  5
C0
330
1F
100
AcDbEntity
  8
0
  6
Continuous
 62
     1
370
    15
100
AcDbSpline
210
0.0
220
0.0
230
1.0
 70
     8
 71
     3
 72
    32
 73
    28
 74
     0
 42
0.000000001
 43
0.00000001
 40
0.0
 40
0.0
 40
0.0
 40
0.0
 40
0.0256207685339846
 40
0.0677692433856945
 40
0.1102083971871365
 40
0.1523570589472539
 40
0.1947964453834359
 40
0.2369441623455179
 40
0.279384492997904
 40
0.3215319906285993
 40
0.3639711551427464
 40
0.4061186790640181
 40
0.4485566039277412
 40
0.4907042547286194
 40
0.5331431515185094
 40
0.5752860544283774
 40
0.6177219005451933
 40
0.6598643778509903
 40
0.7022979095740705
 40
0.7444405480054832
 40
0.7868734658842449
 40
0.8290161773524832
 40
0.8714507012105965
 40
0.9032701486269997
 40
0.9352149499559427
 40
0.9675416797664715
 40
1.0
 40
1.0
 40
1.0
 40
1.0
 10
16.94192135973469
 20
2.127576165381648
 30
0.0
 10
17.12659594718218
 20
2.207370998764212
 30
0.0
 10
17.61507688588942
 20
2.41843552937152
 30
0.0
 10
18.41006356598778
 20
2.689917968339257
 30
0.0
 10
19.32425212553053
 20
2.937948838159917
 30
0.0
 10
20.2395385294618
 20
3.103095069312947
 30
0.0
 10
21.15419567015529
 20
3.182374696667361
 30
0.0
 10
22.06997515735791
 20
3.174098756812832
 30
0.0
 10
22.98339679513757
 20
3.077834621088873
 30
0.0
 10
23.90024994019341
 20
2.897066670065949
 30
0.0
 10
24.81359474051368
 20
2.635923306512289
 30
0.0
 10
25.72945826523581
 20
2.301394116122576
 30
0.0
 10
26.64402696266018
 20
1.905332546701467
 30
0.0
 10
27.55926692261982
 20
1.453702932557714
 30
0.0
 10
28.47353077828182
 20
0.9646324076888666
 30
0.0
 10
29.38967428376661
 20
0.447627559819213
 30
0.0
 10
30.30278692257932
 20
-0.08214738070354
 30
0.0
 10
31.2194491233352
 20
-0.6082897687125413
 30
0.0
 10
32.13297355281601
 20
-1.118297929805407
 30
0.0
 10
33.04838284984358
 20
-1.598686259741546
 30
0.0
 10
33.96302100194213
 20
-2.032069199077274
 30
0.0
 10
34.87828929051067
 20
-2.412294372519137
 30
0.0
 10
35.71766465965375
 20
-2.698722384222313
 30
0.0
 10
36.48368950360077
 20
-2.904862497607752
 30
0.0
 10
37.17627153885287
 20
-3.04499819333562
 30
0.0
 10
37.873895564487
 20
-3.14073124709011
 30
0.0
 10
38.340982274986
 20
-3.161773860785542
 30
0.0
 10
38.5749999999996
 20
-3.174999999999996
 30
0.0
  0
SPLINE
  5
C1
330
1F
100
AcDbEntity
  8
0
  6
Continuous
 62
     1
370
    15
100
AcDbSpline
210
0.0
220
0.0
230
1.0
 70
     8
 71
     3
 72
    16
 73
    12
 74
     0
 42
0.000000001
 43
0.00000001
 40
0.0
 40
0.0
 40
0.0
 40
0.0
 40
0.0838468920876037
 40
0.2025955707157
 40
0.3213049096767518
 40
0.4399426491119479
 40
0.5585358961780618
 40
0.6771120043812027
 40
0.7956984223416251
 40
0.9143225414498292
 40
1.0
 40
1.0
 40
1.0
 40
1.0
 10
30.68457395243757
 20
-0.2997472988384808
 30
0.0
 10
30.38918249644204
 20
-0.1812091592579441
 30
0.0
 10
29.67544106701096
 20
0.1052093524121704
 30
0.0
 10
28.54335307239579
 20
0.5621656385716791
 30
0.0
 10
27.28876994967722
 20
1.037858785457858
 30
0.0
 10
26.034817844617
 20
1.46036280212459
 30
0.0
 10
24.78138207321872
 20
1.806797116663371
 30
0.0
 10
23.52814706015123
 20
2.060792132403803
 30
0.0
 10
22.27478877151237
 20
2.204185011996179
 30
0.0
 10
21.13729848598288
 20
2.244121906871659
 30
0.0
 10
20.41751530872226
 20
2.18473954642269
 30
0.0
 10
20.11566157836107
 20
2.159836509528451
 30
0.0
  0
SPLINE
  5
C2
330
1F
100
AcDbEntity
  8
0
  6
Continuous
 62
     1
370
    15
100
AcDbSpline
210
0.0
220
0.0
230
1.0
 70
     8
 71
     3
 72
    20
 73
    16
 74
     0
 42
0.000000001
 43
0.00000001
 40
0.0
 40
0.0
 40
0.0
 40
0.0
 40
0.0865201300961798
 40
0.1737570913461389
 40
0.2530268257139333
 40
0.3328448673541271
 40
0.4119646453113375
 40
0.4916327003012613
 40
0.5707524431607902
 40
0.6504209070570603
 40
0.7295402769513561
 40
0.8092052973211495
 40
0.8883250180721601
 40
0.9679904751342447
 40
1.0
 40
1.0
 40
1.0
 40
1.0
 10
10.00000000000003
 20
1.590653006593679
 30
0.0
 10
10.33254547266924
 20
1.419784285404946
 30
0.0
 10
11.0003916028946
 20
1.076631172218635
 30
0.0
 10
11.97230386134624
 20
0.5276491356810172
 30
0.0
 10
12.91800614179599
 20
-0.0191249811812009
 30
0.0
 10
13.83394462408013
 20
-0.5459218374334535
 30
0.0
 10
14.75001133029259
 20
-1.060585415814751
 30
0.0
 10
15.66377702397554
 20
-1.543848674992653
 30
0.0
 10
16.58051149016828
 20
-1.984301804293857
 30
0.0
 10
17.49371199564199
 20
-2.371062263791082
 30
0.0
 10
18.41007065689084
 20
-2.691293396280932
 30
0.0
 10
19.32425645089905
 20
-2.938422880592078
 30
0.0
 10
20.23951431633709
 20
-3.099849924880483
 30
0.0
 10
20.97314951865752
 20
-3.176119006105217
 30
0.0
 10
21.40205011714109
 20
-3.167077378753183
 30
0.0
 10
21.52498637497695
 20
-3.164485767001333
 30
0.0
  0
SPLINE
  5
C3
330
1F
100
AcDbEntity
  8
0
  6
Continuous
 62
     1
370
    15
100
AcDbSpline
210
0.0
220
0.0
230
1.0
 70
     8
 71
     3
 72
    13
 73
     9
 74
     0
 42
0.000000001
 43
0.00000001
 40
0.0
 40
0.0
 40
0.0
 40
0.0
 40
0.1508795867745503
 40
0.3616130928776765
 40
0.5196312136593161
 40
0.6782718527843118
 40
0.8388091816960095
 40
1.0
 40
1.0
 40
1.0
 40
1.0
 10
34.21921848881196
 20
2.128983038094149
 30
0.0
 10
34.43823500738545
 20
2.222173469135295
 30
0.0
 10
34.9631518789501
 20
2.445522967339757
 30
0.0
 10
35.7176531034085
 20
2.697771317303501
 30
0.0
 10
36.48369222749393
 20
2.905086671170651
 30
0.0
 10
37.17627080165619
 20
3.044937522819415
 30
0.0
 10
37.87389575057738
 20
3.140746562134034
 30
0.0
 10
38.34098233710007
 20
3.161778972708323
 30
0.0
 10
38.5749999999996
 20
3.175000000000003
 30
0.0
  0
SPLINE
  5
C4
330
1F
100
AcDbEntity
  8
0
  6
Continuous
 62
     1
370
    15
100
AcDbSpline
210
0.0
220
0.0
230
1.0
 70
    24
 71
     3
 72
    10
 73
     6
 74
     0
 42
0.000000001
 43
0.00000001
 40
0.0
 40
0.0
 40
0.0
 40
0.0
 40
0.5
 40
0.5
 40
1.0
 40
1.0
 40
1.0
 40
1.0
 10
38.57500000000003
 20
2.222499999999997
 30
0.0
 10
38.57500000000003
 20
2.35722241536322
 30
0.0
 10
38.57500000000004
 20
2.513782338653096
 30
0.0
 10
38.57500000000004
 20
2.842244636050717
 30
0.0
 10
38.57500000000003
 20
3.013308158669675
 30
0.0
 10
38.57500000000003
 20
3.17231653835412
 30
0.0
  0
LINE
  5
C5
330
1F
100
AcDbEntity
  8
0
  6
Continuous
 62
     1
370
    15
100
AcDbLine
 10
38.57500000000003
 20
2.222499999999997
 30
0.0
 11
37.39343621617805
 21
2.168308642817737
 31
0.0
  0
SPLINE
  5
C6
330
1F
100
AcDbEntity
  8
0
  6
Continuous
 62
     1
370
    15
100
AcDbSpline
210
0.0
220
0.0
230
1.0
 70
     8
 71
     3
 72
    10
 73
     6
 74
     0
 42
0.000000001
 43
0.00000001
 40
0.0
 40
0.0
 40
0.0
 40
0.0
 40
0.3430291161423994
 40
0.6713284969033916
 40
1.0
 40
1.0
 40
1.0
 40
1.0
 10
13.41500548285716
 20
-0.3036468466580253
 30
0.0
 10
13.02454061583931
 20
-0.1462101935215955
 30
0.0
 10
12.26037751733469
 20
0.1619027529715673
 30
0.0
 10
11.12211868697378
 20
0.62018239079919
 30
0.0
 10
10.37418077832485
 20
0.8956429071075808
 30
0.0
 10
10.00000000000004
 20
1.033451178620676
 30
0.0
  0
SPLINE
  5
C7
330
1F
100
AcDbEntity
  8
외형선
  6
Continuous
370
    15
100
AcDbSpline
210
0.0
220
0.0
230
1.0
 70
    24
 71
     3
 72
    10
 73
     6
 74
     0
 42
0.000000001
 43
0.00000001
 40
0.0
 40
0.0
 40
0.0
 40
0.0
 40
0.5
 40
0.5
 40
1.0
 40
1.0
 40
1.0
 40
1.0
 10
10.00000000000003
 20
1.590653006593679
 30
0.0
 10
10.00000000000003
 20
1.552734751178404
 30
0.0
 10
10.00000000000003
 20
1.481734935931401
 30
0.0
 10
10.00000000000003
 20
1.287487911284538
 30
0.0
 10
10.00000000000003
 20
1.164957879069917
 30
0.0
 10
10.00000000000003
 20
1.033451178620679
 30
0.0
  0
LINE
  5
C8
330
1F
100
AcDbEntity
  8
0
  6
Continuous
 62
     1
370
    15
100
AcDbLine
 10
38.5749999999996
 20
-3.174999999999996
 30
0.0
 11
38.57500000000003
 21
-3.012887259811287
 31
0.0
  0
SPLINE
  5
C9
330
1F
100
AcDbEntity
  8
0
  6
Continuous
 62
     1
370
    15
100
AcDbSpline
210
0.0
220
0.0
230
1.0
 70
     8
 71
     3
 72
     8
 73
     4
 74
     0
 42
0.000000001
 43
0.00000001
 40
0.0
 40
0.0
 40
0.0
 40
0.0
 40
1.0
 40
1.0
 40
1.0
 40
1.0
 10
36.60992473302142
 20
0.8886594965443929
 30
0.0
 10
36.49726898477552
 20
1.022151308112192
 30
0.0
 10
36.39676042916741
 20
1.150592603090841
 30
0.0
 10
36.31124464654572
 20
1.272800256195021
 30
0.0
  0
LINE
  5
CA
330
1F
100
AcDbEntity
  8
0
  6
Continuous
 62
     1
370
    15
100
AcDbLine
 10
36.3513775618767
 20
1.306475770647302
 30
0.0
 11
38.57500000000003
 21
0.0000000000000016
 31
0.0
  0
LINE
  5
CB
330
1F
100
AcDbEntity
  8
0
  6
Continuous
 62
     1
370
    15
100
AcDbLine
 10
38.57500000000003
 20
0.0000000000000016
 30
0.0
 11
38.57500000000003
 21
-0.8484963536441208
 31
0.0
  0
SPLINE
  5
CC
330
1F
100
AcDbEntity
  8
0
  6
Continuous
 62
     1
370
    15
100
AcDbSpline
210
0.0
220
0.0
230
1.0
 70
     8
 71
     3
 72
    10
 73
     6
 74
     0
 42
0.000000001
 43
0.00000001
 40
0.0
 40
0.0
 40
0.0
 40
0.0
 40
0.5
 40
0.5
 40
1.0
 40
1.0
 40
1.0
 40
1.0
 10
38.57500000000003
 20
-0.848496353644118
 30
0.0
 10
38.23483158573037
 20
-0.5810651575656102
 30
0.0
 10
37.90034861431051
 20
-0.3026650804819441
 30
0.0
 10
37.24303715757331
 20
0.2766199837640494
 30
0.0
 10
36.91714858914635
 20
0.5805576266506024
 30
0.0
 10
36.60992473302122
 20
0.8886594965445298
 30
0.0
  0
SPLINE
  5
CD
330
1F
100
AcDbEntity
  8
0
  6
Continuous
 62
     1
370
    15
100
AcDbSpline
210
0.0
220
0.0
230
1.0
 70
     8
 71
     3
 72
    24
 73
    20
 74
     0
 42
0.000000001
 43
0.00000001
 40
0.0
 40
0.0
 40
0.0
 40
0.0
 40
0.0405182333758198
 40
0.1037551266974091
 40
0.1670327396627132
 40
0.230289935585412
 40
0.2935099702660879
 40
0.3567069132981953
 40
0.4198949611210986
 40
0.4830883591485212
 40
0.5463013233301215
 40
0.6095479620542258
 40
0.6728285423690589
 40
0.736075124686212
 40
0.7992880519211464
 40
0.8624814326650124
 40
0.9256694829626148
 40
0.9888664482140428
 40
1.0
 40
1.0
 40
1.0
 40
1.0
 10
31.8562123472032
 20
-2.372579146927621
 30
0.0
 10
31.58835167424895
 20
-2.415625891683202
 30
0.0
 10
30.90244027722818
 20
-2.525855782868232
 30
0.0
 10
29.79813924455259
 20
-2.55811430187776
 30
0.0
 10
28.54334496293454
 20
-2.481186138122375
 30
0.0
 10
27.28875517783616
 20
-2.27073209948909
 30
0.0
 10
26.03480747629956
 20
-1.9440552842005
 30
0.0
 10
24.78137490359389
 20
-1.516434175551604
 30
0.0
 10
23.52814254639325
 20
-1.010448559930492
 30
0.0
 10
22.27479044429701
 20
-0.452121584360623
 30
0.0
 10
21.02099759257406
 20
0.1296625640822495
 30
0.0
 10
19.76654660846667
 20
0.7048349041592308
 30
0.0
 10
18.51172239826597
 20
1.243258030919468
 30
0.0
 10
17.25727222242941
 20
1.717713738874879
 30
0.0
 10
16.00348022679456
 20
2.102412763725064
 30
0.0
 10
14.75012836081761
 20
2.381022960315736
 30
0.0
 10
13.49689652733033
 20
2.526042393210245
 30
0.0
 10
12.58779321074463
 20
2.564424364382276
 30
0.0
 10
12.09640040731153
 20
2.521161149270905
 30
0.0
 10
12.02279743181336
 20
2.514680994617505
 30
0.0
  0
SPLINE
  5
CE
330
1F
100
AcDbEntity
  8
외형선
  6
Continuous
370
    15
100
AcDbSpline
210
0.0
220
0.0
230
1.0
 70
    24
 71
     3
 72
    10
 73
     6
 74
     0
 42
0.000000001
 43
0.00000001
 40
0.0
 40
0.0
 40
0.0
 40
0.0
 40
0.1001051928560963
 40
0.7157258253445211
 40
1.0
 40
1.0
 40
1.0
 40
1.0
 10
10.00000000000003
 20
2.475544992250622
 30
0.0
 10
10.00000000000003
 20
2.47767756260096
 30
0.0
 10
10.00000000000003
 20
2.492924880253051
 30
0.0
 10
10.00000000000003
 20
2.449080342594637
 30
0.0
 10
10.00000000000003
 20
2.366233074962038
 30
0.0
 10
10.00000000000003
 20
2.340061862013865
 30
0.0
  0
SPLINE
  5
CF
330
1F
100
AcDbEntity
  8
0
  6
Continuous
 62
     1
370
    15
100
AcDbSpline
210
0.0
220
0.0
230
1.0
 70
     8
 71
     3
 72
    14
 73
    10
 74
     0
 42
0.000000001
 43
0.00000001
 40
0.0
 40
0.0
 40
0.0
 40
0.0
 40
0.1229297412745781
 40
0.2458151082195827
 40
0.4171993549470131
 40
0.5885884392636767
 40
0.7600209583508031
 40
0.9315352704632356
 40
1.0
 40
1.0
 40
1.0
 40
1.0
 10
36.60992473302092
 20
0.8886594965446531
 30
0.0
 10
36.3102976312225
 20
1.015917799650421
 30
0.0
 10
35.71115158494892
 20
1.270388469038009
 30
0.0
 10
34.69437001783443
 20
1.657084897555302
 30
0.0
 10
33.55937353545413
 20
2.025820658603934
 30
0.0
 10
32.30609251681305
 20
2.329395222105242
 30
0.0
 10
31.05243283029606
 20
2.504579222585479
 30
0.0
 10
30.04960376255678
 20
2.565077207326494
 30
0.0
 10
29.46457820204397
 20
2.520018765566161
 30
0.0
 10
29.29767355696602
 20
2.507163834538564
 30
0.0
  0
SPLINE
  5
D0
330
1F
100
AcDbEntity
  8
0
  6
Continuous
 62
     1
370
    15
100
AcDbSpline
210
0.0
220
0.0
230
1.0
 70
     8
 71
     3
 72
    11
 73
     7
 74
     0
 42
0.000000001
 43
0.00000001
 40
0.0
 40
0.0
 40
0.0
 40
0.0
 40
0.2357358269874469
 40
0.50967242930252
 40
0.7547009508194834
 40
1.0
 40
1.0
 40
1.0
 40
1.0
 10
14.5754952316779
 20
-2.379935148570257
 30
0.0
 10
14.21598261799962
 20
-2.43090989452771
 30
0.0
 10
13.43869870015005
 20
-2.541119797439911
 30
0.0
 10
12.2876857856214
 20
-2.550839641039905
 30
0.0
 10
11.12213400363235
 20
-2.462761537299693
 30
0.0
 10
10.37418222329939
 20
-2.320077368672145
 30
0.0
 10
10.00000000000004
 20
-2.248695922901794
 30
0.0
  0
SPLINE
  5
D1
330
1F
100
AcDbEntity
  8
0
  6
Continuous
 62
     1
370
    15
100
AcDbSpline
210
0.0
220
0.0
230
1.0
 70
    24
 71
     3
 72
    10
 73
     6
 74
     0
 42
0.000000001
 43
0.00000001
 40
0.0
 40
0.0
 40
0.0
 40
0.0
 40
0.4999999999999999
 40
0.4999999999999999
 40
1.0
 40
1.0
 40
1.0
 40
1.0
 10
38.57500000000003
 20
-2.504986939369087
 30
0.0
 10
38.57500000000004
 20
-2.312960160087082
 30
0.0
 10
38.57500000000005
 20
-2.070326961403039
 30
0.0
 10
38.57500000000003
 20
-1.506228125303407
 30
0.0
 10
38.57500000000003
 20
-1.185251131687906
 30
0.0
 10
38.57500000000003
 20
-0.8484963536442207
 30
0.0
  0
SPLINE
  5
D2
330
1F
100
AcDbEntity
  8
외형선
  6
Continuous
370
    15
100
AcDbSpline
210
0.0
220
0.0
230
1.0
 70
    24
 71
     3
 72
    10
 73
     6
 74
     0
 42
0.000000001
 43
0.00000001
 40
0.0
 40
0.0
 40
0.0
 40
0.0
 40
0.3092739051397205
 40
0.6226059953527405
 40
1.0
 40
1.0
 40
1.0
 40
1.0
 10
10.00000000000003
 20
-2.248695922901791
 30
0.0
 10
10.00000000000003
 20
-2.291792458678089
 30
0.0
 10
10.00000000000003
 20
-2.378551028047641
 30
0.0
 10
10.00000000000003
 20
-2.464502642927821
 30
0.0
 10
10.00000000000003
 20
-2.471631362500234
 30
0.0
 10
10.00000000000003
 20
-2.475526301532449
 30
0.0
  0
SPLINE
  5
D3
330
1F
100
AcDbEntity
  8
0
  6
Continuous
 62
     1
370
    15
100
AcDbSpline
210
0.0
220
0.0
230
1.0
 70
    24
 71
     3
 72
     8
 73
     4
 74
     0
 42
0.000000001
 43
0.00000001
 40
0.0
 40
0.0
 40
0.0
 40
0.0
 40
1.0
 40
1.0
 40
1.0
 40
1.0
 10
36.64264952997063
 20
1.550881971644889
 30
0.0
 10
36.53785635986846
 20
1.462950061262259
 30
0.0
 10
36.42703778886606
 20
1.369962239208864
 30
0.0
 10
36.31124464654579
 20
1.272800256195066
 30
0.0
  0
SPLINE
  5
D4
330
1F
100
AcDbEntity
  8
0
  6
Continuous
 62
     1
370
    15
100
AcDbSpline
210
0.0
220
0.0
230
1.0
 70
     8
 71
     3
 72
     8
 73
     4
 74
     0
 42
0.000000001
 43
0.00000001
 40
0.0
 40
0.0
 40
0.0
 40
0.0
 40
1.0
 40
1.0
 40
1.0
 40
1.0
 10
38.57500000000003
 20
2.222500000000001
 30
0.0
 10
37.92189482157161
 20
2.04524891650581
 30
0.0
 10
37.27501459685845
 20
1.827618470580122
 30
0.0
 10
36.64264952997561
 20
1.550881971648707
 30
0.0
  0
SPLINE
  5
D5
330
1F
100
AcDbEntity
  8
외형선
  6
Continuous
370
    15
100
AcDbSpline
210
0.0
220
0.0
230
1.0
 70
    24
 71
     3
 72
    14
 73
    10
 74
     0
 42
0.000000001
 43
0.00000001
 40
0.0
 40
0.0
 40
0.0
 40
0.0
 40
0.25
 40
0.25
 40
0.5
 40
0.5
 40
0.75
 40
0.75
 40
1.0
 40
1.0
 40
1.0
 40
1.0
 10
10.00000000000002
 20
1.033451178620681
 30
0.0
 10
10.00000000000002
 20
0.762316860420914
 30
0.0
 10
10.00000000000002
 20
0.473310462555486
 30
0.0
 10
10.00000000000002
 20
-0.116615741159482
 30
0.0
 10
10.00000000000002
 20
-0.4172719273188097
 30
0.0
 10
10.00000000000002
 20
-1.000604095203755
 30
0.0
 10
10.00000000000002
 20
-1.282969253162243
 30
0.0
 10
10.00000000000002
 20
-1.803200729482609
 30
0.0
 10
10.00000000000002
 20
-2.040901318159451
 30
0.0
 10
10.00000000000002
 20
-2.248695922901791
 30
0.0
  0
LINE
  5
D6
330
1F
100
AcDbEntity
  8
0
  6
Continuous
 62
     1
370
    15
100
AcDbLine
 10
38.57500000000003
 20
0.0000000000000016
 30
0.0
 11
38.57500000000003
 21
2.222500000000001
 31
0.0
  0
LINE
  5
D7
330
1F
100
AcDbEntity
  8
중심선
 48
0.8
100
AcDbLine
 10
-40.62499999999996
 20
-0.0000000000000059
 30
0.0
 11
41.57500000000005
 21
0.0000000000000042
 31
0.0
  0
LINE
  5
D8
330
1F
100
AcDbEntity
  8
참조1
100
AcDbLine
 10
-3.562684671492226
 20
0.0010749287238892
 30
0.0
 11
-3.562684671492222
 21
-39.99892507127611
 31
0.0
  0
LINE
  5
D9
330
1F
100
AcDbEntity
  8
참조1
100
AcDbLine
 10
-3.562684671492222
 20
-39.99892507127611
 30
0.0
 11
-15.54395731641845
 21
-39.9989250712761
 31
0.0
  0
CIRCLE
  5
DA
330
1F
100
AcDbEntity
  8
해칭선
100
AcDbCircle
 10
0.0
 20
0.0
 30
0.0
 40
3.000000000000002
  0
INSERT
  5
DB
330
1F
100
AcDbEntity
  8
0
  6
Continuous
 62
     7
100
AcDbBlockReference
 66
     1
  2
블럭10
 10
-13.46527293212517
 20
-52.04717430164393
 30
0.0
  0
ATTRIB
  5
DC
330
DB
100
AcDbEntity
  8
FORMAT
 62
     2
100
AcDbText
 10
-23.6069089442618
 20
-49.97180738881175
 30
0.0
 40
4.233333333333333
  1
EM206016 [ 2 FLUTE ]
 41
0.75
  7
SLDTEXTSTYLE0
 11
-23.6069089442618
 21
-52.08847405547841
 31
0.0
100
AcDbAttribute
  2
AUTOATTR0
 70
     0
 74
     1
  0
SEQEND
  5
DD
330
DB
100
AcDbEntity
  8
0
  6
Continuous
 62
     7
  0
HATCH
  5
DE
330
1F
100
AcDbEntity
  8
중심선
100
AcDbHatch
 10
0.0
 20
0.0
 30
0.0
210
0.0
220
0.0
230
1.0
  2
SOLID
 70
     1
 71
     0
 91
        1
 92
        0
 93
        4
 72
     1
 10
-7.750363627744308
 20
-35.8
 11
-11.19663887158159
 21
-35.8
 72
     1
 10
-11.19663887158159
 20
-35.8
 11
-13.32486873078562
 21
-38.3363255805726
 72
     1
 10
-13.32486873078562
 20
-38.3363255805726
 11
-9.878560401835182
 21
-38.33628615127011
 72
     1
 10
-9.878560401835182
 20
-38.33628615127011
 11
-7.750363627744308
 21
-35.8
 97
        0
 75
     0
 76
     1
 98
        1
 10
4.037684671492267
 20
-0.0010749287238951
  0
HATCH
  5
DF
330
1F
100
AcDbEntity
  8
중심선
100
AcDbHatch
 10
0.0
 20
0.0
 30
0.0
210
0.0
220
0.0
230
1.0
  2
SOLID
 70
     1
 71
     0
 91
        1
 92
        0
 93
        4
 72
     1
 10
-2.73759963670833
 20
-35.8
 11
-6.183874880545613
 21
-35.8
 72
     1
 10
-6.183874880545613
 20
-35.8
 11
-10.71501288890303
 21
-41.20000000000002
 72
     1
 10
-10.71501288890303
 20
-41.20000000000002
 11
-7.268737645065746
 21
-41.20000000000002
 72
     1
 10
-7.268737645065746
 20
-41.20000000000002
 11
-2.73759963670833
 21
-35.8
 97
        0
 75
     0
 76
     1
 98
        1
 10
4.037684671492267
 20
-0.0010749287238951
  0
HATCH
  5
E0
330
1F
100
AcDbEntity
  8
중심선
100
AcDbHatch
 10
0.0
 20
0.0
 30
0.0
210
0.0
220
0.0
230
1.0
  2
SOLID
 70
     1
 71
     0
 91
        1
 92
        0
 93
        4
 72
     1
 10
2.275164354327538
 20
-35.8
 11
-1.171110889509578
 21
-35.8
 72
     1
 10
-1.171110889509578
 20
-35.8
 11
-8.219547791398826
 21
-44.20000000000002
 72
     1
 10
-8.219547791398826
 20
-44.20000000000002
 11
-4.773272547561545
 21
-44.20000000000002
 72
     1
 10
-4.773272547561545
 20
-44.20000000000002
 11
2.275164354327538
 21
-35.8
 97
        0
 75
     0
 76
     1
 98
        1
 10
4.037684671492267
 20
-0.0010749287238951
  0
HATCH
  5
E1
330
1F
100
AcDbEntity
  8
중심선
100
AcDbHatch
 10
0.0
 20
0.0
 30
0.0
210
0.0
220
0.0
230
1.0
  2
SOLID
 70
     1
 71
     0
 91
        1
 92
        0
 93
        6
 72
     3
 10
7.075054785339738
 20
-40.00000000005127
 11
3.960054785062283
 21
1.540882976769353E-10
 40
0.3939339440162628
 50
17.09539180608437
 51
320.0019657685086
 73
     0
 72
     1
 10
8.758054441040333
 20
-38.58789400463833
 11
11.0633563147414
 21
-36.65356729459038
 72
     3
 10
7.075054785286891
 20
-40.00000000000015
 11
6.600054785286829
 21
-1.278976924368180E-13
 40
0.636358354079598
 50
39.99873849337386
 51
368.4976242363725
 73
     1
 72
     1
 10
13.5003872771875
 20
-39.03999999993002
 11
5.755122092122813
 21
-39.03999999993002
 72
     1
 10
5.755122092122813
 20
-39.03999999993002
 11
5.755097047676879
 21
-40.95999999992991
 72
     1
 10
5.755097047676879
 20
-40.95999999992991
 11
10.19647681714892
 21
-40.95999999992988
 97
        0
 75
     0
 76
     1
 98
        1
 10
4.037684671492267
 20
-0.0010749287238951
  0
DIMENSION
  5
E2
330
1F
100
AcDbEntity
  8
치수문자_일반주서
100
AcDbDimension
  2
_D
 10
-50.24499999999994
 20
-3.175000000000063
 30
0.0
 11
-50.24499999999995
 21
0.0000000000000111
 31
0.0
 70
   160
  1
%%c<>
 71
     2
 42
6.350000000000023
 52
-270.0
  3
SLDDIMSTYLE0
100
AcDbAlignedDimension
 13
-36.81499999999996
 23
3.175000000000009
 33
0.0
 14
-36.81499999999996
 24
-3.175000000000013
 34
0.0
 50
90.0000000000002
100
AcDbRotatedDimension
1001
ACAD
1000
DSTYLE
1002
{
1070
   171
1070
     6
1070
   273
1070
     7
1002
}
  0
DIMENSION
  5
F7
330
1F
100
AcDbEntity
  8
치수문자_일반주서
100
AcDbDimension
  2
_D_1
 10
55.40531483199383
 20
-3.174999999999933
 30
0.0
 11
55.40531483199375
 21
22.46381653835418
 31
0.0
 70
   160
  1
%%c<>
 71
     2
 42
6.347316538354116
 52
-270.0
  3
SLDDIMSTYLE0
100
AcDbAlignedDimension
 13
38.57500000000003
 23
3.17231653835412
 33
0.0
 14
38.5749999999996
 24
-3.174999999999996
 34
0.0
 50
90.0000000000002
100
AcDbRotatedDimension
1001
ACAD
1000
DSTYLE
1002
{
1070
   171
1070
     6
1070
   273
1070
     7
1002
}
  0
DIMENSION
  5
10B
330
1F
100
AcDbEntity
  8
치수문자_일반주서
100
AcDbDimension
  2
_D_2
 10
10.00000000000003
 20
25.25437499999999
 30
0.0
 11
-11.47899999999997
 21
25.25437499999999
 31
0.0
 70
   160
  1
<>
 71
     2
 42
28.57499999999957
  3
SLDDIMSTYLE0
100
AcDbAlignedDimension
 13
38.5749999999996
 23
3.175000000000003
 33
0.0
 14
10.00000000000003
 24
2.482264358750504
 34
0.0
 50
0.0000000000000071
100
AcDbRotatedDimension
1001
ACAD
1000
DSTYLE
1002
{
1070
   171
1070
     6
1070
   273
1070
     7
1002
}
  0
DIMENSION
  5
120
330
1F
100
AcDbEntity
  8
치수문자_일반주서
100
AcDbDimension
  2
_D_3
 10
-37.62499999999999
 20
40.07842844013392
 30
0.0
 11
0.4750000000000334
 21
40.07842844013392
 31
0.0
 70
   160
  1
<>
 71
     2
 42
76.19999999999956
  3
SLDDIMSTYLE0
100
AcDbAlignedDimension
 13
38.5749999999996
 23
3.175000000000003
 33
0.0
 14
-37.62499999999997
 24
2.364999999999992
 34
0.0
100
AcDbRotatedDimension
1001
ACAD
1000
DSTYLE
1002
{
1070
   171
1070
     6
1070
   273
1070
     7
1002
}
  0
LINE
  5
134
330
1F
100
AcDbEntity
  8
참조1
100
AcDbLine
 10
82.42838331323583
 20
7.441074928723896
 30
0.0
 11
82.42838331323583
 21
-7.438925071276109
 31
0.0
  0
LINE
  5
135
330
1F
100
AcDbEntity
  8
참조1
100
AcDbLine
 10
95.12838331323583
 20
5.441074928723896
 30
0.0
 11
82.42838331323583
 21
5.441074928723896
 31
0.0
  0
SOLID
  5
136
330
1F
100
AcDbEntity
  8
참조1
100
AcDbTrace
 10
82.42838331323583
 20
5.441074928723896
 30
0.0
 11
88.77838331323582
 21
4.425074928723896
 31
0.0
 12
88.77838331323582
 22
6.457074928723896
 32
0.0
 13
88.77838331323582
 23
6.457074928723896
 33
0.0
  0
LINE
  5
137
330
1F
100
AcDbEntity
  8
참조1
100
AcDbLine
 10
95.12838331323583
 20
-5.438925071276109
 30
0.0
 11
82.42838331323583
 21
-5.438925071276109
 31
0.0
  0
SOLID
  5
138
330
1F
100
AcDbEntity
  8
참조1
100
AcDbTrace
 10
82.42838331323583
 20
-5.438925071276109
 30
0.0
 11
88.77838331323582
 21
-6.454925071276109
 31
0.0
 12
88.77838331323582
 22
-4.422925071276109
 32
0.0
 13
88.77838331323582
 23
-4.422925071276109
 33
0.0
  0
MTEXT
  5
139
330
1F
100
AcDbEntity
  8
참조1
100
AcDbMText
 10
91.82587340570609
 20
10.98929157337383
 30
0.0
 40
3.5
 41
0.0
 71
     1
 72
     1
  1
A
  7
SLDTEXTSTYLE0
 73
     1
 44
1.0
  0
MTEXT
  5
13A
330
1F
100
AcDbEntity
  8
참조1
100
AcDbMText
 10
91.82587340570609
 20
0.1092915733738259
 30
0.0
 40
3.5
 41
0.0
 71
     1
 72
     1
  1
A
  7
SLDTEXTSTYLE0
 73
     1
 44
1.0
  0
INSERT
  5
141
330
1F
100
AcDbEntity
  8
해칭선
100
AcDbBlockReference
  2
SW_DOWELSYMBOL_0
 10
0.0
 20
0.0
 30
0.0
  0
ENDSEC
  0
SECTION
  2
OBJECTS
  0
DICTIONARY
  5
C
330
0
100
AcDbDictionary
281
     1
  3
ACAD_GROUP
350
D
  3
ACAD_IMAGE_VARS
350
165
  3
ACAD_LAYOUT
350
1A
  3
ACAD_MLINESTYLE
350
17
  3
ACAD_PLOTSETTINGS
350
19
  3
ACAD_PLOTSTYLENAME
350
E
  3
ACAD_SCALELIST
350
47
  3
APPDATA
350
163
  3
DWGPROPS
350
19C
  0
DICTIONARY
  5
18C
330
2
100
AcDbDictionary
280
     1
281
     1
  3
ACAD_LAYERSTATES
360
18D
  0
DICTIONARY
  5
D
102
{ACAD_REACTORS
330
C
102
}
330
C
100
AcDbDictionary
281
     1
  0
RASTERVARIABLES
  5
165
102
{ACAD_REACTORS
330
C
102
}
330
C
100
AcDbRasterVariables
 90
        0
 70
     1
 71
     1
 72
     1
  0
DICTIONARY
  5
1A
102
{ACAD_REACTORS
330
C
102
}
330
C
100
AcDbDictionary
281
     1
  3
Layout1
350
1E
  3
Layout2
350
26
  3
Model
350
22
  0
DICTIONARY
  5
17
102
{ACAD_REACTORS
330
C
102
}
330
C
100
AcDbDictionary
281
     1
  3
Standard
350
18
  0
DICTIONARY
  5
19
102
{ACAD_REACTORS
330
C
102
}
330
C
100
AcDbDictionary
281
     1
  0
ACDBDICTIONARYWDFLT
  5
E
102
{ACAD_REACTORS
330
C
102
}
330
C
100
AcDbDictionary
281
     1
  3
Normal
350
F
100
AcDbDictionaryWithDefault
340
F
  0
DICTIONARY
  5
47
102
{ACAD_REACTORS
330
C
102
}
330
C
100
AcDbDictionary
281
     1
  3
A0
350
48
  3
A1
350
49
  3
A2
350
4A
  3
A3
350
4B
  3
A4
350
4C
  3
A5
350
4D
  3
A6
350
4E
  3
A7
350
4F
  3
A8
350
50
  3
A9
350
51
  3
B0
350
52
  3
B1
350
53
  3
B2
350
54
  3
B3
350
55
  3
B4
350
56
  3
B5
350
57
  3
B6
350
58
  3
B7
350
59
  3
B8
350
5A
  3
B9
350
5B
  3
C0
350
5C
  3
C1
350
5D
  3
C2
350
5E
  3
C3
350
5F
  3
C4
350
60
  3
C5
350
61
  3
C6
350
62
  3
C7
350
63
  3
C8
350
64
  3
C9
350
65
  3
D0
350
66
  3
D1
350
67
  3
D2
350
68
  0
DICTIONARY
  5
163
102
{ACAD_REACTORS
330
C
102
}
330
C
100
AcDbDictionary
281
     1
  0
XRECORD
  5
19C
102
{ACAD_REACTORS
330
C
102
}
330
C
100
AcDbXrecord
280
     1
  1
DWGPROPS COOKIE
  2

  3

  4

  6

  7

  8
12017012
  9

300
=
301
=
302
=
303
=
304
=
305
=
306
=
307
=
308
=
309
=
 40
0.0
 41
2458288.372211042
 42
2458294.34943559
  1

 90
        0
  0
DICTIONARY
  5
18D
102
{ACAD_REACTORS
330
18C
102
}
330
18C
100
AcDbDictionary
281
     1
  0
LAYOUT
  5
1E
102
{ACAD_REACTORS
330
1A
102
}
330
1A
100
AcDbPlotSettings
  1

  2
none_device
  4

  6

 40
0.0
 41
0.0
 42
0.0
 43
0.0
 44
0.0
 45
0.0
 46
0.0
 47
0.0
 48
0.0
 49
0.0
140
0.0
141
0.0
142
1.0
143
1.0
 70
   688
 72
     1
 73
     0
 74
     5
  7

 75
    16
147
1.0
148
0.0
149
0.0
100
AcDbLayout
  1
Layout1
 70
     1
 71
     1
 10
0.0
 20
0.0
 11
420.0
 21
297.0
 12
0.0
 22
0.0
 32
0.0
 14
1.000000000000000E+20
 24
1.000000000000000E+20
 34
1.000000000000000E+20
 15
-1.000000000000000E+20
 25
-1.000000000000000E+20
 35
-1.000000000000000E+20
146
0.0
 13
0.0
 23
0.0
 33
0.0
 16
1.0
 26
0.0
 36
0.0
 17
0.0
 27
1.0
 37
0.0
 76
     0
330
1B
  0
LAYOUT
  5
26
102
{ACAD_REACTORS
330
1A
102
}
330
1A
100
AcDbPlotSettings
  1

  2
none_device
  4

  6

 40
0.0
 41
0.0
 42
0.0
 43
0.0
 44
0.0
 45
0.0
 46
0.0
 47
0.0
 48
0.0
 49
0.0
140
0.0
141
0.0
142
1.0
143
1.0
 70
   688
 72
     1
 73
     0
 74
     5
  7

 75
    16
147
1.0
148
0.0
149
0.0
100
AcDbLayout
  1
Layout2
 70
     1
 71
     2
 10
0.0
 20
0.0
 11
0.0
 21
0.0
 12
0.0
 22
0.0
 32
0.0
 14
0.0
 24
0.0
 34
0.0
 15
0.0
 25
0.0
 35
0.0
146
0.0
 13
0.0
 23
0.0
 33
0.0
 16
1.0
 26
0.0
 36
0.0
 17
0.0
 27
1.0
 37
0.0
 76
     0
330
23
  0
LAYOUT
  5
22
102
{ACAD_REACTORS
330
1A
102
}
330
1A
100
AcDbPlotSettings
  1

  2
none_device
  4
ANSI_A_(11.00_x_8.50_Inches)
  6

 40
6.35
 41
19.05
 42
6.35000508
 43
19.05000254
 44
279.4
 45
215.9
 46
99.22496332780638
 47
86.65773827348112
 48
0.0
 49
0.0
140
0.0
141
0.0
142
0.0630266465109184
143
1.0
 70
  1696
 72
     0
 73
     0
 74
     0
  7

 75
     0
147
0.0235690232323232
148
0.0
149
0.0
100
AcDbLayout
  1
Model
 70
     1
 71
     0
 10
0.0
 20
0.0
 11
420.0
 21
297.0
 12
0.0
 22
0.0
 32
0.0
 14
1.000000000000000E+20
 24
1.000000000000000E+20
 34
1.000000000000000E+20
 15
-1.000000000000000E+20
 25
-1.000000000000000E+20
 35
-1.000000000000000E+20
146
0.0
 13
0.0
 23
0.0
 33
0.0
 16
1.0
 26
0.0
 36
0.0
 17
0.0
 27
1.0
 37
0.0
 76
     0
330
1F
331
29
  0
MLINESTYLE
  5
18
102
{ACAD_REACTORS
330
17
102
}
330
17
100
AcDbMlineStyle
  2
Standard
 70
     0
  3

 62
   256
 51
90.0
 52
90.0
 71
     2
 49
0.5
 62
   256
  6
BYLAYER
 49
-0.5
 62
   256
  6
BYLAYER
  0
ACDBPLACEHOLDER
  5
F
102
{ACAD_REACTORS
330
E
102
}
330
E
  0
SCALE
  5
48
102
{ACAD_REACTORS
330
47
102
}
330
47
100
AcDbScale
 70
     0
300
1:1
140
1.0
141
1.0
290
     1
  0
SCALE
  5
49
102
{ACAD_REACTORS
330
47
102
}
330
47
100
AcDbScale
 70
     0
300
1:2
140
1.0
141
2.0
290
     0
  0
SCALE
  5
4A
102
{ACAD_REACTORS
330
47
102
}
330
47
100
AcDbScale
 70
     0
300
1:4
140
1.0
141
4.0
290
     0
  0
SCALE
  5
4B
102
{ACAD_REACTORS
330
47
102
}
330
47
100
AcDbScale
 70
     0
300
1:5
140
1.0
141
5.0
290
     0
  0
SCALE
  5
4C
102
{ACAD_REACTORS
330
47
102
}
330
47
100
AcDbScale
 70
     0
300
1:8
140
1.0
141
8.0
290
     0
  0
SCALE
  5
4D
102
{ACAD_REACTORS
330
47
102
}
330
47
100
AcDbScale
 70
     0
300
1:10
140
1.0
141
10.0
290
     0
  0
SCALE
  5
4E
102
{ACAD_REACTORS
330
47
102
}
330
47
100
AcDbScale
 70
     0
300
1:16
140
1.0
141
16.0
290
     0
  0
SCALE
  5
4F
102
{ACAD_REACTORS
330
47
102
}
330
47
100
AcDbScale
 70
     0
300
1:20
140
1.0
141
20.0
290
     0
  0
SCALE
  5
50
102
{ACAD_REACTORS
330
47
102
}
330
47
100
AcDbScale
 70
     0
300
1:30
140
1.0
141
30.0
290
     0
  0
SCALE
  5
51
102
{ACAD_REACTORS
330
47
102
}
330
47
100
AcDbScale
 70
     0
300
1:40
140
1.0
141
40.0
290
     0
  0
SCALE
  5
52
102
{ACAD_REACTORS
330
47
102
}
330
47
100
AcDbScale
 70
     0
300
1:50
140
1.0
141
50.0
290
     0
  0
SCALE
  5
53
102
{ACAD_REACTORS
330
47
102
}
330
47
100
AcDbScale
 70
     0
300
1:100
140
1.0
141
100.0
290
     0
  0
SCALE
  5
54
102
{ACAD_REACTORS
330
47
102
}
330
47
100
AcDbScale
 70
     0
300
2:1
140
2.0
141
1.0
290
     0
  0
SCALE
  5
55
102
{ACAD_REACTORS
330
47
102
}
330
47
100
AcDbScale
 70
     0
300
4:1
140
4.0
141
1.0
290
     0
  0
SCALE
  5
56
102
{ACAD_REACTORS
330
47
102
}
330
47
100
AcDbScale
 70
     0
300
8:1
140
8.0
141
1.0
290
     0
  0
SCALE
  5
57
102
{ACAD_REACTORS
330
47
102
}
330
47
100
AcDbScale
 70
     0
300
10:1
140
10.0
141
1.0
290
     0
  0
SCALE
  5
58
102
{ACAD_REACTORS
330
47
102
}
330
47
100
AcDbScale
 70
     0
300
100:1
140
100.0
141
1.0
290
     0
  0
SCALE
  5
59
102
{ACAD_REACTORS
330
47
102
}
330
47
100
AcDbScale
 70
     0
300
1/128" = 1'-0"
140
0.0078125
141
12.0
290
     0
  0
SCALE
  5
5A
102
{ACAD_REACTORS
330
47
102
}
330
47
100
AcDbScale
 70
     0
300
1/64" = 1'-0"
140
0.015625
141
12.0
290
     0
  0
SCALE
  5
5B
102
{ACAD_REACTORS
330
47
102
}
330
47
100
AcDbScale
 70
     0
300
1/32" = 1'-0"
140
0.03125
141
12.0
290
     0
  0
SCALE
  5
5C
102
{ACAD_REACTORS
330
47
102
}
330
47
100
AcDbScale
 70
     0
300
1/16" = 1'-0"
140
0.0625
141
12.0
290
     0
  0
SCALE
  5
5D
102
{ACAD_REACTORS
330
47
102
}
330
47
100
AcDbScale
 70
     0
300
3/32" = 1'-0"
140
0.09375
141
12.0
290
     0
  0
SCALE
  5
5E
102
{ACAD_REACTORS
330
47
102
}
330
47
100
AcDbScale
 70
     0
300
1/8" = 1'-0"
140
0.125
141
12.0
290
     0
  0
SCALE
  5
5F
102
{ACAD_REACTORS
330
47
102
}
330
47
100
AcDbScale
 70
     0
300
3/16" = 1'-0"
140
0.1875
141
12.0
290
     0
  0
SCALE
  5
60
102
{ACAD_REACTORS
330
47
102
}
330
47
100
AcDbScale
 70
     0
300
1/4" = 1'-0"
140
0.25
141
12.0
290
     0
  0
SCALE
  5
61
102
{ACAD_REACTORS
330
47
102
}
330
47
100
AcDbScale
 70
     0
300
3/8" = 1'-0"
140
0.375
141
12.0
290
     0
  0
SCALE
  5
62
102
{ACAD_REACTORS
330
47
102
}
330
47
100
AcDbScale
 70
     0
300
1/2" = 1'-0"
140
0.5
141
12.0
290
     0
  0
SCALE
  5
63
102
{ACAD_REACTORS
330
47
102
}
330
47
100
AcDbScale
 70
     0
300
3/4" = 1'-0"
140
0.75
141
12.0
290
     0
  0
SCALE
  5
64
102
{ACAD_REACTORS
330
47
102
}
330
47
100
AcDbScale
 70
     0
300
1" = 1'-0"
140
1.0
141
12.0
290
     0
  0
SCALE
  5
65
102
{ACAD_REACTORS
330
47
102
}
330
47
100
AcDbScale
 70
     0
300
1-1/2" = 1'-0"
140
1.5
141
12.0
290
     0
  0
SCALE
  5
66
102
{ACAD_REACTORS
330
47
102
}
330
47
100
AcDbScale
 70
     0
300
3" = 1'-0"
140
3.0
141
12.0
290
     0
  0
SCALE
  5
67
102
{ACAD_REACTORS
330
47
102
}
330
47
100
AcDbScale
 70
     0
300
6" = 1'-0"
140
6.0
141
12.0
290
     0
  0
SCALE
  5
68
102
{ACAD_REACTORS
330
47
102
}
330
47
100
AcDbScale
 70
     0
300
1'-0" = 1'-0"
140
12.0
141
12.0
290
     0
  0
ENDSEC
  0
EOF
