  0
SECTION
  2
HEADER
  9
$ACADVER
  1
AC1015
  9
$ACADMAINTVER
 70
     6
  9
$DWGCODEPAGE
  3
ANSI_949
  9
$INSBASE
 10
0.0
 20
0.0
 30
0.0
  9
$EXTMIN
 10
1.000000000000000E+20
 20
1.000000000000000E+20
 30
1.000000000000000E+20
  9
$EXTMAX
 10
-1.000000000000000E+20
 20
-1.000000000000000E+20
 30
-1.000000000000000E+20
  9
$LIMMIN
 10
0.0
 20
0.0
  9
$LIMMAX
 10
420.0
 20
297.0
  9
$ORTHOMODE
 70
     1
  9
$REGENMODE
 70
     1
  9
$FILLMODE
 70
     1
  9
$QTEXTMODE
 70
     0
  9
$MIRRTEXT
 70
     1
  9
$LTSCALE
 40
1.0
  9
$ATTMODE
 70
     1
  9
$TEXTSIZE
 40
3.5
  9
$TRACEWID
 40
1.0
  9
$TEXTSTYLE
  7
Standard
  9
$CLAYER
  8
0
  9
$CELTYPE
  6
ByLayer
  9
$CECOLOR
 62
   256
  9
$CELTSCALE
 40
1.0
  9
$DISPSILH
 70
     0
  9
$DIMSCALE
 40
1.0
  9
$DIMASZ
 40
3.302
  9
$DIMEXO
 40
1.0
  9
$DIMDLI
 40
3.75
  9
$DIMRND
 40
0.0
  9
$DIMDLE
 40
0.0
  9
$DIMEXE
 40
1.0
  9
$DIMTP
 40
0.0
  9
$DIMTM
 40
0.0
  9
$DIMTXT
 40
3.5
  9
$DIMCEN
 40
2.5
  9
$DIMTSZ
 40
0.0
  9
$DIMTOL
 70
     0
  9
$DIMLIM
 70
     0
  9
$DIMTIH
 70
     1
  9
$DIMTOH
 70
     1
  9
$DIMSE1
 70
     0
  9
$DIMSE2
 70
     0
  9
$DIMTAD
 70
     1
  9
$DIMZIN
 70
     0
  9
$DIMBLK
  1

  9
$DIMASO
 70
     1
  9
$DIMSHO
 70
     1
  9
$DIMPOST
  1

  9
$DIMAPOST
  1

  9
$DIMALT
 70
     0
  9
$DIMALTD
 70
     3
  9
$DIMALTF
 40
0.0393700787401575
  9
$DIMLFAC
 40
1.0
  9
$DIMTOFL
 70
     1
  9
$DIMTVP
 40
0.0
  9
$DIMTIX
 70
     0
  9
$DIMSOXD
 70
     0
  9
$DIMSAH
 70
     0
  9
$DIMBLK1
  1

  9
$DIMBLK2
  1

  9
$DIMSTYLE
  2
ISO-25
  9
$DIMCLRD
 70
     0
  9
$DIMCLRE
 70
     0
  9
$DIMCLRT
 70
     0
  9
$DIMTFAC
 40
1.0
  9
$DIMGAP
 40
1.524
  9
$DIMJUST
 70
     0
  9
$DIMSD1
 70
     0
  9
$DIMSD2
 70
     0
  9
$DIMTOLJ
 70
     0
  9
$DIMTZIN
 70
     0
  9
$DIMALTZ
 70
     0
  9
$DIMALTTZ
 70
     0
  9
$DIMUPT
 70
     0
  9
$DIMDEC
 70
     2
  9
$DIMTDEC
 70
     2
  9
$DIMALTU
 70
     2
  9
$DIMALTTD
 70
     3
  9
$DIMTXSTY
  7
Standard
  9
$DIMAUNIT
 70
     0
  9
$DIMADEC
 70
     2
  9
$DIMALTRND
 40
0.0
  9
$DIMAZIN
 70
     0
  9
$DIMDSEP
 70
    44
  9
$DIMATFIT
 70
     3
  9
$DIMFRAC
 70
     0
  9
$DIMLDRBLK
  1

  9
$DIMLUNIT
 70
     2
  9
$DIMLWD
 70
    -2
  9
$DIMLWE
 70
    -2
  9
$DIMTMOVE
 70
     0
  9
$LUNITS
 70
     2
  9
$LUPREC
 70
     2
  9
$SKETCHINC
 40
1.0
  9
$FILLETRAD
 40
10.0
  9
$AUNITS
 70
     0
  9
$AUPREC
 70
     2
  9
$MENU
  1
.
  9
$ELEVATION
 40
0.0
  9
$PELEVATION
 40
0.0
  9
$THICKNESS
 40
0.0
  9
$LIMCHECK
 70
     0
  9
$CHAMFERA
 40
0.0
  9
$CHAMFERB
 40
0.0
  9
$CHAMFERC
 40
0.0
  9
$CHAMFERD
 40
0.0
  9
$SKPOLY
 70
     0
  9
$TDCREATE
 40
2458288.747399896
  9
$TDUCREATE
 40
2458288.372399896
  9
$TDUPDATE
 40
2458294.723063229
  9
$TDUUPDATE
 40
2458294.348063229
  9
$TDINDWG
 40
0.0035317593
  9
$TDUSRTIMER
 40
2458294.342486863
  9
$USRTIMER
 70
     1
  9
$ANGBASE
 50
0.0
  9
$ANGDIR
 70
     0
  9
$PDMODE
 70
     0
  9
$PDSIZE
 40
-1.0
  9
$PLINEWID
 40
0.0
  9
$SPLFRAME
 70
     0
  9
$SPLINETYPE
 70
     6
  9
$SPLINESEGS
 70
     8
  9
$HANDSEED
  5
193
  9
$SURFTAB1
 70
     6
  9
$SURFTAB2
 70
     6
  9
$SURFTYPE
 70
     6
  9
$SURFU
 70
     6
  9
$SURFV
 70
     6
  9
$UCSBASE
  2

  9
$UCSNAME
  2

  9
$UCSORG
 10
0.0
 20
0.0
 30
0.0
  9
$UCSXDIR
 10
1.0
 20
0.0
 30
0.0
  9
$UCSYDIR
 10
0.0
 20
1.0
 30
0.0
  9
$UCSORTHOREF
  2

  9
$UCSORTHOVIEW
 70
     0
  9
$UCSORGTOP
 10
0.0
 20
0.0
 30
0.0
  9
$UCSORGBOTTOM
 10
0.0
 20
0.0
 30
0.0
  9
$UCSORGLEFT
 10
0.0
 20
0.0
 30
0.0
  9
$UCSORGRIGHT
 10
0.0
 20
0.0
 30
0.0
  9
$UCSORGFRONT
 10
0.0
 20
0.0
 30
0.0
  9
$UCSORGBACK
 10
0.0
 20
0.0
 30
0.0
  9
$PUCSBASE
  2

  9
$PUCSNAME
  2

  9
$PUCSORG
 10
0.0
 20
0.0
 30
0.0
  9
$PUCSXDIR
 10
1.0
 20
0.0
 30
0.0
  9
$PUCSYDIR
 10
0.0
 20
1.0
 30
0.0
  9
$PUCSORTHOREF
  2

  9
$PUCSORTHOVIEW
 70
     0
  9
$PUCSORGTOP
 10
0.0
 20
0.0
 30
0.0
  9
$PUCSORGBOTTOM
 10
0.0
 20
0.0
 30
0.0
  9
$PUCSORGLEFT
 10
0.0
 20
0.0
 30
0.0
  9
$PUCSORGRIGHT
 10
0.0
 20
0.0
 30
0.0
  9
$PUCSORGFRONT
 10
0.0
 20
0.0
 30
0.0
  9
$PUCSORGBACK
 10
0.0
 20
0.0
 30
0.0
  9
$USERI1
 70
     0
  9
$USERI2
 70
     0
  9
$USERI3
 70
     0
  9
$USERI4
 70
     0
  9
$USERI5
 70
     0
  9
$USERR1
 40
0.0
  9
$USERR2
 40
0.0
  9
$USERR3
 40
0.0
  9
$USERR4
 40
0.0
  9
$USERR5
 40
0.0
  9
$WORLDVIEW
 70
     1
  9
$SHADEDGE
 70
     3
  9
$SHADEDIF
 70
    70
  9
$TILEMODE
 70
     1
  9
$MAXACTVP
 70
    64
  9
$PINSBASE
 10
0.0
 20
0.0
 30
0.0
  9
$PLIMCHECK
 70
     0
  9
$PEXTMIN
 10
1.000000000000000E+20
 20
1.000000000000000E+20
 30
1.000000000000000E+20
  9
$PEXTMAX
 10
-1.000000000000000E+20
 20
-1.000000000000000E+20
 30
-1.000000000000000E+20
  9
$PLIMMIN
 10
0.0
 20
0.0
  9
$PLIMMAX
 10
0.0
 20
0.0
  9
$UNITMODE
 70
     0
  9
$VISRETAIN
 70
     1
  9
$PLINEGEN
 70
     0
  9
$PSLTSCALE
 70
     1
  9
$TREEDEPTH
 70
  3020
  9
$CMLSTYLE
  2
Standard
  9
$CMLJUST
 70
     0
  9
$CMLSCALE
 40
20.0
  9
$PROXYGRAPHICS
 70
     1
  9
$MEASUREMENT
 70
     1
  9
$CELWEIGHT
370
    -1
  9
$ENDCAPS
280
     0
  9
$JOINSTYLE
280
     0
  9
$LWDISPLAY
290
     1
  9
$INSUNITS
 70
     4
  9
$HYPERLINKBASE
  1

  9
$STYLESHEET
  1

  9
$XEDIT
290
     1
  9
$CEPSNTYPE
380
     0
  9
$PSTYLEMODE
290
     1
  9
$FINGERPRINTGUID
  2
{AE19DF8A-8629-4BAD-9826-3A2910850AEE}
  9
$VERSIONGUID
  2
{FAEB1C32-E019-11D5-929B-00C0DF256EC4}
  9
$EXTNAMES
290
     1
  9
$PSVPSCALE
 40
0.0
  9
$OLESTARTUP
290
     0
  0
ENDSEC
  0
SECTION
  2
CLASSES
  0
CLASS
  1
ACDBDICTIONARYWDFLT
  2
AcDbDictionaryWithDefault
  3
ObjectDBX Classes
 90
        0
280
     0
281
     0
  0
CLASS
  1
VISUALSTYLE
  2
AcDbVisualStyle
  3
ObjectDBX Classes
 90
     4095
280
     0
281
     0
  0
CLASS
  1
MATERIAL
  2
AcDbMaterial
  3
ObjectDBX Classes
 90
     1153
280
     0
281
     0
  0
CLASS
  1
SCALE
  2
AcDbScale
  3
ObjectDBX Classes
 90
     1153
280
     0
281
     0
  0
CLASS
  1
SUN
  2
AcDbSun
  3
SCENEOE
 90
     1153
280
     0
281
     0
  0
CLASS
  1
ACDBPLACEHOLDER
  2
AcDbPlaceHolder
  3
ObjectDBX Classes
 90
        0
280
     0
281
     0
  0
CLASS
  1
LAYOUT
  2
AcDbLayout
  3
ObjectDBX Classes
 90
        0
280
     0
281
     0
  0
CLASS
  1
TABLESTYLE
  2
AcDbTableStyle
  3
ObjectDBX Classes
 90
     4095
280
     0
281
     0
  0
CLASS
  1
MLEADERSTYLE
  2
AcDbMLeaderStyle
  3
ACDB_MLEADERSTYLE_CLASS
 90
     4095
280
     0
281
     0
  0
CLASS
  1
RASTERVARIABLES
  2
AcDbRasterVariables
  3
ISM
 90
        0
280
     0
281
     0
  0
ENDSEC
  0
SECTION
  2
TABLES
  0
TABLE
  2
VPORT
  5
8
330
0
100
AcDbSymbolTable
 70
     1
  0
VPORT
  5
29
330
8
100
AcDbSymbolTableRecord
100
AcDbViewportTableRecord
  2
*Active
 70
     0
 10
0.0
 20
0.0
 11
1.0
 21
1.0
 12
-8.413844799953385
 22
-4.679943389369878
 13
0.0
 23
0.0
 14
10.0
 24
10.0
 15
10.0
 25
10.0
 16
0.0
 26
0.0
 36
1.0
 17
0.0
 27
0.0
 37
0.0
 40
119.5347055057997
 41
1.859099804305284
 42
50.0
 43
0.0
 44
0.0
 50
0.0
 51
0.0
 71
    16
 72
  2000
 73
     1
 74
     3
 75
     0
 76
     0
 77
     0
 78
     0
281
     0
 65
     1
110
0.0
120
0.0
130
0.0
111
1.0
121
0.0
131
0.0
112
0.0
122
1.0
132
0.0
 79
     0
146
0.0
  0
ENDTAB
  0
TABLE
  2
LTYPE
  5
5
330
0
100
AcDbSymbolTable
 70
     6
  0
LTYPE
  5
14
330
5
100
AcDbSymbolTableRecord
100
AcDbLinetypeTableRecord
  2
ByBlock
 70
     0
  3

 72
    65
 73
     0
 40
0.0
  0
LTYPE
  5
15
330
5
100
AcDbSymbolTableRecord
100
AcDbLinetypeTableRecord
  2
ByLayer
 70
     0
  3

 72
    65
 73
     0
 40
0.0
  0
LTYPE
  5
16
330
5
100
AcDbSymbolTableRecord
100
AcDbLinetypeTableRecord
  2
Continuous
 70
     0
  3
Solid line
 72
    65
 73
     0
 40
0.0
  0
LTYPE
  5
6A
330
5
100
AcDbSymbolTableRecord
100
AcDbLinetypeTableRecord
  2
HIDDEN
 70
     0
  3
Hidden __ __ __ __ __ __ __ __ __ __ __ __ __ __
 72
    65
 73
     2
 40
1.905
 49
1.27
 74
     0
 49
-0.635
 74
     0
  0
LTYPE
  5
6B
330
5
100
AcDbSymbolTableRecord
100
AcDbLinetypeTableRecord
  2
PHANTOM
 70
     0
  3
Phantom ______  __  __  ______  __  __  ______
 72
    65
 73
     6
 40
12.7
 49
6.35
 74
     0
 49
-1.27
 74
     0
 49
1.27
 74
     0
 49
-1.27
 74
     0
 49
1.27
 74
     0
 49
-1.27
 74
     0
  0
LTYPE
  5
6C
330
5
100
AcDbSymbolTableRecord
100
AcDbLinetypeTableRecord
  2
CENTER
 70
     0
  3
Center ____ _ ____ _ ____ _ ____ _ ____ _ ____
 72
    65
 73
     4
 40
10.16
 49
6.35
 74
     0
 49
-1.27
 74
     0
 49
1.27
 74
     0
 49
-1.27
 74
     0
  0
LTYPE
  5
6D
330
5
100
AcDbSymbolTableRecord
100
AcDbLinetypeTableRecord
  2
CENTERX2
 70
     0
  3
Center (2x) ________  __  ________  __  _____
 72
    65
 73
     4
 40
20.32
 49
12.7
 74
     0
 49
-2.54
 74
     0
 49
2.54
 74
     0
 49
-2.54
 74
     0
  0
LTYPE
  5
6E
330
5
100
AcDbSymbolTableRecord
100
AcDbLinetypeTableRecord
  2
DOT2
 70
     0
  3
Dot (.5x) ........................................
 72
    65
 73
     2
 40
0.635
 49
0.0
 74
     0
 49
-0.635
 74
     0
  0
ENDTAB
  0
TABLE
  2
LAYER
  5
2
102
{ACAD_XDICTIONARY
360
183
102
}
330
0
100
AcDbSymbolTable
 70
    18
  0
LAYER
  5
10
330
2
100
AcDbSymbolTableRecord
100
AcDbLayerTableRecord
  2
0
 70
     0
 62
     7
  6
Continuous
370
    -3
390
F
  0
LAYER
  5
6F
330
2
100
AcDbSymbolTableRecord
100
AcDbLayerTableRecord
  2
FORMAT
 70
     0
 62
     2
  6
Continuous
370
    -3
390
F
  0
LAYER
  5
70
330
2
100
AcDbSymbolTableRecord
100
AcDbLayerTableRecord
  2
외형선
 70
     0
 62
     4
  6
Continuous
370
    30
390
F
  0
LAYER
  5
71
330
2
100
AcDbSymbolTableRecord
100
AcDbLayerTableRecord
  2
숨은선
 70
     0
 62
     2
  6
HIDDEN
370
    15
390
F
  0
LAYER
  5
72
330
2
100
AcDbSymbolTableRecord
100
AcDbLayerTableRecord
  2
중심선
 70
     0
 62
     1
  6
CENTERX2
370
    -3
390
F
  0
LAYER
  5
73
330
2
100
AcDbSymbolTableRecord
100
AcDbLayerTableRecord
  2
파단선
 70
     0
 62
     4
  6
Continuous
370
    -3
390
F
  0
LAYER
  5
74
330
2
100
AcDbSymbolTableRecord
100
AcDbLayerTableRecord
  2
해칭선
 70
     0
 62
   100
  6
Continuous
370
    -3
390
F
  0
LAYER
  5
75
330
2
100
AcDbSymbolTableRecord
100
AcDbLayerTableRecord
  2
가는실선
 70
     0
 62
     4
  6
Continuous
370
    -3
390
F
  0
LAYER
  5
76
330
2
100
AcDbSymbolTableRecord
100
AcDbLayerTableRecord
  2
치수_보조선
 70
     0
 62
     4
  6
Continuous
370
    -3
390
F
  0
LAYER
  5
77
330
2
100
AcDbSymbolTableRecord
100
AcDbLayerTableRecord
  2
치수문자_일반주서
 70
     0
 62
     7
  6
Continuous
370
    15
390
F
  0
LAYER
  5
78
330
2
100
AcDbSymbolTableRecord
100
AcDbLayerTableRecord
  2
개별주서
 70
     0
 62
   100
  6
Continuous
370
    30
390
F
  0
LAYER
  5
79
330
2
100
AcDbSymbolTableRecord
100
AcDbLayerTableRecord
  2
중간선
 70
     0
 62
     2
  6
Continuous
370
    15
390
F
  0
LAYER
  5
7A
330
2
100
AcDbSymbolTableRecord
100
AcDbLayerTableRecord
  2
윤곽선
 70
     0
 62
     3
  6
Continuous
370
    40
390
F
  0
LAYER
  5
7B
330
2
100
AcDbSymbolTableRecord
100
AcDbLayerTableRecord
  2
중심마크
 70
     0
 62
   100
  6
Continuous
370
    30
390
F
  0
LAYER
  5
7C
330
2
100
AcDbSymbolTableRecord
100
AcDbLayerTableRecord
  2
가상선
 70
     0
 62
     4
  6
PHANTOM
370
    -3
390
F
  0
LAYER
  5
7D
330
2
100
AcDbSymbolTableRecord
100
AcDbLayerTableRecord
  2
특수지정선
 70
     0
 62
     5
  6
CENTERX2
370
    60
390
F
  0
LAYER
  5
7E
330
2
100
AcDbSymbolTableRecord
100
AcDbLayerTableRecord
  2
참조1
 70
     0
 62
    -4
  6
Continuous
370
    -3
390
F
  0
LAYER
  5
18A
330
2
100
AcDbSymbolTableRecord
100
AcDbLayerTableRecord
  2
Defpoints
 70
     0
 62
     7
  6
Continuous
290
     0
370
    -3
390
F
  0
ENDTAB
  0
TABLE
  2
STYLE
  5
3
330
0
100
AcDbSymbolTable
 70
     2
  0
STYLE
  5
11
330
3
100
AcDbSymbolTableRecord
100
AcDbTextStyleTableRecord
  2
Standard
 70
     0
 40
0.0
 41
1.0
 50
0.0
 71
     0
 42
3.5
  3
txt
  4

  0
STYLE
  5
94
330
3
100
AcDbSymbolTableRecord
100
AcDbTextStyleTableRecord
  2
SLDTEXTSTYLE0
 70
     0
 40
0.0
 41
0.75
 50
0.0
 71
     0
 42
3.5
  3
TXT
  4

  0
ENDTAB
  0
TABLE
  2
VIEW
  5
6
330
0
100
AcDbSymbolTable
 70
     0
  0
ENDTAB
  0
TABLE
  2
UCS
  5
7
330
0
100
AcDbSymbolTable
 70
     0
  0
ENDTAB
  0
TABLE
  2
APPID
  5
9
330
0
100
AcDbSymbolTable
 70
     1
  0
APPID
  5
12
330
9
100
AcDbSymbolTableRecord
100
AcDbRegAppTableRecord
  2
ACAD
 70
     0
  0
ENDTAB
  0
TABLE
  2
DIMSTYLE
  5
A
330
0
100
AcDbSymbolTable
 70
     4
100
AcDbDimStyleTable
  0
DIMSTYLE
105
27
330
A
100
AcDbSymbolTableRecord
100
AcDbDimStyleTableRecord
  2
ISO-25
 70
     0
 41
2.5
 42
0.625
 43
3.75
 44
1.25
 73
     0
 74
     0
 77
     1
 78
     8
140
2.5
141
2.5
143
0.03937007874016
147
0.625
171
     3
172
     1
178
     0
271
     2
272
     2
274
     3
278
    44
283
     0
284
     8
340
11
  0
DIMSTYLE
105
DB
102
{ACAD_REACTORS
330
DA
330
EF
330
103
330
117
102
}
330
A
100
AcDbSymbolTableRecord
100
AcDbDimStyleTableRecord
  2
SLDDIMSTYLE0
 70
     0
 41
3.302
 44
0.0
 45
0.000000001
 73
     0
 74
     0
 77
     1
 78
    12
 79
     3
140
3.5
143
0.0393700787401575
147
0.875
148
0.000000001
170
     1
172
     1
173
     1
178
     0
271
     2
272
     2
276
     2
284
    12
289
     0
340
94
  0
DIMSTYLE
105
F0
330
A
100
AcDbSymbolTableRecord
100
AcDbDimStyleTableRecord
  2
SLDDIMSTYLE1
 70
     0
 41
3.302
 44
0.0
 45
0.000000001
 73
     0
 74
     0
 77
     1
 78
    12
 79
     3
140
3.5
143
0.0393700787401575
147
0.875
148
0.000000001
170
     1
173
     1
178
     0
271
     2
272
     2
276
     2
284
    12
340
94
  0
DIMSTYLE
105
118
330
A
100
AcDbSymbolTableRecord
100
AcDbDimStyleTableRecord
  2
SLDDIMSTYLE2
 70
     0
 41
3.302
 44
0.0
 45
0.000000001
 73
     0
 74
     0
 77
     1
 78
     4
 79
     1
140
3.5
143
0.0393700787401575
147
0.875
148
0.000000001
170
     1
173
     1
178
     0
271
     2
272
     2
276
     2
284
    12
340
94
  0
ENDTAB
  0
TABLE
  2
BLOCK_RECORD
  5
1
330
0
100
AcDbSymbolTable
 70
     8
  0
BLOCK_RECORD
  5
1F
330
1
100
AcDbSymbolTableRecord
100
AcDbBlockTableRecord
  2
*Model_Space
340
22
  0
BLOCK_RECORD
  5
1B
330
1
100
AcDbSymbolTableRecord
100
AcDbBlockTableRecord
  2
*Paper_Space
340
1E
  0
BLOCK_RECORD
  5
23
330
1
100
AcDbSymbolTableRecord
100
AcDbBlockTableRecord
  2
*Paper_Space0
340
26
  0
BLOCK_RECORD
  5
7F
330
1
100
AcDbSymbolTableRecord
100
AcDbBlockTableRecord
  2
블럭10
340
0
102
{BLKREFS
331
D3
102
}
  0
BLOCK_RECORD
  5
DC
330
1
100
AcDbSymbolTableRecord
100
AcDbBlockTableRecord
  2
_D
340
0
  0
BLOCK_RECORD
  5
F1
330
1
100
AcDbSymbolTableRecord
100
AcDbBlockTableRecord
  2
_D_1
340
0
  0
BLOCK_RECORD
  5
104
330
1
100
AcDbSymbolTableRecord
100
AcDbBlockTableRecord
  2
_D_2
340
0
  0
BLOCK_RECORD
  5
119
330
1
100
AcDbSymbolTableRecord
100
AcDbBlockTableRecord
  2
_D_3
340
0
  0
BLOCK_RECORD
  5
132
330
1
100
AcDbSymbolTableRecord
100
AcDbBlockTableRecord
  2
SW_DOWELSYMBOL_0
340
0
102
{BLKREFS
331
138
102
}
  0
ENDTAB
  0
ENDSEC
  0
SECTION
  2
BLOCKS
  0
BLOCK
  5
20
330
1F
100
AcDbEntity
  8
0
100
AcDbBlockBegin
  2
*Model_Space
 70
     0
 10
0.0
 20
0.0
 30
0.0
  3
*Model_Space
  1
*Model_Space
  0
ENDBLK
  5
21
330
1F
100
AcDbEntity
  8
0
100
AcDbBlockEnd
  0
BLOCK
  5
1C
330
1B
100
AcDbEntity
 67
     1
  8
0
100
AcDbBlockBegin
  2
*Paper_Space
 70
     0
 10
0.0
 20
0.0
 30
0.0
  3
*Paper_Space
  1
*Paper_Space
  0
ENDBLK
  5
1D
330
1B
100
AcDbEntity
 67
     1
  8
0
100
AcDbBlockEnd
  0
BLOCK
  5
24
330
23
100
AcDbEntity
  8
0
100
AcDbBlockBegin
  2
*Paper_Space0
 70
     0
 10
0.0
 20
0.0
 30
0.0
  3
*Paper_Space0
  1
*Paper_Space0
  0
ENDBLK
  5
25
330
23
100
AcDbEntity
  8
0
100
AcDbBlockEnd
  0
BLOCK
  5
80
330
7F
100
AcDbEntity
  8
0
100
AcDbBlockBegin
  2
블럭10
 70
     2
 10
0.0
 20
0.0
 30
0.0
  3
블럭10
  1
블럭10
  0
ELLIPSE
  5
82
330
7F
100
AcDbEntity
  8
중심선
100
AcDbEllipse
 10
20.54032771741204
 20
12.0471743016438
 30
0.0
 11
6.600054785286829
 21
-1.261213355974178E-13
 31
0.0
210
0.0
220
0.0
230
1.0
 40
0.636358354079598
 41
0.9219305317359503
 42
6.513795318482858
  0
ELLIPSE
  5
83
330
7F
100
AcDbEntity
  8
중심선
100
AcDbEllipse
 10
20.54032771746488
 20
12.04717430159265
 30
0.0
 11
3.960054785062283
 21
1.540847449632565E-10
 31
0.0
210
0.0
220
0.0
230
1.0
 40
0.3939339440162632
 41
1.131841032648279
 42
5.62031148352944
  0
LINE
  5
84
330
7F
100
AcDbEntity
  8
중심선
100
AcDbLine
 10
2.268634060543552
 20
16.24717430164393
 30
0.0
 11
5.714909304380834
 21
16.24717430164393
 31
0.0
  0
LINE
  5
85
330
7F
100
AcDbEntity
  8
중심선
100
AcDbLine
 10
5.245725140726316
 20
7.84717430164391
 30
0.0
 11
8.692000384563599
 21
7.84717430164391
 31
0.0
  0
LINE
  5
86
330
7F
100
AcDbEntity
  8
중심선
100
AcDbLine
 10
15.74043728645272
 20
16.24717430164393
 30
0.0
 11
8.692000384563599
 21
7.84717430164391
 31
0.0
  0
LINE
  5
87
330
7F
100
AcDbEntity
  8
중심선
100
AcDbLine
 10
0.1404042013395286
 20
13.71084872107135
 30
0.0
 11
3.58671253028996
 21
13.71088815037384
 31
0.0
  0
LINE
  5
88
330
7F
100
AcDbEntity
  8
중심선
100
AcDbLine
 10
2.750260043222114
 20
10.84717430164391
 30
0.0
 11
6.196535287059397
 21
10.84717430164391
 31
0.0
  0
LINE
  5
89
330
7F
100
AcDbEntity
  8
중심선
100
AcDbLine
 10
12.29416204261559
 20
16.24717430164393
 30
0.0
 11
5.245725140726316
 21
7.84717430164391
 31
0.0
  0
LINE
  5
8A
330
7F
100
AcDbEntity
  8
중심선
100
AcDbLine
 10
10.72767329541681
 20
16.24717430164393
 30
0.0
 11
6.196535287059397
 21
10.84717430164391
 31
0.0
  0
LINE
  5
8B
330
7F
100
AcDbEntity
  8
중심선
100
AcDbLine
 10
7.28139805157953
 20
16.24717430164393
 30
0.0
 11
2.750260043222114
 21
10.84717430164391
 31
0.0
  0
LINE
  5
8C
330
7F
100
AcDbEntity
  8
중심선
100
AcDbLine
 10
5.714909304380834
 20
16.24717430164393
 30
0.0
 11
3.58671253028996
 21
13.71088815037384
 31
0.0
  0
LINE
  5
8D
330
7F
100
AcDbEntity
  8
중심선
100
AcDbLine
 10
2.268634060543552
 20
16.24717430164393
 30
0.0
 11
0.1404042013395286
 21
13.71084872107135
 31
0.0
  0
LINE
  5
8E
330
7F
100
AcDbEntity
  8
중심선
100
AcDbLine
 10
7.28139805157953
 20
16.24717430164393
 30
0.0
 11
10.72767329541681
 21
16.24717430164393
 31
0.0
  0
LINE
  5
8F
330
7F
100
AcDbEntity
  8
중심선
100
AcDbLine
 10
12.29416204261559
 20
16.24717430164393
 30
0.0
 11
15.74043728645272
 21
16.24717430164393
 31
0.0
  0
LINE
  5
90
330
7F
100
AcDbEntity
  8
중심선
100
AcDbLine
 10
19.22036997980202
 20
11.08717430171403
 30
0.0
 11
23.66174974927406
 21
11.08717430171406
 31
0.0
  0
LINE
  5
91
330
7F
100
AcDbEntity
  8
중심선
100
AcDbLine
 10
19.22039502424796
 20
13.00717430171391
 30
0.0
 11
19.22036997980202
 21
11.08717430171403
 31
0.0
  0
LINE
  5
92
330
7F
100
AcDbEntity
  8
중심선
100
AcDbLine
 10
19.22039502424796
 20
13.00717430171391
 30
0.0
 11
26.96566020931264
 21
13.00717430171391
 31
0.0
  0
LINE
  5
93
330
7F
100
AcDbEntity
  8
중심선
100
AcDbLine
 10
22.22332737316547
 20
13.45928029700563
 30
0.0
 11
24.52862924686651
 21
15.39360700705356
 31
0.0
  0
ATTDEF
  5
95
330
7F
100
AcDbEntity
  8
FORMAT
 62
     2
100
AcDbText
 10
3.448148490846466
 20
2.075366912832191
 30
0.0
 40
4.233333333333333
  1
EM206020
 41
0.75
  7
SLDTEXTSTYLE0
 11
3.448148490846466
 21
-0.0412997538344756
 31
0.0
100
AcDbAttributeDefinition
  3

  2
AUTOATTR0
 70
     0
 74
     1
  0
ENDBLK
  5
81
330
7F
100
AcDbEntity
  8
0
100
AcDbBlockEnd
  0
BLOCK
  5
DD
330
DC
100
AcDbEntity
  8
0
100
AcDbBlockBegin
  2
_D
 70
     0
 10
0.0
 20
0.0
 30
0.0
  3
_D
  1
_D
  0
LINE
  5
DF
330
DC
100
AcDbEntity
  8
치수문자_일반주서
 62
     0
370
    -2
100
AcDbLine
 10
-36.87749999999999
 20
3.968749999999992
 30
0.0
 11
-50.245
 21
3.968749999999942
 31
0.0
  0
LINE
  5
E0
330
DC
100
AcDbEntity
  8
치수문자_일반주서
 62
     0
370
    -2
100
AcDbLine
 10
-36.87749999999999
 20
-3.968749999999994
 30
0.0
 11
-50.24499999999997
 21
-3.968750000000044
 31
0.0
  0
LINE
  5
E1
330
DC
100
AcDbEntity
  8
치수문자_일반주서
 62
     0
370
    -2
100
AcDbLine
 10
-50.24499999999998
 20
0.6667499999999422
 30
0.0
 11
-50.24499999999998
 21
-0.6667500000000444
 31
0.0
  0
SOLID
  5
E2
330
DC
100
AcDbEntity
  8
치수문자_일반주서
 62
     0
100
AcDbTrace
 10
-49.69466666666665
 20
0.6667499999999442
 30
0.0
 11
-50.79533333333332
 21
0.6667499999999402
 31
0.0
 12
-50.245
 22
3.968749999999942
 32
0.0
 13
-50.245
 23
3.968749999999942
 33
0.0
  0
SOLID
  5
E3
330
DC
100
AcDbEntity
  8
치수문자_일반주서
 62
     0
100
AcDbTrace
 10
-50.79533333333332
 20
-0.6667500000000464
 30
0.0
 11
-49.69466666666665
 21
-0.6667500000000424
 31
0.0
 12
-50.24499999999997
 22
-3.968750000000044
 32
0.0
 13
-50.24499999999997
 23
-3.968750000000044
 33
0.0
  0
MTEXT
  5
E4
330
DC
100
AcDbEntity
  8
치수문자_일반주서
 62
     0
100
AcDbMText
 10
-54.61999999999998
 20
-0.0000000000000216
 30
0.0
 40
3.5
 41
0.0
 71
     2
 72
     1
  1
\A1;%%c7.94 [5/16]
  7
SLDTEXTSTYLE0
 11
-3.580687802255629E-15
 21
1.0
 31
0.0
 73
     1
 44
1.0
  0
POINT
  5
E5
330
DC
100
AcDbEntity
  8
Defpoints
 62
     0
100
AcDbPoint
 10
-36.81499999999999
 20
3.968749999999992
 30
0.0
  0
POINT
  5
E6
330
DC
100
AcDbEntity
  8
Defpoints
 62
     0
100
AcDbPoint
 10
-36.81499999999999
 20
-3.968749999999994
 30
0.0
  0
POINT
  5
E7
330
DC
100
AcDbEntity
  8
Defpoints
 62
     0
100
AcDbPoint
 10
-50.24499999999997
 20
-3.968750000000044
 30
0.0
  0
ENDBLK
  5
DE
330
DC
100
AcDbEntity
  8
0
100
AcDbBlockEnd
  0
BLOCK
  5
F2
330
F1
100
AcDbEntity
  8
0
100
AcDbBlockBegin
  2
_D_1
 70
     0
 10
0.0
 20
0.0
 30
0.0
  3
_D_1
  1
_D_1
  0
LINE
  5
F4
330
F1
100
AcDbEntity
  8
치수문자_일반주서
 62
     0
370
    -2
100
AcDbLine
 10
38.6375
 20
3.968750000000005
 30
0.0
 11
60.18410508179954
 21
3.968750000000085
 31
0.0
  0
LINE
  5
F5
330
F1
100
AcDbEntity
  8
치수문자_일반주서
 62
     0
370
    -2
100
AcDbLine
 10
38.6375
 20
-3.968749999999999
 30
0.0
 11
60.18410508179957
 21
-3.968749999999918
 31
0.0
  0
LINE
  5
F6
330
F1
100
AcDbEntity
  8
치수문자_일반주서
 62
     0
370
    -2
100
AcDbLine
 10
60.18410508179954
 20
3.968750000000085
 30
0.0
 11
60.18410508179942
 21
38.57275000000008
 31
0.0
  0
LINE
  5
F7
330
F1
100
AcDbEntity
  8
치수문자_일반주서
 62
     0
370
    -2
100
AcDbLine
 10
60.18410508179954
 20
3.968750000000085
 30
0.0
 11
60.18410508179957
 21
-3.968749999999918
 31
0.0
  0
LINE
  5
F8
330
F1
100
AcDbEntity
  8
치수문자_일반주서
 62
     0
370
    -2
100
AcDbLine
 10
60.18410508179953
 20
7.270750000000085
 30
0.0
 11
60.18410508179952
 21
10.57275000000008
 31
0.0
  0
LINE
  5
F9
330
F1
100
AcDbEntity
  8
치수문자_일반주서
 62
     0
370
    -2
100
AcDbLine
 10
60.18410508179959
 20
-7.270749999999918
 30
0.0
 11
60.1841050817996
 21
-10.57274999999992
 31
0.0
  0
SOLID
  5
FA
330
F1
100
AcDbEntity
  8
치수문자_일반주서
 62
     0
100
AcDbTrace
 10
59.6337717484662
 20
7.270750000000083
 30
0.0
 11
60.73443841513286
 21
7.270750000000087
 31
0.0
 12
60.18410508179954
 22
3.968750000000085
 32
0.0
 13
60.18410508179954
 23
3.968750000000085
 33
0.0
  0
SOLID
  5
FB
330
F1
100
AcDbEntity
  8
치수문자_일반주서
 62
     0
100
AcDbTrace
 10
60.73443841513292
 20
-7.270749999999916
 30
0.0
 11
59.63377174846625
 21
-7.27074999999992
 31
0.0
 12
60.18410508179957
 22
-3.968749999999918
 32
0.0
 13
60.18410508179957
 23
-3.968749999999918
 33
0.0
  0
MTEXT
  5
FC
330
F1
100
AcDbEntity
  8
치수문자_일반주서
 62
     0
100
AcDbMText
 10
55.80910508179947
 20
24.57275000000007
 30
0.0
 40
3.5
 41
0.0
 71
     2
 72
     1
  1
\A1;%%c7.94 [5/16]
  7
SLDTEXTSTYLE0
 11
-3.580687802255621E-15
 21
1.0
 31
0.0
 73
     1
 44
1.0
  0
POINT
  5
FD
330
F1
100
AcDbEntity
  8
Defpoints
 62
     0
100
AcDbPoint
 10
38.575
 20
3.968750000000004
 30
0.0
  0
POINT
  5
FE
330
F1
100
AcDbEntity
  8
Defpoints
 62
     0
100
AcDbPoint
 10
38.575
 20
-3.968749999999999
 30
0.0
  0
POINT
  5
18B
330
F1
100
AcDbEntity
  8
Defpoints
 62
     0
100
AcDbPoint
 10
60.18410508179957
 20
-3.968749999999918
 30
0.0
  0
ENDBLK
  5
F3
330
F1
100
AcDbEntity
  8
0
100
AcDbBlockEnd
  0
BLOCK
  5
105
330
104
100
AcDbEntity
  8
0
100
AcDbBlockBegin
  2
_D_2
 70
     0
 10
0.0
 20
0.0
 30
0.0
  3
_D_2
  1
_D_2
  0
LINE
  5
107
330
104
100
AcDbEntity
  8
치수문자_일반주서
 62
     0
370
    -2
100
AcDbLine
 10
38.575
 20
4.031250000000004
 30
0.0
 11
38.575
 21
18.05202460514561
 31
0.0
  0
LINE
  5
108
330
104
100
AcDbEntity
  8
치수문자_일반주서
 62
     0
370
    -2
100
AcDbLine
 10
10.0
 20
2.854150978077134
 30
0.0
 11
9.999999999999998
 21
18.05202460514561
 31
0.0
  0
LINE
  5
109
330
104
100
AcDbEntity
  8
치수문자_일반주서
 62
     0
370
    -2
100
AcDbLine
 10
9.999999999999998
 20
18.05202460514561
 30
0.0
 11
-26.354
 21
18.05202460514561
 31
0.0
  0
LINE
  5
10A
330
104
100
AcDbEntity
  8
치수문자_일반주서
 62
     0
370
    -2
100
AcDbLine
 10
38.575
 20
18.05202460514561
 30
0.0
 11
9.999999999999998
 21
18.05202460514561
 31
0.0
  0
LINE
  5
10B
330
104
100
AcDbEntity
  8
치수문자_일반주서
 62
     0
370
    -2
100
AcDbLine
 10
41.877
 20
18.05202460514561
 30
0.0
 11
45.17899999999999
 21
18.05202460514561
 31
0.0
  0
LINE
  5
10C
330
104
100
AcDbEntity
  8
치수문자_일반주서
 62
     0
370
    -2
100
AcDbLine
 10
6.697999999999999
 20
18.05202460514561
 30
0.0
 11
3.395999999999999
 21
18.05202460514561
 31
0.0
  0
SOLID
  5
10D
330
104
100
AcDbEntity
  8
치수문자_일반주서
 62
     0
100
AcDbTrace
 10
41.877
 20
18.60235793847895
 30
0.0
 11
41.877
 21
17.50169127181228
 31
0.0
 12
38.575
 22
18.05202460514561
 32
0.0
 13
38.575
 23
18.05202460514561
 33
0.0
  0
SOLID
  5
10E
330
104
100
AcDbEntity
  8
치수문자_일반주서
 62
     0
100
AcDbTrace
 10
6.697999999999999
 20
17.50169127181228
 30
0.0
 11
6.697999999999999
 21
18.60235793847895
 31
0.0
 12
9.999999999999998
 22
18.05202460514561
 32
0.0
 13
9.999999999999998
 23
18.05202460514561
 33
0.0
  0
MTEXT
  5
10F
330
104
100
AcDbEntity
  8
치수문자_일반주서
 62
     0
100
AcDbMText
 10
-11.479
 20
22.42702460514561
 30
0.0
 40
3.5
 41
0.0
 71
     2
 72
     1
  1
\A1;28.58 [1 1/8]
  7
SLDTEXTSTYLE0
 73
     1
 44
1.0
  0
POINT
  5
110
330
104
100
AcDbEntity
  8
Defpoints
 62
     0
100
AcDbPoint
 10
38.575
 20
3.968750000000004
 30
0.0
  0
POINT
  5
18C
330
104
100
AcDbEntity
  8
Defpoints
 62
     0
100
AcDbPoint
 10
10.0
 20
2.791650978077134
 30
0.0
  0
POINT
  5
18D
330
104
100
AcDbEntity
  8
Defpoints
 62
     0
100
AcDbPoint
 10
10.0
 20
18.05202460514561
 30
0.0
  0
ENDBLK
  5
106
330
104
100
AcDbEntity
  8
0
100
AcDbBlockEnd
  0
BLOCK
  5
11A
330
119
100
AcDbEntity
  8
0
100
AcDbBlockBegin
  2
_D_3
 70
     0
 10
0.0
 20
0.0
 30
0.0
  3
_D_3
  1
_D_3
  0
LINE
  5
11C
330
119
100
AcDbEntity
  8
치수문자_일반주서
 62
     0
370
    -2
100
AcDbLine
 10
38.575
 20
4.031250000000004
 30
0.0
 11
38.57499999999999
 21
40.63405344013392
 31
0.0
  0
LINE
  5
11D
330
119
100
AcDbEntity
  8
치수문자_일반주서
 62
     0
370
    -2
100
AcDbLine
 10
-37.625
 20
3.221249999999994
 30
0.0
 11
-37.62500000000001
 21
40.63405344013392
 31
0.0
  0
LINE
  5
11E
330
119
100
AcDbEntity
  8
치수문자_일반주서
 62
     0
370
    -2
100
AcDbLine
 10
35.27299999999999
 20
40.63405344013392
 30
0.0
 11
-34.32300000000001
 21
40.63405344013392
 31
0.0
  0
SOLID
  5
11F
330
119
100
AcDbEntity
  8
치수문자_일반주서
 62
     0
100
AcDbTrace
 10
35.27299999999999
 20
40.08372010680058
 30
0.0
 11
35.27299999999999
 21
41.18438677346725
 31
0.0
 12
38.57499999999999
 22
40.63405344013392
 32
0.0
 13
38.57499999999999
 23
40.63405344013392
 33
0.0
  0
SOLID
  5
120
330
119
100
AcDbEntity
  8
치수문자_일반주서
 62
     0
100
AcDbTrace
 10
-34.32300000000001
 20
41.18438677346725
 30
0.0
 11
-34.32300000000001
 21
40.08372010680058
 31
0.0
 12
-37.62500000000001
 22
40.63405344013392
 32
0.0
 13
-37.62500000000001
 23
40.63405344013392
 33
0.0
  0
MTEXT
  5
121
330
119
100
AcDbEntity
  8
치수문자_일반주서
 62
     0
100
AcDbMText
 10
0.4750000000000014
 20
45.00905344013392
 30
0.0
 40
3.5
 41
0.0
 71
     2
 72
     1
  1
\A1;76.2 [3]
  7
SLDTEXTSTYLE0
 73
     1
 44
1.0
  0
POINT
  5
122
330
119
100
AcDbEntity
  8
Defpoints
 62
     0
100
AcDbPoint
 10
38.575
 20
3.968750000000004
 30
0.0
  0
POINT
  5
123
330
119
100
AcDbEntity
  8
Defpoints
 62
     0
100
AcDbPoint
 10
-37.625
 20
3.158749999999994
 30
0.0
  0
POINT
  5
124
330
119
100
AcDbEntity
  8
Defpoints
 62
     0
100
AcDbPoint
 10
-37.625
 20
40.63405344013392
 30
0.0
  0
ENDBLK
  5
11B
330
119
100
AcDbEntity
  8
0
100
AcDbBlockEnd
  0
BLOCK
  5
133
330
132
100
AcDbEntity
  8
0
100
AcDbBlockBegin
  2
SW_DOWELSYMBOL_0
 70
     0
 10
0.0
 20
0.0
 30
0.0
  3
SW_DOWELSYMBOL_0
  1
SW_DOWELSYMBOL_0
  0
CIRCLE
  5
135
330
132
100
AcDbEntity
  8
해칭선
 62
     0
100
AcDbCircle
 10
0.0
 20
0.0
 30
0.0
 40
3.000000000000002
  0
HATCH
  5
136
330
132
100
AcDbEntity
  8
0
  6
Continuous
 62
     0
370
     0
100
AcDbHatch
 10
0.0
 20
0.0
 30
0.0
210
0.0
220
0.0
230
1.0
  2
SOLID
 70
     1
 71
     0
 91
        1
 92
        0
 93
        3
 72
     2
 10
-0.0000000000000234
 20
0.0
 40
3.000000000000002
 50
0.0
 51
90.0
 73
     1
 72
     1
 10
-0.0000000000000234
 20
3.000000000000002
 11
-0.0000000000000234
 21
0.0
 72
     1
 10
-0.0000000000000234
 20
0.0
 11
2.999999999999979
 21
0.0
 97
        0
 75
     0
 76
     1
 98
        1
 10
0.0
 20
0.0
  0
HATCH
  5
137
330
132
100
AcDbEntity
  8
0
  6
Continuous
 62
     0
370
     0
100
AcDbHatch
 10
0.0
 20
0.0
 30
0.0
210
0.0
220
0.0
230
1.0
  2
SOLID
 70
     1
 71
     0
 91
        1
 92
        0
 93
        3
 72
     2
 10
-0.0000000000000234
 20
0.0
 40
3.000000000000002
 50
180.0
 51
270.0000000000008
 73
     1
 72
     1
 10
-0.0000000000000234
 20
-3.000000000000002
 11
-0.0000000000000234
 21
0.0
 72
     1
 10
-0.0000000000000234
 20
0.0
 11
-3.000000000000026
 21
0.0
 97
        0
 75
     0
 76
     1
 98
        1
 10
0.0
 20
0.0
  0
ENDBLK
  5
134
330
132
100
AcDbEntity
  8
0
100
AcDbBlockEnd
  0
ENDSEC
  0
SECTION
  2
ENTITIES
  0
LINE
  5
96
330
1F
100
AcDbEntity
  8
외형선
  6
Continuous
370
    15
100
AcDbLine
 10
8.480089995418888
 20
3.968749999999999
 30
0.0
 11
-36.815
 21
3.968749999999996
 31
0.0
  0
LINE
  5
97
330
1F
100
AcDbEntity
  8
외형선
  6
Continuous
370
    15
100
AcDbLine
 10
-36.815
 20
-3.968750000000004
 30
0.0
 11
8.480089995418888
 21
-3.968750000000001
 31
0.0
  0
LINE
  5
98
330
1F
100
AcDbEntity
  8
외형선
  6
Continuous
370
    15
100
AcDbLine
 10
-36.815
 20
3.968749999999992
 30
0.0
 11
-37.625
 21
3.158749999999993
 31
0.0
  0
LINE
  5
99
330
1F
100
AcDbEntity
  8
외형선
  6
Continuous
370
    15
100
AcDbLine
 10
-37.625
 20
-3.158750000000002
 30
0.0
 11
-36.815
 21
-3.968749999999999
 31
0.0
  0
SPLINE
  5
9A
330
1F
100
AcDbEntity
  8
외형선
  6
Continuous
370
    15
100
AcDbSpline
210
0.0
220
0.0
230
1.0
 70
     8
 71
     3
 72
     9
 73
     5
 74
     0
 42
0.000000001
 43
0.00000001
 40
0.0
 40
0.0
 40
0.0
 40
0.0
 40
0.4858620454032554
 40
1.0
 40
1.0
 40
1.0
 40
1.0
 10
8.780156841531987
 20
-2.951994720562532
 30
0.0
 10
8.977717475031632
 20
-2.923212693306367
 30
0.0
 10
9.3843362578091
 20
-2.863973599558521
 30
0.0
 10
9.790946329448753
 20
-2.816198277512186
 30
0.0
 10
10.0
 20
-2.791635171155082
 30
0.0
  0
SPLINE
  5
9B
330
1F
100
AcDbEntity
  8
외형선
  6
Continuous
370
    15
100
AcDbSpline
210
0.0
220
0.0
230
1.0
 70
     8
 71
     3
 72
     9
 73
     5
 74
     0
 42
0.000000001
 43
0.00000001
 40
0.0
 40
0.0
 40
0.0
 40
0.0
 40
0.4684790943402689
 40
1.0
 40
1.0
 40
1.0
 40
1.0
 10
10.0
 20
2.791650877494707
 30
0.0
 10
9.796342392422039
 20
2.815617211197775
 30
0.0
 10
9.361621590494345
 20
2.866774955465571
 30
0.0
 10
8.93442808676015
 20
2.929645951156648
 30
0.0
 10
8.707365808763395
 20
2.9630631997261
 30
0.0
  0
LINE
  5
9C
330
1F
100
AcDbEntity
  8
0
  6
Continuous
 62
     1
370
    15
100
AcDbLine
 10
26.13031544227809
 20
1.099799576897341
 30
0.0
 11
26.05509367477651
 21
1.141036617462487
 31
0.0
  0
LINE
  5
9D
330
1F
100
AcDbEntity
  8
0
  6
Continuous
 62
     1
370
    15
100
AcDbLine
 10
27.22887531863332
 20
1.548373220200587
 30
0.0
 11
27.19100926433958
 21
1.567809655621396
 31
0.0
  0
SPLINE
  5
9E
330
1F
100
AcDbEntity
  8
0
  6
Continuous
 62
     1
370
    15
100
AcDbSpline
210
0.0
220
0.0
230
1.0
 70
     8
 71
     3
 72
     9
 73
     5
 74
     0
 42
0.000000001
 43
0.00000001
 40
0.0
 40
0.0
 40
0.0
 40
0.0
 40
0.4525614051892138
 40
1.0
 40
1.0
 40
1.0
 40
1.0
 10
28.2936110288023
 20
1.016994020878989
 30
0.0
 10
28.13298468512057
 20
1.093252477074724
 30
0.0
 10
27.7780575043227
 20
1.261756585735627
 30
0.0
 10
27.42315994164653
 20
1.446976623174338
 30
0.0
 10
27.22887531863332
 20
1.548373220200587
 30
0.0
  0
LINE
  5
9F
330
1F
100
AcDbEntity
  8
0
  6
Continuous
 62
     1
370
    15
100
AcDbLine
 10
19.18434627166774
 20
3.968750000000002
 30
0.0
 11
17.26205446106691
 21
3.968750000000002
 31
0.0
  0
LINE
  5
A0
330
1F
100
AcDbEntity
  8
0
  6
Continuous
 62
     1
370
    15
100
AcDbLine
 10
17.26205446106689
 20
-3.968750000000004
 30
0.0
 11
19.18434627166773
 21
-3.968750000000004
 31
0.0
  0
SPLINE
  5
A1
330
1F
100
AcDbEntity
  8
0
  6
Continuous
 62
     1
370
    15
100
AcDbSpline
210
0.0
220
0.0
230
1.0
 70
     8
 71
     3
 72
    15
 73
    11
 74
     0
 42
0.000000001
 43
0.00000001
 40
0.0
 40
0.0
 40
0.0
 40
0.0
 40
0.2278488254714941
 40
0.3959543893539522
 40
0.5052620895679111
 40
0.6015855277748209
 40
0.7071723402949119
 40
0.8022031484169834
 40
0.8896795099366553
 40
1.0
 40
1.0
 40
1.0
 40
1.0
 10
26.98078894479424
 20
3.153722007690807
 30
0.0
 10
26.73726583336004
 20
3.141961548443888
 30
0.0
 10
26.3140727592594
 20
3.121524289441125
 30
0.0
 10
25.7715880335809
 20
3.107052850646697
 30
0.0
 10
25.36334139651808
 20
3.101015608725511
 30
0.0
 10
25.02372333263948
 20
3.098966367676792
 30
0.0
 10
24.70306095550651
 20
3.099790181885862
 30
0.0
 10
24.39191135393781
 20
3.10335785281412
 30
0.0
 10
24.07543185984093
 20
3.109214907328719
 30
0.0
 10
23.86202481467802
 20
3.115731846447024
 30
0.0
 10
23.74299779469808
 20
3.119366646048182
 30
0.0
  0
SPLINE
  5
A2
330
1F
100
AcDbEntity
  8
0
  6
Continuous
 62
     1
370
    15
100
AcDbSpline
210
0.0
220
0.0
230
1.0
 70
     8
 71
     3
 72
    22
 73
    18
 74
     0
 42
0.000000001
 43
0.00000001
 40
0.0
 40
0.0
 40
0.0
 40
0.0
 40
0.1084184779978791
 40
0.1978844399924242
 40
0.2729055731617934
 40
0.3380873379746074
 40
0.3948577248122539
 40
0.4546322340805766
 40
0.5245702163498007
 40
0.5963827675454797
 40
0.6607177513785732
 40
0.6847086015345661
 40
0.7104691427412586
 40
0.7544290682148889
 40
0.8174983039797169
 40
0.8995970822795567
 40
1.0
 40
1.0
 40
1.0
 40
1.0
 10
21.01148393935402
 20
-3.302557323146738
 30
0.0
 10
21.21943058652302
 20
-3.282234676010082
 30
0.0
 10
21.59897295405329
 20
-3.245141961538669
 30
0.0
 10
22.14823880342449
 20
-3.201733087209969
 30
0.0
 10
22.61319864107031
 20
-3.171990924942361
 30
0.0
 10
23.01400725109734
 20
-3.148750511321848
 30
0.0
 10
23.37228602413955
 20
-3.132455273911105
 30
0.0
 10
23.73532646279094
 20
-3.118786822480105
 30
0.0
 10
24.13555730530343
 20
-3.107630132496338
 30
0.0
 10
24.54684186262234
 20
-3.100909010734641
 30
0.0
 10
24.86865784727654
 20
-3.099164114781084
 30
0.0
 10
25.09613446194313
 20
-3.099531904257105
 30
0.0
 10
25.28212093603271
 20
-3.100570275458559
 30
0.0
 10
25.54674859099952
 20
-3.103525704978227
 30
0.0
 10
25.92400773160809
 20
-3.111046052788426
 30
0.0
 10
26.4146604650962
 20
-3.125933957457513
 30
0.0
 10
26.77986980666235
 20
-3.143860021757479
 30
0.0
 10
26.98078894479424
 20
-3.153722007690809
 30
0.0
  0
SPLINE
  5
A3
330
1F
100
AcDbEntity
  8
0
  6
Continuous
 62
     1
370
    15
100
AcDbSpline
210
0.0
220
0.0
230
1.0
 70
     8
 71
     3
 72
    16
 73
    12
 74
     0
 42
0.000000001
 43
0.00000001
 40
0.0
 40
0.0
 40
0.0
 40
0.0
 40
0.1645162842569251
 40
0.2935601863167578
 40
0.3980018835661364
 40
0.5029462390562762
 40
0.6059022701865941
 40
0.6944196545311179
 40
0.8234338314200493
 40
0.9838112323740582
 40
1.0
 40
1.0
 40
1.0
 40
1.0
 10
30.16755057017929
 20
-2.985036008599218
 30
0.0
 10
30.32740569732121
 20
-2.960367614515047
 30
0.0
 10
30.61264859056687
 20
-2.916349732661023
 30
0.0
 10
31.0076338951168
 20
-2.862573156627431
 30
0.0
 10
31.34955765021615
 20
-2.819798333389405
 30
0.0
 10
31.66162824172366
 20
-2.783766847820058
 30
0.0
 10
31.95516859772815
 20
-2.752794169554978
 30
0.0
 10
32.27292953955862
 20
-2.722305590230983
 30
0.0
 10
32.6480453910093
 20
-2.691322869154959
 30
0.0
 10
32.95137152526491
 20
-2.668686378642278
 30
0.0
 10
33.1264790662497
 20
-2.659861729561533
 30
0.0
 10
33.14253409713898
 20
-2.659052626693766
 30
0.0
  0
SPLINE
  5
A4
330
1F
100
AcDbEntity
  8
0
  6
Continuous
 62
     1
370
    15
100
AcDbSpline
210
0.0
220
0.0
230
1.0
 70
     8
 71
     3
 72
    11
 73
     7
 74
     0
 42
0.000000001
 43
0.00000001
 40
0.0
 40
0.0
 40
0.0
 40
0.0
 40
0.2794312947698588
 40
0.4885007283577792
 40
0.7054152057189901
 40
0.9999999999999999
 40
0.9999999999999999
 40
0.9999999999999999
 40
0.9999999999999999
 10
15.50396457558001
 20
2.714426551478071
 30
0.0
 10
14.99091860598694
 20
2.678061990855943
 30
0.0
 10
14.09401359027045
 20
2.614489604073173
 30
0.0
 10
12.80091197745739
 20
2.60658793591069
 30
0.0
 10
11.47900042433616
 20
2.647608304988944
 30
0.0
 10
10.54050322312916
 20
2.739010274134417
 30
0.0
 10
9.999999999999938
 20
2.791650877494714
 30
0.0
  0
SPLINE
  5
A5
330
1F
100
AcDbEntity
  8
0
  6
Continuous
 62
     1
370
    15
100
AcDbSpline
210
0.0
220
0.0
230
1.0
 70
     8
 71
     3
 72
    10
 73
     6
 74
     0
 42
0.000000001
 43
0.00000001
 40
0.0
 40
0.0
 40
0.0
 40
0.0
 40
0.4362277074408106
 40
0.7902921235107399
 40
1.0
 40
1.0
 40
1.0
 40
1.0
 10
9.999999999999938
 20
-2.791650877494716
 30
0.0
 10
10.22079989373962
 20
-2.768180073823429
 30
0.0
 10
10.62081212111094
 20
-2.725659181735432
 30
0.0
 10
11.12676753529404
 20
-2.684830902061615
 30
0.0
 10
11.41198027877263
 20
-2.667381557595536
 30
0.0
 10
11.51807162020955
 20
-2.660890878606151
 30
0.0
  0
SPLINE
  5
A6
330
1F
100
AcDbEntity
  8
0
  6
Continuous
 62
     1
370
    15
100
AcDbSpline
210
0.0
220
0.0
230
1.0
 70
     8
 71
     3
 72
    23
 73
    19
 74
     0
 42
0.000000001
 43
0.00000001
 40
0.0
 40
0.0
 40
0.0
 40
0.0
 40
0.096942748813142
 40
0.1718253120326326
 40
0.2379640523232748
 40
0.2942460043595537
 40
0.3501981747991202
 40
0.4222183574010338
 40
0.491686525482768
 40
0.5491959812182181
 40
0.6026997232523871
 40
0.670895671496132
 40
0.7402314955662658
 40
0.7791278945510534
 40
0.810137558792912
 40
0.8469658157711631
 40
0.910372050589989
 40
1.0
 40
1.0
 40
1.0
 40
1.0
 10
37.09955493254346
 20
2.714430144630628
 30
0.0
 10
36.88254815822427
 20
2.696875451123644
 30
0.0
 10
36.49791643313817
 20
2.665760790910232
 30
0.0
 10
35.93225108817363
 20
2.636883079526161
 30
0.0
 10
35.47407605615624
 20
2.620695247007386
 30
0.0
 10
35.06267597856082
 20
2.612740748564224
 30
0.0
 10
34.6362882020321
 20
2.610668370063749
 30
0.0
 10
34.17985078153897
 20
2.615946925964932
 30
0.0
 10
33.71986396994112
 20
2.629597784118341
 30
0.0
 10
33.30286087346934
 20
2.648839945022258
 30
0.0
 10
32.88843236275495
 20
2.673629087647342
 30
0.0
 10
32.44695717798053
 20
2.706637033606435
 30
0.0
 10
32.03903948118447
 20
2.744062447264495
 30
0.0
 10
31.71730485363507
 20
2.777878331934692
 30
0.0
 10
31.47322263583961
 20
2.805349852325039
 30
0.0
 10
31.17220734405652
 20
2.841516029753715
 30
0.0
 10
30.73165575677027
 20
2.898898988324571
 30
0.0
 10
30.37590442567183
 20
2.953221055109212
 30
0.0
 10
30.16755057017929
 20
2.985036008599216
 30
0.0
  0
SPLINE
  5
A7
330
1F
100
AcDbEntity
  8
외형선
  6
Continuous
370
    15
100
AcDbSpline
210
0.0
220
0.0
230
1.0
 70
     8
 71
     3
 72
    10
 73
     6
 74
     0
 42
0.000000001
 43
0.00000001
 40
0.0
 40
0.0
 40
0.0
 40
0.0
 40
0.5
 40
0.5
 40
1.0
 40
1.0
 40
1.0
 40
1.0
 10
9.99999999999548
 20
-0.9218523851557784
 30
0.0
 10
9.746793044369003
 20
-0.7796385863836568
 30
0.0
 10
9.492069270717494
 20
-0.6352591407068627
 30
0.0
 10
8.984247409315321
 20
-0.34480266078377
 30
0.0
 10
8.732747067962556
 20
-0.1990376660897424
 30
0.0
 10
8.480184126253262
 20
-0.0529618052939374
 30
0.0
  0
LINE
  5
A8
330
1F
100
AcDbEntity
  8
외형선
  6
Continuous
370
    15
100
AcDbLine
 10
10.0
 20
-0.9218523851583168
 30
0.0
 11
10.0
 21
-1.952111356619394
 31
0.0
  0
SPLINE
  5
A9
330
1F
100
AcDbEntity
  8
외형선
  6
Continuous
370
    15
100
AcDbSpline
210
0.0
220
0.0
230
1.0
 70
     8
 71
     3
 72
    10
 73
     6
 74
     0
 42
0.000000001
 43
0.00000001
 40
0.0
 40
0.0
 40
0.0
 40
0.0
 40
0.5000000000000001
 40
0.5000000000000001
 40
1.0
 40
1.0
 40
1.0
 40
1.0
 10
9.99999999999548
 20
-1.952111356617118
 30
0.0
 10
9.746777315907366
 20
-1.824800601567409
 30
0.0
 10
9.492037625272467
 20
-1.693249436310555
 30
0.0
 10
8.984184421636336
 20
-1.42405372308887
 30
0.0
 10
8.732669107994795
 20
-1.286709899474429
 30
0.0
 10
8.480089995418886
 20
-1.146844618545541
 30
0.0
  0
LINE
  5
AA
330
1F
100
AcDbEntity
  8
외형선
  6
Continuous
370
    15
100
AcDbLine
 10
8.480089995418888
 20
-3.968750000000001
 30
0.0
 11
8.480089995418886
 21
-1.146848619534269
 31
0.0
  0
LINE
  5
AB
330
1F
100
AcDbEntity
  8
외형선
  6
Continuous
370
    15
100
AcDbLine
 10
-36.815
 20
3.968749999999992
 30
0.0
 11
-36.815
 21
-3.968750000000004
 31
0.0
  0
LINE
  5
AC
330
1F
100
AcDbEntity
  8
외형선
  6
Continuous
370
    15
100
AcDbLine
 10
8.480089995418888
 20
-0.0527917309306229
 30
0.0
 11
8.480089995418888
 21
3.968749999999999
 31
0.0
  0
SPLINE
  5
AD
330
1F
100
AcDbEntity
  8
외형선
  6
Continuous
370
    15
100
AcDbSpline
210
0.0
220
0.0
230
1.0
 70
    24
 71
     3
 72
     8
 73
     4
 74
     0
 42
0.000000001
 43
0.00000001
 40
0.0
 40
0.0
 40
0.0
 40
0.0
 40
1.0
 40
1.0
 40
1.0
 40
1.0
 10
10.00000000000044
 20
-0.5843873609529774
 30
0.0
 10
10.00000000000044
 20
-0.6819612000065152
 30
0.0
 10
10.00000000000044
 20
-0.7951063270106167
 30
0.0
 10
10.00000000000044
 20
-0.9218523851578593
 30
0.0
  0
SPLINE
  5
AE
330
1F
100
AcDbEntity
  8
외형선
  6
Continuous
370
    15
100
AcDbSpline
210
0.0
220
0.0
230
1.0
 70
     8
 71
     3
 72
    10
 73
     6
 74
     0
 42
0.000000001
 43
0.00000001
 40
0.0
 40
0.0
 40
0.0
 40
0.0
 40
0.5
 40
0.5
 40
1.0
 40
1.0
 40
1.0
 40
1.0
 10
9.999999999992522
 20
-0.5843873609491489
 30
0.0
 10
9.746793044366527
 20
-0.4619854843640455
 30
0.0
 10
9.492069270715515
 20
-0.3381465470326355
 30
0.0
 10
8.984247409314339
 20
-0.0898558950100738
 30
0.0
 10
8.732747067962064
 20
0.034331204273009
 30
0.0
 10
8.480184126253262
 20
0.1583698299727692
 30
0.0
  0
LINE
  5
AF
330
1F
100
AcDbEntity
  8
외형선
  6
Continuous
370
    15
100
AcDbLine
 10
-37.625
 20
3.158749999999994
 30
0.0
 11
-37.625
 21
-3.158750000000004
 31
0.0
  0
SPLINE
  5
B0
330
1F
100
AcDbEntity
  8
외형선
  6
Continuous
370
    15
100
AcDbSpline
210
0.0
220
0.0
230
1.0
 70
     8
 71
     3
 72
    10
 73
     6
 74
     0
 42
0.000000001
 43
0.00000001
 40
0.0
 40
0.0
 40
0.0
 40
0.0
 40
0.5
 40
0.5
 40
1.0
 40
1.0
 40
1.0
 40
1.0
 10
9.9999999999913
 20
2.697841651888225
 30
0.0
 10
9.74678306201891
 20
2.759515941979967
 30
0.0
 10
9.492049186374201
 20
2.815803244597407
 30
0.0
 10
8.984207433062782
 20
2.916542505135755
 30
0.0
 10
8.732697589310405
 20
2.960917722011057
 30
0.0
 10
8.480124384473832
 20
2.999262437765203
 30
0.0
  0
SPLINE
  5
B1
330
1F
100
AcDbEntity
  8
외형선
  6
Continuous
370
    15
100
AcDbSpline
210
0.0
220
0.0
230
1.0
 70
    24
 71
     3
 72
    14
 73
    10
 74
     0
 42
0.000000001
 43
0.00000001
 40
0.0
 40
0.0
 40
0.0
 40
0.0
 40
0.25
 40
0.25
 40
0.5
 40
0.5
 40
0.75
 40
0.75
 40
1.0
 40
1.0
 40
1.0
 40
1.0
 10
10.0
 20
2.697841651886105
 30
0.0
 10
10.0
 20
2.507487073207881
 30
0.0
 10
10.0
 20
2.287125238442933
 30
0.0
 10
10.0
 20
1.796015462901629
 30
0.0
 10
10.0
 20
1.525345590297731
 30
0.0
 10
10.0
 20
0.9516947489146844
 30
0.0
 10
10.0
 20
0.6488794330847262
 30
0.0
 10
10.0
 20
0.0337142320782308
 30
0.0
 10
10.0
 20
-0.278459898500478
 30
0.0
 10
10.0
 20
-0.5843873609527652
 30
0.0
  0
ARC
  5
B2
330
1F
100
AcDbEntity
  8
외형선
  6
Continuous
370
    15
100
AcDbCircle
 10
8.830089969654194
 20
-3.299219817892936
 30
0.0
 40
0.3499999742353065
100
AcDbArc
 50
98.62314150960195
 51
179.9999975291399
  0
SPLINE
  5
B3
330
1F
100
AcDbEntity
  8
외형선
  6
Continuous
370
    15
100
AcDbSpline
210
0.0
220
0.0
230
1.0
 70
    24
 71
     3
 72
    11
 73
     7
 74
     0
 42
0.000000001
 43
0.00000001
 40
0.0
 40
0.0
 40
0.0
 40
0.0
 40
0.235009114290063
 40
0.5075512985655937
 40
0.7879972246484378
 40
1.0
 40
1.0
 40
1.0
 40
1.0
 10
10.0
 20
-2.00469017494134
 30
0.0
 10
10.0
 20
-2.119713467743021
 30
0.0
 10
10.0
 20
-2.368130308098957
 30
0.0
 10
10.0
 20
-2.617790038391998
 30
0.0
 10
10.0
 20
-2.774103905104875
 30
0.0
 10
10.0
 20
-2.778716926958714
 30
0.0
 10
10.0
 20
-2.780702866677761
 30
0.0
  0
SPLINE
  5
B4
330
1F
100
AcDbEntity
  8
외형선
  6
Continuous
370
    15
100
AcDbSpline
210
0.0
220
0.0
230
1.0
 70
    24
 71
     3
 72
     9
 73
     5
 74
     0
 42
0.000000001
 43
0.00000001
 40
0.0
 40
0.0
 40
0.0
 40
0.0
 40
0.1914878797744341
 40
1.0
 40
1.0
 40
1.0
 40
1.0
 10
10.0
 20
2.780344262142566
 30
0.0
 10
10.0
 20
2.783674442981693
 30
0.0
 10
10.0
 20
2.80106552195259
 30
0.0
 10
10.0
 20
2.743988840567888
 30
0.0
 10
10.0
 20
2.697841651886105
 30
0.0
  0
SPLINE
  5
B5
330
1F
100
AcDbEntity
  8
0
  6
Continuous
 62
     1
370
    15
100
AcDbSpline
210
0.0
220
0.0
230
1.0
 70
     8
 71
     3
 72
    25
 73
    21
 74
     0
 42
0.000000001
 43
0.00000001
 40
0.0
 40
0.0
 40
0.0
 40
0.0
 40
0.0546635333556528
 40
0.1101340299375236
 40
0.1656041640056434
 40
0.221215874992096
 40
0.2768348445746033
 40
0.3324648079414655
 40
0.3881094732799036
 40
0.4437648870546556
 40
0.4994056472891883
 40
0.5550326020758307
 40
0.6106494669836977
 40
0.6662599823785824
 40
0.7218679042623125
 40
0.7774769950304029
 40
0.8330910141962579
 40
0.8887137091304516
 40
0.9443488058635067
 40
1.0
 40
1.0
 40
1.0
 40
1.0
 10
11.52287275941503
 20
2.662734063859825
 30
0.0
 10
12.01577569106402
 20
2.862217459252821
 30
0.0
 10
13.00885796910358
 20
3.264129097443314
 30
0.0
 10
14.50208108951224
 20
3.680670253636549
 30
0.0
 10
16.00385252105682
 20
3.93412274753233
 30
0.0
 10
17.50699162606345
 20
3.997904117294441
 30
0.0
 10
19.01160854400876
 20
3.871615131869325
 30
0.0
 10
20.51658279777977
 20
3.560328950083707
 30
0.0
 10
22.0219650508821
 20
3.079096384592697
 30
0.0
 10
23.52754351895705
 20
2.450941882457613
 30
0.0
 10
25.03283544715332
 20
1.705694803935606
 30
0.0
 10
26.53771380917392
 20
0.8790955168653737
 30
0.0
 10
28.04226251247642
 20
0.0105925815819503
 30
0.0
 10
29.54660584404935
 20
-0.8583565489627942
 30
0.0
 10
31.05086482038421
 20
-1.686397983906468
 30
0.0
 10
32.55516191423276
 20
-2.433708765301972
 30
0.0
 10
34.05961834995905
 20
-3.065875745760309
 30
0.0
 10
35.56435830073156
 20
-3.548112513220743
 30
0.0
 10
37.06949290744256
 20
-3.874603298977719
 30
0.0
 10
38.07311591160159
 20
-3.935128629986703
 30
0.0
 10
38.575
 20
-3.968749999999996
 30
0.0
  0
SPLINE
  5
B6
330
1F
100
AcDbEntity
  8
0
  6
Continuous
 62
     1
370
    15
100
AcDbSpline
210
0.0
220
0.0
230
1.0
 70
     8
 71
     3
 72
    17
 73
    13
 74
     0
 42
0.000000001
 43
0.00000001
 40
0.0
 40
0.0
 40
0.0
 40
0.0
 40
0.0510237633799817
 40
0.164867364460774
 40
0.2787334308484465
 40
0.3926302332569729
 40
0.5065596549271338
 40
0.6204651454236252
 40
0.7343379057995238
 40
0.8481861899476963
 40
0.9620183133279011
 40
1.0
 40
1.0
 40
1.0
 40
1.0
 10
28.71662591243522
 20
-0.3759371020315203
 30
0.0
 10
28.49185831765208
 20
-0.2864754005852751
 30
0.0
 10
27.76559199558337
 20
0.0025921624593922
 30
0.0
 10
26.53771028347111
 20
0.5032205027750394
 30
0.0
 10
25.03283007011006
 20
1.08868195553418
 30
0.0
 10
23.52753397812167
 20
1.623252539104063
 30
0.0
 10
22.02199321818402
 20
2.08013751979111
 30
0.0
 10
20.51661385478997
 20
2.437228588906169
 30
0.0
 10
19.01163632357621
 20
2.680318184646163
 30
0.0
 10
17.50701639522681
 20
2.786544085678122
 30
0.0
 10
16.33672821071828
 20
2.791610189557249
 30
0.0
 10
15.66796911460973
 20
2.718172337458302
 30
0.0
 10
15.50065496552962
 20
2.699799216545697
 30
0.0
  0
SPLINE
  5
B7
330
1F
100
AcDbEntity
  8
0
  6
Continuous
 62
     1
370
    15
100
AcDbSpline
210
0.0
220
0.0
230
1.0
 70
     8
 71
     3
 72
    20
 73
    16
 74
     0
 42
0.000000001
 43
0.00000001
 40
0.0
 40
0.0
 40
0.0
 40
0.0
 40
0.0776406717212751
 40
0.1552588841954254
 40
0.2328597937576922
 40
0.3104485991959571
 40
0.3880305290727788
 40
0.4656108288920803
 40
0.5431947481772506
 40
0.6207875275282067
 40
0.6983943857251526
 40
0.7760205069463556
 40
0.8536670679115428
 40
0.9312986231723609
 40
1.0
 40
1.0
 40
1.0
 40
1.0
 10
38.575
 20
-3.766109074764105
 30
0.0
 10
38.07311747885711
 20
-3.657303695146723
 30
0.0
 10
37.06949761696862
 20
-3.439724410226325
 30
0.0
 10
35.56436773863355
 20
-2.9009392134857
 30
0.0
 10
34.0596325328157
 20
-2.236640286780258
 30
0.0
 10
32.55518084800284
 20
-1.462180761096561
 30
0.0
 10
31.05088850057531
 20
-0.6188991942402806
 30
0.0
 10
29.54663425228663
 20
0.2541639289016269
 30
0.0
 10
28.04229562998774
 20
1.115023405919813
 30
0.0
 10
26.53775156648969
 20
1.922817635614281
 30
0.0
 10
25.03287791236202
 20
2.638545360981828
 30
0.0
 10
23.52759024037391
 20
3.229650402652188
 30
0.0
 10
22.02201772252393
 20
3.661752804612044
 30
0.0
 10
20.57422714879788
 20
3.926344615803578
 30
0.0
 10
19.62839973628256
 20
3.948643679431249
 30
0.0
 10
19.18434627166774
 20
3.959112794970205
 30
0.0
  0
SPLINE
  5
B8
330
1F
100
AcDbEntity
  8
0
  6
Continuous
 62
     1
370
    15
100
AcDbSpline
210
0.0
220
0.0
230
1.0
 70
     8
 71
     3
 72
    16
 73
    12
 74
     0
 42
0.000000001
 43
0.00000001
 40
0.0
 40
0.0
 40
0.0
 40
0.0
 40
0.1218030806598279
 40
0.2434175601064726
 40
0.3650248073226834
 40
0.4868063112211402
 40
0.608629775084101
 40
0.7302526347477674
 40
0.8518537984803348
 40
0.9736148560965615
 40
1.0
 40
1.0
 40
1.0
 40
1.0
 10
38.575
 20
-3.131233674211359
 30
0.0
 10
38.15659719457778
 20
-3.044857215211755
 30
0.0
 10
37.32043944318213
 20
-2.872238043459928
 30
0.0
 10
36.06698422581204
 20
-2.489816441811413
 30
0.0
 10
34.81360377439742
 20
-2.032168778775674
 30
0.0
 10
33.55913682328011
 20
-1.505334171319173
 30
0.0
 10
32.30448997315643
 20
-0.9295638761783865
 30
0.0
 10
31.05095190266184
 20
-0.3212967751919464
 30
0.0
 10
29.79763803768552
 20
0.2943552158440386
 30
0.0
 10
28.87111567304131
 20
0.7504041632719637
 30
0.0
 10
28.36222609620815
 20
0.9824212613624758
 30
0.0
 10
28.27159181346605
 20
1.023743984850352
 30
0.0
  0
LINE
  5
B9
330
1F
100
AcDbEntity
  8
0
  6
Continuous
 62
     1
370
    15
100
AcDbLine
 10
38.575
 20
-3.766109074764107
 30
0.0
 11
38.575
 21
-3.131233674211359
 31
0.0
  0
LINE
  5
BA
330
1F
100
AcDbEntity
  8
0
  6
Continuous
 62
     1
370
    15
100
AcDbLine
 10
38.575
 20
-3.968749999999999
 30
0.0
 11
38.575
 21
-3.766109074764106
 31
0.0
  0
SPLINE
  5
BB
330
1F
100
AcDbEntity
  8
0
  6
Continuous
 62
     1
370
    15
100
AcDbSpline
210
0.0
220
0.0
230
1.0
 70
     8
 71
     3
 72
    17
 73
    13
 74
     0
 42
0.000000001
 43
0.00000001
 40
0.0
 40
0.0
 40
0.0
 40
0.0
 40
0.0156790376820613
 40
0.1252308478691014
 40
0.234761486454253
 40
0.3442631865551953
 40
0.4537432480539489
 40
0.5632090239808646
 40
0.6723977573433811
 40
0.7815872067556959
 40
0.8907853143740887
 40
1.0
 40
1.0
 40
1.0
 40
1.0
 10
23.74319506843976
 20
-3.119289927488841
 30
0.0
 10
23.67136418165832
 20
-3.147620413356155
 30
0.0
 10
23.09764001329808
 20
-3.373900293387726
 30
0.0
 10
22.02201045346988
 20
-3.656098636234872
 30
0.0
 10
20.51664098202891
 20
-3.928049103273851
 30
0.0
 10
19.01166944760834
 20
-3.998683701718602
 30
0.0
 10
17.50705801145838
 20
-3.882165069557884
 30
0.0
 10
16.00391582162522
 20
-3.579580838754595
 30
0.0
 10
14.5021351512368
 20
-3.107425010363015
 30
0.0
 10
13.00157467861662
 20
-2.487186105333376
 30
0.0
 10
11.50087703004225
 20
-1.751966554052441
 30
0.0
 10
10.50031765822419
 20
-1.19857110942855
 30
0.0
 10
9.99999999999553
 20
-0.9218523851558091
 30
0.0
  0
SPLINE
  5
BC
330
1F
100
AcDbEntity
  8
외형선
  6
Continuous
370
    15
100
AcDbSpline
210
0.0
220
0.0
230
1.0
 70
    24
 71
     3
 72
     8
 73
     4
 74
     0
 42
0.000000001
 43
0.00000001
 40
0.0
 40
0.0
 40
0.0
 40
0.0
 40
1.0
 40
1.0
 40
1.0
 40
1.0
 10
10.00000000000044
 20
-0.5843873609529774
 30
0.0
 10
10.00000000000044
 20
-0.6819612000065153
 30
0.0
 10
10.00000000000044
 20
-0.7951063270106167
 30
0.0
 10
10.00000000000044
 20
-0.9218523851578596
 30
0.0
  0
SPLINE
  5
BD
330
1F
100
AcDbEntity
  8
0
  6
Continuous
 62
     1
370
    15
100
AcDbSpline
210
0.0
220
0.0
230
1.0
 70
     8
 71
     3
 72
    16
 73
    12
 74
     0
 42
0.000000001
 43
0.00000001
 40
0.0
 40
0.0
 40
0.0
 40
0.0
 40
0.1131194144013593
 40
0.2270116572226992
 40
0.3410348325796038
 40
0.4548628083566566
 40
0.5686299030909444
 40
0.6825061998885551
 40
0.7965352725103718
 40
0.8982842520501545
 40
1.0
 40
1.0
 40
1.0
 40
1.0
 10
21.01156578265585
 20
-3.302236247074085
 30
0.0
 10
20.59641494225762
 20
-3.33346616262601
 30
0.0
 10
19.76327696346814
 20
-3.396139355568935
 30
0.0
 10
18.51147360484637
 20
-3.348330036293655
 30
0.0
 10
17.25665555980977
 20
-3.197529487519588
 30
0.0
 10
16.00286828519491
 20
-2.938229702392556
 30
0.0
 10
14.74966170846038
 20
-2.581964904490676
 30
0.0
 10
13.49557858780551
 20
-2.139863810511716
 30
0.0
 10
12.28506518641949
 20
-1.645358402589462
 30
0.0
 10
11.11998778522591
 20
-1.12161476865101
 30
0.0
 10
10.37328860932171
 20
-0.7634436636683664
 30
0.0
 10
9.999999999999982
 20
-0.5843873609527549
 30
0.0
  0
SPLINE
  5
BE
330
1F
100
AcDbEntity
  8
0
  6
Continuous
 62
     1
370
    15
100
AcDbSpline
210
0.0
220
0.0
230
1.0
 70
     8
 71
     3
 72
    12
 73
     8
 74
     0
 42
0.000000001
 43
0.00000001
 40
0.0
 40
0.0
 40
0.0
 40
0.0
 40
0.2066740344748937
 40
0.4133166916591417
 40
0.619942963863497
 40
0.8265678857128061
 40
1.0
 40
1.0
 40
1.0
 40
1.0
 10
9.99999999999548
 20
-1.952111356617121
 30
0.0
 10
10.50031176148184
 20
-2.194549879732819
 30
0.0
 10
11.50085932702916
 20
-2.679390118902202
 30
0.0
 10
13.0015390088707
 20
-3.255930228353318
 30
0.0
 10
14.50208246725671
 20
-3.679266874707094
 30
0.0
 10
15.92222597036044
 20
-3.931412940946545
 30
0.0
 10
16.84222818669898
 20
-3.948174618965491
 30
0.0
 10
17.2620544610669
 20
-3.955823505794108
 30
0.0
  0
SPLINE
  5
BF
330
1F
100
AcDbEntity
  8
0
  6
Continuous
 62
     1
370
    15
100
AcDbSpline
210
0.0
220
0.0
230
1.0
 70
     8
 71
     3
 72
    11
 73
     7
 74
     0
 42
0.000000001
 43
0.00000001
 40
0.0
 40
0.0
 40
0.0
 40
0.0
 40
0.1687523877044361
 40
0.4457670261365418
 40
0.7228434285632109
 40
1.0
 40
1.0
 40
1.0
 40
1.0
 10
33.1429354953034
 20
2.65921974575804
 30
0.0
 10
33.44847163202962
 20
2.791144924807784
 30
0.0
 10
34.2555590866038
 20
3.139631222024123
 30
0.0
 10
35.56435927125251
 20
3.544611533755709
 30
0.0
 10
37.06949266470787
 20
3.87547892062547
 30
0.0
 10
38.07311583068221
 20
3.935420532014024
 30
0.0
 10
38.575
 20
3.968750000000004
 30
0.0
  0
SPLINE
  5
C0
330
1F
100
AcDbEntity
  8
0
  6
Continuous
 62
     1
370
    15
100
AcDbSpline
210
0.0
220
0.0
230
1.0
 70
     8
 71
     3
 72
     8
 73
     4
 74
     0
 42
0.000000001
 43
0.00000001
 40
0.0
 40
0.0
 40
0.0
 40
0.0
 40
1.0
 40
1.0
 40
1.0
 40
1.0
 10
36.11905668758468
 20
1.110410216782521
 30
0.0
 10
35.97803207403784
 20
1.277501323937556
 30
0.0
 10
35.85227381134804
 20
1.438197945001421
 30
0.0
 10
35.74532467218541
 20
1.591016149021972
 30
0.0
  0
LINE
  5
C1
330
1F
100
AcDbEntity
  8
0
  6
Continuous
 62
     1
370
    15
100
AcDbLine
 10
35.79547195234584
 20
1.633094713309129
 30
0.0
 11
38.575
 21
0.0000000000000027
 31
0.0
  0
LINE
  5
C2
330
1F
100
AcDbEntity
  8
0
  6
Continuous
 62
     1
370
    15
100
AcDbLine
 10
38.575
 20
0.0000000000000027
 30
0.0
 11
38.575
 21
-1.060620442055151
 31
0.0
  0
SPLINE
  5
C3
330
1F
100
AcDbEntity
  8
0
  6
Continuous
 62
     1
370
    15
100
AcDbSpline
210
0.0
220
0.0
230
1.0
 70
     8
 71
     3
 72
    10
 73
     6
 74
     0
 42
0.000000001
 43
0.00000001
 40
0.0
 40
0.0
 40
0.0
 40
0.0
 40
0.5
 40
0.5
 40
1.0
 40
1.0
 40
1.0
 40
1.0
 10
38.575
 20
-1.060620442055151
 30
0.0
 10
38.14986456289079
 20
-0.7263914625886144
 30
0.0
 10
37.7318322380989
 20
-0.3784565810895868
 30
0.0
 10
36.91033386371222
 20
0.3455197261823862
 30
0.0
 10
36.5030344003584
 20
0.7253597255858647
 30
0.0
 10
36.11905668758467
 20
1.110410216782527
 30
0.0
  0
SPLINE
  5
C4
330
1F
100
AcDbEntity
  8
0
  6
Continuous
 62
     1
370
    15
100
AcDbSpline
210
0.0
220
0.0
230
1.0
 70
    24
 71
     3
 72
    10
 73
     6
 74
     0
 42
0.000000001
 43
0.00000001
 40
0.0
 40
0.0
 40
0.0
 40
0.0
 40
0.5
 40
0.5
 40
1.0
 40
1.0
 40
1.0
 40
1.0
 10
38.575
 20
2.778124999999999
 30
0.0
 10
38.575
 20
2.946528019204026
 30
0.0
 10
38.57500000000001
 20
3.142227923316371
 30
0.0
 10
38.57500000000001
 20
3.552805795063397
 30
0.0
 10
38.575
 20
3.766635198337095
 30
0.0
 10
38.575
 20
3.968750000000009
 30
0.0
  0
LINE
  5
C5
330
1F
100
AcDbEntity
  8
0
  6
Continuous
 62
     1
370
    15
100
AcDbLine
 10
38.575
 20
2.778124999999998
 30
0.0
 11
37.09929622014791
 21
2.713119148956902
 31
0.0
  0
SPLINE
  5
C6
330
1F
100
AcDbEntity
  8
0
  6
Continuous
 62
     1
370
    15
100
AcDbSpline
210
0.0
220
0.0
230
1.0
 70
     8
 71
     3
 72
    15
 73
    11
 74
     0
 42
0.000000001
 43
0.00000001
 40
0.0
 40
0.0
 40
0.0
 40
0.0
 40
0.1427846037927071
 40
0.2800731308394954
 40
0.4174096348702032
 40
0.5545168293033811
 40
0.6915992156299124
 40
0.8288643645008211
 40
0.9662201510421491
 40
1.0
 40
1.0
 40
1.0
 40
1.0
 10
36.11905668758467
 20
1.110410216782524
 30
0.0
 10
35.68409687934737
 20
1.29490070754243
 30
0.0
 10
34.8309197716865
 20
1.656780265875323
 30
0.0
 10
33.55912704285309
 20
2.127930359969792
 30
0.0
 10
32.3044932230087
 20
2.524793968745493
 30
0.0
 10
31.05094025087082
 20
2.836966909305628
 30
0.0
 10
29.79760066058009
 20
3.057301280409098
 30
0.0
 10
28.54324812002066
 20
3.167606229934857
 30
0.0
 10
27.60340336446285
 20
3.195069311855599
 30
0.0
 10
27.08208247527186
 20
3.152393980443005
 30
0.0
 10
26.97918081575438
 20
3.143970449919167
 30
0.0
  0
SPLINE
  5
C7
330
1F
100
AcDbEntity
  8
0
  6
Continuous
 62
     1
370
    15
100
AcDbSpline
210
0.0
220
0.0
230
1.0
 70
    24
 71
     3
 72
    10
 73
     6
 74
     0
 42
0.000000001
 43
0.00000001
 40
0.0
 40
0.0
 40
0.0
 40
0.0
 40
0.5
 40
0.5
 40
1.0
 40
1.0
 40
1.0
 40
1.0
 10
38.575
 20
-3.131233674211358
 30
0.0
 10
38.575
 20
-2.891200200108852
 30
0.0
 10
38.575
 20
-2.587908701753799
 30
0.0
 10
38.575
 20
-1.88278515662926
 30
0.0
 10
38.575
 20
-1.481563914609885
 30
0.0
 10
38.575
 20
-1.060620442055277
 30
0.0
  0
SPLINE
  5
C8
330
1F
100
AcDbEntity
  8
0
  6
Continuous
 62
     1
370
    15
100
AcDbSpline
210
0.0
220
0.0
230
1.0
 70
     8
 71
     3
 72
    24
 73
    20
 74
     0
 42
0.000000001
 43
0.00000001
 40
0.0
 40
0.0
 40
0.0
 40
0.0
 40
0.0185432871124748
 40
0.0807357753178819
 40
0.1429693298995315
 40
0.2050951878869474
 40
0.2672023136479643
 40
0.3293847965198219
 40
0.3916252637549161
 40
0.453756651919344
 40
0.51586181774001
 40
0.5780348832491724
 40
0.6402804384230262
 40
0.7024179501244728
 40
0.7645217521372686
 40
0.8266859892465767
 40
0.888934807060911
 40
0.9444766071095518
 40
1.0
 40
1.0
 40
1.0
 40
1.0
 10
30.17213201208784
 20
-2.974033821768727
 30
0.0
 10
30.04746182793125
 20
-2.996652633854592
 30
0.0
 10
29.50465925383244
 20
-3.095132871983099
 30
0.0
 10
28.54322578428808
 20
-3.168324510328754
 30
0.0
 10
27.28853974555918
 20
-3.18584853884789
 30
0.0
 10
26.03489849865029
 20
-3.090360053127689
 30
0.0
 10
24.78161631201034
 20
-2.894187539975438
 30
0.0
 10
23.52733193263775
 20
-2.601466461670042
 30
0.0
 10
22.27258336055153
 20
-2.222971877605886
 30
0.0
 10
21.01886107102644
 20
-1.770095948303316
 30
0.0
 10
19.765617545484
 20
-1.258549964728747
 30
0.0
 10
18.51142024743008
 20
-0.7052627310666527
 30
0.0
 10
17.25663220619979
 20
-0.129279088495221
 30
0.0
 10
16.00282702974152
 20
0.4519102620251569
 30
0.0
 10
14.74960644882872
 20
1.017822578413232
 30
0.0
 10
13.49551209198151
 20
1.550403978350846
 30
0.0
 10
12.28504814416333
 20
2.012248095369577
 30
0.0
 10
11.11996176451515
 20
2.404152332447742
 30
0.0
 10
10.37327933821999
 20
2.599956029112462
 30
0.0
 10
10.00000000000001
 20
2.697841651886104
 30
0.0
  0
SPLINE
  5
C9
330
1F
100
AcDbEntity
  8
외형선
  6
Continuous
370
    15
100
AcDbSpline
210
0.0
220
0.0
230
1.0
 70
    24
 71
     3
 72
    14
 73
    10
 74
     0
 42
0.000000001
 43
0.00000001
 40
0.0
 40
0.0
 40
0.0
 40
0.0
 40
0.25
 40
0.25
 40
0.5
 40
0.5
 40
0.75
 40
0.75
 40
1.0
 40
1.0
 40
1.0
 40
1.0
 10
10.0
 20
2.697841651886105
 30
0.0
 10
10.0
 20
2.507487073207881
 30
0.0
 10
10.0
 20
2.287125238442933
 30
0.0
 10
10.0
 20
1.796015462901629
 30
0.0
 10
10.0
 20
1.525345590297731
 30
0.0
 10
10.0
 20
0.9516947489146844
 30
0.0
 10
10.0
 20
0.6488794330847262
 30
0.0
 10
10.0
 20
0.0337142320782308
 30
0.0
 10
10.0
 20
-0.278459898500478
 30
0.0
 10
10.0
 20
-0.5843873609527652
 30
0.0
  0
SPLINE
  5
CA
330
1F
100
AcDbEntity
  8
외형선
  6
Continuous
370
    15
100
AcDbSpline
210
0.0
220
0.0
230
1.0
 70
    24
 71
     3
 72
     9
 73
     5
 74
     0
 42
0.000000001
 43
0.00000001
 40
0.0
 40
0.0
 40
0.0
 40
0.0
 40
0.1954395071799405
 40
1.0
 40
1.0
 40
1.0
 40
1.0
 10
10.0
 20
2.780158048330935
 30
0.0
 10
10.0
 20
2.78359291081432
 30
0.0
 10
10.0
 20
2.801167978071437
 30
0.0
 10
10.0
 20
2.743909533925926
 30
0.0
 10
10.0
 20
2.697841651886104
 30
0.0
  0
SPLINE
  5
CB
330
1F
100
AcDbEntity
  8
0
  6
Continuous
 62
     1
370
    15
100
AcDbSpline
210
0.0
220
0.0
230
1.0
 70
    24
 71
     3
 72
     8
 73
     4
 74
     0
 42
0.000000001
 43
0.00000001
 40
0.0
 40
0.0
 40
0.0
 40
0.0
 40
1.0
 40
1.0
 40
1.0
 40
1.0
 10
36.15941137504134
 20
1.938476148661922
 30
0.0
 10
36.02844732515209
 20
1.828584262702382
 30
0.0
 10
35.88997707856488
 20
1.712393929863894
 30
0.0
 10
35.74532467218548
 20
1.591016149022021
 30
0.0
  0
SPLINE
  5
CC
330
1F
100
AcDbEntity
  8
0
  6
Continuous
 62
     1
370
    15
100
AcDbSpline
210
0.0
220
0.0
230
1.0
 70
     8
 71
     3
 72
    10
 73
     6
 74
     0
 42
0.000000001
 43
0.00000001
 40
0.0
 40
0.0
 40
0.0
 40
0.0
 40
0.5
 40
0.5
 40
1.0
 40
1.0
 40
1.0
 40
1.0
 10
38.575
 20
2.778125000000002
 30
0.0
 10
38.16682470627131
 20
2.667378022268925
 30
0.0
 10
37.76085519833945
 20
2.543057442538303
 30
0.0
 10
36.95487412728592
 20
2.264882165967314
 30
0.0
 10
36.55461638757851
 20
2.1114692079941
 30
0.0
 10
36.15941137505491
 20
1.938476148669166
 30
0.0
  0
SPLINE
  5
CD
330
1F
100
AcDbEntity
  8
외형선
  6
Continuous
370
    15
100
AcDbSpline
210
0.0
220
0.0
230
1.0
 70
    24
 71
     3
 72
    14
 73
    10
 74
     0
 42
0.000000001
 43
0.00000001
 40
0.0
 40
0.0
 40
0.0
 40
0.0
 40
0.0974501358235452
 40
0.2384819342748221
 40
0.37455937122038
 40
0.5115816174429918
 40
0.651583739864533
 40
0.792615538315814
 40
0.9999999999999999
 40
0.9999999999999999
 40
0.9999999999999999
 40
0.9999999999999999
 10
10.0
 20
-2.00470017494134
 30
0.0
 10
10.0
 20
-2.053953989144475
 30
0.0
 10
10.0
 20
-2.174488914850944
 30
0.0
 10
9.999999999999998
 20
-2.333080668345798
 30
0.0
 10
10.0
 20
-2.484187137166603
 30
0.0
 10
9.999999999999998
 20
-2.606079297145527
 30
0.0
 10
10.0
 20
-2.698439167156532
 30
0.0
 10
10.0
 20
-2.776041784797746
 30
0.0
 10
10.0
 20
-2.779225463554323
 30
0.0
 10
10.0
 20
-2.781120454060368
 30
0.0
  0
LINE
  5
CE
330
1F
100
AcDbEntity
  8
0
  6
Continuous
 62
     1
370
    15
100
AcDbLine
 10
38.575
 20
0.0000000000000027
 30
0.0
 11
38.575
 21
2.778125000000002
 31
0.0
  0
LINE
  5
CF
330
1F
100
AcDbEntity
  8
중심선
 48
0.8
100
AcDbLine
 10
-40.62499999999999
 20
-0.0000000000000048
 30
0.0
 11
41.57500000000002
 21
0.0000000000000053
 31
0.0
  0
LINE
  5
D0
330
1F
100
AcDbEntity
  8
참조1
100
AcDbLine
 10
-3.562684671492226
 20
0.0010749287238892
 30
0.0
 11
-3.562684671492222
 21
-39.99892507127611
 31
0.0
  0
LINE
  5
D1
330
1F
100
AcDbEntity
  8
참조1
100
AcDbLine
 10
-3.562684671492222
 20
-39.99892507127611
 30
0.0
 11
-15.54395731641845
 21
-39.9989250712761
 31
0.0
  0
CIRCLE
  5
D2
330
1F
100
AcDbEntity
  8
해칭선
100
AcDbCircle
 10
0.0
 20
0.0
 30
0.0
 40
3.000000000000002
  0
INSERT
  5
D3
330
1F
100
AcDbEntity
  8
0
  6
Continuous
 62
     7
100
AcDbBlockReference
 66
     1
  2
블럭10
 10
-17.50295760361743
 20
-52.04609937292004
 30
0.0
  0
ATTRIB
  5
D4
330
D3
100
AcDbEntity
  8
FORMAT
 62
     2
100
AcDbText
 10
-27.64459361575406
 20
-49.97073246008785
 30
0.0
 40
4.233333333333333
  1
EM206020 [ 2 FLUTE ]
 41
0.75
  7
SLDTEXTSTYLE0
 11
-27.64459361575406
 21
-52.08739912675452
 31
0.0
100
AcDbAttribute
  2
AUTOATTR0
 70
     0
 74
     1
  0
SEQEND
  5
D5
330
D3
100
AcDbEntity
  8
0
  6
Continuous
 62
     7
  0
HATCH
  5
D6
330
1F
100
AcDbEntity
  8
중심선
100
AcDbHatch
 10
0.0
 20
0.0
 30
0.0
210
0.0
220
0.0
230
1.0
  2
SOLID
 70
     1
 71
     0
 91
        1
 92
        0
 93
        4
 72
     1
 10
-11.78804829923657
 20
-35.7989250712761
 11
-15.23432354307386
 21
-35.7989250712761
 72
     1
 10
-15.23432354307386
 20
-35.7989250712761
 11
-17.36255340227788
 21
-38.3352506518487
 72
     1
 10
-17.36255340227788
 20
-38.3352506518487
 11
-13.91624507332745
 21
-38.33521122254621
 72
     1
 10
-13.91624507332745
 20
-38.33521122254621
 11
-11.78804829923657
 21
-35.7989250712761
 97
        0
 75
     0
 76
     1
 98
        1
 10
0.0
 20
0.0
  0
HATCH
  5
D7
330
1F
100
AcDbEntity
  8
중심선
100
AcDbHatch
 10
0.0
 20
0.0
 30
0.0
210
0.0
220
0.0
230
1.0
  2
SOLID
 70
     1
 71
     0
 91
        1
 92
        0
 93
        4
 72
     1
 10
-6.775284308200597
 20
-35.7989250712761
 11
-10.22155955203788
 21
-35.7989250712761
 72
     1
 10
-10.22155955203788
 20
-35.7989250712761
 11
-14.75269756039529
 21
-41.19892507127612
 72
     1
 10
-14.75269756039529
 20
-41.19892507127612
 11
-11.30642231655801
 21
-41.19892507127612
 72
     1
 10
-11.30642231655801
 20
-41.19892507127612
 11
-6.775284308200597
 21
-35.7989250712761
 97
        0
 75
     0
 76
     1
 98
        1
 10
0.0
 20
0.0
  0
HATCH
  5
D8
330
1F
100
AcDbEntity
  8
중심선
100
AcDbHatch
 10
0.0
 20
0.0
 30
0.0
210
0.0
220
0.0
230
1.0
  2
SOLID
 70
     1
 71
     0
 91
        1
 92
        0
 93
        4
 72
     1
 10
-1.762520317164729
 20
-35.7989250712761
 11
-5.208795561001844
 21
-35.7989250712761
 72
     1
 10
-5.208795561001844
 20
-35.7989250712761
 11
-12.25723246289109
 21
-44.19892507127612
 72
     1
 10
-12.25723246289109
 20
-44.19892507127612
 11
-8.810957219053812
 21
-44.19892507127612
 72
     1
 10
-8.810957219053812
 20
-44.19892507127612
 11
-1.762520317164729
 21
-35.7989250712761
 97
        0
 75
     0
 76
     1
 98
        1
 10
0.0
 20
0.0
  0
HATCH
  5
D9
330
1F
100
AcDbEntity
  8
중심선
100
AcDbHatch
 10
0.0
 20
0.0
 30
0.0
210
0.0
220
0.0
230
1.0
  2
SOLID
 70
     1
 71
     0
 91
        1
 92
        0
 93
        6
 72
     3
 10
3.037370113847471
 20
-39.99892507132738
 11
3.960054785062284
 21
1.540850780301639E-10
 40
0.3939339440162633
 50
17.09539180608434
 51
320.0019657685086
 73
     0
 72
     1
 10
4.720369769548066
 20
-38.58681907591443
 11
7.025671643249131
 21
-36.65249236586649
 72
     3
 10
3.037370113794624
 20
-39.99892507127625
 11
6.600054785286829
 21
-1.249000902703301E-13
 40
0.6363583540795982
 50
39.99873849337388
 51
368.4976242363725
 73
     1
 72
     1
 10
9.462702605695233
 20
-39.03892507120613
 11
1.717437420630547
 21
-39.03892507120613
 72
     1
 10
1.717437420630546
 20
-39.03892507120613
 11
1.717412376184613
 21
-40.95892507120602
 72
     1
 10
1.717412376184613
 20
-40.95892507120602
 11
6.158792145656649
 21
-40.95892507120599
 97
        0
 75
     0
 76
     1
 98
        1
 10
0.0
 20
0.0
  0
DIMENSION
  5
DA
330
1F
100
AcDbEntity
  8
치수문자_일반주서
100
AcDbDimension
  2
_D
 10
-50.24499999999997
 20
-3.968750000000044
 30
0.0
 11
-50.24499999999998
 21
-0.000000000000006
 31
0.0
 70
   160
  1
%%c<>
 71
     2
 42
7.937499999999986
 52
-270.0
  3
SLDDIMSTYLE0
100
AcDbAlignedDimension
 13
-36.81499999999999
 23
3.968749999999992
 33
0.0
 14
-36.81499999999999
 24
-3.968749999999994
 34
0.0
 50
90.0000000000002
100
AcDbRotatedDimension
1001
ACAD
1000
DSTYLE
1002
{
1070
   273
1070
     7
1070
   171
1070
     6
1002
}
  0
DIMENSION
  5
EF
330
1F
100
AcDbEntity
  8
치수문자_일반주서
100
AcDbDimension
  2
_D_1
 10
60.18410508179957
 20
-3.968749999999918
 30
0.0
 11
60.18410508179947
 21
24.57275000000008
 31
0.0
 70
   160
  1
%%c<>
 71
     2
 42
7.937500000000004
 52
-270.0
  3
SLDDIMSTYLE0
100
AcDbAlignedDimension
 13
38.575
 23
3.968750000000004
 33
0.0
 14
38.575
 24
-3.968749999999999
 34
0.0
 50
90.0000000000002
100
AcDbRotatedDimension
1001
ACAD
1000
DSTYLE
1002
{
1070
   273
1070
     7
1070
   171
1070
     6
1002
}
  0
DIMENSION
  5
103
330
1F
100
AcDbEntity
  8
치수문자_일반주서
100
AcDbDimension
  2
_D_2
 10
9.999999999999998
 20
18.05202460514561
 30
0.0
 11
-11.479
 21
18.05202460514561
 31
0.0
 70
   160
  1
<>
 71
     2
 42
28.575
  3
SLDDIMSTYLE0
100
AcDbAlignedDimension
 13
38.575
 23
3.968750000000004
 33
0.0
 14
10.0
 24
2.791650978077134
 34
0.0
 50
0.0000000000000071
100
AcDbRotatedDimension
1001
ACAD
1000
DSTYLE
1002
{
1070
   273
1070
     7
1070
   171
1070
     6
1002
}
  0
DIMENSION
  5
117
330
1F
100
AcDbEntity
  8
치수문자_일반주서
100
AcDbDimension
  2
_D_3
 10
-37.62500000000001
 20
40.63405344013392
 30
0.0
 11
0.4750000000000014
 21
40.63405344013392
 31
0.0
 70
   160
  1
<>
 71
     2
 42
76.19999999999999
  3
SLDDIMSTYLE0
100
AcDbAlignedDimension
 13
38.575
 23
3.968750000000004
 33
0.0
 14
-37.625
 24
3.158749999999994
 34
0.0
100
AcDbRotatedDimension
1001
ACAD
1000
DSTYLE
1002
{
1070
   273
1070
     7
1070
   171
1070
     6
1002
}
  0
LINE
  5
12B
330
1F
100
AcDbEntity
  8
참조1
100
AcDbLine
 10
82.42838331323583
 20
7.441074928723896
 30
0.0
 11
82.42838331323583
 21
-7.438925071276109
 31
0.0
  0
LINE
  5
12C
330
1F
100
AcDbEntity
  8
참조1
100
AcDbLine
 10
95.12838331323583
 20
5.441074928723896
 30
0.0
 11
82.42838331323583
 21
5.441074928723896
 31
0.0
  0
SOLID
  5
12D
330
1F
100
AcDbEntity
  8
참조1
100
AcDbTrace
 10
82.42838331323583
 20
5.441074928723896
 30
0.0
 11
88.77838331323582
 21
4.425074928723896
 31
0.0
 12
88.77838331323582
 22
6.457074928723896
 32
0.0
 13
88.77838331323582
 23
6.457074928723896
 33
0.0
  0
LINE
  5
12E
330
1F
100
AcDbEntity
  8
참조1
100
AcDbLine
 10
95.12838331323583
 20
-5.438925071276109
 30
0.0
 11
82.42838331323583
 21
-5.438925071276109
 31
0.0
  0
SOLID
  5
12F
330
1F
100
AcDbEntity
  8
참조1
100
AcDbTrace
 10
82.42838331323583
 20
-5.438925071276109
 30
0.0
 11
88.77838331323582
 21
-6.454925071276109
 31
0.0
 12
88.77838331323582
 22
-4.422925071276109
 32
0.0
 13
88.77838331323582
 23
-4.422925071276109
 33
0.0
  0
MTEXT
  5
130
330
1F
100
AcDbEntity
  8
참조1
100
AcDbMText
 10
91.82587340570609
 20
10.98929157337383
 30
0.0
 40
3.5
 41
0.0
 71
     1
 72
     1
  1
A
  7
SLDTEXTSTYLE0
 73
     1
 44
1.0
  0
MTEXT
  5
131
330
1F
100
AcDbEntity
  8
참조1
100
AcDbMText
 10
91.82587340570609
 20
0.1092915733738259
 30
0.0
 40
3.5
 41
0.0
 71
     1
 72
     1
  1
A
  7
SLDTEXTSTYLE0
 73
     1
 44
1.0
  0
INSERT
  5
138
330
1F
100
AcDbEntity
  8
해칭선
100
AcDbBlockReference
  2
SW_DOWELSYMBOL_0
 10
0.0
 20
0.0
 30
0.0
  0
ENDSEC
  0
SECTION
  2
OBJECTS
  0
DICTIONARY
  5
C
330
0
100
AcDbDictionary
281
     1
  3
ACAD_GROUP
350
D
  3
ACAD_IMAGE_VARS
350
15C
  3
ACAD_LAYOUT
350
1A
  3
ACAD_MLINESTYLE
350
17
  3
ACAD_PLOTSETTINGS
350
19
  3
ACAD_PLOTSTYLENAME
350
E
  3
ACAD_SCALELIST
350
47
  3
APPDATA
350
15A
  3
DWGPROPS
350
192
  0
DICTIONARY
  5
183
330
2
100
AcDbDictionary
280
     1
281
     1
  3
ACAD_LAYERSTATES
360
184
  0
DICTIONARY
  5
D
102
{ACAD_REACTORS
330
C
102
}
330
C
100
AcDbDictionary
281
     1
  0
RASTERVARIABLES
  5
15C
102
{ACAD_REACTORS
330
C
102
}
330
C
100
AcDbRasterVariables
 90
        0
 70
     1
 71
     1
 72
     1
  0
DICTIONARY
  5
1A
102
{ACAD_REACTORS
330
C
102
}
330
C
100
AcDbDictionary
281
     1
  3
Layout1
350
1E
  3
Layout2
350
26
  3
Model
350
22
  0
DICTIONARY
  5
17
102
{ACAD_REACTORS
330
C
102
}
330
C
100
AcDbDictionary
281
     1
  3
Standard
350
18
  0
DICTIONARY
  5
19
102
{ACAD_REACTORS
330
C
102
}
330
C
100
AcDbDictionary
281
     1
  0
ACDBDICTIONARYWDFLT
  5
E
102
{ACAD_REACTORS
330
C
102
}
330
C
100
AcDbDictionary
281
     1
  3
Normal
350
F
100
AcDbDictionaryWithDefault
340
F
  0
DICTIONARY
  5
47
102
{ACAD_REACTORS
330
C
102
}
330
C
100
AcDbDictionary
281
     1
  3
A0
350
48
  3
A1
350
49
  3
A2
350
4A
  3
A3
350
4B
  3
A4
350
4C
  3
A5
350
4D
  3
A6
350
4E
  3
A7
350
4F
  3
A8
350
50
  3
A9
350
51
  3
B0
350
52
  3
B1
350
53
  3
B2
350
54
  3
B3
350
55
  3
B4
350
56
  3
B5
350
57
  3
B6
350
58
  3
B7
350
59
  3
B8
350
5A
  3
B9
350
5B
  3
C0
350
5C
  3
C1
350
5D
  3
C2
350
5E
  3
C3
350
5F
  3
C4
350
60
  3
C5
350
61
  3
C6
350
62
  3
C7
350
63
  3
C8
350
64
  3
C9
350
65
  3
D0
350
66
  3
D1
350
67
  3
D2
350
68
  0
DICTIONARY
  5
15A
102
{ACAD_REACTORS
330
C
102
}
330
C
100
AcDbDictionary
281
     1
  0
XRECORD
  5
192
102
{ACAD_REACTORS
330
C
102
}
330
C
100
AcDbXrecord
280
     1
  1
DWGPROPS COOKIE
  2

  3

  4

  6

  7

  8
12017012
  9

300
=
301
=
302
=
303
=
304
=
305
=
306
=
307
=
308
=
309
=
 40
0.0
 41
2458288.372399896
 42
2458294.348063229
  1

 90
        0
  0
DICTIONARY
  5
184
102
{ACAD_REACTORS
330
183
102
}
330
183
100
AcDbDictionary
281
     1
  0
LAYOUT
  5
1E
102
{ACAD_REACTORS
330
1A
102
}
330
1A
100
AcDbPlotSettings
  1

  2
none_device
  4

  6

 40
0.0
 41
0.0
 42
0.0
 43
0.0
 44
0.0
 45
0.0
 46
0.0
 47
0.0
 48
0.0
 49
0.0
140
0.0
141
0.0
142
1.0
143
1.0
 70
   688
 72
     1
 73
     0
 74
     5
  7

 75
    16
147
1.0
148
0.0
149
0.0
100
AcDbLayout
  1
Layout1
 70
     1
 71
     1
 10
0.0
 20
0.0
 11
420.0
 21
297.0
 12
0.0
 22
0.0
 32
0.0
 14
1.000000000000000E+20
 24
1.000000000000000E+20
 34
1.000000000000000E+20
 15
-1.000000000000000E+20
 25
-1.000000000000000E+20
 35
-1.000000000000000E+20
146
0.0
 13
0.0
 23
0.0
 33
0.0
 16
1.0
 26
0.0
 36
0.0
 17
0.0
 27
1.0
 37
0.0
 76
     0
330
1B
  0
LAYOUT
  5
26
102
{ACAD_REACTORS
330
1A
102
}
330
1A
100
AcDbPlotSettings
  1

  2
none_device
  4

  6

 40
0.0
 41
0.0
 42
0.0
 43
0.0
 44
0.0
 45
0.0
 46
0.0
 47
0.0
 48
0.0
 49
0.0
140
0.0
141
0.0
142
1.0
143
1.0
 70
   688
 72
     1
 73
     0
 74
     5
  7

 75
    16
147
1.0
148
0.0
149
0.0
100
AcDbLayout
  1
Layout2
 70
     1
 71
     2
 10
0.0
 20
0.0
 11
0.0
 21
0.0
 12
0.0
 22
0.0
 32
0.0
 14
0.0
 24
0.0
 34
0.0
 15
0.0
 25
0.0
 35
0.0
146
0.0
 13
0.0
 23
0.0
 33
0.0
 16
1.0
 26
0.0
 36
0.0
 17
0.0
 27
1.0
 37
0.0
 76
     0
330
23
  0
LAYOUT
  5
22
102
{ACAD_REACTORS
330
1A
102
}
330
1A
100
AcDbPlotSettings
  1

  2
none_device
  4
ANSI_A_(11.00_x_8.50_Inches)
  6

 40
6.35
 41
19.05
 42
6.35000508
 43
19.05000254
 44
279.4
 45
215.9
 46
99.22496332780632
 47
77.38265818962623
 48
0.0
 49
0.0
140
0.0
141
0.0
142
0.0630266465109184
143
1.0
 70
  1696
 72
     0
 73
     0
 74
     0
  7

 75
     0
147
0.0235690232323232
148
0.0
149
0.0
100
AcDbLayout
  1
Model
 70
     1
 71
     0
 10
0.0
 20
0.0
 11
420.0
 21
297.0
 12
0.0
 22
0.0
 32
0.0
 14
1.000000000000000E+20
 24
1.000000000000000E+20
 34
1.000000000000000E+20
 15
-1.000000000000000E+20
 25
-1.000000000000000E+20
 35
-1.000000000000000E+20
146
0.0
 13
0.0
 23
0.0
 33
0.0
 16
1.0
 26
0.0
 36
0.0
 17
0.0
 27
1.0
 37
0.0
 76
     0
330
1F
331
29
  0
MLINESTYLE
  5
18
102
{ACAD_REACTORS
330
17
102
}
330
17
100
AcDbMlineStyle
  2
Standard
 70
     0
  3

 62
   256
 51
90.0
 52
90.0
 71
     2
 49
0.5
 62
   256
  6
BYLAYER
 49
-0.5
 62
   256
  6
BYLAYER
  0
ACDBPLACEHOLDER
  5
F
102
{ACAD_REACTORS
330
E
102
}
330
E
  0
SCALE
  5
48
102
{ACAD_REACTORS
330
47
102
}
330
47
100
AcDbScale
 70
     0
300
1:1
140
1.0
141
1.0
290
     1
  0
SCALE
  5
49
102
{ACAD_REACTORS
330
47
102
}
330
47
100
AcDbScale
 70
     0
300
1:2
140
1.0
141
2.0
290
     0
  0
SCALE
  5
4A
102
{ACAD_REACTORS
330
47
102
}
330
47
100
AcDbScale
 70
     0
300
1:4
140
1.0
141
4.0
290
     0
  0
SCALE
  5
4B
102
{ACAD_REACTORS
330
47
102
}
330
47
100
AcDbScale
 70
     0
300
1:5
140
1.0
141
5.0
290
     0
  0
SCALE
  5
4C
102
{ACAD_REACTORS
330
47
102
}
330
47
100
AcDbScale
 70
     0
300
1:8
140
1.0
141
8.0
290
     0
  0
SCALE
  5
4D
102
{ACAD_REACTORS
330
47
102
}
330
47
100
AcDbScale
 70
     0
300
1:10
140
1.0
141
10.0
290
     0
  0
SCALE
  5
4E
102
{ACAD_REACTORS
330
47
102
}
330
47
100
AcDbScale
 70
     0
300
1:16
140
1.0
141
16.0
290
     0
  0
SCALE
  5
4F
102
{ACAD_REACTORS
330
47
102
}
330
47
100
AcDbScale
 70
     0
300
1:20
140
1.0
141
20.0
290
     0
  0
SCALE
  5
50
102
{ACAD_REACTORS
330
47
102
}
330
47
100
AcDbScale
 70
     0
300
1:30
140
1.0
141
30.0
290
     0
  0
SCALE
  5
51
102
{ACAD_REACTORS
330
47
102
}
330
47
100
AcDbScale
 70
     0
300
1:40
140
1.0
141
40.0
290
     0
  0
SCALE
  5
52
102
{ACAD_REACTORS
330
47
102
}
330
47
100
AcDbScale
 70
     0
300
1:50
140
1.0
141
50.0
290
     0
  0
SCALE
  5
53
102
{ACAD_REACTORS
330
47
102
}
330
47
100
AcDbScale
 70
     0
300
1:100
140
1.0
141
100.0
290
     0
  0
SCALE
  5
54
102
{ACAD_REACTORS
330
47
102
}
330
47
100
AcDbScale
 70
     0
300
2:1
140
2.0
141
1.0
290
     0
  0
SCALE
  5
55
102
{ACAD_REACTORS
330
47
102
}
330
47
100
AcDbScale
 70
     0
300
4:1
140
4.0
141
1.0
290
     0
  0
SCALE
  5
56
102
{ACAD_REACTORS
330
47
102
}
330
47
100
AcDbScale
 70
     0
300
8:1
140
8.0
141
1.0
290
     0
  0
SCALE
  5
57
102
{ACAD_REACTORS
330
47
102
}
330
47
100
AcDbScale
 70
     0
300
10:1
140
10.0
141
1.0
290
     0
  0
SCALE
  5
58
102
{ACAD_REACTORS
330
47
102
}
330
47
100
AcDbScale
 70
     0
300
100:1
140
100.0
141
1.0
290
     0
  0
SCALE
  5
59
102
{ACAD_REACTORS
330
47
102
}
330
47
100
AcDbScale
 70
     0
300
1/128" = 1'-0"
140
0.0078125
141
12.0
290
     0
  0
SCALE
  5
5A
102
{ACAD_REACTORS
330
47
102
}
330
47
100
AcDbScale
 70
     0
300
1/64" = 1'-0"
140
0.015625
141
12.0
290
     0
  0
SCALE
  5
5B
102
{ACAD_REACTORS
330
47
102
}
330
47
100
AcDbScale
 70
     0
300
1/32" = 1'-0"
140
0.03125
141
12.0
290
     0
  0
SCALE
  5
5C
102
{ACAD_REACTORS
330
47
102
}
330
47
100
AcDbScale
 70
     0
300
1/16" = 1'-0"
140
0.0625
141
12.0
290
     0
  0
SCALE
  5
5D
102
{ACAD_REACTORS
330
47
102
}
330
47
100
AcDbScale
 70
     0
300
3/32" = 1'-0"
140
0.09375
141
12.0
290
     0
  0
SCALE
  5
5E
102
{ACAD_REACTORS
330
47
102
}
330
47
100
AcDbScale
 70
     0
300
1/8" = 1'-0"
140
0.125
141
12.0
290
     0
  0
SCALE
  5
5F
102
{ACAD_REACTORS
330
47
102
}
330
47
100
AcDbScale
 70
     0
300
3/16" = 1'-0"
140
0.1875
141
12.0
290
     0
  0
SCALE
  5
60
102
{ACAD_REACTORS
330
47
102
}
330
47
100
AcDbScale
 70
     0
300
1/4" = 1'-0"
140
0.25
141
12.0
290
     0
  0
SCALE
  5
61
102
{ACAD_REACTORS
330
47
102
}
330
47
100
AcDbScale
 70
     0
300
3/8" = 1'-0"
140
0.375
141
12.0
290
     0
  0
SCALE
  5
62
102
{ACAD_REACTORS
330
47
102
}
330
47
100
AcDbScale
 70
     0
300
1/2" = 1'-0"
140
0.5
141
12.0
290
     0
  0
SCALE
  5
63
102
{ACAD_REACTORS
330
47
102
}
330
47
100
AcDbScale
 70
     0
300
3/4" = 1'-0"
140
0.75
141
12.0
290
     0
  0
SCALE
  5
64
102
{ACAD_REACTORS
330
47
102
}
330
47
100
AcDbScale
 70
     0
300
1" = 1'-0"
140
1.0
141
12.0
290
     0
  0
SCALE
  5
65
102
{ACAD_REACTORS
330
47
102
}
330
47
100
AcDbScale
 70
     0
300
1-1/2" = 1'-0"
140
1.5
141
12.0
290
     0
  0
SCALE
  5
66
102
{ACAD_REACTORS
330
47
102
}
330
47
100
AcDbScale
 70
     0
300
3" = 1'-0"
140
3.0
141
12.0
290
     0
  0
SCALE
  5
67
102
{ACAD_REACTORS
330
47
102
}
330
47
100
AcDbScale
 70
     0
300
6" = 1'-0"
140
6.0
141
12.0
290
     0
  0
SCALE
  5
68
102
{ACAD_REACTORS
330
47
102
}
330
47
100
AcDbScale
 70
     0
300
1'-0" = 1'-0"
140
12.0
141
12.0
290
     0
  0
ENDSEC
  0
EOF
