  0
SECTION
  2
HEADER
  9
$ACADVER
  1
AC1015
  9
$ACADMAINTVER
 70
     6
  9
$DWGCODEPAGE
  3
ANSI_949
  9
$INSBASE
 10
0.0
 20
0.0
 30
0.0
  9
$EXTMIN
 10
1.000000000000000E+20
 20
1.000000000000000E+20
 30
1.000000000000000E+20
  9
$EXTMAX
 10
-1.000000000000000E+20
 20
-1.000000000000000E+20
 30
-1.000000000000000E+20
  9
$LIMMIN
 10
0.0
 20
0.0
  9
$LIMMAX
 10
420.0
 20
297.0
  9
$ORTHOMODE
 70
     1
  9
$REGENMODE
 70
     1
  9
$FILLMODE
 70
     1
  9
$QTEXTMODE
 70
     0
  9
$MIRRTEXT
 70
     1
  9
$LTSCALE
 40
1.0
  9
$ATTMODE
 70
     1
  9
$TEXTSIZE
 40
3.5
  9
$TRACEWID
 40
1.0
  9
$TEXTSTYLE
  7
Standard
  9
$CLAYER
  8
0
  9
$CELTYPE
  6
ByLayer
  9
$CECOLOR
 62
   256
  9
$CELTSCALE
 40
1.0
  9
$DISPSILH
 70
     0
  9
$DIMSCALE
 40
1.0
  9
$DIMASZ
 40
3.302
  9
$DIMEXO
 40
1.0
  9
$DIMDLI
 40
3.75
  9
$DIMRND
 40
0.0
  9
$DIMDLE
 40
0.0
  9
$DIMEXE
 40
1.0
  9
$DIMTP
 40
0.0
  9
$DIMTM
 40
0.0
  9
$DIMTXT
 40
3.5
  9
$DIMCEN
 40
2.5
  9
$DIMTSZ
 40
0.0
  9
$DIMTOL
 70
     0
  9
$DIMLIM
 70
     0
  9
$DIMTIH
 70
     1
  9
$DIMTOH
 70
     1
  9
$DIMSE1
 70
     0
  9
$DIMSE2
 70
     0
  9
$DIMTAD
 70
     1
  9
$DIMZIN
 70
     0
  9
$DIMBLK
  1

  9
$DIMASO
 70
     1
  9
$DIMSHO
 70
     1
  9
$DIMPOST
  1

  9
$DIMAPOST
  1

  9
$DIMALT
 70
     0
  9
$DIMALTD
 70
     3
  9
$DIMALTF
 40
0.0393700787401575
  9
$DIMLFAC
 40
1.0
  9
$DIMTOFL
 70
     1
  9
$DIMTVP
 40
0.0
  9
$DIMTIX
 70
     0
  9
$DIMSOXD
 70
     0
  9
$DIMSAH
 70
     0
  9
$DIMBLK1
  1

  9
$DIMBLK2
  1

  9
$DIMSTYLE
  2
ISO-25
  9
$DIMCLRD
 70
     0
  9
$DIMCLRE
 70
     0
  9
$DIMCLRT
 70
     0
  9
$DIMTFAC
 40
1.0
  9
$DIMGAP
 40
1.524
  9
$DIMJUST
 70
     0
  9
$DIMSD1
 70
     0
  9
$DIMSD2
 70
     0
  9
$DIMTOLJ
 70
     0
  9
$DIMTZIN
 70
     0
  9
$DIMALTZ
 70
     0
  9
$DIMALTTZ
 70
     0
  9
$DIMUPT
 70
     0
  9
$DIMDEC
 70
     2
  9
$DIMTDEC
 70
     2
  9
$DIMALTU
 70
     2
  9
$DIMALTTD
 70
     3
  9
$DIMTXSTY
  7
Standard
  9
$DIMAUNIT
 70
     0
  9
$DIMADEC
 70
     2
  9
$DIMALTRND
 40
0.0
  9
$DIMAZIN
 70
     0
  9
$DIMDSEP
 70
    44
  9
$DIMATFIT
 70
     3
  9
$DIMFRAC
 70
     0
  9
$DIMLDRBLK
  1

  9
$DIMLUNIT
 70
     2
  9
$DIMLWD
 70
    -2
  9
$DIMLWE
 70
    -2
  9
$DIMTMOVE
 70
     0
  9
$LUNITS
 70
     2
  9
$LUPREC
 70
     2
  9
$SKETCHINC
 40
1.0
  9
$FILLETRAD
 40
10.0
  9
$AUNITS
 70
     0
  9
$AUPREC
 70
     2
  9
$MENU
  1
.
  9
$ELEVATION
 40
0.0
  9
$PELEVATION
 40
0.0
  9
$THICKNESS
 40
0.0
  9
$LIMCHECK
 70
     0
  9
$CHAMFERA
 40
0.0
  9
$CHAMFERB
 40
0.0
  9
$CHAMFERC
 40
0.0
  9
$CHAMFERD
 40
0.0
  9
$SKPOLY
 70
     0
  9
$TDCREATE
 40
2458288.747588935
  9
$TDUCREATE
 40
2458288.372588935
  9
$TDUPDATE
 40
2458294.717482268
  9
$TDUUPDATE
 40
2458294.342482268
  9
$TDINDWG
 40
0.0013610417
  9
$TDUSRTIMER
 40
2458294.34112162
  9
$USRTIMER
 70
     1
  9
$ANGBASE
 50
0.0
  9
$ANGDIR
 70
     0
  9
$PDMODE
 70
     0
  9
$PDSIZE
 40
-1.0
  9
$PLINEWID
 40
0.0
  9
$SPLFRAME
 70
     0
  9
$SPLINETYPE
 70
     6
  9
$SPLINESEGS
 70
     8
  9
$HANDSEED
  5
192
  9
$SURFTAB1
 70
     6
  9
$SURFTAB2
 70
     6
  9
$SURFTYPE
 70
     6
  9
$SURFU
 70
     6
  9
$SURFV
 70
     6
  9
$UCSBASE
  2

  9
$UCSNAME
  2

  9
$UCSORG
 10
0.0
 20
0.0
 30
0.0
  9
$UCSXDIR
 10
1.0
 20
0.0
 30
0.0
  9
$UCSYDIR
 10
0.0
 20
1.0
 30
0.0
  9
$UCSORTHOREF
  2

  9
$UCSORTHOVIEW
 70
     0
  9
$UCSORGTOP
 10
0.0
 20
0.0
 30
0.0
  9
$UCSORGBOTTOM
 10
0.0
 20
0.0
 30
0.0
  9
$UCSORGLEFT
 10
0.0
 20
0.0
 30
0.0
  9
$UCSORGRIGHT
 10
0.0
 20
0.0
 30
0.0
  9
$UCSORGFRONT
 10
0.0
 20
0.0
 30
0.0
  9
$UCSORGBACK
 10
0.0
 20
0.0
 30
0.0
  9
$PUCSBASE
  2

  9
$PUCSNAME
  2

  9
$PUCSORG
 10
0.0
 20
0.0
 30
0.0
  9
$PUCSXDIR
 10
1.0
 20
0.0
 30
0.0
  9
$PUCSYDIR
 10
0.0
 20
1.0
 30
0.0
  9
$PUCSORTHOREF
  2

  9
$PUCSORTHOVIEW
 70
     0
  9
$PUCSORGTOP
 10
0.0
 20
0.0
 30
0.0
  9
$PUCSORGBOTTOM
 10
0.0
 20
0.0
 30
0.0
  9
$PUCSORGLEFT
 10
0.0
 20
0.0
 30
0.0
  9
$PUCSORGRIGHT
 10
0.0
 20
0.0
 30
0.0
  9
$PUCSORGFRONT
 10
0.0
 20
0.0
 30
0.0
  9
$PUCSORGBACK
 10
0.0
 20
0.0
 30
0.0
  9
$USERI1
 70
     0
  9
$USERI2
 70
     0
  9
$USERI3
 70
     0
  9
$USERI4
 70
     0
  9
$USERI5
 70
     0
  9
$USERR1
 40
0.0
  9
$USERR2
 40
0.0
  9
$USERR3
 40
0.0
  9
$USERR4
 40
0.0
  9
$USERR5
 40
0.0
  9
$WORLDVIEW
 70
     1
  9
$SHADEDGE
 70
     3
  9
$SHADEDIF
 70
    70
  9
$TILEMODE
 70
     1
  9
$MAXACTVP
 70
    64
  9
$PINSBASE
 10
0.0
 20
0.0
 30
0.0
  9
$PLIMCHECK
 70
     0
  9
$PEXTMIN
 10
1.000000000000000E+20
 20
1.000000000000000E+20
 30
1.000000000000000E+20
  9
$PEXTMAX
 10
-1.000000000000000E+20
 20
-1.000000000000000E+20
 30
-1.000000000000000E+20
  9
$PLIMMIN
 10
0.0
 20
0.0
  9
$PLIMMAX
 10
0.0
 20
0.0
  9
$UNITMODE
 70
     0
  9
$VISRETAIN
 70
     1
  9
$PLINEGEN
 70
     0
  9
$PSLTSCALE
 70
     1
  9
$TREEDEPTH
 70
  3020
  9
$CMLSTYLE
  2
Standard
  9
$CMLJUST
 70
     0
  9
$CMLSCALE
 40
20.0
  9
$PROXYGRAPHICS
 70
     1
  9
$MEASUREMENT
 70
     1
  9
$CELWEIGHT
370
    -1
  9
$ENDCAPS
280
     0
  9
$JOINSTYLE
280
     0
  9
$LWDISPLAY
290
     1
  9
$INSUNITS
 70
     4
  9
$HYPERLINKBASE
  1

  9
$STYLESHEET
  1

  9
$XEDIT
290
     1
  9
$CEPSNTYPE
380
     0
  9
$PSTYLEMODE
290
     1
  9
$FINGERPRINTGUID
  2
{741ED335-64E6-41C4-B33D-DD5196F8D2A2}
  9
$VERSIONGUID
  2
{FAEB1C32-E019-11D5-929B-00C0DF256EC4}
  9
$EXTNAMES
290
     1
  9
$PSVPSCALE
 40
0.0
  9
$OLESTARTUP
290
     0
  0
ENDSEC
  0
SECTION
  2
CLASSES
  0
CLASS
  1
ACDBDICTIONARYWDFLT
  2
AcDbDictionaryWithDefault
  3
ObjectDBX Classes
 90
        0
280
     0
281
     0
  0
CLASS
  1
VISUALSTYLE
  2
AcDbVisualStyle
  3
ObjectDBX Classes
 90
     4095
280
     0
281
     0
  0
CLASS
  1
MATERIAL
  2
AcDbMaterial
  3
ObjectDBX Classes
 90
     1153
280
     0
281
     0
  0
CLASS
  1
SCALE
  2
AcDbScale
  3
ObjectDBX Classes
 90
     1153
280
     0
281
     0
  0
CLASS
  1
SUN
  2
AcDbSun
  3
SCENEOE
 90
     1153
280
     0
281
     0
  0
CLASS
  1
ACDBPLACEHOLDER
  2
AcDbPlaceHolder
  3
ObjectDBX Classes
 90
        0
280
     0
281
     0
  0
CLASS
  1
LAYOUT
  2
AcDbLayout
  3
ObjectDBX Classes
 90
        0
280
     0
281
     0
  0
CLASS
  1
TABLESTYLE
  2
AcDbTableStyle
  3
ObjectDBX Classes
 90
     4095
280
     0
281
     0
  0
CLASS
  1
MLEADERSTYLE
  2
AcDbMLeaderStyle
  3
ACDB_MLEADERSTYLE_CLASS
 90
     4095
280
     0
281
     0
  0
CLASS
  1
RASTERVARIABLES
  2
AcDbRasterVariables
  3
ISM
 90
        0
280
     0
281
     0
  0
ENDSEC
  0
SECTION
  2
TABLES
  0
TABLE
  2
VPORT
  5
8
330
0
100
AcDbSymbolTable
 70
     1
  0
VPORT
  5
29
330
8
100
AcDbSymbolTableRecord
100
AcDbViewportTableRecord
  2
*Active
 70
     0
 10
0.0
 20
0.0
 11
1.0
 21
1.0
 12
-3.413976621028283
 22
13.44640721844977
 13
0.0
 23
0.0
 14
10.0
 24
10.0
 15
10.0
 25
10.0
 16
0.0
 26
0.0
 36
1.0
 17
0.0
 27
0.0
 37
0.0
 40
105.0831644046395
 41
1.859099804305284
 42
50.0
 43
0.0
 44
0.0
 50
0.0
 51
0.0
 71
    16
 72
  2000
 73
     1
 74
     3
 75
     0
 76
     0
 77
     0
 78
     0
281
     0
 65
     1
110
0.0
120
0.0
130
0.0
111
1.0
121
0.0
131
0.0
112
0.0
122
1.0
132
0.0
 79
     0
146
0.0
  0
ENDTAB
  0
TABLE
  2
LTYPE
  5
5
330
0
100
AcDbSymbolTable
 70
     6
  0
LTYPE
  5
14
330
5
100
AcDbSymbolTableRecord
100
AcDbLinetypeTableRecord
  2
ByBlock
 70
     0
  3

 72
    65
 73
     0
 40
0.0
  0
LTYPE
  5
15
330
5
100
AcDbSymbolTableRecord
100
AcDbLinetypeTableRecord
  2
ByLayer
 70
     0
  3

 72
    65
 73
     0
 40
0.0
  0
LTYPE
  5
16
330
5
100
AcDbSymbolTableRecord
100
AcDbLinetypeTableRecord
  2
Continuous
 70
     0
  3
Solid line
 72
    65
 73
     0
 40
0.0
  0
LTYPE
  5
6A
330
5
100
AcDbSymbolTableRecord
100
AcDbLinetypeTableRecord
  2
HIDDEN
 70
     0
  3
Hidden __ __ __ __ __ __ __ __ __ __ __ __ __ __
 72
    65
 73
     2
 40
1.905
 49
1.27
 74
     0
 49
-0.635
 74
     0
  0
LTYPE
  5
6B
330
5
100
AcDbSymbolTableRecord
100
AcDbLinetypeTableRecord
  2
PHANTOM
 70
     0
  3
Phantom ______  __  __  ______  __  __  ______
 72
    65
 73
     6
 40
12.7
 49
6.35
 74
     0
 49
-1.27
 74
     0
 49
1.27
 74
     0
 49
-1.27
 74
     0
 49
1.27
 74
     0
 49
-1.27
 74
     0
  0
LTYPE
  5
6C
330
5
100
AcDbSymbolTableRecord
100
AcDbLinetypeTableRecord
  2
CENTER
 70
     0
  3
Center ____ _ ____ _ ____ _ ____ _ ____ _ ____
 72
    65
 73
     4
 40
10.16
 49
6.35
 74
     0
 49
-1.27
 74
     0
 49
1.27
 74
     0
 49
-1.27
 74
     0
  0
LTYPE
  5
6D
330
5
100
AcDbSymbolTableRecord
100
AcDbLinetypeTableRecord
  2
CENTERX2
 70
     0
  3
Center (2x) ________  __  ________  __  _____
 72
    65
 73
     4
 40
20.32
 49
12.7
 74
     0
 49
-2.54
 74
     0
 49
2.54
 74
     0
 49
-2.54
 74
     0
  0
LTYPE
  5
6E
330
5
100
AcDbSymbolTableRecord
100
AcDbLinetypeTableRecord
  2
DOT2
 70
     0
  3
Dot (.5x) ........................................
 72
    65
 73
     2
 40
0.635
 49
0.0
 74
     0
 49
-0.635
 74
     0
  0
ENDTAB
  0
TABLE
  2
LAYER
  5
2
102
{ACAD_XDICTIONARY
360
180
102
}
330
0
100
AcDbSymbolTable
 70
    18
  0
LAYER
  5
10
330
2
100
AcDbSymbolTableRecord
100
AcDbLayerTableRecord
  2
0
 70
     0
 62
     7
  6
Continuous
370
    -3
390
F
  0
LAYER
  5
6F
330
2
100
AcDbSymbolTableRecord
100
AcDbLayerTableRecord
  2
FORMAT
 70
     0
 62
     2
  6
Continuous
370
    -3
390
F
  0
LAYER
  5
70
330
2
100
AcDbSymbolTableRecord
100
AcDbLayerTableRecord
  2
외형선
 70
     0
 62
     4
  6
Continuous
370
    30
390
F
  0
LAYER
  5
71
330
2
100
AcDbSymbolTableRecord
100
AcDbLayerTableRecord
  2
숨은선
 70
     0
 62
     2
  6
HIDDEN
370
    15
390
F
  0
LAYER
  5
72
330
2
100
AcDbSymbolTableRecord
100
AcDbLayerTableRecord
  2
중심선
 70
     0
 62
     1
  6
CENTERX2
370
    -3
390
F
  0
LAYER
  5
73
330
2
100
AcDbSymbolTableRecord
100
AcDbLayerTableRecord
  2
파단선
 70
     0
 62
     4
  6
Continuous
370
    -3
390
F
  0
LAYER
  5
74
330
2
100
AcDbSymbolTableRecord
100
AcDbLayerTableRecord
  2
해칭선
 70
     0
 62
   100
  6
Continuous
370
    -3
390
F
  0
LAYER
  5
75
330
2
100
AcDbSymbolTableRecord
100
AcDbLayerTableRecord
  2
가는실선
 70
     0
 62
     4
  6
Continuous
370
    -3
390
F
  0
LAYER
  5
76
330
2
100
AcDbSymbolTableRecord
100
AcDbLayerTableRecord
  2
치수_보조선
 70
     0
 62
     4
  6
Continuous
370
    -3
390
F
  0
LAYER
  5
77
330
2
100
AcDbSymbolTableRecord
100
AcDbLayerTableRecord
  2
치수문자_일반주서
 70
     0
 62
     7
  6
Continuous
370
    15
390
F
  0
LAYER
  5
78
330
2
100
AcDbSymbolTableRecord
100
AcDbLayerTableRecord
  2
개별주서
 70
     0
 62
   100
  6
Continuous
370
    30
390
F
  0
LAYER
  5
79
330
2
100
AcDbSymbolTableRecord
100
AcDbLayerTableRecord
  2
중간선
 70
     0
 62
     2
  6
Continuous
370
    15
390
F
  0
LAYER
  5
7A
330
2
100
AcDbSymbolTableRecord
100
AcDbLayerTableRecord
  2
윤곽선
 70
     0
 62
     3
  6
Continuous
370
    40
390
F
  0
LAYER
  5
7B
330
2
100
AcDbSymbolTableRecord
100
AcDbLayerTableRecord
  2
중심마크
 70
     0
 62
   100
  6
Continuous
370
    30
390
F
  0
LAYER
  5
7C
330
2
100
AcDbSymbolTableRecord
100
AcDbLayerTableRecord
  2
가상선
 70
     0
 62
     4
  6
PHANTOM
370
    -3
390
F
  0
LAYER
  5
7D
330
2
100
AcDbSymbolTableRecord
100
AcDbLayerTableRecord
  2
특수지정선
 70
     0
 62
     5
  6
CENTERX2
370
    60
390
F
  0
LAYER
  5
7E
330
2
100
AcDbSymbolTableRecord
100
AcDbLayerTableRecord
  2
참조1
 70
     0
 62
    -4
  6
Continuous
370
    -3
390
F
  0
LAYER
  5
187
330
2
100
AcDbSymbolTableRecord
100
AcDbLayerTableRecord
  2
Defpoints
 70
     0
 62
     7
  6
Continuous
290
     0
370
    -3
390
F
  0
ENDTAB
  0
TABLE
  2
STYLE
  5
3
330
0
100
AcDbSymbolTable
 70
     2
  0
STYLE
  5
11
330
3
100
AcDbSymbolTableRecord
100
AcDbTextStyleTableRecord
  2
Standard
 70
     0
 40
0.0
 41
1.0
 50
0.0
 71
     0
 42
3.5
  3
txt
  4

  0
STYLE
  5
94
330
3
100
AcDbSymbolTableRecord
100
AcDbTextStyleTableRecord
  2
SLDTEXTSTYLE0
 70
     0
 40
0.0
 41
0.75
 50
0.0
 71
     0
 42
3.5
  3
TXT
  4

  0
ENDTAB
  0
TABLE
  2
VIEW
  5
6
330
0
100
AcDbSymbolTable
 70
     0
  0
ENDTAB
  0
TABLE
  2
UCS
  5
7
330
0
100
AcDbSymbolTable
 70
     0
  0
ENDTAB
  0
TABLE
  2
APPID
  5
9
330
0
100
AcDbSymbolTable
 70
     1
  0
APPID
  5
12
330
9
100
AcDbSymbolTableRecord
100
AcDbRegAppTableRecord
  2
ACAD
 70
     0
  0
ENDTAB
  0
TABLE
  2
DIMSTYLE
  5
A
330
0
100
AcDbSymbolTable
 70
     4
100
AcDbDimStyleTable
  0
DIMSTYLE
105
27
330
A
100
AcDbSymbolTableRecord
100
AcDbDimStyleTableRecord
  2
ISO-25
 70
     0
 41
2.5
 42
0.625
 43
3.75
 44
1.25
 73
     0
 74
     0
 77
     1
 78
     8
140
2.5
141
2.5
143
0.03937007874016
147
0.625
171
     3
172
     1
178
     0
271
     2
272
     2
274
     3
278
    44
283
     0
284
     8
340
11
  0
DIMSTYLE
105
D8
102
{ACAD_REACTORS
330
D7
330
EC
330
100
330
114
102
}
330
A
100
AcDbSymbolTableRecord
100
AcDbDimStyleTableRecord
  2
SLDDIMSTYLE0
 70
     0
 41
3.302
 44
0.0
 45
0.000000001
 73
     0
 74
     0
 77
     1
 78
    12
 79
     3
140
3.5
143
0.0393700787401575
147
0.875
148
0.000000001
170
     1
172
     1
173
     1
178
     0
271
     2
272
     2
276
     2
284
    12
289
     0
340
94
  0
DIMSTYLE
105
ED
330
A
100
AcDbSymbolTableRecord
100
AcDbDimStyleTableRecord
  2
SLDDIMSTYLE1
 70
     0
 41
3.302
 44
0.0
 45
0.000000001
 73
     0
 74
     0
 77
     1
 78
    12
 79
     3
140
3.5
143
0.0393700787401575
147
0.875
148
0.000000001
170
     1
173
     1
178
     0
271
     2
272
     2
276
     2
284
    12
340
94
  0
DIMSTYLE
105
115
330
A
100
AcDbSymbolTableRecord
100
AcDbDimStyleTableRecord
  2
SLDDIMSTYLE2
 70
     0
 41
3.302
 44
0.0
 45
0.000000001
 73
     0
 74
     0
 77
     1
 78
     4
 79
     1
140
3.5
143
0.0393700787401575
147
0.875
148
0.000000001
170
     1
173
     1
178
     0
271
     2
272
     2
276
     2
284
    12
340
94
  0
ENDTAB
  0
TABLE
  2
BLOCK_RECORD
  5
1
330
0
100
AcDbSymbolTable
 70
     8
  0
BLOCK_RECORD
  5
1F
330
1
100
AcDbSymbolTableRecord
100
AcDbBlockTableRecord
  2
*Model_Space
340
22
  0
BLOCK_RECORD
  5
1B
330
1
100
AcDbSymbolTableRecord
100
AcDbBlockTableRecord
  2
*Paper_Space
340
1E
  0
BLOCK_RECORD
  5
23
330
1
100
AcDbSymbolTableRecord
100
AcDbBlockTableRecord
  2
*Paper_Space0
340
26
  0
BLOCK_RECORD
  5
7F
330
1
100
AcDbSymbolTableRecord
100
AcDbBlockTableRecord
  2
블럭10
340
0
102
{BLKREFS
331
D0
102
}
  0
BLOCK_RECORD
  5
D9
330
1
100
AcDbSymbolTableRecord
100
AcDbBlockTableRecord
  2
_D
340
0
  0
BLOCK_RECORD
  5
EE
330
1
100
AcDbSymbolTableRecord
100
AcDbBlockTableRecord
  2
_D_1
340
0
  0
BLOCK_RECORD
  5
101
330
1
100
AcDbSymbolTableRecord
100
AcDbBlockTableRecord
  2
_D_2
340
0
  0
BLOCK_RECORD
  5
116
330
1
100
AcDbSymbolTableRecord
100
AcDbBlockTableRecord
  2
_D_3
340
0
  0
BLOCK_RECORD
  5
12F
330
1
100
AcDbSymbolTableRecord
100
AcDbBlockTableRecord
  2
SW_DOWELSYMBOL_0
340
0
102
{BLKREFS
331
135
102
}
  0
ENDTAB
  0
ENDSEC
  0
SECTION
  2
BLOCKS
  0
BLOCK
  5
20
330
1F
100
AcDbEntity
  8
0
100
AcDbBlockBegin
  2
*Model_Space
 70
     0
 10
0.0
 20
0.0
 30
0.0
  3
*Model_Space
  1
*Model_Space
  0
ENDBLK
  5
21
330
1F
100
AcDbEntity
  8
0
100
AcDbBlockEnd
  0
BLOCK
  5
1C
330
1B
100
AcDbEntity
 67
     1
  8
0
100
AcDbBlockBegin
  2
*Paper_Space
 70
     0
 10
0.0
 20
0.0
 30
0.0
  3
*Paper_Space
  1
*Paper_Space
  0
ENDBLK
  5
1D
330
1B
100
AcDbEntity
 67
     1
  8
0
100
AcDbBlockEnd
  0
BLOCK
  5
24
330
23
100
AcDbEntity
  8
0
100
AcDbBlockBegin
  2
*Paper_Space0
 70
     0
 10
0.0
 20
0.0
 30
0.0
  3
*Paper_Space0
  1
*Paper_Space0
  0
ENDBLK
  5
25
330
23
100
AcDbEntity
  8
0
100
AcDbBlockEnd
  0
BLOCK
  5
80
330
7F
100
AcDbEntity
  8
0
100
AcDbBlockBegin
  2
블럭10
 70
     2
 10
0.0
 20
0.0
 30
0.0
  3
블럭10
  1
블럭10
  0
ELLIPSE
  5
82
330
7F
100
AcDbEntity
  8
중심선
100
AcDbEllipse
 10
20.54032771741204
 20
12.0471743016438
 30
0.0
 11
6.600054785286829
 21
-1.261213355974178E-13
 31
0.0
210
0.0
220
0.0
230
1.0
 40
0.636358354079598
 41
0.9219305317359503
 42
6.513795318482858
  0
ELLIPSE
  5
83
330
7F
100
AcDbEntity
  8
중심선
100
AcDbEllipse
 10
20.54032771746488
 20
12.04717430159265
 30
0.0
 11
3.960054785062283
 21
1.540847449632565E-10
 31
0.0
210
0.0
220
0.0
230
1.0
 40
0.3939339440162632
 41
1.131841032648279
 42
5.62031148352944
  0
LINE
  5
84
330
7F
100
AcDbEntity
  8
중심선
100
AcDbLine
 10
2.268634060543552
 20
16.24717430164393
 30
0.0
 11
5.714909304380834
 21
16.24717430164393
 31
0.0
  0
LINE
  5
85
330
7F
100
AcDbEntity
  8
중심선
100
AcDbLine
 10
5.245725140726316
 20
7.84717430164391
 30
0.0
 11
8.692000384563599
 21
7.84717430164391
 31
0.0
  0
LINE
  5
86
330
7F
100
AcDbEntity
  8
중심선
100
AcDbLine
 10
15.74043728645272
 20
16.24717430164393
 30
0.0
 11
8.692000384563599
 21
7.84717430164391
 31
0.0
  0
LINE
  5
87
330
7F
100
AcDbEntity
  8
중심선
100
AcDbLine
 10
0.1404042013395286
 20
13.71084872107135
 30
0.0
 11
3.58671253028996
 21
13.71088815037384
 31
0.0
  0
LINE
  5
88
330
7F
100
AcDbEntity
  8
중심선
100
AcDbLine
 10
2.750260043222114
 20
10.84717430164391
 30
0.0
 11
6.196535287059397
 21
10.84717430164391
 31
0.0
  0
LINE
  5
89
330
7F
100
AcDbEntity
  8
중심선
100
AcDbLine
 10
12.29416204261559
 20
16.24717430164393
 30
0.0
 11
5.245725140726316
 21
7.84717430164391
 31
0.0
  0
LINE
  5
8A
330
7F
100
AcDbEntity
  8
중심선
100
AcDbLine
 10
10.72767329541681
 20
16.24717430164393
 30
0.0
 11
6.196535287059397
 21
10.84717430164391
 31
0.0
  0
LINE
  5
8B
330
7F
100
AcDbEntity
  8
중심선
100
AcDbLine
 10
7.28139805157953
 20
16.24717430164393
 30
0.0
 11
2.750260043222114
 21
10.84717430164391
 31
0.0
  0
LINE
  5
8C
330
7F
100
AcDbEntity
  8
중심선
100
AcDbLine
 10
5.714909304380834
 20
16.24717430164393
 30
0.0
 11
3.58671253028996
 21
13.71088815037384
 31
0.0
  0
LINE
  5
8D
330
7F
100
AcDbEntity
  8
중심선
100
AcDbLine
 10
2.268634060543552
 20
16.24717430164393
 30
0.0
 11
0.1404042013395286
 21
13.71084872107135
 31
0.0
  0
LINE
  5
8E
330
7F
100
AcDbEntity
  8
중심선
100
AcDbLine
 10
7.28139805157953
 20
16.24717430164393
 30
0.0
 11
10.72767329541681
 21
16.24717430164393
 31
0.0
  0
LINE
  5
8F
330
7F
100
AcDbEntity
  8
중심선
100
AcDbLine
 10
12.29416204261559
 20
16.24717430164393
 30
0.0
 11
15.74043728645272
 21
16.24717430164393
 31
0.0
  0
LINE
  5
90
330
7F
100
AcDbEntity
  8
중심선
100
AcDbLine
 10
19.22036997980202
 20
11.08717430171403
 30
0.0
 11
23.66174974927406
 21
11.08717430171406
 31
0.0
  0
LINE
  5
91
330
7F
100
AcDbEntity
  8
중심선
100
AcDbLine
 10
19.22039502424796
 20
13.00717430171391
 30
0.0
 11
19.22036997980202
 21
11.08717430171403
 31
0.0
  0
LINE
  5
92
330
7F
100
AcDbEntity
  8
중심선
100
AcDbLine
 10
19.22039502424796
 20
13.00717430171391
 30
0.0
 11
26.96566020931264
 21
13.00717430171391
 31
0.0
  0
LINE
  5
93
330
7F
100
AcDbEntity
  8
중심선
100
AcDbLine
 10
22.22332737316547
 20
13.45928029700563
 30
0.0
 11
24.52862924686651
 21
15.39360700705356
 31
0.0
  0
ATTDEF
  5
95
330
7F
100
AcDbEntity
  8
FORMAT
 62
     2
100
AcDbText
 10
3.448148490846466
 20
2.075366912832191
 30
0.0
 40
4.233333333333333
  1
EM206024
 41
0.75
  7
SLDTEXTSTYLE0
 11
3.448148490846466
 21
-0.0412997538344756
 31
0.0
100
AcDbAttributeDefinition
  3

  2
AUTOATTR0
 70
     0
 74
     1
  0
ENDBLK
  5
81
330
7F
100
AcDbEntity
  8
0
100
AcDbBlockEnd
  0
BLOCK
  5
DA
330
D9
100
AcDbEntity
  8
0
100
AcDbBlockBegin
  2
_D
 70
     0
 10
0.0
 20
0.0
 30
0.0
  3
_D
  1
_D
  0
LINE
  5
DC
330
D9
100
AcDbEntity
  8
치수문자_일반주서
 62
     0
370
    -2
100
AcDbLine
 10
-36.68749999999999
 20
4.762500000000001
 30
0.0
 11
-50.05499999999999
 21
4.762499999999951
 31
0.0
  0
LINE
  5
DD
330
D9
100
AcDbEntity
  8
치수문자_일반주서
 62
     0
370
    -2
100
AcDbLine
 10
-36.68749999999999
 20
-4.762500000000005
 30
0.0
 11
-50.05499999999996
 21
-4.762500000000054
 31
0.0
  0
LINE
  5
DE
330
D9
100
AcDbEntity
  8
치수문자_일반주서
 62
     0
370
    -2
100
AcDbLine
 10
-50.05499999999998
 20
1.460499999999952
 30
0.0
 11
-50.05499999999997
 21
-1.460500000000055
 31
0.0
  0
SOLID
  5
DF
330
D9
100
AcDbEntity
  8
치수문자_일반주서
 62
     0
100
AcDbTrace
 10
-49.50466666666664
 20
1.460499999999954
 30
0.0
 11
-50.60533333333331
 21
1.46049999999995
 31
0.0
 12
-50.05499999999999
 22
4.762499999999951
 32
0.0
 13
-50.05499999999999
 23
4.762499999999951
 33
0.0
  0
SOLID
  5
E0
330
D9
100
AcDbEntity
  8
치수문자_일반주서
 62
     0
100
AcDbTrace
 10
-50.60533333333331
 20
-1.460500000000057
 30
0.0
 11
-49.50466666666664
 21
-1.460500000000053
 31
0.0
 12
-50.05499999999996
 22
-4.762500000000054
 32
0.0
 13
-50.05499999999996
 23
-4.762500000000054
 33
0.0
  0
MTEXT
  5
E1
330
D9
100
AcDbEntity
  8
치수문자_일반주서
 62
     0
100
AcDbMText
 10
-54.42999999999998
 20
-0.0000000000000165
 30
0.0
 40
3.5
 41
0.0
 71
     2
 72
     1
  1
\A1;%%c9.53 [3/8]
  7
SLDTEXTSTYLE0
 11
-3.729883127349605E-15
 21
1.0
 31
0.0
 73
     1
 44
1.0
  0
POINT
  5
E2
330
D9
100
AcDbEntity
  8
Defpoints
 62
     0
100
AcDbPoint
 10
-36.62499999999999
 20
4.762500000000001
 30
0.0
  0
POINT
  5
E3
330
D9
100
AcDbEntity
  8
Defpoints
 62
     0
100
AcDbPoint
 10
-36.62499999999999
 20
-4.762500000000005
 30
0.0
  0
POINT
  5
E4
330
D9
100
AcDbEntity
  8
Defpoints
 62
     0
100
AcDbPoint
 10
-50.05499999999996
 20
-4.762500000000054
 30
0.0
  0
ENDBLK
  5
DB
330
D9
100
AcDbEntity
  8
0
100
AcDbBlockEnd
  0
BLOCK
  5
EF
330
EE
100
AcDbEntity
  8
0
100
AcDbBlockBegin
  2
_D_1
 70
     0
 10
0.0
 20
0.0
 30
0.0
  3
_D_1
  1
_D_1
  0
LINE
  5
F1
330
EE
100
AcDbEntity
  8
치수문자_일반주서
 62
     0
370
    -2
100
AcDbLine
 10
38.6375
 20
4.762500000000006
 30
0.0
 11
49.03717936781672
 21
4.762500000000045
 31
0.0
  0
LINE
  5
F2
330
EE
100
AcDbEntity
  8
치수문자_일반주서
 62
     0
370
    -2
100
AcDbLine
 10
38.63750000000001
 20
-4.762499999999992
 30
0.0
 11
49.03717936781675
 21
-4.762499999999953
 31
0.0
  0
LINE
  5
F3
330
EE
100
AcDbEntity
  8
치수문자_일반주서
 62
     0
370
    -2
100
AcDbLine
 10
49.03717936781672
 20
4.762500000000045
 30
0.0
 11
49.0371793678166
 21
37.83525000000004
 31
0.0
  0
LINE
  5
F4
330
EE
100
AcDbEntity
  8
치수문자_일반주서
 62
     0
370
    -2
100
AcDbLine
 10
49.03717936781672
 20
4.762500000000045
 30
0.0
 11
49.03717936781675
 21
-4.762499999999953
 31
0.0
  0
LINE
  5
F5
330
EE
100
AcDbEntity
  8
치수문자_일반주서
 62
     0
370
    -2
100
AcDbLine
 10
49.03717936781671
 20
8.064500000000045
 30
0.0
 11
49.03717936781669
 21
11.36650000000004
 31
0.0
  0
LINE
  5
F6
330
EE
100
AcDbEntity
  8
치수문자_일반주서
 62
     0
370
    -2
100
AcDbLine
 10
49.03717936781677
 20
-8.064499999999953
 30
0.0
 11
49.03717936781678
 21
-11.36649999999995
 31
0.0
  0
SOLID
  5
F7
330
EE
100
AcDbEntity
  8
치수문자_일반주서
 62
     0
100
AcDbTrace
 10
48.48684603448337
 20
8.064500000000043
 30
0.0
 11
49.58751270115004
 21
8.064500000000047
 31
0.0
 12
49.03717936781672
 22
4.762500000000045
 32
0.0
 13
49.03717936781672
 23
4.762500000000045
 33
0.0
  0
SOLID
  5
F8
330
EE
100
AcDbEntity
  8
치수문자_일반주서
 62
     0
100
AcDbTrace
 10
49.5875127011501
 20
-8.064499999999951
 30
0.0
 11
48.48684603448343
 21
-8.064499999999954
 31
0.0
 12
49.03717936781675
 22
-4.762499999999953
 32
0.0
 13
49.03717936781675
 23
-4.762499999999953
 33
0.0
  0
MTEXT
  5
F9
330
EE
100
AcDbEntity
  8
치수문자_일반주서
 62
     0
100
AcDbMText
 10
44.66217936781665
 20
24.71025000000003
 30
0.0
 40
3.5
 41
0.0
 71
     2
 72
     1
  1
\A1;%%c9.53 [3/8]
  7
SLDTEXTSTYLE0
 11
-3.729883127349608E-15
 21
1.0
 31
0.0
 73
     1
 44
1.0
  0
POINT
  5
FA
330
EE
100
AcDbEntity
  8
Defpoints
 62
     0
100
AcDbPoint
 10
38.575
 20
4.762500000000006
 30
0.0
  0
POINT
  5
188
330
EE
100
AcDbEntity
  8
Defpoints
 62
     0
100
AcDbPoint
 10
38.57500000000001
 20
-4.762499999999992
 30
0.0
  0
POINT
  5
189
330
EE
100
AcDbEntity
  8
Defpoints
 62
     0
100
AcDbPoint
 10
49.03717936781675
 20
-4.762499999999953
 30
0.0
  0
ENDBLK
  5
F0
330
EE
100
AcDbEntity
  8
0
100
AcDbBlockEnd
  0
BLOCK
  5
102
330
101
100
AcDbEntity
  8
0
100
AcDbBlockBegin
  2
_D_2
 70
     0
 10
0.0
 20
0.0
 30
0.0
  3
_D_2
  1
_D_2
  0
LINE
  5
104
330
101
100
AcDbEntity
  8
치수문자_일반주서
 62
     0
370
    -2
100
AcDbLine
 10
38.575
 20
4.825000000000006
 30
0.0
 11
38.575
 21
26.36562499999997
 31
0.0
  0
LINE
  5
105
330
101
100
AcDbEntity
  8
치수문자_일반주서
 62
     0
370
    -2
100
AcDbLine
 10
10.00000000000001
 20
3.254864987925143
 30
0.0
 11
10.00000000000001
 21
26.36562499999997
 31
0.0
  0
LINE
  5
106
330
101
100
AcDbEntity
  8
치수문자_일반주서
 62
     0
370
    -2
100
AcDbLine
 10
35.273
 20
26.36562499999997
 30
0.0
 11
13.30200000000001
 21
26.36562499999997
 31
0.0
  0
SOLID
  5
107
330
101
100
AcDbEntity
  8
치수문자_일반주서
 62
     0
100
AcDbTrace
 10
35.273
 20
25.81529166666663
 30
0.0
 11
35.273
 21
26.9159583333333
 31
0.0
 12
38.575
 22
26.36562499999997
 32
0.0
 13
38.575
 23
26.36562499999997
 33
0.0
  0
SOLID
  5
108
330
101
100
AcDbEntity
  8
치수문자_일반주서
 62
     0
100
AcDbTrace
 10
13.30200000000001
 20
26.9159583333333
 30
0.0
 11
13.30200000000001
 21
25.81529166666663
 31
0.0
 12
10.00000000000001
 22
26.36562499999997
 32
0.0
 13
10.00000000000001
 23
26.36562499999997
 33
0.0
  0
MTEXT
  5
109
330
101
100
AcDbEntity
  8
치수문자_일반주서
 62
     0
100
AcDbMText
 10
22.68927244150659
 20
30.74062499999997
 30
0.0
 40
3.5
 41
0.0
 71
     2
 72
     1
  1
\A1;28.58 [1 1/8]
  7
SLDTEXTSTYLE0
 73
     1
 44
1.0
  0
POINT
  5
10A
330
101
100
AcDbEntity
  8
Defpoints
 62
     0
100
AcDbPoint
 10
38.575
 20
4.762500000000006
 30
0.0
  0
POINT
  5
10B
330
101
100
AcDbEntity
  8
Defpoints
 62
     0
100
AcDbPoint
 10
10.00000000000001
 20
3.192364987925143
 30
0.0
  0
POINT
  5
10C
330
101
100
AcDbEntity
  8
Defpoints
 62
     0
100
AcDbPoint
 10
10.00000000000001
 20
26.36562499999997
 30
0.0
  0
ENDBLK
  5
103
330
101
100
AcDbEntity
  8
0
100
AcDbBlockEnd
  0
BLOCK
  5
117
330
116
100
AcDbEntity
  8
0
100
AcDbBlockBegin
  2
_D_3
 70
     0
 10
0.0
 20
0.0
 30
0.0
  3
_D_3
  1
_D_3
  0
LINE
  5
119
330
116
100
AcDbEntity
  8
치수문자_일반주서
 62
     0
370
    -2
100
AcDbLine
 10
38.575
 20
4.825000000000006
 30
0.0
 11
38.57499999999999
 21
41.18967844013393
 31
0.0
  0
LINE
  5
11A
330
116
100
AcDbEntity
  8
치수문자_일반주서
 62
     0
370
    -2
100
AcDbLine
 10
-37.625
 20
3.824999999999994
 30
0.0
 11
-37.62500000000001
 21
41.18967844013393
 31
0.0
  0
LINE
  5
11B
330
116
100
AcDbEntity
  8
치수문자_일반주서
 62
     0
370
    -2
100
AcDbLine
 10
35.27299999999999
 20
41.18967844013393
 30
0.0
 11
-34.32300000000001
 21
41.18967844013393
 31
0.0
  0
SOLID
  5
11C
330
116
100
AcDbEntity
  8
치수문자_일반주서
 62
     0
100
AcDbTrace
 10
35.27299999999999
 20
40.6393451068006
 30
0.0
 11
35.27299999999999
 21
41.74001177346727
 31
0.0
 12
38.57499999999999
 22
41.18967844013393
 32
0.0
 13
38.57499999999999
 23
41.18967844013393
 33
0.0
  0
SOLID
  5
11D
330
116
100
AcDbEntity
  8
치수문자_일반주서
 62
     0
100
AcDbTrace
 10
-34.32300000000001
 20
41.74001177346727
 30
0.0
 11
-34.32300000000001
 21
40.6393451068006
 31
0.0
 12
-37.62500000000001
 22
41.18967844013393
 32
0.0
 13
-37.62500000000001
 23
41.18967844013393
 33
0.0
  0
MTEXT
  5
11E
330
116
100
AcDbEntity
  8
치수문자_일반주서
 62
     0
100
AcDbMText
 10
0.4750000000000223
 20
45.56467844013393
 30
0.0
 40
3.5
 41
0.0
 71
     2
 72
     1
  1
\A1;76.2 [3]
  7
SLDTEXTSTYLE0
 73
     1
 44
1.0
  0
POINT
  5
11F
330
116
100
AcDbEntity
  8
Defpoints
 62
     0
100
AcDbPoint
 10
38.575
 20
4.762500000000006
 30
0.0
  0
POINT
  5
120
330
116
100
AcDbEntity
  8
Defpoints
 62
     0
100
AcDbPoint
 10
-37.625
 20
3.762499999999994
 30
0.0
  0
POINT
  5
121
330
116
100
AcDbEntity
  8
Defpoints
 62
     0
100
AcDbPoint
 10
-37.625
 20
41.18967844013393
 30
0.0
  0
ENDBLK
  5
118
330
116
100
AcDbEntity
  8
0
100
AcDbBlockEnd
  0
BLOCK
  5
130
330
12F
100
AcDbEntity
  8
0
100
AcDbBlockBegin
  2
SW_DOWELSYMBOL_0
 70
     0
 10
0.0
 20
0.0
 30
0.0
  3
SW_DOWELSYMBOL_0
  1
SW_DOWELSYMBOL_0
  0
CIRCLE
  5
132
330
12F
100
AcDbEntity
  8
해칭선
 62
     0
100
AcDbCircle
 10
0.0
 20
0.0
 30
0.0
 40
3.000000000000002
  0
HATCH
  5
133
330
12F
100
AcDbEntity
  8
0
  6
Continuous
 62
     0
370
     0
100
AcDbHatch
 10
0.0
 20
0.0
 30
0.0
210
0.0
220
0.0
230
1.0
  2
SOLID
 70
     1
 71
     0
 91
        1
 92
        0
 93
        3
 72
     2
 10
-0.0000000000000234
 20
0.0
 40
3.000000000000002
 50
0.0
 51
90.0
 73
     1
 72
     1
 10
-0.0000000000000234
 20
3.000000000000002
 11
-0.0000000000000234
 21
0.0
 72
     1
 10
-0.0000000000000234
 20
0.0
 11
2.999999999999979
 21
0.0
 97
        0
 75
     0
 76
     1
 98
        1
 10
0.0
 20
0.0
  0
HATCH
  5
134
330
12F
100
AcDbEntity
  8
0
  6
Continuous
 62
     0
370
     0
100
AcDbHatch
 10
0.0
 20
0.0
 30
0.0
210
0.0
220
0.0
230
1.0
  2
SOLID
 70
     1
 71
     0
 91
        1
 92
        0
 93
        3
 72
     2
 10
-0.0000000000000234
 20
0.0
 40
3.000000000000002
 50
180.0
 51
270.0000000000008
 73
     1
 72
     1
 10
-0.0000000000000234
 20
-3.000000000000002
 11
-0.0000000000000234
 21
0.0
 72
     1
 10
-0.0000000000000234
 20
0.0
 11
-3.000000000000026
 21
0.0
 97
        0
 75
     0
 76
     1
 98
        1
 10
0.0
 20
0.0
  0
ENDBLK
  5
131
330
12F
100
AcDbEntity
  8
0
100
AcDbBlockEnd
  0
ENDSEC
  0
SECTION
  2
ENTITIES
  0
LINE
  5
96
330
1F
100
AcDbEntity
  8
외형선
  6
Continuous
370
    15
100
AcDbLine
 10
8.48010101051382
 20
4.762499999999998
 30
0.0
 11
-36.625
 21
4.762499999999995
 31
0.0
  0
LINE
  5
97
330
1F
100
AcDbEntity
  8
외형선
  6
Continuous
370
    15
100
AcDbLine
 10
-36.625
 20
-4.762500000000004
 30
0.0
 11
8.48010101051382
 21
-4.762500000000001
 31
0.0
  0
LINE
  5
98
330
1F
100
AcDbEntity
  8
외형선
  6
Continuous
370
    15
100
AcDbLine
 10
-36.625
 20
4.762499999999994
 30
0.0
 11
-37.625
 21
3.762499999999994
 31
0.0
  0
LINE
  5
99
330
1F
100
AcDbEntity
  8
외형선
  6
Continuous
370
    15
100
AcDbLine
 10
-37.625
 20
-3.762500000000004
 30
0.0
 11
-36.625
 21
-4.762500000000003
 31
0.0
  0
SPLINE
  5
9A
330
1F
100
AcDbEntity
  8
외형선
  6
Continuous
370
    15
100
AcDbSpline
210
0.0
220
0.0
230
1.0
 70
     8
 71
     3
 72
     9
 73
     5
 74
     0
 42
0.000000001
 43
0.00000001
 40
0.0
 40
0.0
 40
0.0
 40
0.0
 40
0.4592666424429373
 40
0.9999999999999999
 40
0.9999999999999999
 40
0.9999999999999999
 40
0.9999999999999999
 10
10.00000000000001
 20
3.192293153768584
 30
0.0
 10
9.766191589837986
 20
3.17963384099061
 30
0.0
 10
9.257100816516537
 20
3.152069651458713
 30
0.0
 10
8.75281218580528
 20
3.142192969587193
 30
0.0
 10
8.480126501342928
 20
3.136852318237284
 30
0.0
  0
SPLINE
  5
9B
330
1F
100
AcDbEntity
  8
0
  6
Continuous
 62
     1
370
    15
100
AcDbSpline
210
0.0
220
0.0
230
1.0
 70
     8
 71
     3
 72
     9
 73
     5
 74
     0
 42
0.000000001
 43
0.00000001
 40
0.0
 40
0.0
 40
0.0
 40
0.0
 40
0.5189441717253296
 40
1.0
 40
1.0
 40
1.0
 40
1.0
 10
26.23583846308973
 20
1.22039016059176
 30
0.0
 10
26.00789617023599
 20
1.329293956088768
 30
0.0
 10
25.56865375212404
 20
1.539150432817155
 30
0.0
 10
25.12795860265393
 20
1.770056650921849
 30
0.0
 10
24.91595963250895
 20
1.881135432925974
 30
0.0
  0
LINE
  5
9C
330
1F
100
AcDbEntity
  8
0
  6
Continuous
 62
     1
370
    15
100
AcDbLine
 10
23.59883184415155
 20
1.343407983067857
 30
0.0
 11
23.5521173325287
 21
1.369125030393605
 31
0.0
  0
LINE
  5
9D
330
1F
100
AcDbEntity
  8
0
  6
Continuous
 62
     1
370
    15
100
AcDbLine
 10
15.30716295451055
 20
4.762500000000001
 30
0.0
 11
12.99875278684731
 21
4.762500000000001
 31
0.0
  0
SPLINE
  5
9E
330
1F
100
AcDbEntity
  8
0
  6
Continuous
 62
     1
370
    15
100
AcDbSpline
210
0.0
220
0.0
230
1.0
 70
     8
 71
     3
 72
    17
 73
    13
 74
     0
 42
0.000000001
 43
0.00000001
 40
0.0
 40
0.0
 40
0.0
 40
0.0
 40
0.1517708123946844
 40
0.265708959352082
 40
0.3631554135337103
 40
0.4548993471071685
 40
0.5348994552724428
 40
0.6379732206732276
 40
0.774131729562761
 40
0.8984343654272099
 40
0.9881981489405862
 40
1.0
 40
1.0
 40
1.0
 40
1.0
 10
24.66207285482191
 20
3.784466449372174
 30
0.0
 10
24.46992770234734
 20
3.77478969283912
 30
0.0
 10
24.13353437544208
 20
3.757848353014078
 30
0.0
 10
23.6591546897176
 20
3.74110536216639
 30
0.0
 10
23.26223323232399
 20
3.730469956528352
 30
0.0
 10
22.91389603029193
 20
3.723965718199378
 30
0.0
 10
22.55842883026034
 20
3.719949637858135
 30
0.0
 10
22.14522778974142
 20
3.718558212809166
 30
0.0
 10
21.6750769913379
 20
3.721773633885319
 30
0.0
 10
21.22198152293149
 20
3.730336682648054
 30
0.0
 10
20.92972578516448
 20
3.737764270257968
 30
0.0
 10
20.79831431510917
 20
3.742392217792302
 30
0.0
 10
20.78304440020522
 20
3.742929981847444
 30
0.0
  0
SPLINE
  5
9F
330
1F
100
AcDbEntity
  8
0
  6
Continuous
 62
     1
370
    15
100
AcDbSpline
210
0.0
220
0.0
230
1.0
 70
     8
 71
     3
 72
    27
 73
    23
 74
     0
 42
0.000000001
 43
0.00000001
 40
0.0
 40
0.0
 40
0.0
 40
0.0
 40
0.0724069471679219
 40
0.1245853525358551
 40
0.1590685477709655
 40
0.1947371870864629
 40
0.2360565484755898
 40
0.277703512304392
 40
0.3116760750308698
 40
0.3639217721040638
 40
0.4254068693489804
 40
0.5000090045861304
 40
0.5520000836147867
 40
0.591970147142104
 40
0.635897342444421
 40
0.6865761364670119
 40
0.7429088073505796
 40
0.7842802951428941
 40
0.8156573253906397
 40
0.851090138031824
 40
0.9122777532879925
 40
1.0
 40
1.0
 40
1.0
 40
1.0
 10
17.4995971584415
 20
-3.963063759677743
 30
0.0
 10
17.67174383292647
 20
-3.946325099713954
 30
0.0
 10
17.96794405911259
 20
-3.91752410845368
 30
0.0
 10
18.34645328824011
 20
-3.884746177204859
 30
0.0
 10
18.64044268718034
 20
-3.861119920657063
 30
0.0
 10
18.90776347392431
 20
-3.841041686990573
 30
0.0
 10
19.19136785193043
 20
-3.821353506905229
 30
0.0
 10
19.47044221987575
 20
-3.803696190424492
 30
0.0
 10
19.77567465333317
 20
-3.786101530368089
 30
0.0
 10
20.12827334683825
 20
-3.768015949830745
 30
0.0
 10
20.57795564567597
 20
-3.748980715864796
 30
0.0
 10
21.02704340982542
 20
-3.73481803464166
 30
0.0
 10
21.4247365484183
 20
-3.726232214382785
 30
0.0
 10
21.74926021744546
 20
-3.721587298721899
 30
0.0
 10
22.07041164252147
 20
-3.719138914330589
 30
0.0
 10
22.43072766536632
 20
-3.719141361127458
 30
0.0
 10
22.78503121886644
 20
-3.722159823904304
 30
0.0
 10
23.0932877266886
 20
-3.727188558265255
 30
0.0
 10
23.3495891358635
 20
-3.732824586541274
 30
0.0
 10
23.65322573448423
 20
-3.741123903444192
 30
0.0
 10
24.09441943149413
 20
-3.756345551815478
 30
0.0
 10
24.45163719617097
 20
-3.774041708930187
 30
0.0
 10
24.66207285482191
 20
-3.784466449372178
 30
0.0
  0
SPLINE
  5
A0
330
1F
100
AcDbEntity
  8
0
  6
Continuous
 62
     1
370
    15
100
AcDbSpline
210
0.0
220
0.0
230
1.0
 70
     8
 71
     3
 72
    17
 73
    13
 74
     0
 42
0.000000001
 43
0.00000001
 40
0.0
 40
0.0
 40
0.0
 40
0.0
 40
0.1322079438645686
 40
0.2529946902940958
 40
0.3598260347456017
 40
0.4389350852574904
 40
0.5074584330911291
 40
0.5897275003694873
 40
0.6823329723712948
 40
0.7962378259840078
 40
0.9306351841765981
 40
1.0
 40
1.0
 40
1.0
 40
1.0
 10
28.48581974717096
 20
-3.582033855031283
 30
0.0
 10
28.63394610613763
 20
-3.558923063662765
 30
0.0
 10
28.91740246447533
 20
-3.514697979043651
 30
0.0
 10
29.35735356126741
 20
-3.453602005342046
 30
0.0
 10
29.73044314249352
 20
-3.404892538422131
 30
0.0
 10
30.0387021043346
 20
-3.367618719597246
 30
0.0
 10
30.29555571141215
 20
-3.338980580156151
 30
0.0
 10
30.58387293426824
 20
-3.30828424973726
 30
0.0
 10
30.92719328763076
 20
-3.27485702590605
 30
0.0
 10
31.3321901058609
 20
-3.239682681437905
 30
0.0
 10
31.70966281940155
 20
-3.211223449029437
 30
0.0
 10
31.95179588319737
 20
-3.19700344001965
 30
0.0
 10
32.0342229355002
 20
-3.192162657814933
 30
0.0
  0
SPLINE
  5
A1
330
1F
100
AcDbEntity
  8
0
  6
Continuous
 62
     1
370
    15
100
AcDbSpline
210
0.0
220
0.0
230
1.0
 70
     8
 71
     3
 72
     9
 73
     5
 74
     0
 42
0.000000001
 43
0.00000001
 40
0.0
 40
0.0
 40
0.0
 40
0.0
 40
0.4982580756517704
 40
0.9999999999999999
 40
0.9999999999999999
 40
0.9999999999999999
 40
0.9999999999999999
 10
10.89035104868714
 20
3.257324010278335
 30
0.0
 10
10.74228189640356
 20
3.245025326258695
 30
0.0
 10
10.44510828393399
 20
3.220341965123902
 30
0.0
 10
10.14871362602549
 20
3.201664447435572
 30
0.0
 10
9.999999999999948
 20
3.19229315376858
 30
0.0
  0
SPLINE
  5
A2
330
1F
100
AcDbEntity
  8
0
  6
Continuous
 62
     1
370
    15
100
AcDbSpline
210
0.0
220
0.0
230
1.0
 70
     8
 71
     3
 72
    30
 73
    26
 74
     0
 42
0.000000001
 43
0.00000001
 40
0.0
 40
0.0
 40
0.0
 40
0.0
 40
0.0717441677538775
 40
0.1251067421430675
 40
0.16299080440181
 40
0.1877464187745479
 40
0.2173414460211709
 40
0.2534133577405281
 40
0.2878522897728071
 40
0.3159529303034455
 40
0.3395831456890353
 40
0.3819634317223133
 40
0.4332138581294371
 40
0.4810061471647791
 40
0.5222849819776378
 40
0.5668798106396199
 40
0.6350861358200391
 40
0.7008027397659602
 40
0.7516816656896711
 40
0.7924200744061555
 40
0.8194931132355893
 40
0.8534534078876949
 40
0.8978165306190524
 40
0.9466767655717292
 40
1.0
 40
1.0
 40
1.0
 40
1.0
 10
36.8049921843267
 20
3.257322518731195
 30
0.0
 10
36.60427279841599
 20
3.241020751824863
 30
0.0
 10
36.25426039681713
 20
3.212593898288511
 30
0.0
 10
35.8044823003135
 20
3.185294078672328
 30
0.0
 10
35.49550162180888
 20
3.169697382304375
 30
0.0
 10
35.27593080251823
 20
3.157925464668907
 30
0.0
 10
35.01634783721072
 20
3.148467439302902
 30
0.0
 10
34.72959704250962
 20
3.141931957119023
 30
0.0
 10
34.44614351786474
 20
3.137161143824646
 30
0.0
 10
34.19958127114553
 20
3.134629986934422
 30
0.0
 10
33.93724250950135
 20
3.133659059271686
 30
0.0
 10
33.61033630948893
 20
3.135227869419924
 30
0.0
 10
33.21621213234806
 20
3.14187460807895
 30
0.0
 10
32.82540617448183
 20
3.153525070288002
 30
0.0
 10
32.45287996419884
 20
3.168832827993609
 30
0.0
 10
32.02352707906466
 20
3.191121097296033
 30
0.0
 10
31.52600351749301
 20
3.223945864848144
 30
0.0
 10
31.01146587705703
 20
3.266732276182422
 30
0.0
 10
30.57227130344965
 20
3.309222059388601
 30
0.0
 10
30.2443604868493
 20
3.344610118387105
 30
0.0
 10
29.97716430678617
 20
3.37476296287979
 30
0.0
 10
29.67400157971938
 20
3.412197875736376
 30
0.0
 10
29.31234938945054
 20
3.45962781405139
 30
0.0
 10
28.89360245079198
 20
3.518382749930797
 30
0.0
 10
28.62564839872321
 20
3.560207896948755
 30
0.0
 10
28.48581974717096
 20
3.582033855031279
 30
0.0
  0
LINE
  5
A3
330
1F
100
AcDbEntity
  8
0
  6
Continuous
 62
     1
370
    15
100
AcDbLine
 10
12.99875278684732
 20
-4.762500000000005
 30
0.0
 11
15.30716295451055
 21
-4.762500000000005
 31
0.0
  0
SPLINE
  5
A4
330
1F
100
AcDbEntity
  8
외형선
  6
Continuous
370
    15
100
AcDbSpline
210
0.0
220
0.0
230
1.0
 70
     8
 71
     3
 72
    10
 73
     6
 74
     0
 42
0.000000001
 43
0.00000001
 40
0.0
 40
0.0
 40
0.0
 40
0.0
 40
0.5
 40
0.5
 40
1.0
 40
1.0
 40
1.0
 40
1.0
 10
10.00000000000001
 20
4.451046776078622
 30
0.0
 10
9.745801947542494
 20
4.398949167713265
 30
0.0
 10
9.491357970387057
 20
4.340506697652677
 30
0.0
 10
8.985212994838506
 20
4.211730573704528
 30
0.0
 10
8.733778114753415
 20
4.141448493319173
 30
0.0
 10
8.48010101051382
 20
4.065197523897528
 30
0.0
  0
SPLINE
  5
A5
330
1F
100
AcDbEntity
  8
외형선
  6
Continuous
370
    15
100
AcDbSpline
210
0.0
220
0.0
230
1.0
 70
     8
 71
     3
 72
    10
 73
     6
 74
     0
 42
0.000000001
 43
0.00000001
 40
0.0
 40
0.0
 40
0.0
 40
0.0
 40
0.5
 40
0.5
 40
1.0
 40
1.0
 40
1.0
 40
1.0
 10
10.00000000000001
 20
-3.810080068184517
 30
0.0
 10
9.745819617691321
 20
-3.722208622548679
 30
0.0
 10
9.491393344517027
 20
-3.62889302001047
 30
0.0
 10
8.98528317219078
 20
-3.432606968945286
 30
0.0
 10
8.733866020063683
 20
-3.329694832052636
 30
0.0
 10
8.48020681407461
 20
-3.2219130632429
 30
0.0
  0
LINE
  5
A6
330
1F
100
AcDbEntity
  8
외형선
  6
Continuous
370
    15
100
AcDbLine
 10
10.00000000000001
 20
-3.810080068184516
 30
0.0
 11
10.00000000000001
 21
-4.45104677607863
 31
0.0
  0
SPLINE
  5
A7
330
1F
100
AcDbEntity
  8
외형선
  6
Continuous
370
    15
100
AcDbSpline
210
0.0
220
0.0
230
1.0
 70
     8
 71
     3
 72
    10
 73
     6
 74
     0
 42
0.000000001
 43
0.00000001
 40
0.0
 40
0.0
 40
0.0
 40
0.0
 40
0.5
 40
0.5
 40
1.0
 40
1.0
 40
1.0
 40
1.0
 10
10.00000000000001
 20
-4.451046776078625
 30
0.0
 10
9.745801947542494
 20
-4.398949167713269
 30
0.0
 10
9.491357970387057
 20
-4.340506697652682
 30
0.0
 10
8.985212994838506
 20
-4.211730573704531
 30
0.0
 10
8.733778114753415
 20
-4.141448493319176
 30
0.0
 10
8.48010101051382
 20
-4.065197523897532
 30
0.0
  0
LINE
  5
A8
330
1F
100
AcDbEntity
  8
외형선
  6
Continuous
370
    15
100
AcDbLine
 10
8.48010101051382
 20
-4.762500000000001
 30
0.0
 11
8.48010101051382
 21
-4.065199360782378
 31
0.0
  0
LINE
  5
A9
330
1F
100
AcDbEntity
  8
외형선
  6
Continuous
370
    15
100
AcDbLine
 10
-36.625
 20
4.762499999999994
 30
0.0
 11
-36.625
 21
-4.762500000000004
 31
0.0
  0
LINE
  5
AA
330
1F
100
AcDbEntity
  8
외형선
  6
Continuous
370
    15
100
AcDbLine
 10
8.48010101051382
 20
-3.221762750149284
 30
0.0
 11
8.48010101051382
 21
4.762499999999998
 31
0.0
  0
LINE
  5
AB
330
1F
100
AcDbEntity
  8
외형선
  6
Continuous
370
    15
100
AcDbLine
 10
-37.625
 20
3.762499999999994
 30
0.0
 11
-37.625
 21
-3.762500000000006
 31
0.0
  0
SPLINE
  5
AC
330
1F
100
AcDbEntity
  8
외형선
  6
Continuous
370
    15
100
AcDbSpline
210
0.0
220
0.0
230
1.0
 70
     8
 71
     3
 72
    10
 73
     6
 74
     0
 42
0.000000001
 43
0.00000001
 40
0.0
 40
0.0
 40
0.0
 40
0.0
 40
0.5
 40
0.5
 40
1.0
 40
1.0
 40
1.0
 40
1.0
 10
9.999999999999995
 20
-3.086292779594936
 30
0.0
 10
9.745819617691307
 20
-3.005735148287846
 30
0.0
 10
9.491393344517018
 20
-2.920764590740498
 30
0.0
 10
8.985283172190776
 20
-2.743115976898183
 30
0.0
 10
8.73386602006368
 20
-2.650488215271934
 30
0.0
 10
8.48020681407461
 20
-2.553967690756663
 30
0.0
  0
SPLINE
  5
AD
330
1F
100
AcDbEntity
  8
외형선
  6
Continuous
370
    15
100
AcDbSpline
210
0.0
220
0.0
230
1.0
 70
     8
 71
     3
 72
    10
 73
     6
 74
     0
 42
0.000000001
 43
0.00000001
 40
0.0
 40
0.0
 40
0.0
 40
0.0
 40
0.5
 40
0.5
 40
1.0
 40
1.0
 40
1.0
 40
1.0
 10
10.0
 20
1.207673778302879
 30
0.0
 10
9.745808400021458
 20
1.318803187324422
 30
0.0
 10
9.491370887699555
 20
1.428250927771917
 30
0.0
 10
8.985238620979356
 20
1.642407483990795
 30
0.0
 10
8.733810214508177
 20
1.747089492005687
 30
0.0
 10
8.480139646038822
 20
1.849460106002158
 30
0.0
  0
SPLINE
  5
AE
330
1F
100
AcDbEntity
  8
외형선
  6
Continuous
370
    15
100
AcDbSpline
210
0.0
220
0.0
230
1.0
 70
    24
 71
     3
 72
    14
 73
    10
 74
     0
 42
0.000000001
 43
0.00000001
 40
0.0
 40
0.0
 40
0.0
 40
0.0
 40
0.25
 40
0.25
 40
0.5
 40
0.5
 40
0.75
 40
0.75
 40
1.0
 40
1.0
 40
1.0
 40
1.0
 10
10.00000000000001
 20
1.207673778302877
 30
0.0
 10
10.0
 20
0.8482000556669369
 30
0.0
 10
10.0
 20
0.4721753437330412
 30
0.0
 10
10.0
 20
-0.2888665136329955
 30
0.0
 10
10.0
 20
-0.6736881762310184
 30
0.0
 10
10.0
 20
-1.424165220694847
 30
0.0
 10
10.0
 20
-1.789603887571766
 30
0.0
 10
10.0
 20
-2.475843050071799
 30
0.0
 10
10.0
 20
-2.796506965628184
 30
0.0
 10
10.00000000000001
 20
-3.086292779594937
 30
0.0
  0
SPLINE
  5
AF
330
1F
100
AcDbEntity
  8
외형선
  6
Continuous
370
    15
100
AcDbSpline
210
0.0
220
0.0
230
1.0
 70
    24
 71
     3
 72
    13
 73
     9
 74
     0
 42
0.000000001
 43
0.00000001
 40
0.0
 40
0.0
 40
0.0
 40
0.0
 40
0.0591628328009349
 40
0.2502730378698055
 40
0.4359972288192936
 40
0.6271074338881695
 40
0.8135537169440847
 40
1.0
 40
1.0
 40
1.0
 40
1.0
 10
10.00000000000001
 20
3.176583443740057
 30
0.0
 10
10.00000000000001
 20
3.180496267937898
 30
0.0
 10
10.00000000000001
 20
3.197048457078998
 30
0.0
 10
10.00000000000001
 20
3.074772185296148
 30
0.0
 10
10.00000000000001
 20
2.809437558041011
 30
0.0
 10
10.00000000000001
 20
2.39690873592345
 30
0.0
 10
10.00000000000001
 20
1.866259609996314
 30
0.0
 10
10.00000000000001
 20
1.427202388867354
 30
0.0
 10
10.00000000000001
 20
1.207673778302873
 30
0.0
  0
SPLINE
  5
B0
330
1F
100
AcDbEntity
  8
외형선
  6
Continuous
370
    15
100
AcDbSpline
210
0.0
220
0.0
230
1.0
 70
    24
 71
     3
 72
     8
 73
     4
 74
     0
 42
0.000000001
 43
0.00000001
 40
0.0
 40
0.0
 40
0.0
 40
0.0
 40
1.0
 40
1.0
 40
1.0
 40
1.0
 10
10.00000000000002
 20
-3.086292779594943
 30
0.0
 10
10.00000000000002
 20
-3.319923477464636
 30
0.0
 10
10.00000000000002
 20
-3.562702643602554
 30
0.0
 10
10.00000000000002
 20
-3.810080068175098
 30
0.0
  0
SPLINE
  5
B1
330
1F
100
AcDbEntity
  8
외형선
  6
Continuous
370
    15
100
AcDbSpline
210
0.0
220
0.0
230
1.0
 70
    24
 71
     3
 72
    11
 73
     7
 74
     0
 42
0.000000001
 43
0.00000001
 40
0.0
 40
0.0
 40
0.0
 40
0.0
 40
0.1907712483858868
 40
0.4117251632689834
 40
0.6390867566521711
 40
1.0
 40
1.0
 40
1.0
 40
1.0
 10
10.00000000000001
 20
4.451046776078626
 30
0.0
 10
10.00000000000001
 20
4.360389078248216
 30
0.0
 10
10.00000000000001
 20
4.164730373088863
 30
0.0
 10
10.00000000000001
 20
3.872841355250735
 30
0.0
 10
10.00000000000001
 20
3.522359650233742
 30
0.0
 10
10.00000000000001
 20
3.317795540766321
 30
0.0
 10
10.00000000000001
 20
3.192293153768584
 30
0.0
  0
SPLINE
  5
B2
330
1F
100
AcDbEntity
  8
0
  6
Continuous
 62
     1
370
    15
100
AcDbSpline
210
0.0
220
0.0
230
1.0
 70
     8
 71
     3
 72
    23
 73
    19
 74
     0
 42
0.000000001
 43
0.00000001
 40
0.0
 40
0.0
 40
0.0
 40
0.0
 40
0.0642291125658545
 40
0.1284008693230067
 40
0.1925513017924587
 40
0.2567166293186531
 40
0.3209329400140885
 40
0.3851730434932215
 40
0.4456788980784674
 40
0.5061554350765193
 40
0.5666714575246257
 40
0.6272618269273889
 40
0.6877802361051527
 40
0.755294751267538
 40
0.8228099537919645
 40
0.8903431270807103
 40
0.9579114572439982
 40
0.9999999999999999
 40
0.9999999999999999
 40
0.9999999999999999
 40
0.9999999999999999
 10
38.57500000000001
 20
-4.519330889716926
 30
0.0
 10
38.07676062938738
 20
-4.414356611293595
 30
0.0
 10
37.08072680980103
 20
-4.204501795188342
 30
0.0
 10
35.58744734468143
 20
-3.712487831601872
 30
0.0
 10
34.09472840187656
 20
-3.1097817221872
 30
0.0
 10
32.60161335548008
 20
-2.40248092279877
 30
0.0
 10
31.10752272752184
 20
-1.617463537719397
 30
0.0
 10
29.64157011416096
 20
-0.7956492173018694
 30
0.0
 10
28.20521393671762
 20
0.0344304886670299
 30
0.0
 10
26.79783710276851
 20
0.8470667849076318
 30
0.0
 10
25.38966965337383
 20
1.63517699652067
 30
0.0
 10
23.9805140769532
 20
2.374887922483088
 30
0.0
 10
22.51780411993046
 20
3.072565991741051
 30
0.0
 10
21.00116992555019
 20
3.694376981859818
 30
0.0
 10
19.43021180815569
 20
4.206771676271353
 30
0.0
 10
17.8587373063809
 20
4.559711476911272
 30
0.0
 10
16.48430554208014
 20
4.747652571691958
 30
0.0
 10
15.63365859133986
 20
4.743710781858779
 30
0.0
 10
15.30716295451054
 20
4.742197842582724
 30
0.0
  0
SPLINE
  5
B3
330
1F
100
AcDbEntity
  8
0
  6
Continuous
 62
     1
370
    15
100
AcDbSpline
210
0.0
220
0.0
230
1.0
 70
     8
 71
     3
 72
    16
 73
    12
 74
     0
 42
0.000000001
 43
0.00000001
 40
0.0
 40
0.0
 40
0.0
 40
0.0
 40
0.1216998791972914
 40
0.2432919737007156
 40
0.3648405680272128
 40
0.4864103119290006
 40
0.6080656774894233
 40
0.729797164381104
 40
0.8514193070594991
 40
0.9729756427228065
 40
0.9999999999999999
 40
0.9999999999999999
 40
0.9999999999999999
 40
0.9999999999999999
 10
38.57500000000001
 20
-3.757480409053632
 30
0.0
 10
38.0730164471289
 20
-3.653818112713443
 30
0.0
 10
37.06949392805288
 20
-3.446585329564434
 30
0.0
 10
35.5648943862022
 20
-2.987761695559261
 30
0.0
 10
34.06088888139166
 20
-2.438824234844136
 30
0.0
 10
32.55659097036595
 20
-1.806437788416642
 30
0.0
 10
31.05137364985474
 20
-1.11496674713556
 30
0.0
 10
29.5456876911829
 20
-0.3857105960704231
 30
0.0
 10
28.04074757771464
 20
0.3529983007493622
 30
0.0
 10
26.92647214107032
 20
0.9019086621277408
 30
0.0
 10
26.31373844020937
 20
1.181607066157741
 30
0.0
 10
26.20229236925536
 20
1.232479554707747
 30
0.0
  0
LINE
  5
B4
330
1F
100
AcDbEntity
  8
0
  6
Continuous
 62
     1
370
    15
100
AcDbLine
 10
38.57500000000001
 20
-4.51933088971693
 30
0.0
 11
38.57500000000001
 21
-3.757480409053632
 31
0.0
  0
SPLINE
  5
B5
330
1F
100
AcDbEntity
  8
0
  6
Continuous
 62
     1
370
    15
100
AcDbSpline
210
0.0
220
0.0
230
1.0
 70
     8
 71
     3
 72
    60
 73
    56
 74
     0
 42
0.000000001
 43
0.00000001
 40
0.0
 40
0.0
 40
0.0
 40
0.0
 40
0.0624999999999999
 40
0.0624999999999999
 40
0.1249999999999999
 40
0.1249999999999999
 40
0.1562499999999999
 40
0.1562499999999999
 40
0.1874999999999999
 40
0.1874999999999999
 40
0.2187499999999999
 40
0.2187499999999999
 40
0.2499999999999999
 40
0.2499999999999999
 40
0.2812499999999998
 40
0.2812499999999998
 40
0.3124999999999998
 40
0.3124999999999998
 40
0.3437499999999998
 40
0.3437499999999998
 40
0.3749999999999999
 40
0.3749999999999999
 40
0.4062499999999999
 40
0.4062499999999999
 40
0.4374999999999999
 40
0.4374999999999999
 40
0.4687499999999999
 40
0.4687499999999999
 40
0.5
 40
0.5
 40
0.53125
 40
0.53125
 40
0.5624999999999999
 40
0.5624999999999999
 40
0.5937499999999999
 40
0.5937499999999999
 40
0.6249999999999999
 40
0.6249999999999999
 40
0.6562499999999999
 40
0.6562499999999999
 40
0.6874999999999998
 40
0.6874999999999998
 40
0.7187499999999998
 40
0.7187499999999998
 40
0.7499999999999998
 40
0.7499999999999998
 40
0.7812499999999998
 40
0.7812499999999998
 40
0.8124999999999998
 40
0.8124999999999998
 40
0.8749999999999999
 40
0.8749999999999999
 40
0.9374999999999999
 40
0.9374999999999999
 40
1.0
 40
1.0
 40
1.0
 40
1.0
 10
38.57500000000001
 20
-4.762499999999992
 30
0.0
 10
37.98342325373935
 20
-4.74437616507356
 30
0.0
 10
37.38100881876593
 20
-4.692738315528503
 30
0.0
 10
36.19633671769952
 20
-4.517877266737881
 30
0.0
 10
35.5954665586673
 20
-4.393815632099932
 30
0.0
 10
34.70590509303982
 20
-4.15871397302597
 30
0.0
 10
34.40910876807537
 20
-4.072068163948471
 30
0.0
 10
33.81208587015029
 20
-3.882847013594871
 30
0.0
 10
33.51309813683639
 20
-3.780380793358681
 30
0.0
 10
32.91940682877842
 20
-3.561617287679772
 30
0.0
 10
32.62324252401534
 20
-3.445170118021606
 30
0.0
 10
32.02638720967568
 20
-3.198667761985233
 30
0.0
 10
31.72729091284653
 20
-3.068807147658277
 30
0.0
 10
31.13300407066094
 20
-2.798197642936328
 30
0.0
 10
30.83732701809113
 20
-2.657403357093146
 30
0.0
 10
30.24069506724183
 20
-2.365147656450131
 30
0.0
 10
29.94151830463679
 20
-2.213953863670949
 30
0.0
 10
29.34669090971367
 20
-1.904114321307897
 30
0.0
 10
29.05135619027045
 20
-1.745545902764761
 30
0.0
 10
28.45500331320755
 20
-1.421202161409163
 30
0.0
 10
28.15577420785272
 20
-1.25573536672785
 30
0.0
 10
27.56046140928525
 20
-0.9211249009267101
 30
0.0
 10
27.2653239977369
 20
-0.7521714472384075
 30
0.0
 10
26.66930581783077
 20
-0.410901862085498
 30
0.0
 10
26.37005250920568
 20
-0.238890666573675
 30
0.0
 10
25.77430960683943
 20
0.1048649776076346
 30
0.0
 10
25.47922441675184
 20
0.2763377897545697
 30
0.0
 10
24.88359645318723
 20
0.6185846922727737
 30
0.0
 10
24.58434708838073
 20
0.7891051770201359
 30
0.0
 10
23.98822951576476
 20
1.125945195919761
 30
0.0
 10
23.69305144450381
 20
1.291956186560603
 30
0.0
 10
23.09786909508798
 20
1.619192750517858
 30
0.0
 10
22.79865181994892
 20
1.780257205976263
 30
0.0
 10
22.20221512719979
 20
2.094438027204036
 30
0.0
 10
21.90679910094428
 20
2.24725680396067
 30
0.0
 10
21.31211762499424
 20
2.544204991757793
 30
0.0
 10
21.01296057528314
 20
2.688290920621077
 30
0.0
 10
20.41626041187287
 20
2.965123890296469
 30
0.0
 10
20.12046143060866
 20
3.097625796977343
 30
0.0
 10
19.52633593192878
 20
3.350432336074587
 30
0.0
 10
19.2272672244761
 20
3.470812303976755
 30
0.0
 10
18.63035932195506
 20
3.697352125413144
 30
0.0
 10
18.33403250442137
 20
3.803345795280241
 30
0.0
 10
17.74051791438208
 20
4.000230168426281
 30
0.0
 10
17.44156563825904
 20
4.091286726148218
 30
0.0
 10
16.84450579292537
 20
4.256938309108312
 30
0.0
 10
16.54750642148375
 20
4.331450987576458
 30
0.0
 10
15.95465748221244
 20
4.463255882556245
 30
0.0
 10
15.65584968992017
 20
4.520744391249122
 30
0.0
 10
14.76011577320991
 20
4.666267202109704
 30
0.0
 10
14.16871134220629
 20
4.727212271288395
 30
0.0
 10
12.97431900226651
 20
4.774894167294502
 30
0.0
 10
12.38294047894984
 20
4.76147681073702
 30
0.0
 10
11.18857946039807
 20
4.660580491236091
 30
0.0
 10
10.59710896727643
 20
4.573423595365269
 30
0.0
 10
10.00000000000001
 20
4.451046776078627
 30
0.0
  0
SPLINE
  5
B6
330
1F
100
AcDbEntity
  8
0
  6
Continuous
 62
     1
370
    15
100
AcDbSpline
210
0.0
220
0.0
230
1.0
 70
     8
 71
     3
 72
    16
 73
    12
 74
     0
 42
0.000000001
 43
0.00000001
 40
0.0
 40
0.0
 40
0.0
 40
0.0
 40
0.0840878639839804
 40
0.2026987524199699
 40
0.3213104158268623
 40
0.4399228207244082
 40
0.5585359335846202
 40
0.6771497208339088
 40
0.8033390785171833
 40
0.9295402805424571
 40
1.0
 40
1.0
 40
1.0
 40
1.0
 10
26.74238849085733
 20
-0.4510523217201275
 30
0.0
 10
26.29790099782675
 20
-0.2726668391555602
 30
0.0
 10
25.22643769700201
 20
0.1573418809203914
 30
0.0
 10
23.52799310087436
 20
0.8435255008841397
 30
0.0
 10
21.64705025832277
 20
1.556984621660223
 30
0.0
 10
19.76609692413115
 20
2.19072942099816
 30
0.0
 10
17.88512178946853
 20
2.710267809586118
 30
0.0
 10
15.96412950942512
 20
3.099873551251247
 30
0.0
 10
14.0028847077123
 20
3.316506140597924
 30
0.0
 10
12.29621066621493
 20
3.368064251605268
 30
0.0
 10
11.25659606660953
 20
3.268682512251987
 30
0.0
 10
10.88412271257532
 20
3.233076000184227
 30
0.0
  0
SPLINE
  5
B7
330
1F
100
AcDbEntity
  8
외형선
  6
Continuous
370
    15
100
AcDbSpline
210
0.0
220
0.0
230
1.0
 70
    24
 71
     3
 72
    11
 73
     7
 74
     0
 42
0.000000001
 43
0.00000001
 40
0.0
 40
0.0
 40
0.0
 40
0.0
 40
0.1907712483858887
 40
0.4117251632689871
 40
0.6390867566521742
 40
1.0
 40
1.0
 40
1.0
 40
1.0
 10
10.00000000000001
 20
4.451046776078627
 30
0.0
 10
10.00000000000001
 20
4.360389078248215
 30
0.0
 10
10.00000000000001
 20
4.164730373088862
 30
0.0
 10
10.00000000000001
 20
3.87284135525073
 30
0.0
 10
10.00000000000001
 20
3.522359650233738
 30
0.0
 10
10.00000000000001
 20
3.31779554076632
 30
0.0
 10
10.00000000000001
 20
3.192293153768584
 30
0.0
  0
LINE
  5
B8
330
1F
100
AcDbEntity
  8
0
  6
Continuous
 62
     1
370
    15
100
AcDbLine
 10
38.575
 20
-4.762499999999995
 30
0.0
 11
38.57500000000001
 21
-4.51933088971693
 31
0.0
  0
SPLINE
  5
B9
330
1F
100
AcDbEntity
  8
0
  6
Continuous
 62
     1
370
    15
100
AcDbSpline
210
0.0
220
0.0
230
1.0
 70
     8
 71
     3
 72
     8
 73
     4
 74
     0
 42
0.000000001
 43
0.00000001
 40
0.0
 40
0.0
 40
0.0
 40
0.0
 40
1.0
 40
1.0
 40
1.0
 40
1.0
 10
35.6281917708781
 20
1.332157722516844
 30
0.0
 10
35.45841672496229
 20
1.533287874480703
 30
0.0
 10
35.30747175025961
 20
1.726224115458054
 30
0.0
 10
35.17938349322803
 20
1.90921424906699
 30
0.0
  0
LINE
  5
BA
330
1F
100
AcDbEntity
  8
0
  6
Continuous
 62
     1
370
    15
100
AcDbLine
 10
35.23956634281501
 20
1.959713655970953
 30
0.0
 11
38.57500000000001
 21
0.0000000000000016
 31
0.0
  0
LINE
  5
BB
330
1F
100
AcDbEntity
  8
0
  6
Continuous
 62
     1
370
    15
100
AcDbLine
 10
38.57500000000001
 20
0.0000000000000016
 30
0.0
 11
38.57500000000001
 21
-1.272744530466182
 31
0.0
  0
SPLINE
  5
BC
330
1F
100
AcDbEntity
  8
0
  6
Continuous
 62
     1
370
    15
100
AcDbSpline
210
0.0
220
0.0
230
1.0
 70
     8
 71
     3
 72
    12
 73
     8
 74
     0
 42
0.000000001
 43
0.00000001
 40
0.0
 40
0.0
 40
0.0
 40
0.0
 40
0.500000000000001
 40
0.500000000000001
 40
0.7500000000000004
 40
0.7500000000000004
 40
1.0
 40
1.0
 40
1.0
 40
1.0
 10
38.57500000000001
 20
-1.272744530466182
 30
0.0
 10
38.06489851532634
 20
-0.8717186828896224
 30
0.0
 10
37.5633171832891
 20
-0.4542496700308855
 30
0.0
 10
36.8240539205915
 20
0.19725258642006
 30
0.0
 10
36.57985565325277
 20
0.4187098580069616
 30
0.0
 10
36.09644649459786
 20
0.8712496099959948
 30
0.0
 10
35.85855473523947
 20
1.10115775578405
 30
0.0
 10
35.62819177087809
 20
1.332157722516859
 30
0.0
  0
SPLINE
  5
BD
330
1F
100
AcDbEntity
  8
0
  6
Continuous
 62
     1
370
    15
100
AcDbSpline
210
0.0
220
0.0
230
1.0
 70
     8
 71
     3
 72
    14
 73
    10
 74
     0
 42
0.000000001
 43
0.00000001
 40
0.0
 40
0.0
 40
0.0
 40
0.0
 40
0.1390406361309068
 40
0.2781105523555759
 40
0.4172707812408711
 40
0.5887354162768075
 40
0.7602012834187845
 40
0.9316683357455235
 40
1.0
 40
1.0
 40
1.0
 40
1.0
 10
35.62819177087809
 20
1.332157722516852
 30
0.0
 10
35.11989172290993
 20
1.547803066568334
 30
0.0
 10
34.1031845857986
 20
1.979139166689458
 30
0.0
 10
32.5777143827974
 20
2.546731241151849
 30
0.0
 10
30.93354284384648
 20
3.067232301150196
 30
0.0
 10
29.17073047852721
 20
3.494253708405982
 30
0.0
 10
27.28984427560206
 20
3.756895287655487
 30
0.0
 10
25.78604758942114
 20
3.847629545681882
 30
0.0
 10
24.90922002753035
 20
3.780034735534524
 30
0.0
 10
24.65936428425368
 20
3.760773306873916
 30
0.0
  0
SPLINE
  5
BE
330
1F
100
AcDbEntity
  8
0
  6
Continuous
 62
     1
370
    15
100
AcDbSpline
210
0.0
220
0.0
230
1.0
 70
    24
 71
     3
 72
    10
 73
     6
 74
     0
 42
0.000000001
 43
0.00000001
 40
0.0
 40
0.0
 40
0.0
 40
0.0
 40
0.5
 40
0.5
 40
1.0
 40
1.0
 40
1.0
 40
1.0
 10
38.57500000000001
 20
-3.75748040905363
 30
0.0
 10
38.57500000000001
 20
-3.469440240130622
 30
0.0
 10
38.57500000000001
 20
-3.105490442104558
 30
0.0
 10
38.575
 20
-2.259342187955113
 30
0.0
 10
38.575
 20
-1.777876697531863
 30
0.0
 10
38.575
 20
-1.272744530466335
 30
0.0
  0
SPLINE
  5
BF
330
1F
100
AcDbEntity
  8
0
  6
Continuous
 62
     1
370
    15
100
AcDbSpline
210
0.0
220
0.0
230
1.0
 70
     8
 71
     3
 72
    12
 73
     8
 74
     0
 42
0.000000001
 43
0.00000001
 40
0.0
 40
0.0
 40
0.0
 40
0.0
 40
0.1994172880220885
 40
0.3996639996407656
 40
0.5999228075763497
 40
0.7999983089476747
 40
1.0
 40
1.0
 40
1.0
 40
1.0
 10
17.49972003539046
 20
-3.962665033360967
 30
0.0
 10
17.00123297516447
 20
-4.00012234012887
 30
0.0
 10
16.00218552930299
 20
-4.07519274744969
 30
0.0
 10
14.5022620813702
 20
-4.01856769617358
 30
0.0
 10
13.00066937508085
 20
-3.836888804056969
 30
0.0
 10
11.49998902177564
 20
-3.533197756082718
 30
0.0
 10
10.49993484052845
 20
-3.235242781833826
 30
0.0
 10
10.0
 20
-3.086292779594938
 30
0.0
  0
SPLINE
  5
C0
330
1F
100
AcDbEntity
  8
0
  6
Continuous
 62
     1
370
    15
100
AcDbSpline
210
0.0
220
0.0
230
1.0
 70
     8
 71
     3
 72
    18
 73
    14
 74
     0
 42
0.000000001
 43
0.00000001
 40
0.0
 40
0.0
 40
0.0
 40
0.0
 40
0.0651051544901605
 40
0.166805714379681
 40
0.2685069493512666
 40
0.3702088314868848
 40
0.4719113328271043
 40
0.5736144253728611
 40
0.6753180810872316
 40
0.7565300986694735
 40
0.8377471108674401
 40
0.9188887340652532
 40
1.0
 40
1.0
 40
1.0
 40
1.0
 10
28.49394008038977
 20
-3.559222736676952
 30
0.0
 10
28.09257530925399
 20
-3.623690854315678
 30
0.0
 10
27.064239874058
 20
-3.788864418554225
 30
0.0
 10
25.40892771560438
 20
-3.8371638495145
 30
0.0
 10
23.52799953989902
 20
-3.721701124338311
 30
0.0
 10
21.64705895200158
 20
-3.405975597271452
 30
0.0
 10
19.76610088035845
 20
-2.915937972993172
 30
0.0
 10
17.8851473369975
 20
-2.274426816597205
 30
0.0
 10
16.13045442263303
 20
-1.566163995354195
 30
0.0
 10
14.50224191431052
 20
-0.8481840712325841
 30
0.0
 10
13.00065051520971
 20
-0.1589520526414034
 30
0.0
 10
11.49998099151307
 20
0.5386969571297631
 30
0.0
 10
10.49993129459034
 20
0.9847093206515555
 30
0.0
 10
10.00000000000001
 20
1.207673778302876
 30
0.0
  0
SPLINE
  5
C1
330
1F
100
AcDbEntity
  8
외형선
  6
Continuous
370
    15
100
AcDbSpline
210
0.0
220
0.0
230
1.0
 70
    24
 71
     3
 72
    14
 73
    10
 74
     0
 42
0.000000001
 43
0.00000001
 40
0.0
 40
0.0
 40
0.0
 40
0.0
 40
0.25
 40
0.25
 40
0.5
 40
0.5
 40
0.75
 40
0.75
 40
1.0
 40
1.0
 40
1.0
 40
1.0
 10
10.00000000000001
 20
1.207673778302877
 30
0.0
 10
10.0
 20
0.8482000556669369
 30
0.0
 10
10.0
 20
0.4721753437330412
 30
0.0
 10
10.0
 20
-0.2888665136329955
 30
0.0
 10
10.0
 20
-0.6736881762310184
 30
0.0
 10
10.0
 20
-1.424165220694847
 30
0.0
 10
10.0
 20
-1.789603887571766
 30
0.0
 10
10.0
 20
-2.475843050071799
 30
0.0
 10
10.0
 20
-2.796506965628184
 30
0.0
 10
10.00000000000001
 20
-3.086292779594937
 30
0.0
  0
SPLINE
  5
C2
330
1F
100
AcDbEntity
  8
외형선
  6
Continuous
370
    15
100
AcDbSpline
210
0.0
220
0.0
230
1.0
 70
    24
 71
     3
 72
    13
 73
     9
 74
     0
 42
0.000000001
 43
0.00000001
 40
0.0
 40
0.0
 40
0.0
 40
0.0
 40
0.0598332445767732
 40
0.2508072703614618
 40
0.4363991199356179
 40
0.6273731457203117
 40
0.8136865728601559
 40
1.0
 40
1.0
 40
1.0
 40
1.0
 10
10.00000000000001
 20
3.176500385587395
 30
0.0
 10
10.00000000000001
 20
3.180474836039208
 30
0.0
 10
10.00000000000001
 20
3.197134822908672
 30
0.0
 10
10.00000000000001
 20
3.074813739719632
 30
0.0
 10
10.00000000000001
 20
2.809426197008549
 30
0.0
 10
10.00000000000001
 20
2.396911718663048
 30
0.0
 10
10.00000000000001
 20
1.866258872003401
 30
0.0
 10
10.00000000000001
 20
1.427202142869716
 30
0.0
 10
10.00000000000001
 20
1.207673778302873
 30
0.0
  0
SPLINE
  5
C3
330
1F
100
AcDbEntity
  8
0
  6
Continuous
 62
     1
370
    15
100
AcDbSpline
210
0.0
220
0.0
230
1.0
 70
    24
 71
     3
 72
     8
 73
     4
 74
     0
 42
0.000000001
 43
0.00000001
 40
0.0
 40
0.0
 40
0.0
 40
0.0
 40
1.0
 40
1.0
 40
1.0
 40
1.0
 10
35.67616348196439
 20
2.326062154403929
 30
0.0
 10
35.51896695349193
 20
2.194158605340331
 30
0.0
 10
35.35283853855078
 20
2.054760313635454
 30
0.0
 10
35.17938349322264
 20
1.909214249074778
 30
0.0
  0
LINE
  5
C4
330
1F
100
AcDbEntity
  8
0
  6
Continuous
 62
     1
370
    15
100
AcDbLine
 10
38.57500000000001
 20
3.333749999999998
 30
0.0
 11
36.8038922269041
 21
3.25249012689365
 31
0.0
  0
SPLINE
  5
C5
330
1F
100
AcDbEntity
  8
0
  6
Continuous
 62
     1
370
    15
100
AcDbSpline
210
0.0
220
0.0
230
1.0
 70
     8
 71
     3
 72
    10
 73
     6
 74
     0
 42
0.000000001
 43
0.00000001
 40
0.0
 40
0.0
 40
0.0
 40
0.0
 40
0.5
 40
0.5
 40
1.0
 40
1.0
 40
1.0
 40
1.0
 10
38.57500000000001
 20
3.333750000000002
 30
0.0
 10
38.08510084443063
 20
3.200858771186559
 30
0.0
 10
37.59819019078999
 20
3.051717186240095
 30
0.0
 10
36.63090601612541
 20
2.71788753331158
 30
0.0
 10
36.15048240013395
 20
2.533688937192329
 30
0.0
 10
35.67616348197353
 20
2.326062154408184
 30
0.0
  0
SPLINE
  5
C6
330
1F
100
AcDbEntity
  8
0
  6
Continuous
 62
     1
370
    15
100
AcDbSpline
210
0.0
220
0.0
230
1.0
 70
     8
 71
     3
 72
    14
 73
    10
 74
     0
 42
0.000000001
 43
0.00000001
 40
0.0
 40
0.0
 40
0.0
 40
0.0
 40
0.1252819898000247
 40
0.2710399866173969
 40
0.4168738631151996
 40
0.562755520217259
 40
0.7085503378544417
 40
0.8542860933041435
 40
1.0
 40
1.0
 40
1.0
 40
1.0
 10
20.7808754176739
 20
-3.743631020770037
 30
0.0
 10
20.33069875994584
 20
-3.897480818777427
 30
0.0
 10
19.35676886402991
 20
-4.230325525822491
 30
0.0
 10
17.85873559575506
 20
-4.562001339728548
 30
0.0
 10
16.28650041798611
 20
-4.758232002915761
 30
0.0
 10
14.71394794890092
 20
-4.779311665990202
 30
0.0
 10
13.14204844374812
 20
-4.625726243292624
 30
0.0
 10
11.57085658610279
 20
-4.314375970682208
 30
0.0
 10
10.52359269237756
 20
-3.978170301041954
 30
0.0
 10
9.999999999996934
 20
-3.810080068183455
 30
0.0
  0
SPLINE
  5
C7
330
1F
100
AcDbEntity
  8
외형선
  6
Continuous
370
    15
100
AcDbSpline
210
0.0
220
0.0
230
1.0
 70
    24
 71
     3
 72
     8
 73
     4
 74
     0
 42
0.000000001
 43
0.00000001
 40
0.0
 40
0.0
 40
0.0
 40
0.0
 40
1.0
 40
1.0
 40
1.0
 40
1.0
 10
10.00000000000002
 20
-3.086292779594943
 30
0.0
 10
10.00000000000002
 20
-3.319923477464636
 30
0.0
 10
10.00000000000002
 20
-3.562702643602554
 30
0.0
 10
10.00000000000002
 20
-3.810080068175098
 30
0.0
  0
SPLINE
  5
C8
330
1F
100
AcDbEntity
  8
0
  6
Continuous
 62
     1
370
    15
100
AcDbSpline
210
0.0
220
0.0
230
1.0
 70
     8
 71
     3
 72
    10
 73
     6
 74
     0
 42
0.000000001
 43
0.00000001
 40
0.0
 40
0.0
 40
0.0
 40
0.0
 40
0.4977161144989091
 40
0.9956221109820831
 40
0.9999999999999999
 40
0.9999999999999999
 40
0.9999999999999999
 40
0.9999999999999999
 10
10.00000000000001
 20
-4.451046776078631
 30
0.0
 10
10.49749195643156
 20
-4.535683712186082
 30
0.0
 10
11.49266566576114
 20
-4.704989873950996
 30
0.0
 10
12.49218821202804
 20
-4.787952890187203
 30
0.0
 10
12.99437573769836
 20
-4.762047493038999
 30
0.0
 10
12.99875278684732
 20
-4.761821702491155
 30
0.0
  0
SPLINE
  5
C9
330
1F
100
AcDbEntity
  8
0
  6
Continuous
 62
     1
370
    15
100
AcDbSpline
210
0.0
220
0.0
230
1.0
 70
     8
 71
     3
 72
    12
 73
     8
 74
     0
 42
0.000000001
 43
0.00000001
 40
0.0
 40
0.0
 40
0.0
 40
0.0
 40
0.0389896139007332
 40
0.2791520515957032
 40
0.5193337209925146
 40
0.7595960424593102
 40
1.0
 40
1.0
 40
1.0
 40
1.0
 10
32.03397834710659
 20
3.192052319756985
 30
0.0
 10
32.1189859778149
 20
3.230785245167897
 30
0.0
 10
32.72761099713241
 20
3.508099496606429
 30
0.0
 10
33.85982461093005
 20
3.913975253551322
 30
0.0
 10
35.43089863932848
 20
4.370330488823388
 30
0.0
 10
37.00257806580927
 20
4.670745544778651
 30
0.0
 10
38.05075640105071
 20
4.729225975879497
 30
0.0
 10
38.575
 20
4.762500000000004
 30
0.0
  0
LINE
  5
CA
330
1F
100
AcDbEntity
  8
0
  6
Continuous
 62
     1
370
    15
100
AcDbLine
 10
38.57500000000001
 20
0.0000000000000016
 30
0.0
 11
38.57500000000001
 21
3.333750000000002
 31
0.0
  0
SPLINE
  5
CB
330
1F
100
AcDbEntity
  8
0
  6
Continuous
 62
     1
370
    15
100
AcDbSpline
210
0.0
220
0.0
230
1.0
 70
    24
 71
     3
 72
    10
 73
     6
 74
     0
 42
0.000000001
 43
0.00000001
 40
0.0
 40
0.0
 40
0.0
 40
0.0
 40
0.5
 40
0.5
 40
1.0
 40
1.0
 40
1.0
 40
1.0
 10
38.57500000000001
 20
3.333749999999998
 30
0.0
 10
38.57500000000001
 20
3.53583362304483
 30
0.0
 10
38.57500000000001
 20
3.770673507979644
 30
0.0
 10
38.57500000000001
 20
4.263366954076072
 30
0.0
 10
38.57500000000001
 20
4.519962238004512
 30
0.0
 10
38.575
 20
4.762500000000006
 30
0.0
  0
LINE
  5
CC
330
1F
100
AcDbEntity
  8
중심선
 48
0.8
100
AcDbLine
 10
-40.62499999999999
 20
-0.0000000000000059
 30
0.0
 11
41.57500000000002
 21
0.0000000000000042
 31
0.0
  0
LINE
  5
CD
330
1F
100
AcDbEntity
  8
참조1
100
AcDbLine
 10
-3.562684671492226
 20
0.0010749287238892
 30
0.0
 11
-3.562684671492222
 21
-39.99892507127611
 31
0.0
  0
LINE
  5
CE
330
1F
100
AcDbEntity
  8
참조1
100
AcDbLine
 10
-3.562684671492222
 20
-39.99892507127611
 30
0.0
 11
-15.54395731641845
 21
-39.9989250712761
 31
0.0
  0
CIRCLE
  5
CF
330
1F
100
AcDbEntity
  8
해칭선
100
AcDbCircle
 10
0.0
 20
0.0
 30
0.0
 40
3.000000000000002
  0
INSERT
  5
D0
330
1F
100
AcDbEntity
  8
0
  6
Continuous
 62
     7
100
AcDbBlockReference
 66
     1
  2
블럭10
 10
-13.46527293212519
 20
-52.04717430164393
 30
0.0
  0
ATTRIB
  5
D1
330
D0
100
AcDbEntity
  8
FORMAT
 62
     2
100
AcDbText
 10
-23.60690894426182
 20
-49.97180738881175
 30
0.0
 40
4.233333333333333
  1
EM206024 [ 2 FLUTE ]
 41
0.75
  7
SLDTEXTSTYLE0
 11
-23.60690894426182
 21
-52.08847405547841
 31
0.0
100
AcDbAttribute
  2
AUTOATTR0
 70
     0
 74
     1
  0
SEQEND
  5
D2
330
D0
100
AcDbEntity
  8
0
  6
Continuous
 62
     7
  0
HATCH
  5
D3
330
1F
100
AcDbEntity
  8
중심선
100
AcDbHatch
 10
0.0
 20
0.0
 30
0.0
210
0.0
220
0.0
230
1.0
  2
SOLID
 70
     1
 71
     0
 91
        1
 92
        0
 93
        4
 72
     1
 10
-7.750363627744331
 20
-35.8
 11
-11.19663887158161
 21
-35.8
 72
     1
 10
-11.19663887158161
 20
-35.8
 11
-13.32486873078564
 21
-38.3363255805726
 72
     1
 10
-13.32486873078564
 20
-38.3363255805726
 11
-9.878560401835205
 21
-38.33628615127011
 72
     1
 10
-9.878560401835205
 20
-38.33628615127011
 11
-7.750363627744331
 21
-35.8
 97
        0
 75
     0
 76
     1
 98
        1
 10
4.037684671492244
 20
-0.0010749287238951
  0
HATCH
  5
D4
330
1F
100
AcDbEntity
  8
중심선
100
AcDbHatch
 10
0.0
 20
0.0
 30
0.0
210
0.0
220
0.0
230
1.0
  2
SOLID
 70
     1
 71
     0
 91
        1
 92
        0
 93
        4
 72
     1
 10
-2.737599636708353
 20
-35.8
 11
-6.183874880545636
 21
-35.8
 72
     1
 10
-6.183874880545636
 20
-35.8
 11
-10.71501288890305
 21
-41.20000000000002
 72
     1
 10
-10.71501288890305
 20
-41.20000000000002
 11
-7.268737645065769
 21
-41.20000000000002
 72
     1
 10
-7.268737645065769
 20
-41.20000000000002
 11
-2.737599636708353
 21
-35.8
 97
        0
 75
     0
 76
     1
 98
        1
 10
4.037684671492244
 20
-0.0010749287238951
  0
HATCH
  5
D5
330
1F
100
AcDbEntity
  8
중심선
100
AcDbHatch
 10
0.0
 20
0.0
 30
0.0
210
0.0
220
0.0
230
1.0
  2
SOLID
 70
     1
 71
     0
 91
        1
 92
        0
 93
        4
 72
     1
 10
2.275164354327515
 20
-35.8
 11
-1.171110889509601
 21
-35.8
 72
     1
 10
-1.171110889509601
 20
-35.8
 11
-8.219547791398849
 21
-44.20000000000002
 72
     1
 10
-8.219547791398849
 20
-44.20000000000002
 11
-4.773272547561568
 21
-44.20000000000002
 72
     1
 10
-4.773272547561568
 20
-44.20000000000002
 11
2.275164354327515
 21
-35.8
 97
        0
 75
     0
 76
     1
 98
        1
 10
4.037684671492244
 20
-0.0010749287238951
  0
HATCH
  5
D6
330
1F
100
AcDbEntity
  8
중심선
100
AcDbHatch
 10
0.0
 20
0.0
 30
0.0
210
0.0
220
0.0
230
1.0
  2
SOLID
 70
     1
 71
     0
 91
        1
 92
        0
 93
        6
 72
     3
 10
7.075054785339715
 20
-40.00000000005127
 11
3.960054785062283
 21
1.540882976769353E-10
 40
0.3939339440162628
 50
17.09539180608437
 51
320.0019657685086
 73
     0
 72
     1
 10
8.75805444104031
 20
-38.58789400463833
 11
11.06335631474137
 21
-36.65356729459038
 72
     3
 10
7.075054785286868
 20
-40.00000000000015
 11
6.600054785286829
 21
-1.278976924368180E-13
 40
0.636358354079598
 50
39.99873849337386
 51
368.4976242363725
 73
     1
 72
     1
 10
13.50038727718748
 20
-39.03999999993002
 11
5.75512209212279
 21
-39.03999999993002
 72
     1
 10
5.75512209212279
 20
-39.03999999993002
 11
5.755097047676856
 21
-40.95999999992991
 72
     1
 10
5.755097047676856
 20
-40.95999999992991
 11
10.19647681714889
 21
-40.95999999992988
 97
        0
 75
     0
 76
     1
 98
        1
 10
4.037684671492244
 20
-0.0010749287238951
  0
DIMENSION
  5
D7
330
1F
100
AcDbEntity
  8
치수문자_일반주서
100
AcDbDimension
  2
_D
 10
-50.05499999999996
 20
-4.762500000000054
 30
0.0
 11
-50.05499999999998
 21
-0.0000000000000002
 31
0.0
 70
   160
  1
%%c<>
 71
     2
 42
9.525000000000006
 52
-270.0
  3
SLDDIMSTYLE0
100
AcDbAlignedDimension
 13
-36.62499999999999
 23
4.762500000000001
 33
0.0
 14
-36.62499999999999
 24
-4.762500000000005
 34
0.0
 50
90.0000000000002
100
AcDbRotatedDimension
1001
ACAD
1000
DSTYLE
1002
{
1070
   171
1070
     6
1070
   273
1070
     7
1002
}
  0
DIMENSION
  5
EC
330
1F
100
AcDbEntity
  8
치수문자_일반주서
100
AcDbDimension
  2
_D_1
 10
49.03717936781675
 20
-4.762499999999953
 30
0.0
 11
49.03717936781665
 21
24.71025000000004
 31
0.0
 70
   160
  1
%%c<>
 71
     2
 42
9.524999999999999
 52
-270.0
  3
SLDDIMSTYLE0
100
AcDbAlignedDimension
 13
38.575
 23
4.762500000000006
 33
0.0
 14
38.57500000000001
 24
-4.762499999999992
 34
0.0
 50
90.0000000000002
100
AcDbRotatedDimension
1001
ACAD
1000
DSTYLE
1002
{
1070
   171
1070
     6
1070
   273
1070
     7
1002
}
  0
DIMENSION
  5
100
330
1F
100
AcDbEntity
  8
치수문자_일반주서
100
AcDbDimension
  2
_D_2
 10
10.00000000000001
 20
26.36562499999997
 30
0.0
 11
22.68927244150659
 21
26.36562499999997
 31
0.0
 70
   160
  1
<>
 71
     2
 42
28.57499999999998
  3
SLDDIMSTYLE0
100
AcDbAlignedDimension
 13
38.575
 23
4.762500000000006
 33
0.0
 14
10.00000000000001
 24
3.192364987925143
 34
0.0
 50
-0.0000000000000214
100
AcDbRotatedDimension
1001
ACAD
1000
DSTYLE
1002
{
1070
   171
1070
     6
1070
   273
1070
     7
1002
}
  0
DIMENSION
  5
114
330
1F
100
AcDbEntity
  8
치수문자_일반주서
100
AcDbDimension
  2
_D_3
 10
-37.62500000000001
 20
41.18967844013393
 30
0.0
 11
0.4750000000000223
 21
41.18967844013393
 31
0.0
 70
   160
  1
<>
 71
     2
 42
76.19999999999999
  3
SLDDIMSTYLE0
100
AcDbAlignedDimension
 13
38.575
 23
4.762500000000006
 33
0.0
 14
-37.625
 24
3.762499999999994
 34
0.0
 50
-0.0000000000000214
100
AcDbRotatedDimension
1001
ACAD
1000
DSTYLE
1002
{
1070
   171
1070
     6
1070
   273
1070
     7
1002
}
  0
LINE
  5
128
330
1F
100
AcDbEntity
  8
참조1
100
AcDbLine
 10
82.42838331323583
 20
7.441074928723896
 30
0.0
 11
82.42838331323583
 21
-7.438925071276109
 31
0.0
  0
LINE
  5
129
330
1F
100
AcDbEntity
  8
참조1
100
AcDbLine
 10
95.12838331323583
 20
5.441074928723896
 30
0.0
 11
82.42838331323583
 21
5.441074928723896
 31
0.0
  0
SOLID
  5
12A
330
1F
100
AcDbEntity
  8
참조1
100
AcDbTrace
 10
82.42838331323583
 20
5.441074928723896
 30
0.0
 11
88.77838331323582
 21
4.425074928723896
 31
0.0
 12
88.77838331323582
 22
6.457074928723896
 32
0.0
 13
88.77838331323582
 23
6.457074928723896
 33
0.0
  0
LINE
  5
12B
330
1F
100
AcDbEntity
  8
참조1
100
AcDbLine
 10
95.12838331323583
 20
-5.438925071276109
 30
0.0
 11
82.42838331323583
 21
-5.438925071276109
 31
0.0
  0
SOLID
  5
12C
330
1F
100
AcDbEntity
  8
참조1
100
AcDbTrace
 10
82.42838331323583
 20
-5.438925071276109
 30
0.0
 11
88.77838331323582
 21
-6.454925071276109
 31
0.0
 12
88.77838331323582
 22
-4.422925071276109
 32
0.0
 13
88.77838331323582
 23
-4.422925071276109
 33
0.0
  0
MTEXT
  5
12D
330
1F
100
AcDbEntity
  8
참조1
100
AcDbMText
 10
91.82587340570609
 20
10.98929157337383
 30
0.0
 40
3.5
 41
0.0
 71
     1
 72
     1
  1
A
  7
SLDTEXTSTYLE0
 73
     1
 44
1.0
  0
MTEXT
  5
12E
330
1F
100
AcDbEntity
  8
참조1
100
AcDbMText
 10
91.82587340570609
 20
0.1092915733738259
 30
0.0
 40
3.5
 41
0.0
 71
     1
 72
     1
  1
A
  7
SLDTEXTSTYLE0
 73
     1
 44
1.0
  0
INSERT
  5
135
330
1F
100
AcDbEntity
  8
해칭선
100
AcDbBlockReference
  2
SW_DOWELSYMBOL_0
 10
0.0
 20
0.0
 30
0.0
  0
ENDSEC
  0
SECTION
  2
OBJECTS
  0
DICTIONARY
  5
C
330
0
100
AcDbDictionary
281
     1
  3
ACAD_GROUP
350
D
  3
ACAD_IMAGE_VARS
350
159
  3
ACAD_LAYOUT
350
1A
  3
ACAD_MLINESTYLE
350
17
  3
ACAD_PLOTSETTINGS
350
19
  3
ACAD_PLOTSTYLENAME
350
E
  3
ACAD_SCALELIST
350
47
  3
APPDATA
350
157
  3
DWGPROPS
350
191
  0
DICTIONARY
  5
180
330
2
100
AcDbDictionary
280
     1
281
     1
  3
ACAD_LAYERSTATES
360
181
  0
DICTIONARY
  5
D
102
{ACAD_REACTORS
330
C
102
}
330
C
100
AcDbDictionary
281
     1
  0
RASTERVARIABLES
  5
159
102
{ACAD_REACTORS
330
C
102
}
330
C
100
AcDbRasterVariables
 90
        0
 70
     1
 71
     1
 72
     1
  0
DICTIONARY
  5
1A
102
{ACAD_REACTORS
330
C
102
}
330
C
100
AcDbDictionary
281
     1
  3
Layout1
350
1E
  3
Layout2
350
26
  3
Model
350
22
  0
DICTIONARY
  5
17
102
{ACAD_REACTORS
330
C
102
}
330
C
100
AcDbDictionary
281
     1
  3
Standard
350
18
  0
DICTIONARY
  5
19
102
{ACAD_REACTORS
330
C
102
}
330
C
100
AcDbDictionary
281
     1
  0
ACDBDICTIONARYWDFLT
  5
E
102
{ACAD_REACTORS
330
C
102
}
330
C
100
AcDbDictionary
281
     1
  3
Normal
350
F
100
AcDbDictionaryWithDefault
340
F
  0
DICTIONARY
  5
47
102
{ACAD_REACTORS
330
C
102
}
330
C
100
AcDbDictionary
281
     1
  3
A0
350
48
  3
A1
350
49
  3
A2
350
4A
  3
A3
350
4B
  3
A4
350
4C
  3
A5
350
4D
  3
A6
350
4E
  3
A7
350
4F
  3
A8
350
50
  3
A9
350
51
  3
B0
350
52
  3
B1
350
53
  3
B2
350
54
  3
B3
350
55
  3
B4
350
56
  3
B5
350
57
  3
B6
350
58
  3
B7
350
59
  3
B8
350
5A
  3
B9
350
5B
  3
C0
350
5C
  3
C1
350
5D
  3
C2
350
5E
  3
C3
350
5F
  3
C4
350
60
  3
C5
350
61
  3
C6
350
62
  3
C7
350
63
  3
C8
350
64
  3
C9
350
65
  3
D0
350
66
  3
D1
350
67
  3
D2
350
68
  0
DICTIONARY
  5
157
102
{ACAD_REACTORS
330
C
102
}
330
C
100
AcDbDictionary
281
     1
  0
XRECORD
  5
191
102
{ACAD_REACTORS
330
C
102
}
330
C
100
AcDbXrecord
280
     1
  1
DWGPROPS COOKIE
  2

  3

  4

  6

  7

  8
12017012
  9

300
=
301
=
302
=
303
=
304
=
305
=
306
=
307
=
308
=
309
=
 40
0.0
 41
2458288.372588935
 42
2458294.342482268
  1

 90
        0
  0
DICTIONARY
  5
181
102
{ACAD_REACTORS
330
180
102
}
330
180
100
AcDbDictionary
281
     1
  0
LAYOUT
  5
1E
102
{ACAD_REACTORS
330
1A
102
}
330
1A
100
AcDbPlotSettings
  1

  2
none_device
  4

  6

 40
0.0
 41
0.0
 42
0.0
 43
0.0
 44
0.0
 45
0.0
 46
0.0
 47
0.0
 48
0.0
 49
0.0
140
0.0
141
0.0
142
1.0
143
1.0
 70
   688
 72
     1
 73
     0
 74
     5
  7

 75
    16
147
1.0
148
0.0
149
0.0
100
AcDbLayout
  1
Layout1
 70
     1
 71
     1
 10
0.0
 20
0.0
 11
420.0
 21
297.0
 12
0.0
 22
0.0
 32
0.0
 14
1.000000000000000E+20
 24
1.000000000000000E+20
 34
1.000000000000000E+20
 15
-1.000000000000000E+20
 25
-1.000000000000000E+20
 35
-1.000000000000000E+20
146
0.0
 13
0.0
 23
0.0
 33
0.0
 16
1.0
 26
0.0
 36
0.0
 17
0.0
 27
1.0
 37
0.0
 76
     0
330
1B
  0
LAYOUT
  5
26
102
{ACAD_REACTORS
330
1A
102
}
330
1A
100
AcDbPlotSettings
  1

  2
none_device
  4

  6

 40
0.0
 41
0.0
 42
0.0
 43
0.0
 44
0.0
 45
0.0
 46
0.0
 47
0.0
 48
0.0
 49
0.0
140
0.0
141
0.0
142
1.0
143
1.0
 70
   688
 72
     1
 73
     0
 74
     5
  7

 75
    16
147
1.0
148
0.0
149
0.0
100
AcDbLayout
  1
Layout2
 70
     1
 71
     2
 10
0.0
 20
0.0
 11
0.0
 21
0.0
 12
0.0
 22
0.0
 32
0.0
 14
0.0
 24
0.0
 34
0.0
 15
0.0
 25
0.0
 35
0.0
146
0.0
 13
0.0
 23
0.0
 33
0.0
 16
1.0
 26
0.0
 36
0.0
 17
0.0
 27
1.0
 37
0.0
 76
     0
330
23
  0
LAYOUT
  5
22
102
{ACAD_REACTORS
330
1A
102
}
330
1A
100
AcDbPlotSettings
  1

  2
none_device
  4
ANSI_A_(11.00_x_8.50_Inches)
  6

 40
6.35
 41
19.05
 42
6.35000508
 43
19.05000254
 44
279.4
 45
215.9
 46
99.03514609944604
 47
68.08468879039027
 48
0.0
 49
0.0
140
0.0
141
0.0
142
0.0630960293314891
143
1.0
 70
  1696
 72
     0
 73
     0
 74
     0
  7

 75
     0
147
0.0235690232323232
148
0.0
149
0.0
100
AcDbLayout
  1
Model
 70
     1
 71
     0
 10
0.0
 20
0.0
 11
420.0
 21
297.0
 12
0.0
 22
0.0
 32
0.0
 14
1.000000000000000E+20
 24
1.000000000000000E+20
 34
1.000000000000000E+20
 15
-1.000000000000000E+20
 25
-1.000000000000000E+20
 35
-1.000000000000000E+20
146
0.0
 13
0.0
 23
0.0
 33
0.0
 16
1.0
 26
0.0
 36
0.0
 17
0.0
 27
1.0
 37
0.0
 76
     0
330
1F
331
29
  0
MLINESTYLE
  5
18
102
{ACAD_REACTORS
330
17
102
}
330
17
100
AcDbMlineStyle
  2
Standard
 70
     0
  3

 62
   256
 51
90.0
 52
90.0
 71
     2
 49
0.5
 62
   256
  6
BYLAYER
 49
-0.5
 62
   256
  6
BYLAYER
  0
ACDBPLACEHOLDER
  5
F
102
{ACAD_REACTORS
330
E
102
}
330
E
  0
SCALE
  5
48
102
{ACAD_REACTORS
330
47
102
}
330
47
100
AcDbScale
 70
     0
300
1:1
140
1.0
141
1.0
290
     1
  0
SCALE
  5
49
102
{ACAD_REACTORS
330
47
102
}
330
47
100
AcDbScale
 70
     0
300
1:2
140
1.0
141
2.0
290
     0
  0
SCALE
  5
4A
102
{ACAD_REACTORS
330
47
102
}
330
47
100
AcDbScale
 70
     0
300
1:4
140
1.0
141
4.0
290
     0
  0
SCALE
  5
4B
102
{ACAD_REACTORS
330
47
102
}
330
47
100
AcDbScale
 70
     0
300
1:5
140
1.0
141
5.0
290
     0
  0
SCALE
  5
4C
102
{ACAD_REACTORS
330
47
102
}
330
47
100
AcDbScale
 70
     0
300
1:8
140
1.0
141
8.0
290
     0
  0
SCALE
  5
4D
102
{ACAD_REACTORS
330
47
102
}
330
47
100
AcDbScale
 70
     0
300
1:10
140
1.0
141
10.0
290
     0
  0
SCALE
  5
4E
102
{ACAD_REACTORS
330
47
102
}
330
47
100
AcDbScale
 70
     0
300
1:16
140
1.0
141
16.0
290
     0
  0
SCALE
  5
4F
102
{ACAD_REACTORS
330
47
102
}
330
47
100
AcDbScale
 70
     0
300
1:20
140
1.0
141
20.0
290
     0
  0
SCALE
  5
50
102
{ACAD_REACTORS
330
47
102
}
330
47
100
AcDbScale
 70
     0
300
1:30
140
1.0
141
30.0
290
     0
  0
SCALE
  5
51
102
{ACAD_REACTORS
330
47
102
}
330
47
100
AcDbScale
 70
     0
300
1:40
140
1.0
141
40.0
290
     0
  0
SCALE
  5
52
102
{ACAD_REACTORS
330
47
102
}
330
47
100
AcDbScale
 70
     0
300
1:50
140
1.0
141
50.0
290
     0
  0
SCALE
  5
53
102
{ACAD_REACTORS
330
47
102
}
330
47
100
AcDbScale
 70
     0
300
1:100
140
1.0
141
100.0
290
     0
  0
SCALE
  5
54
102
{ACAD_REACTORS
330
47
102
}
330
47
100
AcDbScale
 70
     0
300
2:1
140
2.0
141
1.0
290
     0
  0
SCALE
  5
55
102
{ACAD_REACTORS
330
47
102
}
330
47
100
AcDbScale
 70
     0
300
4:1
140
4.0
141
1.0
290
     0
  0
SCALE
  5
56
102
{ACAD_REACTORS
330
47
102
}
330
47
100
AcDbScale
 70
     0
300
8:1
140
8.0
141
1.0
290
     0
  0
SCALE
  5
57
102
{ACAD_REACTORS
330
47
102
}
330
47
100
AcDbScale
 70
     0
300
10:1
140
10.0
141
1.0
290
     0
  0
SCALE
  5
58
102
{ACAD_REACTORS
330
47
102
}
330
47
100
AcDbScale
 70
     0
300
100:1
140
100.0
141
1.0
290
     0
  0
SCALE
  5
59
102
{ACAD_REACTORS
330
47
102
}
330
47
100
AcDbScale
 70
     0
300
1/128" = 1'-0"
140
0.0078125
141
12.0
290
     0
  0
SCALE
  5
5A
102
{ACAD_REACTORS
330
47
102
}
330
47
100
AcDbScale
 70
     0
300
1/64" = 1'-0"
140
0.015625
141
12.0
290
     0
  0
SCALE
  5
5B
102
{ACAD_REACTORS
330
47
102
}
330
47
100
AcDbScale
 70
     0
300
1/32" = 1'-0"
140
0.03125
141
12.0
290
     0
  0
SCALE
  5
5C
102
{ACAD_REACTORS
330
47
102
}
330
47
100
AcDbScale
 70
     0
300
1/16" = 1'-0"
140
0.0625
141
12.0
290
     0
  0
SCALE
  5
5D
102
{ACAD_REACTORS
330
47
102
}
330
47
100
AcDbScale
 70
     0
300
3/32" = 1'-0"
140
0.09375
141
12.0
290
     0
  0
SCALE
  5
5E
102
{ACAD_REACTORS
330
47
102
}
330
47
100
AcDbScale
 70
     0
300
1/8" = 1'-0"
140
0.125
141
12.0
290
     0
  0
SCALE
  5
5F
102
{ACAD_REACTORS
330
47
102
}
330
47
100
AcDbScale
 70
     0
300
3/16" = 1'-0"
140
0.1875
141
12.0
290
     0
  0
SCALE
  5
60
102
{ACAD_REACTORS
330
47
102
}
330
47
100
AcDbScale
 70
     0
300
1/4" = 1'-0"
140
0.25
141
12.0
290
     0
  0
SCALE
  5
61
102
{ACAD_REACTORS
330
47
102
}
330
47
100
AcDbScale
 70
     0
300
3/8" = 1'-0"
140
0.375
141
12.0
290
     0
  0
SCALE
  5
62
102
{ACAD_REACTORS
330
47
102
}
330
47
100
AcDbScale
 70
     0
300
1/2" = 1'-0"
140
0.5
141
12.0
290
     0
  0
SCALE
  5
63
102
{ACAD_REACTORS
330
47
102
}
330
47
100
AcDbScale
 70
     0
300
3/4" = 1'-0"
140
0.75
141
12.0
290
     0
  0
SCALE
  5
64
102
{ACAD_REACTORS
330
47
102
}
330
47
100
AcDbScale
 70
     0
300
1" = 1'-0"
140
1.0
141
12.0
290
     0
  0
SCALE
  5
65
102
{ACAD_REACTORS
330
47
102
}
330
47
100
AcDbScale
 70
     0
300
1-1/2" = 1'-0"
140
1.5
141
12.0
290
     0
  0
SCALE
  5
66
102
{ACAD_REACTORS
330
47
102
}
330
47
100
AcDbScale
 70
     0
300
3" = 1'-0"
140
3.0
141
12.0
290
     0
  0
SCALE
  5
67
102
{ACAD_REACTORS
330
47
102
}
330
47
100
AcDbScale
 70
     0
300
6" = 1'-0"
140
6.0
141
12.0
290
     0
  0
SCALE
  5
68
102
{ACAD_REACTORS
330
47
102
}
330
47
100
AcDbScale
 70
     0
300
1'-0" = 1'-0"
140
12.0
141
12.0
290
     0
  0
ENDSEC
  0
EOF
