  0
SECTION
  2
HEADER
  9
$ACADVER
  1
AC1015
  9
$ACADMAINTVER
 70
     6
  9
$DWGCODEPAGE
  3
ANSI_949
  9
$INSBASE
 10
0.0
 20
0.0
 30
0.0
  9
$EXTMIN
 10
1.000000000000000E+20
 20
1.000000000000000E+20
 30
1.000000000000000E+20
  9
$EXTMAX
 10
-1.000000000000000E+20
 20
-1.000000000000000E+20
 30
-1.000000000000000E+20
  9
$LIMMIN
 10
0.0
 20
0.0
  9
$LIMMAX
 10
420.0
 20
297.0
  9
$ORTHOMODE
 70
     1
  9
$REGENMODE
 70
     1
  9
$FILLMODE
 70
     1
  9
$QTEXTMODE
 70
     0
  9
$MIRRTEXT
 70
     1
  9
$LTSCALE
 40
1.0
  9
$ATTMODE
 70
     1
  9
$TEXTSIZE
 40
3.5
  9
$TRACEWID
 40
1.0
  9
$TEXTSTYLE
  7
Standard
  9
$CLAYER
  8
0
  9
$CELTYPE
  6
ByLayer
  9
$CECOLOR
 62
   256
  9
$CELTSCALE
 40
1.0
  9
$DISPSILH
 70
     0
  9
$DIMSCALE
 40
1.0
  9
$DIMASZ
 40
3.302
  9
$DIMEXO
 40
1.0
  9
$DIMDLI
 40
3.75
  9
$DIMRND
 40
0.0
  9
$DIMDLE
 40
0.0
  9
$DIMEXE
 40
1.0
  9
$DIMTP
 40
0.0
  9
$DIMTM
 40
0.0
  9
$DIMTXT
 40
3.5
  9
$DIMCEN
 40
2.5
  9
$DIMTSZ
 40
0.0
  9
$DIMTOL
 70
     0
  9
$DIMLIM
 70
     0
  9
$DIMTIH
 70
     1
  9
$DIMTOH
 70
     1
  9
$DIMSE1
 70
     0
  9
$DIMSE2
 70
     0
  9
$DIMTAD
 70
     1
  9
$DIMZIN
 70
     0
  9
$DIMBLK
  1

  9
$DIMASO
 70
     1
  9
$DIMSHO
 70
     1
  9
$DIMPOST
  1

  9
$DIMAPOST
  1

  9
$DIMALT
 70
     0
  9
$DIMALTD
 70
     3
  9
$DIMALTF
 40
0.0393700787401575
  9
$DIMLFAC
 40
1.0
  9
$DIMTOFL
 70
     1
  9
$DIMTVP
 40
0.0
  9
$DIMTIX
 70
     0
  9
$DIMSOXD
 70
     0
  9
$DIMSAH
 70
     0
  9
$DIMBLK1
  1

  9
$DIMBLK2
  1

  9
$DIMSTYLE
  2
ISO-25
  9
$DIMCLRD
 70
     0
  9
$DIMCLRE
 70
     0
  9
$DIMCLRT
 70
     0
  9
$DIMTFAC
 40
1.0
  9
$DIMGAP
 40
1.524
  9
$DIMJUST
 70
     0
  9
$DIMSD1
 70
     0
  9
$DIMSD2
 70
     0
  9
$DIMTOLJ
 70
     0
  9
$DIMTZIN
 70
     0
  9
$DIMALTZ
 70
     0
  9
$DIMALTTZ
 70
     0
  9
$DIMUPT
 70
     0
  9
$DIMDEC
 70
     2
  9
$DIMTDEC
 70
     2
  9
$DIMALTU
 70
     2
  9
$DIMALTTD
 70
     3
  9
$DIMTXSTY
  7
Standard
  9
$DIMAUNIT
 70
     0
  9
$DIMADEC
 70
     2
  9
$DIMALTRND
 40
0.0
  9
$DIMAZIN
 70
     0
  9
$DIMDSEP
 70
    44
  9
$DIMATFIT
 70
     3
  9
$DIMFRAC
 70
     0
  9
$DIMLDRBLK
  1

  9
$DIMLUNIT
 70
     2
  9
$DIMLWD
 70
    -2
  9
$DIMLWE
 70
    -2
  9
$DIMTMOVE
 70
     0
  9
$LUNITS
 70
     2
  9
$LUPREC
 70
     2
  9
$SKETCHINC
 40
1.0
  9
$FILLETRAD
 40
10.0
  9
$AUNITS
 70
     0
  9
$AUPREC
 70
     2
  9
$MENU
  1
.
  9
$ELEVATION
 40
0.0
  9
$PELEVATION
 40
0.0
  9
$THICKNESS
 40
0.0
  9
$LIMCHECK
 70
     0
  9
$CHAMFERA
 40
0.0
  9
$CHAMFERB
 40
0.0
  9
$CHAMFERC
 40
0.0
  9
$CHAMFERD
 40
0.0
  9
$SKPOLY
 70
     0
  9
$TDCREATE
 40
2458288.74777816
  9
$TDUCREATE
 40
2458288.37277816
  9
$TDUPDATE
 40
2458294.71611706
  9
$TDUUPDATE
 40
2458294.34111706
  9
$TDINDWG
 40
0.001151875
  9
$TDUSRTIMER
 40
2458294.339965706
  9
$USRTIMER
 70
     1
  9
$ANGBASE
 50
0.0
  9
$ANGDIR
 70
     0
  9
$PDMODE
 70
     0
  9
$PDSIZE
 40
-1.0
  9
$PLINEWID
 40
0.0
  9
$SPLFRAME
 70
     0
  9
$SPLINETYPE
 70
     6
  9
$SPLINESEGS
 70
     8
  9
$HANDSEED
  5
197
  9
$SURFTAB1
 70
     6
  9
$SURFTAB2
 70
     6
  9
$SURFTYPE
 70
     6
  9
$SURFU
 70
     6
  9
$SURFV
 70
     6
  9
$UCSBASE
  2

  9
$UCSNAME
  2

  9
$UCSORG
 10
0.0
 20
0.0
 30
0.0
  9
$UCSXDIR
 10
1.0
 20
0.0
 30
0.0
  9
$UCSYDIR
 10
0.0
 20
1.0
 30
0.0
  9
$UCSORTHOREF
  2

  9
$UCSORTHOVIEW
 70
     0
  9
$UCSORGTOP
 10
0.0
 20
0.0
 30
0.0
  9
$UCSORGBOTTOM
 10
0.0
 20
0.0
 30
0.0
  9
$UCSORGLEFT
 10
0.0
 20
0.0
 30
0.0
  9
$UCSORGRIGHT
 10
0.0
 20
0.0
 30
0.0
  9
$UCSORGFRONT
 10
0.0
 20
0.0
 30
0.0
  9
$UCSORGBACK
 10
0.0
 20
0.0
 30
0.0
  9
$PUCSBASE
  2

  9
$PUCSNAME
  2

  9
$PUCSORG
 10
0.0
 20
0.0
 30
0.0
  9
$PUCSXDIR
 10
1.0
 20
0.0
 30
0.0
  9
$PUCSYDIR
 10
0.0
 20
1.0
 30
0.0
  9
$PUCSORTHOREF
  2

  9
$PUCSORTHOVIEW
 70
     0
  9
$PUCSORGTOP
 10
0.0
 20
0.0
 30
0.0
  9
$PUCSORGBOTTOM
 10
0.0
 20
0.0
 30
0.0
  9
$PUCSORGLEFT
 10
0.0
 20
0.0
 30
0.0
  9
$PUCSORGRIGHT
 10
0.0
 20
0.0
 30
0.0
  9
$PUCSORGFRONT
 10
0.0
 20
0.0
 30
0.0
  9
$PUCSORGBACK
 10
0.0
 20
0.0
 30
0.0
  9
$USERI1
 70
     0
  9
$USERI2
 70
     0
  9
$USERI3
 70
     0
  9
$USERI4
 70
     0
  9
$USERI5
 70
     0
  9
$USERR1
 40
0.0
  9
$USERR2
 40
0.0
  9
$USERR3
 40
0.0
  9
$USERR4
 40
0.0
  9
$USERR5
 40
0.0
  9
$WORLDVIEW
 70
     1
  9
$SHADEDGE
 70
     3
  9
$SHADEDIF
 70
    70
  9
$TILEMODE
 70
     1
  9
$MAXACTVP
 70
    64
  9
$PINSBASE
 10
0.0
 20
0.0
 30
0.0
  9
$PLIMCHECK
 70
     0
  9
$PEXTMIN
 10
1.000000000000000E+20
 20
1.000000000000000E+20
 30
1.000000000000000E+20
  9
$PEXTMAX
 10
-1.000000000000000E+20
 20
-1.000000000000000E+20
 30
-1.000000000000000E+20
  9
$PLIMMIN
 10
0.0
 20
0.0
  9
$PLIMMAX
 10
0.0
 20
0.0
  9
$UNITMODE
 70
     0
  9
$VISRETAIN
 70
     1
  9
$PLINEGEN
 70
     0
  9
$PSLTSCALE
 70
     1
  9
$TREEDEPTH
 70
  3020
  9
$CMLSTYLE
  2
Standard
  9
$CMLJUST
 70
     0
  9
$CMLSCALE
 40
20.0
  9
$PROXYGRAPHICS
 70
     1
  9
$MEASUREMENT
 70
     1
  9
$CELWEIGHT
370
    -1
  9
$ENDCAPS
280
     0
  9
$JOINSTYLE
280
     0
  9
$LWDISPLAY
290
     1
  9
$INSUNITS
 70
     4
  9
$HYPERLINKBASE
  1

  9
$STYLESHEET
  1

  9
$XEDIT
290
     1
  9
$CEPSNTYPE
380
     0
  9
$PSTYLEMODE
290
     1
  9
$FINGERPRINTGUID
  2
{8D397EFE-E1E9-4B1C-8973-B14B80262364}
  9
$VERSIONGUID
  2
{FAEB1C32-E019-11D5-929B-00C0DF256EC4}
  9
$EXTNAMES
290
     1
  9
$PSVPSCALE
 40
0.0
  9
$OLESTARTUP
290
     0
  0
ENDSEC
  0
SECTION
  2
CLASSES
  0
CLASS
  1
ACDBDICTIONARYWDFLT
  2
AcDbDictionaryWithDefault
  3
ObjectDBX Classes
 90
        0
280
     0
281
     0
  0
CLASS
  1
VISUALSTYLE
  2
AcDbVisualStyle
  3
ObjectDBX Classes
 90
     4095
280
     0
281
     0
  0
CLASS
  1
MATERIAL
  2
AcDbMaterial
  3
ObjectDBX Classes
 90
     1153
280
     0
281
     0
  0
CLASS
  1
SCALE
  2
AcDbScale
  3
ObjectDBX Classes
 90
     1153
280
     0
281
     0
  0
CLASS
  1
SUN
  2
AcDbSun
  3
SCENEOE
 90
     1153
280
     0
281
     0
  0
CLASS
  1
ACDBPLACEHOLDER
  2
AcDbPlaceHolder
  3
ObjectDBX Classes
 90
        0
280
     0
281
     0
  0
CLASS
  1
LAYOUT
  2
AcDbLayout
  3
ObjectDBX Classes
 90
        0
280
     0
281
     0
  0
CLASS
  1
TABLESTYLE
  2
AcDbTableStyle
  3
ObjectDBX Classes
 90
     4095
280
     0
281
     0
  0
CLASS
  1
MLEADERSTYLE
  2
AcDbMLeaderStyle
  3
ACDB_MLEADERSTYLE_CLASS
 90
     4095
280
     0
281
     0
  0
CLASS
  1
RASTERVARIABLES
  2
AcDbRasterVariables
  3
ISM
 90
        0
280
     0
281
     0
  0
ENDSEC
  0
SECTION
  2
TABLES
  0
TABLE
  2
VPORT
  5
8
330
0
100
AcDbSymbolTable
 70
     1
  0
VPORT
  5
29
330
8
100
AcDbSymbolTableRecord
100
AcDbViewportTableRecord
  2
*Active
 70
     0
 10
0.0
 20
0.0
 11
1.0
 21
1.0
 12
20.95181926094453
 22
8.419994259095091
 13
0.0
 23
0.0
 14
10.0
 24
10.0
 15
10.0
 25
10.0
 16
0.0
 26
0.0
 36
1.0
 17
0.0
 27
0.0
 37
0.0
 40
80.03142239143185
 41
1.859099804305284
 42
50.0
 43
0.0
 44
0.0
 50
0.0
 51
0.0
 71
    16
 72
  2000
 73
     1
 74
     3
 75
     0
 76
     0
 77
     0
 78
     0
281
     0
 65
     1
110
0.0
120
0.0
130
0.0
111
1.0
121
0.0
131
0.0
112
0.0
122
1.0
132
0.0
 79
     0
146
0.0
  0
ENDTAB
  0
TABLE
  2
LTYPE
  5
5
330
0
100
AcDbSymbolTable
 70
     6
  0
LTYPE
  5
14
330
5
100
AcDbSymbolTableRecord
100
AcDbLinetypeTableRecord
  2
ByBlock
 70
     0
  3

 72
    65
 73
     0
 40
0.0
  0
LTYPE
  5
15
330
5
100
AcDbSymbolTableRecord
100
AcDbLinetypeTableRecord
  2
ByLayer
 70
     0
  3

 72
    65
 73
     0
 40
0.0
  0
LTYPE
  5
16
330
5
100
AcDbSymbolTableRecord
100
AcDbLinetypeTableRecord
  2
Continuous
 70
     0
  3
Solid line
 72
    65
 73
     0
 40
0.0
  0
LTYPE
  5
6A
330
5
100
AcDbSymbolTableRecord
100
AcDbLinetypeTableRecord
  2
HIDDEN
 70
     0
  3
Hidden __ __ __ __ __ __ __ __ __ __ __ __ __ __
 72
    65
 73
     2
 40
1.905
 49
1.27
 74
     0
 49
-0.635
 74
     0
  0
LTYPE
  5
6B
330
5
100
AcDbSymbolTableRecord
100
AcDbLinetypeTableRecord
  2
PHANTOM
 70
     0
  3
Phantom ______  __  __  ______  __  __  ______
 72
    65
 73
     6
 40
12.7
 49
6.35
 74
     0
 49
-1.27
 74
     0
 49
1.27
 74
     0
 49
-1.27
 74
     0
 49
1.27
 74
     0
 49
-1.27
 74
     0
  0
LTYPE
  5
6C
330
5
100
AcDbSymbolTableRecord
100
AcDbLinetypeTableRecord
  2
CENTER
 70
     0
  3
Center ____ _ ____ _ ____ _ ____ _ ____ _ ____
 72
    65
 73
     4
 40
10.16
 49
6.35
 74
     0
 49
-1.27
 74
     0
 49
1.27
 74
     0
 49
-1.27
 74
     0
  0
LTYPE
  5
6D
330
5
100
AcDbSymbolTableRecord
100
AcDbLinetypeTableRecord
  2
CENTERX2
 70
     0
  3
Center (2x) ________  __  ________  __  _____
 72
    65
 73
     4
 40
20.32
 49
12.7
 74
     0
 49
-2.54
 74
     0
 49
2.54
 74
     0
 49
-2.54
 74
     0
  0
LTYPE
  5
6E
330
5
100
AcDbSymbolTableRecord
100
AcDbLinetypeTableRecord
  2
DOT2
 70
     0
  3
Dot (.5x) ........................................
 72
    65
 73
     2
 40
0.635
 49
0.0
 74
     0
 49
-0.635
 74
     0
  0
ENDTAB
  0
TABLE
  2
LAYER
  5
2
102
{ACAD_XDICTIONARY
360
186
102
}
330
0
100
AcDbSymbolTable
 70
    18
  0
LAYER
  5
10
330
2
100
AcDbSymbolTableRecord
100
AcDbLayerTableRecord
  2
0
 70
     0
 62
     7
  6
Continuous
370
    -3
390
F
  0
LAYER
  5
6F
330
2
100
AcDbSymbolTableRecord
100
AcDbLayerTableRecord
  2
FORMAT
 70
     0
 62
     2
  6
Continuous
370
    -3
390
F
  0
LAYER
  5
70
330
2
100
AcDbSymbolTableRecord
100
AcDbLayerTableRecord
  2
외형선
 70
     0
 62
     4
  6
Continuous
370
    30
390
F
  0
LAYER
  5
71
330
2
100
AcDbSymbolTableRecord
100
AcDbLayerTableRecord
  2
숨은선
 70
     0
 62
     2
  6
HIDDEN
370
    15
390
F
  0
LAYER
  5
72
330
2
100
AcDbSymbolTableRecord
100
AcDbLayerTableRecord
  2
중심선
 70
     0
 62
     1
  6
CENTERX2
370
    -3
390
F
  0
LAYER
  5
73
330
2
100
AcDbSymbolTableRecord
100
AcDbLayerTableRecord
  2
파단선
 70
     0
 62
     4
  6
Continuous
370
    -3
390
F
  0
LAYER
  5
74
330
2
100
AcDbSymbolTableRecord
100
AcDbLayerTableRecord
  2
해칭선
 70
     0
 62
   100
  6
Continuous
370
    -3
390
F
  0
LAYER
  5
75
330
2
100
AcDbSymbolTableRecord
100
AcDbLayerTableRecord
  2
가는실선
 70
     0
 62
     4
  6
Continuous
370
    -3
390
F
  0
LAYER
  5
76
330
2
100
AcDbSymbolTableRecord
100
AcDbLayerTableRecord
  2
치수_보조선
 70
     0
 62
     4
  6
Continuous
370
    -3
390
F
  0
LAYER
  5
77
330
2
100
AcDbSymbolTableRecord
100
AcDbLayerTableRecord
  2
치수문자_일반주서
 70
     0
 62
     7
  6
Continuous
370
    15
390
F
  0
LAYER
  5
78
330
2
100
AcDbSymbolTableRecord
100
AcDbLayerTableRecord
  2
개별주서
 70
     0
 62
   100
  6
Continuous
370
    30
390
F
  0
LAYER
  5
79
330
2
100
AcDbSymbolTableRecord
100
AcDbLayerTableRecord
  2
중간선
 70
     0
 62
     2
  6
Continuous
370
    15
390
F
  0
LAYER
  5
7A
330
2
100
AcDbSymbolTableRecord
100
AcDbLayerTableRecord
  2
윤곽선
 70
     0
 62
     3
  6
Continuous
370
    40
390
F
  0
LAYER
  5
7B
330
2
100
AcDbSymbolTableRecord
100
AcDbLayerTableRecord
  2
중심마크
 70
     0
 62
   100
  6
Continuous
370
    30
390
F
  0
LAYER
  5
7C
330
2
100
AcDbSymbolTableRecord
100
AcDbLayerTableRecord
  2
가상선
 70
     0
 62
     4
  6
PHANTOM
370
    -3
390
F
  0
LAYER
  5
7D
330
2
100
AcDbSymbolTableRecord
100
AcDbLayerTableRecord
  2
특수지정선
 70
     0
 62
     5
  6
CENTERX2
370
    60
390
F
  0
LAYER
  5
7E
330
2
100
AcDbSymbolTableRecord
100
AcDbLayerTableRecord
  2
참조1
 70
     0
 62
    -4
  6
Continuous
370
    -3
390
F
  0
LAYER
  5
18D
330
2
100
AcDbSymbolTableRecord
100
AcDbLayerTableRecord
  2
Defpoints
 70
     0
 62
     7
  6
Continuous
290
     0
370
    -3
390
F
  0
ENDTAB
  0
TABLE
  2
STYLE
  5
3
330
0
100
AcDbSymbolTable
 70
     2
  0
STYLE
  5
11
330
3
100
AcDbSymbolTableRecord
100
AcDbTextStyleTableRecord
  2
Standard
 70
     0
 40
0.0
 41
1.0
 50
0.0
 71
     0
 42
3.5
  3
txt
  4

  0
STYLE
  5
94
330
3
100
AcDbSymbolTableRecord
100
AcDbTextStyleTableRecord
  2
SLDTEXTSTYLE0
 70
     0
 40
0.0
 41
0.75
 50
0.0
 71
     0
 42
3.5
  3
TXT
  4

  0
ENDTAB
  0
TABLE
  2
VIEW
  5
6
330
0
100
AcDbSymbolTable
 70
     0
  0
ENDTAB
  0
TABLE
  2
UCS
  5
7
330
0
100
AcDbSymbolTable
 70
     0
  0
ENDTAB
  0
TABLE
  2
APPID
  5
9
330
0
100
AcDbSymbolTable
 70
     1
  0
APPID
  5
12
330
9
100
AcDbSymbolTableRecord
100
AcDbRegAppTableRecord
  2
ACAD
 70
     0
  0
ENDTAB
  0
TABLE
  2
DIMSTYLE
  5
A
330
0
100
AcDbSymbolTable
 70
     3
100
AcDbDimStyleTable
  0
DIMSTYLE
105
27
330
A
100
AcDbSymbolTableRecord
100
AcDbDimStyleTableRecord
  2
ISO-25
 70
     0
 41
2.5
 42
0.625
 43
3.75
 44
1.25
 73
     0
 74
     0
 77
     1
 78
     8
140
2.5
141
2.5
143
0.03937007874016
147
0.625
171
     3
172
     1
178
     0
271
     2
272
     2
274
     3
278
    44
283
     0
284
     8
340
11
  0
DIMSTYLE
105
DF
102
{ACAD_REACTORS
330
DE
330
F3
330
107
330
11B
102
}
330
A
100
AcDbSymbolTableRecord
100
AcDbDimStyleTableRecord
  2
SLDDIMSTYLE0
 70
     0
 41
3.302
 44
0.0
 45
0.000000001
 73
     0
 74
     0
 77
     1
 78
     4
 79
     1
140
3.5
143
0.0393700787401575
147
0.875
148
0.000000001
170
     1
172
     1
173
     1
178
     0
271
     2
272
     2
276
     2
284
    12
289
     0
340
94
  0
DIMSTYLE
105
F4
330
A
100
AcDbSymbolTableRecord
100
AcDbDimStyleTableRecord
  2
SLDDIMSTYLE1
 70
     0
 41
3.302
 44
0.0
 45
0.000000001
 73
     0
 74
     0
 77
     1
 78
     4
 79
     1
140
3.5
143
0.0393700787401575
147
0.875
148
0.000000001
170
     1
173
     1
178
     0
271
     2
272
     2
276
     2
284
    12
340
94
  0
ENDTAB
  0
TABLE
  2
BLOCK_RECORD
  5
1
330
0
100
AcDbSymbolTable
 70
     8
  0
BLOCK_RECORD
  5
1F
330
1
100
AcDbSymbolTableRecord
100
AcDbBlockTableRecord
  2
*Model_Space
340
22
  0
BLOCK_RECORD
  5
1B
330
1
100
AcDbSymbolTableRecord
100
AcDbBlockTableRecord
  2
*Paper_Space
340
1E
  0
BLOCK_RECORD
  5
23
330
1
100
AcDbSymbolTableRecord
100
AcDbBlockTableRecord
  2
*Paper_Space0
340
26
  0
BLOCK_RECORD
  5
7F
330
1
100
AcDbSymbolTableRecord
100
AcDbBlockTableRecord
  2
블럭10
340
0
102
{BLKREFS
331
D7
102
}
  0
BLOCK_RECORD
  5
E0
330
1
100
AcDbSymbolTableRecord
100
AcDbBlockTableRecord
  2
_D
340
0
  0
BLOCK_RECORD
  5
F5
330
1
100
AcDbSymbolTableRecord
100
AcDbBlockTableRecord
  2
_D_1
340
0
  0
BLOCK_RECORD
  5
108
330
1
100
AcDbSymbolTableRecord
100
AcDbBlockTableRecord
  2
_D_2
340
0
  0
BLOCK_RECORD
  5
11C
330
1
100
AcDbSymbolTableRecord
100
AcDbBlockTableRecord
  2
_D_3
340
0
  0
BLOCK_RECORD
  5
135
330
1
100
AcDbSymbolTableRecord
100
AcDbBlockTableRecord
  2
SW_DOWELSYMBOL_0
340
0
102
{BLKREFS
331
13B
102
}
  0
ENDTAB
  0
ENDSEC
  0
SECTION
  2
BLOCKS
  0
BLOCK
  5
20
330
1F
100
AcDbEntity
  8
0
100
AcDbBlockBegin
  2
*Model_Space
 70
     0
 10
0.0
 20
0.0
 30
0.0
  3
*Model_Space
  1
*Model_Space
  0
ENDBLK
  5
21
330
1F
100
AcDbEntity
  8
0
100
AcDbBlockEnd
  0
BLOCK
  5
1C
330
1B
100
AcDbEntity
 67
     1
  8
0
100
AcDbBlockBegin
  2
*Paper_Space
 70
     0
 10
0.0
 20
0.0
 30
0.0
  3
*Paper_Space
  1
*Paper_Space
  0
ENDBLK
  5
1D
330
1B
100
AcDbEntity
 67
     1
  8
0
100
AcDbBlockEnd
  0
BLOCK
  5
24
330
23
100
AcDbEntity
  8
0
100
AcDbBlockBegin
  2
*Paper_Space0
 70
     0
 10
0.0
 20
0.0
 30
0.0
  3
*Paper_Space0
  1
*Paper_Space0
  0
ENDBLK
  5
25
330
23
100
AcDbEntity
  8
0
100
AcDbBlockEnd
  0
BLOCK
  5
80
330
7F
100
AcDbEntity
  8
0
100
AcDbBlockBegin
  2
블럭10
 70
     2
 10
0.0
 20
0.0
 30
0.0
  3
블럭10
  1
블럭10
  0
ELLIPSE
  5
82
330
7F
100
AcDbEntity
  8
중심선
100
AcDbEllipse
 10
20.54032771741204
 20
12.0471743016438
 30
0.0
 11
6.600054785286829
 21
-1.261213355974178E-13
 31
0.0
210
0.0
220
0.0
230
1.0
 40
0.636358354079598
 41
0.9219305317359503
 42
6.513795318482858
  0
ELLIPSE
  5
83
330
7F
100
AcDbEntity
  8
중심선
100
AcDbEllipse
 10
20.54032771746488
 20
12.04717430159265
 30
0.0
 11
3.960054785062283
 21
1.540847449632565E-10
 31
0.0
210
0.0
220
0.0
230
1.0
 40
0.3939339440162632
 41
1.131841032648279
 42
5.62031148352944
  0
LINE
  5
84
330
7F
100
AcDbEntity
  8
중심선
100
AcDbLine
 10
2.268634060543552
 20
16.24717430164393
 30
0.0
 11
5.714909304380834
 21
16.24717430164393
 31
0.0
  0
LINE
  5
85
330
7F
100
AcDbEntity
  8
중심선
100
AcDbLine
 10
5.245725140726316
 20
7.84717430164391
 30
0.0
 11
8.692000384563599
 21
7.84717430164391
 31
0.0
  0
LINE
  5
86
330
7F
100
AcDbEntity
  8
중심선
100
AcDbLine
 10
15.74043728645272
 20
16.24717430164393
 30
0.0
 11
8.692000384563599
 21
7.84717430164391
 31
0.0
  0
LINE
  5
87
330
7F
100
AcDbEntity
  8
중심선
100
AcDbLine
 10
0.1404042013395286
 20
13.71084872107135
 30
0.0
 11
3.58671253028996
 21
13.71088815037384
 31
0.0
  0
LINE
  5
88
330
7F
100
AcDbEntity
  8
중심선
100
AcDbLine
 10
2.750260043222114
 20
10.84717430164391
 30
0.0
 11
6.196535287059397
 21
10.84717430164391
 31
0.0
  0
LINE
  5
89
330
7F
100
AcDbEntity
  8
중심선
100
AcDbLine
 10
12.29416204261559
 20
16.24717430164393
 30
0.0
 11
5.245725140726316
 21
7.84717430164391
 31
0.0
  0
LINE
  5
8A
330
7F
100
AcDbEntity
  8
중심선
100
AcDbLine
 10
10.72767329541681
 20
16.24717430164393
 30
0.0
 11
6.196535287059397
 21
10.84717430164391
 31
0.0
  0
LINE
  5
8B
330
7F
100
AcDbEntity
  8
중심선
100
AcDbLine
 10
7.28139805157953
 20
16.24717430164393
 30
0.0
 11
2.750260043222114
 21
10.84717430164391
 31
0.0
  0
LINE
  5
8C
330
7F
100
AcDbEntity
  8
중심선
100
AcDbLine
 10
5.714909304380834
 20
16.24717430164393
 30
0.0
 11
3.58671253028996
 21
13.71088815037384
 31
0.0
  0
LINE
  5
8D
330
7F
100
AcDbEntity
  8
중심선
100
AcDbLine
 10
2.268634060543552
 20
16.24717430164393
 30
0.0
 11
0.1404042013395286
 21
13.71084872107135
 31
0.0
  0
LINE
  5
8E
330
7F
100
AcDbEntity
  8
중심선
100
AcDbLine
 10
7.28139805157953
 20
16.24717430164393
 30
0.0
 11
10.72767329541681
 21
16.24717430164393
 31
0.0
  0
LINE
  5
8F
330
7F
100
AcDbEntity
  8
중심선
100
AcDbLine
 10
12.29416204261559
 20
16.24717430164393
 30
0.0
 11
15.74043728645272
 21
16.24717430164393
 31
0.0
  0
LINE
  5
90
330
7F
100
AcDbEntity
  8
중심선
100
AcDbLine
 10
19.22036997980202
 20
11.08717430171403
 30
0.0
 11
23.66174974927406
 21
11.08717430171406
 31
0.0
  0
LINE
  5
91
330
7F
100
AcDbEntity
  8
중심선
100
AcDbLine
 10
19.22039502424796
 20
13.00717430171391
 30
0.0
 11
19.22036997980202
 21
11.08717430171403
 31
0.0
  0
LINE
  5
92
330
7F
100
AcDbEntity
  8
중심선
100
AcDbLine
 10
19.22039502424796
 20
13.00717430171391
 30
0.0
 11
26.96566020931264
 21
13.00717430171391
 31
0.0
  0
LINE
  5
93
330
7F
100
AcDbEntity
  8
중심선
100
AcDbLine
 10
22.22332737316547
 20
13.45928029700563
 30
0.0
 11
24.52862924686651
 21
15.39360700705356
 31
0.0
  0
ATTDEF
  5
95
330
7F
100
AcDbEntity
  8
FORMAT
 62
     2
100
AcDbText
 10
3.448148490846466
 20
2.075366912832191
 30
0.0
 40
4.233333333333333
  1
EM206032
 41
0.75
  7
SLDTEXTSTYLE0
 11
3.448148490846466
 21
-0.0412997538344756
 31
0.0
100
AcDbAttributeDefinition
  3

  2
AUTOATTR0
 70
     0
 74
     1
  0
ENDBLK
  5
81
330
7F
100
AcDbEntity
  8
0
100
AcDbBlockEnd
  0
BLOCK
  5
E1
330
E0
100
AcDbEntity
  8
0
100
AcDbBlockBegin
  2
_D
 70
     0
 10
0.0
 20
0.0
 30
0.0
  3
_D
  1
_D
  0
LINE
  5
E3
330
E0
100
AcDbEntity
  8
치수문자_일반주서
 62
     0
370
    -2
100
AcDbLine
 10
-37.86250000000001
 20
6.349999999999994
 30
0.0
 11
-51.23000000000002
 21
6.349999999999945
 31
0.0
  0
LINE
  5
E4
330
E0
100
AcDbEntity
  8
치수문자_일반주서
 62
     0
370
    -2
100
AcDbLine
 10
-37.86250000000001
 20
-6.349999999999994
 30
0.0
 11
-51.22999999999998
 21
-6.350000000000044
 31
0.0
  0
LINE
  5
E5
330
E0
100
AcDbEntity
  8
치수문자_일반주서
 62
     0
370
    -2
100
AcDbLine
 10
-51.23
 20
3.047999999999945
 30
0.0
 11
-51.22999999999999
 21
-3.048000000000044
 31
0.0
  0
SOLID
  5
E6
330
E0
100
AcDbEntity
  8
치수문자_일반주서
 62
     0
100
AcDbTrace
 10
-50.67966666666667
 20
3.047999999999947
 30
0.0
 11
-51.78033333333334
 21
3.047999999999943
 31
0.0
 12
-51.23000000000002
 22
6.349999999999945
 32
0.0
 13
-51.23000000000002
 23
6.349999999999945
 33
0.0
  0
SOLID
  5
E7
330
E0
100
AcDbEntity
  8
치수문자_일반주서
 62
     0
100
AcDbTrace
 10
-51.78033333333332
 20
-3.048000000000046
 30
0.0
 11
-50.67966666666666
 21
-3.048000000000043
 31
0.0
 12
-51.22999999999998
 22
-6.350000000000044
 32
0.0
 13
-51.22999999999998
 23
-6.350000000000044
 33
0.0
  0
MTEXT
  5
E8
330
E0
100
AcDbEntity
  8
치수문자_일반주서
 62
     0
100
AcDbMText
 10
-55.605
 20
-0.0000000000000193
 30
0.0
 40
3.5
 41
0.0
 71
     2
 72
     1
  1
\A1;%%c12.70 [1/2]
  7
SLDTEXTSTYLE0
 11
-3.356894814614650E-15
 21
1.0
 31
0.0
 73
     1
 44
1.0
  0
POINT
  5
E9
330
E0
100
AcDbEntity
  8
Defpoints
 62
     0
100
AcDbPoint
 10
-37.80000000000001
 20
6.349999999999994
 30
0.0
  0
POINT
  5
EA
330
E0
100
AcDbEntity
  8
Defpoints
 62
     0
100
AcDbPoint
 10
-37.80000000000001
 20
-6.349999999999994
 30
0.0
  0
POINT
  5
EB
330
E0
100
AcDbEntity
  8
Defpoints
 62
     0
100
AcDbPoint
 10
-51.22999999999998
 20
-6.350000000000044
 30
0.0
  0
ENDBLK
  5
E2
330
E0
100
AcDbEntity
  8
0
100
AcDbBlockEnd
  0
BLOCK
  5
F6
330
F5
100
AcDbEntity
  8
0
100
AcDbBlockBegin
  2
_D_1
 70
     0
 10
0.0
 20
0.0
 30
0.0
  3
_D_1
  1
_D_1
  0
LINE
  5
F8
330
F5
100
AcDbEntity
  8
치수문자_일반주서
 62
     0
370
    -2
100
AcDbLine
 10
62.86250000000002
 20
6.350000000000008
 30
0.0
 11
75.09448903215724
 21
6.350000000000055
 31
0.0
  0
LINE
  5
F9
330
F5
100
AcDbEntity
  8
치수문자_일반주서
 62
     0
370
    -2
100
AcDbLine
 10
62.86249999999988
 20
-6.349999999999992
 30
0.0
 11
75.09448903215728
 21
-6.349999999999945
 31
0.0
  0
LINE
  5
FA
330
F5
100
AcDbEntity
  8
치수문자_일반주서
 62
     0
370
    -2
100
AcDbLine
 10
75.09448903215724
 20
6.350000000000055
 30
0.0
 11
75.09448903215713
 21
40.43552443958768
 31
0.0
  0
LINE
  5
FB
330
F5
100
AcDbEntity
  8
치수문자_일반주서
 62
     0
370
    -2
100
AcDbLine
 10
75.09448903215724
 20
6.350000000000055
 30
0.0
 11
75.09448903215728
 21
-6.349999999999945
 31
0.0
  0
LINE
  5
FC
330
F5
100
AcDbEntity
  8
치수문자_일반주서
 62
     0
370
    -2
100
AcDbLine
 10
75.09448903215723
 20
9.652000000000054
 30
0.0
 11
75.09448903215721
 21
12.95400000000005
 31
0.0
  0
LINE
  5
FD
330
F5
100
AcDbEntity
  8
치수문자_일반주서
 62
     0
370
    -2
100
AcDbLine
 10
75.0944890321573
 20
-9.651999999999944
 30
0.0
 11
75.09448903215731
 21
-12.95399999999994
 31
0.0
  0
SOLID
  5
FE
330
F5
100
AcDbEntity
  8
치수문자_일반주서
 62
     0
100
AcDbTrace
 10
74.5441556988239
 20
9.652000000000053
 30
0.0
 11
75.64482236549055
 21
9.652000000000056
 31
0.0
 12
75.09448903215724
 22
6.350000000000055
 32
0.0
 13
75.09448903215724
 23
6.350000000000055
 33
0.0
  0
SOLID
  5
FF
330
F5
100
AcDbEntity
  8
치수문자_일반주서
 62
     0
100
AcDbTrace
 10
75.64482236549063
 20
-9.651999999999942
 30
0.0
 11
74.54415569882397
 21
-9.651999999999946
 31
0.0
 12
75.09448903215728
 22
-6.349999999999945
 32
0.0
 13
75.09448903215728
 23
-6.349999999999945
 33
0.0
  0
MTEXT
  5
100
330
F5
100
AcDbEntity
  8
치수문자_일반주서
 62
     0
100
AcDbMText
 10
70.71948903215717
 20
27.09177443958767
 30
0.0
 40
3.5
 41
0.0
 71
     2
 72
     1
  1
\A1;%%c12.70 [1/2]
  7
SLDTEXTSTYLE0
 11
-3.356894814614647E-15
 21
1.0
 31
0.0
 73
     1
 44
1.0
  0
POINT
  5
101
330
F5
100
AcDbEntity
  8
Defpoints
 62
     0
100
AcDbPoint
 10
62.80000000000002
 20
6.350000000000008
 30
0.0
  0
POINT
  5
18E
330
F5
100
AcDbEntity
  8
Defpoints
 62
     0
100
AcDbPoint
 10
62.79999999999988
 20
-6.349999999999992
 30
0.0
  0
POINT
  5
18F
330
F5
100
AcDbEntity
  8
Defpoints
 62
     0
100
AcDbPoint
 10
75.09448903215728
 20
-6.349999999999945
 30
0.0
  0
ENDBLK
  5
F7
330
F5
100
AcDbEntity
  8
0
100
AcDbBlockEnd
  0
BLOCK
  5
109
330
108
100
AcDbEntity
  8
0
100
AcDbBlockBegin
  2
_D_2
 70
     0
 10
0.0
 20
0.0
 30
0.0
  3
_D_2
  1
_D_2
  0
LINE
  5
10B
330
108
100
AcDbEntity
  8
치수문자_일반주서
 62
     0
370
    -2
100
AcDbLine
 10
62.80000000000002
 20
6.412500000000008
 30
0.0
 11
62.80000000000002
 21
27.476875
 31
0.0
  0
LINE
  5
10C
330
108
100
AcDbEntity
  8
치수문자_일반주서
 62
     0
370
    -2
100
AcDbLine
 10
12.0
 20
5.120286057524108
 30
0.0
 11
12.0
 21
27.476875
 31
0.0
  0
LINE
  5
10D
330
108
100
AcDbEntity
  8
치수문자_일반주서
 62
     0
370
    -2
100
AcDbLine
 10
59.49800000000002
 20
27.476875
 30
0.0
 11
15.302
 21
27.476875
 31
0.0
  0
SOLID
  5
10E
330
108
100
AcDbEntity
  8
치수문자_일반주서
 62
     0
100
AcDbTrace
 10
59.49800000000002
 20
26.92654166666666
 30
0.0
 11
59.49800000000002
 21
28.02720833333333
 31
0.0
 12
62.80000000000002
 22
27.476875
 32
0.0
 13
62.80000000000002
 23
27.476875
 33
0.0
  0
SOLID
  5
10F
330
108
100
AcDbEntity
  8
치수문자_일반주서
 62
     0
100
AcDbTrace
 10
15.302
 20
28.02720833333333
 30
0.0
 11
15.302
 21
26.92654166666666
 31
0.0
 12
12.0
 22
27.476875
 32
0.0
 13
12.0
 23
27.476875
 33
0.0
  0
MTEXT
  5
110
330
108
100
AcDbEntity
  8
치수문자_일반주서
 62
     0
100
AcDbMText
 10
35.96885027140139
 20
31.851875
 30
0.0
 40
3.5
 41
0.0
 71
     2
 72
     1
  1
\A1;50.80 [2]
  7
SLDTEXTSTYLE0
 73
     1
 44
1.0
  0
POINT
  5
111
330
108
100
AcDbEntity
  8
Defpoints
 62
     0
100
AcDbPoint
 10
62.80000000000002
 20
6.350000000000008
 30
0.0
  0
POINT
  5
112
330
108
100
AcDbEntity
  8
Defpoints
 62
     0
100
AcDbPoint
 10
12.0
 20
5.057786057524108
 30
0.0
  0
POINT
  5
113
330
108
100
AcDbEntity
  8
Defpoints
 62
     0
100
AcDbPoint
 10
12.0
 20
27.476875
 30
0.0
  0
ENDBLK
  5
10A
330
108
100
AcDbEntity
  8
0
100
AcDbBlockEnd
  0
BLOCK
  5
11D
330
11C
100
AcDbEntity
  8
0
100
AcDbBlockBegin
  2
_D_3
 70
     0
 10
0.0
 20
0.0
 30
0.0
  3
_D_3
  1
_D_3
  0
LINE
  5
11F
330
11C
100
AcDbEntity
  8
치수문자_일반주서
 62
     0
370
    -2
100
AcDbLine
 10
62.80000000000002
 20
6.412500000000008
 30
0.0
 11
62.80000000000002
 21
42.30092844013392
 31
0.0
  0
LINE
  5
120
330
11C
100
AcDbEntity
  8
치수문자_일반주서
 62
     0
370
    -2
100
AcDbLine
 10
-38.8
 20
5.412499999999993
 30
0.0
 11
-38.8
 21
42.30092844013392
 31
0.0
  0
LINE
  5
121
330
11C
100
AcDbEntity
  8
치수문자_일반주서
 62
     0
370
    -2
100
AcDbLine
 10
59.49800000000002
 20
42.30092844013392
 30
0.0
 11
-35.498
 21
42.30092844013392
 31
0.0
  0
SOLID
  5
122
330
11C
100
AcDbEntity
  8
치수문자_일반주서
 62
     0
100
AcDbTrace
 10
59.49800000000002
 20
41.75059510680059
 30
0.0
 11
59.49800000000002
 21
42.85126177346726
 31
0.0
 12
62.80000000000002
 22
42.30092844013392
 32
0.0
 13
62.80000000000002
 23
42.30092844013392
 33
0.0
  0
SOLID
  5
123
330
11C
100
AcDbEntity
  8
치수문자_일반주서
 62
     0
100
AcDbTrace
 10
-35.498
 20
42.85126177346726
 30
0.0
 11
-35.498
 21
41.75059510680059
 31
0.0
 12
-38.8
 22
42.30092844013392
 32
0.0
 13
-38.8
 23
42.30092844013392
 33
0.0
  0
MTEXT
  5
124
330
11C
100
AcDbEntity
  8
치수문자_일반주서
 62
     0
100
AcDbMText
 10
12.0
 20
46.67592844013392
 30
0.0
 40
3.5
 41
0.0
 71
     2
 72
     1
  1
\A1;101.60 [4]
  7
SLDTEXTSTYLE0
 73
     1
 44
1.0
  0
POINT
  5
125
330
11C
100
AcDbEntity
  8
Defpoints
 62
     0
100
AcDbPoint
 10
62.80000000000002
 20
6.350000000000008
 30
0.0
  0
POINT
  5
126
330
11C
100
AcDbEntity
  8
Defpoints
 62
     0
100
AcDbPoint
 10
-38.8
 20
5.349999999999993
 30
0.0
  0
POINT
  5
127
330
11C
100
AcDbEntity
  8
Defpoints
 62
     0
100
AcDbPoint
 10
-38.8
 20
42.30092844013392
 30
0.0
  0
ENDBLK
  5
11E
330
11C
100
AcDbEntity
  8
0
100
AcDbBlockEnd
  0
BLOCK
  5
136
330
135
100
AcDbEntity
  8
0
100
AcDbBlockBegin
  2
SW_DOWELSYMBOL_0
 70
     0
 10
0.0
 20
0.0
 30
0.0
  3
SW_DOWELSYMBOL_0
  1
SW_DOWELSYMBOL_0
  0
CIRCLE
  5
138
330
135
100
AcDbEntity
  8
해칭선
 62
     0
100
AcDbCircle
 10
0.0
 20
0.0
 30
0.0
 40
3.000000000000002
  0
HATCH
  5
139
330
135
100
AcDbEntity
  8
0
  6
Continuous
 62
     0
370
     0
100
AcDbHatch
 10
0.0
 20
0.0
 30
0.0
210
0.0
220
0.0
230
1.0
  2
SOLID
 70
     1
 71
     0
 91
        1
 92
        0
 93
        3
 72
     2
 10
-0.0000000000000234
 20
0.0
 40
3.000000000000002
 50
0.0
 51
90.0
 73
     1
 72
     1
 10
-0.0000000000000234
 20
3.000000000000002
 11
-0.0000000000000234
 21
0.0
 72
     1
 10
-0.0000000000000234
 20
0.0
 11
2.999999999999979
 21
0.0
 97
        0
 75
     0
 76
     1
 98
        1
 10
0.0
 20
0.0
  0
HATCH
  5
13A
330
135
100
AcDbEntity
  8
0
  6
Continuous
 62
     0
370
     0
100
AcDbHatch
 10
0.0
 20
0.0
 30
0.0
210
0.0
220
0.0
230
1.0
  2
SOLID
 70
     1
 71
     0
 91
        1
 92
        0
 93
        3
 72
     2
 10
-0.0000000000000234
 20
0.0
 40
3.000000000000002
 50
180.0
 51
270.0000000000008
 73
     1
 72
     1
 10
-0.0000000000000234
 20
-3.000000000000002
 11
-0.0000000000000234
 21
0.0
 72
     1
 10
-0.0000000000000234
 20
0.0
 11
-3.000000000000026
 21
0.0
 97
        0
 75
     0
 76
     1
 98
        1
 10
0.0
 20
0.0
  0
ENDBLK
  5
137
330
135
100
AcDbEntity
  8
0
100
AcDbBlockEnd
  0
ENDSEC
  0
SECTION
  2
ENTITIES
  0
LINE
  5
96
330
1F
100
AcDbEntity
  8
외형선
  6
Continuous
370
    15
100
AcDbLine
 10
9.969936745991706
 20
6.35
 30
0.0
 11
-37.8
 21
6.349999999999997
 31
0.0
  0
LINE
  5
97
330
1F
100
AcDbEntity
  8
외형선
  6
Continuous
370
    15
100
AcDbLine
 10
-37.8
 20
-6.350000000000002
 30
0.0
 11
9.969936745991706
 21
-6.35
 31
0.0
  0
LINE
  5
98
330
1F
100
AcDbEntity
  8
외형선
  6
Continuous
370
    15
100
AcDbLine
 10
-37.8
 20
6.349999999999994
 30
0.0
 11
-38.8
 21
5.349999999999993
 31
0.0
  0
LINE
  5
99
330
1F
100
AcDbEntity
  8
외형선
  6
Continuous
370
    15
100
AcDbLine
 10
-38.8
 20
-5.350000000000001
 30
0.0
 11
-37.8
 21
-6.35
 31
0.0
  0
SPLINE
  5
9A
330
1F
100
AcDbEntity
  8
외형선
  6
Continuous
370
    15
100
AcDbSpline
210
0.0
220
0.0
230
1.0
 70
     8
 71
     3
 72
     9
 73
     5
 74
     0
 42
0.000000001
 43
0.00000001
 40
0.0
 40
0.0
 40
0.0
 40
0.0
 40
0.436533535991784
 40
1.0
 40
1.0
 40
1.0
 40
1.0
 10
11.6593795759784
 20
1.691210924561071
 30
0.0
 10
11.45506615151331
 20
1.789286594830593
 30
0.0
 10
10.98703011849491
 20
2.013955863473833
 30
0.0
 10
10.51504777336639
 20
2.256678562714024
 30
0.0
 10
10.24910155028252
 20
2.393444663789424
 30
0.0
  0
LINE
  5
9B
330
1F
100
AcDbEntity
  8
0
  6
Continuous
 62
     1
370
    15
100
AcDbLine
 10
42.84197470213694
 20
1.784802565515175
 30
0.0
 11
42.76767261279656
 21
1.825666149455258
 31
0.0
  0
SPLINE
  5
9C
330
1F
100
AcDbEntity
  8
0
  6
Continuous
 62
     1
370
    15
100
AcDbSpline
210
0.0
220
0.0
230
1.0
 70
     8
 71
     3
 72
     9
 73
     5
 74
     0
 42
0.000000001
 43
0.00000001
 40
0.0
 40
0.0
 40
0.0
 40
0.0
 40
0.4623969680568184
 40
1.0
 40
1.0
 40
1.0
 40
1.0
 10
46.34938473344398
 20
1.627139968365876
 30
0.0
 10
46.07797019058284
 20
1.75624052946528
 30
0.0
 10
45.49099717473083
 20
2.035439075342294
 30
0.0
 10
44.90281487538634
 20
2.342951187690461
 30
0.0
 10
44.58660628792342
 20
2.508270631648088
 30
0.0
  0
LINE
  5
9D
330
1F
100
AcDbEntity
  8
0
  6
Continuous
 62
     1
370
    15
100
AcDbLine
 10
31.77793686780372
 20
6.350000000000005
 30
0.0
 11
28.69924227173864
 21
6.350000000000005
 31
0.0
  0
LINE
  5
9E
330
1F
100
AcDbEntity
  8
0
  6
Continuous
 62
     1
370
    15
100
AcDbLine
 10
28.69924227173863
 20
-6.350000000000005
 30
0.0
 11
31.77793686780369
 21
-6.350000000000005
 31
0.0
  0
SPLINE
  5
9F
330
1F
100
AcDbEntity
  8
0
  6
Continuous
 62
     1
370
    15
100
AcDbSpline
210
0.0
220
0.0
230
1.0
 70
     8
 71
     3
 72
    16
 73
    12
 74
     0
 42
0.000000001
 43
0.00000001
 40
0.0
 40
0.0
 40
0.0
 40
0.0
 40
0.1476838041960964
 40
0.2700801073882453
 40
0.3990884908267898
 40
0.5153208285740736
 40
0.6217843225370471
 40
0.7380044521212854
 40
0.8685697744603514
 40
0.9817347798196652
 40
0.9999999999999999
 40
0.9999999999999999
 40
0.9999999999999999
 40
0.9999999999999999
 10
44.25013530196622
 20
5.045968226634091
 30
0.0
 10
44.02878871694353
 20
5.032976264654063
 30
0.0
 10
43.62399612795003
 20
5.009216919437774
 30
0.0
 10
42.91999595235472
 20
4.977401906766961
 30
0.0
 10
42.26234184360078
 20
4.970737078670505
 30
0.0
 10
41.63095309500194
 20
4.961158984623386
 30
0.0
 10
41.02896688114031
 20
4.958066365562143
 30
0.0
 10
40.40982477929548
 20
4.960830192933187
 30
0.0
 10
39.77454617462782
 20
4.971029729735179
 30
0.0
 10
39.31772048851297
 20
4.982186389070653
 30
0.0
 10
39.09254452784103
 20
4.989937924379718
 30
0.0
 10
39.06125120483177
 20
4.991015176576269
 30
0.0
  0
SPLINE
  5
A0
330
1F
100
AcDbEntity
  8
0
  6
Continuous
 62
     1
370
    15
100
AcDbSpline
210
0.0
220
0.0
230
1.0
 70
     8
 71
     3
 72
    22
 73
    18
 74
     0
 42
0.000000001
 43
0.00000001
 40
0.0
 40
0.0
 40
0.0
 40
0.0
 40
0.1090947081739392
 40
0.2020793893750243
 40
0.2795225901175142
 40
0.3469191412891952
 40
0.4069739366759075
 40
0.4624719668592779
 40
0.5244219315234747
 40
0.6034733944420531
 40
0.6722650484953627
 40
0.7382990465583281
 40
0.7740332860333127
 40
0.8120898246345081
 40
0.8521499375528726
 40
0.9191533953241732
 40
1.0
 40
1.0
 40
1.0
 40
1.0
 10
34.6999018224877
 20
-5.284065902910227
 30
0.0
 10
35.04359775203066
 20
-5.250760658414853
 30
0.0
 10
35.68023599723303
 20
-5.189068358364142
 30
0.0
 10
36.58264338907266
 20
-5.11904350278961
 30
0.0
 10
37.3611282289324
 20
-5.068875094810626
 30
0.0
 10
38.03055269914272
 20
-5.031070125917365
 30
0.0
 10
38.62351592664381
 20
-5.004932418063691
 30
0.0
 10
39.1728058687791
 20
-4.986682682931366
 30
0.0
 10
39.79862634123927
 20
-4.970068984901541
 30
0.0
 10
40.47574919541844
 20
-4.9600731612161
 30
0.0
 10
41.15855225171052
 20
-4.95793221389842
 30
0.0
 10
41.71676254919876
 20
-4.962541510995317
 30
0.0
 10
42.17514446488367
 20
-4.969046668899384
 30
0.0
 10
42.54237528289963
 20
-4.97385111342459
 30
0.0
 10
43.02009096350904
 20
-4.981646023909923
 30
0.0
 10
43.62339681124296
 20
-5.009293830473005
 30
0.0
 10
44.02857685237419
 20
-5.033003453489558
 30
0.0
 10
44.25013530196623
 20
-5.045968226634092
 30
0.0
  0
SPLINE
  5
A1
330
1F
100
AcDbEntity
  8
0
  6
Continuous
 62
     1
370
    15
100
AcDbSpline
210
0.0
220
0.0
230
1.0
 70
     8
 71
     3
 72
    17
 73
    13
 74
     0
 42
0.000000001
 43
0.00000001
 40
0.0
 40
0.0
 40
0.0
 40
0.0
 40
0.1481432782749706
 40
0.2634056960869745
 40
0.345325228147044
 40
0.4204914117605167
 40
0.5129072216033185
 40
0.6203673664959333
 40
0.7186336284299757
 40
0.8609676889920347
 40
0.9836690084411778
 40
1.0
 40
1.0
 40
1.0
 40
1.0
 10
49.34668360371227
 20
-4.77605334712198
 30
0.0
 10
49.57922658170349
 20
-4.740312318301313
 30
0.0
 10
49.9926989018868
 20
-4.676763092950041
 30
0.0
 10
50.53578683925354
 20
-4.601651323726872
 30
0.0
 10
50.96813601135472
 20
-4.54548237670574
 30
0.0
 10
51.36576326912791
 20
-4.496716843247855
 30
0.0
 10
51.8013285835212
 20
-4.446927485183817
 30
0.0
 10
52.27230877149047
 20
-4.397981541254953
 30
0.0
 10
52.82168362356996
 20
-4.346429865694391
 30
0.0
 10
53.39582057093735
 20
-4.300415014695327
 30
0.0
 10
53.83766841324189
 20
-4.268741303499998
 30
0.0
 10
54.05678346092055
 20
-4.25706455719846
 30
0.0
 10
54.08252111836225
 20
-4.255692985051652
 30
0.0
  0
SPLINE
  5
A2
330
1F
100
AcDbEntity
  8
0
  6
Continuous
 62
     1
370
    15
100
AcDbSpline
210
0.0
220
0.0
230
1.0
 70
     8
 71
     3
 72
    29
 73
    25
 74
     0
 42
0.000000001
 43
0.00000001
 40
0.0
 40
0.0
 40
0.0
 40
0.0
 40
0.0707977095536129
 40
0.1255275513753343
 40
0.167362698883972
 40
0.1923839911069493
 40
0.2173194378878103
 40
0.2442772115508115
 40
0.2732870195265968
 40
0.3044627922499079
 40
0.3377945876692109
 40
0.4019501962832902
 40
0.4557014745075234
 40
0.5004709677145188
 40
0.543694938246644
 40
0.5952000997321595
 40
0.6570370984983348
 40
0.7156842423620778
 40
0.768028608822119
 40
0.8136551300114665
 40
0.8368861641413508
 40
0.8748614417371378
 40
0.9292977052305353
 40
0.9999999999999999
 40
0.9999999999999999
 40
0.9999999999999999
 40
0.9999999999999999
 10
25.88779883533554
 20
4.343105277760026
 30
0.0
 10
25.62417748961616
 20
4.321685611875561
 30
0.0
 10
25.15676488224408
 20
4.283707572378134
 30
0.0
 10
24.5359511579567
 20
4.245980732232226
 30
0.0
 10
24.08588570354651
 20
4.223585889876383
 30
0.0
 10
23.75071593182627
 20
4.209825454334218
 30
0.0
 10
23.46834003685827
 20
4.199935557898784
 30
0.0
 10
23.17005180025507
 20
4.191495660325622
 30
0.0
 10
22.84763506259242
 20
4.184688900315801
 30
0.0
 10
22.50075730224467
 20
4.180050204297323
 30
0.0
 10
22.02268259626733
 20
4.17761435451121
 30
0.0
 10
21.45871657421615
 20
4.181782013305546
 30
0.0
 10
20.857989567956
 20
4.195590350811527
 30
0.0
 10
20.34135412080561
 20
4.213840704329229
 30
0.0
 10
19.82537333739899
 20
4.23767477374778
 30
0.0
 10
19.2464568070775
 20
4.271388201416944
 30
0.0
 10
18.61078684046249
 20
4.317594047325755
 30
0.0
 10
17.97148693980101
 20
4.373197668128062
 30
0.0
 10
17.39163257837633
 20
4.431309448034773
 30
0.0
 10
16.94573082029876
 20
4.481193594348506
 30
0.0
 10
16.55470978042652
 20
4.528094423661178
 30
0.0
 10
16.12673810134788
 20
4.582358440080714
 30
0.0
 10
15.52198415050815
 20
4.664490052689528
 30
0.0
 10
15.05652018902317
 20
4.735803928926353
 30
0.0
 10
14.79353673559113
 20
4.776095704449751
 30
0.0
  0
SPLINE
  5
A3
330
1F
100
AcDbEntity
  8
0
  6
Continuous
 62
     1
370
    15
100
AcDbSpline
210
0.0
220
0.0
230
1.0
 70
     8
 71
     3
 72
    18
 73
    14
 74
     0
 42
0.000000001
 43
0.00000001
 40
0.0
 40
0.0
 40
0.0
 40
0.0
 40
0.1659094984333128
 40
0.2936492443951889
 40
0.3908639549518952
 40
0.4492829631310676
 40
0.5083500462657426
 40
0.572406853782447
 40
0.6413950038723014
 40
0.7150603411574631
 40
0.7932633248869552
 40
0.9426568964607652
 40
1.0
 40
1.0
 40
1.0
 40
1.0
 10
14.79353673559113
 20
-4.776095704449752
 30
0.0
 10
15.05651876889406
 20
-4.735804314357713
 30
0.0
 10
15.52198021684097
 20
-4.66449112030985
 30
0.0
 10
16.13954985301779
 20
-4.580617054750018
 30
0.0
 10
16.58639312266053
 20
-4.524116121229159
 30
0.0
 10
16.92093773400736
 20
-4.484319743740481
 30
0.0
 10
17.20544211212963
 20
-4.452155156944462
 30
0.0
 10
17.50749197625316
 20
-4.419882687497453
 30
0.0
 10
17.83352085286874
 20
-4.387260522201597
 30
0.0
 10
18.18171635735476
 20
-4.35488618224944
 30
0.0
 10
18.65663627094581
 20
-4.314667162586343
 30
0.0
 10
19.10538577848945
 20
-4.280429662112351
 30
0.0
 10
19.4311544089214
 20
-4.261859625587337
 30
0.0
 10
19.52151372370906
 20
-4.256708804976535
 30
0.0
  0
SPLINE
  5
A4
330
1F
100
AcDbEntity
  8
0
  6
Continuous
 62
     1
370
    15
100
AcDbSpline
210
0.0
220
0.0
230
1.0
 70
     8
 71
     3
 72
    27
 73
    23
 74
     0
 42
0.000000001
 43
0.00000001
 40
0.0
 40
0.0
 40
0.0
 40
0.0
 40
0.065999587355157
 40
0.116116856896499
 40
0.1500521954863797
 40
0.1807480717452728
 40
0.2193970946695201
 40
0.2651396234000014
 40
0.3077710016335825
 40
0.3717586113783316
 40
0.4256179952666221
 40
0.4792292629576237
 40
0.5328162239056273
 40
0.5928397072290703
 40
0.6565782697971632
 40
0.710427277381025
 40
0.740365601851828
 40
0.7679578609371701
 40
0.7958339015085653
 40
0.8419139768554486
 40
0.9100096775666652
 40
1.0
 40
1.0
 40
1.0
 40
1.0
 10
60.44057835560291
 20
4.343096787551233
 30
0.0
 10
60.1974732154759
 20
4.323251443872665
 30
0.0
 10
59.7697644085249
 20
4.288336393274155
 30
0.0
 10
59.21669111691286
 20
4.253584412862964
 30
0.0
 10
58.79062829980898
 20
4.230874375706961
 30
0.0
 10
58.40563638359487
 20
4.213568810556836
 30
0.0
 10
57.97928573703808
 20
4.198093392532767
 30
0.0
 10
57.50952007462813
 20
4.186205213928456
 30
0.0
 10
56.94622724427941
 20
4.178333964901137
 30
0.0
 10
56.35286210789144
 20
4.178133973415958
 30
0.0
 10
55.71914439697254
 20
4.187573308613704
 30
0.0
 10
55.12327440179922
 20
4.204664109040323
 30
0.0
 10
54.50520829571061
 20
4.230751219830522
 30
0.0
 10
53.8465205605715
 20
4.268003085056245
 30
0.0
 10
53.18392398214623
 20
4.315936539493611
 30
0.0
 10
52.63854297093442
 20
4.36318037343783
 30
0.0
 10
52.23310307957436
 20
4.402345096790881
 30
0.0
 10
51.92110631224676
 20
4.434524023006953
 30
0.0
 10
51.5495916401818
 20
4.475197972659652
 30
0.0
 10
51.02495568687959
 20
4.537532014939336
 30
0.0
 10
50.26885646458393
 20
4.635842890274061
 30
0.0
 10
49.68120414373311
 20
4.725191648918239
 30
0.0
 10
49.34668360371228
 20
4.776053347121981
 30
0.0
  0
SPLINE
  5
A5
330
1F
100
AcDbEntity
  8
외형선
  6
Continuous
370
    15
100
AcDbSpline
210
0.0
220
0.0
230
1.0
 70
     8
 71
     3
 72
     8
 73
     4
 74
     0
 42
0.000000001
 43
0.00000001
 40
0.0
 40
0.0
 40
0.0
 40
0.0
 40
1.0
 40
1.0
 40
1.0
 40
1.0
 10
9.969936745991603
 20
0.8361789523236962
 30
0.0
 10
10.6438688552186
 20
0.4495790625631004
 30
0.0
 10
11.32631120166671
 20
0.0566017016611418
 30
0.0
 10
11.99999999999997
 20
-0.3328114303276237
 30
0.0
  0
SPLINE
  5
A6
330
1F
100
AcDbEntity
  8
외형선
  6
Continuous
370
    15
100
AcDbSpline
210
0.0
220
0.0
230
1.0
 70
    24
 71
     3
 72
     9
 73
     5
 74
     0
 42
0.000000001
 43
0.00000001
 40
0.0
 40
0.0
 40
0.0
 40
0.0
 40
0.224478165485641
 40
1.0
 40
1.0
 40
1.0
 40
1.0
 10
12.0
 20
-0.3328114303275045
 30
0.0
 10
12.0
 20
-0.3380485377293584
 30
0.0
 10
11.99999999999999
 20
-0.3613786793960268
 30
0.0
 10
11.99999999999999
 20
-0.3917105337631107
 30
0.0
 10
12.0
 20
-0.415233549106094
 30
0.0
  0
SPLINE
  5
A7
330
1F
100
AcDbEntity
  8
외형선
  6
Continuous
370
    15
100
AcDbSpline
210
0.0
220
0.0
230
1.0
 70
    24
 71
     3
 72
     8
 73
     4
 74
     0
 42
0.000000001
 43
0.00000001
 40
0.0
 40
0.0
 40
0.0
 40
0.0
 40
1.0
 40
1.0
 40
1.0
 40
1.0
 10
11.99999999999999
 20
-0.415233549106363
 30
0.0
 10
11.45266987561004
 20
-0.1944367809990413
 30
0.0
 10
10.89955980460253
 20
0.0286916576597799
 30
0.0
 10
10.3499329780214
 20
0.250414931359466
 30
0.0
  0
SPLINE
  5
A8
330
1F
100
AcDbEntity
  8
외형선
  6
Continuous
370
    15
100
AcDbSpline
210
0.0
220
0.0
230
1.0
 70
     8
 71
     3
 72
    12
 73
     8
 74
     0
 42
0.000000001
 43
0.00000001
 40
0.0
 40
0.0
 40
0.0
 40
0.0
 40
0.5000000000000002
 40
0.5000000000000002
 40
0.7500000000000001
 40
0.7500000000000001
 40
1.0
 40
1.0
 40
1.0
 40
1.0
 10
9.969936745991658
 20
0.6473398050226331
 30
0.0
 10
9.969936745991479
 20
0.596293243678363
 30
0.0
 10
10.01172639947379
 20
0.5232816023260665
 30
0.0
 10
10.10902456680724
 20
0.412618698519076
 30
0.0
 10
10.14762622886775
 20
0.375570225585564
 30
0.0
 10
10.23898618527448
 20
0.3060893116284445
 30
0.0
 10
10.2918488649413
 20
0.2738464654098889
 30
0.0
 10
10.34993297802139
 20
0.2504149313594706
 30
0.0
  0
LINE
  5
A9
330
1F
100
AcDbEntity
  8
외형선
  6
Continuous
370
    15
100
AcDbLine
 10
9.969936745991639
 20
2.542417186322107
 30
0.0
 11
9.969936745991706
 21
6.35
 31
0.0
  0
SPLINE
  5
AA
330
1F
100
AcDbEntity
  8
외형선
  6
Continuous
370
    15
100
AcDbSpline
210
0.0
220
0.0
230
1.0
 70
     8
 71
     3
 72
     8
 73
     4
 74
     0
 42
0.000000001
 43
0.00000001
 40
0.0
 40
0.0
 40
0.0
 40
0.0
 40
1.0
 40
1.0
 40
1.0
 40
1.0
 10
12.0
 20
1.431470580999411
 30
0.0
 10
11.32628916193824
 20
1.811394698160066
 30
0.0
 10
10.64382420449605
 20
2.184777150792454
 30
0.0
 10
9.969870602953648
 20
2.542167805920453
 30
0.0
  0
LINE
  5
AB
330
1F
100
AcDbEntity
  8
외형선
  6
Continuous
370
    15
100
AcDbLine
 10
12.0
 20
1.43147058099941
 30
0.0
 11
12.0
 21
-0.332811430327637
 31
0.0
  0
LINE
  5
AC
330
1F
100
AcDbEntity
  8
외형선
  6
Continuous
370
    15
100
AcDbLine
 10
-37.8
 20
6.349999999999994
 30
0.0
 11
-37.8
 21
-6.350000000000002
 31
0.0
  0
LINE
  5
AD
330
1F
100
AcDbEntity
  8
외형선
  6
Continuous
370
    15
100
AcDbLine
 10
9.969936745991706
 20
-6.35
 30
0.0
 11
9.969936745991603
 21
0.8361767514838898
 31
0.0
  0
LINE
  5
AE
330
1F
100
AcDbEntity
  8
외형선
  6
Continuous
370
    15
100
AcDbLine
 10
-38.8
 20
5.349999999999993
 30
0.0
 11
-38.8
 21
-5.350000000000001
 31
0.0
  0
LINE
  5
AF
330
1F
100
AcDbEntity
  8
외형선
  6
Continuous
370
    15
100
AcDbLine
 10
11.99999999999997
 20
1.531481970067777
 30
0.0
 11
11.63889055651498
 21
1.695757161577455
 31
0.0
  0
SPLINE
  5
B0
330
1F
100
AcDbEntity
  8
외형선
  6
Continuous
370
    15
100
AcDbSpline
210
0.0
220
0.0
230
1.0
 70
    24
 71
     3
 72
     8
 73
     4
 74
     0
 42
0.000000001
 43
0.00000001
 40
0.0
 40
0.0
 40
0.0
 40
0.0
 40
1.0
 40
1.0
 40
1.0
 40
1.0
 10
12.0
 20
1.531481970067762
 30
0.0
 10
12.0
 20
1.52521734757324
 30
0.0
 10
12.0
 20
1.491786088514839
 30
0.0
 10
12.0
 20
1.431470581001779
 30
0.0
  0
SPLINE
  5
B1
330
1F
100
AcDbEntity
  8
외형선
  6
Continuous
370
    15
100
AcDbSpline
210
0.0
220
0.0
230
1.0
 70
     8
 71
     3
 72
     8
 73
     4
 74
     0
 42
0.000000001
 43
0.00000001
 40
0.0
 40
0.0
 40
0.0
 40
0.0
 40
1.0
 40
1.0
 40
1.0
 40
1.0
 10
11.99999999999999
 20
5.057786057524107
 30
0.0
 10
11.32630314913063
 20
5.086928352653793
 30
0.0
 10
10.64385254142832
 20
5.08734111016544
 30
0.0
 10
9.969912579662138
 20
5.059003621056491
 30
0.0
  0
SPLINE
  5
B2
330
1F
100
AcDbEntity
  8
외형선
  6
Continuous
370
    15
100
AcDbSpline
210
0.0
220
0.0
230
1.0
 70
    24
 71
     3
 72
    14
 73
    10
 74
     0
 42
0.000000001
 43
0.00000001
 40
0.0
 40
0.0
 40
0.0
 40
0.0
 40
0.25
 40
0.25
 40
0.4999999999999999
 40
0.4999999999999999
 40
0.75
 40
0.75
 40
1.0
 40
1.0
 40
1.0
 40
1.0
 10
12.0
 20
5.057786057524108
 30
0.0
 10
12.0
 20
4.955991922115863
 30
0.0
 10
12.0
 20
4.800841828128232
 30
0.0
 10
12.0
 20
4.383466439459223
 30
0.0
 10
12.0
 20
4.12123819923512
 30
0.0
 10
12.0
 20
3.504929191292929
 30
0.0
 10
12.0
 20
3.151026394907591
 30
0.0
 10
12.0
 20
2.37986132634718
 30
0.0
 10
12.0
 20
1.962874697405588
 30
0.0
 10
12.0
 20
1.531481970067762
 30
0.0
  0
SPLINE
  5
B3
330
1F
100
AcDbEntity
  8
외형선
  6
Continuous
370
    15
100
AcDbSpline
210
0.0
220
0.0
230
1.0
 70
     8
 71
     3
 72
     8
 73
     4
 74
     0
 42
0.000000001
 43
0.00000001
 40
0.0
 40
0.0
 40
0.0
 40
0.0
 40
1.0
 40
1.0
 40
1.0
 40
1.0
 10
11.99999999999999
 20
-5.057786057524108
 30
0.0
 10
11.50138325475486
 20
-5.079354863030302
 30
0.0
 10
10.99797024626293
 20
-5.085246930706186
 30
0.0
 10
10.49676266418883
 20
-5.075299014686123
 30
0.0
  0
SPLINE
  5
B4
330
1F
100
AcDbEntity
  8
외형선
  6
Continuous
370
    15
100
AcDbSpline
210
0.0
220
0.0
230
1.0
 70
     8
 71
     3
 72
    16
 73
    12
 74
     0
 42
0.000000001
 43
0.00000001
 40
0.0
 40
0.0
 40
0.0
 40
0.0
 40
0.2898747919845182
 40
0.4432063897349108
 40
0.574310828088866
 40
0.6995170226353297
 40
0.8025682350406351
 40
0.8835750720317397
 40
0.9427575044457138
 40
0.9807001523122653
 40
1.0
 40
1.0
 40
1.0
 40
1.0
 10
10.25248350300412
 20
-5.241224749318461
 30
0.0
 10
10.27432753943583
 20
-5.22425742911603
 30
0.0
 10
10.30772615425796
 20
-5.198315108713097
 30
0.0
 10
10.35175931071033
 20
-5.16557264803786
 30
0.0
 10
10.38358749614105
 20
-5.142521898864765
 30
0.0
 10
10.41209295239479
 20
-5.122578985456791
 30
0.0
 10
10.43748645046692
 20
-5.105762826147888
 30
0.0
 10
10.45825226713601
 20
-5.092625415307699
 30
0.0
 10
10.47485135786556
 20
-5.083663692631353
 30
0.0
 10
10.48634136581122
 20
-5.077342634376684
 30
0.0
 10
10.49414374703536
 20
-5.07580513300807
 30
0.0
 10
10.49677439351171
 20
-5.075286749909176
 30
0.0
  0
SPLINE
  5
B5
330
1F
100
AcDbEntity
  8
외형선
  6
Continuous
370
    15
100
AcDbSpline
210
0.0
220
0.0
230
1.0
 70
    24
 71
     3
 72
    14
 73
    10
 74
     0
 42
0.000000001
 43
0.00000001
 40
0.0
 40
0.0
 40
0.0
 40
0.0
 40
0.25
 40
0.25
 40
0.5
 40
0.5
 40
0.75
 40
0.75
 40
1.0
 40
1.0
 40
1.0
 40
1.0
 10
12.0
 20
-0.4152335491063648
 30
0.0
 10
12.0
 20
-0.9512593748671813
 30
0.0
 10
12.0
 20
-1.483589656027699
 30
0.0
 10
12.0
 20
-2.485843943124369
 30
0.0
 10
12.0
 20
-2.955159362025841
 30
0.0
 10
12.0
 20
-3.780274792714123
 30
0.0
 10
12.0
 20
-4.135635148502855
 30
0.0
 10
12.0
 20
-4.703683825522729
 30
0.0
 10
12.0
 20
-4.916373424927189
 30
0.0
 10
12.0
 20
-5.057786057524109
 30
0.0
  0
SPLINE
  5
B6
330
1F
100
AcDbEntity
  8
외형선
  6
Continuous
370
    15
100
AcDbSpline
210
0.0
220
0.0
230
1.0
 70
     8
 71
     3
 72
    14
 73
    10
 74
     0
 42
0.000000001
 43
0.00000001
 40
0.0
 40
0.0
 40
0.0
 40
0.0
 40
0.2500000000000002
 40
0.2500000000000002
 40
0.5000000000000003
 40
0.5000000000000003
 40
0.7500000000000001
 40
0.7500000000000001
 40
1.0
 40
1.0
 40
1.0
 40
1.0
 10
10.25249014248001
 20
-5.241225446402176
 30
0.0
 10
10.22358865325081
 20
-5.263900822582018
 30
0.0
 10
10.19309417576604
 20
-5.288991694918036
 30
0.0
 10
10.12533566765385
 20
-5.350058343073438
 30
0.0
 10
10.08644430068866
 20
-5.387896203943106
 30
0.0
 10
10.01866286335029
 20
-5.465645092149408
 30
0.0
 10
9.995797533113548
 20
-5.499231066935065
 30
0.0
 10
9.973101224579109
 20
-5.541690303824565
 30
0.0
 10
9.969936745991697
 20
-5.554445681010893
 30
0.0
 10
9.969936745991697
 20
-5.563269317124107
 30
0.0
  0
SPLINE
  5
B7
330
1F
100
AcDbEntity
  8
0
  6
Continuous
 62
     1
370
    15
100
AcDbSpline
210
0.0
220
0.0
230
1.0
 70
     8
 71
     3
 72
    31
 73
    27
 74
     0
 42
0.000000001
 43
0.00000001
 40
0.0
 40
0.0
 40
0.0
 40
0.0
 40
0.0072137383838159
 40
0.04974975701267
 40
0.091969658139035
 40
0.1344826732688276
 40
0.1766907055161202
 40
0.2191917809453012
 40
0.2613997697499523
 40
0.3036078071639489
 40
0.3458045616248563
 40
0.3882945518744805
 40
0.4304912075279973
 40
0.4729802035463307
 40
0.515176912103162
 40
0.5576664813820015
 40
0.5998631550858727
 40
0.64205980802735
 40
0.684256444372112
 40
0.7267452910272953
 40
0.7689420133619181
 40
0.8114318443775776
 40
0.8575871340189306
 40
0.9037424278928645
 40
0.951656600230783
 40
1.0
 40
1.0
 40
1.0
 40
1.0
 10
19.52133686428385
 20
4.256629567448792
 30
0.0
 10
19.6253903163769
 20
4.303680193031535
 30
0.0
 10
20.34299798143622
 20
4.62816620368131
 30
0.0
 10
21.66968825261704
 20
5.114106349533034
 30
0.0
 10
23.50610232162943
 20
5.682974196404738
 30
0.0
 10
25.33743760189486
 20
6.083138559674147
 30
0.0
 10
27.17252601361972
 20
6.318227269868165
 30
0.0
 10
29.00323079114587
 20
6.377007179436576
 30
0.0
 10
30.83404154285249
 20
6.259345608609682
 30
0.0
 10
32.66103571337133
 20
5.970010663324557
 30
0.0
 10
34.49161253428581
 20
5.515311759106106
 30
0.0
 10
36.32183757342315
 20
4.907754376685226
 30
0.0
 10
38.15624337629806
 20
4.162649636740944
 30
0.0
 10
39.98663205846584
 20
3.304227366324115
 30
0.0
 10
41.82173606914517
 20
2.353125362940514
 30
0.0
 10
43.65210828225773
 20
1.338240640702508
 30
0.0
 10
45.48229529179875
 20
0.2860889970591974
 30
0.0
 10
47.30826667043226
 20
-0.7715006856761113
 30
0.0
 10
49.1387134416604
 20
-1.809787192997844
 30
0.0
 10
50.96957222462866
 20
-2.797458695455249
 30
0.0
 10
52.80410915101241
 20
-3.710759700115472
 30
0.0
 10
54.69135356064163
 20
-4.544450169735927
 30
0.0
 10
56.63603986402712
 20
-5.265091850744936
 30
0.0
 10
58.65895392437844
 20
-5.835045709814513
 30
0.0
 10
60.71364592682411
 20
-6.228934015059656
 30
0.0
 10
62.10248429377131
 20
-6.305952244085731
 30
0.0
 10
62.79999999999988
 20
-6.349999999999992
 30
0.0
  0
SPLINE
  5
B8
330
1F
100
AcDbEntity
  8
0
  6
Continuous
 62
     1
370
    15
100
AcDbSpline
210
0.0
220
0.0
230
1.0
 70
     8
 71
     3
 72
    17
 73
    13
 74
     0
 42
0.000000001
 43
0.00000001
 40
0.0
 40
0.0
 40
0.0
 40
0.0
 40
0.0866991351753384
 40
0.1908213684429417
 40
0.2949423105899179
 40
0.3990625330645867
 40
0.5031826076199074
 40
0.6073031060714607
 40
0.7114246000553777
 40
0.8155476607864268
 40
0.9196728588164789
 40
1.0
 40
1.0
 40
1.0
 40
1.0
 10
47.02205914813674
 20
-0.6028666476021608
 30
0.0
 10
46.41115909924056
 20
-0.3570848640218657
 30
0.0
 10
45.06659224656692
 20
0.1838711234431592
 30
0.0
 10
42.98837290125775
 20
1.022546704031496
 30
0.0
 10
40.78740356997583
 20
1.867731144210431
 30
0.0
 10
38.58645116002276
 20
2.638923435481752
 30
0.0
 10
36.38550216571133
 20
3.304719954863995
 30
0.0
 10
34.18454328145317
 20
3.83824293613358
 30
0.0
 10
31.98356123821742
 20
4.220020457283138
 30
0.0
 10
29.78254244633017
 20
4.427809462729404
 30
0.0
 10
27.74917978520447
 20
4.475555123528341
 30
0.0
 10
26.44948533991852
 20
4.37224201673232
 30
0.0
 10
25.88348146245596
 20
4.327250196346117
 30
0.0
  0
SPLINE
  5
B9
330
1F
100
AcDbEntity
  8
0
  6
Continuous
 62
     1
370
    15
100
AcDbSpline
210
0.0
220
0.0
230
1.0
 70
     8
 71
     3
 72
    20
 73
    16
 74
     0
 42
0.000000001
 43
0.00000001
 40
0.0
 40
0.0
 40
0.0
 40
0.0
 40
0.0175466629790492
 40
0.0988805356139177
 40
0.1802147125532023
 40
0.2615496042906984
 40
0.3428856210241508
 40
0.4242231724855245
 40
0.5055626677716888
 40
0.586904515175662
 40
0.669520712644137
 40
0.7521382417694301
 40
0.8347572207766036
 40
0.9173777676275834
 40
1.0
 40
1.0
 40
1.0
 40
1.0
 10
39.06125120483178
 20
-4.991015176576271
 30
0.0
 10
38.90297646920015
 20
-5.052254311743284
 30
0.0
 10
38.01105242346604
 20
-5.397354601928233
 30
0.0
 10
36.3854773523076
 20
-5.829222191617919
 30
0.0
 10
34.18451675592939
 20
-6.242791046805856
 30
0.0
 10
31.98353313228758
 20
-6.390667002255938
 30
0.0
 10
29.78251272365956
 20
-6.287850663179706
 30
0.0
 10
27.58144332430437
 20
-5.932838280888423
 30
0.0
 10
25.38030770193427
 20
-5.341299743737084
 30
0.0
 10
23.16763711123794
 20
-4.532231529171441
 30
0.0
 10
20.94337893152634
 20
-3.534606352956783
 30
0.0
 10
18.70760744109983
 20
-2.38596497219931
 30
0.0
 10
16.47178485330855
 20
-1.140199420340736
 30
0.0
 10
14.23591308738013
 20
0.1567623804411194
 30
0.0
 10
12.74530943064805
 20
1.006564958073923
 30
0.0
 10
12.0
 20
1.43147058099941
 30
0.0
  0
SPLINE
  5
BA
330
1F
100
AcDbEntity
  8
외형선
  6
Continuous
370
    15
100
AcDbSpline
210
0.0
220
0.0
230
1.0
 70
    24
 71
     3
 72
     8
 73
     4
 74
     0
 42
0.000000001
 43
0.00000001
 40
0.0
 40
0.0
 40
0.0
 40
0.0
 40
1.0
 40
1.0
 40
1.0
 40
1.0
 10
12.0
 20
1.531481970067762
 30
0.0
 10
12.0
 20
1.525217347573264
 30
0.0
 10
12.0
 20
1.491786088515094
 30
0.0
 10
12.0
 20
1.431470581002467
 30
0.0
  0
SPLINE
  5
BB
330
1F
100
AcDbEntity
  8
0
  6
Continuous
 62
     1
370
    15
100
AcDbSpline
210
0.0
220
0.0
230
1.0
 70
     8
 71
     3
 72
    18
 73
    14
 74
     0
 42
0.000000001
 43
0.00000001
 40
0.0
 40
0.0
 40
0.0
 40
0.0
 40
0.0228861257679626
 40
0.1198298363310716
 40
0.2167749478058195
 40
0.3137219704048465
 40
0.4106714135408007
 40
0.5076237856137762
 40
0.6045795937996499
 40
0.701539343839511
 40
0.7985035398303608
 40
0.8992517074467076
 40
1.0
 40
1.0
 40
1.0
 40
1.0
 10
34.70412148262932
 20
-5.264676793416052
 30
0.0
 10
34.53092186899061
 20
-5.287788961422198
 30
0.0
 10
33.62406320862329
 20
-5.40880233596677
 30
0.0
 10
31.98353228897512
 20
-5.418212075768809
 30
0.0
 10
29.78251196776784
 20
-5.278586985098421
 30
0.0
 10
27.58144161536839
 20
-4.911077837021683
 30
0.0
 10
25.38030823279366
 20
-4.352116318841902
 30
0.0
 10
23.17909835162419
 20
-3.618148803764455
 30
0.0
 10
20.97779932560111
 20
-2.740145396088925
 30
0.0
 10
18.7763958870927
 20
-1.752307211817245
 30
0.0
 10
16.54628256928093
 20
-0.6820405291519964
 30
0.0
 10
14.28745577358391
 20
0.4359028290805547
 30
0.0
 10
12.76248557304485
 20
1.166288772114564
 30
0.0
 10
11.99999999999997
 20
1.531481970067777
 30
0.0
  0
SPLINE
  5
BC
330
1F
100
AcDbEntity
  8
0
  6
Continuous
 62
     1
370
    15
100
AcDbSpline
210
0.0
220
0.0
230
1.0
 70
     8
 71
     3
 72
    22
 73
    18
 74
     0
 42
0.000000001
 43
0.00000001
 40
0.0
 40
0.0
 40
0.0
 40
0.0
 40
0.0709696638677264
 40
0.1419356795583357
 40
0.2128983982503388
 40
0.2838581724789243
 40
0.3548153559925646
 40
0.4257703036085578
 40
0.4967233710676216
 40
0.5676749148876802
 40
0.6386252922169593
 40
0.7095748606865262
 40
0.7805239782624007
 40
0.8514730030973744
 40
0.9224222933826565
 40
0.9933722071994934
 40
1.0
 40
1.0
 40
1.0
 40
1.0
 10
62.8
 20
-6.025774519622566
 30
0.0
 10
62.06609321874546
 20
-5.868826462574877
 30
0.0
 10
60.59831738252362
 20
-5.554938416353564
 30
0.0
 10
58.39673580691479
 20
-4.797845688113345
 30
0.0
 10
56.19527514873756
 20
-3.866485261856536
 30
0.0
 10
53.99392454724413
 20
-2.776147658172936
 30
0.0
 10
51.79267023861615
 20
-1.576235841539937
 30
0.0
 10
49.59149918271547
 20
-0.3130786924930609
 30
0.0
 10
47.3903980980178
 20
0.9624643881736369
 30
0.0
 10
45.18935372928427
 20
2.199635345995804
 30
0.0
 10
42.98835277602318
 20
3.348846876185437
 30
0.0
 10
40.78738194528133
 20
4.364882491800779
 30
0.0
 10
38.58642784644749
 20
5.20477021473243
 30
0.0
 10
36.38547739377952
 20
5.843996724765753
 30
0.0
 10
34.18451633609708
 20
6.223416969918264
 30
0.0
 10
32.64866935579992
 20
6.383892087640054
 30
0.0
 10
31.84647199383474
 20
6.342770406785098
 30
0.0
 10
31.77793686780372
 20
6.339257207024509
 30
0.0
  0
SPLINE
  5
BD
330
1F
100
AcDbEntity
  8
0
  6
Continuous
 62
     1
370
    15
100
AcDbSpline
210
0.0
220
0.0
230
1.0
 70
     8
 71
     3
 72
    15
 73
    11
 74
     0
 42
0.000000001
 43
0.00000001
 40
0.0
 40
0.0
 40
0.0
 40
0.0
 40
0.1335331507287146
 40
0.2670591306175272
 40
0.4005786298403529
 40
0.5340923412686019
 40
0.6676009601861126
 40
0.8011051840019444
 40
0.934605711961288
 40
1.0
 40
1.0
 40
1.0
 40
1.0
 10
62.8
 20
-5.009973878738172
 30
0.0
 10
62.06609358198582
 20
-4.856610704412575
 30
0.0
 10
60.59832015733505
 20
-4.549892591489843
 30
0.0
 10
58.39673802715437
 20
-3.854566038679791
 30
0.0
 10
56.19527720410565
 20
-3.019652458278126
 30
0.0
 10
53.99392635502999
 20
-2.060600576324495
 30
0.0
 10
51.79267173342605
 20
-1.019390641974016
 30
0.0
 10
49.59150070302974
 20
0.0592749191233196
 30
0.0
 10
47.76468388683057
 20
0.9633341200604364
 30
0.0
 10
46.67159138617686
 20
1.469290238214926
 30
0.0
 10
46.3121953632991
 20
1.635642689180098
 30
0.0
  0
LINE
  5
BE
330
1F
100
AcDbEntity
  8
0
  6
Continuous
 62
     1
370
    15
100
AcDbLine
 10
62.79999999999971
 20
-6.02577451962257
 30
0.0
 11
62.8
 21
-5.009973878738172
 31
0.0
  0
LINE
  5
BF
330
1F
100
AcDbEntity
  8
0
  6
Continuous
 62
     1
370
    15
100
AcDbLine
 10
62.8
 20
-6.344633076708245
 30
0.0
 11
62.80000000000023
 21
-6.025774519622551
 31
0.0
  0
SPLINE
  5
C0
330
1F
100
AcDbEntity
  8
0
  6
Continuous
 62
     1
370
    15
100
AcDbSpline
210
0.0
220
0.0
230
1.0
 70
     8
 71
     3
 72
    16
 73
    12
 74
     0
 42
0.000000001
 43
0.00000001
 40
0.0
 40
0.0
 40
0.0
 40
0.0
 40
0.1195399862053223
 40
0.2400738252735844
 40
0.359613406517694
 40
0.4690907835595551
 40
0.5793285109342978
 40
0.6887469779226412
 40
0.7989250886821024
 40
0.9083127958979612
 40
0.9999999999999999
 40
0.9999999999999999
 40
0.9999999999999999
 40
0.9999999999999999
 10
12.0
 20
-0.3328114303275071
 30
0.0
 10
12.66548565552334
 20
-0.7153352295077876
 30
0.0
 10
14.00198979993383
 20
-1.483563122471234
 30
0.0
 10
16.0037888654629
 20
-2.582754088279347
 30
0.0
 10
17.9495802869799
 20
-3.568810060692678
 30
0.0
 10
19.83769583808916
 20
-4.418778843810405
 30
0.0
 10
21.66968827267812
 20
-5.120374894082878
 30
0.0
 10
23.50610195224965
 20
-5.68205591299337
 30
0.0
 10
25.33743906757593
 20
-6.080493194135252
 30
0.0
 10
27.06977804980292
 20
-6.315701822391148
 30
0.0
 10
28.18892686265884
 20
-6.330756327136683
 30
0.0
 10
28.69924227173863
 20
-6.337620960025056
 30
0.0
  0
SPLINE
  5
C1
330
1F
100
AcDbEntity
  8
0
  6
Continuous
 62
     1
370
    15
100
AcDbSpline
210
0.0
220
0.0
230
1.0
 70
     8
 71
     3
 72
    12
 73
     8
 74
     0
 42
0.000000001
 43
0.00000001
 40
0.0
 40
0.0
 40
0.0
 40
0.0
 40
0.0636479408356188
 40
0.2928361638118542
 40
0.5220244078053503
 40
0.7599465202833509
 40
1.0
 40
1.0
 40
1.0
 40
1.0
 10
54.08386433818356
 20
4.256283674658391
 30
0.0
 10
54.26875261595771
 20
4.338790946531317
 30
0.0
 10
55.1194003083472
 20
4.718396518442106
 30
0.0
 10
56.63604532043841
 20
5.259193470135484
 30
0.0
 10
58.65895240772753
 20
5.836685209477943
 30
0.0
 10
60.71364631589782
 20
6.22851342635805
 30
0.0
 10
62.10248442384752
 20
6.305811631699271
 30
0.0
 10
62.7999999999999
 20
6.35
 30
0.0
  0
SPLINE
  5
C2
330
1F
100
AcDbEntity
  8
0
  6
Continuous
 62
     1
370
    15
100
AcDbSpline
210
0.0
220
0.0
230
1.0
 70
    24
 71
     3
 72
    10
 73
     6
 74
     0
 42
0.000000001
 43
0.00000001
 40
0.0
 40
0.0
 40
0.0
 40
0.0
 40
0.5
 40
0.5
 40
1.0
 40
1.0
 40
1.0
 40
1.0
 10
62.8
 20
4.444999999999999
 30
0.0
 10
62.79999999999999
 20
4.714444830726443
 30
0.0
 10
62.8
 20
5.027564677306195
 30
0.0
 10
62.79999999999999
 20
5.684489272101437
 30
0.0
 10
62.8
 20
6.026616317339355
 30
0.0
 10
62.80000000000002
 20
6.350000000000008
 30
0.0
  0
SPLINE
  5
C3
330
1F
100
AcDbEntity
  8
0
  6
Continuous
 62
     1
370
    15
100
AcDbSpline
210
0.0
220
0.0
230
1.0
 70
     8
 71
     3
 72
     9
 73
     5
 74
     0
 42
0.000000001
 43
0.00000001
 40
0.0
 40
0.0
 40
0.0
 40
0.0
 40
0.9323656110908264
 40
1.0
 40
1.0
 40
1.0
 40
1.0
 10
62.8
 20
4.444999999999999
 30
0.0
 10
62.06609356825275
 20
4.442449978381828
 30
0.0
 10
61.27894910151441
 20
4.439714976588713
 30
0.0
 10
60.49181143586604
 20
4.343699534199936
 30
0.0
 10
60.43857386086253
 20
4.337205588428128
 30
0.0
  0
LINE
  5
C4
330
1F
100
AcDbEntity
  8
0
  6
Continuous
 62
     1
370
    15
100
AcDbLine
 10
12.47105462040881
 20
-0.6015661348914912
 30
0.0
 11
12.0
 21
-0.4152335491063648
 31
0.0
  0
SPLINE
  5
C5
330
1F
100
AcDbEntity
  8
외형선
  6
Continuous
370
    15
100
AcDbSpline
210
0.0
220
0.0
230
1.0
 70
    24
 71
     3
 72
    11
 73
     7
 74
     0
 42
0.000000001
 43
0.00000001
 40
0.0
 40
0.0
 40
0.0
 40
0.0
 40
0.287890420396779
 40
0.6856096303781184
 40
0.8424458313012656
 40
1.0
 40
1.0
 40
1.0
 40
1.0
 10
12.0
 20
-0.1906232294541865
 30
0.0
 10
12.0
 20
-0.1916726569077951
 30
0.0
 10
12.0
 20
-0.1941718632641083
 30
0.0
 10
12.0
 20
-0.2643918236004123
 30
0.0
 10
12.00000000000001
 20
-0.3466173335399697
 30
0.0
 10
12.0
 20
-0.3923266820381047
 30
0.0
 10
12.0
 20
-0.4152335491060938
 30
0.0
  0
SPLINE
  5
C6
330
1F
100
AcDbEntity
  8
0
  6
Continuous
 62
     1
370
    15
100
AcDbSpline
210
0.0
220
0.0
230
1.0
 70
     8
 71
     3
 72
     8
 73
     4
 74
     0
 42
0.000000001
 43
0.00000001
 40
0.0
 40
0.0
 40
0.0
 40
0.0
 40
1.0
 40
1.0
 40
1.0
 40
1.0
 10
58.8711093562796
 20
1.776017074452372
 30
0.0
 10
58.64595661831294
 20
2.042719345425548
 30
0.0
 10
58.44437534697985
 20
2.300050926274891
 30
0.0
 10
58.27247056945183
 20
2.545584801375531
 30
0.0
  0
LINE
  5
C7
330
1F
100
AcDbEntity
  8
0
  6
Continuous
 62
     1
370
    15
100
AcDbLine
 10
58.35275512375333
 20
2.612951541294609
 30
0.0
 11
62.8
 21
0.0000000000000059
 31
0.0
  0
LINE
  5
C8
330
1F
100
AcDbEntity
  8
0
  6
Continuous
 62
     1
370
    15
100
AcDbLine
 10
62.8
 20
0.0000000000000059
 30
0.0
 11
62.8
 21
-1.696992707288239
 31
0.0
  0
SPLINE
  5
C9
330
1F
100
AcDbEntity
  8
0
  6
Continuous
 62
     1
370
    15
100
AcDbSpline
210
0.0
220
0.0
230
1.0
 70
     8
 71
     3
 72
    12
 73
     8
 74
     0
 42
0.000000001
 43
0.00000001
 40
0.0
 40
0.0
 40
0.0
 40
0.0
 40
0.5
 40
0.5
 40
0.75
 40
0.75
 40
1.0
 40
1.0
 40
1.0
 40
1.0
 10
62.8
 20
-1.696992707288239
 30
0.0
 10
62.11989727265293
 20
-1.162318204574249
 30
0.0
 10
61.4511544579366
 20
-0.6057234975937626
 30
0.0
 10
60.46552321729134
 20
0.2629039036822262
 30
0.0
 10
60.13994021316176
 20
0.5581594504446546
 30
0.0
 10
59.49542402705685
 20
1.161502109201971
 30
0.0
 10
59.17824347731786
 20
1.468032404441033
 30
0.0
 10
58.87110935627955
 20
1.776017074452408
 30
0.0
  0
SPLINE
  5
CA
330
1F
100
AcDbEntity
  8
0
  6
Continuous
 62
     1
370
    15
100
AcDbSpline
210
0.0
220
0.0
230
1.0
 70
     8
 71
     3
 72
    15
 73
    11
 74
     0
 42
0.000000001
 43
0.00000001
 40
0.0
 40
0.0
 40
0.0
 40
0.0
 40
0.0913738622896005
 40
0.1830109835583067
 40
0.3335397090067941
 40
0.4840626125366172
 40
0.6345804914522624
 40
0.7850941451648624
 40
0.9356043748586425
 40
1.0
 40
1.0
 40
1.0
 40
1.0
 10
58.87110935619778
 20
1.776017074487759
 30
0.0
 10
58.42590472995896
 20
1.966457401699469
 30
0.0
 10
57.53421278993306
 20
2.347886737385407
 30
0.0
 10
55.90811261813089
 20
2.990388451851605
 30
0.0
 10
53.99395307074432
 20
3.671115386471743
 30
0.0
 10
51.7926759608082
 20
4.304690496221783
 30
0.0
 10
49.59151278679368
 20
4.770089160756883
 30
0.0
 10
47.3904115908886
 20
5.033013207821306
 30
0.0
 10
45.60913135888169
 20
5.119202990681525
 30
0.0
 10
44.56155026460086
 20
5.043791608144858
 30
0.0
 10
44.24764704635568
 20
5.021194908185482
 30
0.0
  0
SPLINE
  5
CB
330
1F
100
AcDbEntity
  8
0
  6
Continuous
 62
     1
370
    15
100
AcDbSpline
210
0.0
220
0.0
230
1.0
 70
     8
 71
     3
 72
     9
 73
     5
 74
     0
 42
0.000000001
 43
0.00000001
 40
0.0
 40
0.0
 40
0.0
 40
0.0
 40
0.184175386056887
 40
1.0
 40
1.0
 40
1.0
 40
1.0
 10
14.80388289898601
 20
-4.756885445394493
 30
0.0
 10
14.63174751984316
 20
-4.789641806976772
 30
0.0
 10
13.69712002792805
 20
-4.967495983278928
 30
0.0
 10
12.76249230292838
 20
-5.017219989414693
 30
0.0
 10
12.0
 20
-5.057786057524109
 30
0.0
  0
SPLINE
  5
CC
330
1F
100
AcDbEntity
  8
0
  6
Continuous
 62
     1
370
    15
100
AcDbSpline
210
0.0
220
0.0
230
1.0
 70
    24
 71
     3
 72
    10
 73
     6
 74
     0
 42
0.000000001
 43
0.00000001
 40
0.0
 40
0.0
 40
0.0
 40
0.0
 40
0.5000000000000001
 40
0.5000000000000001
 40
1.0
 40
1.0
 40
1.0
 40
1.0
 10
62.8
 20
-5.009973878738171
 30
0.0
 10
62.80000000000001
 20
-4.625920320174161
 30
0.0
 10
62.79999999999998
 20
-4.140653922806075
 30
0.0
 10
62.8
 20
-3.012456250606815
 30
0.0
 10
62.79999999999998
 20
-2.370502263375814
 30
0.0
 10
62.8
 20
-1.696992707288442
 30
0.0
  0
SPLINE
  5
CD
330
1F
100
AcDbEntity
  8
0
  6
Continuous
 62
     1
370
    15
100
AcDbSpline
210
0.0
220
0.0
230
1.0
 70
     8
 71
     3
 72
    24
 73
    20
 74
     0
 42
0.000000001
 43
0.00000001
 40
0.0
 40
0.0
 40
0.0
 40
0.0
 40
0.0524945005367067
 40
0.111423278072922
 40
0.1703510292622918
 40
0.2292780687841335
 40
0.2882047116169439
 40
0.3471312729060319
 40
0.4060580678310006
 40
0.464985411473199
 40
0.5239136186832609
 40
0.5828430039488506
 40
0.6417738812627339
 40
0.7007065639912875
 40
0.7596413647435694
 40
0.8185785952410639
 40
0.8775185661882138
 40
0.9387592446791927
 40
1.0
 40
1.0
 40
1.0
 40
1.0
 10
49.35111578109911
 20
-4.765899729588353
 30
0.0
 10
48.69754218118429
 20
-4.858058033204923
 30
0.0
 10
47.31028614064898
 20
-5.05367052947808
 30
0.0
 10
45.18936899517636
 20
-5.108694589360407
 30
0.0
 10
42.98836932436379
 20
-4.979608046329465
 30
0.0
 10
40.78739995775094
 20
-4.646986352759652
 30
0.0
 10
38.58644732030318
 20
-4.13013801873764
 30
0.0
 10
36.38549814670673
 20
-3.448079168005544
 30
0.0
 10
34.18453908543683
 20
-2.628468066144863
 30
0.0
 10
31.98355681112975
 20
-1.703903515981742
 30
0.0
 10
29.78253800567694
 20
-0.7113231459395388
 30
0.0
 10
27.58146935610838
 20
0.3096679878683126
 30
0.0
 10
25.38033761654387
 20
1.318285914365825
 30
0.0
 10
23.17912939698689
 20
2.27436425085398
 30
0.0
 10
20.97783198060758
 20
3.13937211479201
 30
0.0
 10
18.77643029988262
 20
3.8801226303109
 30
0.0
 10
16.54631111006972
 20
4.469560347696059
 30
0.0
 10
14.28747428176876
 20
4.895727153604203
 30
0.0
 10
12.76249174611858
 20
5.003766400293949
 30
0.0
 10
12.0
 20
5.057786057524108
 30
0.0
  0
SPLINE
  5
CE
330
1F
100
AcDbEntity
  8
외형선
  6
Continuous
370
    15
100
AcDbSpline
210
0.0
220
0.0
230
1.0
 70
    24
 71
     3
 72
    14
 73
    10
 74
     0
 42
0.000000001
 43
0.00000001
 40
0.0
 40
0.0
 40
0.0
 40
0.0
 40
0.25
 40
0.25
 40
0.4999999999999999
 40
0.4999999999999999
 40
0.75
 40
0.75
 40
1.0
 40
1.0
 40
1.0
 40
1.0
 10
12.0
 20
5.057786057524108
 30
0.0
 10
12.0
 20
4.955991922115863
 30
0.0
 10
12.0
 20
4.800841828128232
 30
0.0
 10
12.0
 20
4.383466439459223
 30
0.0
 10
12.0
 20
4.12123819923512
 30
0.0
 10
12.0
 20
3.504929191292929
 30
0.0
 10
12.0
 20
3.151026394907591
 30
0.0
 10
12.0
 20
2.37986132634718
 30
0.0
 10
12.0
 20
1.962874697405588
 30
0.0
 10
12.0
 20
1.531481970067762
 30
0.0
  0
SPLINE
  5
CF
330
1F
100
AcDbEntity
  8
0
  6
Continuous
 62
     1
370
    15
100
AcDbSpline
210
0.0
220
0.0
230
1.0
 70
    24
 71
     3
 72
     8
 73
     4
 74
     0
 42
0.000000001
 43
0.00000001
 40
0.0
 40
0.0
 40
0.0
 40
0.0
 40
1.0
 40
1.0
 40
1.0
 40
1.0
 10
58.93479688430329
 20
3.101342567901433
 30
0.0
 10
58.72520081076367
 20
2.925470579898141
 30
0.0
 10
58.50370784598381
 20
2.739615914843411
 30
0.0
 10
58.27247056944507
 20
2.545584801385313
 30
0.0
  0
SPLINE
  5
D0
330
1F
100
AcDbEntity
  8
0
  6
Continuous
 62
     1
370
    15
100
AcDbSpline
210
0.0
220
0.0
230
1.0
 70
     8
 71
     3
 72
    10
 73
     6
 74
     0
 42
0.000000001
 43
0.00000001
 40
0.0
 40
0.0
 40
0.0
 40
0.0
 40
0.5
 40
0.5
 40
1.0
 40
1.0
 40
1.0
 40
1.0
 10
62.8
 20
4.445000000000005
 30
0.0
 10
62.14677884300199
 20
4.267837056609061
 30
0.0
 10
61.4975550054365
 20
4.068937872914641
 30
0.0
 10
60.20780659456473
 20
3.623835480516982
 30
0.0
 10
59.5672486386168
 20
3.378145942251292
 30
0.0
 10
58.93479688431514
 20
3.101342567906949
 30
0.0
  0
SPLINE
  5
D1
330
1F
100
AcDbEntity
  8
외형선
  6
Continuous
370
    15
100
AcDbSpline
210
0.0
220
0.0
230
1.0
 70
    24
 71
     3
 72
    14
 73
    10
 74
     0
 42
0.000000001
 43
0.00000001
 40
0.0
 40
0.0
 40
0.0
 40
0.0
 40
0.25
 40
0.25
 40
0.5
 40
0.5
 40
0.75
 40
0.75
 40
1.0
 40
1.0
 40
1.0
 40
1.0
 10
12.0
 20
-0.4152335491063648
 30
0.0
 10
12.0
 20
-0.9512593748671814
 30
0.0
 10
12.0
 20
-1.483589656027699
 30
0.0
 10
12.0
 20
-2.485843943124369
 30
0.0
 10
12.0
 20
-2.955159362025841
 30
0.0
 10
12.0
 20
-3.780274792714123
 30
0.0
 10
12.0
 20
-4.135635148502854
 30
0.0
 10
12.0
 20
-4.703683825522729
 30
0.0
 10
12.0
 20
-4.916373424927191
 30
0.0
 10
12.0
 20
-5.057786057524109
 30
0.0
  0
LINE
  5
D2
330
1F
100
AcDbEntity
  8
0
  6
Continuous
 62
     1
370
    15
100
AcDbLine
 10
62.8
 20
0.0000000000000059
 30
0.0
 11
62.8
 21
4.445000000000004
 31
0.0
  0
LINE
  5
D3
330
1F
100
AcDbEntity
  8
중심선
 48
0.8
100
AcDbLine
 10
-41.8
 20
-0.0000000000000048
 30
0.0
 11
65.8
 21
0.0000000000000084
 31
0.0
  0
LINE
  5
D4
330
1F
100
AcDbEntity
  8
참조1
100
AcDbLine
 10
5.962315328507765
 20
0.0010749287238892
 30
0.0
 11
5.962315328507771
 21
-39.99892507127611
 31
0.0
  0
LINE
  5
D5
330
1F
100
AcDbEntity
  8
참조1
100
AcDbLine
 10
5.962315328507771
 20
-39.99892507127611
 30
0.0
 11
-15.54395731641845
 21
-39.9989250712761
 31
0.0
  0
CIRCLE
  5
D6
330
1F
100
AcDbEntity
  8
해칭선
100
AcDbCircle
 10
0.0
 20
0.0
 30
0.0
 40
3.000000000000002
  0
INSERT
  5
D7
330
1F
100
AcDbEntity
  8
0
  6
Continuous
 62
     7
100
AcDbBlockReference
 66
     1
  2
블럭10
 10
-1.940272932125202
 20
-52.04717430164393
 30
0.0
  0
ATTRIB
  5
D8
330
D7
100
AcDbEntity
  8
FORMAT
 62
     2
100
AcDbText
 10
-12.08190894426183
 20
-49.97180738881175
 30
0.0
 40
4.233333333333333
  1
EM206032 [ 2 FLUTE ]
 41
0.75
  7
SLDTEXTSTYLE0
 11
-12.08190894426183
 21
-52.08847405547841
 31
0.0
100
AcDbAttribute
  2
AUTOATTR0
 70
     0
 74
     1
  0
SEQEND
  5
D9
330
D7
100
AcDbEntity
  8
0
  6
Continuous
 62
     7
  0
HATCH
  5
DA
330
1F
100
AcDbEntity
  8
중심선
100
AcDbHatch
 10
0.0
 20
0.0
 30
0.0
210
0.0
220
0.0
230
1.0
  2
SOLID
 70
     1
 71
     0
 91
        1
 92
        0
 93
        4
 72
     1
 10
3.774636372255638
 20
-35.8
 11
0.3283611284183561
 21
-35.8
 72
     1
 10
0.3283611284183561
 20
-35.8
 11
-1.799868730785667
 21
-38.3363255805726
 72
     1
 10
-1.799868730785667
 20
-38.3363255805726
 11
1.646439598164765
 21
-38.33628615127011
 72
     1
 10
1.646439598164765
 20
-38.33628615127011
 11
3.774636372255638
 21
-35.8
 97
        0
 75
     0
 76
     1
 98
        1
 10
6.037684671492236
 20
-0.0010749287238936
  0
HATCH
  5
DB
330
1F
100
AcDbEntity
  8
중심선
100
AcDbHatch
 10
0.0
 20
0.0
 30
0.0
210
0.0
220
0.0
230
1.0
  2
SOLID
 70
     1
 71
     0
 91
        1
 92
        0
 93
        4
 72
     1
 10
8.787400363291617
 20
-35.80000000000003
 11
5.341125119454334
 21
-35.79999999999998
 72
     1
 10
5.341125119454334
 20
-35.79999999999998
 11
0.8099871110969179
 21
-41.20000000000002
 72
     1
 10
0.8099871110969188
 20
-41.20000000000002
 11
4.256262354934201
 21
-41.20000000000002
 72
     1
 10
4.256262354934201
 20
-41.20000000000002
 11
8.787400363291617
 21
-35.80000000000003
 97
        0
 75
     0
 76
     1
 98
        1
 10
6.037684671492236
 20
-0.0010749287238936
  0
HATCH
  5
DC
330
1F
100
AcDbEntity
  8
중심선
100
AcDbHatch
 10
0.0
 20
0.0
 30
0.0
210
0.0
220
0.0
230
1.0
  2
SOLID
 70
     1
 71
     0
 91
        1
 92
        0
 93
        4
 72
     1
 10
13.80016435432751
 20
-35.8
 11
10.3538891104904
 21
-35.8
 72
     1
 10
10.3538891104904
 20
-35.8
 11
3.305452208601119
 21
-44.20000000000002
 72
     1
 10
3.30545220860112
 20
-44.20000000000002
 11
6.751727452438402
 21
-44.20000000000002
 72
     1
 10
6.751727452438402
 20
-44.20000000000002
 11
13.80016435432751
 21
-35.8
 97
        0
 75
     0
 76
     1
 98
        1
 10
6.037684671492236
 20
-0.0010749287238936
  0
HATCH
  5
DD
330
1F
100
AcDbEntity
  8
중심선
100
AcDbHatch
 10
0.0
 20
0.0
 30
0.0
210
0.0
220
0.0
230
1.0
  2
SOLID
 70
     1
 71
     0
 91
        1
 92
        0
 93
        6
 72
     3
 10
18.60005478533968
 20
-40.00000000005127
 11
3.960054785062287
 21
1.540882976769353E-10
 40
0.3939339440162625
 50
17.09539180608438
 51
320.0019657685075
 73
     0
 72
     1
 10
20.28305444104028
 20
-38.58789400463827
 11
22.58835631474132
 21
-36.65356729459038
 72
     3
 10
18.60005478528684
 20
-40.00000000000015
 11
6.600054785286829
 21
-1.278976924368180E-13
 40
0.636358354079598
 50
39.99873849337408
 51
368.4976242363725
 73
     1
 72
     1
 10
25.02538727718745
 20
-39.03999999993002
 11
17.28012209212276
 21
-39.03999999993002
 72
     1
 10
17.28012209212276
 20
-39.03999999993002
 11
17.28009704767683
 21
-40.95999999992991
 72
     1
 10
17.28009704767683
 20
-40.95999999992991
 11
21.72147681714886
 21
-40.95999999992988
 97
        0
 75
     0
 76
     1
 98
        1
 10
6.037684671492236
 20
-0.0010749287238936
  0
DIMENSION
  5
DE
330
1F
100
AcDbEntity
  8
치수문자_일반주서
100
AcDbDimension
  2
_D
 10
-51.22999999999998
 20
-6.350000000000044
 30
0.0
 11
-51.23
 21
-0.0000000000000047
 31
0.0
 70
   160
  1
%%c<>
 71
     2
 42
12.69999999999999
 52
-270.0
  3
SLDDIMSTYLE0
100
AcDbAlignedDimension
 13
-37.80000000000001
 23
6.349999999999994
 33
0.0
 14
-37.80000000000001
 24
-6.349999999999994
 34
0.0
 50
90.0000000000002
100
AcDbRotatedDimension
1001
ACAD
1000
DSTYLE
1002
{
1070
   171
1070
     6
1070
   273
1070
     7
1002
}
  0
DIMENSION
  5
F3
330
1F
100
AcDbEntity
  8
치수문자_일반주서
100
AcDbDimension
  2
_D_1
 10
75.09448903215728
 20
-6.349999999999945
 30
0.0
 11
75.09448903215717
 21
27.09177443958768
 31
0.0
 70
   160
  1
%%c<>
 71
     2
 42
12.7
 52
-270.0
  3
SLDDIMSTYLE0
100
AcDbAlignedDimension
 13
62.80000000000002
 23
6.350000000000008
 33
0.0
 14
62.79999999999988
 24
-6.349999999999992
 34
0.0
 50
90.0000000000002
100
AcDbRotatedDimension
1001
ACAD
1000
DSTYLE
1002
{
1070
   171
1070
     6
1070
   273
1070
     7
1002
}
  0
DIMENSION
  5
107
330
1F
100
AcDbEntity
  8
치수문자_일반주서
100
AcDbDimension
  2
_D_2
 10
12.0
 20
27.476875
 30
0.0
 11
35.96885027140139
 21
27.476875
 31
0.0
 70
   160
  1
<>
 71
     2
 42
50.80000000000002
  3
SLDDIMSTYLE0
100
AcDbAlignedDimension
 13
62.80000000000002
 23
6.350000000000008
 33
0.0
 14
12.0
 24
5.057786057524108
 34
0.0
100
AcDbRotatedDimension
1001
ACAD
1000
DSTYLE
1002
{
1070
   171
1070
     6
1070
   273
1070
     7
1002
}
  0
DIMENSION
  5
11B
330
1F
100
AcDbEntity
  8
치수문자_일반주서
100
AcDbDimension
  2
_D_3
 10
-38.8
 20
42.30092844013392
 30
0.0
 11
12.0
 21
42.30092844013392
 31
0.0
 70
   160
  1
<>
 71
     2
 42
101.6
  3
SLDDIMSTYLE0
100
AcDbAlignedDimension
 13
62.80000000000002
 23
6.350000000000008
 33
0.0
 14
-38.8
 24
5.349999999999993
 34
0.0
100
AcDbRotatedDimension
1001
ACAD
1000
DSTYLE
1002
{
1070
   171
1070
     6
1070
   273
1070
     7
1002
}
  0
LINE
  5
12E
330
1F
100
AcDbEntity
  8
참조1
100
AcDbLine
 10
82.42838331323583
 20
7.441074928723896
 30
0.0
 11
82.42838331323583
 21
-7.438925071276109
 31
0.0
  0
LINE
  5
12F
330
1F
100
AcDbEntity
  8
참조1
100
AcDbLine
 10
95.12838331323583
 20
5.441074928723896
 30
0.0
 11
82.42838331323583
 21
5.441074928723896
 31
0.0
  0
SOLID
  5
130
330
1F
100
AcDbEntity
  8
참조1
100
AcDbTrace
 10
82.42838331323583
 20
5.441074928723896
 30
0.0
 11
88.77838331323582
 21
4.425074928723896
 31
0.0
 12
88.77838331323582
 22
6.457074928723896
 32
0.0
 13
88.77838331323582
 23
6.457074928723896
 33
0.0
  0
LINE
  5
131
330
1F
100
AcDbEntity
  8
참조1
100
AcDbLine
 10
95.12838331323583
 20
-5.438925071276109
 30
0.0
 11
82.42838331323583
 21
-5.438925071276109
 31
0.0
  0
SOLID
  5
132
330
1F
100
AcDbEntity
  8
참조1
100
AcDbTrace
 10
82.42838331323583
 20
-5.438925071276109
 30
0.0
 11
88.77838331323582
 21
-6.454925071276109
 31
0.0
 12
88.77838331323582
 22
-4.422925071276109
 32
0.0
 13
88.77838331323582
 23
-4.422925071276109
 33
0.0
  0
MTEXT
  5
133
330
1F
100
AcDbEntity
  8
참조1
100
AcDbMText
 10
91.82587340570609
 20
10.98929157337383
 30
0.0
 40
3.5
 41
0.0
 71
     1
 72
     1
  1
A
  7
SLDTEXTSTYLE0
 73
     1
 44
1.0
  0
MTEXT
  5
134
330
1F
100
AcDbEntity
  8
참조1
100
AcDbMText
 10
91.82587340570609
 20
0.1092915733738259
 30
0.0
 40
3.5
 41
0.0
 71
     1
 72
     1
  1
A
  7
SLDTEXTSTYLE0
 73
     1
 44
1.0
  0
INSERT
  5
13B
330
1F
100
AcDbEntity
  8
해칭선
100
AcDbBlockReference
  2
SW_DOWELSYMBOL_0
 10
0.0
 20
0.0
 30
0.0
  0
ENDSEC
  0
SECTION
  2
OBJECTS
  0
DICTIONARY
  5
C
330
0
100
AcDbDictionary
281
     1
  3
ACAD_GROUP
350
D
  3
ACAD_IMAGE_VARS
350
15F
  3
ACAD_LAYOUT
350
1A
  3
ACAD_MLINESTYLE
350
17
  3
ACAD_PLOTSETTINGS
350
19
  3
ACAD_PLOTSTYLENAME
350
E
  3
ACAD_SCALELIST
350
47
  3
APPDATA
350
15D
  3
DWGPROPS
350
196
  0
DICTIONARY
  5
186
330
2
100
AcDbDictionary
280
     1
281
     1
  3
ACAD_LAYERSTATES
360
187
  0
DICTIONARY
  5
D
102
{ACAD_REACTORS
330
C
102
}
330
C
100
AcDbDictionary
281
     1
  0
RASTERVARIABLES
  5
15F
102
{ACAD_REACTORS
330
C
102
}
330
C
100
AcDbRasterVariables
 90
        0
 70
     1
 71
     1
 72
     1
  0
DICTIONARY
  5
1A
102
{ACAD_REACTORS
330
C
102
}
330
C
100
AcDbDictionary
281
     1
  3
Layout1
350
1E
  3
Layout2
350
26
  3
Model
350
22
  0
DICTIONARY
  5
17
102
{ACAD_REACTORS
330
C
102
}
330
C
100
AcDbDictionary
281
     1
  3
Standard
350
18
  0
DICTIONARY
  5
19
102
{ACAD_REACTORS
330
C
102
}
330
C
100
AcDbDictionary
281
     1
  0
ACDBDICTIONARYWDFLT
  5
E
102
{ACAD_REACTORS
330
C
102
}
330
C
100
AcDbDictionary
281
     1
  3
Normal
350
F
100
AcDbDictionaryWithDefault
340
F
  0
DICTIONARY
  5
47
102
{ACAD_REACTORS
330
C
102
}
330
C
100
AcDbDictionary
281
     1
  3
A0
350
48
  3
A1
350
49
  3
A2
350
4A
  3
A3
350
4B
  3
A4
350
4C
  3
A5
350
4D
  3
A6
350
4E
  3
A7
350
4F
  3
A8
350
50
  3
A9
350
51
  3
B0
350
52
  3
B1
350
53
  3
B2
350
54
  3
B3
350
55
  3
B4
350
56
  3
B5
350
57
  3
B6
350
58
  3
B7
350
59
  3
B8
350
5A
  3
B9
350
5B
  3
C0
350
5C
  3
C1
350
5D
  3
C2
350
5E
  3
C3
350
5F
  3
C4
350
60
  3
C5
350
61
  3
C6
350
62
  3
C7
350
63
  3
C8
350
64
  3
C9
350
65
  3
D0
350
66
  3
D1
350
67
  3
D2
350
68
  0
DICTIONARY
  5
15D
102
{ACAD_REACTORS
330
C
102
}
330
C
100
AcDbDictionary
281
     1
  0
XRECORD
  5
196
102
{ACAD_REACTORS
330
C
102
}
330
C
100
AcDbXrecord
280
     1
  1
DWGPROPS COOKIE
  2

  3

  4

  6

  7

  8
12017012
  9

300
=
301
=
302
=
303
=
304
=
305
=
306
=
307
=
308
=
309
=
 40
0.0
 41
2458288.37277816
 42
2458294.34111706
  1

 90
        0
  0
DICTIONARY
  5
187
102
{ACAD_REACTORS
330
186
102
}
330
186
100
AcDbDictionary
281
     1
  0
LAYOUT
  5
1E
102
{ACAD_REACTORS
330
1A
102
}
330
1A
100
AcDbPlotSettings
  1

  2
none_device
  4

  6

 40
0.0
 41
0.0
 42
0.0
 43
0.0
 44
0.0
 45
0.0
 46
0.0
 47
0.0
 48
0.0
 49
0.0
140
0.0
141
0.0
142
1.0
143
1.0
 70
   688
 72
     1
 73
     0
 74
     5
  7

 75
    16
147
1.0
148
0.0
149
0.0
100
AcDbLayout
  1
Layout1
 70
     1
 71
     1
 10
0.0
 20
0.0
 11
420.0
 21
297.0
 12
0.0
 22
0.0
 32
0.0
 14
1.000000000000000E+20
 24
1.000000000000000E+20
 34
1.000000000000000E+20
 15
-1.000000000000000E+20
 25
-1.000000000000000E+20
 35
-1.000000000000000E+20
146
0.0
 13
0.0
 23
0.0
 33
0.0
 16
1.0
 26
0.0
 36
0.0
 17
0.0
 27
1.0
 37
0.0
 76
     0
330
1B
  0
LAYOUT
  5
26
102
{ACAD_REACTORS
330
1A
102
}
330
1A
100
AcDbPlotSettings
  1

  2
none_device
  4

  6

 40
0.0
 41
0.0
 42
0.0
 43
0.0
 44
0.0
 45
0.0
 46
0.0
 47
0.0
 48
0.0
 49
0.0
140
0.0
141
0.0
142
1.0
143
1.0
 70
   688
 72
     1
 73
     0
 74
     5
  7

 75
    16
147
1.0
148
0.0
149
0.0
100
AcDbLayout
  1
Layout2
 70
     1
 71
     2
 10
0.0
 20
0.0
 11
0.0
 21
0.0
 12
0.0
 22
0.0
 32
0.0
 14
0.0
 24
0.0
 34
0.0
 15
0.0
 25
0.0
 35
0.0
146
0.0
 13
0.0
 23
0.0
 33
0.0
 16
1.0
 26
0.0
 36
0.0
 17
0.0
 27
1.0
 37
0.0
 76
     0
330
23
  0
LAYOUT
  5
22
102
{ACAD_REACTORS
330
1A
102
}
330
1A
100
AcDbPlotSettings
  1

  2
none_device
  4
ANSI_A_(11.00_x_8.50_Inches)
  6

 40
6.35
 41
19.05
 42
6.35000508
 43
19.05000254
 44
279.4
 45
215.9
 46
70.73825010678088
 47
60.8500138735707
 48
0.0
 49
0.0
140
0.0
141
0.0
142
0.0437840989990745
143
1.0
 70
  1696
 72
     0
 73
     0
 74
     0
  7

 75
     0
147
0.0235690232323232
148
0.0
149
0.0
100
AcDbLayout
  1
Model
 70
     1
 71
     0
 10
0.0
 20
0.0
 11
420.0
 21
297.0
 12
0.0
 22
0.0
 32
0.0
 14
1.000000000000000E+20
 24
1.000000000000000E+20
 34
1.000000000000000E+20
 15
-1.000000000000000E+20
 25
-1.000000000000000E+20
 35
-1.000000000000000E+20
146
0.0
 13
0.0
 23
0.0
 33
0.0
 16
1.0
 26
0.0
 36
0.0
 17
0.0
 27
1.0
 37
0.0
 76
     0
330
1F
331
29
  0
MLINESTYLE
  5
18
102
{ACAD_REACTORS
330
17
102
}
330
17
100
AcDbMlineStyle
  2
Standard
 70
     0
  3

 62
   256
 51
90.0
 52
90.0
 71
     2
 49
0.5
 62
   256
  6
BYLAYER
 49
-0.5
 62
   256
  6
BYLAYER
  0
ACDBPLACEHOLDER
  5
F
102
{ACAD_REACTORS
330
E
102
}
330
E
  0
SCALE
  5
48
102
{ACAD_REACTORS
330
47
102
}
330
47
100
AcDbScale
 70
     0
300
1:1
140
1.0
141
1.0
290
     1
  0
SCALE
  5
49
102
{ACAD_REACTORS
330
47
102
}
330
47
100
AcDbScale
 70
     0
300
1:2
140
1.0
141
2.0
290
     0
  0
SCALE
  5
4A
102
{ACAD_REACTORS
330
47
102
}
330
47
100
AcDbScale
 70
     0
300
1:4
140
1.0
141
4.0
290
     0
  0
SCALE
  5
4B
102
{ACAD_REACTORS
330
47
102
}
330
47
100
AcDbScale
 70
     0
300
1:5
140
1.0
141
5.0
290
     0
  0
SCALE
  5
4C
102
{ACAD_REACTORS
330
47
102
}
330
47
100
AcDbScale
 70
     0
300
1:8
140
1.0
141
8.0
290
     0
  0
SCALE
  5
4D
102
{ACAD_REACTORS
330
47
102
}
330
47
100
AcDbScale
 70
     0
300
1:10
140
1.0
141
10.0
290
     0
  0
SCALE
  5
4E
102
{ACAD_REACTORS
330
47
102
}
330
47
100
AcDbScale
 70
     0
300
1:16
140
1.0
141
16.0
290
     0
  0
SCALE
  5
4F
102
{ACAD_REACTORS
330
47
102
}
330
47
100
AcDbScale
 70
     0
300
1:20
140
1.0
141
20.0
290
     0
  0
SCALE
  5
50
102
{ACAD_REACTORS
330
47
102
}
330
47
100
AcDbScale
 70
     0
300
1:30
140
1.0
141
30.0
290
     0
  0
SCALE
  5
51
102
{ACAD_REACTORS
330
47
102
}
330
47
100
AcDbScale
 70
     0
300
1:40
140
1.0
141
40.0
290
     0
  0
SCALE
  5
52
102
{ACAD_REACTORS
330
47
102
}
330
47
100
AcDbScale
 70
     0
300
1:50
140
1.0
141
50.0
290
     0
  0
SCALE
  5
53
102
{ACAD_REACTORS
330
47
102
}
330
47
100
AcDbScale
 70
     0
300
1:100
140
1.0
141
100.0
290
     0
  0
SCALE
  5
54
102
{ACAD_REACTORS
330
47
102
}
330
47
100
AcDbScale
 70
     0
300
2:1
140
2.0
141
1.0
290
     0
  0
SCALE
  5
55
102
{ACAD_REACTORS
330
47
102
}
330
47
100
AcDbScale
 70
     0
300
4:1
140
4.0
141
1.0
290
     0
  0
SCALE
  5
56
102
{ACAD_REACTORS
330
47
102
}
330
47
100
AcDbScale
 70
     0
300
8:1
140
8.0
141
1.0
290
     0
  0
SCALE
  5
57
102
{ACAD_REACTORS
330
47
102
}
330
47
100
AcDbScale
 70
     0
300
10:1
140
10.0
141
1.0
290
     0
  0
SCALE
  5
58
102
{ACAD_REACTORS
330
47
102
}
330
47
100
AcDbScale
 70
     0
300
100:1
140
100.0
141
1.0
290
     0
  0
SCALE
  5
59
102
{ACAD_REACTORS
330
47
102
}
330
47
100
AcDbScale
 70
     0
300
1/128" = 1'-0"
140
0.0078125
141
12.0
290
     0
  0
SCALE
  5
5A
102
{ACAD_REACTORS
330
47
102
}
330
47
100
AcDbScale
 70
     0
300
1/64" = 1'-0"
140
0.015625
141
12.0
290
     0
  0
SCALE
  5
5B
102
{ACAD_REACTORS
330
47
102
}
330
47
100
AcDbScale
 70
     0
300
1/32" = 1'-0"
140
0.03125
141
12.0
290
     0
  0
SCALE
  5
5C
102
{ACAD_REACTORS
330
47
102
}
330
47
100
AcDbScale
 70
     0
300
1/16" = 1'-0"
140
0.0625
141
12.0
290
     0
  0
SCALE
  5
5D
102
{ACAD_REACTORS
330
47
102
}
330
47
100
AcDbScale
 70
     0
300
3/32" = 1'-0"
140
0.09375
141
12.0
290
     0
  0
SCALE
  5
5E
102
{ACAD_REACTORS
330
47
102
}
330
47
100
AcDbScale
 70
     0
300
1/8" = 1'-0"
140
0.125
141
12.0
290
     0
  0
SCALE
  5
5F
102
{ACAD_REACTORS
330
47
102
}
330
47
100
AcDbScale
 70
     0
300
3/16" = 1'-0"
140
0.1875
141
12.0
290
     0
  0
SCALE
  5
60
102
{ACAD_REACTORS
330
47
102
}
330
47
100
AcDbScale
 70
     0
300
1/4" = 1'-0"
140
0.25
141
12.0
290
     0
  0
SCALE
  5
61
102
{ACAD_REACTORS
330
47
102
}
330
47
100
AcDbScale
 70
     0
300
3/8" = 1'-0"
140
0.375
141
12.0
290
     0
  0
SCALE
  5
62
102
{ACAD_REACTORS
330
47
102
}
330
47
100
AcDbScale
 70
     0
300
1/2" = 1'-0"
140
0.5
141
12.0
290
     0
  0
SCALE
  5
63
102
{ACAD_REACTORS
330
47
102
}
330
47
100
AcDbScale
 70
     0
300
3/4" = 1'-0"
140
0.75
141
12.0
290
     0
  0
SCALE
  5
64
102
{ACAD_REACTORS
330
47
102
}
330
47
100
AcDbScale
 70
     0
300
1" = 1'-0"
140
1.0
141
12.0
290
     0
  0
SCALE
  5
65
102
{ACAD_REACTORS
330
47
102
}
330
47
100
AcDbScale
 70
     0
300
1-1/2" = 1'-0"
140
1.5
141
12.0
290
     0
  0
SCALE
  5
66
102
{ACAD_REACTORS
330
47
102
}
330
47
100
AcDbScale
 70
     0
300
3" = 1'-0"
140
3.0
141
12.0
290
     0
  0
SCALE
  5
67
102
{ACAD_REACTORS
330
47
102
}
330
47
100
AcDbScale
 70
     0
300
6" = 1'-0"
140
6.0
141
12.0
290
     0
  0
SCALE
  5
68
102
{ACAD_REACTORS
330
47
102
}
330
47
100
AcDbScale
 70
     0
300
1'-0" = 1'-0"
140
12.0
141
12.0
290
     0
  0
ENDSEC
  0
EOF
