  0
SECTION
  2
HEADER
  9
$ACADVER
  1
AC1015
  9
$ACADMAINTVER
 70
     6
  9
$DWGCODEPAGE
  3
ANSI_949
  9
$INSBASE
 10
0.0
 20
0.0
 30
0.0
  9
$EXTMIN
 10
1.000000000000000E+20
 20
1.000000000000000E+20
 30
1.000000000000000E+20
  9
$EXTMAX
 10
-1.000000000000000E+20
 20
-1.000000000000000E+20
 30
-1.000000000000000E+20
  9
$LIMMIN
 10
0.0
 20
0.0
  9
$LIMMAX
 10
420.0
 20
297.0
  9
$ORTHOMODE
 70
     1
  9
$REGENMODE
 70
     1
  9
$FILLMODE
 70
     1
  9
$QTEXTMODE
 70
     0
  9
$MIRRTEXT
 70
     1
  9
$LTSCALE
 40
1.0
  9
$ATTMODE
 70
     1
  9
$TEXTSIZE
 40
3.5
  9
$TRACEWID
 40
1.0
  9
$TEXTSTYLE
  7
Standard
  9
$CLAYER
  8
0
  9
$CELTYPE
  6
ByLayer
  9
$CECOLOR
 62
   256
  9
$CELTSCALE
 40
1.0
  9
$DISPSILH
 70
     0
  9
$DIMSCALE
 40
1.0
  9
$DIMASZ
 40
3.302
  9
$DIMEXO
 40
1.0
  9
$DIMDLI
 40
3.75
  9
$DIMRND
 40
0.0
  9
$DIMDLE
 40
0.0
  9
$DIMEXE
 40
1.0
  9
$DIMTP
 40
0.0
  9
$DIMTM
 40
0.0
  9
$DIMTXT
 40
3.5
  9
$DIMCEN
 40
2.5
  9
$DIMTSZ
 40
0.0
  9
$DIMTOL
 70
     0
  9
$DIMLIM
 70
     0
  9
$DIMTIH
 70
     1
  9
$DIMTOH
 70
     1
  9
$DIMSE1
 70
     0
  9
$DIMSE2
 70
     0
  9
$DIMTAD
 70
     1
  9
$DIMZIN
 70
     0
  9
$DIMBLK
  1

  9
$DIMASO
 70
     1
  9
$DIMSHO
 70
     1
  9
$DIMPOST
  1

  9
$DIMAPOST
  1

  9
$DIMALT
 70
     0
  9
$DIMALTD
 70
     3
  9
$DIMALTF
 40
0.0393700787401575
  9
$DIMLFAC
 40
1.0
  9
$DIMTOFL
 70
     1
  9
$DIMTVP
 40
0.0
  9
$DIMTIX
 70
     0
  9
$DIMSOXD
 70
     0
  9
$DIMSAH
 70
     0
  9
$DIMBLK1
  1

  9
$DIMBLK2
  1

  9
$DIMSTYLE
  2
ISO-25
  9
$DIMCLRD
 70
     0
  9
$DIMCLRE
 70
     0
  9
$DIMCLRT
 70
     0
  9
$DIMTFAC
 40
1.0
  9
$DIMGAP
 40
1.524
  9
$DIMJUST
 70
     0
  9
$DIMSD1
 70
     0
  9
$DIMSD2
 70
     0
  9
$DIMTOLJ
 70
     0
  9
$DIMTZIN
 70
     0
  9
$DIMALTZ
 70
     0
  9
$DIMALTTZ
 70
     0
  9
$DIMUPT
 70
     0
  9
$DIMDEC
 70
     2
  9
$DIMTDEC
 70
     2
  9
$DIMALTU
 70
     2
  9
$DIMALTTD
 70
     3
  9
$DIMTXSTY
  7
Standard
  9
$DIMAUNIT
 70
     0
  9
$DIMADEC
 70
     2
  9
$DIMALTRND
 40
0.0
  9
$DIMAZIN
 70
     0
  9
$DIMDSEP
 70
    44
  9
$DIMATFIT
 70
     3
  9
$DIMFRAC
 70
     0
  9
$DIMLDRBLK
  1

  9
$DIMLUNIT
 70
     2
  9
$DIMLWD
 70
    -2
  9
$DIMLWE
 70
    -2
  9
$DIMTMOVE
 70
     0
  9
$LUNITS
 70
     2
  9
$LUPREC
 70
     2
  9
$SKETCHINC
 40
1.0
  9
$FILLETRAD
 40
10.0
  9
$AUNITS
 70
     0
  9
$AUPREC
 70
     2
  9
$MENU
  1
.
  9
$ELEVATION
 40
0.0
  9
$PELEVATION
 40
0.0
  9
$THICKNESS
 40
0.0
  9
$LIMCHECK
 70
     0
  9
$CHAMFERA
 40
0.0
  9
$CHAMFERB
 40
0.0
  9
$CHAMFERC
 40
0.0
  9
$CHAMFERD
 40
0.0
  9
$SKPOLY
 70
     0
  9
$TDCREATE
 40
2458288.747967025
  9
$TDUCREATE
 40
2458288.372967025
  9
$TDUPDATE
 40
2458294.714829572
  9
$TDUUPDATE
 40
2458294.339829572
  9
$TDINDWG
 40
0.0011622222
  9
$TDUSRTIMER
 40
2458294.338667917
  9
$USRTIMER
 70
     1
  9
$ANGBASE
 50
0.0
  9
$ANGDIR
 70
     0
  9
$PDMODE
 70
     0
  9
$PDSIZE
 40
-1.0
  9
$PLINEWID
 40
0.0
  9
$SPLFRAME
 70
     0
  9
$SPLINETYPE
 70
     6
  9
$SPLINESEGS
 70
     8
  9
$HANDSEED
  5
196
  9
$SURFTAB1
 70
     6
  9
$SURFTAB2
 70
     6
  9
$SURFTYPE
 70
     6
  9
$SURFU
 70
     6
  9
$SURFV
 70
     6
  9
$UCSBASE
  2

  9
$UCSNAME
  2

  9
$UCSORG
 10
0.0
 20
0.0
 30
0.0
  9
$UCSXDIR
 10
1.0
 20
0.0
 30
0.0
  9
$UCSYDIR
 10
0.0
 20
1.0
 30
0.0
  9
$UCSORTHOREF
  2

  9
$UCSORTHOVIEW
 70
     0
  9
$UCSORGTOP
 10
0.0
 20
0.0
 30
0.0
  9
$UCSORGBOTTOM
 10
0.0
 20
0.0
 30
0.0
  9
$UCSORGLEFT
 10
0.0
 20
0.0
 30
0.0
  9
$UCSORGRIGHT
 10
0.0
 20
0.0
 30
0.0
  9
$UCSORGFRONT
 10
0.0
 20
0.0
 30
0.0
  9
$UCSORGBACK
 10
0.0
 20
0.0
 30
0.0
  9
$PUCSBASE
  2

  9
$PUCSNAME
  2

  9
$PUCSORG
 10
0.0
 20
0.0
 30
0.0
  9
$PUCSXDIR
 10
1.0
 20
0.0
 30
0.0
  9
$PUCSYDIR
 10
0.0
 20
1.0
 30
0.0
  9
$PUCSORTHOREF
  2

  9
$PUCSORTHOVIEW
 70
     0
  9
$PUCSORGTOP
 10
0.0
 20
0.0
 30
0.0
  9
$PUCSORGBOTTOM
 10
0.0
 20
0.0
 30
0.0
  9
$PUCSORGLEFT
 10
0.0
 20
0.0
 30
0.0
  9
$PUCSORGRIGHT
 10
0.0
 20
0.0
 30
0.0
  9
$PUCSORGFRONT
 10
0.0
 20
0.0
 30
0.0
  9
$PUCSORGBACK
 10
0.0
 20
0.0
 30
0.0
  9
$USERI1
 70
     0
  9
$USERI2
 70
     0
  9
$USERI3
 70
     0
  9
$USERI4
 70
     0
  9
$USERI5
 70
     0
  9
$USERR1
 40
0.0
  9
$USERR2
 40
0.0
  9
$USERR3
 40
0.0
  9
$USERR4
 40
0.0
  9
$USERR5
 40
0.0
  9
$WORLDVIEW
 70
     1
  9
$SHADEDGE
 70
     3
  9
$SHADEDIF
 70
    70
  9
$TILEMODE
 70
     1
  9
$MAXACTVP
 70
    64
  9
$PINSBASE
 10
0.0
 20
0.0
 30
0.0
  9
$PLIMCHECK
 70
     0
  9
$PEXTMIN
 10
1.000000000000000E+20
 20
1.000000000000000E+20
 30
1.000000000000000E+20
  9
$PEXTMAX
 10
-1.000000000000000E+20
 20
-1.000000000000000E+20
 30
-1.000000000000000E+20
  9
$PLIMMIN
 10
0.0
 20
0.0
  9
$PLIMMAX
 10
0.0
 20
0.0
  9
$UNITMODE
 70
     0
  9
$VISRETAIN
 70
     1
  9
$PLINEGEN
 70
     0
  9
$PSLTSCALE
 70
     1
  9
$TREEDEPTH
 70
  3020
  9
$CMLSTYLE
  2
Standard
  9
$CMLJUST
 70
     0
  9
$CMLSCALE
 40
20.0
  9
$PROXYGRAPHICS
 70
     1
  9
$MEASUREMENT
 70
     1
  9
$CELWEIGHT
370
    -1
  9
$ENDCAPS
280
     0
  9
$JOINSTYLE
280
     0
  9
$LWDISPLAY
290
     1
  9
$INSUNITS
 70
     4
  9
$HYPERLINKBASE
  1

  9
$STYLESHEET
  1

  9
$XEDIT
290
     1
  9
$CEPSNTYPE
380
     0
  9
$PSTYLEMODE
290
     1
  9
$FINGERPRINTGUID
  2
{BF3FB85E-8CBE-4D2C-8A4B-8257D89372FF}
  9
$VERSIONGUID
  2
{FAEB1C32-E019-11D5-929B-00C0DF256EC4}
  9
$EXTNAMES
290
     1
  9
$PSVPSCALE
 40
0.0
  9
$OLESTARTUP
290
     0
  0
ENDSEC
  0
SECTION
  2
CLASSES
  0
CLASS
  1
ACDBDICTIONARYWDFLT
  2
AcDbDictionaryWithDefault
  3
ObjectDBX Classes
 90
        0
280
     0
281
     0
  0
CLASS
  1
VISUALSTYLE
  2
AcDbVisualStyle
  3
ObjectDBX Classes
 90
     4095
280
     0
281
     0
  0
CLASS
  1
MATERIAL
  2
AcDbMaterial
  3
ObjectDBX Classes
 90
     1153
280
     0
281
     0
  0
CLASS
  1
SCALE
  2
AcDbScale
  3
ObjectDBX Classes
 90
     1153
280
     0
281
     0
  0
CLASS
  1
SUN
  2
AcDbSun
  3
SCENEOE
 90
     1153
280
     0
281
     0
  0
CLASS
  1
ACDBPLACEHOLDER
  2
AcDbPlaceHolder
  3
ObjectDBX Classes
 90
        0
280
     0
281
     0
  0
CLASS
  1
LAYOUT
  2
AcDbLayout
  3
ObjectDBX Classes
 90
        0
280
     0
281
     0
  0
CLASS
  1
TABLESTYLE
  2
AcDbTableStyle
  3
ObjectDBX Classes
 90
     4095
280
     0
281
     0
  0
CLASS
  1
MLEADERSTYLE
  2
AcDbMLeaderStyle
  3
ACDB_MLEADERSTYLE_CLASS
 90
     4095
280
     0
281
     0
  0
CLASS
  1
RASTERVARIABLES
  2
AcDbRasterVariables
  3
ISM
 90
        0
280
     0
281
     0
  0
ENDSEC
  0
SECTION
  2
TABLES
  0
TABLE
  2
VPORT
  5
8
330
0
100
AcDbSymbolTable
 70
     1
  0
VPORT
  5
29
330
8
100
AcDbSymbolTableRecord
100
AcDbViewportTableRecord
  2
*Active
 70
     0
 10
0.0
 20
0.0
 11
1.0
 21
1.0
 12
21.4937636001396
 22
-20.6805459589973
 13
0.0
 23
0.0
 14
10.0
 24
10.0
 15
10.0
 25
10.0
 16
0.0
 26
0.0
 36
1.0
 17
0.0
 27
0.0
 37
0.0
 40
179.9498718582653
 41
1.859099804305284
 42
50.0
 43
0.0
 44
0.0
 50
0.0
 51
0.0
 71
    16
 72
  2000
 73
     1
 74
     3
 75
     0
 76
     0
 77
     0
 78
     0
281
     0
 65
     1
110
0.0
120
0.0
130
0.0
111
1.0
121
0.0
131
0.0
112
0.0
122
1.0
132
0.0
 79
     0
146
0.0
  0
ENDTAB
  0
TABLE
  2
LTYPE
  5
5
330
0
100
AcDbSymbolTable
 70
     6
  0
LTYPE
  5
14
330
5
100
AcDbSymbolTableRecord
100
AcDbLinetypeTableRecord
  2
ByBlock
 70
     0
  3

 72
    65
 73
     0
 40
0.0
  0
LTYPE
  5
15
330
5
100
AcDbSymbolTableRecord
100
AcDbLinetypeTableRecord
  2
ByLayer
 70
     0
  3

 72
    65
 73
     0
 40
0.0
  0
LTYPE
  5
16
330
5
100
AcDbSymbolTableRecord
100
AcDbLinetypeTableRecord
  2
Continuous
 70
     0
  3
Solid line
 72
    65
 73
     0
 40
0.0
  0
LTYPE
  5
6A
330
5
100
AcDbSymbolTableRecord
100
AcDbLinetypeTableRecord
  2
HIDDEN
 70
     0
  3
Hidden __ __ __ __ __ __ __ __ __ __ __ __ __ __
 72
    65
 73
     2
 40
1.905
 49
1.27
 74
     0
 49
-0.635
 74
     0
  0
LTYPE
  5
6B
330
5
100
AcDbSymbolTableRecord
100
AcDbLinetypeTableRecord
  2
PHANTOM
 70
     0
  3
Phantom ______  __  __  ______  __  __  ______
 72
    65
 73
     6
 40
12.7
 49
6.35
 74
     0
 49
-1.27
 74
     0
 49
1.27
 74
     0
 49
-1.27
 74
     0
 49
1.27
 74
     0
 49
-1.27
 74
     0
  0
LTYPE
  5
6C
330
5
100
AcDbSymbolTableRecord
100
AcDbLinetypeTableRecord
  2
CENTER
 70
     0
  3
Center ____ _ ____ _ ____ _ ____ _ ____ _ ____
 72
    65
 73
     4
 40
10.16
 49
6.35
 74
     0
 49
-1.27
 74
     0
 49
1.27
 74
     0
 49
-1.27
 74
     0
  0
LTYPE
  5
6D
330
5
100
AcDbSymbolTableRecord
100
AcDbLinetypeTableRecord
  2
CENTERX2
 70
     0
  3
Center (2x) ________  __  ________  __  _____
 72
    65
 73
     4
 40
20.32
 49
12.7
 74
     0
 49
-2.54
 74
     0
 49
2.54
 74
     0
 49
-2.54
 74
     0
  0
LTYPE
  5
6E
330
5
100
AcDbSymbolTableRecord
100
AcDbLinetypeTableRecord
  2
DOT2
 70
     0
  3
Dot (.5x) ........................................
 72
    65
 73
     2
 40
0.635
 49
0.0
 74
     0
 49
-0.635
 74
     0
  0
ENDTAB
  0
TABLE
  2
LAYER
  5
2
102
{ACAD_XDICTIONARY
360
184
102
}
330
0
100
AcDbSymbolTable
 70
    18
  0
LAYER
  5
10
330
2
100
AcDbSymbolTableRecord
100
AcDbLayerTableRecord
  2
0
 70
     0
 62
     7
  6
Continuous
370
    -3
390
F
  0
LAYER
  5
6F
330
2
100
AcDbSymbolTableRecord
100
AcDbLayerTableRecord
  2
FORMAT
 70
     0
 62
     2
  6
Continuous
370
    -3
390
F
  0
LAYER
  5
70
330
2
100
AcDbSymbolTableRecord
100
AcDbLayerTableRecord
  2
외형선
 70
     0
 62
     4
  6
Continuous
370
    30
390
F
  0
LAYER
  5
71
330
2
100
AcDbSymbolTableRecord
100
AcDbLayerTableRecord
  2
숨은선
 70
     0
 62
     2
  6
HIDDEN
370
    15
390
F
  0
LAYER
  5
72
330
2
100
AcDbSymbolTableRecord
100
AcDbLayerTableRecord
  2
중심선
 70
     0
 62
     1
  6
CENTERX2
370
    -3
390
F
  0
LAYER
  5
73
330
2
100
AcDbSymbolTableRecord
100
AcDbLayerTableRecord
  2
파단선
 70
     0
 62
     4
  6
Continuous
370
    -3
390
F
  0
LAYER
  5
74
330
2
100
AcDbSymbolTableRecord
100
AcDbLayerTableRecord
  2
해칭선
 70
     0
 62
   100
  6
Continuous
370
    -3
390
F
  0
LAYER
  5
75
330
2
100
AcDbSymbolTableRecord
100
AcDbLayerTableRecord
  2
가는실선
 70
     0
 62
     4
  6
Continuous
370
    -3
390
F
  0
LAYER
  5
76
330
2
100
AcDbSymbolTableRecord
100
AcDbLayerTableRecord
  2
치수_보조선
 70
     0
 62
     4
  6
Continuous
370
    -3
390
F
  0
LAYER
  5
77
330
2
100
AcDbSymbolTableRecord
100
AcDbLayerTableRecord
  2
치수문자_일반주서
 70
     0
 62
     7
  6
Continuous
370
    15
390
F
  0
LAYER
  5
78
330
2
100
AcDbSymbolTableRecord
100
AcDbLayerTableRecord
  2
개별주서
 70
     0
 62
   100
  6
Continuous
370
    30
390
F
  0
LAYER
  5
79
330
2
100
AcDbSymbolTableRecord
100
AcDbLayerTableRecord
  2
중간선
 70
     0
 62
     2
  6
Continuous
370
    15
390
F
  0
LAYER
  5
7A
330
2
100
AcDbSymbolTableRecord
100
AcDbLayerTableRecord
  2
윤곽선
 70
     0
 62
     3
  6
Continuous
370
    40
390
F
  0
LAYER
  5
7B
330
2
100
AcDbSymbolTableRecord
100
AcDbLayerTableRecord
  2
중심마크
 70
     0
 62
   100
  6
Continuous
370
    30
390
F
  0
LAYER
  5
7C
330
2
100
AcDbSymbolTableRecord
100
AcDbLayerTableRecord
  2
가상선
 70
     0
 62
     4
  6
PHANTOM
370
    -3
390
F
  0
LAYER
  5
7D
330
2
100
AcDbSymbolTableRecord
100
AcDbLayerTableRecord
  2
특수지정선
 70
     0
 62
     5
  6
CENTERX2
370
    60
390
F
  0
LAYER
  5
7E
330
2
100
AcDbSymbolTableRecord
100
AcDbLayerTableRecord
  2
참조1
 70
     0
 62
    -4
  6
Continuous
370
    -3
390
F
  0
LAYER
  5
18B
330
2
100
AcDbSymbolTableRecord
100
AcDbLayerTableRecord
  2
Defpoints
 70
     0
 62
     7
  6
Continuous
290
     0
370
    -3
390
F
  0
ENDTAB
  0
TABLE
  2
STYLE
  5
3
330
0
100
AcDbSymbolTable
 70
     2
  0
STYLE
  5
11
330
3
100
AcDbSymbolTableRecord
100
AcDbTextStyleTableRecord
  2
Standard
 70
     0
 40
0.0
 41
1.0
 50
0.0
 71
     0
 42
3.5
  3
txt
  4

  0
STYLE
  5
94
330
3
100
AcDbSymbolTableRecord
100
AcDbTextStyleTableRecord
  2
SLDTEXTSTYLE0
 70
     0
 40
0.0
 41
0.75
 50
0.0
 71
     0
 42
3.5
  3
TXT
  4

  0
ENDTAB
  0
TABLE
  2
VIEW
  5
6
330
0
100
AcDbSymbolTable
 70
     0
  0
ENDTAB
  0
TABLE
  2
UCS
  5
7
330
0
100
AcDbSymbolTable
 70
     0
  0
ENDTAB
  0
TABLE
  2
APPID
  5
9
330
0
100
AcDbSymbolTable
 70
     1
  0
APPID
  5
12
330
9
100
AcDbSymbolTableRecord
100
AcDbRegAppTableRecord
  2
ACAD
 70
     0
  0
ENDTAB
  0
TABLE
  2
DIMSTYLE
  5
A
330
0
100
AcDbSymbolTable
 70
     3
100
AcDbDimStyleTable
  0
DIMSTYLE
105
27
330
A
100
AcDbSymbolTableRecord
100
AcDbDimStyleTableRecord
  2
ISO-25
 70
     0
 41
2.5
 42
0.625
 43
3.75
 44
1.25
 73
     0
 74
     0
 77
     1
 78
     8
140
2.5
141
2.5
143
0.03937007874016
147
0.625
171
     3
172
     1
178
     0
271
     2
272
     2
274
     3
278
    44
283
     0
284
     8
340
11
  0
DIMSTYLE
105
DD
102
{ACAD_REACTORS
330
DC
330
F1
330
105
330
119
102
}
330
A
100
AcDbSymbolTableRecord
100
AcDbDimStyleTableRecord
  2
SLDDIMSTYLE0
 70
     0
 41
3.302
 44
0.0
 45
0.000000001
 73
     0
 74
     0
 77
     1
 78
    12
 79
     3
140
3.5
143
0.0393700787401575
147
0.875
148
0.000000001
170
     1
172
     1
173
     1
178
     0
271
     2
272
     2
276
     2
284
    12
289
     0
340
94
  0
DIMSTYLE
105
F2
330
A
100
AcDbSymbolTableRecord
100
AcDbDimStyleTableRecord
  2
SLDDIMSTYLE1
 70
     0
 41
3.302
 44
0.0
 45
0.000000001
 73
     0
 74
     0
 77
     1
 78
    12
 79
     3
140
3.5
143
0.0393700787401575
147
0.875
148
0.000000001
170
     1
173
     1
178
     0
271
     2
272
     2
276
     2
284
    12
340
94
  0
ENDTAB
  0
TABLE
  2
BLOCK_RECORD
  5
1
330
0
100
AcDbSymbolTable
 70
     8
  0
BLOCK_RECORD
  5
1F
330
1
100
AcDbSymbolTableRecord
100
AcDbBlockTableRecord
  2
*Model_Space
340
22
  0
BLOCK_RECORD
  5
1B
330
1
100
AcDbSymbolTableRecord
100
AcDbBlockTableRecord
  2
*Paper_Space
340
1E
  0
BLOCK_RECORD
  5
23
330
1
100
AcDbSymbolTableRecord
100
AcDbBlockTableRecord
  2
*Paper_Space0
340
26
  0
BLOCK_RECORD
  5
7F
330
1
100
AcDbSymbolTableRecord
100
AcDbBlockTableRecord
  2
블럭10
340
0
102
{BLKREFS
331
D5
102
}
  0
BLOCK_RECORD
  5
DE
330
1
100
AcDbSymbolTableRecord
100
AcDbBlockTableRecord
  2
_D
340
0
  0
BLOCK_RECORD
  5
F3
330
1
100
AcDbSymbolTableRecord
100
AcDbBlockTableRecord
  2
_D_1
340
0
  0
BLOCK_RECORD
  5
106
330
1
100
AcDbSymbolTableRecord
100
AcDbBlockTableRecord
  2
_D_2
340
0
  0
BLOCK_RECORD
  5
11A
330
1
100
AcDbSymbolTableRecord
100
AcDbBlockTableRecord
  2
_D_3
340
0
  0
BLOCK_RECORD
  5
133
330
1
100
AcDbSymbolTableRecord
100
AcDbBlockTableRecord
  2
SW_DOWELSYMBOL_0
340
0
102
{BLKREFS
331
139
102
}
  0
ENDTAB
  0
ENDSEC
  0
SECTION
  2
BLOCKS
  0
BLOCK
  5
20
330
1F
100
AcDbEntity
  8
0
100
AcDbBlockBegin
  2
*Model_Space
 70
     0
 10
0.0
 20
0.0
 30
0.0
  3
*Model_Space
  1
*Model_Space
  0
ENDBLK
  5
21
330
1F
100
AcDbEntity
  8
0
100
AcDbBlockEnd
  0
BLOCK
  5
1C
330
1B
100
AcDbEntity
 67
     1
  8
0
100
AcDbBlockBegin
  2
*Paper_Space
 70
     0
 10
0.0
 20
0.0
 30
0.0
  3
*Paper_Space
  1
*Paper_Space
  0
ENDBLK
  5
1D
330
1B
100
AcDbEntity
 67
     1
  8
0
100
AcDbBlockEnd
  0
BLOCK
  5
24
330
23
100
AcDbEntity
  8
0
100
AcDbBlockBegin
  2
*Paper_Space0
 70
     0
 10
0.0
 20
0.0
 30
0.0
  3
*Paper_Space0
  1
*Paper_Space0
  0
ENDBLK
  5
25
330
23
100
AcDbEntity
  8
0
100
AcDbBlockEnd
  0
BLOCK
  5
80
330
7F
100
AcDbEntity
  8
0
100
AcDbBlockBegin
  2
블럭10
 70
     2
 10
0.0
 20
0.0
 30
0.0
  3
블럭10
  1
블럭10
  0
ELLIPSE
  5
82
330
7F
100
AcDbEntity
  8
중심선
100
AcDbEllipse
 10
20.54032771741204
 20
12.0471743016438
 30
0.0
 11
6.600054785286829
 21
-1.261213355974178E-13
 31
0.0
210
0.0
220
0.0
230
1.0
 40
0.636358354079598
 41
0.9219305317359503
 42
6.513795318482858
  0
ELLIPSE
  5
83
330
7F
100
AcDbEntity
  8
중심선
100
AcDbEllipse
 10
20.54032771746488
 20
12.04717430159265
 30
0.0
 11
3.960054785062283
 21
1.540847449632565E-10
 31
0.0
210
0.0
220
0.0
230
1.0
 40
0.3939339440162632
 41
1.131841032648279
 42
5.62031148352944
  0
LINE
  5
84
330
7F
100
AcDbEntity
  8
중심선
100
AcDbLine
 10
2.268634060543552
 20
16.24717430164393
 30
0.0
 11
5.714909304380834
 21
16.24717430164393
 31
0.0
  0
LINE
  5
85
330
7F
100
AcDbEntity
  8
중심선
100
AcDbLine
 10
5.245725140726316
 20
7.84717430164391
 30
0.0
 11
8.692000384563599
 21
7.84717430164391
 31
0.0
  0
LINE
  5
86
330
7F
100
AcDbEntity
  8
중심선
100
AcDbLine
 10
15.74043728645272
 20
16.24717430164393
 30
0.0
 11
8.692000384563599
 21
7.84717430164391
 31
0.0
  0
LINE
  5
87
330
7F
100
AcDbEntity
  8
중심선
100
AcDbLine
 10
0.1404042013395286
 20
13.71084872107135
 30
0.0
 11
3.58671253028996
 21
13.71088815037384
 31
0.0
  0
LINE
  5
88
330
7F
100
AcDbEntity
  8
중심선
100
AcDbLine
 10
2.750260043222114
 20
10.84717430164391
 30
0.0
 11
6.196535287059397
 21
10.84717430164391
 31
0.0
  0
LINE
  5
89
330
7F
100
AcDbEntity
  8
중심선
100
AcDbLine
 10
12.29416204261559
 20
16.24717430164393
 30
0.0
 11
5.245725140726316
 21
7.84717430164391
 31
0.0
  0
LINE
  5
8A
330
7F
100
AcDbEntity
  8
중심선
100
AcDbLine
 10
10.72767329541681
 20
16.24717430164393
 30
0.0
 11
6.196535287059397
 21
10.84717430164391
 31
0.0
  0
LINE
  5
8B
330
7F
100
AcDbEntity
  8
중심선
100
AcDbLine
 10
7.28139805157953
 20
16.24717430164393
 30
0.0
 11
2.750260043222114
 21
10.84717430164391
 31
0.0
  0
LINE
  5
8C
330
7F
100
AcDbEntity
  8
중심선
100
AcDbLine
 10
5.714909304380834
 20
16.24717430164393
 30
0.0
 11
3.58671253028996
 21
13.71088815037384
 31
0.0
  0
LINE
  5
8D
330
7F
100
AcDbEntity
  8
중심선
100
AcDbLine
 10
2.268634060543552
 20
16.24717430164393
 30
0.0
 11
0.1404042013395286
 21
13.71084872107135
 31
0.0
  0
LINE
  5
8E
330
7F
100
AcDbEntity
  8
중심선
100
AcDbLine
 10
7.28139805157953
 20
16.24717430164393
 30
0.0
 11
10.72767329541681
 21
16.24717430164393
 31
0.0
  0
LINE
  5
8F
330
7F
100
AcDbEntity
  8
중심선
100
AcDbLine
 10
12.29416204261559
 20
16.24717430164393
 30
0.0
 11
15.74043728645272
 21
16.24717430164393
 31
0.0
  0
LINE
  5
90
330
7F
100
AcDbEntity
  8
중심선
100
AcDbLine
 10
19.22036997980202
 20
11.08717430171403
 30
0.0
 11
23.66174974927406
 21
11.08717430171406
 31
0.0
  0
LINE
  5
91
330
7F
100
AcDbEntity
  8
중심선
100
AcDbLine
 10
19.22039502424796
 20
13.00717430171391
 30
0.0
 11
19.22036997980202
 21
11.08717430171403
 31
0.0
  0
LINE
  5
92
330
7F
100
AcDbEntity
  8
중심선
100
AcDbLine
 10
19.22039502424796
 20
13.00717430171391
 30
0.0
 11
26.96566020931264
 21
13.00717430171391
 31
0.0
  0
LINE
  5
93
330
7F
100
AcDbEntity
  8
중심선
100
AcDbLine
 10
22.22332737316547
 20
13.45928029700563
 30
0.0
 11
24.52862924686651
 21
15.39360700705356
 31
0.0
  0
ATTDEF
  5
95
330
7F
100
AcDbEntity
  8
FORMAT
 62
     2
100
AcDbText
 10
3.448148490846466
 20
2.075366912832191
 30
0.0
 40
4.233333333333333
  1
EM206040
 41
0.75
  7
SLDTEXTSTYLE0
 11
3.448148490846466
 21
-0.0412997538344756
 31
0.0
100
AcDbAttributeDefinition
  3

  2
AUTOATTR0
 70
     0
 74
     1
  0
ENDBLK
  5
81
330
7F
100
AcDbEntity
  8
0
100
AcDbBlockEnd
  0
BLOCK
  5
DF
330
DE
100
AcDbEntity
  8
0
100
AcDbBlockBegin
  2
_D
 70
     0
 10
0.0
 20
0.0
 30
0.0
  3
_D
  1
_D
  0
LINE
  5
E1
330
DE
100
AcDbEntity
  8
치수문자_일반주서
 62
     0
370
    -2
100
AcDbLine
 10
-56.91249999999994
 20
7.937499999999982
 30
0.0
 11
-70.27999999999997
 21
7.937499999999932
 31
0.0
  0
LINE
  5
E2
330
DE
100
AcDbEntity
  8
치수문자_일반주서
 62
     0
370
    -2
100
AcDbLine
 10
-56.91249999999994
 20
-7.937500000000018
 30
0.0
 11
-70.27999999999992
 21
-7.937500000000068
 31
0.0
  0
LINE
  5
E3
330
DE
100
AcDbEntity
  8
치수문자_일반주서
 62
     0
370
    -2
100
AcDbLine
 10
-70.27999999999996
 20
4.635499999999933
 30
0.0
 11
-70.27999999999993
 21
-4.635500000000068
 31
0.0
  0
SOLID
  5
E4
330
DE
100
AcDbEntity
  8
치수문자_일반주서
 62
     0
100
AcDbTrace
 10
-69.72966666666663
 20
4.635499999999935
 30
0.0
 11
-70.83033333333329
 21
4.635499999999931
 31
0.0
 12
-70.27999999999997
 22
7.937499999999932
 32
0.0
 13
-70.27999999999997
 23
7.937499999999932
 33
0.0
  0
SOLID
  5
E5
330
DE
100
AcDbEntity
  8
치수문자_일반주서
 62
     0
100
AcDbTrace
 10
-70.83033333333326
 20
-4.63550000000007
 30
0.0
 11
-69.7296666666666
 21
-4.635500000000066
 31
0.0
 12
-70.27999999999992
 22
-7.937500000000068
 32
0.0
 13
-70.27999999999992
 23
-7.937500000000068
 33
0.0
  0
MTEXT
  5
E6
330
DE
100
AcDbEntity
  8
치수문자_일반주서
 62
     0
100
AcDbMText
 10
-74.65499999999994
 20
-0.0000000000000353
 30
0.0
 40
3.5
 41
0.0
 71
     2
 72
     1
  1
\A1;%%c15.88 [5/8]
  7
SLDTEXTSTYLE0
 11
-3.580687802255623E-15
 21
1.0
 31
0.0
 73
     1
 44
1.0
  0
POINT
  5
E7
330
DE
100
AcDbEntity
  8
Defpoints
 62
     0
100
AcDbPoint
 10
-56.84999999999994
 20
7.937499999999982
 30
0.0
  0
POINT
  5
E8
330
DE
100
AcDbEntity
  8
Defpoints
 62
     0
100
AcDbPoint
 10
-56.84999999999994
 20
-7.937500000000018
 30
0.0
  0
POINT
  5
E9
330
DE
100
AcDbEntity
  8
Defpoints
 62
     0
100
AcDbPoint
 10
-70.27999999999992
 20
-7.937500000000068
 30
0.0
  0
ENDBLK
  5
E0
330
DE
100
AcDbEntity
  8
0
100
AcDbBlockEnd
  0
BLOCK
  5
F4
330
F3
100
AcDbEntity
  8
0
100
AcDbBlockBegin
  2
_D_1
 70
     0
 10
0.0
 20
0.0
 30
0.0
  3
_D_1
  1
_D_1
  0
LINE
  5
F6
330
F3
100
AcDbEntity
  8
치수문자_일반주서
 62
     0
370
    -2
100
AcDbLine
 10
69.21250000000005
 20
7.937500000000008
 30
0.0
 11
82.49702934787702
 21
7.937500000000057
 31
0.0
  0
LINE
  5
F7
330
F3
100
AcDbEntity
  8
치수문자_일반주서
 62
     0
370
    -2
100
AcDbLine
 10
69.21250000000005
 20
-7.937499999999992
 30
0.0
 11
82.49702934787707
 21
-7.937499999999943
 31
0.0
  0
LINE
  5
F8
330
F3
100
AcDbEntity
  8
치수문자_일반주서
 62
     0
370
    -2
100
AcDbLine
 10
82.49702934787702
 20
7.937500000000057
 30
0.0
 11
82.49702934787689
 21
42.76025000000006
 31
0.0
  0
LINE
  5
F9
330
F3
100
AcDbEntity
  8
치수문자_일반주서
 62
     0
370
    -2
100
AcDbLine
 10
82.49702934787702
 20
7.937500000000057
 30
0.0
 11
82.49702934787707
 21
-7.937499999999943
 31
0.0
  0
LINE
  5
FA
330
F3
100
AcDbEntity
  8
치수문자_일반주서
 62
     0
370
    -2
100
AcDbLine
 10
82.497029347877
 20
11.23950000000006
 30
0.0
 11
82.49702934787699
 21
14.54150000000006
 31
0.0
  0
LINE
  5
FB
330
F3
100
AcDbEntity
  8
치수문자_일반주서
 62
     0
370
    -2
100
AcDbLine
 10
82.49702934787709
 20
-11.23949999999994
 30
0.0
 11
82.4970293478771
 21
-14.54149999999994
 31
0.0
  0
SOLID
  5
FC
330
F3
100
AcDbEntity
  8
치수문자_일반주서
 62
     0
100
AcDbTrace
 10
81.94669601454368
 20
11.23950000000005
 30
0.0
 11
83.04736268121033
 21
11.23950000000006
 31
0.0
 12
82.49702934787702
 22
7.937500000000057
 32
0.0
 13
82.49702934787702
 23
7.937500000000057
 33
0.0
  0
SOLID
  5
FD
330
F3
100
AcDbEntity
  8
치수문자_일반주서
 62
     0
100
AcDbTrace
 10
83.04736268121042
 20
-11.23949999999994
 30
0.0
 11
81.94669601454376
 21
-11.23949999999994
 31
0.0
 12
82.49702934787707
 22
-7.937499999999943
 32
0.0
 13
82.49702934787707
 23
-7.937499999999943
 33
0.0
  0
MTEXT
  5
FE
330
F3
100
AcDbEntity
  8
치수문자_일반주서
 62
     0
100
AcDbMText
 10
78.12202934787695
 20
28.76025000000004
 30
0.0
 40
3.5
 41
0.0
 71
     2
 72
     1
  1
\A1;%%c15.88 [5/8]
  7
SLDTEXTSTYLE0
 11
-3.580687802255623E-15
 21
1.0
 31
0.0
 73
     1
 44
1.0
  0
POINT
  5
FF
330
F3
100
AcDbEntity
  8
Defpoints
 62
     0
100
AcDbPoint
 10
69.15000000000005
 20
7.937500000000008
 30
0.0
  0
POINT
  5
18C
330
F3
100
AcDbEntity
  8
Defpoints
 62
     0
100
AcDbPoint
 10
69.15000000000005
 20
-7.937499999999992
 30
0.0
  0
POINT
  5
18D
330
F3
100
AcDbEntity
  8
Defpoints
 62
     0
100
AcDbPoint
 10
82.49702934787707
 20
-7.937499999999942
 30
0.0
  0
ENDBLK
  5
F5
330
F3
100
AcDbEntity
  8
0
100
AcDbBlockEnd
  0
BLOCK
  5
107
330
106
100
AcDbEntity
  8
0
100
AcDbBlockBegin
  2
_D_2
 70
     0
 10
0.0
 20
0.0
 30
0.0
  3
_D_2
  1
_D_2
  0
LINE
  5
109
330
106
100
AcDbEntity
  8
치수문자_일반주서
 62
     0
370
    -2
100
AcDbLine
 10
69.15000000000005
 20
8.000000000000007
 30
0.0
 11
69.15000000000005
 21
18.9376108025188
 31
0.0
  0
LINE
  5
10A
330
106
100
AcDbEntity
  8
치수문자_일반주서
 62
     0
370
    -2
100
AcDbLine
 10
12.00000000000004
 20
5.645718038852544
 30
0.0
 11
12.00000000000004
 21
18.9376108025188
 31
0.0
  0
LINE
  5
10B
330
106
100
AcDbEntity
  8
치수문자_일반주서
 62
     0
370
    -2
100
AcDbLine
 10
65.84800000000004
 20
18.9376108025188
 30
0.0
 11
15.30200000000004
 21
18.9376108025188
 31
0.0
  0
SOLID
  5
10C
330
106
100
AcDbEntity
  8
치수문자_일반주서
 62
     0
100
AcDbTrace
 10
65.84800000000004
 20
18.38727746918547
 30
0.0
 11
65.84800000000004
 21
19.48794413585214
 31
0.0
 12
69.15000000000005
 22
18.9376108025188
 32
0.0
 13
69.15000000000005
 23
18.9376108025188
 33
0.0
  0
SOLID
  5
10D
330
106
100
AcDbEntity
  8
치수문자_일반주서
 62
     0
100
AcDbTrace
 10
15.30200000000004
 20
19.48794413585214
 30
0.0
 11
15.30200000000004
 21
18.38727746918547
 31
0.0
 12
12.00000000000004
 22
18.9376108025188
 32
0.0
 13
12.00000000000004
 23
18.9376108025188
 33
0.0
  0
MTEXT
  5
10E
330
106
100
AcDbEntity
  8
치수문자_일반주서
 62
     0
100
AcDbMText
 10
42.32964723665705
 20
23.3126108025188
 30
0.0
 40
3.5
 41
0.0
 71
     2
 72
     1
  1
\A1;57.15 [2 1/4]
  7
SLDTEXTSTYLE0
 73
     1
 44
1.0
  0
POINT
  5
10F
330
106
100
AcDbEntity
  8
Defpoints
 62
     0
100
AcDbPoint
 10
69.15000000000005
 20
7.937500000000008
 30
0.0
  0
POINT
  5
110
330
106
100
AcDbEntity
  8
Defpoints
 62
     0
100
AcDbPoint
 10
12.00000000000004
 20
5.583218038852544
 30
0.0
  0
POINT
  5
111
330
106
100
AcDbEntity
  8
Defpoints
 62
     0
100
AcDbPoint
 10
12.00000000000004
 20
18.9376108025188
 30
0.0
  0
ENDBLK
  5
108
330
106
100
AcDbEntity
  8
0
100
AcDbBlockEnd
  0
BLOCK
  5
11B
330
11A
100
AcDbEntity
  8
0
100
AcDbBlockBegin
  2
_D_3
 70
     0
 10
0.0
 20
0.0
 30
0.0
  3
_D_3
  1
_D_3
  0
LINE
  5
11D
330
11A
100
AcDbEntity
  8
치수문자_일반주서
 62
     0
370
    -2
100
AcDbLine
 10
69.15000000000005
 20
8.000000000000007
 30
0.0
 11
69.15000000000006
 21
43.41217844013392
 31
0.0
  0
LINE
  5
11E
330
11A
100
AcDbEntity
  8
치수문자_일반주서
 62
     0
370
    -2
100
AcDbLine
 10
-57.84999999999994
 20
6.999999999999989
 30
0.0
 11
-57.84999999999993
 21
43.41217844013392
 31
0.0
  0
LINE
  5
11F
330
11A
100
AcDbEntity
  8
치수문자_일반주서
 62
     0
370
    -2
100
AcDbLine
 10
65.84800000000007
 20
43.41217844013392
 30
0.0
 11
-54.54799999999993
 21
43.41217844013392
 31
0.0
  0
SOLID
  5
120
330
11A
100
AcDbEntity
  8
치수문자_일반주서
 62
     0
100
AcDbTrace
 10
65.84800000000007
 20
42.86184510680059
 30
0.0
 11
65.84800000000007
 21
43.96251177346726
 31
0.0
 12
69.15000000000006
 22
43.41217844013392
 32
0.0
 13
69.15000000000006
 23
43.41217844013392
 33
0.0
  0
SOLID
  5
121
330
11A
100
AcDbEntity
  8
치수문자_일반주서
 62
     0
100
AcDbTrace
 10
-54.54799999999993
 20
43.96251177346726
 30
0.0
 11
-54.54799999999993
 21
42.86184510680059
 31
0.0
 12
-57.84999999999993
 22
43.41217844013392
 32
0.0
 13
-57.84999999999993
 23
43.41217844013392
 33
0.0
  0
MTEXT
  5
122
330
11A
100
AcDbEntity
  8
치수문자_일반주서
 62
     0
100
AcDbMText
 10
5.650000000000041
 20
47.78717844013392
 30
0.0
 40
3.5
 41
0.0
 71
     2
 72
     1
  1
\A1;127 [5]
  7
SLDTEXTSTYLE0
 73
     1
 44
1.0
  0
POINT
  5
123
330
11A
100
AcDbEntity
  8
Defpoints
 62
     0
100
AcDbPoint
 10
69.15000000000005
 20
7.937500000000008
 30
0.0
  0
POINT
  5
124
330
11A
100
AcDbEntity
  8
Defpoints
 62
     0
100
AcDbPoint
 10
-57.84999999999994
 20
6.937499999999989
 30
0.0
  0
POINT
  5
125
330
11A
100
AcDbEntity
  8
Defpoints
 62
     0
100
AcDbPoint
 10
-57.84999999999994
 20
43.41217844013392
 30
0.0
  0
ENDBLK
  5
11C
330
11A
100
AcDbEntity
  8
0
100
AcDbBlockEnd
  0
BLOCK
  5
134
330
133
100
AcDbEntity
  8
0
100
AcDbBlockBegin
  2
SW_DOWELSYMBOL_0
 70
     0
 10
0.0
 20
0.0
 30
0.0
  3
SW_DOWELSYMBOL_0
  1
SW_DOWELSYMBOL_0
  0
CIRCLE
  5
136
330
133
100
AcDbEntity
  8
해칭선
 62
     0
100
AcDbCircle
 10
0.0
 20
0.0
 30
0.0
 40
3.000000000000002
  0
HATCH
  5
137
330
133
100
AcDbEntity
  8
0
  6
Continuous
 62
     0
370
     0
100
AcDbHatch
 10
0.0
 20
0.0
 30
0.0
210
0.0
220
0.0
230
1.0
  2
SOLID
 70
     1
 71
     0
 91
        1
 92
        0
 93
        3
 72
     2
 10
-0.0000000000000234
 20
0.0
 40
3.000000000000002
 50
0.0
 51
90.0
 73
     1
 72
     1
 10
-0.0000000000000234
 20
3.000000000000002
 11
-0.0000000000000234
 21
0.0
 72
     1
 10
-0.0000000000000234
 20
0.0
 11
2.999999999999979
 21
0.0
 97
        0
 75
     0
 76
     1
 98
        1
 10
0.0
 20
0.0
  0
HATCH
  5
138
330
133
100
AcDbEntity
  8
0
  6
Continuous
 62
     0
370
     0
100
AcDbHatch
 10
0.0
 20
0.0
 30
0.0
210
0.0
220
0.0
230
1.0
  2
SOLID
 70
     1
 71
     0
 91
        1
 92
        0
 93
        3
 72
     2
 10
-0.0000000000000234
 20
0.0
 40
3.000000000000002
 50
180.0
 51
270.0000000000008
 73
     1
 72
     1
 10
-0.0000000000000234
 20
-3.000000000000002
 11
-0.0000000000000234
 21
0.0
 72
     1
 10
-0.0000000000000234
 20
0.0
 11
-3.000000000000026
 21
0.0
 97
        0
 75
     0
 76
     1
 98
        1
 10
0.0
 20
0.0
  0
ENDBLK
  5
135
330
133
100
AcDbEntity
  8
0
100
AcDbBlockEnd
  0
ENDSEC
  0
SECTION
  2
ENTITIES
  0
LINE
  5
96
330
1F
100
AcDbEntity
  8
외형선
  6
Continuous
370
    15
100
AcDbLine
 10
8.950101957778484
 20
7.937499999999996
 30
0.0
 11
-56.84999999999994
 21
7.937499999999993
 31
0.0
  0
LINE
  5
97
330
1F
100
AcDbEntity
  8
외형선
  6
Continuous
370
    15
100
AcDbLine
 10
-56.84999999999994
 20
-7.937500000000007
 30
0.0
 11
8.950101957778484
 21
-7.937500000000004
 31
0.0
  0
LINE
  5
98
330
1F
100
AcDbEntity
  8
외형선
  6
Continuous
370
    15
100
AcDbLine
 10
-56.84999999999994
 20
7.937499999999991
 30
0.0
 11
-57.84999999999994
 21
6.937499999999988
 31
0.0
  0
LINE
  5
99
330
1F
100
AcDbEntity
  8
외형선
  6
Continuous
370
    15
100
AcDbLine
 10
-57.84999999999994
 20
-6.937500000000005
 30
0.0
 11
-56.84999999999994
 21
-7.937500000000005
 31
0.0
  0
SPLINE
  5
9A
330
1F
100
AcDbEntity
  8
외형선
  6
Continuous
370
    15
100
AcDbSpline
210
0.0
220
0.0
230
1.0
 70
     8
 71
     3
 72
     9
 73
     5
 74
     0
 42
0.000000001
 43
0.00000001
 40
0.0
 40
0.0
 40
0.0
 40
0.0
 40
0.4996517733598093
 40
1.0
 40
1.0
 40
1.0
 40
1.0
 10
9.21864809996481
 20
-5.936605579385689
 30
0.0
 10
9.681228923125115
 20
-5.872953366395883
 30
0.0
 10
10.60703535036898
 20
-5.7455602170395
 30
0.0
 10
11.53546291464878
 20
-5.637356128641093
 30
0.0
 10
12.00000000000005
 20
-5.58321640489573
 30
0.0
  0
SPLINE
  5
9B
330
1F
100
AcDbEntity
  8
외형선
  6
Continuous
370
    15
100
AcDbSpline
210
0.0
220
0.0
230
1.0
 70
     8
 71
     3
 72
     9
 73
     5
 74
     0
 42
0.000000001
 43
0.00000001
 40
0.0
 40
0.0
 40
0.0
 40
0.0
 40
0.4688498801289985
 40
1.0
 40
1.0
 40
1.0
 40
1.0
 10
12.00000000000004
 20
5.5832178384542
 30
0.0
 10
11.59201073491459
 20
5.631258933685817
 30
0.0
 10
10.72181905442787
 20
5.733724770337839
 30
0.0
 10
9.866597167565168
 20
5.859753871738792
 30
0.0
 10
9.412345959841737
 20
5.926694244055143
 30
0.0
  0
SPLINE
  5
9C
330
1F
100
AcDbEntity
  8
0
  6
Continuous
 62
     1
370
    15
100
AcDbSpline
210
0.0
220
0.0
230
1.0
 70
     8
 71
     3
 72
     9
 73
     5
 74
     0
 42
0.000000001
 43
0.00000001
 40
0.0
 40
0.0
 40
0.0
 40
0.0
 40
0.437034351305001
 40
1.0
 40
1.0
 40
1.0
 40
1.0
 10
48.58517586000124
 20
2.033996455368885
 30
0.0
 10
48.26455573873046
 20
2.186554135190271
 30
0.0
 10
47.5309289189773
 20
2.535628937584734
 30
0.0
 10
46.79736500675407
 20
2.919285642237862
 30
0.0
 10
46.38439372305007
 20
3.135271187849094
 30
0.0
  0
LINE
  5
9D
330
1F
100
AcDbEntity
  8
0
  6
Continuous
 62
     1
370
    15
100
AcDbLine
 10
30.37073164049511
 20
7.937500000000002
 30
0.0
 11
26.52330569126024
 21
7.937500000000002
 31
0.0
  0
LINE
  5
9E
330
1F
100
AcDbEntity
  8
0
  6
Continuous
 62
     1
370
    15
100
AcDbLine
 10
26.52330569126027
 20
-7.937500000000009
 30
0.0
 11
30.37073164049509
 21
-7.937500000000009
 31
0.0
  0
SPLINE
  5
9F
330
1F
100
AcDbEntity
  8
0
  6
Continuous
 62
     1
370
    15
100
AcDbSpline
210
0.0
220
0.0
230
1.0
 70
     8
 71
     3
 72
    17
 73
    13
 74
     0
 42
0.000000001
 43
0.00000001
 40
0.0
 40
0.0
 40
0.0
 40
0.0
 40
0.1872728797295178
 40
0.336033537493358
 40
0.4462980048203332
 40
0.5248434951707568
 40
0.6025012747376027
 40
0.7080701457922983
 40
0.8031624903647525
 40
0.8907129854418955
 40
0.9951667649437486
 40
1.0
 40
1.0
 40
1.0
 40
1.0
 10
45.96157702905398
 20
6.307447378003523
 30
0.0
 10
45.5619148185101
 20
6.287793914554264
 30
0.0
 10
44.84477997973661
 20
6.252528675634518
 30
0.0
 10
43.88864939557098
 20
6.222729620121439
 30
0.0
 10
43.15983889475966
 20
6.207755159062339
 30
0.0
 10
42.57674214917922
 20
6.201085854700636
 30
0.0
 10
42.00735681388077
 20
6.198010085948081
 30
0.0
 10
41.40695211370203
 20
6.199636684328798
 30
0.0
 10
40.78539293852969
 20
6.206505729176951
 30
0.0
 10
40.16558447489339
 20
6.218864151070366
 30
0.0
 10
39.74182597565854
 20
6.229069709953898
 30
0.0
 10
39.50601879622766
 20
6.237792901487044
 30
0.0
 10
39.49559018738744
 20
6.238178685976545
 30
0.0
  0
SPLINE
  5
A0
330
1F
100
AcDbEntity
  8
0
  6
Continuous
 62
     1
370
    15
100
AcDbSpline
210
0.0
220
0.0
230
1.0
 70
     8
 71
     3
 72
    24
 73
    20
 74
     0
 42
0.000000001
 43
0.00000001
 40
0.0
 40
0.0
 40
0.0
 40
0.0
 40
0.0938532318229526
 40
0.1742361105761412
 40
0.2421767779411274
 40
0.3018263762611115
 40
0.3549182104728242
 40
0.4027069965443634
 40
0.4546944628510273
 40
0.5064405693273673
 40
0.5606508038974801
 40
0.6140669738961658
 40
0.6606349553569889
 40
0.6845840266662728
 40
0.71038989003079
 40
0.7545625254014997
 40
0.8177152007568447
 40
0.8995266493631284
 40
1.0
 40
1.0
 40
1.0
 40
1.0
 10
34.0239105185147
 20
-6.605088296479394
 30
0.0
 10
34.38351170713261
 20
-6.569758690815676
 30
0.0
 10
35.05110206333404
 20
-6.504170186728278
 30
0.0
 10
36.01634841059759
 20
-6.424394567236219
 30
0.0
 10
36.86134407375488
 20
-6.367259125078686
 30
0.0
 10
37.59257111371154
 20
-6.321935248557738
 30
0.0
 10
38.24343816202299
 20
-6.287143000889445
 30
0.0
 10
38.83905055196658
 20
-6.261331145879598
 30
0.0
 10
39.43221728833728
 20
-6.239306267235165
 30
0.0
 10
40.05771262479931
 20
-6.221021518304402
 30
0.0
 10
40.69215816112641
 20
-6.207870079458638
 30
0.0
 10
41.30986618020638
 20
-6.200442876295474
 30
0.0
 10
41.80713106986212
 20
-6.198442331115797
 30
0.0
 10
42.19115344865598
 20
-6.199064614319402
 30
0.0
 10
42.56399770186365
 20
-6.201146659564697
 30
0.0
 10
43.09482782469145
 20
-6.207055838099204
 30
0.0
 10
43.84940634730332
 20
-6.222072348015897
 30
0.0
 10
44.82978926276832
 20
-6.251965895672827
 30
0.0
 10
45.55941529070342
 20
-6.287732966834723
 30
0.0
 10
45.96157702905398
 20
-6.30744737800353
 30
0.0
  0
SPLINE
  5
A1
330
1F
100
AcDbEntity
  8
0
  6
Continuous
 62
     1
370
    15
100
AcDbSpline
210
0.0
220
0.0
230
1.0
 70
     8
 71
     3
 72
    16
 73
    12
 74
     0
 42
0.000000001
 43
0.00000001
 40
0.0
 40
0.0
 40
0.0
 40
0.0
 40
0.165423986572024
 40
0.2948157580108929
 40
0.3995856694718583
 40
0.5048972756192484
 40
0.6083635065102565
 40
0.6974928908297083
 40
0.8271671422875396
 40
0.9878965238526931
 40
1.0
 40
1.0
 40
1.0
 40
1.0
 10
52.33524346372908
 20
-5.97005167184353
 30
0.0
 10
52.65550181891609
 20
-5.92070295277045
 30
0.0
 10
53.22626070159286
 20
-5.832754522062903
 30
0.0
 10
54.01599662408435
 20
-5.725031187963625
 30
0.0
 10
54.69920952904308
 20
-5.639524102865106
 30
0.0
 10
55.32318261791838
 20
-5.567439006045482
 30
0.0
 10
55.9108646191347
 20
-5.505483677197867
 30
0.0
 10
56.5475516227514
 20
-5.444558780852354
 30
0.0
 10
57.29801625105569
 20
-5.382662486851388
 30
0.0
 10
57.89594966266757
 20
-5.337715081245001
 30
0.0
 10
58.23738341216009
 20
-5.320468584814154
 30
0.0
 10
58.26129400009785
 20
-5.319260813555042
 30
0.0
  0
SPLINE
  5
A2
330
1F
100
AcDbEntity
  8
0
  6
Continuous
 62
     1
370
    15
100
AcDbSpline
210
0.0
220
0.0
230
1.0
 70
     8
 71
     3
 72
    26
 73
    22
 74
     0
 42
0.000000001
 43
0.00000001
 40
0.0
 40
0.0
 40
0.0
 40
0.0
 40
0.0895880482371468
 40
0.1546175892579193
 40
0.1948851152734263
 40
0.231367578434903
 40
0.2794308730746367
 40
0.3503361039383439
 40
0.4075875014639049
 40
0.4495466488408664
 40
0.4884953490967214
 40
0.5279912339360534
 40
0.5799516082402296
 40
0.6467170866593159
 40
0.705583630670946
 40
0.7352680998768213
 40
0.7602887695605162
 40
0.7976542777902585
 40
0.8501812477944904
 40
0.917722343205553
 40
1.0
 40
1.0
 40
1.0
 40
1.0
 10
23.01010360398452
 20
5.428881468784309
 30
0.0
 10
22.68128281708853
 20
5.402190001831432
 30
0.0
 10
22.11377991499193
 20
5.356123920973337
 30
0.0
 10
21.39958753658217
 20
5.3123854800677
 30
0.0
 10
20.87873211129248
 20
5.285343807542008
 30
0.0
 10
20.41936480404832
 20
5.265080472906018
 30
0.0
 10
19.84846358207602
 20
5.244826226668764
 30
0.0
 10
19.20175431523841
 20
5.229745686659952
 30
0.0
 10
18.57783120528124
 20
5.223307028542798
 30
0.0
 10
18.07105961315925
 20
5.223198173804747
 30
0.0
 10
17.62948652408221
 20
5.226774371383725
 30
0.0
 10
17.15081617785071
 20
5.234481936225698
 30
0.0
 10
16.57007580026035
 20
5.249217126015544
 30
0.0
 10
15.91830838834235
 20
5.273564245735251
 30
0.0
 10
15.34844711572866
 20
5.302105524959728
 30
0.0
 10
14.93180387514548
 20
5.326729357636295
 30
0.0
 10
14.59385520819502
 20
5.348491391783556
 30
0.0
 10
14.17240054785771
 20
5.378164666117947
 30
0.0
 10
13.59481327259578
 20
5.4239736074173
 30
0.0
 10
12.85230010935656
 20
5.49073116676333
 30
0.0
 10
12.30213847851273
 20
5.550431520629509
 30
0.0
 10
12.00000000000004
 20
5.5832178384542
 30
0.0
  0
SPLINE
  5
A3
330
1F
100
AcDbEntity
  8
0
  6
Continuous
 62
     1
370
    15
100
AcDbSpline
210
0.0
220
0.0
230
1.0
 70
     8
 71
     3
 72
    10
 73
     6
 74
     0
 42
0.000000001
 43
0.00000001
 40
0.0
 40
0.0
 40
0.0
 40
0.0
 40
0.4324329303007823
 40
0.7830730544014445
 40
1.0
 40
1.0
 40
1.0
 40
1.0
 10
12.00000000000004
 20
-5.583217838454208
 30
0.0
 10
12.44217723488075
 20
-5.536277644526861
 30
0.0
 10
13.2428958056519
 20
-5.451275790002699
 30
0.0
 10
14.26499673646804
 20
-5.36890671198102
 30
0.0
 10
14.84476038627345
 20
-5.333365693636921
 30
0.0
 10
15.06634892520684
 20
-5.319781740366104
 30
0.0
  0
SPLINE
  5
A4
330
1F
100
AcDbEntity
  8
0
  6
Continuous
 62
     1
370
    15
100
AcDbSpline
210
0.0
220
0.0
230
1.0
 70
     8
 71
     3
 72
    25
 73
    21
 74
     0
 42
0.000000001
 43
0.00000001
 40
0.0
 40
0.0
 40
0.0
 40
0.0
 40
0.0784250654032672
 40
0.1413262237154439
 40
0.1958481698380322
 40
0.2462397331241294
 40
0.2903913817314542
 40
0.347043096183121
 40
0.4203104226991748
 40
0.4918058634462283
 40
0.5494812029695626
 40
0.6027683262966602
 40
0.6709043542483887
 40
0.7403520944291572
 40
0.7733208625603606
 40
0.8007807942929714
 40
0.825375820160019
 40
0.8651578682721891
 40
0.9234510996102816
 40
1.0
 40
1.0
 40
1.0
 40
1.0
 10
66.20130331772418
 20
5.428890288922601
 30
0.0
 10
65.85086503509285
 20
5.400232256620286
 30
0.0
 10
65.21935623271004
 20
5.348588927238595
 30
0.0
 10
64.29919114640815
 20
5.295238161908217
 30
0.0
 10
63.5085959849586
 20
5.260152817503798
 30
0.0
 10
62.81931354762769
 20
5.238911545393685
 30
0.0
 10
62.12039540066797
 20
5.225806870861626
 30
0.0
 10
61.31489356031769
 20
5.221097615193942
 30
0.0
 10
60.38400361197557
 20
5.231307940196872
 30
0.0
 10
59.44779817590324
 20
5.258873710132589
 30
0.0
 10
58.6040433628968
 20
5.297584522092943
 30
0.0
 10
57.77610478928629
 20
5.347361840035722
 30
0.0
 10
56.89388133981898
 20
5.413412753998129
 30
0.0
 10
56.10463606380207
 20
5.485688035110847
 30
0.0
 10
55.50480742632296
 20
5.548206167518685
 30
0.0
 10
55.11396038048466
 20
5.59160972274273
 30
0.0
 10
54.69578975175231
 20
5.640336586986733
 30
0.0
 10
54.1282272070334
 20
5.710713374911959
 30
0.0
 10
53.3188152035512
 20
5.819263672024354
 30
0.0
 10
52.69141436834875
 20
5.915448335729883
 30
0.0
 10
52.33524346372908
 20
5.970051671843522
 30
0.0
  0
SPLINE
  5
A5
330
1F
100
AcDbEntity
  8
외형선
  6
Continuous
370
    15
100
AcDbSpline
210
0.0
220
0.0
230
1.0
 70
     8
 71
     3
 72
    10
 73
     6
 74
     0
 42
0.000000001
 43
0.00000001
 40
0.0
 40
0.0
 40
0.0
 40
0.0
 40
0.5
 40
0.5
 40
1.0
 40
1.0
 40
1.0
 40
1.0
 10
11.99999999999985
 20
-1.844123396931537
 30
0.0
 10
11.49208539456881
 20
-1.558766795644388
 30
0.0
 10
10.98143762607659
 20
-1.269109473666325
 30
0.0
 10
9.964075929975238
 20
-0.6865172240906793
 30
0.0
 10
9.459130458188401
 20
-0.3939323604698864
 30
0.0
 10
8.950208767414107
 20
-0.1003776384583739
 30
0.0
  0
LINE
  5
A6
330
1F
100
AcDbEntity
  8
외형선
  6
Continuous
370
    15
100
AcDbLine
 10
12.00000000000004
 20
-1.84412339693165
 30
0.0
 11
12.00000000000004
 21
-3.904597444026736
 31
0.0
  0
SPLINE
  5
A7
330
1F
100
AcDbEntity
  8
외형선
  6
Continuous
370
    15
100
AcDbSpline
210
0.0
220
0.0
230
1.0
 70
     8
 71
     3
 72
    10
 73
     6
 74
     0
 42
0.000000001
 43
0.00000001
 40
0.0
 40
0.0
 40
0.0
 40
0.0
 40
0.5
 40
0.5
 40
1.0
 40
1.0
 40
1.0
 40
1.0
 10
11.99999999999984
 20
-3.904597444026631
 30
0.0
 10
11.49206762819382
 20
-3.649155732837919
 30
0.0
 10
10.98140190214746
 20
-3.38523072274951
 30
0.0
 10
9.964004894854144
 20
-2.845251606393825
 30
0.0
 10
9.459041681669664
 20
-2.569546434558426
 30
0.0
 10
8.950101957778466
 20
-2.288424129400237
 30
0.0
  0
LINE
  5
A8
330
1F
100
AcDbEntity
  8
외형선
  6
Continuous
370
    15
100
AcDbLine
 10
8.950101957778484
 20
-7.937500000000004
 30
0.0
 11
8.950101957778466
 21
-2.28842500538217
 31
0.0
  0
LINE
  5
A9
330
1F
100
AcDbEntity
  8
외형선
  6
Continuous
370
    15
100
AcDbLine
 10
-56.84999999999994
 20
7.937499999999991
 30
0.0
 11
-56.84999999999994
 21
-7.937500000000007
 31
0.0
  0
LINE
  5
AA
330
1F
100
AcDbEntity
  8
외형선
  6
Continuous
370
    15
100
AcDbLine
 10
8.950101957778475
 20
-0.1000374866477795
 30
0.0
 11
8.950101957778484
 21
7.937499999999996
 31
0.0
  0
SPLINE
  5
AB
330
1F
100
AcDbEntity
  8
외형선
  6
Continuous
370
    15
100
AcDbSpline
210
0.0
220
0.0
230
1.0
 70
    24
 71
     3
 72
     8
 73
     4
 74
     0
 42
0.000000001
 43
0.00000001
 40
0.0
 40
0.0
 40
0.0
 40
0.0
 40
1.0
 40
1.0
 40
1.0
 40
1.0
 10
12.0000000000001
 20
-1.169135029914459
 30
0.0
 10
12.0000000000001
 20
-1.364303016054355
 30
0.0
 10
12.00000000000009
 20
-1.590612838387829
 30
0.0
 10
12.00000000000009
 20
-1.844123396923254
 30
0.0
  0
SPLINE
  5
AC
330
1F
100
AcDbEntity
  8
외형선
  6
Continuous
370
    15
100
AcDbSpline
210
0.0
220
0.0
230
1.0
 70
     8
 71
     3
 72
    10
 73
     6
 74
     0
 42
0.000000001
 43
0.00000001
 40
0.0
 40
0.0
 40
0.0
 40
0.0
 40
0.5
 40
0.5
 40
1.0
 40
1.0
 40
1.0
 40
1.0
 10
11.99999999999958
 20
-1.169135029914209
 30
0.0
 10
11.49208539456859
 20
-0.9235308553584334
 30
0.0
 10
10.98143762607642
 20
-0.6750844952267357
 30
0.0
 10
9.964075929975154
 20
-0.1770763367944894
 30
0.0
 10
9.45913045818836
 20
0.0721907763048695
 30
0.0
 10
8.950208767414113
 20
0.3214488586734229
 30
0.0
  0
LINE
  5
AD
330
1F
100
AcDbEntity
  8
외형선
  6
Continuous
370
    15
100
AcDbLine
 10
-57.84999999999994
 20
6.937499999999989
 30
0.0
 11
-57.84999999999994
 21
-6.937500000000005
 31
0.0
  0
SPLINE
  5
AE
330
1F
100
AcDbEntity
  8
외형선
  6
Continuous
370
    15
100
AcDbSpline
210
0.0
220
0.0
230
1.0
 70
     8
 71
     3
 72
    10
 73
     6
 74
     0
 42
0.000000001
 43
0.00000001
 40
0.0
 40
0.0
 40
0.0
 40
0.0
 40
0.5
 40
0.5
 40
1.0
 40
1.0
 40
1.0
 40
1.0
 10
11.99999999999948
 20
5.395501754745959
 30
0.0
 10
11.49207411560238
 20
5.519263505014377
 30
0.0
 10
10.98141494677497
 20
5.632155082661991
 30
0.0
 10
9.964030833392506
 20
5.834085164231325
 30
0.0
 10
9.45907409850965
 20
5.923069845583804
 30
0.0
 10
8.950140959425003
 20
5.999971299290118
 30
0.0
  0
SPLINE
  5
AF
330
1F
100
AcDbEntity
  8
외형선
  6
Continuous
370
    15
100
AcDbSpline
210
0.0
220
0.0
230
1.0
 70
    24
 71
     3
 72
    14
 73
    10
 74
     0
 42
0.000000001
 43
0.00000001
 40
0.0
 40
0.0
 40
0.0
 40
0.0
 40
0.25
 40
0.25
 40
0.5
 40
0.5
 40
0.75
 40
0.75
 40
1.0
 40
1.0
 40
1.0
 40
1.0
 10
12.00000000000002
 20
5.395501754745826
 30
0.0
 10
12.00000000000002
 20
5.014766604863491
 30
0.0
 10
12.00000000000002
 20
4.574018520933209
 30
0.0
 10
12.00000000000002
 20
3.591755450562446
 30
0.0
 10
12.00000000000002
 20
3.050396617925764
 30
0.0
 10
12.00000000000002
 20
1.903063692598499
 30
0.0
 10
12.00000000000002
 20
1.297420914828197
 30
0.0
 10
12.00000000000002
 20
0.0670737814053091
 30
0.0
 10
12.00000000000002
 20
-0.5572790686866321
 30
0.0
 10
12.00000000000002
 20
-1.169135029914422
 30
0.0
  0
ARC
  5
B0
330
1F
100
AcDbEntity
  8
외형선
  6
Continuous
370
    15
100
AcDbCircle
 10
9.300095222729482
 20
-6.299641690696888
 30
0.0
 40
0.3499932649728326
100
AcDbArc
 50
98.77529863358933
 51
179.999360011886
  0
LINE
  5
B1
330
1F
100
AcDbEntity
  8
외형선
  6
Continuous
370
    15
100
AcDbLine
 10
9.670052453259153
 20
-5.876078095812055
 30
0.0
 11
9.47705791804337
 21
-5.915885261303619
 31
0.0
  0
LWPOLYLINE
  5
B2
330
1F
100
AcDbEntity
  8
외형선
  6
Continuous
370
    15
100
AcDbPolyline
 90
        9
 70
   128
 43
0.0
 10
9.246951436389356
 20
-5.950871679451112
 10
9.390953949669068
 20
-5.927897304076527
 10
9.44843126040128
 20
-5.919960785249967
 10
9.466343717938184
 20
-5.917491813924012
 10
9.472594968377575
 20
-5.916585103326628
 10
9.475044485145451
 20
-5.916210190613954
 10
9.47610022941286
 20
-5.91604205598149
 10
9.477043301718004
 20
-5.91588672264927
 10
9.477043301718004
 20
-5.91588672264927
  0
SPLINE
  5
B3
330
1F
100
AcDbEntity
  8
외형선
  6
Continuous
370
    15
100
AcDbSpline
210
0.0
220
0.0
230
1.0
 70
     8
 71
     3
 72
    11
 73
     7
 74
     0
 42
0.000000001
 43
0.00000001
 40
0.0
 40
0.0
 40
0.0
 40
0.0
 40
0.0001300283557588
 40
0.0001300283557588
 40
0.0001300283557588
 40
0.0001300883557588
 40
0.0001300883557588
 40
0.0001300883557588
 40
0.0001300883557588
 10
9.246700328312736
 20
-5.953745361175211
 30
0.0
 10
9.24635843673492
 20
-5.954122464116939
 30
0.0
 10
9.246018716808246
 20
-5.954177555156067
 30
0.0
 10
9.245681221018012
 20
-5.953910587442986
 30
0.0
 10
9.245681065284693
 20
-5.95391046425399
 30
0.0
 10
9.245680909551883
 20
-5.953910340927846
 30
0.0
 10
9.245680753819475
 20
-5.953910217670278
 30
0.0
  0
SPLINE
  5
B4
330
1F
100
AcDbEntity
  8
외형선
  6
Continuous
370
    15
100
AcDbSpline
210
0.0
220
0.0
230
1.0
 70
    24
 71
     3
 72
    11
 73
     7
 74
     0
 42
0.000000001
 43
0.00000001
 40
0.0
 40
0.0
 40
0.0
 40
0.0
 40
0.2406491389984372
 40
0.5126737180682305
 40
0.7925870283593024
 40
1.0
 40
1.0
 40
1.0
 40
1.0
 10
12.00000000000004
 20
-3.992634695785704
 30
0.0
 10
12.00000000000004
 20
-4.228806336307093
 30
0.0
 10
12.00000000000004
 20
-4.731941288513009
 30
0.0
 10
12.00000000000004
 20
-5.235663517066517
 30
0.0
 10
12.00000000000004
 20
-5.546960861843253
 30
0.0
 10
12.00000000000004
 20
-5.556374765076117
 30
0.0
 10
12.00000000000004
 20
-5.560381455699339
 30
0.0
  0
SPLINE
  5
B5
330
1F
100
AcDbEntity
  8
외형선
  6
Continuous
370
    15
100
AcDbSpline
210
0.0
220
0.0
230
1.0
 70
    24
 71
     3
 72
     9
 73
     5
 74
     0
 42
0.000000001
 43
0.00000001
 40
0.0
 40
0.0
 40
0.0
 40
0.0
 40
0.1922589407543461
 40
1.0
 40
1.0
 40
1.0
 40
1.0
 10
12.00000000000004
 20
5.560531692791742
 30
0.0
 10
12.00000000000004
 20
5.567226362660258
 30
0.0
 10
12.00000000000004
 20
5.602047473409382
 30
0.0
 10
12.00000000000004
 20
5.487791221051118
 30
0.0
 10
12.00000000000004
 20
5.395501754745819
 30
0.0
  0
SPLINE
  5
B6
330
1F
100
AcDbEntity
  8
0
  6
Continuous
 62
     1
370
    15
100
AcDbSpline
210
0.0
220
0.0
230
1.0
 70
     8
 71
     3
 72
    23
 73
    19
 74
     0
 42
0.000000001
 43
0.00000001
 40
0.0
 40
0.0
 40
0.0
 40
0.0
 40
0.0646992974610512
 40
0.1293913935051234
 40
0.1940774654429184
 40
0.2587586961147
 40
0.32343627281162
 40
0.388111386188332
 40
0.4527852291690114
 40
0.5174589958489185
 40
0.582133880393665
 40
0.6468110759383366
 40
0.7114917734886466
 40
0.7761771608262642
 40
0.8408684214204684
 40
0.9055667333482431
 40
0.9702668987641689
 40
1.0
 40
1.0
 40
1.0
 40
1.0
 10
69.15000000000003
 20
-7.532218149528211
 30
0.0
 10
68.31362779327141
 20
-7.355728420289159
 30
0.0
 10
66.64097647301983
 20
-7.002768606168606
 30
0.0
 10
64.13219704233056
 20
-6.173808596595979
 30
0.0
 10
61.62369318752252
 20
-5.157872558046445
 30
0.0
 10
59.11541579773824
 20
-3.965935166453717
 30
0.0
 10
56.60730806871404
 20
-2.643665643097927
 30
0.0
 10
54.09931503483318
 20
-1.233318941553299
 30
0.0
 10
51.59138108418036
 20
0.2178629702132151
 30
0.0
 10
49.08345068742363
 20
1.661832036602628
 30
0.0
 10
46.57546828844421
 20
3.050663623262548
 30
0.0
 10
44.06737833510333
 20
4.338177339455866
 30
0.0
 10
41.55912558772357
 20
5.481996475488428
 30
0.0
 10
39.05065417587157
 20
6.442801403515498
 30
0.0
 10
36.54191138344869
 20
7.193708656720411
 30
0.0
 10
34.03291610598094
 20
7.690991972516864
 30
0.0
 10
31.97579319800291
 20
7.934605170341928
 30
0.0
 10
30.75508256088546
 20
7.911866098299764
 30
0.0
 10
30.37073164049511
 20
7.904706511905998
 30
0.0
  0
SPLINE
  5
B7
330
1F
100
AcDbEntity
  8
0
  6
Continuous
 62
     1
370
    15
100
AcDbSpline
210
0.0
220
0.0
230
1.0
 70
     8
 71
     3
 72
    16
 73
    12
 74
     0
 42
0.000000001
 43
0.00000001
 40
0.0
 40
0.0
 40
0.0
 40
0.0
 40
0.1217844328333973
 40
0.243554704717644
 40
0.3653131304836357
 40
0.487062035967987
 40
0.6088037558663084
 40
0.7305406315690137
 40
0.8522750089838903
 40
0.974009236349738
 40
1.0
 40
1.0
 40
1.0
 40
1.0
 10
69.15000000000003
 20
-6.262467348422719
 30
0.0
 10
68.31362870248348
 20
-6.089666446804595
 30
0.0
 10
66.64098335971109
 20
-5.744084736651874
 30
0.0
 10
64.13220209198697
 20
-4.979266533016121
 30
0.0
 10
61.62369743033185
 20
-4.064133310079733
 30
0.0
 10
59.11541896539918
 20
-3.009991594803197
 30
0.0
 10
56.60731017346479
 20
-1.857487924263501
 30
0.0
 10
54.09931627262572
 20
-0.6413479323122592
 30
0.0
 10
51.59138064323018
 20
0.5896109529216687
 30
0.0
 10
49.7409543983479
 20
1.501000311332167
 30
0.0
 10
48.72649571311351
 20
1.96395953405545
 30
0.0
 10
48.54801165473231
 20
2.045412669741867
 30
0.0
  0
LINE
  5
B8
330
1F
100
AcDbEntity
  8
0
  6
Continuous
 62
     1
370
    15
100
AcDbLine
 10
69.15000000000003
 20
-7.532218149528216
 30
0.0
 11
69.15000000000003
 21
-6.262467348422719
 31
0.0
  0
SPLINE
  5
B9
330
1F
100
AcDbEntity
  8
0
  6
Continuous
 62
     1
370
    15
100
AcDbSpline
210
0.0
220
0.0
230
1.0
 70
     8
 71
     3
 72
    29
 73
    25
 74
     0
 42
0.000000001
 43
0.00000001
 40
0.0
 40
0.0
 40
0.0
 40
0.0
 40
0.0320760632187403
 40
0.0764426290209721
 40
0.1208093182757616
 40
0.1651794220669226
 40
0.2115561012558794
 40
0.2579363603413037
 40
0.3043210468910347
 40
0.3507109059015092
 40
0.3970994328619512
 40
0.4434829045326544
 40
0.4898621655326874
 40
0.5362380643467993
 40
0.5826114525512209
 40
0.6289831840334142
 40
0.6753541142072869
 40
0.7217250992254136
 40
0.768096995189804
 40
0.814470657362772
 40
0.860846939379453
 40
0.9072266924635151
 40
0.9536107646475983
 40
1.0
 40
1.0
 40
1.0
 40
1.0
 10
15.06489637456274
 20
5.319183957747021
 30
0.0
 10
15.64314554066569
 20
5.564846916004432
 30
0.0
 10
17.02121011750158
 20
6.150302875927038
 30
0.0
 10
19.19904159275904
 20
6.868451069080892
 30
0.0
 10
21.59851585202159
 20
7.47239460371272
 30
0.0
 10
24.03422796456597
 20
7.849052395275266
 30
0.0
 10
26.50644855981502
 20
7.981729954097282
 30
0.0
 10
29.01497934503521
 20
7.850929161449439
 30
0.0
 10
31.52380302448324
 20
7.459586358155271
 30
0.0
 10
34.03285180097187
 20
6.820570033408343
 30
0.0
 10
36.54185438274692
 20
5.955108125890742
 30
0.0
 10
39.05060074014547
 20
4.891929294541631
 30
0.0
 10
41.55907673769229
 20
3.666389621748061
 30
0.0
 10
44.0673338290726
 20
2.319174976247643
 30
0.0
 10
46.57542821811787
 20
0.8950054003381253
 30
0.0
 10
49.08341505032318
 20
-0.5588502442346961
 30
0.0
 10
51.59134989817604
 20
-1.994152831623045
 30
0.0
 10
54.09928830743689
 20
-3.363238336744103
 30
0.0
 10
56.60728580529614
 20
-4.620795178243965
 30
0.0
 10
59.11539799931531
 20
-5.724624401402611
 30
0.0
 10
61.62367985137679
 20
-6.639803544680643
 30
0.0
 10
64.13218816176888
 20
-7.329522175744895
 30
0.0
 10
66.64097203778023
 20
-7.794830133497566
 30
0.0
 10
68.31362631618408
 20
-7.885469260291564
 30
0.0
 10
69.15000000000003
 20
-7.937499999999988
 30
0.0
  0
SPLINE
  5
BA
330
1F
100
AcDbEntity
  8
0
  6
Continuous
 62
     1
370
    15
100
AcDbSpline
210
0.0
220
0.0
230
1.0
 70
     8
 71
     3
 72
    17
 73
    13
 74
     0
 42
0.000000001
 43
0.00000001
 40
0.0
 40
0.0
 40
0.0
 40
0.0
 40
0.0507636008498512
 40
0.1646849141779467
 40
0.2785798349418544
 40
0.3924907323797191
 40
0.5064264042974418
 40
0.6203787269109637
 40
0.7343395346216053
 40
0.8483006404910827
 40
0.962253856830875
 40
0.9999999999999999
 40
0.9999999999999999
 40
0.9999999999999999
 40
0.9999999999999999
 10
49.41952915509934
 20
-0.7470574315524208
 30
0.0
 10
48.97249082605135
 20
-0.5691674990390401
 30
0.0
 10
47.52222985911806
 20
0.0079347509715149
 30
0.0
 10
45.06902955914499
 20
1.008103983121386
 30
0.0
 10
42.05985282764456
 20
2.179099880523565
 30
0.0
 10
39.05047618946732
 20
3.247999008969915
 30
0.0
 10
36.04052216885876
 20
4.161632099312905
 30
0.0
 10
33.03008471650928
 20
4.875487922205422
 30
0.0
 10
30.01939861876487
 20
5.361320019810257
 30
0.0
 10
27.0087084952229
 20
5.57326379818373
 30
0.0
 10
24.6691988404637
 20
5.583075165381623
 30
0.0
 10
23.33330687562677
 20
5.436251379184348
 30
0.0
 10
23.00090751991127
 20
5.399718386082887
 30
0.0
  0
LINE
  5
BB
330
1F
100
AcDbEntity
  8
0
  6
Continuous
 62
     1
370
    15
100
AcDbLine
 10
69.15000000000005
 20
-7.937499999999992
 30
0.0
 11
69.1500000000006
 21
-7.532218149528217
 31
0.0
  0
SPLINE
  5
BC
330
1F
100
AcDbEntity
  8
0
  6
Continuous
 62
     1
370
    15
100
AcDbSpline
210
0.0
220
0.0
230
1.0
 70
     8
 71
     3
 72
    19
 73
    15
 74
     0
 42
0.000000001
 43
0.00000001
 40
0.0
 40
0.0
 40
0.0
 40
0.0
 40
0.0161712677568465
 40
0.1074098382851911
 40
0.1986583537982122
 40
0.2899094834140939
 40
0.3811504376386008
 40
0.4723826830218747
 40
0.5636078868935743
 40
0.6508867954308724
 40
0.7381589894963002
 40
0.8254309417884566
 40
0.9127091255502956
 40
1.0
 40
1.0
 40
1.0
 40
1.0
 10
39.49536609340883
 20
-6.238264119514008
 30
0.0
 10
39.34715183182134
 20
-6.295589550225047
 30
0.0
 10
38.36271015983606
 20
-6.676346045936074
 30
0.0
 10
36.54190970522141
 20
-7.179797381266211
 30
0.0
 10
34.03291440711902
 20
-7.703305855534125
 30
0.0
 10
31.52386932818164
 20
-7.952782661777696
 30
0.0
 10
29.01505040599875
 20
-7.94313045659624
 30
0.0
 10
26.50652406190085
 20
-7.668456746729058
 30
0.0
 10
24.03430135321802
 20
-7.147212202461487
 30
0.0
 10
21.59857954138258
 20
-6.408249012344671
 30
0.0
 10
19.19909129873349
 20
-5.485769585886863
 30
0.0
 10
16.79961804146815
 20
-4.395466734144821
 30
0.0
 10
14.39994441958173
 20
-3.175536407645432
 30
0.0
 10
12.80002024321239
 20
-2.287949242212242
 30
0.0
 10
11.99999999999573
 20
-1.844123396929229
 30
0.0
  0
SPLINE
  5
BD
330
1F
100
AcDbEntity
  8
외형선
  6
Continuous
370
    15
100
AcDbSpline
210
0.0
220
0.0
230
1.0
 70
    24
 71
     3
 72
     8
 73
     4
 74
     0
 42
0.000000001
 43
0.00000001
 40
0.0
 40
0.0
 40
0.0
 40
0.0
 40
1.0
 40
1.0
 40
1.0
 40
1.0
 10
12.0000000000001
 20
-1.169135029914459
 30
0.0
 10
12.0000000000001
 20
-1.364303016054355
 30
0.0
 10
12.00000000000009
 20
-1.59061283838783
 30
0.0
 10
12.00000000000009
 20
-1.844123396923254
 30
0.0
  0
SPLINE
  5
BE
330
1F
100
AcDbEntity
  8
0
  6
Continuous
 62
     1
370
    15
100
AcDbSpline
210
0.0
220
0.0
230
1.0
 70
     8
 71
     3
 72
    16
 73
    12
 74
     0
 42
0.000000001
 43
0.00000001
 40
0.0
 40
0.0
 40
0.0
 40
0.0
 40
0.1135146915076335
 40
0.2274227316565542
 40
0.3413194134096427
 40
0.455206911199372
 40
0.5690874080026782
 40
0.6829630933183988
 40
0.7968361611318193
 40
0.8984038258291867
 40
1.0
 40
1.0
 40
1.0
 40
1.0
 10
34.02397781772204
 20
-6.604683733267199
 30
0.0
 10
33.19057837664555
 20
-6.667168086787981
 30
0.0
 10
31.52089161686682
 20
-6.792353313253003
 30
0.0
 10
29.0150576065693
 20
-6.696291129962598
 30
0.0
 10
26.50651976156172
 20
-6.393689258774957
 30
0.0
 10
23.99821742381388
 20
-5.874605526425623
 30
0.0
 10
21.49008311325666
 20
-5.161621763285351
 30
0.0
 10
18.98210335563433
 20
-4.277181223086227
 30
0.0
 10
16.5644052062565
 20
-3.287212961683643
 30
0.0
 10
14.23726016716868
 20
-2.241508004024603
 30
0.0
 10
12.7458231522651
 20
-1.526626127146496
 30
0.0
 10
12.00000000000002
 20
-1.169135029914422
 30
0.0
  0
SPLINE
  5
BF
330
1F
100
AcDbEntity
  8
0
  6
Continuous
 62
     1
370
    15
100
AcDbSpline
210
0.0
220
0.0
230
1.0
 70
     8
 71
     3
 72
    14
 73
    10
 74
     0
 42
0.000000001
 43
0.00000001
 40
0.0
 40
0.0
 40
0.0
 40
0.0
 40
0.1652505220244246
 40
0.3304770172074176
 40
0.4956917155528587
 40
0.6609068736178367
 40
0.8261347469242672
 40
0.9988348178880956
 40
1.0
 40
1.0
 40
1.0
 40
1.0
 10
11.99999999999984
 20
-3.904597444026637
 30
0.0
 10
12.80001490578005
 20
-4.295223262057536
 30
0.0
 10
14.39992839800272
 20
-5.076418102506986
 30
0.0
 10
16.7995859563214
 20
-6.062726107899162
 30
0.0
 10
19.19904324910673
 20
-6.871078094305446
 30
0.0
 10
21.5985151968085
 20
-7.476383518842092
 30
0.0
 10
24.03422895342255
 20
-7.830127512674705
 30
0.0
 10
25.67591252560461
 20
-7.980796005983041
 30
0.0
 10
26.51766457314665
 20
-7.936911194235477
 30
0.0
 10
26.52330569126027
 20
-7.936617094081893
 30
0.0
  0
SPLINE
  5
C0
330
1F
100
AcDbEntity
  8
0
  6
Continuous
 62
     1
370
    15
100
AcDbSpline
210
0.0
220
0.0
230
1.0
 70
     8
 71
     3
 72
    12
 73
     8
 74
     0
 42
0.000000001
 43
0.00000001
 40
0.0
 40
0.0
 40
0.0
 40
0.0
 40
0.0783402837179289
 40
0.3087251399252226
 40
0.5391272394587318
 40
0.7695507951158038
 40
0.9999999999999999
 40
0.9999999999999999
 40
0.9999999999999999
 40
0.9999999999999999
 10
58.26245115348266
 20
5.319767395650469
 30
0.0
 10
58.54675225148284
 20
5.446514804613293
 30
0.0
 10
59.66713236878023
 20
5.946003824950504
 30
0.0
 10
61.6236808909835
 20
6.632347367955556
 30
0.0
 10
64.13218788450386
 20
7.331510751761908
 30
0.0
 10
66.64097210710818
 20
7.794332905639473
 30
0.0
 10
68.31362633929427
 20
7.88530351152286
 30
0.0
 10
69.15000000000005
 20
7.937500000000005
 30
0.0
  0
SPLINE
  5
C1
330
1F
100
AcDbEntity
  8
0
  6
Continuous
 62
     1
370
    15
100
AcDbSpline
210
0.0
220
0.0
230
1.0
 70
     8
 71
     3
 72
     8
 73
     4
 74
     0
 42
0.000000001
 43
0.00000001
 40
0.0
 40
0.0
 40
0.0
 40
0.0
 40
1.0
 40
1.0
 40
1.0
 40
1.0
 10
64.23883024581502
 20
2.220079671996139
 30
0.0
 10
64.2089047179147
 20
2.255523819275236
 30
0.0
 10
64.17929209920989
 20
2.290863161820202
 30
0.0
 10
64.15000000000802
 20
2.326095150660733
 30
0.0
  0
LINE
  5
C2
330
1F
100
AcDbEntity
  8
0
  6
Continuous
 62
     1
370
    15
100
AcDbLine
 10
64.15000000000005
 20
2.93771943529659
 30
0.0
 11
69.15000000000003
 21
0.0000000000000038
 31
0.0
  0
LINE
  5
C3
330
1F
100
AcDbEntity
  8
0
  6
Continuous
 62
     1
370
    15
100
AcDbLine
 10
69.15000000000003
 20
0.0000000000000038
 30
0.0
 11
69.15000000000003
 21
-2.121240884110303
 31
0.0
  0
SPLINE
  5
C4
330
1F
100
AcDbEntity
  8
0
  6
Continuous
 62
     1
370
    15
100
AcDbSpline
210
0.0
220
0.0
230
1.0
 70
     8
 71
     3
 72
    12
 73
     8
 74
     0
 42
0.000000001
 43
0.00000001
 40
0.0
 40
0.0
 40
0.0
 40
0.0
 40
0.5
 40
0.5
 40
0.75
 40
0.75
 40
1.0
 40
1.0
 40
1.0
 40
1.0
 10
69.15000000000003
 20
-2.121240884110303
 30
0.0
 10
68.29985708373022
 20
-1.452887382416913
 30
0.0
 10
67.4639164266329
 20
-0.7571355301524669
 30
0.0
 10
66.23186851419038
 20
0.3286694918016468
 30
0.0
 10
65.82488238863043
 20
0.6977356413040463
 30
0.0
 10
65.01922911848989
 20
1.451916538950706
 30
0.0
 10
64.62274411284291
 20
1.835090379294047
 30
0.0
 10
64.23883024581501
 20
2.220079671996145
 30
0.0
  0
SPLINE
  5
C5
330
1F
100
AcDbEntity
  8
0
  6
Continuous
 62
     1
370
    15
100
AcDbSpline
210
0.0
220
0.0
230
1.0
 70
    24
 71
     3
 72
    10
 73
     6
 74
     0
 42
0.000000001
 43
0.00000001
 40
0.0
 40
0.0
 40
0.0
 40
0.0
 40
0.5
 40
0.5
 40
1.0
 40
1.0
 40
1.0
 40
1.0
 10
69.15000000000003
 20
5.556249999999995
 30
0.0
 10
69.15000000000003
 20
5.893056038408049
 30
0.0
 10
69.15000000000006
 20
6.28445584663274
 30
0.0
 10
69.15000000000003
 20
7.10561159012679
 30
0.0
 10
69.15000000000005
 20
7.533270396674189
 30
0.0
 10
69.15000000000005
 20
7.937500000000008
 30
0.0
  0
LINE
  5
C6
330
1F
100
AcDbEntity
  8
0
  6
Continuous
 62
     1
370
    15
100
AcDbLine
 10
69.15000000000003
 20
5.556249999999996
 30
0.0
 11
66.20074895687291
 21
5.42627430092622
 31
0.0
  0
SPLINE
  5
C7
330
1F
100
AcDbEntity
  8
0
  6
Continuous
 62
     1
370
    15
100
AcDbSpline
210
0.0
220
0.0
230
1.0
 70
     8
 71
     3
 72
    15
 73
    11
 74
     0
 42
0.000000001
 43
0.00000001
 40
0.0
 40
0.0
 40
0.0
 40
0.0
 40
0.1430649169373537
 40
0.2802836611130469
 40
0.4174941934796095
 40
0.5546991897096109
 40
0.6919013306574796
 40
0.829103299851672
 40
0.9663077809815254
 40
1.0
 40
1.0
 40
1.0
 40
1.0
 10
64.23883024581502
 20
2.220079671996132
 30
0.0
 10
63.36709034297996
 20
2.589575867744786
 30
0.0
 10
61.65923312168835
 20
3.313469249356471
 30
0.0
 10
59.1154119200498
 20
4.256408283900795
 30
0.0
 10
56.60729592299425
 20
5.050590244158536
 30
0.0
 10
54.09929970632255
 20
5.674454331514264
 30
0.0
 10
51.59136151627578
 20
6.114860142568746
 30
0.0
 10
49.08342602982803
 20
6.335358651670373
 30
0.0
 10
47.20617638413954
 20
6.390046017758256
 30
0.0
 10
46.1648926375976
 20
6.304752586095195
 30
0.0
 10
45.95960394554901
 20
6.287937018691408
 30
0.0
  0
SPLINE
  5
C8
330
1F
100
AcDbEntity
  8
0
  6
Continuous
 62
     1
370
    15
100
AcDbSpline
210
0.0
220
0.0
230
1.0
 70
    24
 71
     3
 72
    10
 73
     6
 74
     0
 42
0.000000001
 43
0.00000001
 40
0.0
 40
0.0
 40
0.0
 40
0.0
 40
0.5
 40
0.5
 40
1.0
 40
1.0
 40
1.0
 40
1.0
 10
69.15000000000003
 20
-6.262467348422716
 30
0.0
 10
69.15000000000005
 20
-5.782400400217703
 30
0.0
 10
69.15000000000006
 20
-5.175817403507597
 30
0.0
 10
69.15000000000002
 20
-3.765570313258522
 30
0.0
 10
69.15000000000005
 20
-2.963127829219771
 30
0.0
 10
69.15000000000003
 20
-2.121240884110557
 30
0.0
  0
SPLINE
  5
C9
330
1F
100
AcDbEntity
  8
0
  6
Continuous
 62
     1
370
    15
100
AcDbSpline
210
0.0
220
0.0
230
1.0
 70
     8
 71
     3
 72
    24
 73
    20
 74
     0
 42
0.000000001
 43
0.00000001
 40
0.0
 40
0.0
 40
0.0
 40
0.0
 40
0.0186507013649222
 40
0.0808151256112298
 40
0.1429806879828502
 40
0.2051486033585262
 40
0.2673200844143736
 40
0.3294963404915526
 40
0.3916785764705425
 40
0.4538679916542433
 40
0.516059296821085
 40
0.5782432564620636
 40
0.6404209286477677
 40
0.7025935169369719
 40
0.7647622296359446
 40
0.8269282786747747
 40
0.8890928784765166
 40
0.944538548098627
 40
1.0
 40
1.0
 40
1.0
 40
1.0
 10
52.34379175692743
 20
-5.947902228995124
 30
0.0
 10
52.09298128553427
 20
-5.993365395087023
 30
0.0
 10
51.00619750439606
 20
-6.190361283151118
 30
0.0
 10
49.08342692019911
 20
-6.33684607585777
 30
0.0
 10
46.57544014908759
 20
-6.371547776254075
 30
0.0
 10
44.06734606629152
 20
-6.180289545256747
 30
0.0
 10
41.55908915296641
 20
-5.787745825087839
 30
0.0
 10
39.05061358605428
 20
-5.20201640832641
 30
0.0
 10
36.54186676370269
 20
-4.443836649282712
 30
0.0
 10
34.03287193444278
 20
-3.538047758713792
 30
0.0
 10
31.52383613565254
 20
-2.514843070329808
 30
0.0
 10
29.01501442155485
 20
-1.408092208857301
 30
0.0
 10
26.50647320977347
 20
-0.2546623238281013
 30
0.0
 10
23.99816753942378
 20
0.9072516820908741
 30
0.0
 10
21.49003066359637
 20
2.038783484577753
 30
0.0
 10
18.98204528622072
 20
3.103509479536847
 30
0.0
 10
16.56436985749944
 20
4.02737226892862
 30
0.0
 10
14.23722392257567
 20
4.809271535052162
 30
0.0
 10
12.74581205103967
 20
5.200073144261543
 30
0.0
 10
12.00000000000004
 20
5.395501754745821
 30
0.0
  0
SPLINE
  5
CA
330
1F
100
AcDbEntity
  8
외형선
  6
Continuous
370
    15
100
AcDbSpline
210
0.0
220
0.0
230
1.0
 70
    24
 71
     3
 72
    14
 73
    10
 74
     0
 42
0.000000001
 43
0.00000001
 40
0.0
 40
0.0
 40
0.0
 40
0.0
 40
0.25
 40
0.25
 40
0.5
 40
0.5
 40
0.75
 40
0.75
 40
1.0
 40
1.0
 40
1.0
 40
1.0
 10
12.00000000000002
 20
5.395501754745826
 30
0.0
 10
12.00000000000002
 20
5.014766604863491
 30
0.0
 10
12.00000000000002
 20
4.574018520933209
 30
0.0
 10
12.00000000000002
 20
3.591755450562446
 30
0.0
 10
12.00000000000002
 20
3.050396617925764
 30
0.0
 10
12.00000000000002
 20
1.903063692598499
 30
0.0
 10
12.00000000000002
 20
1.297420914828197
 30
0.0
 10
12.00000000000002
 20
0.0670737814053091
 30
0.0
 10
12.00000000000002
 20
-0.5572790686866321
 30
0.0
 10
12.00000000000002
 20
-1.169135029914422
 30
0.0
  0
SPLINE
  5
CB
330
1F
100
AcDbEntity
  8
외형선
  6
Continuous
370
    15
100
AcDbSpline
210
0.0
220
0.0
230
1.0
 70
    24
 71
     3
 72
     9
 73
     5
 74
     0
 42
0.000000001
 43
0.00000001
 40
0.0
 40
0.0
 40
0.0
 40
0.0
 40
0.1956938754544701
 40
1.0
 40
1.0
 40
1.0
 40
1.0
 10
12.00000000000004
 20
5.560207967176108
 30
0.0
 10
12.00000000000004
 20
5.567084892599827
 30
0.0
 10
12.00000000000004
 20
5.602226132496835
 30
0.0
 10
12.00000000000004
 20
5.48765334745844
 30
0.0
 10
12.00000000000004
 20
5.395501754745819
 30
0.0
  0
SPLINE
  5
CC
330
1F
100
AcDbEntity
  8
0
  6
Continuous
 62
     1
370
    15
100
AcDbSpline
210
0.0
220
0.0
230
1.0
 70
     8
 71
     3
 72
    10
 73
     6
 74
     0
 42
0.000000001
 43
0.00000001
 40
0.0
 40
0.0
 40
0.0
 40
0.0
 40
0.5
 40
0.5
 40
1.0
 40
1.0
 40
1.0
 40
1.0
 10
69.15000000000003
 20
5.556250000000003
 30
0.0
 10
68.3334040481534
 20
5.334809564106325
 30
0.0
 10
67.52174692733267
 20
5.086103314051059
 30
0.0
 10
65.90913907929085
 20
4.529584005730241
 30
0.0
 10
65.10925656940432
 20
4.222666859573493
 30
0.0
 10
64.31849131611422
 20
3.876674191206871
 30
0.0
  0
SPLINE
  5
CD
330
1F
100
AcDbEntity
  8
0
  6
Continuous
 62
     1
370
    15
100
AcDbSpline
210
0.0
220
0.0
230
1.0
 70
    24
 71
     3
 72
     8
 73
     4
 74
     0
 42
0.000000001
 43
0.00000001
 40
0.0
 40
0.0
 40
0.0
 40
0.0
 40
1.0
 40
1.0
 40
1.0
 40
1.0
 10
64.31849131611425
 20
3.876674191206884
 30
0.0
 10
64.26308168337125
 20
3.830179988808561
 30
0.0
 10
64.2069080995201
 20
3.783044755317184
 30
0.0
 10
64.15000000000005
 20
3.735293189998896
 30
0.0
  0
SPLINE
  5
CE
330
1F
100
AcDbEntity
  8
0
  6
Continuous
 62
     1
370
    15
100
AcDbSpline
210
0.0
220
0.0
230
1.0
 70
    24
 71
     3
 72
     8
 73
     4
 74
     0
 42
0.000000001
 43
0.00000001
 40
0.0
 40
0.0
 40
0.0
 40
0.0
 40
1.0
 40
1.0
 40
1.0
 40
1.0
 10
64.15000000000006
 20
2.326095150670325
 30
0.0
 10
64.15000000000006
 20
2.844328698008602
 30
0.0
 10
64.15000000000006
 20
3.323694336875005
 30
0.0
 10
64.15000000000006
 20
3.735293189998743
 30
0.0
  0
SPLINE
  5
CF
330
1F
100
AcDbEntity
  8
외형선
  6
Continuous
370
    15
100
AcDbSpline
210
0.0
220
0.0
230
1.0
 70
    24
 71
     3
 72
    14
 73
    10
 74
     0
 42
0.000000001
 43
0.00000001
 40
0.0
 40
0.0
 40
0.0
 40
0.0
 40
0.1025867122756532
 40
0.2428297797883577
 40
0.3781461934346351
 40
0.5144021324410334
 40
0.6536212824646277
 40
0.7938643499773322
 40
1.0
 40
1.0
 40
1.0
 40
1.0
 10
12.00000000000004
 20
-3.992644695785704
 30
0.0
 10
12.00000000000004
 20
-4.096992886799097
 30
0.0
 10
12.00000000000004
 20
-4.343992207500685
 30
0.0
 10
12.00000000000004
 20
-4.666379179365888
 30
0.0
 10
12.00000000000004
 20
-4.968442539013096
 30
0.0
 10
12.00000000000004
 20
-5.212220082106414
 30
0.0
 10
12.00000000000004
 20
-5.396891075486458
 30
0.0
 10
12.00000000000004
 20
-5.552030834588916
 30
0.0
 10
12.00000000000004
 20
-5.558365908716272
 30
0.0
 10
12.00000000000004
 20
-5.562136015126032
 30
0.0
  0
LINE
  5
D0
330
1F
100
AcDbEntity
  8
0
  6
Continuous
 62
     1
370
    15
100
AcDbLine
 10
69.15000000000003
 20
0.0000000000000038
 30
0.0
 11
69.15000000000003
 21
5.556249999999999
 31
0.0
  0
LINE
  5
D1
330
1F
100
AcDbEntity
  8
중심선
100
AcDbLine
 10
-60.84999999999994
 20
-0.0000000000000077
 30
0.0
 11
72.15000000000005
 21
0.0000000000000086
 31
0.0
  0
LINE
  5
D2
330
1F
100
AcDbEntity
  8
참조1
100
AcDbLine
 10
-0.3876846714922222
 20
0.0010749287238892
 30
0.0
 11
-0.387684671492217
 21
-39.99892507127611
 31
0.0
  0
LINE
  5
D3
330
1F
100
AcDbEntity
  8
참조1
100
AcDbLine
 10
-0.387684671492217
 20
-39.99892507127611
 30
0.0
 11
-15.54395731641845
 21
-39.9989250712761
 31
0.0
  0
CIRCLE
  5
D4
330
1F
100
AcDbEntity
  8
해칭선
100
AcDbCircle
 10
0.0
 20
0.0
 30
0.0
 40
3.000000000000002
  0
INSERT
  5
D5
330
1F
100
AcDbEntity
  8
0
  6
Continuous
 62
     7
100
AcDbBlockReference
 66
     1
  2
블럭10
 10
-8.290272932125148
 20
-52.04717430164393
 30
0.0
  0
ATTRIB
  5
D6
330
D5
100
AcDbEntity
  8
FORMAT
 62
     2
100
AcDbText
 10
-18.43190894426178
 20
-49.97180738881175
 30
0.0
 40
4.233333333333333
  1
EM206040 [ 2 FLUTE ]
 41
0.75
  7
SLDTEXTSTYLE0
 11
-18.43190894426178
 21
-52.08847405547841
 31
0.0
100
AcDbAttribute
  2
AUTOATTR0
 70
     0
 74
     1
  0
SEQEND
  5
D7
330
D5
100
AcDbEntity
  8
0
  6
Continuous
 62
     7
  0
HATCH
  5
D8
330
1F
100
AcDbEntity
  8
중심선
100
AcDbHatch
 10
0.0
 20
0.0
 30
0.0
210
0.0
220
0.0
230
1.0
  2
SOLID
 70
     1
 71
     0
 91
        1
 92
        0
 93
        4
 72
     1
 10
-2.575363627744314
 20
-35.8
 11
-6.021638871581596
 21
-35.8
 72
     1
 10
-6.021638871581596
 20
-35.8
 11
-8.149868730785645
 21
-38.3363255805726
 72
     1
 10
-8.149868730785645
 20
-38.3363255805726
 11
-4.703560401835187
 21
-38.33628615127011
 72
     1
 10
-4.703560401835188
 20
-38.33628615127011
 11
-2.575363627744314
 21
-35.8
 97
        0
 75
     0
 76
     1
 98
        1
 10
6.037684671492278
 20
-0.0010749287238965
  0
HATCH
  5
D9
330
1F
100
AcDbEntity
  8
중심선
100
AcDbHatch
 10
0.0
 20
0.0
 30
0.0
210
0.0
220
0.0
230
1.0
  2
SOLID
 70
     1
 71
     0
 91
        1
 92
        0
 93
        4
 72
     1
 10
2.437400363291665
 20
-35.8
 11
-1.008874880545645
 21
-35.8
 72
     1
 10
-1.008874880545645
 20
-35.8
 11
-5.540012888903033
 21
-41.20000000000002
 72
     1
 10
-5.540012888903033
 20
-41.20000000000002
 11
-2.09373764506575
 21
-41.20000000000002
 72
     1
 10
-2.09373764506575
 20
-41.20000000000002
 11
2.437400363291665
 21
-35.8
 97
        0
 75
     0
 76
     1
 98
        1
 10
6.037684671492278
 20
-0.0010749287238965
  0
HATCH
  5
DA
330
1F
100
AcDbEntity
  8
중심선
100
AcDbHatch
 10
0.0
 20
0.0
 30
0.0
210
0.0
220
0.0
230
1.0
  2
SOLID
 70
     1
 71
     0
 91
        1
 92
        0
 93
        4
 72
     1
 10
7.450164354327534
 20
-35.8
 11
4.003889110490418
 21
-35.8
 72
     1
 10
4.003889110490418
 20
-35.8
 11
-3.044547791398831
 21
-44.20000000000002
 72
     1
 10
-3.044547791398831
 20
-44.20000000000002
 11
0.4017274524384504
 21
-44.20000000000002
 72
     1
 10
0.4017274524384504
 20
-44.20000000000002
 11
7.450164354327534
 21
-35.8
 97
        0
 75
     0
 76
     1
 98
        1
 10
6.037684671492278
 20
-0.0010749287238965
  0
HATCH
  5
DB
330
1F
100
AcDbEntity
  8
중심선
100
AcDbHatch
 10
0.0
 20
0.0
 30
0.0
210
0.0
220
0.0
230
1.0
  2
SOLID
 70
     1
 71
     0
 91
        1
 92
        0
 93
        6
 72
     3
 10
12.25005478533973
 20
-40.00000000005127
 11
3.960054785062283
 21
1.540882976769353E-10
 40
0.3939339440162628
 50
17.09539180608437
 51
320.0019657685081
 73
     0
 72
     1
 10
13.93305444104033
 20
-38.5878940046383
 11
16.2383563147414
 21
-36.65356729459035
 72
     3
 10
12.25005478528688
 20
-40.00000000000015
 11
6.600054785286829
 21
-1.278976924368180E-13
 40
0.636358354079598
 50
39.99873849337411
 51
368.4976242363725
 73
     1
 72
     1
 10
18.6753872771875
 20
-39.03999999993002
 11
10.93012209212281
 21
-39.03999999993
 72
     1
 10
10.93012209212281
 20
-39.03999999993
 11
10.93009704767687
 21
-40.95999999992991
 72
     1
 10
10.93009704767687
 20
-40.95999999992991
 11
15.37147681714891
 21
-40.95999999992988
 97
        0
 75
     0
 76
     1
 98
        1
 10
6.037684671492278
 20
-0.0010749287238965
  0
DIMENSION
  5
DC
330
1F
100
AcDbEntity
  8
치수문자_일반주서
100
AcDbDimension
  2
_D
 10
-70.27999999999992
 20
-7.937500000000068
 30
0.0
 11
-70.27999999999994
 21
-0.0000000000000198
 31
0.0
 70
   160
  1
%%c<>
 71
     2
 42
15.875
 52
-270.0
  3
SLDDIMSTYLE0
100
AcDbAlignedDimension
 13
-56.84999999999994
 23
7.937499999999982
 33
0.0
 14
-56.84999999999994
 24
-7.937500000000018
 34
0.0
 50
90.0000000000002
100
AcDbRotatedDimension
1001
ACAD
1000
DSTYLE
1002
{
1070
   171
1070
     6
1070
   273
1070
     7
1002
}
  0
DIMENSION
  5
F1
330
1F
100
AcDbEntity
  8
치수문자_일반주서
100
AcDbDimension
  2
_D_1
 10
82.49702934787707
 20
-7.937499999999943
 30
0.0
 11
82.49702934787695
 21
28.76025000000006
 31
0.0
 70
   160
  1
%%c<>
 71
     2
 42
15.875
 52
-270.0
  3
SLDDIMSTYLE0
100
AcDbAlignedDimension
 13
69.15000000000005
 23
7.937500000000008
 33
0.0
 14
69.15000000000005
 24
-7.937499999999992
 34
0.0
 50
90.0000000000002
100
AcDbRotatedDimension
1001
ACAD
1000
DSTYLE
1002
{
1070
   171
1070
     6
1070
   273
1070
     7
1002
}
  0
DIMENSION
  5
105
330
1F
100
AcDbEntity
  8
치수문자_일반주서
100
AcDbDimension
  2
_D_2
 10
12.00000000000004
 20
18.9376108025188
 30
0.0
 11
42.32964723665705
 21
18.9376108025188
 31
0.0
 70
   160
  1
<>
 71
     2
 42
57.15000000000001
  3
SLDDIMSTYLE0
100
AcDbAlignedDimension
 13
69.15000000000005
 23
7.937500000000008
 33
0.0
 14
12.00000000000004
 24
5.583218038852544
 34
0.0
 50
0.0000000000000606
100
AcDbRotatedDimension
1001
ACAD
1000
DSTYLE
1002
{
1070
   171
1070
     6
1070
   273
1070
     7
1002
}
  0
DIMENSION
  5
119
330
1F
100
AcDbEntity
  8
치수문자_일반주서
100
AcDbDimension
  2
_D_3
 10
-57.84999999999993
 20
43.41217844013392
 30
0.0
 11
5.650000000000041
 21
43.41217844013392
 31
0.0
 70
   160
  1
<>
 71
     2
 42
127.0
  3
SLDDIMSTYLE0
100
AcDbAlignedDimension
 13
69.15000000000005
 23
7.937500000000008
 33
0.0
 14
-57.84999999999994
 24
6.937499999999989
 34
0.0
 50
0.0000000000000064
100
AcDbRotatedDimension
1001
ACAD
1000
DSTYLE
1002
{
1070
   171
1070
     6
1070
   273
1070
     7
1002
}
  0
LINE
  5
12C
330
1F
100
AcDbEntity
  8
참조1
100
AcDbLine
 10
82.42838331323583
 20
7.441074928723896
 30
0.0
 11
82.42838331323583
 21
-7.438925071276109
 31
0.0
  0
LINE
  5
12D
330
1F
100
AcDbEntity
  8
참조1
100
AcDbLine
 10
95.12838331323583
 20
5.441074928723896
 30
0.0
 11
82.42838331323583
 21
5.441074928723896
 31
0.0
  0
SOLID
  5
12E
330
1F
100
AcDbEntity
  8
참조1
100
AcDbTrace
 10
82.42838331323583
 20
5.441074928723896
 30
0.0
 11
88.77838331323582
 21
4.425074928723896
 31
0.0
 12
88.77838331323582
 22
6.457074928723896
 32
0.0
 13
88.77838331323582
 23
6.457074928723896
 33
0.0
  0
LINE
  5
12F
330
1F
100
AcDbEntity
  8
참조1
100
AcDbLine
 10
95.12838331323583
 20
-5.438925071276109
 30
0.0
 11
82.42838331323583
 21
-5.438925071276109
 31
0.0
  0
SOLID
  5
130
330
1F
100
AcDbEntity
  8
참조1
100
AcDbTrace
 10
82.42838331323583
 20
-5.438925071276109
 30
0.0
 11
88.77838331323582
 21
-6.454925071276109
 31
0.0
 12
88.77838331323582
 22
-4.422925071276109
 32
0.0
 13
88.77838331323582
 23
-4.422925071276109
 33
0.0
  0
MTEXT
  5
131
330
1F
100
AcDbEntity
  8
참조1
100
AcDbMText
 10
91.82587340570609
 20
10.98929157337383
 30
0.0
 40
3.5
 41
0.0
 71
     1
 72
     1
  1
A
  7
SLDTEXTSTYLE0
 73
     1
 44
1.0
  0
MTEXT
  5
132
330
1F
100
AcDbEntity
  8
참조1
100
AcDbMText
 10
91.82587340570609
 20
0.1092915733738259
 30
0.0
 40
3.5
 41
0.0
 71
     1
 72
     1
  1
A
  7
SLDTEXTSTYLE0
 73
     1
 44
1.0
  0
INSERT
  5
139
330
1F
100
AcDbEntity
  8
해칭선
100
AcDbBlockReference
  2
SW_DOWELSYMBOL_0
 10
0.0
 20
0.0
 30
0.0
  0
ENDSEC
  0
SECTION
  2
OBJECTS
  0
DICTIONARY
  5
C
330
0
100
AcDbDictionary
281
     1
  3
ACAD_GROUP
350
D
  3
ACAD_IMAGE_VARS
350
15D
  3
ACAD_LAYOUT
350
1A
  3
ACAD_MLINESTYLE
350
17
  3
ACAD_PLOTSETTINGS
350
19
  3
ACAD_PLOTSTYLENAME
350
E
  3
ACAD_SCALELIST
350
47
  3
APPDATA
350
15B
  3
DWGPROPS
350
195
  0
DICTIONARY
  5
184
330
2
100
AcDbDictionary
280
     1
281
     1
  3
ACAD_LAYERSTATES
360
185
  0
DICTIONARY
  5
D
102
{ACAD_REACTORS
330
C
102
}
330
C
100
AcDbDictionary
281
     1
  0
RASTERVARIABLES
  5
15D
102
{ACAD_REACTORS
330
C
102
}
330
C
100
AcDbRasterVariables
 90
        0
 70
     1
 71
     1
 72
     1
  0
DICTIONARY
  5
1A
102
{ACAD_REACTORS
330
C
102
}
330
C
100
AcDbDictionary
281
     1
  3
Layout1
350
1E
  3
Layout2
350
26
  3
Model
350
22
  0
DICTIONARY
  5
17
102
{ACAD_REACTORS
330
C
102
}
330
C
100
AcDbDictionary
281
     1
  3
Standard
350
18
  0
DICTIONARY
  5
19
102
{ACAD_REACTORS
330
C
102
}
330
C
100
AcDbDictionary
281
     1
  0
ACDBDICTIONARYWDFLT
  5
E
102
{ACAD_REACTORS
330
C
102
}
330
C
100
AcDbDictionary
281
     1
  3
Normal
350
F
100
AcDbDictionaryWithDefault
340
F
  0
DICTIONARY
  5
47
102
{ACAD_REACTORS
330
C
102
}
330
C
100
AcDbDictionary
281
     1
  3
A0
350
48
  3
A1
350
49
  3
A2
350
4A
  3
A3
350
4B
  3
A4
350
4C
  3
A5
350
4D
  3
A6
350
4E
  3
A7
350
4F
  3
A8
350
50
  3
A9
350
51
  3
B0
350
52
  3
B1
350
53
  3
B2
350
54
  3
B3
350
55
  3
B4
350
56
  3
B5
350
57
  3
B6
350
58
  3
B7
350
59
  3
B8
350
5A
  3
B9
350
5B
  3
C0
350
5C
  3
C1
350
5D
  3
C2
350
5E
  3
C3
350
5F
  3
C4
350
60
  3
C5
350
61
  3
C6
350
62
  3
C7
350
63
  3
C8
350
64
  3
C9
350
65
  3
D0
350
66
  3
D1
350
67
  3
D2
350
68
  0
DICTIONARY
  5
15B
102
{ACAD_REACTORS
330
C
102
}
330
C
100
AcDbDictionary
281
     1
  0
XRECORD
  5
195
102
{ACAD_REACTORS
330
C
102
}
330
C
100
AcDbXrecord
280
     1
  1
DWGPROPS COOKIE
  2

  3

  4

  6

  7

  8
12017012
  9

300
=
301
=
302
=
303
=
304
=
305
=
306
=
307
=
308
=
309
=
 40
0.0
 41
2458288.372967025
 42
2458294.339829572
  1

 90
        0
  0
DICTIONARY
  5
185
102
{ACAD_REACTORS
330
184
102
}
330
184
100
AcDbDictionary
281
     1
  0
LAYOUT
  5
1E
102
{ACAD_REACTORS
330
1A
102
}
330
1A
100
AcDbPlotSettings
  1

  2
none_device
  4

  6

 40
0.0
 41
0.0
 42
0.0
 43
0.0
 44
0.0
 45
0.0
 46
0.0
 47
0.0
 48
0.0
 49
0.0
140
0.0
141
0.0
142
1.0
143
1.0
 70
   688
 72
     1
 73
     0
 74
     5
  7

 75
    16
147
1.0
148
0.0
149
0.0
100
AcDbLayout
  1
Layout1
 70
     1
 71
     1
 10
0.0
 20
0.0
 11
420.0
 21
297.0
 12
0.0
 22
0.0
 32
0.0
 14
1.000000000000000E+20
 24
1.000000000000000E+20
 34
1.000000000000000E+20
 15
-1.000000000000000E+20
 25
-1.000000000000000E+20
 35
-1.000000000000000E+20
146
0.0
 13
0.0
 23
0.0
 33
0.0
 16
1.0
 26
0.0
 36
0.0
 17
0.0
 27
1.0
 37
0.0
 76
     0
330
1B
  0
LAYOUT
  5
26
102
{ACAD_REACTORS
330
1A
102
}
330
1A
100
AcDbPlotSettings
  1

  2
none_device
  4

  6

 40
0.0
 41
0.0
 42
0.0
 43
0.0
 44
0.0
 45
0.0
 46
0.0
 47
0.0
 48
0.0
 49
0.0
140
0.0
141
0.0
142
1.0
143
1.0
 70
   688
 72
     1
 73
     0
 74
     5
  7

 75
    16
147
1.0
148
0.0
149
0.0
100
AcDbLayout
  1
Layout2
 70
     1
 71
     2
 10
0.0
 20
0.0
 11
0.0
 21
0.0
 12
0.0
 22
0.0
 32
0.0
 14
0.0
 24
0.0
 34
0.0
 15
0.0
 25
0.0
 35
0.0
146
0.0
 13
0.0
 23
0.0
 33
0.0
 16
1.0
 26
0.0
 36
0.0
 17
0.0
 27
1.0
 37
0.0
 76
     0
330
23
  0
LAYOUT
  5
22
102
{ACAD_REACTORS
330
1A
102
}
330
1A
100
AcDbPlotSettings
  1

  2
none_device
  4
ANSI_A_(11.00_x_8.50_Inches)
  6

 40
6.35
 41
19.05
 42
6.35000508
 43
19.05000254
 44
279.4
 45
215.9
 46
78.53335653584787
 47
53.62178058313003
 48
0.0
 49
0.0
140
0.0
141
0.0
142
0.0377320991798249
143
1.0
 70
  1696
 72
     0
 73
     0
 74
     0
  7

 75
     0
147
0.0235690232323232
148
0.0
149
0.0
100
AcDbLayout
  1
Model
 70
     1
 71
     0
 10
0.0
 20
0.0
 11
420.0
 21
297.0
 12
0.0
 22
0.0
 32
0.0
 14
1.000000000000000E+20
 24
1.000000000000000E+20
 34
1.000000000000000E+20
 15
-1.000000000000000E+20
 25
-1.000000000000000E+20
 35
-1.000000000000000E+20
146
0.0
 13
0.0
 23
0.0
 33
0.0
 16
1.0
 26
0.0
 36
0.0
 17
0.0
 27
1.0
 37
0.0
 76
     0
330
1F
331
29
  0
MLINESTYLE
  5
18
102
{ACAD_REACTORS
330
17
102
}
330
17
100
AcDbMlineStyle
  2
Standard
 70
     0
  3

 62
   256
 51
90.0
 52
90.0
 71
     2
 49
0.5
 62
   256
  6
BYLAYER
 49
-0.5
 62
   256
  6
BYLAYER
  0
ACDBPLACEHOLDER
  5
F
102
{ACAD_REACTORS
330
E
102
}
330
E
  0
SCALE
  5
48
102
{ACAD_REACTORS
330
47
102
}
330
47
100
AcDbScale
 70
     0
300
1:1
140
1.0
141
1.0
290
     1
  0
SCALE
  5
49
102
{ACAD_REACTORS
330
47
102
}
330
47
100
AcDbScale
 70
     0
300
1:2
140
1.0
141
2.0
290
     0
  0
SCALE
  5
4A
102
{ACAD_REACTORS
330
47
102
}
330
47
100
AcDbScale
 70
     0
300
1:4
140
1.0
141
4.0
290
     0
  0
SCALE
  5
4B
102
{ACAD_REACTORS
330
47
102
}
330
47
100
AcDbScale
 70
     0
300
1:5
140
1.0
141
5.0
290
     0
  0
SCALE
  5
4C
102
{ACAD_REACTORS
330
47
102
}
330
47
100
AcDbScale
 70
     0
300
1:8
140
1.0
141
8.0
290
     0
  0
SCALE
  5
4D
102
{ACAD_REACTORS
330
47
102
}
330
47
100
AcDbScale
 70
     0
300
1:10
140
1.0
141
10.0
290
     0
  0
SCALE
  5
4E
102
{ACAD_REACTORS
330
47
102
}
330
47
100
AcDbScale
 70
     0
300
1:16
140
1.0
141
16.0
290
     0
  0
SCALE
  5
4F
102
{ACAD_REACTORS
330
47
102
}
330
47
100
AcDbScale
 70
     0
300
1:20
140
1.0
141
20.0
290
     0
  0
SCALE
  5
50
102
{ACAD_REACTORS
330
47
102
}
330
47
100
AcDbScale
 70
     0
300
1:30
140
1.0
141
30.0
290
     0
  0
SCALE
  5
51
102
{ACAD_REACTORS
330
47
102
}
330
47
100
AcDbScale
 70
     0
300
1:40
140
1.0
141
40.0
290
     0
  0
SCALE
  5
52
102
{ACAD_REACTORS
330
47
102
}
330
47
100
AcDbScale
 70
     0
300
1:50
140
1.0
141
50.0
290
     0
  0
SCALE
  5
53
102
{ACAD_REACTORS
330
47
102
}
330
47
100
AcDbScale
 70
     0
300
1:100
140
1.0
141
100.0
290
     0
  0
SCALE
  5
54
102
{ACAD_REACTORS
330
47
102
}
330
47
100
AcDbScale
 70
     0
300
2:1
140
2.0
141
1.0
290
     0
  0
SCALE
  5
55
102
{ACAD_REACTORS
330
47
102
}
330
47
100
AcDbScale
 70
     0
300
4:1
140
4.0
141
1.0
290
     0
  0
SCALE
  5
56
102
{ACAD_REACTORS
330
47
102
}
330
47
100
AcDbScale
 70
     0
300
8:1
140
8.0
141
1.0
290
     0
  0
SCALE
  5
57
102
{ACAD_REACTORS
330
47
102
}
330
47
100
AcDbScale
 70
     0
300
10:1
140
10.0
141
1.0
290
     0
  0
SCALE
  5
58
102
{ACAD_REACTORS
330
47
102
}
330
47
100
AcDbScale
 70
     0
300
100:1
140
100.0
141
1.0
290
     0
  0
SCALE
  5
59
102
{ACAD_REACTORS
330
47
102
}
330
47
100
AcDbScale
 70
     0
300
1/128" = 1'-0"
140
0.0078125
141
12.0
290
     0
  0
SCALE
  5
5A
102
{ACAD_REACTORS
330
47
102
}
330
47
100
AcDbScale
 70
     0
300
1/64" = 1'-0"
140
0.015625
141
12.0
290
     0
  0
SCALE
  5
5B
102
{ACAD_REACTORS
330
47
102
}
330
47
100
AcDbScale
 70
     0
300
1/32" = 1'-0"
140
0.03125
141
12.0
290
     0
  0
SCALE
  5
5C
102
{ACAD_REACTORS
330
47
102
}
330
47
100
AcDbScale
 70
     0
300
1/16" = 1'-0"
140
0.0625
141
12.0
290
     0
  0
SCALE
  5
5D
102
{ACAD_REACTORS
330
47
102
}
330
47
100
AcDbScale
 70
     0
300
3/32" = 1'-0"
140
0.09375
141
12.0
290
     0
  0
SCALE
  5
5E
102
{ACAD_REACTORS
330
47
102
}
330
47
100
AcDbScale
 70
     0
300
1/8" = 1'-0"
140
0.125
141
12.0
290
     0
  0
SCALE
  5
5F
102
{ACAD_REACTORS
330
47
102
}
330
47
100
AcDbScale
 70
     0
300
3/16" = 1'-0"
140
0.1875
141
12.0
290
     0
  0
SCALE
  5
60
102
{ACAD_REACTORS
330
47
102
}
330
47
100
AcDbScale
 70
     0
300
1/4" = 1'-0"
140
0.25
141
12.0
290
     0
  0
SCALE
  5
61
102
{ACAD_REACTORS
330
47
102
}
330
47
100
AcDbScale
 70
     0
300
3/8" = 1'-0"
140
0.375
141
12.0
290
     0
  0
SCALE
  5
62
102
{ACAD_REACTORS
330
47
102
}
330
47
100
AcDbScale
 70
     0
300
1/2" = 1'-0"
140
0.5
141
12.0
290
     0
  0
SCALE
  5
63
102
{ACAD_REACTORS
330
47
102
}
330
47
100
AcDbScale
 70
     0
300
3/4" = 1'-0"
140
0.75
141
12.0
290
     0
  0
SCALE
  5
64
102
{ACAD_REACTORS
330
47
102
}
330
47
100
AcDbScale
 70
     0
300
1" = 1'-0"
140
1.0
141
12.0
290
     0
  0
SCALE
  5
65
102
{ACAD_REACTORS
330
47
102
}
330
47
100
AcDbScale
 70
     0
300
1-1/2" = 1'-0"
140
1.5
141
12.0
290
     0
  0
SCALE
  5
66
102
{ACAD_REACTORS
330
47
102
}
330
47
100
AcDbScale
 70
     0
300
3" = 1'-0"
140
3.0
141
12.0
290
     0
  0
SCALE
  5
67
102
{ACAD_REACTORS
330
47
102
}
330
47
100
AcDbScale
 70
     0
300
6" = 1'-0"
140
6.0
141
12.0
290
     0
  0
SCALE
  5
68
102
{ACAD_REACTORS
330
47
102
}
330
47
100
AcDbScale
 70
     0
300
1'-0" = 1'-0"
140
12.0
141
12.0
290
     0
  0
ENDSEC
  0
EOF
