  0
SECTION
  2
HEADER
  9
$ACADVER
  1
AC1015
  9
$ACADMAINTVER
 70
     6
  9
$DWGCODEPAGE
  3
ANSI_949
  9
$INSBASE
 10
0.0
 20
0.0
 30
0.0
  9
$EXTMIN
 10
1.000000000000000E+20
 20
1.000000000000000E+20
 30
1.000000000000000E+20
  9
$EXTMAX
 10
-1.000000000000000E+20
 20
-1.000000000000000E+20
 30
-1.000000000000000E+20
  9
$LIMMIN
 10
0.0
 20
0.0
  9
$LIMMAX
 10
420.0
 20
297.0
  9
$ORTHOMODE
 70
     1
  9
$REGENMODE
 70
     1
  9
$FILLMODE
 70
     1
  9
$QTEXTMODE
 70
     0
  9
$MIRRTEXT
 70
     1
  9
$LTSCALE
 40
1.0
  9
$ATTMODE
 70
     1
  9
$TEXTSIZE
 40
3.5
  9
$TRACEWID
 40
1.0
  9
$TEXTSTYLE
  7
Standard
  9
$CLAYER
  8
0
  9
$CELTYPE
  6
ByLayer
  9
$CECOLOR
 62
   256
  9
$CELTSCALE
 40
1.0
  9
$DISPSILH
 70
     0
  9
$DIMSCALE
 40
1.0
  9
$DIMASZ
 40
3.302
  9
$DIMEXO
 40
1.0
  9
$DIMDLI
 40
3.75
  9
$DIMRND
 40
0.0
  9
$DIMDLE
 40
0.0
  9
$DIMEXE
 40
1.0
  9
$DIMTP
 40
0.0
  9
$DIMTM
 40
0.0
  9
$DIMTXT
 40
3.5
  9
$DIMCEN
 40
2.5
  9
$DIMTSZ
 40
0.0
  9
$DIMTOL
 70
     0
  9
$DIMLIM
 70
     0
  9
$DIMTIH
 70
     1
  9
$DIMTOH
 70
     1
  9
$DIMSE1
 70
     0
  9
$DIMSE2
 70
     0
  9
$DIMTAD
 70
     1
  9
$DIMZIN
 70
     0
  9
$DIMBLK
  1

  9
$DIMASO
 70
     1
  9
$DIMSHO
 70
     1
  9
$DIMPOST
  1

  9
$DIMAPOST
  1

  9
$DIMALT
 70
     0
  9
$DIMALTD
 70
     3
  9
$DIMALTF
 40
0.0393700787401575
  9
$DIMLFAC
 40
1.0
  9
$DIMTOFL
 70
     1
  9
$DIMTVP
 40
0.0
  9
$DIMTIX
 70
     0
  9
$DIMSOXD
 70
     0
  9
$DIMSAH
 70
     0
  9
$DIMBLK1
  1

  9
$DIMBLK2
  1

  9
$DIMSTYLE
  2
ISO-25
  9
$DIMCLRD
 70
     0
  9
$DIMCLRE
 70
     0
  9
$DIMCLRT
 70
     0
  9
$DIMTFAC
 40
1.0
  9
$DIMGAP
 40
1.524
  9
$DIMJUST
 70
     0
  9
$DIMSD1
 70
     0
  9
$DIMSD2
 70
     0
  9
$DIMTOLJ
 70
     0
  9
$DIMTZIN
 70
     0
  9
$DIMALTZ
 70
     0
  9
$DIMALTTZ
 70
     0
  9
$DIMUPT
 70
     0
  9
$DIMDEC
 70
     2
  9
$DIMTDEC
 70
     2
  9
$DIMALTU
 70
     2
  9
$DIMALTTD
 70
     3
  9
$DIMTXSTY
  7
Standard
  9
$DIMAUNIT
 70
     0
  9
$DIMADEC
 70
     2
  9
$DIMALTRND
 40
0.0
  9
$DIMAZIN
 70
     0
  9
$DIMDSEP
 70
    44
  9
$DIMATFIT
 70
     3
  9
$DIMFRAC
 70
     0
  9
$DIMLDRBLK
  1

  9
$DIMLUNIT
 70
     2
  9
$DIMLWD
 70
    -2
  9
$DIMLWE
 70
    -2
  9
$DIMTMOVE
 70
     0
  9
$LUNITS
 70
     2
  9
$LUPREC
 70
     2
  9
$SKETCHINC
 40
1.0
  9
$FILLETRAD
 40
10.0
  9
$AUNITS
 70
     0
  9
$AUPREC
 70
     2
  9
$MENU
  1
.
  9
$ELEVATION
 40
0.0
  9
$PELEVATION
 40
0.0
  9
$THICKNESS
 40
0.0
  9
$LIMCHECK
 70
     0
  9
$CHAMFERA
 40
0.0
  9
$CHAMFERB
 40
0.0
  9
$CHAMFERC
 40
0.0
  9
$CHAMFERD
 40
0.0
  9
$SKPOLY
 70
     0
  9
$TDCREATE
 40
2458288.748345104
  9
$TDUCREATE
 40
2458288.373345104
  9
$TDUPDATE
 40
2458294.712564595
  9
$TDUUPDATE
 40
2458294.337564595
  9
$TDINDWG
 40
0.0013681134
  9
$TDUSRTIMER
 40
2458294.336196967
  9
$USRTIMER
 70
     1
  9
$ANGBASE
 50
0.0
  9
$ANGDIR
 70
     0
  9
$PDMODE
 70
     0
  9
$PDSIZE
 40
-1.0
  9
$PLINEWID
 40
0.0
  9
$SPLFRAME
 70
     0
  9
$SPLINETYPE
 70
     6
  9
$SPLINESEGS
 70
     8
  9
$HANDSEED
  5
1B4
  9
$SURFTAB1
 70
     6
  9
$SURFTAB2
 70
     6
  9
$SURFTYPE
 70
     6
  9
$SURFU
 70
     6
  9
$SURFV
 70
     6
  9
$UCSBASE
  2

  9
$UCSNAME
  2

  9
$UCSORG
 10
0.0
 20
0.0
 30
0.0
  9
$UCSXDIR
 10
1.0
 20
0.0
 30
0.0
  9
$UCSYDIR
 10
0.0
 20
1.0
 30
0.0
  9
$UCSORTHOREF
  2

  9
$UCSORTHOVIEW
 70
     0
  9
$UCSORGTOP
 10
0.0
 20
0.0
 30
0.0
  9
$UCSORGBOTTOM
 10
0.0
 20
0.0
 30
0.0
  9
$UCSORGLEFT
 10
0.0
 20
0.0
 30
0.0
  9
$UCSORGRIGHT
 10
0.0
 20
0.0
 30
0.0
  9
$UCSORGFRONT
 10
0.0
 20
0.0
 30
0.0
  9
$UCSORGBACK
 10
0.0
 20
0.0
 30
0.0
  9
$PUCSBASE
  2

  9
$PUCSNAME
  2

  9
$PUCSORG
 10
0.0
 20
0.0
 30
0.0
  9
$PUCSXDIR
 10
1.0
 20
0.0
 30
0.0
  9
$PUCSYDIR
 10
0.0
 20
1.0
 30
0.0
  9
$PUCSORTHOREF
  2

  9
$PUCSORTHOVIEW
 70
     0
  9
$PUCSORGTOP
 10
0.0
 20
0.0
 30
0.0
  9
$PUCSORGBOTTOM
 10
0.0
 20
0.0
 30
0.0
  9
$PUCSORGLEFT
 10
0.0
 20
0.0
 30
0.0
  9
$PUCSORGRIGHT
 10
0.0
 20
0.0
 30
0.0
  9
$PUCSORGFRONT
 10
0.0
 20
0.0
 30
0.0
  9
$PUCSORGBACK
 10
0.0
 20
0.0
 30
0.0
  9
$USERI1
 70
     0
  9
$USERI2
 70
     0
  9
$USERI3
 70
     0
  9
$USERI4
 70
     0
  9
$USERI5
 70
     0
  9
$USERR1
 40
0.0
  9
$USERR2
 40
0.0
  9
$USERR3
 40
0.0
  9
$USERR4
 40
0.0
  9
$USERR5
 40
0.0
  9
$WORLDVIEW
 70
     1
  9
$SHADEDGE
 70
     3
  9
$SHADEDIF
 70
    70
  9
$TILEMODE
 70
     1
  9
$MAXACTVP
 70
    64
  9
$PINSBASE
 10
0.0
 20
0.0
 30
0.0
  9
$PLIMCHECK
 70
     0
  9
$PEXTMIN
 10
1.000000000000000E+20
 20
1.000000000000000E+20
 30
1.000000000000000E+20
  9
$PEXTMAX
 10
-1.000000000000000E+20
 20
-1.000000000000000E+20
 30
-1.000000000000000E+20
  9
$PLIMMIN
 10
0.0
 20
0.0
  9
$PLIMMAX
 10
0.0
 20
0.0
  9
$UNITMODE
 70
     0
  9
$VISRETAIN
 70
     1
  9
$PLINEGEN
 70
     0
  9
$PSLTSCALE
 70
     1
  9
$TREEDEPTH
 70
  3020
  9
$CMLSTYLE
  2
Standard
  9
$CMLJUST
 70
     0
  9
$CMLSCALE
 40
20.0
  9
$PROXYGRAPHICS
 70
     1
  9
$MEASUREMENT
 70
     1
  9
$CELWEIGHT
370
    -1
  9
$ENDCAPS
280
     0
  9
$JOINSTYLE
280
     0
  9
$LWDISPLAY
290
     1
  9
$INSUNITS
 70
     4
  9
$HYPERLINKBASE
  1

  9
$STYLESHEET
  1

  9
$XEDIT
290
     1
  9
$CEPSNTYPE
380
     0
  9
$PSTYLEMODE
290
     1
  9
$FINGERPRINTGUID
  2
{BAEA2A83-8B17-4D11-A031-7B65C474DA81}
  9
$VERSIONGUID
  2
{FAEB1C32-E019-11D5-929B-00C0DF256EC4}
  9
$EXTNAMES
290
     1
  9
$PSVPSCALE
 40
0.0
  9
$OLESTARTUP
290
     0
  0
ENDSEC
  0
SECTION
  2
CLASSES
  0
CLASS
  1
ACDBDICTIONARYWDFLT
  2
AcDbDictionaryWithDefault
  3
ObjectDBX Classes
 90
        0
280
     0
281
     0
  0
CLASS
  1
VISUALSTYLE
  2
AcDbVisualStyle
  3
ObjectDBX Classes
 90
     4095
280
     0
281
     0
  0
CLASS
  1
MATERIAL
  2
AcDbMaterial
  3
ObjectDBX Classes
 90
     1153
280
     0
281
     0
  0
CLASS
  1
SCALE
  2
AcDbScale
  3
ObjectDBX Classes
 90
     1153
280
     0
281
     0
  0
CLASS
  1
SUN
  2
AcDbSun
  3
SCENEOE
 90
     1153
280
     0
281
     0
  0
CLASS
  1
ACDBPLACEHOLDER
  2
AcDbPlaceHolder
  3
ObjectDBX Classes
 90
        0
280
     0
281
     0
  0
CLASS
  1
LAYOUT
  2
AcDbLayout
  3
ObjectDBX Classes
 90
        0
280
     0
281
     0
  0
CLASS
  1
TABLESTYLE
  2
AcDbTableStyle
  3
ObjectDBX Classes
 90
     4095
280
     0
281
     0
  0
CLASS
  1
MLEADERSTYLE
  2
AcDbMLeaderStyle
  3
ACDB_MLEADERSTYLE_CLASS
 90
     4095
280
     0
281
     0
  0
CLASS
  1
RASTERVARIABLES
  2
AcDbRasterVariables
  3
ISM
 90
        0
280
     0
281
     0
  0
ENDSEC
  0
SECTION
  2
TABLES
  0
TABLE
  2
VPORT
  5
8
330
0
100
AcDbSymbolTable
 70
     1
  0
VPORT
  5
29
330
8
100
AcDbSymbolTableRecord
100
AcDbViewportTableRecord
  2
*Active
 70
     0
 10
0.0
 20
0.0
 11
1.0
 21
1.0
 12
37.0361224675877
 22
1.329131694868064
 13
0.0
 23
0.0
 14
10.0
 24
10.0
 15
10.0
 25
10.0
 16
0.0
 26
0.0
 36
1.0
 17
0.0
 27
0.0
 37
0.0
 40
162.8706974866122
 41
1.864970645792564
 42
50.0
 43
0.0
 44
0.0
 50
0.0
 51
0.0
 71
    16
 72
  2000
 73
     1
 74
     3
 75
     0
 76
     0
 77
     0
 78
     0
281
     0
 65
     1
110
0.0
120
0.0
130
0.0
111
1.0
121
0.0
131
0.0
112
0.0
122
1.0
132
0.0
 79
     0
146
0.0
  0
ENDTAB
  0
TABLE
  2
LTYPE
  5
5
330
0
100
AcDbSymbolTable
 70
     6
  0
LTYPE
  5
14
330
5
100
AcDbSymbolTableRecord
100
AcDbLinetypeTableRecord
  2
ByBlock
 70
     0
  3

 72
    65
 73
     0
 40
0.0
  0
LTYPE
  5
15
330
5
100
AcDbSymbolTableRecord
100
AcDbLinetypeTableRecord
  2
ByLayer
 70
     0
  3

 72
    65
 73
     0
 40
0.0
  0
LTYPE
  5
16
330
5
100
AcDbSymbolTableRecord
100
AcDbLinetypeTableRecord
  2
Continuous
 70
     0
  3
Solid line
 72
    65
 73
     0
 40
0.0
  0
LTYPE
  5
6A
330
5
100
AcDbSymbolTableRecord
100
AcDbLinetypeTableRecord
  2
HIDDEN
 70
     0
  3
Hidden __ __ __ __ __ __ __ __ __ __ __ __ __ __
 72
    65
 73
     2
 40
1.905
 49
1.27
 74
     0
 49
-0.635
 74
     0
  0
LTYPE
  5
6B
330
5
100
AcDbSymbolTableRecord
100
AcDbLinetypeTableRecord
  2
PHANTOM
 70
     0
  3
Phantom ______  __  __  ______  __  __  ______
 72
    65
 73
     6
 40
12.7
 49
6.35
 74
     0
 49
-1.27
 74
     0
 49
1.27
 74
     0
 49
-1.27
 74
     0
 49
1.27
 74
     0
 49
-1.27
 74
     0
  0
LTYPE
  5
6C
330
5
100
AcDbSymbolTableRecord
100
AcDbLinetypeTableRecord
  2
CENTER
 70
     0
  3
Center ____ _ ____ _ ____ _ ____ _ ____ _ ____
 72
    65
 73
     4
 40
10.16
 49
6.35
 74
     0
 49
-1.27
 74
     0
 49
1.27
 74
     0
 49
-1.27
 74
     0
  0
LTYPE
  5
6D
330
5
100
AcDbSymbolTableRecord
100
AcDbLinetypeTableRecord
  2
CENTERX2
 70
     0
  3
Center (2x) ________  __  ________  __  _____
 72
    65
 73
     4
 40
20.32
 49
12.7
 74
     0
 49
-2.54
 74
     0
 49
2.54
 74
     0
 49
-2.54
 74
     0
  0
LTYPE
  5
6E
330
5
100
AcDbSymbolTableRecord
100
AcDbLinetypeTableRecord
  2
DOT2
 70
     0
  3
Dot (.5x) ........................................
 72
    65
 73
     2
 40
0.635
 49
0.0
 74
     0
 49
-0.635
 74
     0
  0
ENDTAB
  0
TABLE
  2
LAYER
  5
2
102
{ACAD_XDICTIONARY
360
17B
102
}
330
0
100
AcDbSymbolTable
 70
    18
  0
LAYER
  5
10
330
2
100
AcDbSymbolTableRecord
100
AcDbLayerTableRecord
  2
0
 70
     0
 62
     7
  6
Continuous
370
    -3
390
F
  0
LAYER
  5
6F
330
2
100
AcDbSymbolTableRecord
100
AcDbLayerTableRecord
  2
FORMAT
 70
     0
 62
     2
  6
Continuous
370
    -3
390
F
  0
LAYER
  5
70
330
2
100
AcDbSymbolTableRecord
100
AcDbLayerTableRecord
  2
외형선
 70
     0
 62
     4
  6
Continuous
370
    30
390
F
  0
LAYER
  5
71
330
2
100
AcDbSymbolTableRecord
100
AcDbLayerTableRecord
  2
숨은선
 70
     0
 62
     2
  6
HIDDEN
370
    15
390
F
  0
LAYER
  5
72
330
2
100
AcDbSymbolTableRecord
100
AcDbLayerTableRecord
  2
중심선
 70
     0
 62
     1
  6
CENTERX2
370
    -3
390
F
  0
LAYER
  5
73
330
2
100
AcDbSymbolTableRecord
100
AcDbLayerTableRecord
  2
파단선
 70
     0
 62
     4
  6
Continuous
370
    -3
390
F
  0
LAYER
  5
74
330
2
100
AcDbSymbolTableRecord
100
AcDbLayerTableRecord
  2
해칭선
 70
     0
 62
   100
  6
Continuous
370
    -3
390
F
  0
LAYER
  5
75
330
2
100
AcDbSymbolTableRecord
100
AcDbLayerTableRecord
  2
가는실선
 70
     0
 62
     4
  6
Continuous
370
    -3
390
F
  0
LAYER
  5
76
330
2
100
AcDbSymbolTableRecord
100
AcDbLayerTableRecord
  2
치수_보조선
 70
     0
 62
     4
  6
Continuous
370
    -3
390
F
  0
LAYER
  5
77
330
2
100
AcDbSymbolTableRecord
100
AcDbLayerTableRecord
  2
치수문자_일반주서
 70
     0
 62
     7
  6
Continuous
370
    15
390
F
  0
LAYER
  5
78
330
2
100
AcDbSymbolTableRecord
100
AcDbLayerTableRecord
  2
개별주서
 70
     0
 62
   100
  6
Continuous
370
    30
390
F
  0
LAYER
  5
79
330
2
100
AcDbSymbolTableRecord
100
AcDbLayerTableRecord
  2
중간선
 70
     0
 62
     2
  6
Continuous
370
    15
390
F
  0
LAYER
  5
7A
330
2
100
AcDbSymbolTableRecord
100
AcDbLayerTableRecord
  2
윤곽선
 70
     0
 62
     3
  6
Continuous
370
    40
390
F
  0
LAYER
  5
7B
330
2
100
AcDbSymbolTableRecord
100
AcDbLayerTableRecord
  2
중심마크
 70
     0
 62
   100
  6
Continuous
370
    30
390
F
  0
LAYER
  5
7C
330
2
100
AcDbSymbolTableRecord
100
AcDbLayerTableRecord
  2
가상선
 70
     0
 62
     4
  6
PHANTOM
370
    -3
390
F
  0
LAYER
  5
7D
330
2
100
AcDbSymbolTableRecord
100
AcDbLayerTableRecord
  2
특수지정선
 70
     0
 62
     5
  6
CENTERX2
370
    60
390
F
  0
LAYER
  5
7E
330
2
100
AcDbSymbolTableRecord
100
AcDbLayerTableRecord
  2
참조1
 70
     0
 62
    -4
  6
Continuous
370
    -3
390
F
  0
LAYER
  5
1AA
330
2
100
AcDbSymbolTableRecord
100
AcDbLayerTableRecord
  2
Defpoints
 70
     0
 62
     7
  6
Continuous
290
     0
370
    -3
390
F
  0
ENDTAB
  0
TABLE
  2
STYLE
  5
3
330
0
100
AcDbSymbolTable
 70
     2
  0
STYLE
  5
11
330
3
100
AcDbSymbolTableRecord
100
AcDbTextStyleTableRecord
  2
Standard
 70
     0
 40
0.0
 41
1.0
 50
0.0
 71
     0
 42
3.5
  3
txt
  4

  0
STYLE
  5
94
330
3
100
AcDbSymbolTableRecord
100
AcDbTextStyleTableRecord
  2
SLDTEXTSTYLE0
 70
     0
 40
0.0
 41
0.75
 50
0.0
 71
     0
 42
3.5
  3
TXT
  4

  0
ENDTAB
  0
TABLE
  2
VIEW
  5
6
330
0
100
AcDbSymbolTable
 70
     0
  0
ENDTAB
  0
TABLE
  2
UCS
  5
7
330
0
100
AcDbSymbolTable
 70
     0
  0
ENDTAB
  0
TABLE
  2
APPID
  5
9
330
0
100
AcDbSymbolTable
 70
     1
  0
APPID
  5
12
330
9
100
AcDbSymbolTableRecord
100
AcDbRegAppTableRecord
  2
ACAD
 70
     0
  0
ENDTAB
  0
TABLE
  2
DIMSTYLE
  5
A
330
0
100
AcDbSymbolTable
 70
     3
100
AcDbDimStyleTable
  0
DIMSTYLE
105
27
330
A
100
AcDbSymbolTableRecord
100
AcDbDimStyleTableRecord
  2
ISO-25
 70
     0
 41
2.5
 42
0.625
 43
3.75
 44
1.25
 73
     0
 74
     0
 77
     1
 78
     8
140
2.5
141
2.5
143
0.03937007874016
147
0.625
171
     3
172
     1
178
     0
271
     2
272
     2
274
     3
278
    44
283
     0
284
     8
340
11
  0
DIMSTYLE
105
D4
102
{ACAD_REACTORS
330
D3
330
E8
330
FC
330
110
102
}
330
A
100
AcDbSymbolTableRecord
100
AcDbDimStyleTableRecord
  2
SLDDIMSTYLE0
 70
     0
 41
3.302
 44
0.0
 45
0.000000001
 73
     0
 74
     0
 77
     1
 78
     4
 79
     1
140
3.5
143
0.0393700787401575
147
0.875
148
0.000000001
170
     1
172
     1
173
     1
178
     0
271
     2
272
     2
276
     2
284
    12
289
     0
340
94
  0
DIMSTYLE
105
E9
330
A
100
AcDbSymbolTableRecord
100
AcDbDimStyleTableRecord
  2
SLDDIMSTYLE1
 70
     0
 41
3.302
 44
0.0
 45
0.000000001
 73
     0
 74
     0
 77
     1
 78
    12
 79
     3
140
3.5
143
0.0393700787401575
147
0.875
148
0.000000001
170
     1
173
     1
178
     0
271
     2
272
     2
276
     2
284
    12
340
94
  0
ENDTAB
  0
TABLE
  2
BLOCK_RECORD
  5
1
330
0
100
AcDbSymbolTable
 70
     9
  0
BLOCK_RECORD
  5
1F
330
1
100
AcDbSymbolTableRecord
100
AcDbBlockTableRecord
  2
*Model_Space
340
22
  0
BLOCK_RECORD
  5
1B
330
1
100
AcDbSymbolTableRecord
100
AcDbBlockTableRecord
  2
*Paper_Space
340
1E
  0
BLOCK_RECORD
  5
23
330
1
100
AcDbSymbolTableRecord
100
AcDbBlockTableRecord
  2
*Paper_Space0
340
26
  0
BLOCK_RECORD
  5
7F
330
1
100
AcDbSymbolTableRecord
100
AcDbBlockTableRecord
  2
블럭10
340
0
102
{BLKREFS
331
CC
102
}
  0
BLOCK_RECORD
  5
D5
330
1
100
AcDbSymbolTableRecord
100
AcDbBlockTableRecord
  2
_D
340
0
  0
BLOCK_RECORD
  5
EA
330
1
100
AcDbSymbolTableRecord
100
AcDbBlockTableRecord
  2
_D_1
340
0
  0
BLOCK_RECORD
  5
FD
330
1
100
AcDbSymbolTableRecord
100
AcDbBlockTableRecord
  2
_D_2
340
0
  0
BLOCK_RECORD
  5
111
330
1
100
AcDbSymbolTableRecord
100
AcDbBlockTableRecord
  2
_D_3
340
0
  0
BLOCK_RECORD
  5
12A
330
1
100
AcDbSymbolTableRecord
100
AcDbBlockTableRecord
  2
SW_DOWELSYMBOL_0
340
0
102
{BLKREFS
331
130
102
}
  0
ENDTAB
  0
ENDSEC
  0
SECTION
  2
BLOCKS
  0
BLOCK
  5
20
330
1F
100
AcDbEntity
  8
0
100
AcDbBlockBegin
  2
*Model_Space
 70
     0
 10
0.0
 20
0.0
 30
0.0
  3
*Model_Space
  1
*Model_Space
  0
ENDBLK
  5
21
330
1F
100
AcDbEntity
  8
0
100
AcDbBlockEnd
  0
BLOCK
  5
1C
330
1B
100
AcDbEntity
 67
     1
  8
0
100
AcDbBlockBegin
  2
*Paper_Space
 70
     0
 10
0.0
 20
0.0
 30
0.0
  3
*Paper_Space
  1
*Paper_Space
  0
ENDBLK
  5
1D
330
1B
100
AcDbEntity
 67
     1
  8
0
100
AcDbBlockEnd
  0
BLOCK
  5
24
330
23
100
AcDbEntity
  8
0
100
AcDbBlockBegin
  2
*Paper_Space0
 70
     0
 10
0.0
 20
0.0
 30
0.0
  3
*Paper_Space0
  1
*Paper_Space0
  0
ENDBLK
  5
25
330
23
100
AcDbEntity
  8
0
100
AcDbBlockEnd
  0
BLOCK
  5
80
330
7F
100
AcDbEntity
  8
0
100
AcDbBlockBegin
  2
블럭10
 70
     2
 10
0.0
 20
0.0
 30
0.0
  3
블럭10
  1
블럭10
  0
ELLIPSE
  5
82
330
7F
100
AcDbEntity
  8
중심선
100
AcDbEllipse
 10
20.54032771741204
 20
12.0471743016438
 30
0.0
 11
6.600054785286829
 21
-1.261213355974178E-13
 31
0.0
210
0.0
220
0.0
230
1.0
 40
0.636358354079598
 41
0.9219305317359503
 42
6.513795318482858
  0
ELLIPSE
  5
83
330
7F
100
AcDbEntity
  8
중심선
100
AcDbEllipse
 10
20.54032771746488
 20
12.04717430159265
 30
0.0
 11
3.960054785062283
 21
1.540847449632565E-10
 31
0.0
210
0.0
220
0.0
230
1.0
 40
0.3939339440162632
 41
1.131841032648279
 42
5.62031148352944
  0
LINE
  5
84
330
7F
100
AcDbEntity
  8
중심선
100
AcDbLine
 10
2.268634060543552
 20
16.24717430164393
 30
0.0
 11
5.714909304380834
 21
16.24717430164393
 31
0.0
  0
LINE
  5
85
330
7F
100
AcDbEntity
  8
중심선
100
AcDbLine
 10
5.245725140726316
 20
7.84717430164391
 30
0.0
 11
8.692000384563599
 21
7.84717430164391
 31
0.0
  0
LINE
  5
86
330
7F
100
AcDbEntity
  8
중심선
100
AcDbLine
 10
15.74043728645272
 20
16.24717430164393
 30
0.0
 11
8.692000384563599
 21
7.84717430164391
 31
0.0
  0
LINE
  5
87
330
7F
100
AcDbEntity
  8
중심선
100
AcDbLine
 10
0.1404042013395286
 20
13.71084872107135
 30
0.0
 11
3.58671253028996
 21
13.71088815037384
 31
0.0
  0
LINE
  5
88
330
7F
100
AcDbEntity
  8
중심선
100
AcDbLine
 10
2.750260043222114
 20
10.84717430164391
 30
0.0
 11
6.196535287059397
 21
10.84717430164391
 31
0.0
  0
LINE
  5
89
330
7F
100
AcDbEntity
  8
중심선
100
AcDbLine
 10
12.29416204261559
 20
16.24717430164393
 30
0.0
 11
5.245725140726316
 21
7.84717430164391
 31
0.0
  0
LINE
  5
8A
330
7F
100
AcDbEntity
  8
중심선
100
AcDbLine
 10
10.72767329541681
 20
16.24717430164393
 30
0.0
 11
6.196535287059397
 21
10.84717430164391
 31
0.0
  0
LINE
  5
8B
330
7F
100
AcDbEntity
  8
중심선
100
AcDbLine
 10
7.28139805157953
 20
16.24717430164393
 30
0.0
 11
2.750260043222114
 21
10.84717430164391
 31
0.0
  0
LINE
  5
8C
330
7F
100
AcDbEntity
  8
중심선
100
AcDbLine
 10
5.714909304380834
 20
16.24717430164393
 30
0.0
 11
3.58671253028996
 21
13.71088815037384
 31
0.0
  0
LINE
  5
8D
330
7F
100
AcDbEntity
  8
중심선
100
AcDbLine
 10
2.268634060543552
 20
16.24717430164393
 30
0.0
 11
0.1404042013395286
 21
13.71084872107135
 31
0.0
  0
LINE
  5
8E
330
7F
100
AcDbEntity
  8
중심선
100
AcDbLine
 10
7.28139805157953
 20
16.24717430164393
 30
0.0
 11
10.72767329541681
 21
16.24717430164393
 31
0.0
  0
LINE
  5
8F
330
7F
100
AcDbEntity
  8
중심선
100
AcDbLine
 10
12.29416204261559
 20
16.24717430164393
 30
0.0
 11
15.74043728645272
 21
16.24717430164393
 31
0.0
  0
LINE
  5
90
330
7F
100
AcDbEntity
  8
중심선
100
AcDbLine
 10
19.22036997980202
 20
11.08717430171403
 30
0.0
 11
23.66174974927406
 21
11.08717430171406
 31
0.0
  0
LINE
  5
91
330
7F
100
AcDbEntity
  8
중심선
100
AcDbLine
 10
19.22039502424796
 20
13.00717430171391
 30
0.0
 11
19.22036997980202
 21
11.08717430171403
 31
0.0
  0
LINE
  5
92
330
7F
100
AcDbEntity
  8
중심선
100
AcDbLine
 10
19.22039502424796
 20
13.00717430171391
 30
0.0
 11
26.96566020931264
 21
13.00717430171391
 31
0.0
  0
LINE
  5
93
330
7F
100
AcDbEntity
  8
중심선
100
AcDbLine
 10
22.22332737316547
 20
13.45928029700563
 30
0.0
 11
24.52862924686651
 21
15.39360700705356
 31
0.0
  0
ATTDEF
  5
95
330
7F
100
AcDbEntity
  8
FORMAT
 62
     2
100
AcDbText
 10
3.448148490846466
 20
2.075366912832191
 30
0.0
 40
4.233333333333333
  1
EM206064
 41
0.75
  7
SLDTEXTSTYLE0
 11
3.448148490846466
 21
-0.0412997538344756
 31
0.0
100
AcDbAttributeDefinition
  3

  2
AUTOATTR0
 70
     0
 74
     1
  0
ENDBLK
  5
81
330
7F
100
AcDbEntity
  8
0
100
AcDbBlockEnd
  0
BLOCK
  5
D6
330
D5
100
AcDbEntity
  8
0
100
AcDbBlockBegin
  2
_D
 70
     0
 10
0.0
 20
0.0
 30
0.0
  3
_D
  1
_D
  0
LINE
  5
D8
330
D5
100
AcDbEntity
  8
치수문자_일반주서
 62
     0
370
    -2
100
AcDbLine
 10
-56.91250000000002
 20
12.69999999999999
 30
0.0
 11
-70.28000000000004
 21
12.69999999999994
 31
0.0
  0
LINE
  5
D9
330
D5
100
AcDbEntity
  8
치수문자_일반주서
 62
     0
370
    -2
100
AcDbLine
 10
-56.91250000000002
 20
-12.70000000000002
 30
0.0
 11
-70.27999999999996
 21
-12.70000000000007
 31
0.0
  0
LINE
  5
DA
330
D5
100
AcDbEntity
  8
치수문자_일반주서
 62
     0
370
    -2
100
AcDbLine
 10
-70.28000000000003
 20
9.397999999999936
 30
0.0
 11
-70.27999999999997
 21
-9.39800000000007
 31
0.0
  0
SOLID
  5
DB
330
D5
100
AcDbEntity
  8
치수문자_일반주서
 62
     0
100
AcDbTrace
 10
-69.7296666666667
 20
9.397999999999938
 30
0.0
 11
-70.83033333333336
 21
9.397999999999934
 31
0.0
 12
-70.28000000000004
 22
12.69999999999994
 32
0.0
 13
-70.28000000000004
 23
12.69999999999994
 33
0.0
  0
SOLID
  5
DC
330
D5
100
AcDbEntity
  8
치수문자_일반주서
 62
     0
100
AcDbTrace
 10
-70.8303333333333
 20
-9.398000000000073
 30
0.0
 11
-69.72966666666665
 21
-9.398000000000069
 31
0.0
 12
-70.27999999999996
 22
-12.70000000000007
 32
0.0
 13
-70.27999999999996
 23
-12.70000000000007
 33
0.0
  0
MTEXT
  5
DD
330
D5
100
AcDbEntity
  8
치수문자_일반주서
 62
     0
100
AcDbMText
 10
-74.655
 20
-0.0000000000000271
 30
0.0
 40
3.5
 41
0.0
 71
     2
 72
     1
  1
\A1;%%c25.40 [1]
  7
SLDTEXTSTYLE0
 11
-3.356894814614646E-15
 21
1.0
 31
0.0
 73
     1
 44
1.0
  0
POINT
  5
DE
330
D5
100
AcDbEntity
  8
Defpoints
 62
     0
100
AcDbPoint
 10
-56.85000000000002
 20
12.69999999999999
 30
0.0
  0
POINT
  5
DF
330
D5
100
AcDbEntity
  8
Defpoints
 62
     0
100
AcDbPoint
 10
-56.85000000000002
 20
-12.70000000000002
 30
0.0
  0
POINT
  5
E0
330
D5
100
AcDbEntity
  8
Defpoints
 62
     0
100
AcDbPoint
 10
-70.27999999999997
 20
-12.70000000000007
 30
0.0
  0
ENDBLK
  5
D7
330
D5
100
AcDbEntity
  8
0
100
AcDbBlockEnd
  0
BLOCK
  5
EB
330
EA
100
AcDbEntity
  8
0
100
AcDbBlockBegin
  2
_D_1
 70
     0
 10
0.0
 20
0.0
 30
0.0
  3
_D_1
  1
_D_1
  0
LINE
  5
ED
330
EA
100
AcDbEntity
  8
치수문자_일반주서
 62
     0
370
    -2
100
AcDbLine
 10
69.2125
 20
12.70000000000002
 30
0.0
 11
106.0447755595231
 21
12.70000000000016
 31
0.0
  0
LINE
  5
EE
330
EA
100
AcDbEntity
  8
치수문자_일반주서
 62
     0
370
    -2
100
AcDbLine
 10
69.2125
 20
-12.7
 30
0.0
 11
106.0447755595232
 21
-12.69999999999986
 31
0.0
  0
LINE
  5
EF
330
EA
100
AcDbEntity
  8
치수문자_일반주서
 62
     0
370
    -2
100
AcDbLine
 10
106.0447755595231
 20
9.398000000000158
 30
0.0
 11
106.0447755595232
 21
-9.39799999999986
 31
0.0
  0
SOLID
  5
F0
330
EA
100
AcDbEntity
  8
치수문자_일반주서
 62
     0
100
AcDbTrace
 10
106.5951088928565
 20
9.39800000000016
 30
0.0
 11
105.4944422261898
 21
9.398000000000156
 31
0.0
 12
106.0447755595231
 22
12.70000000000016
 32
0.0
 13
106.0447755595231
 23
12.70000000000016
 33
0.0
  0
SOLID
  5
F1
330
EA
100
AcDbEntity
  8
치수문자_일반주서
 62
     0
100
AcDbTrace
 10
105.4944422261899
 20
-9.397999999999861
 30
0.0
 11
106.5951088928565
 21
-9.397999999999858
 31
0.0
 12
106.0447755595232
 22
-12.69999999999986
 32
0.0
 13
106.0447755595232
 23
-12.69999999999986
 33
0.0
  0
MTEXT
  5
F2
330
EA
100
AcDbEntity
  8
치수문자_일반주서
 62
     0
100
AcDbMText
 10
101.6697755595232
 20
0.0000000000001229
 30
0.0
 40
3.5
 41
0.0
 71
     2
 72
     1
  1
\A1;%%c25.40 [1]
  7
SLDTEXTSTYLE0
 11
-3.356894814614645E-15
 21
1.0
 31
0.0
 73
     1
 44
1.0
  0
POINT
  5
F3
330
EA
100
AcDbEntity
  8
Defpoints
 62
     0
100
AcDbPoint
 10
69.15
 20
12.70000000000002
 30
0.0
  0
POINT
  5
F4
330
EA
100
AcDbEntity
  8
Defpoints
 62
     0
100
AcDbPoint
 10
69.15
 20
-12.7
 30
0.0
  0
POINT
  5
F5
330
EA
100
AcDbEntity
  8
Defpoints
 62
     0
100
AcDbPoint
 10
106.0447755595232
 20
-12.69999999999986
 30
0.0
  0
ENDBLK
  5
EC
330
EA
100
AcDbEntity
  8
0
100
AcDbBlockEnd
  0
BLOCK
  5
FE
330
FD
100
AcDbEntity
  8
0
100
AcDbBlockBegin
  2
_D_2
 70
     0
 10
0.0
 20
0.0
 30
0.0
  3
_D_2
  1
_D_2
  0
LINE
  5
100
330
FD
100
AcDbEntity
  8
치수문자_일반주서
 62
     0
370
    -2
100
AcDbLine
 10
69.15
 20
12.76250000000002
 30
0.0
 11
69.15
 21
21.53771613659209
 31
0.0
  0
LINE
  5
101
330
FD
100
AcDbEntity
  8
치수문자_일반주서
 62
     0
370
    -2
100
AcDbLine
 10
12.0
 20
12.44910987656216
 30
0.0
 11
12.0
 21
21.53771613659209
 31
0.0
  0
LINE
  5
102
330
FD
100
AcDbEntity
  8
치수문자_일반주서
 62
     0
370
    -2
100
AcDbLine
 10
65.84800000000001
 20
21.53771613659209
 30
0.0
 11
15.302
 21
21.53771613659209
 31
0.0
  0
SOLID
  5
103
330
FD
100
AcDbEntity
  8
치수문자_일반주서
 62
     0
100
AcDbTrace
 10
65.84800000000001
 20
20.98738280325875
 30
0.0
 11
65.84800000000001
 21
22.08804946992542
 31
0.0
 12
69.15
 22
21.53771613659209
 32
0.0
 13
69.15
 23
21.53771613659209
 33
0.0
  0
SOLID
  5
104
330
FD
100
AcDbEntity
  8
치수문자_일반주서
 62
     0
100
AcDbTrace
 10
15.302
 20
22.08804946992542
 30
0.0
 11
15.302
 21
20.98738280325875
 31
0.0
 12
12.0
 22
21.53771613659209
 32
0.0
 13
12.0
 23
21.53771613659209
 33
0.0
  0
MTEXT
  5
105
330
FD
100
AcDbEntity
  8
치수문자_일반주서
 62
     0
100
AcDbMText
 10
39.4710480769939
 20
25.91271613659209
 30
0.0
 40
3.5
 41
0.0
 71
     2
 72
     1
  1
\A1;57.15 [2 1/4]
  7
SLDTEXTSTYLE0
 73
     1
 44
1.0
  0
POINT
  5
106
330
FD
100
AcDbEntity
  8
Defpoints
 62
     0
100
AcDbPoint
 10
69.15
 20
12.70000000000002
 30
0.0
  0
POINT
  5
107
330
FD
100
AcDbEntity
  8
Defpoints
 62
     0
100
AcDbPoint
 10
12.0
 20
12.38660987656216
 30
0.0
  0
POINT
  5
108
330
FD
100
AcDbEntity
  8
Defpoints
 62
     0
100
AcDbPoint
 10
12.0
 20
21.53771613659209
 30
0.0
  0
ENDBLK
  5
FF
330
FD
100
AcDbEntity
  8
0
100
AcDbBlockEnd
  0
BLOCK
  5
112
330
111
100
AcDbEntity
  8
0
100
AcDbBlockBegin
  2
_D_3
 70
     0
 10
0.0
 20
0.0
 30
0.0
  3
_D_3
  1
_D_3
  0
LINE
  5
114
330
111
100
AcDbEntity
  8
치수문자_일반주서
 62
     0
370
    -2
100
AcDbLine
 10
69.15
 20
12.76250000000002
 30
0.0
 11
69.15
 21
46.74592844013392
 31
0.0
  0
LINE
  5
115
330
111
100
AcDbEntity
  8
치수문자_일반주서
 62
     0
370
    -2
100
AcDbLine
 10
-57.85000000000002
 20
11.76249999999999
 30
0.0
 11
-57.85000000000002
 21
46.74592844013392
 31
0.0
  0
LINE
  5
116
330
111
100
AcDbEntity
  8
치수문자_일반주서
 62
     0
370
    -2
100
AcDbLine
 10
65.84800000000001
 20
46.74592844013392
 30
0.0
 11
-54.54800000000002
 21
46.74592844013392
 31
0.0
  0
SOLID
  5
117
330
111
100
AcDbEntity
  8
치수문자_일반주서
 62
     0
100
AcDbTrace
 10
65.84800000000001
 20
46.19559510680058
 30
0.0
 11
65.84800000000001
 21
47.29626177346725
 31
0.0
 12
69.15
 22
46.74592844013392
 32
0.0
 13
69.15
 23
46.74592844013392
 33
0.0
  0
SOLID
  5
118
330
111
100
AcDbEntity
  8
치수문자_일반주서
 62
     0
100
AcDbTrace
 10
-54.54800000000002
 20
47.29626177346725
 30
0.0
 11
-54.54800000000002
 21
46.19559510680058
 31
0.0
 12
-57.85000000000002
 22
46.74592844013392
 32
0.0
 13
-57.85000000000002
 23
46.74592844013392
 33
0.0
  0
MTEXT
  5
119
330
111
100
AcDbEntity
  8
치수문자_일반주서
 62
     0
100
AcDbMText
 10
5.649999999999979
 20
51.12092844013392
 30
0.0
 40
3.5
 41
0.0
 71
     2
 72
     1
  1
\A1;127.00 [5]
  7
SLDTEXTSTYLE0
 73
     1
 44
1.0
  0
POINT
  5
11A
330
111
100
AcDbEntity
  8
Defpoints
 62
     0
100
AcDbPoint
 10
69.15
 20
12.70000000000002
 30
0.0
  0
POINT
  5
11B
330
111
100
AcDbEntity
  8
Defpoints
 62
     0
100
AcDbPoint
 10
-57.85000000000002
 20
11.69999999999999
 30
0.0
  0
POINT
  5
11C
330
111
100
AcDbEntity
  8
Defpoints
 62
     0
100
AcDbPoint
 10
-57.85000000000002
 20
46.74592844013392
 30
0.0
  0
ENDBLK
  5
113
330
111
100
AcDbEntity
  8
0
100
AcDbBlockEnd
  0
BLOCK
  5
12B
330
12A
100
AcDbEntity
  8
0
100
AcDbBlockBegin
  2
SW_DOWELSYMBOL_0
 70
     0
 10
0.0
 20
0.0
 30
0.0
  3
SW_DOWELSYMBOL_0
  1
SW_DOWELSYMBOL_0
  0
CIRCLE
  5
12D
330
12A
100
AcDbEntity
  8
해칭선
 62
     0
100
AcDbCircle
 10
0.0
 20
0.0
 30
0.0
 40
3.000000000000002
  0
HATCH
  5
12E
330
12A
100
AcDbEntity
  8
0
  6
Continuous
 62
     0
370
     0
100
AcDbHatch
 10
0.0
 20
0.0
 30
0.0
210
0.0
220
0.0
230
1.0
  2
SOLID
 70
     1
 71
     0
 91
        1
 92
        0
 93
        3
 72
     2
 10
-0.0000000000000234
 20
0.0
 40
3.000000000000002
 50
0.0
 51
90.0
 73
     1
 72
     1
 10
-0.0000000000000234
 20
3.000000000000002
 11
-0.0000000000000234
 21
0.0
 72
     1
 10
-0.0000000000000234
 20
0.0
 11
2.999999999999979
 21
0.0
 97
        0
 75
     0
 76
     1
 98
        1
 10
0.0
 20
0.0
  0
HATCH
  5
12F
330
12A
100
AcDbEntity
  8
0
  6
Continuous
 62
     0
370
     0
100
AcDbHatch
 10
0.0
 20
0.0
 30
0.0
210
0.0
220
0.0
230
1.0
  2
SOLID
 70
     1
 71
     0
 91
        1
 92
        0
 93
        3
 72
     2
 10
-0.0000000000000234
 20
0.0
 40
3.000000000000002
 50
180.0
 51
270.0000000000008
 73
     1
 72
     1
 10
-0.0000000000000234
 20
-3.000000000000002
 11
-0.0000000000000234
 21
0.0
 72
     1
 10
-0.0000000000000234
 20
0.0
 11
-3.000000000000026
 21
0.0
 97
        0
 75
     0
 76
     1
 98
        1
 10
0.0
 20
0.0
  0
ENDBLK
  5
12C
330
12A
100
AcDbEntity
  8
0
100
AcDbBlockEnd
  0
ENDSEC
  0
SECTION
  2
ENTITIES
  0
LINE
  5
96
330
1F
100
AcDbEntity
  8
외형선
  6
Continuous
370
    15
100
AcDbLine
 10
8.949970423912378
 20
12.7
 30
0.0
 11
-56.85000000000002
 21
12.69999999999999
 31
0.0
  0
LINE
  5
97
330
1F
100
AcDbEntity
  8
외형선
  6
Continuous
370
    15
100
AcDbLine
 10
-56.85000000000002
 20
-12.70000000000001
 30
0.0
 11
8.949970423912378
 21
-12.7
 31
0.0
  0
LINE
  5
98
330
1F
100
AcDbEntity
  8
외형선
  6
Continuous
370
    15
100
AcDbLine
 10
-56.85000000000002
 20
12.69999999999999
 30
0.0
 11
-57.85000000000002
 21
11.69999999999998
 31
0.0
  0
LINE
  5
99
330
1F
100
AcDbEntity
  8
외형선
  6
Continuous
370
    15
100
AcDbLine
 10
-57.85000000000002
 20
-11.7
 30
0.0
 11
-56.85000000000002
 21
-12.7
 31
0.0
  0
SPLINE
  5
9A
330
1F
100
AcDbEntity
  8
0
  6
Continuous
 62
     1
370
    15
100
AcDbSpline
210
0.0
220
0.0
230
1.0
 70
     8
 71
     3
 72
     9
 73
     5
 74
     0
 42
0.000000001
 43
0.00000001
 40
0.0
 40
0.0
 40
0.0
 40
0.0
 40
0.5246436381410864
 40
0.9999999999999999
 40
0.9999999999999999
 40
0.9999999999999999
 40
0.9999999999999999
 10
36.24738016496998
 20
3.254397942144762
 30
0.0
 10
35.63130341737636
 20
3.548261771266545
 30
0.0
 10
34.45702681740367
 20
4.108382599497683
 30
0.0
 10
33.28269246480119
 20
4.72394439519964
 30
0.0
 10
32.72446515934212
 20
5.016555610903863
 30
0.0
  0
LINE
  5
9B
330
1F
100
AcDbEntity
  8
0
  6
Continuous
 62
     1
370
    15
100
AcDbLine
 10
29.2396753098014
 20
3.567308719726852
 30
0.0
 11
29.08692109224981
 21
3.651300135512201
 31
0.0
  0
SPLINE
  5
9C
330
1F
100
AcDbEntity
  8
0
  6
Continuous
 62
     1
370
    15
100
AcDbSpline
210
0.0
220
0.0
230
1.0
 70
     8
 71
     3
 72
    23
 73
    19
 74
     0
 42
0.000000001
 43
0.00000001
 40
0.0
 40
0.0
 40
0.0
 40
0.0
 40
0.0948080775120303
 40
0.1728074821858651
 40
0.2338460084670648
 40
0.298253463447139
 40
0.3403987614326534
 40
0.4021905439177382
 40
0.4751887920695735
 40
0.5322476504098343
 40
0.5752231091643295
 40
0.6312045887618696
 40
0.7128543561871934
 40
0.7905764050917093
 40
0.8549024298674056
 40
0.9076536214710511
 40
0.9553522329794372
 40
1.0
 40
1.0
 40
1.0
 40
1.0
 10
32.05000672802906
 20
10.09192022498175
 30
0.0
 10
31.72108363191559
 20
10.07510567567864
 30
0.0
 10
31.12155273155602
 20
10.04445765490434
 30
0.0
 10
30.31150036136994
 20
10.01067179980439
 30
0.0
 10
29.60778712629029
 20
9.985095126233944
 30
0.0
 10
29.02975251289615
 20
9.96725162605234
 30
0.0
 10
28.45374510468552
 20
9.952106572207935
 30
0.0
 10
27.84259902212347
 20
9.93872700639827
 30
0.0
 10
27.17995583328828
 20
9.928096443499529
 30
0.0
 10
26.58230197458832
 20
9.921856387242153
 30
0.0
 10
26.04309668743035
 20
9.918560083968021
 30
0.0
 10
25.41903081707873
 20
9.917424362373266
 30
0.0
 10
24.67503546267557
 20
9.92053151293788
 30
0.0
 10
23.90216275936793
 20
9.929091386108903
 30
0.0
 10
23.22915404914454
 20
9.94065242612982
 30
0.0
 10
22.65985057471086
 20
9.95335497264916
 30
0.0
 10
22.15859390645059
 20
9.966574330020348
 30
0.0
 10
21.83960018488352
 20
9.976599067449083
 30
0.0
 10
21.68537261701973
 20
9.98144584269128
 30
0.0
  0
SPLINE
  5
9D
330
1F
100
AcDbEntity
  8
0
  6
Continuous
 62
     1
370
    15
100
AcDbSpline
210
0.0
220
0.0
230
1.0
 70
     8
 71
     3
 72
    38
 73
    34
 74
     0
 42
0.000000001
 43
0.00000001
 40
0.0
 40
0.0
 40
0.0
 40
0.0
 40
0.0562683497068796
 40
0.1034928141876042
 40
0.143530035657802
 40
0.1750439074420036
 40
0.1904319095183465
 40
0.2054115297290011
 40
0.2273079813175098
 40
0.2565145772845928
 40
0.2873997557463089
 40
0.3254058352922753
 40
0.3552214196954727
 40
0.3858930827635101
 40
0.4188301690860951
 40
0.4500681843575884
 40
0.4792247176748948
 40
0.5091875470136901
 40
0.5412090502832033
 40
0.5770839332257987
 40
0.6171057010705298
 40
0.6540665076865082
 40
0.6836478882296037
 40
0.7131986676927524
 40
0.7533237201873575
 40
0.7946527113351182
 40
0.823983649203153
 40
0.8339772354968558
 40
0.8485323997299238
 40
0.8724458188215333
 40
0.9056831335744063
 40
0.9481442941012505
 40
1.0
 40
1.0
 40
1.0
 40
1.0
 10
64.43150820860262
 20
8.686196195828385
 30
0.0
 10
64.05046984429893
 20
8.653779926925699
 30
0.0
 10
63.34963655452486
 20
8.59415758307383
 30
0.0
 10
62.28020361855422
 20
8.520878345023297
 30
0.0
 10
61.36793409028737
 20
8.47364868340997
 30
0.0
 10
60.70293588411543
 20
8.442026406843055
 30
0.0
 10
60.23846726274873
 20
8.423008653484432
 30
0.0
 10
59.8625116442589
 20
8.409201338960617
 30
0.0
 10
59.37353094873764
 20
8.393304117868569
 30
0.0
 10
58.76677180996133
 20
8.37758879911117
 30
0.0
 10
58.03905815939927
 20
8.36429844784226
 30
0.0
 10
57.30761223911846
 20
8.357485872966496
 30
0.0
 10
56.57742746202342
 20
8.35706201607602
 30
0.0
 10
55.88463071873487
 20
8.36205411894072
 30
0.0
 10
55.18113642615554
 20
8.37288163470105
 30
0.0
 10
54.48919330187525
 20
8.389292439318057
 30
0.0
 10
53.81916802713464
 20
8.410372092108645
 30
0.0
 10
53.14335150972236
 20
8.436697547288187
 30
0.0
 10
52.41774815274783
 20
8.470658253784759
 30
0.0
 10
51.61758714866374
 20
8.514967216990515
 30
0.0
 10
50.78053383058651
 20
8.569440347612405
 30
0.0
 10
49.99148964051466
 20
8.628335851627888
 30
0.0
 10
49.29505139159593
 20
8.685636723996943
 30
0.0
 10
48.5683614181394
 20
8.750359860894108
 30
0.0
 10
47.739821236711
 20
8.831615007790603
 30
0.0
 10
46.90949692535162
 20
8.921457735455126
 30
0.0
 10
46.30655487040534
 20
8.991399311085727
 30
0.0
 10
45.91400566979926
 20
9.03854426179609
 30
0.0
 10
45.55741814222096
 20
9.08234506501391
 30
0.0
 10
45.02571748805363
 20
9.150008387435273
 30
0.0
 10
44.2855389860154
 20
9.249065736903898
 30
0.0
 10
43.3359738916476
 20
9.383825990909905
 30
0.0
 10
42.63221470039446
 20
9.492411030604702
 30
0.0
 10
42.24528571273611
 20
9.552111422452002
 30
0.0
  0
SPLINE
  5
9E
330
1F
100
AcDbEntity
  8
0
  6
Continuous
 62
     1
370
    15
100
AcDbSpline
210
0.0
220
0.0
230
1.0
 70
     8
 71
     3
 72
    19
 73
    15
 74
     0
 42
0.000000001
 43
0.00000001
 40
0.0
 40
0.0
 40
0.0
 40
0.0
 40
0.1394123703318665
 40
0.2514244213661511
 40
0.3362627591451907
 40
0.3980340510745076
 40
0.4476686815595273
 40
0.4868695358036506
 40
0.5580719504887532
 40
0.6489231654165003
 40
0.7460538213878553
 40
0.8494511597609057
 40
0.9390993968932866
 40
1.0
 40
1.0
 40
1.0
 40
1.0
 10
42.24528571273611
 20
-9.55211142245201
 30
0.0
 10
42.68336437242902
 20
-9.484673400780556
 30
0.0
 10
43.47342104576408
 20
-9.363051728783578
 30
0.0
 10
44.53151773787555
 20
-9.215172475169748
 30
0.0
 10
45.3494534542689
 20
-9.108177198931447
 30
0.0
 10
45.97555615404181
 20
-9.030806173440522
 30
0.0
 10
46.4541549077517
 20
-8.97416776721263
 30
0.0
 10
46.95941908350041
 20
-8.916540298920394
 30
0.0
 10
47.5945954553692
 20
-8.847390212372531
 30
0.0
 10
48.41350578832186
 20
-8.765120606450061
 30
0.0
 10
49.33379212457861
 20
-8.68151939407843
 30
0.0
 10
50.24980037257782
 20
-8.608053545534064
 30
0.0
 10
51.05116875055026
 20
-8.550862916110544
 30
0.0
 10
51.52673971130005
 20
-8.522343052517748
 30
0.0
 10
51.71911952826646
 20
-8.51080608623781
 30
0.0
  0
SPLINE
  5
9F
330
1F
100
AcDbEntity
  8
0
  6
Continuous
 62
     1
370
    15
100
AcDbSpline
210
0.0
220
0.0
230
1.0
 70
     8
 71
     3
 72
    33
 73
    29
 74
     0
 42
0.000000001
 43
0.00000001
 40
0.0
 40
0.0
 40
0.0
 40
0.0
 40
0.069718843550627
 40
0.1317357780193979
 40
0.1860382827984823
 40
0.2314128915330443
 40
0.2731352732731034
 40
0.3015095618558014
 40
0.3369755469915174
 40
0.3765866978523166
 40
0.406206557893189
 40
0.4277002639759521
 40
0.4550195152906244
 40
0.5041114680133439
 40
0.5542473603926992
 40
0.5963205415135809
 40
0.6345968856382104
 40
0.6752850575981199
 40
0.7149565679182525
 40
0.7563394490479772
 40
0.784683906496592
 40
0.793705252621335
 40
0.8076835537320298
 40
0.8268210435357989
 40
0.8510855252148882
 40
0.8914977963897609
 40
0.9411774517563936
 40
1.0
 40
1.0
 40
1.0
 40
1.0
 10
12.93114777493211
 20
-10.56985151656949
 30
0.0
 10
13.36020018297593
 20
-10.52743552543751
 30
0.0
 10
14.1709071583965
 20
-10.44728927934871
 30
0.0
 10
15.3751976919679
 20
-10.34437096678908
 30
0.0
 10
16.42054795712564
 20
-10.26327912568466
 30
0.0
 10
17.32456571958664
 20
-10.19931442357926
 30
0.0
 10
18.0577510997369
 20
-10.15218731250583
 30
0.0
 10
18.7315832949332
 20
-10.11236318138361
 30
0.0
 10
19.39122559759817
 20
-10.07670158085659
 30
0.0
 10
20.05884013153333
 20
-10.04447864816629
 30
0.0
 10
20.63730993221587
 20
-10.01966007298502
 30
0.0
 10
21.13769400742028
 20
-10.00017402726444
 30
0.0
 10
21.7626555775096
 20
-9.978202760833087
 30
0.0
 10
22.57075230197159
 20
-9.954643703094453
 30
0.0
 10
23.47282635591497
 20
-9.935546832431466
 30
0.0
 10
24.3040306337792
 20
-9.924054054566266
 30
0.0
 10
25.0740696610839
 20
-9.918321961579085
 30
0.0
 10
25.83045441948162
 20
-9.917467801721052
 30
0.0
 10
26.60677645633691
 20
-9.921604811206063
 30
0.0
 10
27.30465713577081
 20
-9.929834208709874
 30
0.0
 10
27.8070157661909
 20
-9.93855050252813
 30
0.0
 10
28.13420913938977
 20
-9.945201825686416
 30
0.0
 10
28.40264527734099
 20
-9.95115068098037
 30
0.0
 10
28.76820917466384
 20
-9.960219112057548
 30
0.0
 10
29.30219700348403
 20
-9.975316918330199
 30
0.0
 10
30.03118284119224
 20
-9.999744949579979
 30
0.0
 10
30.98125056697211
 20
-10.03765003730167
 30
0.0
 10
31.67428849060215
 20
-10.07284169238193
 30
0.0
 10
32.05000672802908
 20
-10.09192022498176
 30
0.0
  0
SPLINE
  5
A0
330
1F
100
AcDbEntity
  8
외형선
  6
Continuous
370
    15
100
AcDbSpline
210
0.0
220
0.0
230
1.0
 70
     8
 71
     3
 72
    10
 73
     6
 74
     0
 42
0.000000001
 43
0.00000001
 40
0.0
 40
0.0
 40
0.0
 40
0.0
 40
0.5
 40
0.5
 40
1.0
 40
1.0
 40
1.0
 40
1.0
 10
12.0
 20
12.38660987656216
 30
0.0
 10
11.49113115298711
 20
12.45144030534217
 30
0.0
 10
10.98464487169327
 20
12.50624925254768
 30
0.0
 10
9.968790660793967
 20
12.59587263221235
 30
0.0
 10
9.459252927014024
 20
12.63066723100334
 30
0.0
 10
8.949939436053086
 20
12.65529184177376
 30
0.0
  0
LINE
  5
A1
330
1F
100
AcDbEntity
  8
외형선
  6
Continuous
370
    15
100
AcDbLine
 10
12.0
 20
12.38660987656215
 30
0.0
 11
12.0
 21
11.13045616669022
 31
0.0
  0
SPLINE
  5
A2
330
1F
100
AcDbEntity
  8
외형선
  6
Continuous
370
    15
100
AcDbSpline
210
0.0
220
0.0
230
1.0
 70
     8
 71
     3
 72
    10
 73
     6
 74
     0
 42
0.000000001
 43
0.00000001
 40
0.0
 40
0.0
 40
0.0
 40
0.0
 40
0.5
 40
0.5
 40
1.0
 40
1.0
 40
1.0
 40
1.0
 10
8.949970423912378
 20
11.86901688030018
 30
0.0
 10
9.459278759366404
 20
11.76451423909928
 30
0.0
 10
9.968811295761192
 20
11.65046185909648
 30
0.0
 10
10.98465514023303
 20
11.40413066167701
 30
0.0
 10
11.49113631312141
 20
11.27186083635801
 30
0.0
 10
12.0
 20
11.13045616669022
 30
0.0
  0
SPLINE
  5
A3
330
1F
100
AcDbEntity
  8
외형선
  6
Continuous
370
    15
100
AcDbSpline
210
0.0
220
0.0
230
1.0
 70
     8
 71
     3
 72
    10
 73
     6
 74
     0
 42
0.000000001
 43
0.00000001
 40
0.0
 40
0.0
 40
0.0
 40
0.0
 40
0.5
 40
0.5
 40
1.0
 40
1.0
 40
1.0
 40
1.0
 10
12.0
 20
-12.38660987656217
 30
0.0
 10
11.49113115298711
 20
-12.45144030534217
 30
0.0
 10
10.98464487169327
 20
-12.50624925254769
 30
0.0
 10
9.968790660793967
 20
-12.59587263221236
 30
0.0
 10
9.459252927014024
 20
-12.63066723100335
 30
0.0
 10
8.949939436053086
 20
-12.65529184177377
 30
0.0
  0
LINE
  5
A4
330
1F
100
AcDbEntity
  8
외형선
  6
Continuous
370
    15
100
AcDbLine
 10
8.949970423912376
 20
12.65533746024482
 30
0.0
 11
8.949970423912378
 21
12.7
 31
0.0
  0
LINE
  5
A5
330
1F
100
AcDbEntity
  8
외형선
  6
Continuous
370
    15
100
AcDbLine
 10
-56.85000000000002
 20
12.69999999999999
 30
0.0
 11
-56.85000000000002
 21
-12.70000000000001
 31
0.0
  0
LINE
  5
A6
330
1F
100
AcDbEntity
  8
외형선
  6
Continuous
370
    15
100
AcDbLine
 10
8.949970423912378
 20
-12.7
 30
0.0
 11
8.94997042391238
 21
11.86901794769314
 31
0.0
  0
LINE
  5
A7
330
1F
100
AcDbEntity
  8
외형선
  6
Continuous
370
    15
100
AcDbLine
 10
-57.85000000000002
 20
11.69999999999999
 30
0.0
 11
-57.85000000000002
 21
-11.7
 31
0.0
  0
SPLINE
  5
A8
330
1F
100
AcDbEntity
  8
외형선
  6
Continuous
370
    15
100
AcDbSpline
210
0.0
220
0.0
230
1.0
 70
    24
 71
     3
 72
    14
 73
    10
 74
     0
 42
0.000000001
 43
0.00000001
 40
0.0
 40
0.0
 40
0.0
 40
0.0
 40
0.25
 40
0.25
 40
0.5
 40
0.5
 40
0.75
 40
0.75
 40
1.0
 40
1.0
 40
1.0
 40
1.0
 10
12.0
 20
7.608759611967896
 30
0.0
 10
12.0
 20
6.835268475726585
 30
0.0
 10
12.0
 20
5.936802090485322
 30
0.0
 10
12.0
 20
3.942921746297021
 30
0.0
 10
12.0
 20
2.848094114414505
 30
0.0
 10
12.0
 20
0.5619187761883584
 30
0.0
 10
12.0
 20
-0.6282107603541456
 30
0.0
 10
12.0
 20
-2.985222153958238
 30
0.0
 10
12.0
 20
-4.151007646802756
 30
0.0
 10
12.0
 20
-5.254518247605057
 30
0.0
  0
SPLINE
  5
A9
330
1F
100
AcDbEntity
  8
외형선
  6
Continuous
370
    15
100
AcDbSpline
210
0.0
220
0.0
230
1.0
 70
     8
 71
     3
 72
    10
 73
     6
 74
     0
 42
0.000000001
 43
0.00000001
 40
0.0
 40
0.0
 40
0.0
 40
0.0
 40
0.5
 40
0.5
 40
1.0
 40
1.0
 40
1.0
 40
1.0
 10
12.0
 20
-5.254518247605054
 30
0.0
 10
11.49113442899721
 20
-5.053461678361344
 30
0.0
 10
10.98465139087251
 20
-4.848510873092309
 30
0.0
 10
9.968803761298314
 20
-4.430792685841868
 30
0.0
 10
9.459269327177875
 20
-4.217992629393374
 30
0.0
 10
8.949959109289054
 20
-4.002008996515193
 30
0.0
  0
SPLINE
  5
AA
330
1F
100
AcDbEntity
  8
외형선
  6
Continuous
370
    15
100
AcDbSpline
210
0.0
220
0.0
230
1.0
 70
     8
 71
     3
 72
    10
 73
     6
 74
     0
 42
0.000000001
 43
0.00000001
 40
0.0
 40
0.0
 40
0.0
 40
0.0
 40
0.4999999999999999
 40
0.4999999999999999
 40
1.0
 40
1.0
 40
1.0
 40
1.0
 10
12.0
 20
7.608759611967897
 30
0.0
 10
11.49113507005924
 20
7.715064410253387
 30
0.0
 10
10.9846526665701
 20
7.815109560254331
 30
0.0
 10
9.968806324854423
 20
8.002724476820559
 30
0.0
 10
9.459272536423823
 20
8.090289118837038
 30
0.0
 10
8.949962959022198
 20
8.171277856111514
 30
0.0
  0
SPLINE
  5
AB
330
1F
100
AcDbEntity
  8
외형선
  6
Continuous
370
    15
100
AcDbSpline
210
0.0
220
0.0
230
1.0
 70
     8
 71
     3
 72
    10
 73
     6
 74
     0
 42
0.000000001
 43
0.00000001
 40
0.0
 40
0.0
 40
0.0
 40
0.0
 40
0.5
 40
0.5
 40
1.0
 40
1.0
 40
1.0
 40
1.0
 10
12.00000000000001
 20
-10.65312469577232
 30
0.0
 10
11.49113115298711
 20
-10.69345795512885
 30
0.0
 10
10.98464487169327
 20
-10.72519630915385
 30
0.0
 10
9.968790660793967
 20
-10.77152159089236
 30
0.0
 10
9.459252927014026
 20
-10.78608982373203
 30
0.0
 10
8.949939436053086
 20
-10.79198763928979
 30
0.0
  0
SPLINE
  5
AC
330
1F
100
AcDbEntity
  8
외형선
  6
Continuous
370
    15
100
AcDbSpline
210
0.0
220
0.0
230
1.0
 70
    24
 71
     3
 72
    14
 73
    10
 74
     0
 42
0.000000001
 43
0.00000001
 40
0.0
 40
0.0
 40
0.0
 40
0.0
 40
0.2500000000000001
 40
0.2500000000000001
 40
0.5
 40
0.5
 40
0.75
 40
0.75
 40
1.0
 40
1.0
 40
1.0
 40
1.0
 10
12.0
 20
-5.254518247605053
 30
0.0
 10
12.0
 20
-6.028642722048531
 30
0.0
 10
12.0
 20
-6.757340208716619
 30
0.0
 10
12.0
 20
-8.059984017699783
 30
0.0
 10
12.0
 20
-8.633412254604758
 30
0.0
 10
12.0
 20
-9.576952488748416
 30
0.0
 10
12.0
 20
-9.946792020209681
 30
0.0
 10
12.0
 20
-10.46374800102651
 30
0.0
 10
12.0
 20
-10.61096504839595
 30
0.0
 10
12.0
 20
-10.65312469577232
 30
0.0
  0
SPLINE
  5
AD
330
1F
100
AcDbEntity
  8
외형선
  6
Continuous
370
    15
100
AcDbSpline
210
0.0
220
0.0
230
1.0
 70
    24
 71
     3
 72
    10
 73
     6
 74
     0
 42
0.000000001
 43
0.00000001
 40
0.0
 40
0.0
 40
0.0
 40
0.0
 40
0.5
 40
0.5
 40
1.0
 40
1.0
 40
1.0
 40
1.0
 10
12.0
 20
11.13045616669021
 30
0.0
 10
12.0
 20
10.67025615785965
 30
0.0
 10
12.0
 20
10.10458219411657
 30
0.0
 10
12.0
 20
8.883082001753092
 30
0.0
 10
12.0
 20
8.230891962295129
 30
0.0
 10
12.0
 20
7.608759611967896
 30
0.0
  0
SPLINE
  5
AE
330
1F
100
AcDbEntity
  8
외형선
  6
Continuous
370
    15
100
AcDbSpline
210
0.0
220
0.0
230
1.0
 70
    24
 71
     3
 72
     8
 73
     4
 74
     0
 42
0.000000001
 43
0.00000001
 40
0.0
 40
0.0
 40
0.0
 40
0.0
 40
1.0
 40
1.0
 40
1.0
 40
1.0
 10
12.0
 20
-10.65312469577232
 30
0.0
 10
12.0
 20
-11.25601375683638
 30
0.0
 10
12.0
 20
-11.8376670734836
 30
0.0
 10
12.0
 20
-12.3866098765506
 30
0.0
  0
SPLINE
  5
AF
330
1F
100
AcDbEntity
  8
0
  6
Continuous
 62
     1
370
    15
100
AcDbSpline
210
0.0
220
0.0
230
1.0
 70
     8
 71
     3
 72
    64
 73
    60
 74
     0
 42
0.000000001
 43
0.00000001
 40
0.0
 40
0.0
 40
0.0
 40
0.0
 40
0.0624999999999995
 40
0.0624999999999995
 40
0.124999999999999
 40
0.124999999999999
 40
0.1874999999999985
 40
0.1874999999999985
 40
0.2187499999999984
 40
0.2187499999999984
 40
0.2499999999999983
 40
0.2499999999999983
 40
0.2812499999999982
 40
0.2812499999999982
 40
0.3124999999999982
 40
0.3124999999999982
 40
0.3437499999999981
 40
0.3437499999999981
 40
0.374999999999998
 40
0.374999999999998
 40
0.4062499999999979
 40
0.4062499999999979
 40
0.4374999999999978
 40
0.4374999999999978
 40
0.4687499999999977
 40
0.4687499999999977
 40
0.4999999999999978
 40
0.4999999999999978
 40
0.5312499999999979
 40
0.5312499999999979
 40
0.5624999999999979
 40
0.5624999999999979
 40
0.593749999999998
 40
0.593749999999998
 40
0.6249999999999981
 40
0.6249999999999981
 40
0.6562499999999982
 40
0.6562499999999982
 40
0.6874999999999982
 40
0.6874999999999982
 40
0.7187499999999983
 40
0.7187499999999983
 40
0.7499999999999984
 40
0.7499999999999984
 40
0.7812499999999987
 40
0.7812499999999987
 40
0.8124999999999988
 40
0.8124999999999988
 40
0.843749999999999
 40
0.843749999999999
 40
0.8749999999999992
 40
0.8749999999999992
 40
0.9062499999999994
 40
0.9062499999999994
 40
0.9374999999999996
 40
0.9374999999999996
 40
0.9687499999999998
 40
0.9687499999999998
 40
1.0
 40
1.0
 40
1.0
 40
1.0
 10
69.14999999999998
 20
-12.05154903924513
 30
0.0
 10
67.96346407829157
 20
-11.83495458210762
 30
0.0
 10
66.7649468571482
 20
-11.56445155159666
 30
0.0
 10
64.39101593823196
 20
-10.92621428727608
 30
0.0
 10
63.19336538660639
 20
-10.55653085586231
 30
0.0
 10
60.81860649513754
 20
-9.729993466841027
 30
0.0
 10
59.62179063796849
 20
-9.27089732695624
 30
0.0
 10
57.84012384443337
 20
-8.526050979096325
 30
0.0
 10
57.24533065531647
 20
-8.268015189662432
 30
0.0
 10
56.05278826800973
 20
-7.733896098341007
 30
0.0
 10
55.45614139290682
 20
-7.457967516192744
 30
0.0
 10
54.26798070108584
 20
-6.891157385839687
 30
0.0
 10
53.6735965571815
 20
-6.599832651421929
 30
0.0
 10
52.48111736780528
 20
-6.00270288985446
 30
0.0
 10
51.88439385782123
 20
-5.697116952473411
 30
0.0
 10
50.69586594052016
 20
-5.07496249541368
 30
0.0
 10
50.10185066036106
 20
-4.758019980545944
 30
0.0
 10
48.90945046316514
 20
-4.113593495907633
 30
0.0
 10
48.31265823670025
 20
-3.786388450074809
 30
0.0
 10
47.12377871404976
 20
-3.12525113778386
 30
0.0
 10
46.53009209993652
 20
-2.791030966340057
 30
0.0
 10
45.33778668568286
 20
-2.116265894754358
 30
0.0
 10
44.74093366418398
 20
-1.776049620464467
 30
0.0
 10
43.55171817178013
 20
-1.093320259694577
 30
0.0
 10
42.95832001154822
 20
-0.750612797138503
 30
0.0
 10
41.76612516681412
 20
-0.0632649185758492
 30
0.0
 10
41.16921927442382
 20
0.2810116709367735
 30
0.0
 10
39.97968346264559
 20
0.9673706960600056
 30
0.0
 10
39.3865335314336
 20
1.309555250214589
 30
0.0
 10
38.19446503791512
 20
1.9914000425078
 30
0.0
 10
37.59751420112054
 20
2.330678649858923
 30
0.0
 10
36.40767373444595
 20
3.002606272456677
 30
0.0
 10
35.81473179646497
 20
3.335273963712218
 30
0.0
 10
34.62280543028103
 20
3.993675860890475
 30
0.0
 10
34.02581757756258
 20
4.319029294921343
 30
0.0
 10
32.83568813388349
 20
4.958841338955703
 30
0.0
 10
32.24291394418756
 20
5.273250044465556
 30
0.0
 10
31.05114547518443
 20
5.890887640784472
 30
0.0
 10
30.45412853666432
 20
6.19375486518226
 30
0.0
 10
29.26372580660006
 20
6.784609767648978
 30
0.0
 10
28.67107911285738
 20
7.072498141124842
 30
0.0
 10
27.4794843039137
 20
7.633124430608352
 30
0.0
 10
26.88244621100432
 20
7.905535978148537
 30
0.0
 10
25.69178589721409
 20
8.431878387209094
 30
0.0
 10
25.09922644147899
 20
8.685682187392617
 30
0.0
 10
23.90782104781153
 20
9.174552226444243
 30
0.0
 10
23.31076973286366
 20
9.409340039900073
 30
0.0
 10
22.1198675493578
 20
9.857310597611132
 30
0.0
 10
21.52735506984323
 20
10.07036075553984
 30
0.0
 10
20.33615483831336
 20
10.47461972712744
 30
0.0
 10
19.73909823426429
 20
10.66560589812787
 30
0.0
 10
18.54796990571459
 20
11.0234064060604
 30
0.0
 10
17.95546413856487
 20
11.19010366305057
 30
0.0
 10
16.76448480698568
 20
11.49912512262557
 30
0.0
 10
16.16743084700738
 20
11.64128455573398
 30
0.0
 10
14.97609210805629
 20
11.89948889630463
 30
0.0
 10
14.38355278912021
 20
12.01545045562101
 30
0.0
 10
13.19281008556468
 20
12.22111585277655
 30
0.0
 10
12.59576670271178
 20
12.31070856914994
 30
0.0
 10
11.99999999999628
 20
12.38660987656264
 30
0.0
  0
SPLINE
  5
B0
330
1F
100
AcDbEntity
  8
0
  6
Continuous
 62
     1
370
    15
100
AcDbSpline
210
0.0
220
0.0
230
1.0
 70
     8
 71
     3
 72
    16
 73
    12
 74
     0
 42
0.000000001
 43
0.00000001
 40
0.0
 40
0.0
 40
0.0
 40
0.0
 40
0.1141544104145215
 40
0.2283109949736839
 40
0.3424695941188006
 40
0.4566300479741722
 40
0.5707921963720373
 40
0.684955878877613
 40
0.7991209348142354
 40
0.9132872032885715
 40
1.0
 40
1.0
 40
1.0
 40
1.0
 10
69.15
 20
-10.01994775747635
 30
0.0
 10
67.89596773545523
 20
-9.76267735021615
 30
0.0
 10
65.38787932250948
 20
-9.248131635814303
 30
0.0
 10
61.62569893486509
 20
-8.128067787360687
 30
0.0
 10
57.86344311857039
 20
-6.791798184745197
 30
0.0
 10
54.10111688784158
 20
-5.25162402146929
 30
0.0
 10
50.33872656843496
 20
-3.559896176993648
 30
0.0
 10
46.57627820845002
 20
-1.763062117652535
 30
0.0
 10
42.81377771736496
 20
0.0821471816309058
 30
0.0
 10
39.35283571970819
 20
1.787504122712128
 30
0.0
 10
37.14605919216733
 20
2.824293684723498
 30
0.0
 10
36.19346732181366
 20
3.271841180228241
 30
0.0
  0
LINE
  5
B1
330
1F
100
AcDbEntity
  8
0
  6
Continuous
 62
     1
370
    15
100
AcDbLine
 10
69.14999999999971
 20
-12.05154903924513
 30
0.0
 11
69.15
 21
-10.01994775747635
 31
0.0
  0
SPLINE
  5
B2
330
1F
100
AcDbEntity
  8
0
  6
Continuous
 62
     1
370
    15
100
AcDbSpline
210
0.0
220
0.0
230
1.0
 70
     8
 71
     3
 72
    64
 73
    60
 74
     0
 42
0.000000001
 43
0.00000001
 40
0.0
 40
0.0
 40
0.0
 40
0.0
 40
0.03125
 40
0.03125
 40
0.0625000000000001
 40
0.0625000000000001
 40
0.0937500000000002
 40
0.0937500000000002
 40
0.1250000000000003
 40
0.1250000000000003
 40
0.1562500000000003
 40
0.1562500000000003
 40
0.1875000000000003
 40
0.1875000000000003
 40
0.2187500000000003
 40
0.2187500000000003
 40
0.2500000000000003
 40
0.2500000000000003
 40
0.2812500000000003
 40
0.2812500000000003
 40
0.3125000000000003
 40
0.3125000000000003
 40
0.3437500000000003
 40
0.3437500000000003
 40
0.3750000000000003
 40
0.3750000000000003
 40
0.4062500000000003
 40
0.4062500000000003
 40
0.4375000000000003
 40
0.4375000000000003
 40
0.4687500000000003
 40
0.4687500000000003
 40
0.5000000000000003
 40
0.5000000000000003
 40
0.5312500000000004
 40
0.5312500000000004
 40
0.5625000000000004
 40
0.5625000000000004
 40
0.5937500000000004
 40
0.5937500000000004
 40
0.6250000000000006
 40
0.6250000000000006
 40
0.6562500000000007
 40
0.6562500000000007
 40
0.6875000000000007
 40
0.6875000000000007
 40
0.7187500000000007
 40
0.7187500000000007
 40
0.7500000000000007
 40
0.7500000000000007
 40
0.7812500000000007
 40
0.7812500000000007
 40
0.8125000000000007
 40
0.8125000000000007
 40
0.8750000000000004
 40
0.8750000000000004
 40
0.9375000000000002
 40
0.9375000000000002
 40
1.0
 40
1.0
 40
1.0
 40
1.0
 10
12.0
 20
11.13045616669022
 30
0.0
 10
12.59576670271547
 20
10.96490260889302
 30
0.0
 10
13.19281008556832
 20
10.78697679547186
 30
0.0
 10
14.38355278912376
 20
10.40815404214566
 30
0.0
 10
14.97609210805982
 20
10.2074189550801
 30
0.0
 10
16.16743084701084
 20
9.783272092175297
 30
0.0
 10
16.7644848069891
 20
9.560031351696436
 30
0.0
 10
17.95546413856819
 20
9.093426864305513
 30
0.0
 10
18.54796990571787
 20
8.85028314765061
 30
0.0
 10
19.73909823426751
 20
8.344266707541442
 30
0.0
 10
20.33615483831653
 20
8.081584406085948
 30
0.0
 10
21.52735506984633
 20
7.539465387179048
 30
0.0
 10
22.11986754936087
 20
7.260305288668032
 30
0.0
 10
23.31076973286666
 20
6.685742942817726
 30
0.0
 10
23.9078210478145
 20
6.390530554006185
 30
0.0
 10
25.09922644148186
 20
5.787153435068362
 30
0.0
 10
25.69178589721691
 20
5.479314420673216
 30
0.0
 10
26.88244621100708
 20
4.851332302461103
 30
0.0
 10
27.47948430391642
 20
4.531357439152839
 30
0.0
 10
28.67107911286003
 20
3.882592717938202
 30
0.0
 10
29.26372580660267
 20
3.554165274494219
 30
0.0
 10
30.45412853666686
 20
2.889293510777301
 30
0.0
 10
31.05114547518692
 20
2.552975409996643
 30
0.0
 10
32.24291394418997
 20
1.875889933807594
 30
0.0
 10
32.83568813388585
 20
1.535505667731433
 30
0.0
 10
34.02581757756488
 20
0.8512429846967752
 30
0.0
 10
34.62280543028331
 20
0.5074308339077657
 30
0.0
 10
35.81473179646716
 20
-0.1801614696746052
 30
0.0
 10
36.40767373444807
 20
-0.5235559070662954
 30
0.0
 10
37.5975142011226
 20
-1.209203028658519
 30
0.0
 10
38.19446503791715
 20
-1.551463083700098
 30
0.0
 10
39.38653353143555
 20
-2.231470194489292
 30
0.0
 10
39.97968346264749
 20
-2.568847454614169
 30
0.0
 10
41.16921927442566
 20
-3.237838930499292
 30
0.0
 10
41.76612516681591
 20
-3.569541957940988
 30
0.0
 10
42.95832001154996
 20
-4.224070114349678
 30
0.0
 10
43.55171817178181
 20
-4.546558654999244
 30
0.0
 10
44.7409336641856
 20
-5.181295761513801
 30
0.0
 10
45.33778668568442
 20
-5.493715120945533
 30
0.0
 10
46.530092099938
 20
-6.105539984793729
 30
0.0
 10
47.12377871405117
 20
-6.404656555412569
 30
0.0
 10
48.31265823670161
 20
-6.988445193766236
 30
0.0
 10
48.90945046316648
 20
-7.273362273481987
 30
0.0
 10
50.10185066036231
 20
-7.82638249426659
 30
0.0
 10
50.69586594052134
 20
-8.094254531696247
 30
0.0
 10
51.88439385782235
 20
-8.611744589793364
 30
0.0
 10
52.4811173678064
 20
-8.861665151872614
 30
0.0
 10
53.67359655718253
 20
-9.341326379424725
 30
0.0
 10
54.26798070108681
 20
-9.570898504098086
 30
0.0
 10
55.45614139290772
 20
-10.00848774516698
 30
0.0
 10
56.05278826801058
 20
-10.21683917971258
 30
0.0
 10
57.24533065531724
 20
-10.61051735232923
 30
0.0
 10
57.84012384443412
 20
-10.79573656730113
 30
0.0
 10
59.62179063796913
 20
-11.31502433340821
 30
0.0
 10
60.81860649513811
 20
-11.61368837014139
 30
0.0
 10
63.19336538660678
 20
-12.10509993257363
 30
0.0
 10
64.39101593823229
 20
-12.2991687070656
 30
0.0
 10
66.76494685714836
 20
-12.57672420245739
 30
0.0
 10
67.96346407829166
 20
-12.66104268761128
 30
0.0
 10
69.15
 20
-12.69999999999999
 30
0.0
  0
SPLINE
  5
B3
330
1F
100
AcDbEntity
  8
0
  6
Continuous
 62
     1
370
    15
100
AcDbSpline
210
0.0
220
0.0
230
1.0
 70
     8
 71
     3
 72
    14
 73
    10
 74
     0
 42
0.000000001
 43
0.00000001
 40
0.0
 40
0.0
 40
0.0
 40
0.0
 40
0.0898850476128179
 40
0.2369296538280072
 40
0.3839752373181578
 40
0.5310215815260195
 40
0.6873501651856541
 40
0.8436780534591541
 40
1.0
 40
1.0
 40
1.0
 40
1.0
 10
37.58867043107787
 20
-1.201212233032986
 30
0.0
 10
36.82200288785916
 20
-0.8944485509330239
 30
0.0
 10
34.80112977892536
 20
-0.0858445067984993
 30
0.0
 10
31.52604221311996
 20
1.244360569362058
 30
0.0
 10
27.76338535668995
 20
2.730634831916189
 30
0.0
 10
23.92159299670985
 20
4.169490135972012
 30
0.0
 10
20.00041504943519
 20
5.502878383659445
 30
0.0
 10
16.0001745202378
 20
6.699901658869547
 30
0.0
 10
13.33337461307307
 20
7.305810799254884
 30
0.0
 10
12.0
 20
7.608759611967898
 30
0.0
  0
SPLINE
  5
B4
330
1F
100
AcDbEntity
  8
외형선
  6
Continuous
370
    15
100
AcDbSpline
210
0.0
220
0.0
230
1.0
 70
    24
 71
     3
 72
    10
 73
     6
 74
     0
 42
0.000000001
 43
0.00000001
 40
0.0
 40
0.0
 40
0.0
 40
0.0
 40
0.5
 40
0.5
 40
1.0
 40
1.0
 40
1.0
 40
1.0
 10
12.0
 20
11.13045616669021
 30
0.0
 10
12.0
 20
10.67025615785965
 30
0.0
 10
12.0
 20
10.10458219411657
 30
0.0
 10
12.0
 20
8.883082001753092
 30
0.0
 10
12.0
 20
8.230891962295129
 30
0.0
 10
12.0
 20
7.608759611967896
 30
0.0
  0
LINE
  5
B5
330
1F
100
AcDbEntity
  8
0
  6
Continuous
 62
     1
370
    15
100
AcDbLine
 10
69.15
 20
-12.7
 30
0.0
 11
69.14999999999908
 21
-12.05154903924512
 31
0.0
  0
SPLINE
  5
B6
330
1F
100
AcDbEntity
  8
0
  6
Continuous
 62
     1
370
    15
100
AcDbSpline
210
0.0
220
0.0
230
1.0
 70
     8
 71
     3
 72
    10
 73
     6
 74
     0
 42
0.000000001
 43
0.00000001
 40
0.0
 40
0.0
 40
0.0
 40
0.0
 40
0.5
 40
0.5
 40
1.0
 40
1.0
 40
1.0
 40
1.0
 10
69.15
 20
-3.393985414576486
 30
0.0
 10
68.29940223300545
 20
-2.725276500219906
 30
0.0
 10
67.45743926415031
 20
-2.038875865003507
 30
0.0
 10
65.79054037091925
 20
-0.6311881139455294
 30
0.0
 10
64.96560326807887
 20
0.0900965873561384
 30
0.0
 10
64.15000000000167
 20
0.830505256180429
 30
0.0
  0
LINE
  5
B7
330
1F
100
AcDbEntity
  8
0
  6
Continuous
 62
     1
370
    15
100
AcDbLine
 10
64.15
 20
2.93771943529659
 30
0.0
 11
69.15
 21
0.000000000000004
 31
0.0
  0
LINE
  5
B8
330
1F
100
AcDbEntity
  8
0
  6
Continuous
 62
     1
370
    15
100
AcDbLine
 10
69.15
 20
0.000000000000004
 30
0.0
 11
69.15
 21
-3.393985414576488
 31
0.0
  0
SPLINE
  5
B9
330
1F
100
AcDbEntity
  8
0
  6
Continuous
 62
     1
370
    15
100
AcDbSpline
210
0.0
220
0.0
230
1.0
 70
     8
 71
     3
 72
    16
 73
    12
 74
     0
 42
0.000000001
 43
0.00000001
 40
0.0
 40
0.0
 40
0.0
 40
0.0
 40
0.1137009734858576
 40
0.2274019535775274
 40
0.3411029400773297
 40
0.4548039327875712
 40
0.56850493151055
 40
0.6822059360485521
 40
0.7959069462038536
 40
0.9096079617787212
 40
1.0
 40
1.0
 40
1.0
 40
1.0
 10
64.14999999999807
 20
2.289784744251499
 30
0.0
 10
62.93320280053037
 20
2.831253615149224
 30
0.0
 10
60.4996083309013
 20
3.914191388402994
 30
0.0
 10
56.8492165037184
 20
5.414206712852724
 30
0.0
 10
53.19882437714646
 20
6.76993172672939
 30
0.0
 10
49.54843228076263
 20
7.93861584180144
 30
0.0
 10
45.898039007888
 20
8.888837156581012
 30
0.0
 10
42.24764909879993
 20
9.597233902830169
 30
0.0
 10
38.59724564220755
 20
10.03266826812573
 30
0.0
 10
35.19633556945681
 20
10.21383797596167
 30
0.0
 10
33.0121102456547
 20
10.10977861823711
 30
0.0
 10
32.04472514713875
 20
10.06369112399973
 30
0.0
  0
SPLINE
  5
BA
330
1F
100
AcDbEntity
  8
0
  6
Continuous
 62
     1
370
    15
100
AcDbSpline
210
0.0
220
0.0
230
1.0
 70
    24
 71
     3
 72
     8
 73
     4
 74
     0
 42
0.000000001
 43
0.00000001
 40
0.0
 40
0.0
 40
0.0
 40
0.0
 40
1.0
 40
1.0
 40
1.0
 40
1.0
 10
64.15
 20
0.8305052561789976
 30
0.0
 10
64.15
 20
1.322728240368601
 30
0.0
 10
64.14999999999999
 20
1.810406971897976
 30
0.0
 10
64.14999999999999
 20
2.289784744250644
 30
0.0
  0
SPLINE
  5
BB
330
1F
100
AcDbEntity
  8
0
  6
Continuous
 62
     1
370
    15
100
AcDbSpline
210
0.0
220
0.0
230
1.0
 70
    24
 71
     3
 72
    12
 73
     8
 74
     0
 42
0.000000001
 43
0.00000001
 40
0.0
 40
0.0
 40
0.0
 40
0.0
 40
0.5
 40
0.5
 40
0.75
 40
0.75
 40
1.0
 40
1.0
 40
1.0
 40
1.0
 10
69.15
 20
-10.01994775747634
 30
0.0
 10
69.15
 20
-9.251840640348323
 30
0.0
 10
69.14999999999998
 20
-8.281307845612153
 30
0.0
 10
69.15
 20
-6.589011337313267
 30
0.0
 10
69.15
 20
-5.986484557406006
 30
0.0
 10
69.15
 20
-4.725678605577807
 30
0.0
 10
69.15
 20
-4.067494970664264
 30
0.0
 10
69.15
 20
-3.393985414576894
 30
0.0
  0
SPLINE
  5
BC
330
1F
100
AcDbEntity
  8
0
  6
Continuous
 62
     1
370
    15
100
AcDbSpline
210
0.0
220
0.0
230
1.0
 70
    24
 71
     3
 72
    10
 73
     6
 74
     0
 42
0.000000001
 43
0.00000001
 40
0.0
 40
0.0
 40
0.0
 40
0.0
 40
0.4999999999999998
 40
0.4999999999999998
 40
1.0
 40
1.0
 40
1.0
 40
1.0
 10
64.15
 20
2.289784744250641
 30
0.0
 10
64.15
 20
3.318117051978202
 30
0.0
 10
64.15
 20
4.293337801787545
 30
0.0
 10
64.15
 20
6.003026800807382
 30
0.0
 10
64.15000000000002
 20
6.735761112039312
 30
0.0
 10
64.15
 20
7.298596457508379
 30
0.0
  0
SPLINE
  5
BD
330
1F
100
AcDbEntity
  8
0
  6
Continuous
 62
     1
370
    15
100
AcDbSpline
210
0.0
220
0.0
230
1.0
 70
     8
 71
     3
 72
     9
 73
     5
 74
     0
 42
0.000000001
 43
0.00000001
 40
0.0
 40
0.0
 40
0.0
 40
0.0
 40
0.7964411524294681
 40
1.0
 40
1.0
 40
1.0
 40
1.0
 10
69.15
 20
8.889999999999995
 30
0.0
 10
67.89596848371815
 20
8.880695164793297
 30
0.0
 10
66.32142463643386
 20
8.869012148190857
 30
0.0
 10
64.74687595951363
 20
8.696834928379168
 30
0.0
 10
64.42636264539604
 20
8.661786731936404
 30
0.0
  0
SPLINE
  5
BE
330
1F
100
AcDbEntity
  8
0
  6
Continuous
 62
     1
370
    15
100
AcDbSpline
210
0.0
220
0.0
230
1.0
 70
     8
 71
     3
 72
     8
 73
     4
 74
     0
 42
0.000000001
 43
0.00000001
 40
0.0
 40
0.0
 40
0.0
 40
0.0
 40
1.0
 40
1.0
 40
1.0
 40
1.0
 10
69.15
 20
8.890000000000002
 30
0.0
 10
67.46935188656207
 20
8.434389401781292
 30
0.0
 10
65.80204233969715
 20
7.907363561684511
 30
0.0
 10
64.14999999999998
 20
7.298596457508379
 30
0.0
  0
SPLINE
  5
BF
330
1F
100
AcDbEntity
  8
0
  6
Continuous
 62
     1
370
    15
100
AcDbSpline
210
0.0
220
0.0
230
1.0
 70
     8
 71
     3
 72
    15
 73
    11
 74
     0
 42
0.000000001
 43
0.00000001
 40
0.0
 40
0.0
 40
0.0
 40
0.0
 40
0.1206186154031396
 40
0.2413139260922789
 40
0.3677622977096239
 40
0.4942111839946762
 40
0.6206599910728643
 40
0.7471081250976215
 40
0.8735549924603151
 40
1.0
 40
1.0
 40
1.0
 40
1.0
 10
42.24532747936072
 20
-9.552020219853565
 30
0.0
 10
41.02930059528501
 20
-9.718072791970187
 30
0.0
 10
38.59647361705032
 20
-10.05028352064798
 30
0.0
 10
34.88889029797198
 20
-10.20477787883892
 30
0.0
 10
31.12234722770699
 20
-10.0851066787002
 30
0.0
 10
27.29784511595912
 20
-9.65388525021639
 30
0.0
 10
23.47333240452562
 20
-8.933874662248032
 30
0.0
 10
19.64884649131756
 20
-7.941076452613133
 30
0.0
 10
15.8244023152676
 20
-6.720344010820649
 30
0.0
 10
13.27479452162856
 20
-5.743124439780341
 30
0.0
 10
12.0
 20
-5.254518247605054
 30
0.0
  0
SPLINE
  5
C0
330
1F
100
AcDbEntity
  8
외형선
  6
Continuous
370
    15
100
AcDbSpline
210
0.0
220
0.0
230
1.0
 70
    24
 71
     3
 72
    14
 73
    10
 74
     0
 42
0.000000001
 43
0.00000001
 40
0.0
 40
0.0
 40
0.0
 40
0.0
 40
0.25
 40
0.25
 40
0.5
 40
0.5
 40
0.75
 40
0.75
 40
1.0
 40
1.0
 40
1.0
 40
1.0
 10
12.0
 20
7.608759611967896
 30
0.0
 10
12.0
 20
6.835268475726585
 30
0.0
 10
12.0
 20
5.936802090485322
 30
0.0
 10
12.0
 20
3.942921746297021
 30
0.0
 10
12.0
 20
2.848094114414505
 30
0.0
 10
12.0
 20
0.5619187761883584
 30
0.0
 10
12.0
 20
-0.6282107603541456
 30
0.0
 10
12.0
 20
-2.985222153958238
 30
0.0
 10
12.0
 20
-4.151007646802756
 30
0.0
 10
12.0
 20
-5.254518247605057
 30
0.0
  0
LINE
  5
C1
330
1F
100
AcDbEntity
  8
0
  6
Continuous
 62
     1
370
    15
100
AcDbLine
 10
12.93782390157536
 20
-10.53799069702552
 30
0.0
 11
12.00000000000001
 21
-10.65312469577232
 31
0.0
  0
SPLINE
  5
C2
330
1F
100
AcDbEntity
  8
외형선
  6
Continuous
370
    15
100
AcDbSpline
210
0.0
220
0.0
230
1.0
 70
    24
 71
     3
 72
    14
 73
    10
 74
     0
 42
0.000000001
 43
0.00000001
 40
0.0
 40
0.0
 40
0.0
 40
0.0
 40
0.2500000000000001
 40
0.2500000000000001
 40
0.5
 40
0.5
 40
0.75
 40
0.75
 40
1.0
 40
1.0
 40
1.0
 40
1.0
 10
12.00000000000001
 20
-5.254518247605056
 30
0.0
 10
12.00000000000001
 20
-6.028642722048533
 30
0.0
 10
12.00000000000001
 20
-6.757340208716619
 30
0.0
 10
12.00000000000001
 20
-8.059984017699783
 30
0.0
 10
12.00000000000001
 20
-8.633412254604758
 30
0.0
 10
12.00000000000001
 20
-9.576952488748416
 30
0.0
 10
12.00000000000001
 20
-9.946792020209681
 30
0.0
 10
12.00000000000001
 20
-10.46374800102651
 30
0.0
 10
12.00000000000001
 20
-10.61096504839595
 30
0.0
 10
12.00000000000001
 20
-10.65312469577232
 30
0.0
  0
LINE
  5
C3
330
1F
100
AcDbEntity
  8
0
  6
Continuous
 62
     1
370
    15
100
AcDbLine
 10
69.15
 20
0.000000000000004
 30
0.0
 11
69.15
 21
8.89
 31
0.0
  0
SPLINE
  5
C4
330
1F
100
AcDbEntity
  8
0
  6
Continuous
 62
     1
370
    15
100
AcDbSpline
210
0.0
220
0.0
230
1.0
 70
    24
 71
     3
 72
    10
 73
     6
 74
     0
 42
0.000000001
 43
0.00000001
 40
0.0
 40
0.0
 40
0.0
 40
0.0
 40
0.5
 40
0.5
 40
1.0
 40
1.0
 40
1.0
 40
1.0
 10
69.15
 20
8.889999999999995
 30
0.0
 10
69.15
 20
9.42888966145288
 30
0.0
 10
69.15
 20
10.05512935461238
 30
0.0
 10
69.15
 20
11.36897854420286
 30
0.0
 10
69.15
 20
12.0532326346787
 30
0.0
 10
69.15
 20
12.70000000000002
 30
0.0
  0
SPLINE
  5
C5
330
1F
100
AcDbEntity
  8
0
  6
Continuous
 62
     1
370
    15
100
AcDbSpline
210
0.0
220
0.0
230
1.0
 70
     8
 71
     3
 72
    13
 73
     9
 74
     0
 42
0.000000001
 43
0.00000001
 40
0.0
 40
0.0
 40
0.0
 40
0.0
 40
0.0762585117166565
 40
0.2873879498962782
 40
0.4633563191650117
 40
0.6401835364155739
 40
0.8196363555427104
 40
1.0
 40
1.0
 40
1.0
 40
1.0
 10
51.71862594696881
 20
8.510591077428746
 30
0.0
 10
52.16174691492812
 20
8.707057498258461
 30
0.0
 10
53.83169330741808
 20
9.447461167759647
 30
0.0
 10
56.52436966320666
 20
10.40509283601476
 30
0.0
 10
59.80060857980941
 20
11.38488075499605
 30
0.0
 10
62.89305750527198
 20
12.06949316937177
 30
0.0
 10
66.01113554787867
 20
12.54017165706347
 30
0.0
 10
68.10194764928605
 20
12.63948418934482
 30
0.0
 10
69.15
 20
12.70000000000001
 30
0.0
  0
SPLINE
  5
C6
330
1F
100
AcDbEntity
  8
0
  6
Continuous
 62
     1
370
    15
100
AcDbSpline
210
0.0
220
0.0
230
1.0
 70
     8
 71
     3
 72
    10
 73
     6
 74
     0
 42
0.000000001
 43
0.00000001
 40
0.0
 40
0.0
 40
0.0
 40
0.0
 40
0.2581698499760183
 40
0.6290851456093031
 40
1.0
 40
1.0
 40
1.0
 40
1.0
 10
21.68466399479958
 20
-9.981686897437982
 30
0.0
 10
20.85123431394754
 20
-10.27598905365786
 30
0.0
 10
18.82040758424759
 20
-10.993118163877
 30
0.0
 10
15.59218623079313
 20
-11.82751908783974
 30
0.0
 10
13.19739493545244
 20
-12.20024635422141
 30
0.0
 10
11.99999999999628
 20
-12.38660987656264
 30
0.0
  0
SPLINE
  5
C7
330
1F
100
AcDbEntity
  8
외형선
  6
Continuous
370
    15
100
AcDbSpline
210
0.0
220
0.0
230
1.0
 70
    24
 71
     3
 72
     8
 73
     4
 74
     0
 42
0.000000001
 43
0.00000001
 40
0.0
 40
0.0
 40
0.0
 40
0.0
 40
1.0
 40
1.0
 40
1.0
 40
1.0
 10
12.0
 20
-10.65312469577232
 30
0.0
 10
12.0
 20
-11.25601375683642
 30
0.0
 10
12.0
 20
-11.83766707348366
 30
0.0
 10
12.0
 20
-12.3866098765507
 30
0.0
  0
LINE
  5
C8
330
1F
100
AcDbEntity
  8
중심선
100
AcDbLine
 10
-60.84999999999999
 20
-0.0000000000000075
 30
0.0
 11
72.15
 21
0.0000000000000088
 31
0.0
  0
LINE
  5
C9
330
1F
100
AcDbEntity
  8
참조1
100
AcDbLine
 10
-0.3876846714922222
 20
0.0010749287238892
 30
0.0
 11
-0.387684671492217
 21
-39.99892507127611
 31
0.0
  0
LINE
  5
CA
330
1F
100
AcDbEntity
  8
참조1
100
AcDbLine
 10
-0.387684671492217
 20
-39.99892507127611
 30
0.0
 11
-15.54395731641845
 21
-39.9989250712761
 31
0.0
  0
CIRCLE
  5
CB
330
1F
100
AcDbEntity
  8
해칭선
100
AcDbCircle
 10
0.0
 20
0.0
 30
0.0
 40
3.000000000000002
  0
INSERT
  5
CC
330
1F
100
AcDbEntity
  8
0
  6
Continuous
 62
     7
100
AcDbBlockReference
 66
     1
  2
블럭10
 10
-8.290272932125191
 20
-52.04717430164393
 30
0.0
  0
ATTRIB
  5
CD
330
CC
100
AcDbEntity
  8
FORMAT
 62
     2
100
AcDbText
 10
-18.43190894426182
 20
-49.97180738881175
 30
0.0
 40
4.233333333333333
  1
EM206064 [ 2 FLUTE ]
 41
0.75
  7
SLDTEXTSTYLE0
 11
-18.43190894426182
 21
-52.08847405547841
 31
0.0
100
AcDbAttribute
  2
AUTOATTR0
 70
     0
 74
     1
  0
SEQEND
  5
CE
330
CC
100
AcDbEntity
  8
0
  6
Continuous
 62
     7
  0
HATCH
  5
CF
330
1F
100
AcDbEntity
  8
중심선
100
AcDbHatch
 10
0.0
 20
0.0
 30
0.0
210
0.0
220
0.0
230
1.0
  2
SOLID
 70
     1
 71
     0
 91
        1
 92
        0
 93
        4
 72
     1
 10
-2.575363627744355
 20
-35.8
 11
-6.021638871581638
 21
-35.8
 72
     1
 10
-6.021638871581638
 20
-35.8
 11
-8.149868730785688
 21
-38.3363255805726
 72
     1
 10
-8.149868730785688
 20
-38.3363255805726
 11
-4.703560401835229
 21
-38.33628615127011
 72
     1
 10
-4.703560401835229
 20
-38.33628615127011
 11
-2.575363627744355
 21
-35.8
 97
        0
 75
     0
 76
     1
 98
        1
 10
6.037684671492237
 20
-0.0010749287238963
  0
HATCH
  5
D0
330
1F
100
AcDbEntity
  8
중심선
100
AcDbHatch
 10
0.0
 20
0.0
 30
0.0
210
0.0
220
0.0
230
1.0
  2
SOLID
 70
     1
 71
     0
 91
        1
 92
        0
 93
        4
 72
     1
 10
2.437400363291624
 20
-35.8
 11
-1.008874880545687
 21
-35.8
 72
     1
 10
-1.008874880545687
 20
-35.8
 11
-5.540012888903075
 21
-41.20000000000002
 72
     1
 10
-5.540012888903075
 20
-41.20000000000002
 11
-2.093737645065792
 21
-41.20000000000002
 72
     1
 10
-2.093737645065792
 20
-41.20000000000002
 11
2.437400363291624
 21
-35.8
 97
        0
 75
     0
 76
     1
 98
        1
 10
6.037684671492237
 20
-0.0010749287238963
  0
HATCH
  5
D1
330
1F
100
AcDbEntity
  8
중심선
100
AcDbHatch
 10
0.0
 20
0.0
 30
0.0
210
0.0
220
0.0
230
1.0
  2
SOLID
 70
     1
 71
     0
 91
        1
 92
        0
 93
        4
 72
     1
 10
7.450164354327491
 20
-35.8
 11
4.003889110490375
 21
-35.8
 72
     1
 10
4.003889110490375
 20
-35.8
 11
-3.044547791398873
 21
-44.20000000000002
 72
     1
 10
-3.044547791398873
 20
-44.20000000000002
 11
0.4017274524384087
 21
-44.20000000000002
 72
     1
 10
0.4017274524384087
 20
-44.20000000000002
 11
7.450164354327492
 21
-35.8
 97
        0
 75
     0
 76
     1
 98
        1
 10
6.037684671492237
 20
-0.0010749287238963
  0
HATCH
  5
D2
330
1F
100
AcDbEntity
  8
중심선
100
AcDbHatch
 10
0.0
 20
0.0
 30
0.0
210
0.0
220
0.0
230
1.0
  2
SOLID
 70
     1
 71
     0
 91
        1
 92
        0
 93
        6
 72
     3
 10
12.25005478533969
 20
-40.00000000005127
 11
3.960054785062285
 21
1.540882976769353E-10
 40
0.3939339440162626
 50
17.09539180608438
 51
320.0019657685079
 73
     0
 72
     1
 10
13.93305444104029
 20
-38.5878940046383
 11
16.23835631474135
 21
-36.65356729459035
 72
     3
 10
12.25005478528684
 20
-40.00000000000015
 11
6.600054785286828
 21
-1.278976924368180E-13
 40
0.6363583540795982
 50
39.99873849337411
 51
368.4976242363725
 73
     1
 72
     1
 10
18.67538727718745
 20
-39.03999999993002
 11
10.93012209212277
 21
-39.03999999993
 72
     1
 10
10.93012209212277
 20
-39.03999999993
 11
10.93009704767683
 21
-40.95999999992991
 72
     1
 10
10.93009704767683
 20
-40.95999999992991
 11
15.37147681714887
 21
-40.95999999992988
 97
        0
 75
     0
 76
     1
 98
        1
 10
6.037684671492237
 20
-0.0010749287238963
  0
DIMENSION
  5
D3
330
1F
100
AcDbEntity
  8
치수문자_일반주서
100
AcDbDimension
  2
_D
 10
-70.27999999999996
 20
-12.70000000000007
 30
0.0
 11
-70.28
 21
-0.0000000000000126
 31
0.0
 70
   160
  1
%%c<>
 71
     2
 42
25.40000000000001
 52
-270.0
  3
SLDDIMSTYLE0
100
AcDbAlignedDimension
 13
-56.85000000000002
 23
12.69999999999999
 33
0.0
 14
-56.85000000000002
 24
-12.70000000000002
 34
0.0
 50
90.0000000000002
100
AcDbRotatedDimension
1001
ACAD
1000
DSTYLE
1002
{
1070
   171
1070
     6
1070
   273
1070
     7
1002
}
  0
DIMENSION
  5
E8
330
1F
100
AcDbEntity
  8
치수문자_일반주서
100
AcDbDimension
  2
_D_1
 10
106.0447755595232
 20
-12.69999999999986
 30
0.0
 11
106.0447755595232
 21
0.0000000000001374
 31
0.0
 70
   160
  1
%%c<>
 71
     2
 42
25.40000000000002
 52
-270.0
  3
SLDDIMSTYLE0
100
AcDbAlignedDimension
 13
69.15
 23
12.70000000000002
 33
0.0
 14
69.15
 24
-12.7
 34
0.0
 50
90.0000000000002
100
AcDbRotatedDimension
1001
ACAD
1000
DSTYLE
1002
{
1070
   171
1070
     6
1070
   273
1070
     7
1002
}
  0
DIMENSION
  5
FC
330
1F
100
AcDbEntity
  8
치수문자_일반주서
100
AcDbDimension
  2
_D_2
 10
12.0
 20
21.53771613659209
 30
0.0
 11
39.4710480769939
 21
21.53771613659209
 31
0.0
 70
   160
  1
<>
 71
     2
 42
57.15000000000001
  3
SLDDIMSTYLE0
100
AcDbAlignedDimension
 13
69.15
 23
12.70000000000002
 33
0.0
 14
12.0
 24
12.38660987656216
 34
0.0
 50
0.0000000000000249
100
AcDbRotatedDimension
1001
ACAD
1000
DSTYLE
1002
{
1070
   171
1070
     6
1070
   273
1070
     7
1002
}
  0
DIMENSION
  5
110
330
1F
100
AcDbEntity
  8
치수문자_일반주서
100
AcDbDimension
  2
_D_3
 10
-57.85000000000002
 20
46.74592844013392
 30
0.0
 11
5.649999999999979
 21
46.74592844013392
 31
0.0
 70
   160
  1
<>
 71
     2
 42
127.0
  3
SLDDIMSTYLE0
100
AcDbAlignedDimension
 13
69.15
 23
12.70000000000002
 33
0.0
 14
-57.85000000000002
 24
11.69999999999999
 34
0.0
 50
0.0000000000000064
100
AcDbRotatedDimension
1001
ACAD
1000
DSTYLE
1002
{
1070
   171
1070
     6
1070
   273
1070
     7
1002
}
  0
LINE
  5
123
330
1F
100
AcDbEntity
  8
참조1
100
AcDbLine
 10
82.42838331323583
 20
7.441074928723896
 30
0.0
 11
82.42838331323583
 21
-7.438925071276109
 31
0.0
  0
LINE
  5
124
330
1F
100
AcDbEntity
  8
참조1
100
AcDbLine
 10
95.12838331323583
 20
5.441074928723896
 30
0.0
 11
82.42838331323583
 21
5.441074928723896
 31
0.0
  0
SOLID
  5
125
330
1F
100
AcDbEntity
  8
참조1
100
AcDbTrace
 10
82.42838331323583
 20
5.441074928723896
 30
0.0
 11
88.77838331323582
 21
4.425074928723896
 31
0.0
 12
88.77838331323582
 22
6.457074928723896
 32
0.0
 13
88.77838331323582
 23
6.457074928723896
 33
0.0
  0
LINE
  5
126
330
1F
100
AcDbEntity
  8
참조1
100
AcDbLine
 10
95.12838331323583
 20
-5.438925071276109
 30
0.0
 11
82.42838331323583
 21
-5.438925071276109
 31
0.0
  0
SOLID
  5
127
330
1F
100
AcDbEntity
  8
참조1
100
AcDbTrace
 10
82.42838331323583
 20
-5.438925071276109
 30
0.0
 11
88.77838331323582
 21
-6.454925071276109
 31
0.0
 12
88.77838331323582
 22
-4.422925071276109
 32
0.0
 13
88.77838331323582
 23
-4.422925071276109
 33
0.0
  0
MTEXT
  5
128
330
1F
100
AcDbEntity
  8
참조1
100
AcDbMText
 10
91.82587340570609
 20
10.98929157337383
 30
0.0
 40
3.5
 41
0.0
 71
     1
 72
     1
  1
A
  7
SLDTEXTSTYLE0
 73
     1
 44
1.0
  0
MTEXT
  5
129
330
1F
100
AcDbEntity
  8
참조1
100
AcDbMText
 10
91.82587340570609
 20
0.1092915733738259
 30
0.0
 40
3.5
 41
0.0
 71
     1
 72
     1
  1
A
  7
SLDTEXTSTYLE0
 73
     1
 44
1.0
  0
INSERT
  5
130
330
1F
100
AcDbEntity
  8
해칭선
100
AcDbBlockReference
  2
SW_DOWELSYMBOL_0
 10
0.0
 20
0.0
 30
0.0
  0
ENDSEC
  0
SECTION
  2
OBJECTS
  0
DICTIONARY
  5
C
330
0
100
AcDbDictionary
281
     1
  3
ACAD_GROUP
350
D
  3
ACAD_IMAGE_VARS
350
154
  3
ACAD_LAYOUT
350
1A
  3
ACAD_MLINESTYLE
350
17
  3
ACAD_PLOTSETTINGS
350
19
  3
ACAD_PLOTSTYLENAME
350
E
  3
ACAD_SCALELIST
350
47
  3
APPDATA
350
152
  3
DWGPROPS
350
1B3
  0
DICTIONARY
  5
17B
330
2
100
AcDbDictionary
280
     1
281
     1
  3
ACAD_LAYERSTATES
360
17C
  0
DICTIONARY
  5
D
102
{ACAD_REACTORS
330
C
102
}
330
C
100
AcDbDictionary
281
     1
  0
RASTERVARIABLES
  5
154
102
{ACAD_REACTORS
330
C
102
}
330
C
100
AcDbRasterVariables
 90
        0
 70
     1
 71
     1
 72
     1
  0
DICTIONARY
  5
1A
102
{ACAD_REACTORS
330
C
102
}
330
C
100
AcDbDictionary
281
     1
  3
Layout1
350
1E
  3
Layout2
350
26
  3
Model
350
22
  0
DICTIONARY
  5
17
102
{ACAD_REACTORS
330
C
102
}
330
C
100
AcDbDictionary
281
     1
  3
Standard
350
18
  0
DICTIONARY
  5
19
102
{ACAD_REACTORS
330
C
102
}
330
C
100
AcDbDictionary
281
     1
  0
ACDBDICTIONARYWDFLT
  5
E
102
{ACAD_REACTORS
330
C
102
}
330
C
100
AcDbDictionary
281
     1
  3
Normal
350
F
100
AcDbDictionaryWithDefault
340
F
  0
DICTIONARY
  5
47
102
{ACAD_REACTORS
330
C
102
}
330
C
100
AcDbDictionary
281
     1
  3
A0
350
48
  3
A1
350
49
  3
A2
350
4A
  3
A3
350
4B
  3
A4
350
4C
  3
A5
350
4D
  3
A6
350
4E
  3
A7
350
4F
  3
A8
350
50
  3
A9
350
51
  3
B0
350
52
  3
B1
350
53
  3
B2
350
54
  3
B3
350
55
  3
B4
350
56
  3
B5
350
57
  3
B6
350
58
  3
B7
350
59
  3
B8
350
5A
  3
B9
350
5B
  3
C0
350
5C
  3
C1
350
5D
  3
C2
350
5E
  3
C3
350
5F
  3
C4
350
60
  3
C5
350
61
  3
C6
350
62
  3
C7
350
63
  3
C8
350
64
  3
C9
350
65
  3
D0
350
66
  3
D1
350
67
  3
D2
350
68
  0
DICTIONARY
  5
152
102
{ACAD_REACTORS
330
C
102
}
330
C
100
AcDbDictionary
281
     1
  0
XRECORD
  5
1B3
102
{ACAD_REACTORS
330
C
102
}
330
C
100
AcDbXrecord
280
     1
  1
DWGPROPS COOKIE
  2

  3

  4

  6

  7

  8
12017012
  9

300
=
301
=
302
=
303
=
304
=
305
=
306
=
307
=
308
=
309
=
 40
0.0
 41
2458288.373345104
 42
2458294.337564595
  1

 90
        0
  0
DICTIONARY
  5
17C
102
{ACAD_REACTORS
330
17B
102
}
330
17B
100
AcDbDictionary
281
     1
  0
LAYOUT
  5
1E
102
{ACAD_REACTORS
330
1A
102
}
330
1A
100
AcDbPlotSettings
  1

  2
none_device
  4

  6

 40
0.0
 41
0.0
 42
0.0
 43
0.0
 44
0.0
 45
0.0
 46
0.0
 47
0.0
 48
0.0
 49
0.0
140
0.0
141
0.0
142
1.0
143
1.0
 70
   688
 72
     1
 73
     0
 74
     5
  7

 75
    16
147
1.0
148
0.0
149
0.0
100
AcDbLayout
  1
Layout1
 70
     1
 71
     1
 10
0.0
 20
0.0
 11
420.0
 21
297.0
 12
0.0
 22
0.0
 32
0.0
 14
1.000000000000000E+20
 24
1.000000000000000E+20
 34
1.000000000000000E+20
 15
-1.000000000000000E+20
 25
-1.000000000000000E+20
 35
-1.000000000000000E+20
146
0.0
 13
0.0
 23
0.0
 33
0.0
 16
1.0
 26
0.0
 36
0.0
 17
0.0
 27
1.0
 37
0.0
 76
     0
330
1B
  0
LAYOUT
  5
26
102
{ACAD_REACTORS
330
1A
102
}
330
1A
100
AcDbPlotSettings
  1

  2
none_device
  4

  6

 40
0.0
 41
0.0
 42
0.0
 43
0.0
 44
0.0
 45
0.0
 46
0.0
 47
0.0
 48
0.0
 49
0.0
140
0.0
141
0.0
142
1.0
143
1.0
 70
   688
 72
     1
 73
     0
 74
     5
  7

 75
    16
147
1.0
148
0.0
149
0.0
100
AcDbLayout
  1
Layout2
 70
     1
 71
     2
 10
0.0
 20
0.0
 11
0.0
 21
0.0
 12
0.0
 22
0.0
 32
0.0
 14
0.0
 24
0.0
 34
0.0
 15
0.0
 25
0.0
 35
0.0
146
0.0
 13
0.0
 23
0.0
 33
0.0
 16
1.0
 26
0.0
 36
0.0
 17
0.0
 27
1.0
 37
0.0
 76
     0
330
23
  0
LAYOUT
  5
22
102
{ACAD_REACTORS
330
1A
102
}
330
1A
100
AcDbPlotSettings
  1

  2
none_device
  4
ANSI_A_(11.00_x_8.50_Inches)
  6

 40
6.35
 41
19.05
 42
6.35000508
 43
19.05000254
 44
279.4
 45
215.9
 46
78.53335653584796
 47
42.51637482227601
 48
0.0
 49
0.0
140
0.0
141
0.0
142
0.0377320991798249
143
1.0
 70
  1696
 72
     0
 73
     0
 74
     0
  7

 75
     0
147
0.0235690232323232
148
0.0
149
0.0
100
AcDbLayout
  1
Model
 70
     1
 71
     0
 10
0.0
 20
0.0
 11
420.0
 21
297.0
 12
0.0
 22
0.0
 32
0.0
 14
1.000000000000000E+20
 24
1.000000000000000E+20
 34
1.000000000000000E+20
 15
-1.000000000000000E+20
 25
-1.000000000000000E+20
 35
-1.000000000000000E+20
146
0.0
 13
0.0
 23
0.0
 33
0.0
 16
1.0
 26
0.0
 36
0.0
 17
0.0
 27
1.0
 37
0.0
 76
     0
330
1F
331
29
  0
MLINESTYLE
  5
18
102
{ACAD_REACTORS
330
17
102
}
330
17
100
AcDbMlineStyle
  2
Standard
 70
     0
  3

 62
   256
 51
90.0
 52
90.0
 71
     2
 49
0.5
 62
   256
  6
BYLAYER
 49
-0.5
 62
   256
  6
BYLAYER
  0
ACDBPLACEHOLDER
  5
F
102
{ACAD_REACTORS
330
E
102
}
330
E
  0
SCALE
  5
48
102
{ACAD_REACTORS
330
47
102
}
330
47
100
AcDbScale
 70
     0
300
1:1
140
1.0
141
1.0
290
     1
  0
SCALE
  5
49
102
{ACAD_REACTORS
330
47
102
}
330
47
100
AcDbScale
 70
     0
300
1:2
140
1.0
141
2.0
290
     0
  0
SCALE
  5
4A
102
{ACAD_REACTORS
330
47
102
}
330
47
100
AcDbScale
 70
     0
300
1:4
140
1.0
141
4.0
290
     0
  0
SCALE
  5
4B
102
{ACAD_REACTORS
330
47
102
}
330
47
100
AcDbScale
 70
     0
300
1:5
140
1.0
141
5.0
290
     0
  0
SCALE
  5
4C
102
{ACAD_REACTORS
330
47
102
}
330
47
100
AcDbScale
 70
     0
300
1:8
140
1.0
141
8.0
290
     0
  0
SCALE
  5
4D
102
{ACAD_REACTORS
330
47
102
}
330
47
100
AcDbScale
 70
     0
300
1:10
140
1.0
141
10.0
290
     0
  0
SCALE
  5
4E
102
{ACAD_REACTORS
330
47
102
}
330
47
100
AcDbScale
 70
     0
300
1:16
140
1.0
141
16.0
290
     0
  0
SCALE
  5
4F
102
{ACAD_REACTORS
330
47
102
}
330
47
100
AcDbScale
 70
     0
300
1:20
140
1.0
141
20.0
290
     0
  0
SCALE
  5
50
102
{ACAD_REACTORS
330
47
102
}
330
47
100
AcDbScale
 70
     0
300
1:30
140
1.0
141
30.0
290
     0
  0
SCALE
  5
51
102
{ACAD_REACTORS
330
47
102
}
330
47
100
AcDbScale
 70
     0
300
1:40
140
1.0
141
40.0
290
     0
  0
SCALE
  5
52
102
{ACAD_REACTORS
330
47
102
}
330
47
100
AcDbScale
 70
     0
300
1:50
140
1.0
141
50.0
290
     0
  0
SCALE
  5
53
102
{ACAD_REACTORS
330
47
102
}
330
47
100
AcDbScale
 70
     0
300
1:100
140
1.0
141
100.0
290
     0
  0
SCALE
  5
54
102
{ACAD_REACTORS
330
47
102
}
330
47
100
AcDbScale
 70
     0
300
2:1
140
2.0
141
1.0
290
     0
  0
SCALE
  5
55
102
{ACAD_REACTORS
330
47
102
}
330
47
100
AcDbScale
 70
     0
300
4:1
140
4.0
141
1.0
290
     0
  0
SCALE
  5
56
102
{ACAD_REACTORS
330
47
102
}
330
47
100
AcDbScale
 70
     0
300
8:1
140
8.0
141
1.0
290
     0
  0
SCALE
  5
57
102
{ACAD_REACTORS
330
47
102
}
330
47
100
AcDbScale
 70
     0
300
10:1
140
10.0
141
1.0
290
     0
  0
SCALE
  5
58
102
{ACAD_REACTORS
330
47
102
}
330
47
100
AcDbScale
 70
     0
300
100:1
140
100.0
141
1.0
290
     0
  0
SCALE
  5
59
102
{ACAD_REACTORS
330
47
102
}
330
47
100
AcDbScale
 70
     0
300
1/128" = 1'-0"
140
0.0078125
141
12.0
290
     0
  0
SCALE
  5
5A
102
{ACAD_REACTORS
330
47
102
}
330
47
100
AcDbScale
 70
     0
300
1/64" = 1'-0"
140
0.015625
141
12.0
290
     0
  0
SCALE
  5
5B
102
{ACAD_REACTORS
330
47
102
}
330
47
100
AcDbScale
 70
     0
300
1/32" = 1'-0"
140
0.03125
141
12.0
290
     0
  0
SCALE
  5
5C
102
{ACAD_REACTORS
330
47
102
}
330
47
100
AcDbScale
 70
     0
300
1/16" = 1'-0"
140
0.0625
141
12.0
290
     0
  0
SCALE
  5
5D
102
{ACAD_REACTORS
330
47
102
}
330
47
100
AcDbScale
 70
     0
300
3/32" = 1'-0"
140
0.09375
141
12.0
290
     0
  0
SCALE
  5
5E
102
{ACAD_REACTORS
330
47
102
}
330
47
100
AcDbScale
 70
     0
300
1/8" = 1'-0"
140
0.125
141
12.0
290
     0
  0
SCALE
  5
5F
102
{ACAD_REACTORS
330
47
102
}
330
47
100
AcDbScale
 70
     0
300
3/16" = 1'-0"
140
0.1875
141
12.0
290
     0
  0
SCALE
  5
60
102
{ACAD_REACTORS
330
47
102
}
330
47
100
AcDbScale
 70
     0
300
1/4" = 1'-0"
140
0.25
141
12.0
290
     0
  0
SCALE
  5
61
102
{ACAD_REACTORS
330
47
102
}
330
47
100
AcDbScale
 70
     0
300
3/8" = 1'-0"
140
0.375
141
12.0
290
     0
  0
SCALE
  5
62
102
{ACAD_REACTORS
330
47
102
}
330
47
100
AcDbScale
 70
     0
300
1/2" = 1'-0"
140
0.5
141
12.0
290
     0
  0
SCALE
  5
63
102
{ACAD_REACTORS
330
47
102
}
330
47
100
AcDbScale
 70
     0
300
3/4" = 1'-0"
140
0.75
141
12.0
290
     0
  0
SCALE
  5
64
102
{ACAD_REACTORS
330
47
102
}
330
47
100
AcDbScale
 70
     0
300
1" = 1'-0"
140
1.0
141
12.0
290
     0
  0
SCALE
  5
65
102
{ACAD_REACTORS
330
47
102
}
330
47
100
AcDbScale
 70
     0
300
1-1/2" = 1'-0"
140
1.5
141
12.0
290
     0
  0
SCALE
  5
66
102
{ACAD_REACTORS
330
47
102
}
330
47
100
AcDbScale
 70
     0
300
3" = 1'-0"
140
3.0
141
12.0
290
     0
  0
SCALE
  5
67
102
{ACAD_REACTORS
330
47
102
}
330
47
100
AcDbScale
 70
     0
300
6" = 1'-0"
140
6.0
141
12.0
290
     0
  0
SCALE
  5
68
102
{ACAD_REACTORS
330
47
102
}
330
47
100
AcDbScale
 70
     0
300
1'-0" = 1'-0"
140
12.0
141
12.0
290
     0
  0
ENDSEC
  0
EOF
