  0
SECTION
  2
HEADER
  9
$ACADVER
  1
AC1015
  9
$ACADMAINTVER
 70
     6
  9
$DWGCODEPAGE
  3
ANSI_949
  9
$INSBASE
 10
0.0
 20
0.0
 30
0.0
  9
$EXTMIN
 10
1.000000000000000E+20
 20
1.000000000000000E+20
 30
1.000000000000000E+20
  9
$EXTMAX
 10
-1.000000000000000E+20
 20
-1.000000000000000E+20
 30
-1.000000000000000E+20
  9
$LIMMIN
 10
0.0
 20
0.0
  9
$LIMMAX
 10
420.0
 20
297.0
  9
$ORTHOMODE
 70
     0
  9
$REGENMODE
 70
     1
  9
$FILLMODE
 70
     1
  9
$QTEXTMODE
 70
     0
  9
$MIRRTEXT
 70
     1
  9
$LTSCALE
 40
1.0
  9
$ATTMODE
 70
     1
  9
$TEXTSIZE
 40
3.5
  9
$TRACEWID
 40
1.0
  9
$TEXTSTYLE
  7
Standard
  9
$CLAYER
  8
0
  9
$CELTYPE
  6
ByLayer
  9
$CECOLOR
 62
   256
  9
$CELTSCALE
 40
1.0
  9
$DISPSILH
 70
     0
  9
$DIMSCALE
 40
1.0
  9
$DIMASZ
 40
3.302
  9
$DIMEXO
 40
1.0
  9
$DIMDLI
 40
3.75
  9
$DIMRND
 40
0.0
  9
$DIMDLE
 40
0.0
  9
$DIMEXE
 40
1.0
  9
$DIMTP
 40
0.0
  9
$DIMTM
 40
0.0
  9
$DIMTXT
 40
3.5
  9
$DIMCEN
 40
2.5
  9
$DIMTSZ
 40
0.0
  9
$DIMTOL
 70
     0
  9
$DIMLIM
 70
     0
  9
$DIMTIH
 70
     1
  9
$DIMTOH
 70
     1
  9
$DIMSE1
 70
     0
  9
$DIMSE2
 70
     0
  9
$DIMTAD
 70
     1
  9
$DIMZIN
 70
     0
  9
$DIMBLK
  1

  9
$DIMASO
 70
     1
  9
$DIMSHO
 70
     1
  9
$DIMPOST
  1

  9
$DIMAPOST
  1

  9
$DIMALT
 70
     0
  9
$DIMALTD
 70
     3
  9
$DIMALTF
 40
0.0393700787401575
  9
$DIMLFAC
 40
1.0
  9
$DIMTOFL
 70
     1
  9
$DIMTVP
 40
0.0
  9
$DIMTIX
 70
     0
  9
$DIMSOXD
 70
     0
  9
$DIMSAH
 70
     0
  9
$DIMBLK1
  1

  9
$DIMBLK2
  1

  9
$DIMSTYLE
  2
ISO-25
  9
$DIMCLRD
 70
     0
  9
$DIMCLRE
 70
     0
  9
$DIMCLRT
 70
     0
  9
$DIMTFAC
 40
1.0
  9
$DIMGAP
 40
1.524
  9
$DIMJUST
 70
     0
  9
$DIMSD1
 70
     0
  9
$DIMSD2
 70
     0
  9
$DIMTOLJ
 70
     0
  9
$DIMTZIN
 70
     0
  9
$DIMALTZ
 70
     0
  9
$DIMALTTZ
 70
     0
  9
$DIMUPT
 70
     0
  9
$DIMDEC
 70
     2
  9
$DIMTDEC
 70
     2
  9
$DIMALTU
 70
     2
  9
$DIMALTTD
 70
     3
  9
$DIMTXSTY
  7
Standard
  9
$DIMAUNIT
 70
     0
  9
$DIMADEC
 70
     2
  9
$DIMALTRND
 40
0.0
  9
$DIMAZIN
 70
     0
  9
$DIMDSEP
 70
    44
  9
$DIMATFIT
 70
     3
  9
$DIMFRAC
 70
     0
  9
$DIMLDRBLK
  1

  9
$DIMLUNIT
 70
     2
  9
$DIMLWD
 70
    -2
  9
$DIMLWE
 70
    -2
  9
$DIMTMOVE
 70
     0
  9
$LUNITS
 70
     2
  9
$LUPREC
 70
     2
  9
$SKETCHINC
 40
1.0
  9
$FILLETRAD
 40
10.0
  9
$AUNITS
 70
     0
  9
$AUPREC
 70
     2
  9
$MENU
  1
.
  9
$ELEVATION
 40
0.0
  9
$PELEVATION
 40
0.0
  9
$THICKNESS
 40
0.0
  9
$LIMCHECK
 70
     0
  9
$CHAMFERA
 40
0.0
  9
$CHAMFERB
 40
0.0
  9
$CHAMFERC
 40
0.0
  9
$CHAMFERD
 40
0.0
  9
$SKPOLY
 70
     0
  9
$TDCREATE
 40
2458292.645355243
  9
$TDUCREATE
 40
2458292.270355243
  9
$TDUPDATE
 40
2458295.818853449
  9
$TDUUPDATE
 40
2458295.443853449
  9
$TDINDWG
 40
0.0007440856
  9
$TDUSRTIMER
 40
2458295.443109768
  9
$USRTIMER
 70
     1
  9
$ANGBASE
 50
0.0
  9
$ANGDIR
 70
     0
  9
$PDMODE
 70
     0
  9
$PDSIZE
 40
-1.0
  9
$PLINEWID
 40
0.0
  9
$SPLFRAME
 70
     0
  9
$SPLINETYPE
 70
     6
  9
$SPLINESEGS
 70
     8
  9
$HANDSEED
  5
194
  9
$SURFTAB1
 70
     6
  9
$SURFTAB2
 70
     6
  9
$SURFTYPE
 70
     6
  9
$SURFU
 70
     6
  9
$SURFV
 70
     6
  9
$UCSBASE
  2

  9
$UCSNAME
  2

  9
$UCSORG
 10
0.0
 20
0.0
 30
0.0
  9
$UCSXDIR
 10
1.0
 20
0.0
 30
0.0
  9
$UCSYDIR
 10
0.0
 20
1.0
 30
0.0
  9
$UCSORTHOREF
  2

  9
$UCSORTHOVIEW
 70
     0
  9
$UCSORGTOP
 10
0.0
 20
0.0
 30
0.0
  9
$UCSORGBOTTOM
 10
0.0
 20
0.0
 30
0.0
  9
$UCSORGLEFT
 10
0.0
 20
0.0
 30
0.0
  9
$UCSORGRIGHT
 10
0.0
 20
0.0
 30
0.0
  9
$UCSORGFRONT
 10
0.0
 20
0.0
 30
0.0
  9
$UCSORGBACK
 10
0.0
 20
0.0
 30
0.0
  9
$PUCSBASE
  2

  9
$PUCSNAME
  2

  9
$PUCSORG
 10
0.0
 20
0.0
 30
0.0
  9
$PUCSXDIR
 10
1.0
 20
0.0
 30
0.0
  9
$PUCSYDIR
 10
0.0
 20
1.0
 30
0.0
  9
$PUCSORTHOREF
  2

  9
$PUCSORTHOVIEW
 70
     0
  9
$PUCSORGTOP
 10
0.0
 20
0.0
 30
0.0
  9
$PUCSORGBOTTOM
 10
0.0
 20
0.0
 30
0.0
  9
$PUCSORGLEFT
 10
0.0
 20
0.0
 30
0.0
  9
$PUCSORGRIGHT
 10
0.0
 20
0.0
 30
0.0
  9
$PUCSORGFRONT
 10
0.0
 20
0.0
 30
0.0
  9
$PUCSORGBACK
 10
0.0
 20
0.0
 30
0.0
  9
$USERI1
 70
     0
  9
$USERI2
 70
     0
  9
$USERI3
 70
     0
  9
$USERI4
 70
     0
  9
$USERI5
 70
     0
  9
$USERR1
 40
0.0
  9
$USERR2
 40
0.0
  9
$USERR3
 40
0.0
  9
$USERR4
 40
0.0
  9
$USERR5
 40
0.0
  9
$WORLDVIEW
 70
     1
  9
$SHADEDGE
 70
     3
  9
$SHADEDIF
 70
    70
  9
$TILEMODE
 70
     1
  9
$MAXACTVP
 70
    64
  9
$PINSBASE
 10
0.0
 20
0.0
 30
0.0
  9
$PLIMCHECK
 70
     0
  9
$PEXTMIN
 10
1.000000000000000E+20
 20
1.000000000000000E+20
 30
1.000000000000000E+20
  9
$PEXTMAX
 10
-1.000000000000000E+20
 20
-1.000000000000000E+20
 30
-1.000000000000000E+20
  9
$PLIMMIN
 10
0.0
 20
0.0
  9
$PLIMMAX
 10
0.0
 20
0.0
  9
$UNITMODE
 70
     0
  9
$VISRETAIN
 70
     1
  9
$PLINEGEN
 70
     0
  9
$PSLTSCALE
 70
     1
  9
$TREEDEPTH
 70
  3020
  9
$CMLSTYLE
  2
Standard
  9
$CMLJUST
 70
     0
  9
$CMLSCALE
 40
20.0
  9
$PROXYGRAPHICS
 70
     1
  9
$MEASUREMENT
 70
     1
  9
$CELWEIGHT
370
    -1
  9
$ENDCAPS
280
     0
  9
$JOINSTYLE
280
     0
  9
$LWDISPLAY
290
     1
  9
$INSUNITS
 70
     4
  9
$HYPERLINKBASE
  1

  9
$STYLESHEET
  1

  9
$XEDIT
290
     1
  9
$CEPSNTYPE
380
     0
  9
$PSTYLEMODE
290
     1
  9
$FINGERPRINTGUID
  2
{0D5879BA-8F8A-4153-9BE9-C0BD269FA0F3}
  9
$VERSIONGUID
  2
{FAEB1C32-E019-11D5-929B-00C0DF256EC4}
  9
$EXTNAMES
290
     1
  9
$PSVPSCALE
 40
0.0
  9
$OLESTARTUP
290
     0
  0
ENDSEC
  0
SECTION
  2
CLASSES
  0
CLASS
  1
ACDBDICTIONARYWDFLT
  2
AcDbDictionaryWithDefault
  3
ObjectDBX Classes
 90
        0
280
     0
281
     0
  0
CLASS
  1
VISUALSTYLE
  2
AcDbVisualStyle
  3
ObjectDBX Classes
 90
     4095
280
     0
281
     0
  0
CLASS
  1
MATERIAL
  2
AcDbMaterial
  3
ObjectDBX Classes
 90
     1153
280
     0
281
     0
  0
CLASS
  1
SCALE
  2
AcDbScale
  3
ObjectDBX Classes
 90
     1153
280
     0
281
     0
  0
CLASS
  1
SUN
  2
AcDbSun
  3
SCENEOE
 90
     1153
280
     0
281
     0
  0
CLASS
  1
ACDBPLACEHOLDER
  2
AcDbPlaceHolder
  3
ObjectDBX Classes
 90
        0
280
     0
281
     0
  0
CLASS
  1
LAYOUT
  2
AcDbLayout
  3
ObjectDBX Classes
 90
        0
280
     0
281
     0
  0
CLASS
  1
TABLESTYLE
  2
AcDbTableStyle
  3
ObjectDBX Classes
 90
     4095
280
     0
281
     0
  0
CLASS
  1
MLEADERSTYLE
  2
AcDbMLeaderStyle
  3
ACDB_MLEADERSTYLE_CLASS
 90
     4095
280
     0
281
     0
  0
CLASS
  1
RASTERVARIABLES
  2
AcDbRasterVariables
  3
ISM
 90
        0
280
     0
281
     0
  0
ENDSEC
  0
SECTION
  2
TABLES
  0
TABLE
  2
VPORT
  5
8
330
0
100
AcDbSymbolTable
 70
     1
  0
VPORT
  5
29
330
8
100
AcDbSymbolTableRecord
100
AcDbViewportTableRecord
  2
*Active
 70
     0
 10
0.0
 20
0.0
 11
1.0
 21
1.0
 12
-46.27189206818154
 22
13.41189346889193
 13
0.0
 23
0.0
 14
10.0
 24
10.0
 15
10.0
 25
10.0
 16
0.0
 26
0.0
 36
1.0
 17
0.0
 27
0.0
 37
0.0
 40
138.5093812631367
 41
1.798434442270059
 42
50.0
 43
0.0
 44
0.0
 50
0.0
 51
0.0
 71
    16
 72
  2000
 73
     1
 74
     3
 75
     0
 76
     0
 77
     0
 78
     0
281
     0
 65
     1
110
0.0
120
0.0
130
0.0
111
1.0
121
0.0
131
0.0
112
0.0
122
1.0
132
0.0
 79
     0
146
0.0
  0
ENDTAB
  0
TABLE
  2
LTYPE
  5
5
330
0
100
AcDbSymbolTable
 70
     6
  0
LTYPE
  5
14
330
5
100
AcDbSymbolTableRecord
100
AcDbLinetypeTableRecord
  2
ByBlock
 70
     0
  3

 72
    65
 73
     0
 40
0.0
  0
LTYPE
  5
15
330
5
100
AcDbSymbolTableRecord
100
AcDbLinetypeTableRecord
  2
ByLayer
 70
     0
  3

 72
    65
 73
     0
 40
0.0
  0
LTYPE
  5
16
330
5
100
AcDbSymbolTableRecord
100
AcDbLinetypeTableRecord
  2
Continuous
 70
     0
  3
Solid line
 72
    65
 73
     0
 40
0.0
  0
LTYPE
  5
6A
330
5
100
AcDbSymbolTableRecord
100
AcDbLinetypeTableRecord
  2
HIDDEN
 70
     0
  3
Hidden __ __ __ __ __ __ __ __ __ __ __ __ __ __
 72
    65
 73
     2
 40
1.905
 49
1.27
 74
     0
 49
-0.635
 74
     0
  0
LTYPE
  5
6B
330
5
100
AcDbSymbolTableRecord
100
AcDbLinetypeTableRecord
  2
PHANTOM
 70
     0
  3
Phantom ______  __  __  ______  __  __  ______
 72
    65
 73
     6
 40
12.7
 49
6.35
 74
     0
 49
-1.27
 74
     0
 49
1.27
 74
     0
 49
-1.27
 74
     0
 49
1.27
 74
     0
 49
-1.27
 74
     0
  0
LTYPE
  5
6C
330
5
100
AcDbSymbolTableRecord
100
AcDbLinetypeTableRecord
  2
CENTER
 70
     0
  3
Center ____ _ ____ _ ____ _ ____ _ ____ _ ____
 72
    65
 73
     4
 40
10.16
 49
6.35
 74
     0
 49
-1.27
 74
     0
 49
1.27
 74
     0
 49
-1.27
 74
     0
  0
LTYPE
  5
6D
330
5
100
AcDbSymbolTableRecord
100
AcDbLinetypeTableRecord
  2
CENTERX2
 70
     0
  3
Center (2x) ________  __  ________  __  _____
 72
    65
 73
     4
 40
20.32
 49
12.7
 74
     0
 49
-2.54
 74
     0
 49
2.54
 74
     0
 49
-2.54
 74
     0
  0
LTYPE
  5
6E
330
5
100
AcDbSymbolTableRecord
100
AcDbLinetypeTableRecord
  2
DOT2
 70
     0
  3
Dot (.5x) ........................................
 72
    65
 73
     2
 40
0.635
 49
0.0
 74
     0
 49
-0.635
 74
     0
  0
ENDTAB
  0
TABLE
  2
LAYER
  5
2
102
{ACAD_XDICTIONARY
360
187
102
}
330
0
100
AcDbSymbolTable
 70
    18
  0
LAYER
  5
10
330
2
100
AcDbSymbolTableRecord
100
AcDbLayerTableRecord
  2
0
 70
     0
 62
     7
  6
Continuous
370
    -3
390
F
  0
LAYER
  5
6F
330
2
100
AcDbSymbolTableRecord
100
AcDbLayerTableRecord
  2
FORMAT
 70
     0
 62
     2
  6
Continuous
370
    -3
390
F
  0
LAYER
  5
70
330
2
100
AcDbSymbolTableRecord
100
AcDbLayerTableRecord
  2
외형선
 70
     0
 62
     4
  6
Continuous
370
    30
390
F
  0
LAYER
  5
71
330
2
100
AcDbSymbolTableRecord
100
AcDbLayerTableRecord
  2
숨은선
 70
     0
 62
     2
  6
HIDDEN
370
    15
390
F
  0
LAYER
  5
72
330
2
100
AcDbSymbolTableRecord
100
AcDbLayerTableRecord
  2
중심선
 70
     0
 62
     1
  6
CENTERX2
370
    -3
390
F
  0
LAYER
  5
73
330
2
100
AcDbSymbolTableRecord
100
AcDbLayerTableRecord
  2
파단선
 70
     0
 62
     4
  6
Continuous
370
    -3
390
F
  0
LAYER
  5
74
330
2
100
AcDbSymbolTableRecord
100
AcDbLayerTableRecord
  2
해칭선
 70
     0
 62
   100
  6
Continuous
370
    -3
390
F
  0
LAYER
  5
75
330
2
100
AcDbSymbolTableRecord
100
AcDbLayerTableRecord
  2
가는실선
 70
     0
 62
     4
  6
Continuous
370
    -3
390
F
  0
LAYER
  5
76
330
2
100
AcDbSymbolTableRecord
100
AcDbLayerTableRecord
  2
치수_보조선
 70
     0
 62
     4
  6
Continuous
370
    -3
390
F
  0
LAYER
  5
77
330
2
100
AcDbSymbolTableRecord
100
AcDbLayerTableRecord
  2
치수문자_일반주서
 70
     0
 62
     7
  6
Continuous
370
    15
390
F
  0
LAYER
  5
78
330
2
100
AcDbSymbolTableRecord
100
AcDbLayerTableRecord
  2
개별주서
 70
     0
 62
   100
  6
Continuous
370
    30
390
F
  0
LAYER
  5
79
330
2
100
AcDbSymbolTableRecord
100
AcDbLayerTableRecord
  2
중간선
 70
     0
 62
     2
  6
Continuous
370
    15
390
F
  0
LAYER
  5
7A
330
2
100
AcDbSymbolTableRecord
100
AcDbLayerTableRecord
  2
윤곽선
 70
     0
 62
     3
  6
Continuous
370
    40
390
F
  0
LAYER
  5
7B
330
2
100
AcDbSymbolTableRecord
100
AcDbLayerTableRecord
  2
중심마크
 70
     0
 62
   100
  6
Continuous
370
    30
390
F
  0
LAYER
  5
7C
330
2
100
AcDbSymbolTableRecord
100
AcDbLayerTableRecord
  2
가상선
 70
     0
 62
     4
  6
PHANTOM
370
    -3
390
F
  0
LAYER
  5
7D
330
2
100
AcDbSymbolTableRecord
100
AcDbLayerTableRecord
  2
특수지정선
 70
     0
 62
     5
  6
CENTERX2
370
    60
390
F
  0
LAYER
  5
7E
330
2
100
AcDbSymbolTableRecord
100
AcDbLayerTableRecord
  2
참조1
 70
     0
 62
    -4
  6
Continuous
370
    -3
390
F
  0
LAYER
  5
18E
330
2
100
AcDbSymbolTableRecord
100
AcDbLayerTableRecord
  2
Defpoints
 70
     0
 62
     7
  6
Continuous
290
     0
370
    -3
390
F
  0
ENDTAB
  0
TABLE
  2
STYLE
  5
3
330
0
100
AcDbSymbolTable
 70
     2
  0
STYLE
  5
11
330
3
100
AcDbSymbolTableRecord
100
AcDbTextStyleTableRecord
  2
Standard
 70
     0
 40
0.0
 41
1.0
 50
0.0
 71
     0
 42
3.5
  3
txt
  4

  0
STYLE
  5
94
330
3
100
AcDbSymbolTableRecord
100
AcDbTextStyleTableRecord
  2
SLDTEXTSTYLE0
 70
     0
 40
0.0
 41
0.75
 50
0.0
 71
     0
 42
3.5
  3
TXT
  4

  0
ENDTAB
  0
TABLE
  2
VIEW
  5
6
330
0
100
AcDbSymbolTable
 70
     0
  0
ENDTAB
  0
TABLE
  2
UCS
  5
7
330
0
100
AcDbSymbolTable
 70
     0
  0
ENDTAB
  0
TABLE
  2
APPID
  5
9
330
0
100
AcDbSymbolTable
 70
     3
  0
APPID
  5
12
330
9
100
AcDbSymbolTableRecord
100
AcDbRegAppTableRecord
  2
ACAD
 70
     0
  0
APPID
  5
192
330
9
100
AcDbSymbolTableRecord
100
AcDbRegAppTableRecord
  2
ACAD_DSTYLE_DIMFLIPARROW_SYMBOL
 70
     0
  0
APPID
  5
193
330
9
100
AcDbSymbolTableRecord
100
AcDbRegAppTableRecord
  2
ACAD_DSTYLE_DIMFLIPARROW_WHICH_SYMBOL
 70
     0
  0
ENDTAB
  0
TABLE
  2
DIMSTYLE
  5
A
330
0
100
AcDbSymbolTable
 70
     4
100
AcDbDimStyleTable
  0
DIMSTYLE
105
27
330
A
100
AcDbSymbolTableRecord
100
AcDbDimStyleTableRecord
  2
ISO-25
 70
     0
 41
2.5
 42
0.625
 43
3.75
 44
1.25
 73
     0
 74
     0
 77
     1
 78
     8
140
2.5
141
2.5
143
0.03937007874016
147
0.625
171
     3
172
     1
178
     0
271
     2
272
     2
274
     3
278
    44
283
     0
284
     8
340
11
  0
DIMSTYLE
105
DD
102
{ACAD_REACTORS
330
DC
330
F1
330
105
330
11B
102
}
330
A
100
AcDbSymbolTableRecord
100
AcDbDimStyleTableRecord
  2
SLDDIMSTYLE0
 70
     0
 41
3.302
 44
0.0
 45
0.000000001
 73
     0
 74
     0
 77
     1
 78
    12
 79
     3
140
3.5
143
0.0393700787401575
147
0.875
148
0.000000001
170
     1
172
     1
173
     1
178
     0
271
     2
272
     2
276
     2
284
    12
289
     0
340
94
  0
DIMSTYLE
105
106
330
A
100
AcDbSymbolTableRecord
100
AcDbDimStyleTableRecord
  2
SLDDIMSTYLE1
 70
     0
 41
3.302
 44
0.0
 45
0.000000001
 73
     0
 74
     0
 77
     1
 78
     4
 79
     1
140
3.5
143
0.0393700787401575
147
0.875
148
0.000000001
170
     1
172
     1
173
     1
178
     0
271
     2
272
     2
276
     2
284
    12
289
     0
340
94
  0
DIMSTYLE
105
11C
330
A
100
AcDbSymbolTableRecord
100
AcDbDimStyleTableRecord
  2
SLDDIMSTYLE2
 70
     0
 41
3.302
 44
0.0
 45
0.000000001
 73
     0
 74
     0
 77
     1
 78
    12
 79
     3
140
3.5
143
0.0393700787401575
147
0.875
148
0.000000001
170
     1
173
     1
178
     0
271
     2
272
     2
276
     2
284
    12
340
94
  0
ENDTAB
  0
TABLE
  2
BLOCK_RECORD
  5
1
330
0
100
AcDbSymbolTable
 70
     8
  0
BLOCK_RECORD
  5
1F
330
1
100
AcDbSymbolTableRecord
100
AcDbBlockTableRecord
  2
*Model_Space
340
22
  0
BLOCK_RECORD
  5
1B
330
1
100
AcDbSymbolTableRecord
100
AcDbBlockTableRecord
  2
*Paper_Space
340
1E
  0
BLOCK_RECORD
  5
23
330
1
100
AcDbSymbolTableRecord
100
AcDbBlockTableRecord
  2
*Paper_Space0
340
26
  0
BLOCK_RECORD
  5
7F
330
1
100
AcDbSymbolTableRecord
100
AcDbBlockTableRecord
  2
블럭10
340
0
102
{BLKREFS
331
D5
102
}
  0
BLOCK_RECORD
  5
DE
330
1
100
AcDbSymbolTableRecord
100
AcDbBlockTableRecord
  2
_D
340
0
  0
BLOCK_RECORD
  5
F2
330
1
100
AcDbSymbolTableRecord
100
AcDbBlockTableRecord
  2
_D_1
340
0
  0
BLOCK_RECORD
  5
107
330
1
100
AcDbSymbolTableRecord
100
AcDbBlockTableRecord
  2
_D_2
340
0
  0
BLOCK_RECORD
  5
11D
330
1
100
AcDbSymbolTableRecord
100
AcDbBlockTableRecord
  2
_D_3
340
0
  0
BLOCK_RECORD
  5
136
330
1
100
AcDbSymbolTableRecord
100
AcDbBlockTableRecord
  2
SW_DOWELSYMBOL_0
340
0
102
{BLKREFS
331
13C
102
}
  0
ENDTAB
  0
ENDSEC
  0
SECTION
  2
BLOCKS
  0
BLOCK
  5
20
330
1F
100
AcDbEntity
  8
0
100
AcDbBlockBegin
  2
*Model_Space
 70
     0
 10
0.0
 20
0.0
 30
0.0
  3
*Model_Space
  1
*Model_Space
  0
ENDBLK
  5
21
330
1F
100
AcDbEntity
  8
0
100
AcDbBlockEnd
  0
BLOCK
  5
1C
330
1B
100
AcDbEntity
 67
     1
  8
0
100
AcDbBlockBegin
  2
*Paper_Space
 70
     0
 10
0.0
 20
0.0
 30
0.0
  3
*Paper_Space
  1
*Paper_Space
  0
ENDBLK
  5
1D
330
1B
100
AcDbEntity
 67
     1
  8
0
100
AcDbBlockEnd
  0
BLOCK
  5
24
330
23
100
AcDbEntity
  8
0
100
AcDbBlockBegin
  2
*Paper_Space0
 70
     0
 10
0.0
 20
0.0
 30
0.0
  3
*Paper_Space0
  1
*Paper_Space0
  0
ENDBLK
  5
25
330
23
100
AcDbEntity
  8
0
100
AcDbBlockEnd
  0
BLOCK
  5
80
330
7F
100
AcDbEntity
  8
0
100
AcDbBlockBegin
  2
블럭10
 70
     2
 10
0.0
 20
0.0
 30
0.0
  3
블럭10
  1
블럭10
  0
ELLIPSE
  5
82
330
7F
100
AcDbEntity
  8
중심선
100
AcDbEllipse
 10
20.54032771741204
 20
12.0471743016438
 30
0.0
 11
6.600054785286829
 21
-1.261213355974178E-13
 31
0.0
210
0.0
220
0.0
230
1.0
 40
0.636358354079598
 41
0.9219305317359503
 42
6.513795318482858
  0
ELLIPSE
  5
83
330
7F
100
AcDbEntity
  8
중심선
100
AcDbEllipse
 10
20.54032771746488
 20
12.04717430159265
 30
0.0
 11
3.960054785062283
 21
1.540847449632565E-10
 31
0.0
210
0.0
220
0.0
230
1.0
 40
0.3939339440162632
 41
1.131841032648279
 42
5.62031148352944
  0
LINE
  5
84
330
7F
100
AcDbEntity
  8
중심선
100
AcDbLine
 10
2.268634060543552
 20
16.24717430164393
 30
0.0
 11
5.714909304380834
 21
16.24717430164393
 31
0.0
  0
LINE
  5
85
330
7F
100
AcDbEntity
  8
중심선
100
AcDbLine
 10
5.245725140726316
 20
7.84717430164391
 30
0.0
 11
8.692000384563599
 21
7.84717430164391
 31
0.0
  0
LINE
  5
86
330
7F
100
AcDbEntity
  8
중심선
100
AcDbLine
 10
15.74043728645272
 20
16.24717430164393
 30
0.0
 11
8.692000384563599
 21
7.84717430164391
 31
0.0
  0
LINE
  5
87
330
7F
100
AcDbEntity
  8
중심선
100
AcDbLine
 10
0.1404042013395286
 20
13.71084872107135
 30
0.0
 11
3.58671253028996
 21
13.71088815037384
 31
0.0
  0
LINE
  5
88
330
7F
100
AcDbEntity
  8
중심선
100
AcDbLine
 10
2.750260043222114
 20
10.84717430164391
 30
0.0
 11
6.196535287059397
 21
10.84717430164391
 31
0.0
  0
LINE
  5
89
330
7F
100
AcDbEntity
  8
중심선
100
AcDbLine
 10
12.29416204261559
 20
16.24717430164393
 30
0.0
 11
5.245725140726316
 21
7.84717430164391
 31
0.0
  0
LINE
  5
8A
330
7F
100
AcDbEntity
  8
중심선
100
AcDbLine
 10
10.72767329541681
 20
16.24717430164393
 30
0.0
 11
6.196535287059397
 21
10.84717430164391
 31
0.0
  0
LINE
  5
8B
330
7F
100
AcDbEntity
  8
중심선
100
AcDbLine
 10
7.28139805157953
 20
16.24717430164393
 30
0.0
 11
2.750260043222114
 21
10.84717430164391
 31
0.0
  0
LINE
  5
8C
330
7F
100
AcDbEntity
  8
중심선
100
AcDbLine
 10
5.714909304380834
 20
16.24717430164393
 30
0.0
 11
3.58671253028996
 21
13.71088815037384
 31
0.0
  0
LINE
  5
8D
330
7F
100
AcDbEntity
  8
중심선
100
AcDbLine
 10
2.268634060543552
 20
16.24717430164393
 30
0.0
 11
0.1404042013395286
 21
13.71084872107135
 31
0.0
  0
LINE
  5
8E
330
7F
100
AcDbEntity
  8
중심선
100
AcDbLine
 10
7.28139805157953
 20
16.24717430164393
 30
0.0
 11
10.72767329541681
 21
16.24717430164393
 31
0.0
  0
LINE
  5
8F
330
7F
100
AcDbEntity
  8
중심선
100
AcDbLine
 10
12.29416204261559
 20
16.24717430164393
 30
0.0
 11
15.74043728645272
 21
16.24717430164393
 31
0.0
  0
LINE
  5
90
330
7F
100
AcDbEntity
  8
중심선
100
AcDbLine
 10
19.22036997980202
 20
11.08717430171403
 30
0.0
 11
23.66174974927406
 21
11.08717430171406
 31
0.0
  0
LINE
  5
91
330
7F
100
AcDbEntity
  8
중심선
100
AcDbLine
 10
19.22039502424796
 20
13.00717430171391
 30
0.0
 11
19.22036997980202
 21
11.08717430171403
 31
0.0
  0
LINE
  5
92
330
7F
100
AcDbEntity
  8
중심선
100
AcDbLine
 10
19.22039502424796
 20
13.00717430171391
 30
0.0
 11
26.96566020931264
 21
13.00717430171391
 31
0.0
  0
LINE
  5
93
330
7F
100
AcDbEntity
  8
중심선
100
AcDbLine
 10
22.22332737316547
 20
13.45928029700563
 30
0.0
 11
24.52862924686651
 21
15.39360700705356
 31
0.0
  0
ATTDEF
  5
95
330
7F
100
AcDbEntity
  8
FORMAT
 62
     2
100
AcDbText
 10
3.448148490846466
 20
2.075366912832191
 30
0.0
 40
4.233333333333333
  1
EM208016
 41
0.75
  7
SLDTEXTSTYLE0
 11
3.448148490846466
 21
-0.0412997538344756
 31
0.0
100
AcDbAttributeDefinition
  3

  2
AUTOATTR0
 70
     0
 74
     1
  0
ENDBLK
  5
81
330
7F
100
AcDbEntity
  8
0
100
AcDbBlockEnd
  0
BLOCK
  5
DF
330
DE
100
AcDbEntity
  8
0
100
AcDbBlockBegin
  2
_D
 70
     0
 10
0.0
 20
0.0
 30
0.0
  3
_D
  1
_D
  0
LINE
  5
E1
330
DE
100
AcDbEntity
  8
치수문자_일반주서
 62
     0
370
    -2
100
AcDbLine
 10
22.76249999999997
 20
3.176074928723902
 30
0.0
 11
41.22310225815443
 21
3.17607492872397
 31
0.0
  0
LINE
  5
E2
330
DE
100
AcDbEntity
  8
치수문자_일반주서
 62
     0
370
    -2
100
AcDbLine
 10
22.76249999999997
 20
-3.173925071276098
 30
0.0
 11
41.22310225815445
 21
-3.173925071276031
 31
0.0
  0
LINE
  5
E3
330
DE
100
AcDbEntity
  8
치수문자_일반주서
 62
     0
370
    -2
100
AcDbLine
 10
41.22310225815443
 20
3.17607492872397
 30
0.0
 11
41.22310225815431
 21
36.29381473851138
 31
0.0
  0
LINE
  5
E4
330
DE
100
AcDbEntity
  8
치수문자_일반주서
 62
     0
370
    -2
100
AcDbLine
 10
41.22310225815444
 20
-0.1259250712760291
 30
0.0
 11
41.22310225815443
 21
0.1280749287239686
 31
0.0
  0
SOLID
  5
E5
330
DE
100
AcDbEntity
  8
치수문자_일반주서
 62
     0
100
AcDbTrace
 10
41.77343559148778
 20
-0.1259250712760273
 30
0.0
 11
40.67276892482111
 21
-0.125925071276031
 31
0.0
 12
41.22310225815443
 22
3.17607492872397
 32
0.0
 13
41.22310225815443
 23
3.17607492872397
 33
0.0
  0
SOLID
  5
E6
330
DE
100
AcDbEntity
  8
치수문자_일반주서
 62
     0
100
AcDbTrace
 10
40.6727689248211
 20
0.1280749287239668
 30
0.0
 11
41.77343559148777
 21
0.1280749287239705
 31
0.0
 12
41.22310225815445
 22
-3.173925071276031
 32
0.0
 13
41.22310225815445
 23
-3.173925071276031
 33
0.0
  0
MTEXT
  5
E7
330
DE
100
AcDbEntity
  8
치수문자_일반주서
 62
     0
100
AcDbMText
 10
36.84810225815436
 20
23.60631473851137
 30
0.0
 40
3.5
 41
0.0
 71
     2
 72
     1
  1
\A1;%%c6.35 [1/4]
  7
SLDTEXTSTYLE0
 11
-3.356894814614647E-15
 21
1.0
 31
0.0
 73
     1
 44
1.0
  0
POINT
  5
E8
330
DE
100
AcDbEntity
  8
Defpoints
 62
     0
100
AcDbPoint
 10
22.69999999999997
 20
3.176074928723902
 30
0.0
  0
POINT
  5
E9
330
DE
100
AcDbEntity
  8
Defpoints
 62
     0
100
AcDbPoint
 10
22.69999999999997
 20
-3.173925071276098
 30
0.0
  0
POINT
  5
18F
330
DE
100
AcDbEntity
  8
Defpoints
 62
     0
100
AcDbPoint
 10
41.22310225815444
 20
-3.173925071276029
 30
0.0
  0
ENDBLK
  5
E0
330
DE
100
AcDbEntity
  8
0
100
AcDbBlockEnd
  0
BLOCK
  5
F3
330
F2
100
AcDbEntity
  8
0
100
AcDbBlockBegin
  2
_D_1
 70
     0
 10
0.0
 20
0.0
 30
0.0
  3
_D_1
  1
_D_1
  0
LINE
  5
F5
330
F2
100
AcDbEntity
  8
치수문자_일반주서
 62
     0
370
    -2
100
AcDbLine
 10
-33.87750000000004
 20
3.176074928723913
 30
0.0
 11
-48.72000000000006
 21
3.176074928723857
 31
0.0
  0
LINE
  5
F6
330
F2
100
AcDbEntity
  8
치수문자_일반주서
 62
     0
370
    -2
100
AcDbLine
 10
-33.87750000000004
 20
-3.17392507127611
 30
0.0
 11
-48.72000000000004
 21
-3.173925071276165
 31
0.0
  0
LINE
  5
F7
330
F2
100
AcDbEntity
  8
치수문자_일반주서
 62
     0
370
    -2
100
AcDbLine
 10
-48.72000000000005
 20
-0.1259250712761424
 30
0.0
 11
-48.72000000000006
 21
0.1280749287238345
 31
0.0
  0
SOLID
  5
F8
330
F2
100
AcDbEntity
  8
치수문자_일반주서
 62
     0
100
AcDbTrace
 10
-48.16966666666671
 20
-0.1259250712761405
 30
0.0
 11
-49.27033333333338
 21
-0.1259250712761442
 31
0.0
 12
-48.72000000000006
 22
3.176074928723857
 32
0.0
 13
-48.72000000000006
 23
3.176074928723857
 33
0.0
  0
SOLID
  5
F9
330
F2
100
AcDbEntity
  8
치수문자_일반주서
 62
     0
100
AcDbTrace
 10
-49.27033333333339
 20
0.1280749287238327
 30
0.0
 11
-48.16966666666672
 21
0.1280749287238364
 31
0.0
 12
-48.72000000000004
 22
-3.173925071276165
 32
0.0
 13
-48.72000000000004
 23
-3.173925071276165
 33
0.0
  0
MTEXT
  5
FA
330
F2
100
AcDbEntity
  8
치수문자_일반주서
 62
     0
100
AcDbMText
 10
-53.09500000000006
 20
0.0010749287238976
 30
0.0
 40
3.5
 41
0.0
 71
     2
 72
     1
  1
\A1;%%c6.35 [1/4]
  7
SLDTEXTSTYLE0
 11
-3.356894814614635E-15
 21
1.0
 31
0.0
 73
     1
 44
1.0
  0
POINT
  5
FB
330
F2
100
AcDbEntity
  8
Defpoints
 62
     0
100
AcDbPoint
 10
-33.81500000000004
 20
3.176074928723913
 30
0.0
  0
POINT
  5
FC
330
F2
100
AcDbEntity
  8
Defpoints
 62
     0
100
AcDbPoint
 10
-33.81500000000004
 20
-3.173925071276109
 30
0.0
  0
POINT
  5
FD
330
F2
100
AcDbEntity
  8
Defpoints
 62
     0
100
AcDbPoint
 10
-48.72000000000004
 20
-3.173925071276165
 30
0.0
  0
ENDBLK
  5
F4
330
F2
100
AcDbEntity
  8
0
100
AcDbBlockEnd
  0
BLOCK
  5
108
330
107
100
AcDbEntity
  8
0
100
AcDbBlockBegin
  2
_D_2
 70
     0
 10
0.0
 20
0.0
 30
0.0
  3
_D_2
  1
_D_2
  0
LINE
  5
10A
330
107
100
AcDbEntity
  8
치수문자_일반주서
 62
     0
370
    -2
100
AcDbLine
 10
22.69999999999997
 20
3.238574928723902
 30
0.0
 11
22.69999999999997
 21
33.75452799103542
 31
0.0
  0
LINE
  5
10B
330
107
100
AcDbEntity
  8
치수문자_일반주서
 62
     0
370
    -2
100
AcDbLine
 10
9.999999999999973
 20
3.231206291600219
 30
0.0
 11
9.999999999999973
 21
33.75452799103542
 31
0.0
  0
LINE
  5
10C
330
107
100
AcDbEntity
  8
치수문자_일반주서
 62
     0
370
    -2
100
AcDbLine
 10
19.39799999999997
 20
33.75452799103542
 30
0.0
 11
13.30199999999997
 21
33.75452799103542
 31
0.0
  0
SOLID
  5
10D
330
107
100
AcDbEntity
  8
치수문자_일반주서
 62
     0
100
AcDbTrace
 10
19.39799999999997
 20
33.20419465770209
 30
0.0
 11
19.39799999999997
 21
34.30486132436876
 31
0.0
 12
22.69999999999997
 22
33.75452799103542
 32
0.0
 13
22.69999999999997
 23
33.75452799103542
 33
0.0
  0
SOLID
  5
10E
330
107
100
AcDbEntity
  8
치수문자_일반주서
 62
     0
100
AcDbTrace
 10
13.30199999999997
 20
34.30486132436876
 30
0.0
 11
13.30199999999997
 21
33.20419465770209
 31
0.0
 12
9.999999999999973
 22
33.75452799103542
 32
0.0
 13
9.999999999999973
 23
33.75452799103542
 33
0.0
  0
MTEXT
  5
10F
330
107
100
AcDbEntity
  8
치수문자_일반주서
 62
     0
100
AcDbMText
 10
16.34999999999997
 20
38.12952799103542
 30
0.0
 40
3.5
 41
0.0
 71
     2
 72
     1
  1
\A1;12.7 [1/2]
  7
SLDTEXTSTYLE0
 73
     1
 44
1.0
  0
POINT
  5
110
330
107
100
AcDbEntity
  8
Defpoints
 62
     0
100
AcDbPoint
 10
22.69999999999997
 20
3.176074928723902
 30
0.0
  0
POINT
  5
111
330
107
100
AcDbEntity
  8
Defpoints
 62
     0
100
AcDbPoint
 10
9.999999999999973
 20
3.168706291600219
 30
0.0
  0
POINT
  5
112
330
107
100
AcDbEntity
  8
Defpoints
 62
     0
100
AcDbPoint
 10
9.999999999999973
 20
33.75452799103542
 30
0.0
  0
ENDBLK
  5
109
330
107
100
AcDbEntity
  8
0
100
AcDbBlockEnd
  0
BLOCK
  5
11E
330
11D
100
AcDbEntity
  8
0
100
AcDbBlockBegin
  2
_D_3
 70
     0
 10
0.0
 20
0.0
 30
0.0
  3
_D_3
  1
_D_3
  0
LINE
  5
120
330
11D
100
AcDbEntity
  8
치수문자_일반주서
 62
     0
370
    -2
100
AcDbLine
 10
22.69999999999997
 20
3.238574928723902
 30
0.0
 11
22.69999999999997
 21
45.75452799103545
 31
0.0
  0
LINE
  5
121
330
11D
100
AcDbEntity
  8
치수문자_일반주서
 62
     0
370
    -2
100
AcDbLine
 10
-34.45000000000004
 20
2.603574928723904
 30
0.0
 11
-34.45000000000004
 21
45.75452799103545
 31
0.0
  0
LINE
  5
122
330
11D
100
AcDbEntity
  8
치수문자_일반주서
 62
     0
370
    -2
100
AcDbLine
 10
19.39799999999997
 20
45.75452799103545
 30
0.0
 11
-31.14800000000004
 21
45.75452799103545
 31
0.0
  0
SOLID
  5
123
330
11D
100
AcDbEntity
  8
치수문자_일반주서
 62
     0
100
AcDbTrace
 10
19.39799999999997
 20
45.20419465770212
 30
0.0
 11
19.39799999999997
 21
46.30486132436879
 31
0.0
 12
22.69999999999997
 22
45.75452799103545
 32
0.0
 13
22.69999999999997
 23
45.75452799103545
 33
0.0
  0
SOLID
  5
124
330
11D
100
AcDbEntity
  8
치수문자_일반주서
 62
     0
100
AcDbTrace
 10
-31.14800000000004
 20
46.30486132436879
 30
0.0
 11
-31.14800000000004
 21
45.20419465770212
 31
0.0
 12
-34.45000000000004
 22
45.75452799103545
 32
0.0
 13
-34.45000000000004
 23
45.75452799103545
 33
0.0
  0
MTEXT
  5
125
330
11D
100
AcDbEntity
  8
치수문자_일반주서
 62
     0
100
AcDbMText
 10
-5.875000000000036
 20
50.12952799103545
 30
0.0
 40
3.5
 41
0.0
 71
     2
 72
     1
  1
\A1;57.15 [2 1/4]
  7
SLDTEXTSTYLE0
 73
     1
 44
1.0
  0
POINT
  5
126
330
11D
100
AcDbEntity
  8
Defpoints
 62
     0
100
AcDbPoint
 10
22.69999999999997
 20
3.176074928723902
 30
0.0
  0
POINT
  5
127
330
11D
100
AcDbEntity
  8
Defpoints
 62
     0
100
AcDbPoint
 10
-34.45000000000004
 20
2.541074928723904
 30
0.0
  0
POINT
  5
128
330
11D
100
AcDbEntity
  8
Defpoints
 62
     0
100
AcDbPoint
 10
-34.45000000000004
 20
45.75452799103545
 30
0.0
  0
ENDBLK
  5
11F
330
11D
100
AcDbEntity
  8
0
100
AcDbBlockEnd
  0
BLOCK
  5
137
330
136
100
AcDbEntity
  8
0
100
AcDbBlockBegin
  2
SW_DOWELSYMBOL_0
 70
     0
 10
0.0
 20
0.0
 30
0.0
  3
SW_DOWELSYMBOL_0
  1
SW_DOWELSYMBOL_0
  0
CIRCLE
  5
139
330
136
100
AcDbEntity
  8
해칭선
 62
     0
100
AcDbCircle
 10
0.0
 20
0.0
 30
0.0
 40
3.000000000000001
  0
HATCH
  5
13A
330
136
100
AcDbEntity
  8
0
  6
Continuous
 62
     0
370
     0
100
AcDbHatch
 10
0.0
 20
0.0
 30
0.0
210
0.0
220
0.0
230
1.0
  2
SOLID
 70
     1
 71
     0
 91
        1
 92
        0
 93
        3
 72
     2
 10
0.0
 20
0.0
 40
3.000000000000001
 50
0.0
 51
90.0
 73
     1
 72
     1
 10
0.0
 20
3.000000000000001
 11
0.0
 21
0.0
 72
     1
 10
0.0
 20
0.0
 11
3.000000000000001
 21
0.0
 97
        0
 75
     0
 76
     1
 98
        1
 10
0.0
 20
0.0
  0
HATCH
  5
13B
330
136
100
AcDbEntity
  8
0
  6
Continuous
 62
     0
370
     0
100
AcDbHatch
 10
0.0
 20
0.0
 30
0.0
210
0.0
220
0.0
230
1.0
  2
SOLID
 70
     1
 71
     0
 91
        1
 92
        0
 93
        3
 72
     2
 10
0.0
 20
0.0
 40
3.000000000000001
 50
180.0
 51
270.0000000000008
 73
     1
 72
     1
 10
0.0
 20
-3.000000000000001
 11
0.0
 21
0.0
 72
     1
 10
0.0
 20
0.0
 11
-3.000000000000003
 21
0.0
 97
        0
 75
     0
 76
     1
 98
        1
 10
0.0
 20
0.0
  0
ENDBLK
  5
138
330
136
100
AcDbEntity
  8
0
100
AcDbBlockEnd
  0
ENDSEC
  0
SECTION
  2
ENTITIES
  0
LINE
  5
96
330
1F
100
AcDbEntity
  8
0
  6
Continuous
 62
     1
370
    15
100
AcDbLine
 10
15.37921904408778
 20
-0.6026671188735956
 30
0.0
 11
15.41176087229744
 21
-0.634025350148518
 31
0.0
  0
LINE
  5
97
330
1F
100
AcDbEntity
  8
0
  6
Continuous
 62
     1
370
    15
100
AcDbLine
 10
16.43489499815601
 20
3.176074928723902
 30
0.0
 11
15.66616660013723
 21
3.176074928723902
 31
0.0
  0
LINE
  5
98
330
1F
100
AcDbEntity
  8
0
  6
Continuous
 62
     1
370
    15
100
AcDbLine
 10
15.66616660013721
 20
-3.173925071276098
 30
0.0
 11
16.43489499815599
 21
-3.173925071276098
 31
0.0
  0
LINE
  5
99
330
1F
100
AcDbEntity
  8
0
  6
Continuous
 62
     1
370
    15
100
AcDbLine
 10
22.31574720458333
 20
-3.173925071276098
 30
0.0
 11
22.69999999999997
 21
-3.173925071276098
 31
0.0
  0
LINE
  5
9A
330
1F
100
AcDbEntity
  8
0
  6
Continuous
 62
     1
370
    15
100
AcDbLine
 10
13.10880768857776
 20
3.176074928723902
 30
0.0
 11
12.34231692625186
 21
3.176074928723902
 31
0.0
  0
LINE
  5
9B
330
1F
100
AcDbEntity
  8
0
  6
Continuous
 62
     1
370
    15
100
AcDbLine
 10
18.991885461143
 20
-3.173925071276098
 30
0.0
 11
19.7587142916715
 21
-3.173925071276098
 31
0.0
  0
LINE
  5
9C
330
1F
100
AcDbEntity
  8
0
  6
Continuous
 62
     1
370
    15
100
AcDbLine
 10
19.75871429167151
 20
3.176074928723902
 30
0.0
 11
18.99188546114301
 21
3.176074928723902
 31
0.0
  0
LINE
  5
9D
330
1F
100
AcDbEntity
  8
0
  6
Continuous
 62
     1
370
    15
100
AcDbLine
 10
12.34231692625186
 20
-3.173925071276098
 30
0.0
 11
13.10880768857774
 21
-3.173925071276098
 31
0.0
  0
LINE
  5
9E
330
1F
100
AcDbEntity
  8
0
  6
Continuous
 62
     1
370
    15
100
AcDbLine
 10
22.69999999999997
 20
3.176074928723902
 30
0.0
 11
22.31574720458334
 21
3.176074928723902
 31
0.0
  0
LINE
  5
9F
330
1F
100
AcDbEntity
  8
외형선
  6
Continuous
370
    15
100
AcDbLine
 10
9.016054912575017
 20
-3.173925071276098
 30
0.0
 11
9.784344253960116
 21
-3.173925071276098
 31
0.0
  0
LINE
  5
A0
330
1F
100
AcDbEntity
  8
외형선
  6
Continuous
370
    15
100
AcDbLine
 10
-33.81500000000003
 20
-3.173925071276098
 30
0.0
 11
9.016054912575017
 21
-3.173925071276098
 31
0.0
  0
LINE
  5
A1
330
1F
100
AcDbEntity
  8
외형선
  6
Continuous
370
    15
100
AcDbLine
 10
8.999675402694216
 20
3.176074928723901
 30
0.0
 11
-33.81500000000003
 21
3.176074928723901
 31
0.0
  0
LINE
  5
A2
330
1F
100
AcDbEntity
  8
외형선
  6
Continuous
370
    15
100
AcDbLine
 10
9.784344253960109
 20
3.176074928723901
 30
0.0
 11
8.999675402694216
 21
3.176074928723901
 31
0.0
  0
LINE
  5
A3
330
1F
100
AcDbEntity
  8
외형선
  6
Continuous
370
    15
100
AcDbLine
 10
-33.81500000000003
 20
3.176074928723902
 30
0.0
 11
-34.45000000000004
 21
2.541074928723904
 31
0.0
  0
LINE
  5
A4
330
1F
100
AcDbEntity
  8
외형선
  6
Continuous
370
    15
100
AcDbLine
 10
-34.45000000000004
 20
-2.5389250712761
 30
0.0
 11
-33.81500000000003
 21
-3.173925071276098
 31
0.0
  0
SPLINE
  5
A5
330
1F
100
AcDbEntity
  8
0
  6
Continuous
 62
     1
370
    15
100
AcDbSpline
210
0.0
220
0.0
230
1.0
 70
     8
 71
     3
 72
    24
 73
    20
 74
     0
 42
0.000000001
 43
0.00000001
 40
0.0
 40
0.0
 40
0.0
 40
0.0
 40
0.0550533566716426
 40
0.1099116918464824
 40
0.1647919846582075
 40
0.219830012311057
 40
0.2817833820109139
 40
0.3438369054147711
 40
0.4060065092237485
 40
0.4679721911582265
 40
0.5299851935267451
 40
0.5921746139580139
 40
0.6541627558592066
 40
0.7161453147511749
 40
0.778332397040557
 40
0.8403531133162883
 40
0.9023153514201928
 40
0.964477945155463
 40
1.0
 40
1.0
 40
1.0
 40
1.0
 10
9.99999999999998
 20
3.168706291600219
 30
0.0
 10
10.20284065832858
 20
3.143798725935422
 30
0.0
 10
10.60780343044661
 20
3.094071827386375
 30
0.0
 10
11.2133197102007
 20
2.875939258690635
 30
0.0
 10
11.81892772031171
 20
2.561364036581697
 30
0.0
 10
12.4524758194159
 20
2.135300977281233
 30
0.0
 10
13.11006398996738
 20
1.599532027488371
 30
0.0
 10
13.79504258830432
 20
0.9690147803782458
 30
0.0
 10
14.48125046947964
 20
0.2948317128406026
 30
0.0
 10
15.16521267980178
 20
-0.394888980684558
 30
0.0
 10
15.84969601449571
 20
-1.065828401656492
 30
0.0
 10
16.53613905913471
 20
-1.685731938584241
 30
0.0
 10
17.22034868272905
 20
-2.229184069849972
 30
0.0
 10
17.9044973005262
 20
-2.669089915343179
 30
0.0
 10
18.59091112218648
 20
-2.983795152445359
 30
0.0
 10
19.27549060097653
 20
-3.162646227487637
 30
0.0
 10
19.95937106503762
 20
-3.188247083334444
 30
0.0
 10
20.54782880131398
 20
-3.103653797872345
 30
0.0
 10
20.90716824055498
 20
-2.956729958174846
 30
0.0
 10
21.03783846821204
 20
-2.903302559217265
 30
0.0
  0
SPLINE
  5
A6
330
1F
100
AcDbEntity
  8
0
  6
Continuous
 62
     1
370
    15
100
AcDbSpline
210
0.0
220
0.0
230
1.0
 70
     8
 71
     3
 72
    25
 73
    21
 74
     0
 42
0.000000001
 43
0.00000001
 40
0.0
 40
0.0
 40
0.0
 40
0.0
 40
0.026796427988264
 40
0.0875608102944828
 40
0.148434345739123
 40
0.209405215656728
 40
0.2701795709760314
 40
0.3310112833776785
 40
0.3920061723774598
 40
0.4528004589134517
 40
0.5136002214263738
 40
0.5745974037433462
 40
0.6354215501216827
 40
0.6961992832496219
 40
0.7571770288502765
 40
0.8180409194320979
 40
0.8788065763642032
 40
0.9327894657982309
 40
0.9866176443377828
 40
1.0
 40
1.0
 40
1.0
 40
1.0
 10
22.31574720458333
 20
-3.155722236521772
 30
0.0
 10
22.21515589057932
 20
-3.15990650824056
 30
0.0
 10
21.88646070155499
 20
-3.173579159772687
 30
0.0
 10
21.33061097376758
 20
-3.040128617680631
 30
0.0
 10
20.64553668860858
 20
-2.766838726416942
 30
0.0
 10
19.95940398888771
 20
-2.357457458239601
 30
0.0
 10
19.27548178257344
 20
-1.839791569700814
 30
0.0
 10
18.59091349326959
 20
-1.236326136575411
 30
0.0
 10
17.90449666703839
 20
-0.5773016771564139
 30
0.0
 10
17.22034885139321
 20
0.1105161085459614
 30
0.0
 10
16.53613901691884
 20
0.7931902161276023
 30
0.0
 10
15.84969601400844
 20
1.437270259228994
 30
0.0
 10
15.16521272371488
 20
2.016470497520495
 30
0.0
 10
14.48125029418795
 20
2.502222765287835
 30
0.0
 10
13.79504324744901
 20
2.871066229050839
 30
0.0
 10
13.11006153624456
 20
3.10693789615594
 30
0.0
 10
12.45248452989674
 20
3.197746737016288
 30
0.0
 10
11.81889925665001
 20
3.147146368428338
 30
0.0
 10
11.36486871131462
 20
3.048397646914595
 30
0.0
 10
11.11294858794184
 20
2.934777553001417
 30
0.0
 10
11.06278852405479
 20
2.912154544195147
 30
0.0
  0
LINE
  5
A7
330
1F
100
AcDbEntity
  8
0
  6
Continuous
 62
     1
370
    15
100
AcDbLine
 10
22.69999999999997
 20
-3.150755670397368
 30
0.0
 11
22.69999999999997
 21
-1.904672231411472
 31
0.0
  0
SPLINE
  5
A8
330
1F
100
AcDbEntity
  8
0
  6
Continuous
 62
     1
370
    15
100
AcDbSpline
210
0.0
220
0.0
230
1.0
 70
     8
 71
     3
 72
    22
 73
    18
 74
     0
 42
0.000000001
 43
0.00000001
 40
0.0
 40
0.0
 40
0.0
 40
0.0
 40
0.0001134936079823
 40
0.0715276564090187
 40
0.1430754100924829
 40
0.2143884807290325
 40
0.285756009984449
 40
0.3573265695846903
 40
0.4286654882252127
 40
0.4999979816716802
 40
0.5715658504264031
 40
0.6429422572152018
 40
0.7142513645268065
 40
0.7857910506821512
 40
0.8572165302064033
 40
0.9285139357622838
 40
1.0
 40
1.0
 40
1.0
 40
1.0
 10
13.10880768857776
 20
3.175958150923841
 30
0.0
 10
13.10917022513383
 20
3.175997070600242
 30
0.0
 10
13.33765349110371
 20
3.200525617102512
 30
0.0
 10
13.79503601477026
 20
3.114856372436872
 30
0.0
 10
14.48125222651177
 20
2.910323012256037
 30
0.0
 10
15.16521220648032
 20
2.552058674991148
 30
0.0
 10
15.84969615233088
 20
2.080280397423066
 30
0.0
 10
16.53613898282072
 20
1.512313851977988
 30
0.0
 10
17.22034884982746
 20
0.8729802878125111
 30
0.0
 10
17.90449670740245
 20
0.1929666841596714
 30
0.0
 10
18.59091333294741
 20
-0.4938976170749725
 30
0.0
 10
19.27548238129101
 20
-1.159568186540323
 30
0.0
 10
19.95940175289325
 20
-1.771519343233146
 30
0.0
 10
20.64554505833715
 20
-2.300508139152523
 30
0.0
 10
21.330579819867
 20
-2.720909785811175
 30
0.0
 10
22.01438052688507
 20
-3.025807676599805
 30
0.0
 10
22.47125895233166
 20
-3.109069667992186
 30
0.0
 10
22.69999999999996
 20
-3.150755670397367
 30
0.0
  0
SPLINE
  5
A9
330
1F
100
AcDbEntity
  8
0
  6
Continuous
 62
     1
370
    15
100
AcDbSpline
210
0.0
220
0.0
230
1.0
 70
     8
 71
     3
 72
    20
 73
    16
 74
     0
 42
0.000000001
 43
0.00000001
 40
0.0
 40
0.0
 40
0.0
 40
0.0
 40
0.0824828478440695
 40
0.1647480154239593
 40
0.2471609587383055
 40
0.3297056772213584
 40
0.411984346651535
 40
0.4943406683150072
 40
0.576917904759164
 40
0.659223557840268
 40
0.7415366245104306
 40
0.824116965735972
 40
0.9064630442248747
 40
0.9887462866628388
 40
1.0
 40
1.0
 40
1.0
 40
1.0
 10
22.69999999999997
 20
-1.906414881063496
 30
0.0
 10
22.47125895229979
 20
-1.715312425162055
 30
0.0
 10
22.01438052678947
 20
-1.333611851341837
 30
0.0
 10
21.33057982024847
 20
-0.6739648895884884
 30
0.0
 10
20.64554505690273
 20
0.0098459842789228
 30
0.0
 10
19.95940175825041
 20
0.6939324553313636
 30
0.0
 10
19.27548236136244
 20
1.34728811445412
 30
0.0
 10
18.59091340749236
 20
1.937788011183594
 30
0.0
 10
17.90449642876062
 20
2.437228715120402
 30
0.0
 10
17.22034988587169
 20
2.825409731641866
 30
0.0
 10
16.53613511015677
 20
3.081325136539398
 30
0.0
 10
15.84971064023101
 20
3.197533448465967
 30
0.0
 10
15.16515833079626
 20
3.153061036060876
 30
0.0
 10
14.67866886722372
 20
3.051194254943117
 30
0.0
 10
14.41923520811642
 20
2.928802705828395
 30
0.0
 10
14.38802196191431
 20
2.914077409316293
 30
0.0
  0
SPLINE
  5
AA
330
1F
100
AcDbEntity
  8
0
  6
Continuous
 62
     1
370
    15
100
AcDbSpline
210
0.0
220
0.0
230
1.0
 70
     8
 71
     3
 72
    19
 73
    15
 74
     0
 42
0.000000001
 43
0.00000001
 40
0.0
 40
0.0
 40
0.0
 40
0.0
 40
0.0787936357781695
 40
0.1573081522851991
 40
0.2358540950693514
 40
0.3146257916017302
 40
0.4032948854133201
 40
0.4921073215195845
 40
0.5810858945830663
 40
0.6697726099492535
 40
0.7585270514137222
 40
0.8475339864847831
 40
0.9362528470741482
 40
1.0
 40
1.0
 40
1.0
 40
1.0
 10
9.999999999999973
 20
1.397667717086083
 30
0.0
 10
10.20284065827386
 20
1.211181423883707
 30
0.0
 10
10.60780343028267
 20
0.8388694481706966
 30
0.0
 10
11.21331971085392
 20
0.2350679675815811
 30
0.0
 10
11.81892771785784
 20
-0.3734401590738095
 30
0.0
 10
12.45247582909441
 20
-0.9930763001063722
 30
0.0
 10
13.11006394873353
 20
-1.600269585384465
 30
0.0
 10
13.79504274198356
 20
-2.156111792080829
 30
0.0
 10
14.48124989573689
 20
-2.611438952029801
 30
0.0
 10
15.16521481372593
 20
-2.94647039965706
 30
0.0
 10
15.84968803340275
 20
-3.14561984163799
 30
0.0
 10
16.53616889790336
 20
-3.194021366639149
 30
0.0
 10
17.15614407900037
 20
-3.119918409566027
 30
0.0
 10
17.54789828721065
 20
-2.969223446655612
 30
0.0
 10
17.7116935806295
 20
-2.906216782912503
 30
0.0
  0
SPLINE
  5
AB
330
1F
100
AcDbEntity
  8
외형선
  6
Continuous
370
    15
100
AcDbSpline
210
0.0
220
0.0
230
1.0
 70
    24
 71
     3
 72
    16
 73
    12
 74
     0
 42
0.000000001
 43
0.00000001
 40
0.0
 40
0.0
 40
0.0
 40
0.0
 40
0.1098939620420438
 40
0.2224138456702649
 40
0.3429508502429034
 40
0.4669834361139167
 40
0.5875204406863884
 40
0.7115530265572199
 40
0.8320900311296933
 40
0.9561226170005256
 40
0.9999999999999999
 40
0.9999999999999999
 40
0.9999999999999999
 40
0.9999999999999999
 10
9.999999999999988
 20
3.024822343732761
 30
0.0
 10
9.999999999999973
 20
2.967489015852004
 30
0.0
 10
9.99999999999996
 20
2.851452377422727
 30
0.0
 10
9.999999999999932
 20
2.657713483662523
 30
0.0
 10
9.999999999999988
 20
2.450261035268408
 30
0.0
 10
9.999999999999947
 20
2.236397030308798
 30
0.0
 10
9.999999999999973
 20
2.025560395256683
 30
0.0
 10
10.0
 20
1.826795928534664
 30
0.0
 10
9.99999999999998
 20
1.644482185147407
 30
0.0
 10
9.99999999999998
 20
1.51333180840461
 30
0.0
 10
9.999999999999988
 20
1.453151820932744
 30
0.0
 10
9.99999999999998
 20
1.437425891275486
 30
0.0
  0
SPLINE
  5
AC
330
1F
100
AcDbEntity
  8
0
  6
Continuous
 62
     1
370
    15
100
AcDbSpline
210
0.0
220
0.0
230
1.0
 70
     8
 71
     3
 72
    21
 73
    17
 74
     0
 42
0.000000001
 43
0.00000001
 40
0.0
 40
0.0
 40
0.0
 40
0.0
 40
0.0445705191913983
 40
0.1209072770735834
 40
0.1969929755316107
 40
0.2730855273232852
 40
0.3494251553541339
 40
0.4255482242147119
 40
0.5016132056336008
 40
0.5779285080868167
 40
0.6541013178959957
 40
0.7301511856282686
 40
0.797712235874969
 40
0.8650796612411754
 40
0.9324201328615417
 40
1.0
 40
1.0
 40
1.0
 40
1.0
 10
18.99188546114299
 20
-3.156022189390214
 30
0.0
 10
18.85838066976068
 20
-3.15812226428388
 30
0.0
 10
18.49621973703752
 20
-3.163819176540014
 30
0.0
 10
17.90446552600782
 20
-3.009343469698954
 30
0.0
 10
17.2203571848215
 20
-2.714775327780249
 30
0.0
 10
16.53613677246364
 20
-2.287339612225443
 30
0.0
 10
15.84969662612062
 20
-1.757103862489208
 30
0.0
 10
15.16521251627017
 20
-1.143542733373782
 30
0.0
 10
14.481250513448
 20
-0.476550812072532
 30
0.0
 10
13.79504257652723
 20
0.2106988362569085
 30
0.0
 10
13.11006399312734
 20
0.8893926711891516
 30
0.0
 10
12.45247581867417
 20
1.50338259352614
 30
0.0
 10
11.81892772049978
 20
2.029462643476014
 30
0.0
 10
11.21331971015066
 20
2.459631333561121
 30
0.0
 10
10.60780343045919
 20
2.808192183270408
 30
0.0
 10
10.20284065833278
 20
2.952526923600414
 30
0.0
 10
9.99999999999998
 20
3.024822343732745
 30
0.0
  0
LINE
  5
AD
330
1F
100
AcDbEntity
  8
0
  6
Continuous
 62
     1
370
    15
100
AcDbLine
 10
22.69999999999997
 20
-1.243265860609924
 30
0.0
 11
22.69999999999997
 21
1.245415718057786
 31
0.0
  0
SPLINE
  5
AE
330
1F
100
AcDbEntity
  8
0
  6
Continuous
 62
     1
370
    15
100
AcDbSpline
210
0.0
220
0.0
230
1.0
 70
     8
 71
     3
 72
    17
 73
    13
 74
     0
 42
0.000000001
 43
0.00000001
 40
0.0
 40
0.0
 40
0.0
 40
0.0
 40
0.0162037078042672
 40
0.1254084147772086
 40
0.234603286145022
 40
0.3441584670333122
 40
0.4534205603856031
 40
0.562579632556378
 40
0.6720916718809118
 40
0.7814288851508812
 40
0.8905700444232092
 40
1.0
 40
1.0
 40
1.0
 40
1.0
 10
16.43489499815602
 20
3.166766063046603
 30
0.0
 10
16.46877571725037
 20
3.169747640283871
 30
0.0
 10
16.73099516260568
 20
3.19282352386424
 30
0.0
 10
17.22031056783978
 20
3.094472164494569
 30
0.0
 10
17.90450700325963
 20
2.865420633430005
 30
0.0
 10
18.59091057850023
 20
2.490617582586013
 30
0.0
 10
19.27548311765571
 20
2.003290498015731
 30
0.0
 10
19.95940155494707
 20
1.421608339154004
 30
0.0
 10
20.64554511133928
 20
0.7757540448793899
 30
0.0
 10
21.33057980577216
 20
0.0941050536242198
 30
0.0
 10
22.01438053041701
 20
-0.5968526269128583
 30
0.0
 10
22.47125895351002
 20
-1.027605066101334
 30
0.0
 10
22.69999999999996
 20
-1.243265860609923
 30
0.0
  0
SPLINE
  5
AF
330
1F
100
AcDbEntity
  8
0
  6
Continuous
 62
     1
370
    15
100
AcDbSpline
210
0.0
220
0.0
230
1.0
 70
     8
 71
     3
 72
    15
 73
    11
 74
     0
 42
0.000000001
 43
0.00000001
 40
0.0
 40
0.0
 40
0.0
 40
0.0
 40
0.1374532785648064
 40
0.2745438045480469
 40
0.4118805909323802
 40
0.5494369736260747
 40
0.6865499997246376
 40
0.8237924291395666
 40
0.9614030012857693
 40
1.0
 40
1.0
 40
1.0
 40
1.0
 10
22.69999999999997
 20
1.245415718057786
 30
0.0
 10
22.47125892710647
 20
1.449905649879102
 30
0.0
 10
22.01438045127605
 20
1.858345844687007
 30
0.0
 10
21.33058012159777
 20
2.370796328885351
 30
0.0
 10
20.64554392371136
 20
2.776917931906853
 30
0.0
 10
19.95940599036381
 20
3.052263665604343
 30
0.0
 10
19.27546661779505
 20
3.189792602283049
 30
0.0
 10
18.59097229791067
 20
3.168822386964212
 30
0.0
 10
18.06854725836323
 20
3.070411919106003
 30
0.0
 10
17.77581456729163
 20
2.937483625291211
 30
0.0
 10
17.71169358062951
 20
2.908366640360307
 30
0.0
  0
SPLINE
  5
B0
330
1F
100
AcDbEntity
  8
0
  6
Continuous
 62
     1
370
    15
100
AcDbSpline
210
0.0
220
0.0
230
1.0
 70
     8
 71
     3
 72
    14
 73
    10
 74
     0
 42
0.000000001
 43
0.00000001
 40
0.0
 40
0.0
 40
0.0
 40
0.0
 40
0.1384880054141897
 40
0.2764854296951308
 40
0.4145380889248508
 40
0.5529875338339966
 40
0.7088326832877161
 40
0.8649297717246403
 40
1.0
 40
1.0
 40
1.0
 40
1.0
 10
9.999999999999973
 20
-1.769963645790241
 30
0.0
 10
10.2028406278437
 20
-1.931539363166487
 30
0.0
 10
10.60780333909995
 20
-2.254118430671008
 30
0.0
 10
11.21332007413848
 20
-2.639832298599952
 30
0.0
 10
11.81892635311635
 20
-2.933594266308002
 30
0.0
 10
12.452481211904
 20
-3.127834817745669
 30
0.0
 10
13.1100410161027
 20
-3.19645818167446
 30
0.0
 10
13.76394242716976
 20
-3.135417527738507
 30
0.0
 10
14.19025767246774
 20
-2.982749192085314
 30
0.0
 10
14.38802196191429
 20
-2.911927551868488
 30
0.0
  0
SPLINE
  5
B1
330
1F
100
AcDbEntity
  8
외형선
  6
Continuous
370
    15
100
AcDbSpline
210
0.0
220
0.0
230
1.0
 70
    24
 71
     3
 72
    24
 73
    20
 74
     0
 42
0.000000001
 43
0.00000001
 40
0.0
 40
0.0
 40
0.0
 40
0.0
 40
0.125
 40
0.125
 40
0.1875
 40
0.1875
 40
0.25
 40
0.25
 40
0.375
 40
0.375
 40
0.5
 40
0.5
 40
0.625
 40
0.625
 40
0.75
 40
0.75
 40
0.875
 40
0.875
 40
1.0
 40
1.0
 40
1.0
 40
1.0
 10
9.99999999999998
 20
0.6743889021185887
 30
0.0
 10
9.99999999999998
 20
0.6729027246616901
 30
0.0
 10
9.999999999999973
 20
0.6547003262206352
 30
0.0
 10
9.999999999999973
 20
0.6158085710734221
 30
0.0
 10
9.99999999999998
 20
0.6015161915714915
 30
0.0
 10
9.99999999999998
 20
0.5659885258921976
 30
0.0
 10
9.99999999999996
 20
0.5447592533025772
 30
0.0
 10
9.999999999999947
 20
0.4681698214957311
 30
0.0
 10
9.99999999999996
 20
0.3997504386111517
 30
0.0
 10
9.999999999999966
 20
0.2156635841647389
 30
0.0
 10
9.999999999999973
 20
0.0994347320073433
 30
0.0
 10
9.999999999999966
 20
-0.1816052416876008
 30
0.0
 10
9.999999999999973
 20
-0.3467811391738944
 30
0.0
 10
9.999999999999966
 20
-0.698432001005351
 30
0.0
 10
9.999999999999973
 20
-0.8840001309392314
 30
0.0
 10
9.999999999999973
 20
-1.225251479795718
 30
0.0
 10
9.999999999999973
 20
-1.379612848299215
 30
0.0
 10
9.999999999999966
 20
-1.622939472030983
 30
0.0
 10
9.999999999999966
 20
-1.712036163172048
 30
0.0
 10
9.99999999999996
 20
-1.769963645790208
 30
0.0
  0
SPLINE
  5
B2
330
1F
100
AcDbEntity
  8
0
  6
Continuous
 62
     1
370
    15
100
AcDbSpline
210
0.0
220
0.0
230
1.0
 70
     8
 71
     3
 72
    16
 73
    12
 74
     0
 42
0.000000001
 43
0.00000001
 40
0.0
 40
0.0
 40
0.0
 40
0.0
 40
0.0884531298793828
 40
0.2091539417854583
 40
0.3302519660685939
 40
0.4511238813393419
 40
0.5718007106687912
 40
0.6790073840405523
 40
0.7859068111625293
 40
0.892763467761907
 40
1.0
 40
1.0
 40
1.0
 40
1.0
 10
15.66616660013721
 20
-3.159472980793689
 30
0.0
 10
15.4991158164896
 20
-3.157617892505547
 30
0.0
 10
15.104111932219
 20
-3.153231399587163
 30
0.0
 10
14.48128006232336
 20
-2.974560528168905
 30
0.0
 10
13.7950346617444
 20
-2.660014439800495
 30
0.0
 10
13.11006611675301
 20
-2.216717613387011
 30
0.0
 10
12.45247532021098
 20
-1.691655496000721
 30
0.0
 10
11.81892784687866
 20
-1.122108669140352
 30
0.0
 10
11.21331967650949
 20
-0.5341687976072816
 30
0.0
 10
10.60780343890298
 20
0.0752349240686039
 30
0.0
 10
10.20284066115071
 20
0.4744348030464045
 30
0.0
 10
9.999999999999988
 20
0.674388902118394
 30
0.0
  0
LINE
  5
B3
330
1F
100
AcDbEntity
  8
0
  6
Continuous
 62
     1
370
    15
100
AcDbLine
 10
22.69999999999997
 20
-1.906414881063495
 30
0.0
 11
22.69999999999997
 21
-1.243265860609924
 31
0.0
  0
LINE
  5
B4
330
1F
100
AcDbEntity
  8
외형선
  6
Continuous
370
    15
100
AcDbLine
 10
9.999999999999988
 20
0.6743889021183986
 30
0.0
 11
9.999999999999973
 21
1.397667717086085
 31
0.0
  0
LINE
  5
B5
330
1F
100
AcDbEntity
  8
0
  6
Continuous
 62
     1
370
    15
100
AcDbLine
 10
22.69999999999997
 20
-3.173925071276097
 30
0.0
 11
22.69999999999997
 21
-3.150755670397368
 31
0.0
  0
LINE
  5
B6
330
1F
100
AcDbEntity
  8
외형선
  6
Continuous
370
    15
100
AcDbLine
 10
9.999999999999988
 20
3.024822343732761
 30
0.0
 11
9.999999999999973
 21
3.168706291600219
 31
0.0
  0
SPLINE
  5
B7
330
1F
100
AcDbEntity
  8
0
  6
Continuous
 62
     1
370
    15
100
AcDbSpline
210
0.0
220
0.0
230
1.0
 70
     8
 71
     3
 72
     9
 73
     5
 74
     0
 42
0.000000001
 43
0.00000001
 40
0.0
 40
0.0
 40
0.0
 40
0.0
 40
0.5718773595545859
 40
1.0
 40
1.0
 40
1.0
 40
1.0
 10
9.999999999999973
 20
-3.166556434152415
 30
0.0
 10
10.20285134143696
 20
-3.144319518481213
 30
0.0
 10
10.55756260609513
 20
-3.105435454792239
 30
0.0
 10
10.91133188588337
 20
-2.968590927221452
 30
0.0
 10
11.06278852405479
 20
-2.910004686747342
 30
0.0
  0
SPLINE
  5
B8
330
1F
100
AcDbEntity
  8
0
  6
Continuous
 62
     1
370
    15
100
AcDbSpline
210
0.0
220
0.0
230
1.0
 70
     8
 71
     3
 72
    12
 73
     8
 74
     0
 42
0.000000001
 43
0.00000001
 40
0.0
 40
0.0
 40
0.0
 40
0.0
 40
0.0681547497508562
 40
0.3014504105954945
 40
0.5343736360423076
 40
0.766879203784789
 40
1.0
 40
1.0
 40
1.0
 40
1.0
 10
19.7587142916715
 20
3.160812487837009
 30
0.0
 10
19.82546454376527
 20
3.165212795510729
 30
0.0
 10
20.12070282098848
 20
3.18467548240839
 30
0.0
 10
20.64559051214551
 20
3.07048187160634
 30
0.0
 10
21.33056773234766
 20
2.817912780642103
 30
0.0
 10
22.01438355582903
 20
2.429573159897583
 30
0.0
 10
22.47125996286863
 20
2.082387123704756
 30
0.0
 10
22.69999999999996
 20
1.908564738511316
 30
0.0
  0
LINE
  5
B9
330
1F
100
AcDbEntity
  8
0
  6
Continuous
 62
     1
370
    15
100
AcDbLine
 10
22.69999999999997
 20
1.245415718057786
 30
0.0
 11
22.69999999999997
 21
1.908564738511315
 31
0.0
  0
SPLINE
  5
BA
330
1F
100
AcDbEntity
  8
0
  6
Continuous
 62
     1
370
    15
100
AcDbSpline
210
0.0
220
0.0
230
1.0
 70
     8
 71
     3
 72
    10
 73
     6
 74
     0
 42
0.000000001
 43
0.00000001
 40
0.0
 40
0.0
 40
0.0
 40
0.0
 40
0.4124311742961225
 40
0.8237739025780333
 40
0.9999999999999999
 40
0.9999999999999999
 40
0.9999999999999999
 40
0.9999999999999999
 10
22.69999999999997
 20
3.152905527845173
 30
0.0
 10
22.47124673648158
 20
3.164795960781656
 30
0.0
 10
22.01434391157363
 20
3.188545446644713
 30
0.0
 10
21.46119028642731
 20
3.087560790274315
 30
0.0
 10
21.13551604697263
 20
2.947469255239592
 30
0.0
 10
21.03783846821204
 20
2.905452416665068
 30
0.0
  0
SPLINE
  5
BB
330
1F
100
AcDbEntity
  8
0
  6
Continuous
 62
     1
370
    15
100
AcDbSpline
210
0.0
220
0.0
230
1.0
 70
     8
 71
     3
 72
    11
 73
     7
 74
     0
 42
0.000000001
 43
0.00000001
 40
0.0
 40
0.0
 40
0.0
 40
0.0
 40
0.2234008539363316
 40
0.4820298680944351
 40
0.7405554046344381
 40
1.0
 40
1.0
 40
1.0
 40
1.0
 10
12.34231692625186
 20
-3.167013351299552
 30
0.0
 10
12.1677047047604
 20
-3.161600298345437
 30
0.0
 10
11.79094559838212
 20
-3.149920606189005
 30
0.0
 10
11.21329940503059
 20
-2.990821321178161
 30
0.0
 10
10.60780852694877
 20
-2.732360195715092
 30
0.0
 10
10.20284235917099
 20
-2.47717666855309
 30
0.0
 10
9.99999999999998
 20
-2.349358512890452
 30
0.0
  0
LINE
  5
BC
330
1F
100
AcDbEntity
  8
0
  6
Continuous
 62
     1
370
    15
100
AcDbLine
 10
22.69999999999997
 20
3.152905527845173
 30
0.0
 11
22.69999999999997
 21
3.176074928723902
 31
0.0
  0
LINE
  5
BD
330
1F
100
AcDbEntity
  8
외형선
  6
Continuous
370
    15
100
AcDbLine
 10
9.999999999999988
 20
-2.349358512890463
 30
0.0
 11
9.999999999999966
 21
-1.769963645790244
 31
0.0
  0
LINE
  5
BE
330
1F
100
AcDbEntity
  8
0
  6
Continuous
 62
     1
370
    15
100
AcDbLine
 10
22.69999999999997
 20
1.897713272962253
 30
0.0
 11
22.69999999999997
 21
3.152905527845173
 31
0.0
  0
SPLINE
  5
BF
330
1F
100
AcDbEntity
  8
외형선
  6
Continuous
370
    15
100
AcDbSpline
210
0.0
220
0.0
230
1.0
 70
    24
 71
     3
 72
    10
 73
     6
 74
     0
 42
0.000000001
 43
0.00000001
 40
0.0
 40
0.0
 40
0.0
 40
0.0
 40
0.3618006769591661
 40
0.8892075589431867
 40
1.0
 40
1.0
 40
1.0
 40
1.0
 10
9.999999999999995
 20
-2.389126687079865
 30
0.0
 10
9.999999999999988
 20
-2.475156403425765
 30
0.0
 10
9.99999999999996
 20
-2.686594023475182
 30
0.0
 10
9.999999999999897
 20
-2.966183473526961
 30
0.0
 10
9.999999999999966
 20
-3.136916843313629
 30
0.0
 10
9.999999999999973
 20
-3.166556434152415
 30
0.0
  0
LINE
  5
C0
330
1F
100
AcDbEntity
  8
외형선
  6
Continuous
370
    15
100
AcDbLine
 10
9.784344253960109
 20
3.166436935938547
 30
0.0
 11
9.999999999999973
 21
3.168706291600219
 31
0.0
  0
SPLINE
  5
C1
330
1F
100
AcDbEntity
  8
외형선
  6
Continuous
370
    15
100
AcDbSpline
210
0.0
220
0.0
230
1.0
 70
     8
 71
     3
 72
    10
 73
     6
 74
     0
 42
0.000000001
 43
0.00000001
 40
0.0
 40
0.0
 40
0.0
 40
0.0
 40
0.5000000000000001
 40
0.5000000000000001
 40
1.0
 40
1.0
 40
1.0
 40
1.0
 10
9.99999999999998
 20
3.024822343732749
 30
0.0
 10
9.832913035138313
 20
3.075704534661184
 30
0.0
 10
9.669003992187847
 20
3.113816117573846
 30
0.0
 10
9.335275628767896
 20
3.164522869228816
 30
0.0
 10
9.166745786703448
 20
3.176892448718477
 30
0.0
 10
8.999675402694216
 20
3.176032778835562
 30
0.0
  0
LINE
  5
C2
330
1F
100
AcDbEntity
  8
외형선
  6
Continuous
370
    15
100
AcDbLine
 10
8.999675402694216
 20
2.212428628413206
 30
0.0
 11
8.999675402694216
 21
3.176032285097185
 31
0.0
  0
SPLINE
  5
C3
330
1F
100
AcDbEntity
  8
외형선
  6
Continuous
370
    15
100
AcDbSpline
210
0.0
220
0.0
230
1.0
 70
     8
 71
     3
 72
    10
 73
     6
 74
     0
 42
0.000000001
 43
0.00000001
 40
0.0
 40
0.0
 40
0.0
 40
0.0
 40
0.5
 40
0.5
 40
1.0
 40
1.0
 40
1.0
 40
1.0
 10
9.999999999999973
 20
1.397667717086083
 30
0.0
 10
9.83291303513828
 20
1.547502210960008
 30
0.0
 10
9.66900399218784
 20
1.690637867963813
 30
0.0
 10
9.335275628767903
 20
1.963494737625254
 30
0.0
 10
9.166745786703455
 20
2.09276962363323
 30
0.0
 10
8.999675402694216
 20
2.212483419618501
 30
0.0
  0
SPLINE
  5
C4
330
1F
100
AcDbEntity
  8
외형선
  6
Continuous
370
    15
100
AcDbSpline
210
0.0
220
0.0
230
1.0
 70
     8
 71
     3
 72
    10
 73
     6
 74
     0
 42
0.000000001
 43
0.00000001
 40
0.0
 40
0.0
 40
0.0
 40
0.0
 40
0.5
 40
0.5
 40
1.0
 40
1.0
 40
1.0
 40
1.0
 10
9.99999999999998
 20
0.6743889021184071
 30
0.0
 10
9.832913035138308
 20
0.8374363782298694
 30
0.0
 10
9.66900399218784
 20
0.9966789140752141
 30
0.0
 10
9.335275628767903
 20
1.307525730631532
 30
0.0
 10
9.166745786703455
 20
1.458668901277401
 30
0.0
 10
8.999675402694216
 20
1.602722040352441
 30
0.0
  0
SPLINE
  5
C5
330
1F
100
AcDbEntity
  8
외형선
  6
Continuous
370
    15
100
AcDbSpline
210
0.0
220
0.0
230
1.0
 70
     8
 71
     3
 72
    10
 73
     6
 74
     0
 42
0.000000001
 43
0.00000001
 40
0.0
 40
0.0
 40
0.0
 40
0.0
 40
0.5
 40
0.5
 40
1.0
 40
1.0
 40
1.0
 40
1.0
 10
9.999999999999973
 20
-1.769963645790241
 30
0.0
 10
9.83291303513828
 20
-1.631489476773527
 30
0.0
 10
9.66900399218784
 20
-1.4866015920998
 30
0.0
 10
9.335275628767903
 20
-1.184050515207085
 30
0.0
 10
9.166745786703455
 20
-1.026710914991234
 30
0.0
 10
8.999675402694216
 20
-0.8662193343937415
 30
0.0
  0
SPLINE
  5
C6
330
1F
100
AcDbEntity
  8
외형선
  6
Continuous
370
    15
100
AcDbSpline
210
0.0
220
0.0
230
1.0
 70
     8
 71
     3
 72
    10
 73
     6
 74
     0
 42
0.000000001
 43
0.00000001
 40
0.0
 40
0.0
 40
0.0
 40
0.0
 40
0.5000000000000002
 40
0.5000000000000002
 40
1.0
 40
1.0
 40
1.0
 40
1.0
 10
9.99999999999998
 20
-2.349358512890444
 30
0.0
 10
9.832913035138313
 20
-2.237193227707417
 30
0.0
 10
9.669003992187834
 20
-2.116062274774734
 30
0.0
 10
9.335275628767896
 20
-1.855922209873387
 30
0.0
 10
9.16674578670344
 20
-1.717148618717178
 30
0.0
 10
8.999675402694216
 20
-1.572235809759225
 30
0.0
  0
LINE
  5
C7
330
1F
100
AcDbEntity
  8
외형선
  6
Continuous
370
    15
100
AcDbLine
 10
8.999675402694216
 20
-3.077646487559338
 30
0.0
 11
8.999675402694216
 21
-1.572152822883011
 31
0.0
  0
SPLINE
  5
C8
330
1F
100
AcDbEntity
  8
외형선
  6
Continuous
370
    15
100
AcDbSpline
210
0.0
220
0.0
230
1.0
 70
     8
 71
     3
 72
    10
 73
     6
 74
     0
 42
0.000000001
 43
0.00000001
 40
0.0
 40
0.0
 40
0.0
 40
0.0
 40
0.5
 40
0.5
 40
1.0
 40
1.0
 40
1.0
 40
1.0
 10
9.999999999999973
 20
-3.166556434152415
 30
0.0
 10
9.83291303513828
 20
-3.177916759009628
 30
0.0
 10
9.66900399218784
 20
-3.176164531339704
 30
0.0
 10
9.335275628767903
 20
-3.146470324108432
 30
0.0
 10
9.166745786703455
 20
-3.118405609900557
 30
0.0
 10
8.999675402694216
 20
-3.077627825288337
 30
0.0
  0
LINE
  5
C9
330
1F
100
AcDbEntity
  8
외형선
  6
Continuous
370
    15
100
AcDbLine
 10
-33.81500000000003
 20
0.0010749287239018
 30
0.0
 11
-33.81500000000003
 21
3.176074928723905
 31
0.0
  0
LINE
  5
CA
330
1F
100
AcDbEntity
  8
외형선
  6
Continuous
370
    15
100
AcDbLine
 10
-33.81500000000003
 20
-3.173925071276105
 30
0.0
 11
-33.81500000000003
 21
0.0010749287239018
 31
0.0
  0
LINE
  5
CB
330
1F
100
AcDbEntity
  8
외형선
  6
Continuous
370
    15
100
AcDbLine
 10
8.999675402694216
 20
-0.8662927878700387
 30
0.0
 11
8.999675402694216
 21
1.602804533490278
 31
0.0
  0
LINE
  5
CC
330
1F
100
AcDbEntity
  8
외형선
  6
Continuous
370
    15
100
AcDbLine
 10
-34.45000000000004
 20
0.0010749287239018
 30
0.0
 11
-34.45000000000004
 21
2.541074928723904
 31
0.0
  0
LINE
  5
CD
330
1F
100
AcDbEntity
  8
외형선
  6
Continuous
370
    15
100
AcDbLine
 10
-34.45000000000004
 20
-2.5389250712761
 30
0.0
 11
-34.45000000000004
 21
0.0010749287239018
 31
0.0
  0
SPLINE
  5
CE
330
1F
100
AcDbEntity
  8
외형선
  6
Continuous
370
    15
100
AcDbSpline
210
0.0
220
0.0
230
1.0
 70
    24
 71
     3
 72
    24
 73
    20
 74
     0
 42
0.000000001
 43
0.00000001
 40
0.0
 40
0.0
 40
0.0
 40
0.0
 40
0.125
 40
0.125
 40
0.2500000000000001
 40
0.2500000000000001
 40
0.3750000000000001
 40
0.3750000000000001
 40
0.5000000000000001
 40
0.5000000000000001
 40
0.625
 40
0.625
 40
0.7499999999999999
 40
0.7499999999999999
 40
0.8124999999999999
 40
0.8124999999999999
 40
0.8749999999999998
 40
0.8749999999999998
 40
1.0
 40
1.0
 40
1.0
 40
1.0
 10
9.999999999999973
 20
-1.76996364579021
 30
0.0
 10
9.999999999999988
 20
-1.712036163172045
 30
0.0
 10
9.99999999999998
 20
-1.622939472030968
 30
0.0
 10
9.999999999999973
 20
-1.379612848299167
 30
0.0
 10
9.99999999999998
 20
-1.225251479795649
 30
0.0
 10
9.99999999999998
 20
-0.8840001309391212
 30
0.0
 10
9.999999999999995
 20
-0.6984320010052208
 30
0.0
 10
9.99999999999998
 20
-0.3467811391737434
 30
0.0
 10
9.99999999999998
 20
-0.1816052416874473
 30
0.0
 10
9.99999999999998
 20
0.0994347320074882
 30
0.0
 10
9.999999999999966
 20
0.2156635841648731
 30
0.0
 10
9.99999999999998
 20
0.3997504386112603
 30
0.0
 10
9.999999999999973
 20
0.4681698214958249
 30
0.0
 10
9.999999999999973
 20
0.54475925330265
 30
0.0
 10
9.99999999999998
 20
0.5659885258922639
 30
0.0
 10
9.999999999999973
 20
0.6015161915715447
 30
0.0
 10
9.999999999999973
 20
0.6158085710734723
 30
0.0
 10
9.99999999999998
 20
0.6547003262206736
 30
0.0
 10
9.999999999999988
 20
0.672902724661715
 30
0.0
 10
9.999999999999973
 20
0.6743889021185895
 30
0.0
  0
SPLINE
  5
CF
330
1F
100
AcDbEntity
  8
외형선
  6
Continuous
370
    15
100
AcDbSpline
210
0.0
220
0.0
230
1.0
 70
    24
 71
     3
 72
    24
 73
    20
 74
     0
 42
0.000000001
 43
0.00000001
 40
0.0
 40
0.0
 40
0.0
 40
0.0
 40
0.0245276967809427
 40
0.0851305783395335
 40
0.1470514143859335
 40
0.2094276606755731
 40
0.2696126672809736
 40
0.3302155488396568
 40
0.392136384885634
 40
0.4545126311756943
 40
0.5146976377811566
 40
0.5753005193397115
 40
0.6372213553860997
 40
0.6995976016756736
 40
0.7597826082812079
 40
0.8203854898398332
 40
0.8823063258862993
 40
0.9446825721759499
 40
0.9999999999999999
 40
0.9999999999999999
 40
0.9999999999999999
 40
0.9999999999999999
 10
9.999999999999973
 20
1.437425891275486
 30
0.0
 10
9.999999999999973
 20
1.4464958737073
 30
0.0
 10
9.999999999999995
 20
1.477975912654522
 30
0.0
 10
9.999999999999995
 20
1.539336110638972
 30
0.0
 10
9.999999999999932
 20
1.621105311960094
 30
0.0
 10
9.999999999999995
 20
1.708778756334159
 30
0.0
 10
9.999999999999932
 20
1.80062365489095
 30
0.0
 10
9.999999999999947
 20
1.896471229580201
 30
0.0
 10
10.00000000000003
 20
1.99709148658371
 30
0.0
 10
9.99999999999996
 20
2.100430638440479
 30
0.0
 10
9.999999999999918
 20
2.205165069360357
 30
0.0
 10
10.00000000000006
 20
2.311023295376328
 30
0.0
 10
9.999999999999861
 20
2.418818254704002
 30
0.0
 10
9.999999999999988
 20
2.526263170481031
 30
0.0
 10
9.999999999999973
 20
2.632051374357472
 30
0.0
 10
9.999999999999988
 20
2.736008639200955
 30
0.0
 10
9.999999999999966
 20
2.838758953980939
 30
0.0
 10
9.999999999999918
 20
2.935807381474957
 30
0.0
 10
9.999999999999973
 20
2.996361287218035
 30
0.0
 10
9.999999999999988
 20
3.024822343733026
 30
0.0
  0
SPLINE
  5
D0
330
1F
100
AcDbEntity
  8
외형선
  6
Continuous
370
    15
100
AcDbSpline
210
0.0
220
0.0
230
1.0
 70
    24
 71
     3
 72
     9
 73
     5
 74
     0
 42
0.000000001
 43
0.00000001
 40
0.0
 40
0.0
 40
0.0
 40
0.0
 40
0.4756354308741593
 40
1.0
 40
1.0
 40
1.0
 40
1.0
 10
9.999999999999973
 20
-3.166556434152415
 30
0.0
 10
9.999999999999973
 20
-3.037878845162675
 30
0.0
 10
9.999999999999952
 20
-2.767340570179151
 30
0.0
 10
9.999999999999952
 20
-2.519221523882908
 30
0.0
 10
9.999999999999952
 20
-2.389116687079864
 30
0.0
  0
LINE
  5
D1
330
1F
100
AcDbEntity
  8
중심선
 48
0.8
100
AcDbLine
 10
-37.45000000000002
 20
0.0010749287238931
 30
0.0
 11
25.69999999999999
 21
0.0010749287238974
 31
0.0
  0
LINE
  5
D2
330
1F
100
AcDbEntity
  8
참조1
100
AcDbLine
 10
-18.575
 20
0.0010749287238892
 30
0.0
 11
-18.57499999999999
 21
-39.99892507127612
 31
0.0
  0
LINE
  5
D3
330
1F
100
AcDbEntity
  8
참조1
100
AcDbLine
 10
-18.57499999999999
 20
-39.99892507127612
 30
0.0
 11
-13.09635681430868
 21
-39.9989250712761
 31
0.0
  0
CIRCLE
  5
D4
330
1F
100
AcDbEntity
  8
해칭선
100
AcDbCircle
 10
0.0
 20
0.0
 30
0.0
 40
3.000000000000001
  0
INSERT
  5
D5
330
1F
100
AcDbEntity
  8
0
  6
Continuous
 62
     7
100
AcDbBlockReference
 66
     1
  2
블럭10
 10
-32.51527293212519
 20
-52.04609937292005
 30
0.0
  0
ATTRIB
  5
D6
330
D5
100
AcDbEntity
  8
FORMAT
 62
     2
100
AcDbText
 10
-42.65690894426182
 20
-49.97073246008786
 30
0.0
 40
4.233333333333333
  1
EM208016 [ 6 FLUTE ]
 41
0.75
  7
SLDTEXTSTYLE0
 11
-42.65690894426182
 21
-52.08739912675453
 31
0.0
100
AcDbAttribute
  2
AUTOATTR0
 70
     0
 74
     1
  0
SEQEND
  5
D7
330
D5
100
AcDbEntity
  8
0
  6
Continuous
 62
     7
  0
HATCH
  5
D8
330
1F
100
AcDbEntity
  8
중심선
100
AcDbHatch
 10
0.0
 20
0.0
 30
0.0
210
0.0
220
0.0
230
1.0
  2
SOLID
 70
     1
 71
     0
 91
        1
 92
        0
 93
        4
 72
     1
 10
-26.80036362774435
 20
-35.7989250712761
 11
-30.24663887158163
 21
-35.7989250712761
 72
     1
 10
-30.24663887158163
 20
-35.7989250712761
 11
-32.37486873078566
 21
-38.3352506518487
 72
     1
 10
-32.37486873078566
 20
-38.3352506518487
 11
-28.92856040183522
 21
-38.33521122254621
 72
     1
 10
-28.92856040183522
 20
-38.33521122254621
 11
-26.80036362774435
 21
-35.7989250712761
 97
        0
 75
     0
 76
     1
 98
        1
 10
0.0
 20
0.0
  0
HATCH
  5
D9
330
1F
100
AcDbEntity
  8
중심선
100
AcDbHatch
 10
0.0
 20
0.0
 30
0.0
210
0.0
220
0.0
230
1.0
  2
SOLID
 70
     1
 71
     0
 91
        1
 92
        0
 93
        4
 72
     1
 10
-21.78759963670837
 20
-35.7989250712761
 11
-25.23387488054565
 21
-35.7989250712761
 72
     1
 10
-25.23387488054565
 20
-35.7989250712761
 11
-29.76501288890307
 21
-41.19892507127612
 72
     1
 10
-29.76501288890307
 20
-41.19892507127612
 11
-26.31873764506579
 21
-41.19892507127612
 72
     1
 10
-26.31873764506579
 20
-41.19892507127612
 11
-21.78759963670837
 21
-35.7989250712761
 97
        0
 75
     0
 76
     1
 98
        1
 10
0.0
 20
0.0
  0
HATCH
  5
DA
330
1F
100
AcDbEntity
  8
중심선
100
AcDbHatch
 10
0.0
 20
0.0
 30
0.0
210
0.0
220
0.0
230
1.0
  2
SOLID
 70
     1
 71
     0
 91
        1
 92
        0
 93
        4
 72
     1
 10
-16.77483564567253
 20
-35.79892507127613
 11
-20.22111088950959
 21
-35.79892507127608
 72
     1
 10
-20.22111088950959
 20
-35.79892507127608
 11
-27.26954779139887
 21
-44.19892507127612
 72
     1
 10
-27.26954779139887
 20
-44.19892507127612
 11
-23.82327254756159
 21
-44.19892507127612
 72
     1
 10
-23.82327254756159
 20
-44.19892507127612
 11
-16.77483564567253
 21
-35.79892507127613
 97
        0
 75
     0
 76
     1
 98
        1
 10
0.0
 20
0.0
  0
HATCH
  5
DB
330
1F
100
AcDbEntity
  8
중심선
100
AcDbHatch
 10
0.0
 20
0.0
 30
0.0
210
0.0
220
0.0
230
1.0
  2
SOLID
 70
     1
 71
     0
 91
        1
 92
        0
 93
        6
 72
     3
 10
-11.9749452146603
 20
-39.99892507132738
 11
3.960054785062284
 21
1.540850780301639E-10
 40
0.3939339440162633
 50
17.09539180608434
 51
320.0019657685086
 73
     0
 72
     1
 10
-10.29194555895971
 20
-38.58681907591443
 11
-7.986643685258671
 21
-36.65249236586651
 72
     3
 10
-11.97494521471315
 20
-39.99892507127625
 11
6.600054785286829
 21
-1.249000902703301E-13
 40
0.6363583540795982
 50
39.99873849337384
 51
368.4976242363725
 73
     1
 72
     1
 10
-5.549612722812541
 20
-39.03892507120613
 11
-13.29487790787723
 21
-39.03892507120613
 72
     1
 10
-13.29487790787723
 20
-39.03892507120613
 11
-13.29490295232316
 21
-40.95892507120602
 72
     1
 10
-13.29490295232316
 20
-40.95892507120602
 11
-8.853523182851125
 21
-40.95892507120599
 97
        0
 75
     0
 76
     1
 98
        1
 10
0.0
 20
0.0
  0
DIMENSION
  5
DC
330
1F
100
AcDbEntity
  8
치수문자_일반주서
100
AcDbDimension
  2
_D
 10
41.22310225815445
 20
-3.173925071276031
 30
0.0
 11
41.22310225815436
 21
23.60631473851138
 31
0.0
 70
   160
  1
%%c<>
 71
     2
 42
6.35
 52
-270.0
  3
SLDDIMSTYLE0
100
AcDbAlignedDimension
 13
22.69999999999997
 23
3.176074928723902
 33
0.0
 14
22.69999999999997
 24
-3.173925071276098
 34
0.0
 50
90.0000000000002
100
AcDbRotatedDimension
1001
ACAD
1000
DSTYLE
1002
{
1070
   171
1070
     6
1070
   273
1070
     7
1002
}
1001
ACAD_DSTYLE_DIMFLIPARROW_SYMBOL
1070
   385
1070
     0
1001
ACAD_DSTYLE_DIMFLIPARROW_WHICH_SYMBOL
1070
   386
1070
     3
  0
DIMENSION
  5
F1
330
1F
100
AcDbEntity
  8
치수문자_일반주서
100
AcDbDimension
  2
_D_1
 10
-48.72000000000004
 20
-3.173925071276165
 30
0.0
 11
-48.72000000000006
 21
0.0010749287239122
 31
0.0
 70
   160
  1
%%c<>
 71
     2
 42
6.350000000000023
 52
-270.0
  3
SLDDIMSTYLE0
100
AcDbAlignedDimension
 13
-33.81500000000004
 23
3.176074928723913
 33
0.0
 14
-33.81500000000004
 24
-3.173925071276109
 34
0.0
 50
90.0000000000002
100
AcDbRotatedDimension
1001
ACAD
1000
DSTYLE
1002
{
1070
   171
1070
     6
1070
   273
1070
     7
1002
}
  0
DIMENSION
  5
105
330
1F
100
AcDbEntity
  8
치수문자_일반주서
100
AcDbDimension
  2
_D_2
 10
9.999999999999973
 20
33.75452799103542
 30
0.0
 11
16.34999999999997
 21
33.75452799103542
 31
0.0
 70
   160
  1
<>
 71
     2
 42
12.69999999999999
  3
SLDDIMSTYLE0
100
AcDbAlignedDimension
 13
22.69999999999997
 23
3.176074928723902
 33
0.0
 14
9.999999999999973
 24
3.168706291600219
 34
0.0
100
AcDbRotatedDimension
1001
ACAD
1000
DSTYLE
1002
{
1070
   171
1070
     6
1070
   273
1070
     7
1002
}
  0
DIMENSION
  5
11B
330
1F
100
AcDbEntity
  8
치수문자_일반주서
100
AcDbDimension
  2
_D_3
 10
-34.45000000000004
 20
45.75452799103545
 30
0.0
 11
-5.875000000000036
 21
45.75452799103545
 31
0.0
 70
   160
  1
<>
 71
     2
 42
57.15000000000001
  3
SLDDIMSTYLE0
100
AcDbAlignedDimension
 13
22.69999999999997
 23
3.176074928723902
 33
0.0
 14
-34.45000000000004
 24
2.541074928723904
 34
0.0
100
AcDbRotatedDimension
1001
ACAD
1000
DSTYLE
1002
{
1070
   171
1070
     6
1070
   273
1070
     7
1002
}
  0
LINE
  5
12F
330
1F
100
AcDbEntity
  8
참조1
100
AcDbLine
 10
84.87598381534559
 20
7.441074928723896
 30
0.0
 11
84.87598381534559
 21
-7.438925071276109
 31
0.0
  0
LINE
  5
130
330
1F
100
AcDbEntity
  8
참조1
100
AcDbLine
 10
97.5759838153456
 20
5.441074928723896
 30
0.0
 11
84.87598381534559
 21
5.441074928723896
 31
0.0
  0
SOLID
  5
131
330
1F
100
AcDbEntity
  8
참조1
100
AcDbTrace
 10
84.87598381534559
 20
5.441074928723896
 30
0.0
 11
91.22598381534559
 21
4.425074928723896
 31
0.0
 12
91.22598381534559
 22
6.457074928723896
 32
0.0
 13
91.22598381534559
 23
6.457074928723896
 33
0.0
  0
LINE
  5
132
330
1F
100
AcDbEntity
  8
참조1
100
AcDbLine
 10
97.5759838153456
 20
-5.438925071276109
 30
0.0
 11
84.87598381534559
 21
-5.438925071276109
 31
0.0
  0
SOLID
  5
133
330
1F
100
AcDbEntity
  8
참조1
100
AcDbTrace
 10
84.87598381534559
 20
-5.438925071276109
 30
0.0
 11
91.22598381534559
 21
-6.454925071276109
 31
0.0
 12
91.22598381534559
 22
-4.422925071276109
 32
0.0
 13
91.22598381534559
 23
-4.422925071276109
 33
0.0
  0
MTEXT
  5
134
330
1F
100
AcDbEntity
  8
참조1
100
AcDbMText
 10
94.27347390781586
 20
10.98929157337383
 30
0.0
 40
3.5
 41
0.0
 71
     1
 72
     1
  1
A
  7
SLDTEXTSTYLE0
 73
     1
 44
1.0
  0
MTEXT
  5
135
330
1F
100
AcDbEntity
  8
참조1
100
AcDbMText
 10
94.27347390781586
 20
0.1092915733738259
 30
0.0
 40
3.5
 41
0.0
 71
     1
 72
     1
  1
A
  7
SLDTEXTSTYLE0
 73
     1
 44
1.0
  0
INSERT
  5
13C
330
1F
100
AcDbEntity
  8
해칭선
100
AcDbBlockReference
  2
SW_DOWELSYMBOL_0
 10
0.0
 20
0.0
 30
0.0
  0
ENDSEC
  0
SECTION
  2
OBJECTS
  0
DICTIONARY
  5
C
330
0
100
AcDbDictionary
281
     1
  3
ACAD_GROUP
350
D
  3
ACAD_IMAGE_VARS
350
160
  3
ACAD_LAYOUT
350
1A
  3
ACAD_MLINESTYLE
350
17
  3
ACAD_PLOTSETTINGS
350
19
  3
ACAD_PLOTSTYLENAME
350
E
  3
ACAD_SCALELIST
350
47
  3
APPDATA
350
15E
  3
DWGPROPS
350
191
  0
DICTIONARY
  5
187
330
2
100
AcDbDictionary
280
     1
281
     1
  3
ACAD_LAYERSTATES
360
188
  0
DICTIONARY
  5
D
102
{ACAD_REACTORS
330
C
102
}
330
C
100
AcDbDictionary
281
     1
  0
RASTERVARIABLES
  5
160
102
{ACAD_REACTORS
330
C
102
}
330
C
100
AcDbRasterVariables
 90
        0
 70
     1
 71
     1
 72
     1
  0
DICTIONARY
  5
1A
102
{ACAD_REACTORS
330
C
102
}
330
C
100
AcDbDictionary
281
     1
  3
Layout1
350
1E
  3
Layout2
350
26
  3
Model
350
22
  0
DICTIONARY
  5
17
102
{ACAD_REACTORS
330
C
102
}
330
C
100
AcDbDictionary
281
     1
  3
Standard
350
18
  0
DICTIONARY
  5
19
102
{ACAD_REACTORS
330
C
102
}
330
C
100
AcDbDictionary
281
     1
  0
ACDBDICTIONARYWDFLT
  5
E
102
{ACAD_REACTORS
330
C
102
}
330
C
100
AcDbDictionary
281
     1
  3
Normal
350
F
100
AcDbDictionaryWithDefault
340
F
  0
DICTIONARY
  5
47
102
{ACAD_REACTORS
330
C
102
}
330
C
100
AcDbDictionary
281
     1
  3
A0
350
48
  3
A1
350
49
  3
A2
350
4A
  3
A3
350
4B
  3
A4
350
4C
  3
A5
350
4D
  3
A6
350
4E
  3
A7
350
4F
  3
A8
350
50
  3
A9
350
51
  3
B0
350
52
  3
B1
350
53
  3
B2
350
54
  3
B3
350
55
  3
B4
350
56
  3
B5
350
57
  3
B6
350
58
  3
B7
350
59
  3
B8
350
5A
  3
B9
350
5B
  3
C0
350
5C
  3
C1
350
5D
  3
C2
350
5E
  3
C3
350
5F
  3
C4
350
60
  3
C5
350
61
  3
C6
350
62
  3
C7
350
63
  3
C8
350
64
  3
C9
350
65
  3
D0
350
66
  3
D1
350
67
  3
D2
350
68
  0
DICTIONARY
  5
15E
102
{ACAD_REACTORS
330
C
102
}
330
C
100
AcDbDictionary
281
     1
  0
XRECORD
  5
191
102
{ACAD_REACTORS
330
C
102
}
330
C
100
AcDbXrecord
280
     1
  1
DWGPROPS COOKIE
  2

  3

  4

  6

  7

  8
12017012
  9

300
=
301
=
302
=
303
=
304
=
305
=
306
=
307
=
308
=
309
=
 40
0.0
 41
2458292.270355243
 42
2458295.443853449
  1

 90
        0
  0
DICTIONARY
  5
188
102
{ACAD_REACTORS
330
187
102
}
330
187
100
AcDbDictionary
281
     1
  0
LAYOUT
  5
1E
102
{ACAD_REACTORS
330
1A
102
}
330
1A
100
AcDbPlotSettings
  1

  2
none_device
  4

  6

 40
0.0
 41
0.0
 42
0.0
 43
0.0
 44
0.0
 45
0.0
 46
0.0
 47
0.0
 48
0.0
 49
0.0
140
0.0
141
0.0
142
1.0
143
1.0
 70
   688
 72
     1
 73
     0
 74
     5
  7

 75
    16
147
1.0
148
0.0
149
0.0
100
AcDbLayout
  1
Layout1
 70
     1
 71
     1
 10
0.0
 20
0.0
 11
420.0
 21
297.0
 12
0.0
 22
0.0
 32
0.0
 14
1.000000000000000E+20
 24
1.000000000000000E+20
 34
1.000000000000000E+20
 15
-1.000000000000000E+20
 25
-1.000000000000000E+20
 35
-1.000000000000000E+20
146
0.0
 13
0.0
 23
0.0
 33
0.0
 16
1.0
 26
0.0
 36
0.0
 17
0.0
 27
1.0
 37
0.0
 76
     0
330
1B
  0
LAYOUT
  5
26
102
{ACAD_REACTORS
330
1A
102
}
330
1A
100
AcDbPlotSettings
  1

  2
none_device
  4

  6

 40
0.0
 41
0.0
 42
0.0
 43
0.0
 44
0.0
 45
0.0
 46
0.0
 47
0.0
 48
0.0
 49
0.0
140
0.0
141
0.0
142
1.0
143
1.0
 70
   688
 72
     1
 73
     0
 74
     5
  7

 75
    16
147
1.0
148
0.0
149
0.0
100
AcDbLayout
  1
Layout2
 70
     1
 71
     2
 10
0.0
 20
0.0
 11
0.0
 21
0.0
 12
0.0
 22
0.0
 32
0.0
 14
0.0
 24
0.0
 34
0.0
 15
0.0
 25
0.0
 35
0.0
146
0.0
 13
0.0
 23
0.0
 33
0.0
 16
1.0
 26
0.0
 36
0.0
 17
0.0
 27
1.0
 37
0.0
 76
     0
330
23
  0
LAYOUT
  5
22
102
{ACAD_REACTORS
330
1A
102
}
330
1A
100
AcDbPlotSettings
  1

  2
none_device
  4
ANSI_A_(11.00_x_8.50_Inches)
  6

 40
6.35
 41
19.05
 42
6.35000508
 43
19.05000254
 44
279.4
 45
215.9
 46
111.3053522526709
 47
84.20484304644357
 48
0.0
 49
0.0
140
0.0
141
0.0
142
0.0633834362183025
143
1.0
 70
  1696
 72
     0
 73
     0
 74
     0
  7

 75
     0
147
0.0235690232323232
148
0.0
149
0.0
100
AcDbLayout
  1
Model
 70
     1
 71
     0
 10
0.0
 20
0.0
 11
420.0
 21
297.0
 12
0.0
 22
0.0
 32
0.0
 14
1.000000000000000E+20
 24
1.000000000000000E+20
 34
1.000000000000000E+20
 15
-1.000000000000000E+20
 25
-1.000000000000000E+20
 35
-1.000000000000000E+20
146
0.0
 13
0.0
 23
0.0
 33
0.0
 16
1.0
 26
0.0
 36
0.0
 17
0.0
 27
1.0
 37
0.0
 76
     0
330
1F
331
29
  0
MLINESTYLE
  5
18
102
{ACAD_REACTORS
330
17
102
}
330
17
100
AcDbMlineStyle
  2
Standard
 70
     0
  3

 62
   256
 51
90.0
 52
90.0
 71
     2
 49
0.5
 62
   256
  6
BYLAYER
 49
-0.5
 62
   256
  6
BYLAYER
  0
ACDBPLACEHOLDER
  5
F
102
{ACAD_REACTORS
330
E
102
}
330
E
  0
SCALE
  5
48
102
{ACAD_REACTORS
330
47
102
}
330
47
100
AcDbScale
 70
     0
300
1:1
140
1.0
141
1.0
290
     1
  0
SCALE
  5
49
102
{ACAD_REACTORS
330
47
102
}
330
47
100
AcDbScale
 70
     0
300
1:2
140
1.0
141
2.0
290
     0
  0
SCALE
  5
4A
102
{ACAD_REACTORS
330
47
102
}
330
47
100
AcDbScale
 70
     0
300
1:4
140
1.0
141
4.0
290
     0
  0
SCALE
  5
4B
102
{ACAD_REACTORS
330
47
102
}
330
47
100
AcDbScale
 70
     0
300
1:5
140
1.0
141
5.0
290
     0
  0
SCALE
  5
4C
102
{ACAD_REACTORS
330
47
102
}
330
47
100
AcDbScale
 70
     0
300
1:8
140
1.0
141
8.0
290
     0
  0
SCALE
  5
4D
102
{ACAD_REACTORS
330
47
102
}
330
47
100
AcDbScale
 70
     0
300
1:10
140
1.0
141
10.0
290
     0
  0
SCALE
  5
4E
102
{ACAD_REACTORS
330
47
102
}
330
47
100
AcDbScale
 70
     0
300
1:16
140
1.0
141
16.0
290
     0
  0
SCALE
  5
4F
102
{ACAD_REACTORS
330
47
102
}
330
47
100
AcDbScale
 70
     0
300
1:20
140
1.0
141
20.0
290
     0
  0
SCALE
  5
50
102
{ACAD_REACTORS
330
47
102
}
330
47
100
AcDbScale
 70
     0
300
1:30
140
1.0
141
30.0
290
     0
  0
SCALE
  5
51
102
{ACAD_REACTORS
330
47
102
}
330
47
100
AcDbScale
 70
     0
300
1:40
140
1.0
141
40.0
290
     0
  0
SCALE
  5
52
102
{ACAD_REACTORS
330
47
102
}
330
47
100
AcDbScale
 70
     0
300
1:50
140
1.0
141
50.0
290
     0
  0
SCALE
  5
53
102
{ACAD_REACTORS
330
47
102
}
330
47
100
AcDbScale
 70
     0
300
1:100
140
1.0
141
100.0
290
     0
  0
SCALE
  5
54
102
{ACAD_REACTORS
330
47
102
}
330
47
100
AcDbScale
 70
     0
300
2:1
140
2.0
141
1.0
290
     0
  0
SCALE
  5
55
102
{ACAD_REACTORS
330
47
102
}
330
47
100
AcDbScale
 70
     0
300
4:1
140
4.0
141
1.0
290
     0
  0
SCALE
  5
56
102
{ACAD_REACTORS
330
47
102
}
330
47
100
AcDbScale
 70
     0
300
8:1
140
8.0
141
1.0
290
     0
  0
SCALE
  5
57
102
{ACAD_REACTORS
330
47
102
}
330
47
100
AcDbScale
 70
     0
300
10:1
140
10.0
141
1.0
290
     0
  0
SCALE
  5
58
102
{ACAD_REACTORS
330
47
102
}
330
47
100
AcDbScale
 70
     0
300
100:1
140
100.0
141
1.0
290
     0
  0
SCALE
  5
59
102
{ACAD_REACTORS
330
47
102
}
330
47
100
AcDbScale
 70
     0
300
1/128" = 1'-0"
140
0.0078125
141
12.0
290
     0
  0
SCALE
  5
5A
102
{ACAD_REACTORS
330
47
102
}
330
47
100
AcDbScale
 70
     0
300
1/64" = 1'-0"
140
0.015625
141
12.0
290
     0
  0
SCALE
  5
5B
102
{ACAD_REACTORS
330
47
102
}
330
47
100
AcDbScale
 70
     0
300
1/32" = 1'-0"
140
0.03125
141
12.0
290
     0
  0
SCALE
  5
5C
102
{ACAD_REACTORS
330
47
102
}
330
47
100
AcDbScale
 70
     0
300
1/16" = 1'-0"
140
0.0625
141
12.0
290
     0
  0
SCALE
  5
5D
102
{ACAD_REACTORS
330
47
102
}
330
47
100
AcDbScale
 70
     0
300
3/32" = 1'-0"
140
0.09375
141
12.0
290
     0
  0
SCALE
  5
5E
102
{ACAD_REACTORS
330
47
102
}
330
47
100
AcDbScale
 70
     0
300
1/8" = 1'-0"
140
0.125
141
12.0
290
     0
  0
SCALE
  5
5F
102
{ACAD_REACTORS
330
47
102
}
330
47
100
AcDbScale
 70
     0
300
3/16" = 1'-0"
140
0.1875
141
12.0
290
     0
  0
SCALE
  5
60
102
{ACAD_REACTORS
330
47
102
}
330
47
100
AcDbScale
 70
     0
300
1/4" = 1'-0"
140
0.25
141
12.0
290
     0
  0
SCALE
  5
61
102
{ACAD_REACTORS
330
47
102
}
330
47
100
AcDbScale
 70
     0
300
3/8" = 1'-0"
140
0.375
141
12.0
290
     0
  0
SCALE
  5
62
102
{ACAD_REACTORS
330
47
102
}
330
47
100
AcDbScale
 70
     0
300
1/2" = 1'-0"
140
0.5
141
12.0
290
     0
  0
SCALE
  5
63
102
{ACAD_REACTORS
330
47
102
}
330
47
100
AcDbScale
 70
     0
300
3/4" = 1'-0"
140
0.75
141
12.0
290
     0
  0
SCALE
  5
64
102
{ACAD_REACTORS
330
47
102
}
330
47
100
AcDbScale
 70
     0
300
1" = 1'-0"
140
1.0
141
12.0
290
     0
  0
SCALE
  5
65
102
{ACAD_REACTORS
330
47
102
}
330
47
100
AcDbScale
 70
     0
300
1-1/2" = 1'-0"
140
1.5
141
12.0
290
     0
  0
SCALE
  5
66
102
{ACAD_REACTORS
330
47
102
}
330
47
100
AcDbScale
 70
     0
300
3" = 1'-0"
140
3.0
141
12.0
290
     0
  0
SCALE
  5
67
102
{ACAD_REACTORS
330
47
102
}
330
47
100
AcDbScale
 70
     0
300
6" = 1'-0"
140
6.0
141
12.0
290
     0
  0
SCALE
  5
68
102
{ACAD_REACTORS
330
47
102
}
330
47
100
AcDbScale
 70
     0
300
1'-0" = 1'-0"
140
12.0
141
12.0
290
     0
  0
ENDSEC
  0
EOF
