  0
SECTION
  2
HEADER
  9
$ACADVER
  1
AC1015
  9
$ACADMAINTVER
 70
     6
  9
$DWGCODEPAGE
  3
ANSI_949
  9
$INSBASE
 10
0.0
 20
0.0
 30
0.0
  9
$EXTMIN
 10
1.000000000000000E+20
 20
1.000000000000000E+20
 30
1.000000000000000E+20
  9
$EXTMAX
 10
-1.000000000000000E+20
 20
-1.000000000000000E+20
 30
-1.000000000000000E+20
  9
$LIMMIN
 10
0.0
 20
0.0
  9
$LIMMAX
 10
420.0
 20
297.0
  9
$ORTHOMODE
 70
     1
  9
$REGENMODE
 70
     1
  9
$FILLMODE
 70
     1
  9
$QTEXTMODE
 70
     0
  9
$MIRRTEXT
 70
     1
  9
$LTSCALE
 40
1.0
  9
$ATTMODE
 70
     1
  9
$TEXTSIZE
 40
3.5
  9
$TRACEWID
 40
1.0
  9
$TEXTSTYLE
  7
Standard
  9
$CLAYER
  8
0
  9
$CELTYPE
  6
ByLayer
  9
$CECOLOR
 62
   256
  9
$CELTSCALE
 40
1.0
  9
$DISPSILH
 70
     0
  9
$DIMSCALE
 40
1.0
  9
$DIMASZ
 40
3.302
  9
$DIMEXO
 40
1.0
  9
$DIMDLI
 40
3.75
  9
$DIMRND
 40
0.0
  9
$DIMDLE
 40
0.0
  9
$DIMEXE
 40
1.0
  9
$DIMTP
 40
0.0
  9
$DIMTM
 40
0.0
  9
$DIMTXT
 40
3.5
  9
$DIMCEN
 40
2.5
  9
$DIMTSZ
 40
0.0
  9
$DIMTOL
 70
     0
  9
$DIMLIM
 70
     0
  9
$DIMTIH
 70
     1
  9
$DIMTOH
 70
     1
  9
$DIMSE1
 70
     0
  9
$DIMSE2
 70
     0
  9
$DIMTAD
 70
     1
  9
$DIMZIN
 70
     0
  9
$DIMBLK
  1

  9
$DIMASO
 70
     1
  9
$DIMSHO
 70
     1
  9
$DIMPOST
  1

  9
$DIMAPOST
  1

  9
$DIMALT
 70
     0
  9
$DIMALTD
 70
     3
  9
$DIMALTF
 40
0.0393700787401575
  9
$DIMLFAC
 40
1.0
  9
$DIMTOFL
 70
     1
  9
$DIMTVP
 40
0.0
  9
$DIMTIX
 70
     0
  9
$DIMSOXD
 70
     0
  9
$DIMSAH
 70
     0
  9
$DIMBLK1
  1

  9
$DIMBLK2
  1

  9
$DIMSTYLE
  2
ISO-25
  9
$DIMCLRD
 70
     0
  9
$DIMCLRE
 70
     0
  9
$DIMCLRT
 70
     0
  9
$DIMTFAC
 40
1.0
  9
$DIMGAP
 40
1.524
  9
$DIMJUST
 70
     0
  9
$DIMSD1
 70
     0
  9
$DIMSD2
 70
     0
  9
$DIMTOLJ
 70
     0
  9
$DIMTZIN
 70
     0
  9
$DIMALTZ
 70
     0
  9
$DIMALTTZ
 70
     0
  9
$DIMUPT
 70
     0
  9
$DIMDEC
 70
     2
  9
$DIMTDEC
 70
     2
  9
$DIMALTU
 70
     2
  9
$DIMALTTD
 70
     3
  9
$DIMTXSTY
  7
Standard
  9
$DIMAUNIT
 70
     0
  9
$DIMADEC
 70
     2
  9
$DIMALTRND
 40
0.0
  9
$DIMAZIN
 70
     0
  9
$DIMDSEP
 70
    44
  9
$DIMATFIT
 70
     3
  9
$DIMFRAC
 70
     0
  9
$DIMLDRBLK
  1

  9
$DIMLUNIT
 70
     2
  9
$DIMLWD
 70
    -2
  9
$DIMLWE
 70
    -2
  9
$DIMTMOVE
 70
     0
  9
$LUNITS
 70
     2
  9
$LUPREC
 70
     2
  9
$SKETCHINC
 40
1.0
  9
$FILLETRAD
 40
10.0
  9
$AUNITS
 70
     0
  9
$AUPREC
 70
     2
  9
$MENU
  1
.
  9
$ELEVATION
 40
0.0
  9
$PELEVATION
 40
0.0
  9
$THICKNESS
 40
0.0
  9
$LIMCHECK
 70
     0
  9
$CHAMFERA
 40
0.0
  9
$CHAMFERB
 40
0.0
  9
$CHAMFERC
 40
0.0
  9
$CHAMFERD
 40
0.0
  9
$SKPOLY
 70
     0
  9
$TDCREATE
 40
2458289.511526748
  9
$TDUCREATE
 40
2458289.136526748
  9
$TDUPDATE
 40
2458296.706490683
  9
$TDUUPDATE
 40
2458296.331490683
  9
$TDINDWG
 40
0.0011154167
  9
$TDUSRTIMER
 40
2458296.330375706
  9
$USRTIMER
 70
     1
  9
$ANGBASE
 50
0.0
  9
$ANGDIR
 70
     0
  9
$PDMODE
 70
     0
  9
$PDSIZE
 40
-1.0
  9
$PLINEWID
 40
0.0
  9
$SPLFRAME
 70
     0
  9
$SPLINETYPE
 70
     6
  9
$SPLINESEGS
 70
     8
  9
$HANDSEED
  5
176
  9
$SURFTAB1
 70
     6
  9
$SURFTAB2
 70
     6
  9
$SURFTYPE
 70
     6
  9
$SURFU
 70
     6
  9
$SURFV
 70
     6
  9
$UCSBASE
  2

  9
$UCSNAME
  2

  9
$UCSORG
 10
0.0
 20
0.0
 30
0.0
  9
$UCSXDIR
 10
1.0
 20
0.0
 30
0.0
  9
$UCSYDIR
 10
0.0
 20
1.0
 30
0.0
  9
$UCSORTHOREF
  2

  9
$UCSORTHOVIEW
 70
     0
  9
$UCSORGTOP
 10
0.0
 20
0.0
 30
0.0
  9
$UCSORGBOTTOM
 10
0.0
 20
0.0
 30
0.0
  9
$UCSORGLEFT
 10
0.0
 20
0.0
 30
0.0
  9
$UCSORGRIGHT
 10
0.0
 20
0.0
 30
0.0
  9
$UCSORGFRONT
 10
0.0
 20
0.0
 30
0.0
  9
$UCSORGBACK
 10
0.0
 20
0.0
 30
0.0
  9
$PUCSBASE
  2

  9
$PUCSNAME
  2

  9
$PUCSORG
 10
0.0
 20
0.0
 30
0.0
  9
$PUCSXDIR
 10
1.0
 20
0.0
 30
0.0
  9
$PUCSYDIR
 10
0.0
 20
1.0
 30
0.0
  9
$PUCSORTHOREF
  2

  9
$PUCSORTHOVIEW
 70
     0
  9
$PUCSORGTOP
 10
0.0
 20
0.0
 30
0.0
  9
$PUCSORGBOTTOM
 10
0.0
 20
0.0
 30
0.0
  9
$PUCSORGLEFT
 10
0.0
 20
0.0
 30
0.0
  9
$PUCSORGRIGHT
 10
0.0
 20
0.0
 30
0.0
  9
$PUCSORGFRONT
 10
0.0
 20
0.0
 30
0.0
  9
$PUCSORGBACK
 10
0.0
 20
0.0
 30
0.0
  9
$USERI1
 70
     0
  9
$USERI2
 70
     0
  9
$USERI3
 70
     0
  9
$USERI4
 70
     0
  9
$USERI5
 70
     0
  9
$USERR1
 40
0.0
  9
$USERR2
 40
0.0
  9
$USERR3
 40
0.0
  9
$USERR4
 40
0.0
  9
$USERR5
 40
0.0
  9
$WORLDVIEW
 70
     1
  9
$SHADEDGE
 70
     3
  9
$SHADEDIF
 70
    70
  9
$TILEMODE
 70
     1
  9
$MAXACTVP
 70
    64
  9
$PINSBASE
 10
0.0
 20
0.0
 30
0.0
  9
$PLIMCHECK
 70
     0
  9
$PEXTMIN
 10
1.000000000000000E+20
 20
1.000000000000000E+20
 30
1.000000000000000E+20
  9
$PEXTMAX
 10
-1.000000000000000E+20
 20
-1.000000000000000E+20
 30
-1.000000000000000E+20
  9
$PLIMMIN
 10
0.0
 20
0.0
  9
$PLIMMAX
 10
0.0
 20
0.0
  9
$UNITMODE
 70
     0
  9
$VISRETAIN
 70
     1
  9
$PLINEGEN
 70
     0
  9
$PSLTSCALE
 70
     1
  9
$TREEDEPTH
 70
  3020
  9
$CMLSTYLE
  2
Standard
  9
$CMLJUST
 70
     0
  9
$CMLSCALE
 40
20.0
  9
$PROXYGRAPHICS
 70
     1
  9
$MEASUREMENT
 70
     1
  9
$CELWEIGHT
370
    -1
  9
$ENDCAPS
280
     0
  9
$JOINSTYLE
280
     0
  9
$LWDISPLAY
290
     1
  9
$INSUNITS
 70
     4
  9
$HYPERLINKBASE
  1

  9
$STYLESHEET
  1

  9
$XEDIT
290
     1
  9
$CEPSNTYPE
380
     0
  9
$PSTYLEMODE
290
     1
  9
$FINGERPRINTGUID
  2
{8776AE43-C3F9-4D93-AFCD-8E12283EBE8E}
  9
$VERSIONGUID
  2
{FAEB1C32-E019-11D5-929B-00C0DF256EC4}
  9
$EXTNAMES
290
     1
  9
$PSVPSCALE
 40
0.0
  9
$OLESTARTUP
290
     0
  0
ENDSEC
  0
SECTION
  2
CLASSES
  0
CLASS
  1
ACDBDICTIONARYWDFLT
  2
AcDbDictionaryWithDefault
  3
ObjectDBX Classes
 90
        0
280
     0
281
     0
  0
CLASS
  1
VISUALSTYLE
  2
AcDbVisualStyle
  3
ObjectDBX Classes
 90
     4095
280
     0
281
     0
  0
CLASS
  1
MATERIAL
  2
AcDbMaterial
  3
ObjectDBX Classes
 90
     1153
280
     0
281
     0
  0
CLASS
  1
SCALE
  2
AcDbScale
  3
ObjectDBX Classes
 90
     1153
280
     0
281
     0
  0
CLASS
  1
SUN
  2
AcDbSun
  3
SCENEOE
 90
     1153
280
     0
281
     0
  0
CLASS
  1
ACDBPLACEHOLDER
  2
AcDbPlaceHolder
  3
ObjectDBX Classes
 90
        0
280
     0
281
     0
  0
CLASS
  1
LAYOUT
  2
AcDbLayout
  3
ObjectDBX Classes
 90
        0
280
     0
281
     0
  0
CLASS
  1
TABLESTYLE
  2
AcDbTableStyle
  3
ObjectDBX Classes
 90
     4095
280
     0
281
     0
  0
CLASS
  1
MLEADERSTYLE
  2
AcDbMLeaderStyle
  3
ACDB_MLEADERSTYLE_CLASS
 90
     4095
280
     0
281
     0
  0
CLASS
  1
RASTERVARIABLES
  2
AcDbRasterVariables
  3
ISM
 90
        0
280
     0
281
     0
  0
ENDSEC
  0
SECTION
  2
TABLES
  0
TABLE
  2
VPORT
  5
8
330
0
100
AcDbSymbolTable
 70
     1
  0
VPORT
  5
29
330
8
100
AcDbSymbolTableRecord
100
AcDbViewportTableRecord
  2
*Active
 70
     0
 10
0.0
 20
0.0
 11
1.0
 21
1.0
 12
-27.16923370000546
 22
8.802424870797896
 13
0.0
 23
0.0
 14
10.0
 24
10.0
 15
10.0
 25
10.0
 16
0.0
 26
0.0
 36
1.0
 17
0.0
 27
0.0
 37
0.0
 40
186.2402858142147
 41
1.798434442270059
 42
50.0
 43
0.0
 44
0.0
 50
0.0
 51
0.0
 71
    16
 72
  2000
 73
     1
 74
     3
 75
     0
 76
     0
 77
     0
 78
     0
281
     0
 65
     1
110
0.0
120
0.0
130
0.0
111
1.0
121
0.0
131
0.0
112
0.0
122
1.0
132
0.0
 79
     0
146
0.0
  0
ENDTAB
  0
TABLE
  2
LTYPE
  5
5
330
0
100
AcDbSymbolTable
 70
     6
  0
LTYPE
  5
14
330
5
100
AcDbSymbolTableRecord
100
AcDbLinetypeTableRecord
  2
ByBlock
 70
     0
  3

 72
    65
 73
     0
 40
0.0
  0
LTYPE
  5
15
330
5
100
AcDbSymbolTableRecord
100
AcDbLinetypeTableRecord
  2
ByLayer
 70
     0
  3

 72
    65
 73
     0
 40
0.0
  0
LTYPE
  5
16
330
5
100
AcDbSymbolTableRecord
100
AcDbLinetypeTableRecord
  2
Continuous
 70
     0
  3
Solid line
 72
    65
 73
     0
 40
0.0
  0
LTYPE
  5
6A
330
5
100
AcDbSymbolTableRecord
100
AcDbLinetypeTableRecord
  2
HIDDEN
 70
     0
  3
Hidden __ __ __ __ __ __ __ __ __ __ __ __ __ __
 72
    65
 73
     2
 40
1.905
 49
1.27
 74
     0
 49
-0.635
 74
     0
  0
LTYPE
  5
6B
330
5
100
AcDbSymbolTableRecord
100
AcDbLinetypeTableRecord
  2
PHANTOM
 70
     0
  3
Phantom ______  __  __  ______  __  __  ______
 72
    65
 73
     6
 40
12.7
 49
6.35
 74
     0
 49
-1.27
 74
     0
 49
1.27
 74
     0
 49
-1.27
 74
     0
 49
1.27
 74
     0
 49
-1.27
 74
     0
  0
LTYPE
  5
6C
330
5
100
AcDbSymbolTableRecord
100
AcDbLinetypeTableRecord
  2
CENTER
 70
     0
  3
Center ____ _ ____ _ ____ _ ____ _ ____ _ ____
 72
    65
 73
     4
 40
10.16
 49
6.35
 74
     0
 49
-1.27
 74
     0
 49
1.27
 74
     0
 49
-1.27
 74
     0
  0
LTYPE
  5
6D
330
5
100
AcDbSymbolTableRecord
100
AcDbLinetypeTableRecord
  2
CENTERX2
 70
     0
  3
Center (2x) ________  __  ________  __  _____
 72
    65
 73
     4
 40
20.32
 49
12.7
 74
     0
 49
-2.54
 74
     0
 49
2.54
 74
     0
 49
-2.54
 74
     0
  0
LTYPE
  5
6E
330
5
100
AcDbSymbolTableRecord
100
AcDbLinetypeTableRecord
  2
DOT2
 70
     0
  3
Dot (.5x) ........................................
 72
    65
 73
     2
 40
0.635
 49
0.0
 74
     0
 49
-0.635
 74
     0
  0
ENDTAB
  0
TABLE
  2
LAYER
  5
2
102
{ACAD_XDICTIONARY
360
16A
102
}
330
0
100
AcDbSymbolTable
 70
    18
  0
LAYER
  5
10
330
2
100
AcDbSymbolTableRecord
100
AcDbLayerTableRecord
  2
0
 70
     0
 62
     7
  6
Continuous
370
    -3
390
F
  0
LAYER
  5
6F
330
2
100
AcDbSymbolTableRecord
100
AcDbLayerTableRecord
  2
FORMAT
 70
     0
 62
     2
  6
Continuous
370
    -3
390
F
  0
LAYER
  5
70
330
2
100
AcDbSymbolTableRecord
100
AcDbLayerTableRecord
  2
외형선
 70
     0
 62
     4
  6
Continuous
370
    30
390
F
  0
LAYER
  5
71
330
2
100
AcDbSymbolTableRecord
100
AcDbLayerTableRecord
  2
숨은선
 70
     0
 62
     2
  6
HIDDEN
370
    15
390
F
  0
LAYER
  5
72
330
2
100
AcDbSymbolTableRecord
100
AcDbLayerTableRecord
  2
중심선
 70
     0
 62
     1
  6
CENTERX2
370
    -3
390
F
  0
LAYER
  5
73
330
2
100
AcDbSymbolTableRecord
100
AcDbLayerTableRecord
  2
파단선
 70
     0
 62
     4
  6
Continuous
370
    -3
390
F
  0
LAYER
  5
74
330
2
100
AcDbSymbolTableRecord
100
AcDbLayerTableRecord
  2
해칭선
 70
     0
 62
   100
  6
Continuous
370
    -3
390
F
  0
LAYER
  5
75
330
2
100
AcDbSymbolTableRecord
100
AcDbLayerTableRecord
  2
가는실선
 70
     0
 62
     4
  6
Continuous
370
    -3
390
F
  0
LAYER
  5
76
330
2
100
AcDbSymbolTableRecord
100
AcDbLayerTableRecord
  2
치수_보조선
 70
     0
 62
     4
  6
Continuous
370
    -3
390
F
  0
LAYER
  5
77
330
2
100
AcDbSymbolTableRecord
100
AcDbLayerTableRecord
  2
치수문자_일반주서
 70
     0
 62
     7
  6
Continuous
370
    15
390
F
  0
LAYER
  5
78
330
2
100
AcDbSymbolTableRecord
100
AcDbLayerTableRecord
  2
개별주서
 70
     0
 62
   100
  6
Continuous
370
    30
390
F
  0
LAYER
  5
79
330
2
100
AcDbSymbolTableRecord
100
AcDbLayerTableRecord
  2
중간선
 70
     0
 62
     2
  6
Continuous
370
    15
390
F
  0
LAYER
  5
7A
330
2
100
AcDbSymbolTableRecord
100
AcDbLayerTableRecord
  2
윤곽선
 70
     0
 62
     3
  6
Continuous
370
    40
390
F
  0
LAYER
  5
7B
330
2
100
AcDbSymbolTableRecord
100
AcDbLayerTableRecord
  2
중심마크
 70
     0
 62
   100
  6
Continuous
370
    30
390
F
  0
LAYER
  5
7C
330
2
100
AcDbSymbolTableRecord
100
AcDbLayerTableRecord
  2
가상선
 70
     0
 62
     4
  6
PHANTOM
370
    -3
390
F
  0
LAYER
  5
7D
330
2
100
AcDbSymbolTableRecord
100
AcDbLayerTableRecord
  2
특수지정선
 70
     0
 62
     5
  6
CENTERX2
370
    60
390
F
  0
LAYER
  5
7E
330
2
100
AcDbSymbolTableRecord
100
AcDbLayerTableRecord
  2
참조1
 70
     0
 62
    -4
  6
Continuous
370
    -3
390
F
  0
LAYER
  5
171
330
2
100
AcDbSymbolTableRecord
100
AcDbLayerTableRecord
  2
Defpoints
 70
     0
 62
     7
  6
Continuous
290
     0
370
    -3
390
F
  0
ENDTAB
  0
TABLE
  2
STYLE
  5
3
330
0
100
AcDbSymbolTable
 70
     2
  0
STYLE
  5
11
330
3
100
AcDbSymbolTableRecord
100
AcDbTextStyleTableRecord
  2
Standard
 70
     0
 40
0.0
 41
1.0
 50
0.0
 71
     0
 42
3.5
  3
txt
  4

  0
STYLE
  5
94
330
3
100
AcDbSymbolTableRecord
100
AcDbTextStyleTableRecord
  2
SLDTEXTSTYLE0
 70
     0
 40
0.0
 41
0.75
 50
0.0
 71
     0
 42
3.5
  3
TXT
  4

  0
ENDTAB
  0
TABLE
  2
VIEW
  5
6
330
0
100
AcDbSymbolTable
 70
     0
  0
ENDTAB
  0
TABLE
  2
UCS
  5
7
330
0
100
AcDbSymbolTable
 70
     0
  0
ENDTAB
  0
TABLE
  2
APPID
  5
9
330
0
100
AcDbSymbolTable
 70
     1
  0
APPID
  5
12
330
9
100
AcDbSymbolTableRecord
100
AcDbRegAppTableRecord
  2
ACAD
 70
     0
  0
ENDTAB
  0
TABLE
  2
DIMSTYLE
  5
A
330
0
100
AcDbSymbolTable
 70
     5
100
AcDbDimStyleTable
  0
DIMSTYLE
105
27
330
A
100
AcDbSymbolTableRecord
100
AcDbDimStyleTableRecord
  2
ISO-25
 70
     0
 41
2.5
 42
0.625
 43
3.75
 44
1.25
 73
     0
 74
     0
 77
     1
 78
     8
140
2.5
141
2.5
143
0.03937007874016
147
0.625
171
     3
172
     1
178
     0
271
     2
272
     2
274
     3
278
    44
283
     0
284
     8
340
11
  0
DIMSTYLE
105
C1
330
A
100
AcDbSymbolTableRecord
100
AcDbDimStyleTableRecord
  2
SLDDIMSTYLE0
 70
     0
 41
3.302
 44
0.0
 45
0.000000001
 73
     0
 74
     0
 77
     1
 78
     4
 79
     1
140
3.5
143
0.0393700787401575
147
0.875
148
0.000000001
170
     1
173
     1
178
     0
271
     2
272
     2
276
     2
284
    12
340
94
  0
DIMSTYLE
105
D5
330
A
100
AcDbSymbolTableRecord
100
AcDbDimStyleTableRecord
  2
SLDDIMSTYLE1
 70
     0
 41
3.302
 44
0.0
 45
0.000000001
 73
     0
 74
     0
 77
     1
 78
    12
 79
     3
140
3.5
143
0.0393700787401575
147
0.875
148
0.000000001
170
     1
173
     1
178
     0
271
     2
272
     2
276
     2
284
    12
340
94
  0
DIMSTYLE
105
E9
102
{ACAD_REACTORS
330
E8
330
C0
330
D4
330
FD
102
}
330
A
100
AcDbSymbolTableRecord
100
AcDbDimStyleTableRecord
  2
SLDDIMSTYLE2
 70
     0
 41
3.302
 44
0.0
 45
0.000000001
 73
     0
 74
     0
 77
     1
 78
     4
 79
     1
140
3.5
143
0.0393700787401575
147
0.875
148
0.000000001
170
     1
172
     1
173
     1
178
     0
271
     2
272
     2
276
     2
284
    12
289
     0
340
94
  0
DIMSTYLE
105
FE
330
A
100
AcDbSymbolTableRecord
100
AcDbDimStyleTableRecord
  2
SLDDIMSTYLE3
 70
     0
 41
3.302
 44
0.0
 45
0.000000001
 73
     0
 74
     0
 77
     1
 78
    12
 79
     3
140
3.5
143
0.0393700787401575
147
0.875
148
0.000000001
170
     1
172
     1
173
     1
178
     0
271
     2
272
     2
276
     2
284
    12
289
     0
340
94
  0
ENDTAB
  0
TABLE
  2
BLOCK_RECORD
  5
1
330
0
100
AcDbSymbolTable
 70
     8
  0
BLOCK_RECORD
  5
1F
330
1
100
AcDbSymbolTableRecord
100
AcDbBlockTableRecord
  2
*Model_Space
340
22
  0
BLOCK_RECORD
  5
1B
330
1
100
AcDbSymbolTableRecord
100
AcDbBlockTableRecord
  2
*Paper_Space
340
1E
  0
BLOCK_RECORD
  5
23
330
1
100
AcDbSymbolTableRecord
100
AcDbBlockTableRecord
  2
*Paper_Space0
340
26
  0
BLOCK_RECORD
  5
7F
330
1
100
AcDbSymbolTableRecord
100
AcDbBlockTableRecord
  2
블럭10
340
0
102
{BLKREFS
331
B9
102
}
  0
BLOCK_RECORD
  5
C2
330
1
100
AcDbSymbolTableRecord
100
AcDbBlockTableRecord
  2
_D
340
0
  0
BLOCK_RECORD
  5
D6
330
1
100
AcDbSymbolTableRecord
100
AcDbBlockTableRecord
  2
_D_1
340
0
  0
BLOCK_RECORD
  5
EA
330
1
100
AcDbSymbolTableRecord
100
AcDbBlockTableRecord
  2
_D_2
340
0
  0
BLOCK_RECORD
  5
FF
330
1
100
AcDbSymbolTableRecord
100
AcDbBlockTableRecord
  2
_D_3
340
0
  0
BLOCK_RECORD
  5
119
330
1
100
AcDbSymbolTableRecord
100
AcDbBlockTableRecord
  2
SW_DOWELSYMBOL_0
340
0
102
{BLKREFS
331
11F
102
}
  0
ENDTAB
  0
ENDSEC
  0
SECTION
  2
BLOCKS
  0
BLOCK
  5
20
330
1F
100
AcDbEntity
  8
0
100
AcDbBlockBegin
  2
*Model_Space
 70
     0
 10
0.0
 20
0.0
 30
0.0
  3
*Model_Space
  1
*Model_Space
  0
ENDBLK
  5
21
330
1F
100
AcDbEntity
  8
0
100
AcDbBlockEnd
  0
BLOCK
  5
1C
330
1B
100
AcDbEntity
 67
     1
  8
0
100
AcDbBlockBegin
  2
*Paper_Space
 70
     0
 10
0.0
 20
0.0
 30
0.0
  3
*Paper_Space
  1
*Paper_Space
  0
ENDBLK
  5
1D
330
1B
100
AcDbEntity
 67
     1
  8
0
100
AcDbBlockEnd
  0
BLOCK
  5
24
330
23
100
AcDbEntity
  8
0
100
AcDbBlockBegin
  2
*Paper_Space0
 70
     0
 10
0.0
 20
0.0
 30
0.0
  3
*Paper_Space0
  1
*Paper_Space0
  0
ENDBLK
  5
25
330
23
100
AcDbEntity
  8
0
100
AcDbBlockEnd
  0
BLOCK
  5
80
330
7F
100
AcDbEntity
  8
0
100
AcDbBlockBegin
  2
블럭10
 70
     2
 10
0.0
 20
0.0
 30
0.0
  3
블럭10
  1
블럭10
  0
ELLIPSE
  5
82
330
7F
100
AcDbEntity
  8
중심선
100
AcDbEllipse
 10
20.54032771741204
 20
12.0471743016438
 30
0.0
 11
6.600054785286829
 21
-1.261213355974178E-13
 31
0.0
210
0.0
220
0.0
230
1.0
 40
0.636358354079598
 41
0.9219305317359503
 42
6.513795318482858
  0
ELLIPSE
  5
83
330
7F
100
AcDbEntity
  8
중심선
100
AcDbEllipse
 10
20.54032771746488
 20
12.04717430159265
 30
0.0
 11
3.960054785062283
 21
1.540847449632565E-10
 31
0.0
210
0.0
220
0.0
230
1.0
 40
0.3939339440162632
 41
1.131841032648279
 42
5.62031148352944
  0
LINE
  5
84
330
7F
100
AcDbEntity
  8
중심선
100
AcDbLine
 10
2.268634060543552
 20
16.24717430164393
 30
0.0
 11
5.714909304380834
 21
16.24717430164393
 31
0.0
  0
LINE
  5
85
330
7F
100
AcDbEntity
  8
중심선
100
AcDbLine
 10
5.245725140726316
 20
7.84717430164391
 30
0.0
 11
8.692000384563599
 21
7.84717430164391
 31
0.0
  0
LINE
  5
86
330
7F
100
AcDbEntity
  8
중심선
100
AcDbLine
 10
15.74043728645272
 20
16.24717430164393
 30
0.0
 11
8.692000384563599
 21
7.84717430164391
 31
0.0
  0
LINE
  5
87
330
7F
100
AcDbEntity
  8
중심선
100
AcDbLine
 10
0.1404042013395286
 20
13.71084872107135
 30
0.0
 11
3.58671253028996
 21
13.71088815037384
 31
0.0
  0
LINE
  5
88
330
7F
100
AcDbEntity
  8
중심선
100
AcDbLine
 10
2.750260043222114
 20
10.84717430164391
 30
0.0
 11
6.196535287059397
 21
10.84717430164391
 31
0.0
  0
LINE
  5
89
330
7F
100
AcDbEntity
  8
중심선
100
AcDbLine
 10
12.29416204261559
 20
16.24717430164393
 30
0.0
 11
5.245725140726316
 21
7.84717430164391
 31
0.0
  0
LINE
  5
8A
330
7F
100
AcDbEntity
  8
중심선
100
AcDbLine
 10
10.72767329541681
 20
16.24717430164393
 30
0.0
 11
6.196535287059397
 21
10.84717430164391
 31
0.0
  0
LINE
  5
8B
330
7F
100
AcDbEntity
  8
중심선
100
AcDbLine
 10
7.28139805157953
 20
16.24717430164393
 30
0.0
 11
2.750260043222114
 21
10.84717430164391
 31
0.0
  0
LINE
  5
8C
330
7F
100
AcDbEntity
  8
중심선
100
AcDbLine
 10
5.714909304380834
 20
16.24717430164393
 30
0.0
 11
3.58671253028996
 21
13.71088815037384
 31
0.0
  0
LINE
  5
8D
330
7F
100
AcDbEntity
  8
중심선
100
AcDbLine
 10
2.268634060543552
 20
16.24717430164393
 30
0.0
 11
0.1404042013395286
 21
13.71084872107135
 31
0.0
  0
LINE
  5
8E
330
7F
100
AcDbEntity
  8
중심선
100
AcDbLine
 10
7.28139805157953
 20
16.24717430164393
 30
0.0
 11
10.72767329541681
 21
16.24717430164393
 31
0.0
  0
LINE
  5
8F
330
7F
100
AcDbEntity
  8
중심선
100
AcDbLine
 10
12.29416204261559
 20
16.24717430164393
 30
0.0
 11
15.74043728645272
 21
16.24717430164393
 31
0.0
  0
LINE
  5
90
330
7F
100
AcDbEntity
  8
중심선
100
AcDbLine
 10
19.22036997980202
 20
11.08717430171403
 30
0.0
 11
23.66174974927406
 21
11.08717430171406
 31
0.0
  0
LINE
  5
91
330
7F
100
AcDbEntity
  8
중심선
100
AcDbLine
 10
19.22039502424796
 20
13.00717430171391
 30
0.0
 11
19.22036997980202
 21
11.08717430171403
 31
0.0
  0
LINE
  5
92
330
7F
100
AcDbEntity
  8
중심선
100
AcDbLine
 10
19.22039502424796
 20
13.00717430171391
 30
0.0
 11
26.96566020931264
 21
13.00717430171391
 31
0.0
  0
LINE
  5
93
330
7F
100
AcDbEntity
  8
중심선
100
AcDbLine
 10
22.22332737316547
 20
13.45928029700563
 30
0.0
 11
24.52862924686651
 21
15.39360700705356
 31
0.0
  0
ATTDEF
  5
95
330
7F
100
AcDbEntity
  8
FORMAT
 62
     2
100
AcDbText
 10
3.448148490846466
 20
2.075366912832191
 30
0.0
 40
4.233333333333333
  1
EM210064
 41
0.75
  7
SLDTEXTSTYLE0
 11
3.448148490846466
 21
-0.0412997538344756
 31
0.0
100
AcDbAttributeDefinition
  3

  2
AUTOATTR0
 70
     0
 74
     1
  0
ENDBLK
  5
81
330
7F
100
AcDbEntity
  8
0
100
AcDbBlockEnd
  0
BLOCK
  5
C3
330
C2
100
AcDbEntity
  8
0
100
AcDbBlockBegin
  2
_D
 70
     0
 10
0.0
 20
0.0
 30
0.0
  3
_D
  1
_D
  0
LINE
  5
C5
330
C2
100
AcDbEntity
  8
치수문자_일반주서
 62
     0
370
    -2
100
AcDbLine
 10
62.79999999999997
 20
12.76357492872391
 30
0.0
 11
62.79999999999997
 21
38.39811096570963
 31
0.0
  0
LINE
  5
C6
330
C2
100
AcDbEntity
  8
치수문자_일반주서
 62
     0
370
    -2
100
AcDbLine
 10
11.99999999999999
 20
12.76357492872388
 30
0.0
 11
11.99999999999999
 21
38.39811096570963
 31
0.0
  0
LINE
  5
C7
330
C2
100
AcDbEntity
  8
치수문자_일반주서
 62
     0
370
    -2
100
AcDbLine
 10
59.49799999999997
 20
38.39811096570963
 30
0.0
 11
15.30199999999999
 21
38.39811096570963
 31
0.0
  0
SOLID
  5
C8
330
C2
100
AcDbEntity
  8
치수문자_일반주서
 62
     0
100
AcDbTrace
 10
59.49799999999997
 20
37.8477776323763
 30
0.0
 11
59.49799999999997
 21
38.94844429904297
 31
0.0
 12
62.79999999999997
 22
38.39811096570963
 32
0.0
 13
62.79999999999997
 23
38.39811096570963
 33
0.0
  0
SOLID
  5
C9
330
C2
100
AcDbEntity
  8
치수문자_일반주서
 62
     0
100
AcDbTrace
 10
15.30199999999999
 20
38.94844429904297
 30
0.0
 11
15.30199999999999
 21
37.8477776323763
 31
0.0
 12
11.99999999999999
 22
38.39811096570963
 32
0.0
 13
11.99999999999999
 23
38.39811096570963
 33
0.0
  0
MTEXT
  5
CA
330
C2
100
AcDbEntity
  8
치수문자_일반주서
 62
     0
100
AcDbMText
 10
37.39999999999996
 20
42.77311096570963
 30
0.0
 40
3.5
 41
0.0
 71
     2
 72
     1
  1
\A1;50.80 [2]
  7
SLDTEXTSTYLE0
 73
     1
 44
1.0
  0
POINT
  5
CB
330
C2
100
AcDbEntity
  8
Defpoints
 62
     0
100
AcDbPoint
 10
62.79999999999997
 20
12.70107492872391
 30
0.0
  0
POINT
  5
CC
330
C2
100
AcDbEntity
  8
Defpoints
 62
     0
100
AcDbPoint
 10
11.99999999999999
 20
12.70107492872388
 30
0.0
  0
POINT
  5
CD
330
C2
100
AcDbEntity
  8
Defpoints
 62
     0
100
AcDbPoint
 10
11.99999999999999
 20
38.39811096570963
 30
0.0
  0
ENDBLK
  5
C4
330
C2
100
AcDbEntity
  8
0
100
AcDbBlockEnd
  0
BLOCK
  5
D7
330
D6
100
AcDbEntity
  8
0
100
AcDbBlockBegin
  2
_D_1
 70
     0
 10
0.0
 20
0.0
 30
0.0
  3
_D_1
  1
_D_1
  0
LINE
  5
D9
330
D6
100
AcDbEntity
  8
치수문자_일반주서
 62
     0
370
    -2
100
AcDbLine
 10
62.79999999999997
 20
12.76357492872391
 30
0.0
 11
62.79999999999996
 21
53.97636907984727
 31
0.0
  0
LINE
  5
DA
330
D6
100
AcDbEntity
  8
치수문자_일반주서
 62
     0
370
    -2
100
AcDbLine
 10
-118.175
 20
10.2235749287239
 30
0.0
 11
-118.175
 21
53.97636907984727
 31
0.0
  0
LINE
  5
DB
330
D6
100
AcDbEntity
  8
치수문자_일반주서
 62
     0
370
    -2
100
AcDbLine
 10
59.49799999999996
 20
53.97636907984727
 30
0.0
 11
-114.873
 21
53.97636907984727
 31
0.0
  0
SOLID
  5
DC
330
D6
100
AcDbEntity
  8
치수문자_일반주서
 62
     0
100
AcDbTrace
 10
59.49799999999996
 20
53.42603574651393
 30
0.0
 11
59.49799999999996
 21
54.5267024131806
 31
0.0
 12
62.79999999999996
 22
53.97636907984727
 32
0.0
 13
62.79999999999996
 23
53.97636907984727
 33
0.0
  0
SOLID
  5
DD
330
D6
100
AcDbEntity
  8
치수문자_일반주서
 62
     0
100
AcDbTrace
 10
-114.873
 20
54.5267024131806
 30
0.0
 11
-114.873
 21
53.42603574651393
 31
0.0
 12
-118.175
 22
53.97636907984727
 32
0.0
 13
-118.175
 23
53.97636907984727
 33
0.0
  0
MTEXT
  5
DE
330
D6
100
AcDbEntity
  8
치수문자_일반주서
 62
     0
100
AcDbMText
 10
-28.05209445373223
 20
58.35136907984727
 30
0.0
 40
3.5
 41
0.0
 71
     2
 72
     1
  1
\A1;180.98 [7 1/8]
  7
SLDTEXTSTYLE0
 73
     1
 44
1.0
  0
POINT
  5
DF
330
D6
100
AcDbEntity
  8
Defpoints
 62
     0
100
AcDbPoint
 10
62.79999999999997
 20
12.70107492872391
 30
0.0
  0
POINT
  5
E0
330
D6
100
AcDbEntity
  8
Defpoints
 62
     0
100
AcDbPoint
 10
-118.175
 20
10.1610749287239
 30
0.0
  0
POINT
  5
E1
330
D6
100
AcDbEntity
  8
Defpoints
 62
     0
100
AcDbPoint
 10
-118.175
 20
53.97636907984727
 30
0.0
  0
ENDBLK
  5
D8
330
D6
100
AcDbEntity
  8
0
100
AcDbBlockEnd
  0
BLOCK
  5
EB
330
EA
100
AcDbEntity
  8
0
100
AcDbBlockBegin
  2
_D_2
 70
     0
 10
0.0
 20
0.0
 30
0.0
  3
_D_2
  1
_D_2
  0
LINE
  5
ED
330
EA
100
AcDbEntity
  8
치수문자_일반주서
 62
     0
370
    -2
100
AcDbLine
 10
-115.6975
 20
12.70107492872388
 30
0.0
 11
-128.9525000000001
 21
12.70107492872383
 31
0.0
  0
LINE
  5
EE
330
EA
100
AcDbEntity
  8
치수문자_일반주서
 62
     0
370
    -2
100
AcDbLine
 10
-115.6975
 20
-12.6989250712761
 30
0.0
 11
-128.9525
 21
-12.69892507127615
 31
0.0
  0
LINE
  5
EF
330
EA
100
AcDbEntity
  8
치수문자_일반주서
 62
     0
370
    -2
100
AcDbLine
 10
-128.9525000000001
 20
9.399074928723833
 30
0.0
 11
-128.9525
 21
-9.396925071276145
 31
0.0
  0
SOLID
  5
F0
330
EA
100
AcDbEntity
  8
치수문자_일반주서
 62
     0
100
AcDbTrace
 10
-128.4021666666667
 20
9.399074928723834
 30
0.0
 11
-129.5028333333334
 21
9.39907492872383
 31
0.0
 12
-128.9525000000001
 22
12.70107492872383
 32
0.0
 13
-128.9525000000001
 23
12.70107492872383
 33
0.0
  0
SOLID
  5
F1
330
EA
100
AcDbEntity
  8
치수문자_일반주서
 62
     0
100
AcDbTrace
 10
-129.5028333333333
 20
-9.396925071276147
 30
0.0
 11
-128.4021666666667
 21
-9.396925071276144
 31
0.0
 12
-128.9525
 22
-12.69892507127615
 32
0.0
 13
-128.9525
 23
-12.69892507127615
 33
0.0
  0
MTEXT
  5
F2
330
EA
100
AcDbEntity
  8
치수문자_일반주서
 62
     0
100
AcDbMText
 10
-133.3275
 20
0.0010749287238691
 30
0.0
 40
3.5
 41
0.0
 71
     2
 72
     1
  1
\A1;%%c25.40 [1]
  7
SLDTEXTSTYLE0
 11
-3.356894814614650E-15
 21
1.0
 31
0.0
 73
     1
 44
1.0
  0
POINT
  5
F3
330
EA
100
AcDbEntity
  8
Defpoints
 62
     0
100
AcDbPoint
 10
-115.635
 20
12.70107492872388
 30
0.0
  0
POINT
  5
F4
330
EA
100
AcDbEntity
  8
Defpoints
 62
     0
100
AcDbPoint
 10
-115.635
 20
-12.6989250712761
 30
0.0
  0
POINT
  5
F5
330
EA
100
AcDbEntity
  8
Defpoints
 62
     0
100
AcDbPoint
 10
-128.9525
 20
-12.69892507127615
 30
0.0
  0
ENDBLK
  5
EC
330
EA
100
AcDbEntity
  8
0
100
AcDbBlockEnd
  0
BLOCK
  5
100
330
FF
100
AcDbEntity
  8
0
100
AcDbBlockBegin
  2
_D_3
 70
     0
 10
0.0
 20
0.0
 30
0.0
  3
_D_3
  1
_D_3
  0
LINE
  5
102
330
FF
100
AcDbEntity
  8
치수문자_일반주서
 62
     0
370
    -2
100
AcDbLine
 10
62.86249999999997
 20
12.70107492872391
 30
0.0
 11
93.63937123127846
 21
12.70107492872403
 31
0.0
  0
LINE
  5
103
330
FF
100
AcDbEntity
  8
치수문자_일반주서
 62
     0
370
    -2
100
AcDbLine
 10
62.86249999999997
 20
-12.69892507127609
 30
0.0
 11
93.63937123127855
 21
-12.69892507127597
 31
0.0
  0
LINE
  5
104
330
FF
100
AcDbEntity
  8
치수문자_일반주서
 62
     0
370
    -2
100
AcDbLine
 10
93.63937123127846
 20
12.70107492872403
 30
0.0
 11
93.63937123127835
 21
44.68007492872403
 31
0.0
  0
LINE
  5
105
330
FF
100
AcDbEntity
  8
치수문자_일반주서
 62
     0
370
    -2
100
AcDbLine
 10
93.63937123127846
 20
12.70107492872403
 30
0.0
 11
93.63937123127855
 21
-12.69892507127597
 31
0.0
  0
LINE
  5
106
330
FF
100
AcDbEntity
  8
치수문자_일반주서
 62
     0
370
    -2
100
AcDbLine
 10
93.63937123127845
 20
16.00307492872403
 30
0.0
 11
93.63937123127843
 21
19.30507492872403
 31
0.0
  0
LINE
  5
107
330
FF
100
AcDbEntity
  8
치수문자_일반주서
 62
     0
370
    -2
100
AcDbLine
 10
93.63937123127856
 20
-16.00092507127597
 30
0.0
 11
93.63937123127857
 21
-19.30292507127597
 31
0.0
  0
SOLID
  5
108
330
FF
100
AcDbEntity
  8
치수문자_일반주서
 62
     0
100
AcDbTrace
 10
93.08903789794512
 20
16.00307492872402
 30
0.0
 11
94.18970456461177
 21
16.00307492872403
 31
0.0
 12
93.63937123127846
 22
12.70107492872403
 32
0.0
 13
93.63937123127846
 23
12.70107492872403
 33
0.0
  0
SOLID
  5
109
330
FF
100
AcDbEntity
  8
치수문자_일반주서
 62
     0
100
AcDbTrace
 10
94.18970456461189
 20
-16.00092507127597
 30
0.0
 11
93.08903789794523
 21
-16.00092507127598
 31
0.0
 12
93.63937123127855
 22
-12.69892507127597
 32
0.0
 13
93.63937123127855
 23
-12.69892507127597
 33
0.0
  0
MTEXT
  5
10A
330
FF
100
AcDbEntity
  8
치수문자_일반주서
 62
     0
100
AcDbMText
 10
89.26437123127839
 20
33.52382492872401
 30
0.0
 40
3.5
 41
0.0
 71
     2
 72
     1
  1
\A1;%%c25.40 [1]
  7
SLDTEXTSTYLE0
 11
-3.356894814614647E-15
 21
1.0
 31
0.0
 73
     1
 44
1.0
  0
POINT
  5
10B
330
FF
100
AcDbEntity
  8
Defpoints
 62
     0
100
AcDbPoint
 10
62.79999999999997
 20
12.70107492872391
 30
0.0
  0
POINT
  5
10C
330
FF
100
AcDbEntity
  8
Defpoints
 62
     0
100
AcDbPoint
 10
62.79999999999997
 20
-12.69892507127609
 30
0.0
  0
POINT
  5
10D
330
FF
100
AcDbEntity
  8
Defpoints
 62
     0
100
AcDbPoint
 10
93.63937123127855
 20
-12.69892507127597
 30
0.0
  0
ENDBLK
  5
101
330
FF
100
AcDbEntity
  8
0
100
AcDbBlockEnd
  0
BLOCK
  5
11A
330
119
100
AcDbEntity
  8
0
100
AcDbBlockBegin
  2
SW_DOWELSYMBOL_0
 70
     0
 10
0.0
 20
0.0
 30
0.0
  3
SW_DOWELSYMBOL_0
  1
SW_DOWELSYMBOL_0
  0
CIRCLE
  5
11C
330
119
100
AcDbEntity
  8
해칭선
 62
     0
100
AcDbCircle
 10
0.0
 20
0.0
 30
0.0
 40
2.999999999999995
  0
HATCH
  5
11D
330
119
100
AcDbEntity
  8
0
  6
Continuous
 62
     0
370
     0
100
AcDbHatch
 10
0.0
 20
0.0
 30
0.0
210
0.0
220
0.0
230
1.0
  2
SOLID
 70
     1
 71
     0
 91
        1
 92
        0
 93
        3
 72
     2
 10
0.0
 20
0.0
 40
2.999999999999995
 50
0.0
 51
90.0
 73
     1
 72
     1
 10
0.0
 20
2.999999999999995
 11
0.0
 21
0.0
 72
     1
 10
0.0
 20
0.0
 11
2.999999999999989
 21
0.0
 97
        0
 75
     0
 76
     1
 98
        1
 10
0.0
 20
0.0
  0
HATCH
  5
11E
330
119
100
AcDbEntity
  8
0
  6
Continuous
 62
     0
370
     0
100
AcDbHatch
 10
0.0
 20
0.0
 30
0.0
210
0.0
220
0.0
230
1.0
  2
SOLID
 70
     1
 71
     0
 91
        1
 92
        0
 93
        3
 72
     2
 10
0.0
 20
0.0
 40
2.999999999999995
 50
180.0
 51
270.0000000000008
 73
     1
 72
     1
 10
0.0
 20
-2.999999999999995
 11
0.0
 21
0.0
 72
     1
 10
0.0
 20
0.0
 11
-2.999999999999989
 21
0.0
 97
        0
 75
     0
 76
     1
 98
        1
 10
0.0
 20
0.0
  0
ENDBLK
  5
11B
330
119
100
AcDbEntity
  8
0
100
AcDbBlockEnd
  0
ENDSEC
  0
SECTION
  2
ENTITIES
  0
LINE
  5
96
330
1F
100
AcDbEntity
  8
외형선
  6
Continuous
370
    15
100
AcDbLine
 10
-115.635
 20
-12.6989250712761
 30
0.0
 11
12.0
 21
-12.6989250712761
 31
0.0
  0
LINE
  5
97
330
1F
100
AcDbEntity
  8
외형선
  6
Continuous
370
    15
100
AcDbLine
 10
12.0
 20
12.70107492872389
 30
0.0
 11
-115.635
 21
12.70107492872389
 31
0.0
  0
LINE
  5
98
330
1F
100
AcDbEntity
  8
외형선
  6
Continuous
370
    15
100
AcDbLine
 10
-115.635
 20
12.70107492872389
 30
0.0
 11
-118.175
 21
10.1610749287239
 31
0.0
  0
LINE
  5
99
330
1F
100
AcDbEntity
  8
외형선
  6
Continuous
370
    15
100
AcDbLine
 10
-118.175
 20
-10.15892507127611
 30
0.0
 11
-115.635
 21
-12.6989250712761
 31
0.0
  0
LINE
  5
9A
330
1F
100
AcDbEntity
  8
0
  6
Continuous
 62
     1
370
    15
100
AcDbLine
 10
48.44024304367157
 20
-12.69892507127612
 30
0.0
 11
50.09999999999992
 21
-12.69892507127612
 31
0.0
  0
LINE
  5
9B
330
1F
100
AcDbEntity
  8
0
  6
Continuous
 62
     1
370
    15
100
AcDbLine
 10
21.62896770957057
 20
12.70107492872391
 30
0.0
 11
13.88632560948732
 21
12.70107492872391
 31
0.0
  0
ARC
  5
9C
330
1F
100
AcDbEntity
  8
0
  6
Continuous
 62
     1
370
    15
100
AcDbCircle
 10
50.09999999999992
 20
0.0010749287239068
 30
0.0
 40
12.70000000000005
100
AcDbArc
 50
332.8801287984293
 51
0.0
  0
ARC
  5
9D
330
1F
100
AcDbEntity
  8
0
  6
Continuous
 62
     1
370
    15
100
AcDbCircle
 10
50.09999999999992
 20
0.0010749287239068
 30
0.0
 40
12.70000000000003
100
AcDbArc
 50
270.0000000000008
 51
295.9706003373084
  0
ARC
  5
9E
330
1F
100
AcDbEntity
  8
0
  6
Continuous
 62
     1
370
    15
100
AcDbCircle
 10
50.09999999999992
 20
0.0010749287239068
 30
0.0
 40
12.70000000000002
100
AcDbArc
 50
64.05609222849478
 51
90.0
  0
ARC
  5
9F
330
1F
100
AcDbEntity
  8
0
  6
Continuous
 62
     1
370
    15
100
AcDbCircle
 10
50.09999999999992
 20
0.0010749287239068
 30
0.0
 40
12.70000000000005
100
AcDbArc
 50
0.0
 51
27.10311259894802
  0
LINE
  5
A0
330
1F
100
AcDbEntity
  8
0
  6
Continuous
 62
     1
370
    15
100
AcDbLine
 10
13.88632560948729
 20
-12.69892507127612
 30
0.0
 11
21.62896770957072
 21
-12.69892507127612
 31
0.0
  0
LINE
  5
A1
330
1F
100
AcDbEntity
  8
0
  6
Continuous
 62
     1
370
    15
100
AcDbLine
 10
50.09999999999992
 20
12.70107492872391
 30
0.0
 11
48.4402430436714
 21
12.70107492872391
 31
0.0
  0
LINE
  5
A2
330
1F
100
AcDbEntity
  8
외형선
  6
Continuous
370
    15
100
AcDbLine
 10
12.0
 20
0.0010749287238931
 30
0.0
 11
12.0
 21
12.70107492872389
 31
0.0
  0
LINE
  5
A3
330
1F
100
AcDbEntity
  8
외형선
  6
Continuous
370
    15
100
AcDbLine
 10
12.0
 20
-12.6989250712761
 30
0.0
 11
12.0
 21
0.0010749287238931
 31
0.0
  0
LINE
  5
A4
330
1F
100
AcDbEntity
  8
외형선
  6
Continuous
370
    15
100
AcDbLine
 10
-115.635
 20
0.0010749287238931
 30
0.0
 11
-115.635
 21
12.70107492872389
 31
0.0
  0
LINE
  5
A5
330
1F
100
AcDbEntity
  8
외형선
  6
Continuous
370
    15
100
AcDbLine
 10
-115.635
 20
-12.6989250712761
 30
0.0
 11
-115.635
 21
0.0010749287238931
 31
0.0
  0
LINE
  5
A6
330
1F
100
AcDbEntity
  8
외형선
  6
Continuous
370
    15
100
AcDbLine
 10
-118.175
 20
0.0010749287238931
 30
0.0
 11
-118.175
 21
10.1610749287239
 31
0.0
  0
LINE
  5
A7
330
1F
100
AcDbEntity
  8
외형선
  6
Continuous
370
    15
100
AcDbLine
 10
-118.175
 20
-10.15892507127611
 30
0.0
 11
-118.175
 21
0.0010749287238931
 31
0.0
  0
SPLINE
  5
A8
330
1F
100
AcDbEntity
  8
0
  6
Continuous
 62
     1
370
    15
100
AcDbSpline
210
0.0
220
0.0
230
1.0
 70
     8
 71
     3
 72
    16
 73
    12
 74
     0
 42
0.000000001
 43
0.00000001
 40
0.0
 40
0.0
 40
0.0
 40
0.0
 40
0.1170742295177134
 40
0.2341819147799434
 40
0.351305348590105
 40
0.4684267608908689
 40
0.5855283896986546
 40
0.7005106509835167
 40
0.8155004457878471
 40
0.9305162929366831
 40
1.0
 40
1.0
 40
1.0
 40
1.0
 10
12.00000000000003
 20
1.089228064272017
 30
0.0
 10
13.42199871983037
 20
0.2671191870992865
 30
0.0
 10
16.26640251728699
 20
-1.377333497381293
 30
0.0
 10
20.53374539645829
 20
-3.802908487059032
 30
0.0
 10
24.80175251550325
 20
-6.08291694178682
 30
0.0
 10
29.06966702696471
 20
-8.135834708999877
 30
0.0
 10
33.31146939668987
 20
-9.871348111808613
 30
0.0
 10
37.52695574901215
 20
-11.23900825491257
 30
0.0
 10
41.71723981839361
 20
-12.17155189243494
 30
0.0
 10
45.35508248160171
 20
-12.66346599163301
 30
0.0
 10
47.59621737181575
 20
-12.64920473846139
 30
0.0
 10
48.44024304367157
 20
-12.64383385969713
 30
0.0
  0
SPLINE
  5
A9
330
1F
100
AcDbEntity
  8
0
  6
Continuous
 62
     1
370
    15
100
AcDbSpline
210
0.0
220
0.0
230
1.0
 70
     8
 71
     3
 72
    13
 73
     9
 74
     0
 42
0.000000001
 43
0.00000001
 40
0.0
 40
0.0
 40
0.0
 40
0.0
 40
0.0867988775588296
 40
0.2720951138361555
 40
0.4540985276609766
 40
0.6360965265107489
 40
0.818070021698695
 40
0.9999999999999999
 40
0.9999999999999999
 40
0.9999999999999999
 40
0.9999999999999999
 10
35.03154467022233
 20
-10.36572141800843
 30
0.0
 10
34.3651957006474
 20
-10.59623236635383
 30
0.0
 10
32.27634036253312
 20
-11.31883275583483
 30
0.0
 10
28.78997547344521
 20
-12.09304860893859
 30
0.0
 10
24.57282850295765
 20
-12.66672174841283
 30
0.0
 10
20.38117443992064
 20
-12.74946172952819
 30
0.0
 10
16.19018900336835
 20
-12.40627006413344
 30
0.0
 10
13.3966183127114
 20
-11.80278477027963
 30
0.0
 10
12.0
 20
-11.50107820682408
 30
0.0
  0
SPLINE
  5
AA
330
1F
100
AcDbEntity
  8
0
  6
Continuous
 62
     1
370
    15
100
AcDbSpline
210
0.0
220
0.0
230
1.0
 70
     8
 71
     3
 72
    44
 73
    40
 74
     0
 42
0.000000001
 43
0.00000001
 40
0.0
 40
0.0
 40
0.0
 40
0.0
 40
0.0625000000000003
 40
0.0625000000000003
 40
0.1250000000000006
 40
0.1250000000000006
 40
0.1875000000000009
 40
0.1875000000000009
 40
0.2500000000000012
 40
0.2500000000000012
 40
0.3125000000000016
 40
0.3125000000000016
 40
0.3750000000000018
 40
0.3750000000000018
 40
0.4375000000000021
 40
0.4375000000000021
 40
0.5000000000000024
 40
0.5000000000000024
 40
0.5625000000000028
 40
0.5625000000000028
 40
0.6250000000000031
 40
0.6250000000000031
 40
0.6875000000000033
 40
0.6875000000000033
 40
0.7500000000000037
 40
0.7500000000000037
 40
0.7812500000000038
 40
0.7812500000000038
 40
0.812500000000004
 40
0.812500000000004
 40
0.8437500000000041
 40
0.8437500000000041
 40
0.8750000000000042
 40
0.8750000000000042
 40
0.937500000000003
 40
0.937500000000003
 40
0.9687500000000016
 40
0.9687500000000016
 40
1.0
 40
1.0
 40
1.0
 40
1.0
 10
12.0
 20
5.385355126336472
 30
0.0
 10
12.79104212544331
 20
4.970777898032287
 30
0.0
 10
13.58740936060073
 20
4.544749464894269
 30
0.0
 10
15.17685036885881
 20
3.677169848188513
 30
0.0
 10
15.966987473063
 20
3.236192538570296
 30
0.0
 10
17.55602429176577
 20
2.341713969092738
 30
0.0
 10
18.35257396681854
 20
1.888632687948236
 30
0.0
 10
19.93578158138388
 20
0.9787576515601839
 30
0.0
 10
20.73085519605549
 20
0.5203578302399893
 30
0.0
 10
22.32061646837906
 20
-0.3966127132965662
 30
0.0
 10
23.11090391862163
 20
-0.8543331876786209
 30
0.0
 10
24.69945269344593
 20
-1.766181044858638
 30
0.0
 10
25.49614252435552
 20
-2.219993783488221
 30
0.0
 10
27.08039067217736
 20
-3.115462393840047
 30
0.0
 10
27.8743201448637
 20
-3.558325163509933
 30
0.0
 10
29.46431769935752
 20
-4.428807643951537
 30
0.0
 10
30.25490581522814
 20
-4.855442402279444
 30
0.0
 10
31.84288277775222
 20
-5.689321824908438
 30
0.0
 10
32.63967045559691
 20
-6.096416488986582
 30
0.0
 10
34.22487612382007
 20
-6.883818372170757
 30
0.0
 10
35.01781113392911
 20
-7.264902820652632
 30
0.0
 10
36.60796094707499
 20
-7.997871643260598
 30
0.0
 10
37.3989999952753
 20
-8.348824385985882
 30
0.0
 10
38.98632147768213
 20
-9.017574140960154
 30
0.0
 10
39.78316467616554
 20
-9.335383695614034
 30
0.0
 10
40.97272468198699
 20
-9.783091703562953
 30
0.0
 10
41.36782442290453
 20
-9.927454805290093
 30
0.0
 10
42.16130562408809
 20
-10.20675037692879
 30
0.0
 10
42.55888959093419
 20
-10.3415784406051
 30
0.0
 10
43.35399860166096
 20
-10.60098221124709
 30
0.0
 10
43.75152279178772
 20
-10.72555764117419
 30
0.0
 10
44.54476575987027
 20
-10.96393280777436
 30
0.0
 10
44.93983888738485
 20
-11.07767974889719
 30
0.0
 10
46.12977572469237
 20
-11.40299363491677
 30
0.0
 10
46.92663210765787
 20
-11.59828735097389
 30
0.0
 10
48.11678536734559
 20
-11.85628029961738
 30
0.0
 10
48.51187461278823
 20
-11.93642258545794
 30
0.0
 10
49.30496543340251
 20
-12.08518258301722
 30
0.0
 10
49.70244945815017
 20
-12.1537549781759
 30
0.0
 10
50.09999999999992
 20
-12.21635420318391
 30
0.0
  0
LINE
  5
AB
330
1F
100
AcDbEntity
  8
외형선
  6
Continuous
370
    15
100
AcDbLine
 10
12.0
 20
1.089228064272018
 30
0.0
 11
12.0
 21
5.385355126336472
 31
0.0
  0
SPLINE
  5
AC
330
1F
100
AcDbEntity
  8
0
  6
Continuous
 62
     1
370
    15
100
AcDbSpline
210
0.0
220
0.0
230
1.0
 70
     8
 71
     3
 72
    44
 73
    40
 74
     0
 42
0.000000001
 43
0.00000001
 40
0.0
 40
0.0
 40
0.0
 40
0.0
 40
0.0625000000000005
 40
0.0625000000000005
 40
0.125000000000001
 40
0.125000000000001
 40
0.1875000000000015
 40
0.1875000000000015
 40
0.250000000000002
 40
0.250000000000002
 40
0.3125000000000025
 40
0.3125000000000025
 40
0.375000000000003
 40
0.375000000000003
 40
0.4375000000000035
 40
0.4375000000000035
 40
0.500000000000004
 40
0.500000000000004
 40
0.5625000000000044
 40
0.5625000000000044
 40
0.625000000000005
 40
0.625000000000005
 40
0.6875000000000056
 40
0.6875000000000056
 40
0.750000000000006
 40
0.750000000000006
 40
0.7812500000000054
 40
0.7812500000000054
 40
0.8125000000000049
 40
0.8125000000000049
 40
0.8437500000000044
 40
0.8437500000000044
 40
0.8750000000000039
 40
0.8750000000000039
 40
0.9375000000000028
 40
0.9375000000000028
 40
0.9687500000000014
 40
0.9687500000000014
 40
1.0
 40
1.0
 40
1.0
 40
1.0
 10
12.00000000000003
 20
12.65437184113361
 30
0.0
 10
12.79104212544331
 20
12.69359262924082
 30
0.0
 10
13.58740936060077
 20
12.70817144090937
 30
0.0
 10
15.17685036885884
 20
12.68756058744752
 30
0.0
 10
15.96698747306303
 20
12.65249420365373
 30
0.0
 10
17.55602429176582
 20
12.53299900935783
 30
0.0
 10
18.35257396681857
 20
12.44851992519445
 30
0.0
 10
19.93578158138399
 20
12.23175796188399
 30
0.0
 10
20.73085519605549
 20
12.09911418970412
 30
0.0
 10
22.320616468379
 20
11.78706333324611
 30
0.0
 10
23.11090391862163
 20
11.6080252852414
 30
0.0
 10
24.69945269344593
 20
11.20476661689536
 30
0.0
 10
25.49614252435546
 20
10.9805832913519
 30
0.0
 10
27.0803906721772
 20
10.49115561663297
 30
0.0
 10
27.87432014486367
 20
10.22529322339493
 30
0.0
 10
29.46431769935752
 20
9.654398822827693
 30
0.0
 10
30.25490581522823
 20
9.350071386389725
 30
0.0
 10
31.84288277775222
 20
8.705272557931664
 30
0.0
 10
32.63967045559686
 20
8.364811269698553
 30
0.0
 10
34.22487612382007
 20
7.653792065178448
 30
0.0
 10
35.01781113392911
 20
7.282598922912451
 30
0.0
 10
36.60796094707499
 20
6.512535547887239
 30
0.0
 10
37.39899999527539
 20
6.114683584908977
 30
0.0
 10
38.98632147768215
 20
5.295819223574559
 30
0.0
 10
39.78316467616554
 20
4.874669729225818
 30
0.0
 10
40.97272468198699
 20
4.230919360664327
 30
0.0
 10
41.36782442290448
 20
4.014426238960824
 30
0.0
 10
42.16130562408811
 20
3.577137767677174
 30
0.0
 10
42.55888959093416
 20
3.356484846174021
 30
0.0
 10
43.35399860166096
 20
2.912124128033765
 30
0.0
 10
43.75152279178769
 20
2.688416808984251
 30
0.0
 10
44.54476575987024
 20
2.238937369510668
 30
0.0
 10
44.93983888738482
 20
2.013289817807051
 30
0.0
 10
46.12977572469234
 20
1.332837964688256
 30
0.0
 10
46.92663210765784
 20
0.8750307232106044
 30
0.0
 10
48.1167853673455
 20
0.1880806638491323
 30
0.0
 10
48.51187461278826
 20
-0.0407922198025052
 30
0.0
 10
49.30496543340257
 20
-0.4988342399107185
 30
0.0
 10
49.70244945815023
 20
-0.7279035620130244
 30
0.0
 10
50.09999999999992
 20
-0.9565173606925196
 30
0.0
  0
SPLINE
  5
AD
330
1F
100
AcDbEntity
  8
0
  6
Continuous
 62
     1
370
    15
100
AcDbSpline
210
0.0
220
0.0
230
1.0
 70
     8
 71
     3
 72
    66
 73
    62
 74
     0
 42
0.000000001
 43
0.00000001
 40
0.0
 40
0.0
 40
0.0
 40
0.0
 40
0.062499999999998
 40
0.062499999999998
 40
0.093749999999998
 40
0.093749999999998
 40
0.1249999999999981
 40
0.1249999999999981
 40
0.1874999999999981
 40
0.1874999999999981
 40
0.2187499999999992
 40
0.2187499999999992
 40
0.2500000000000002
 40
0.2500000000000002
 40
0.3125000000000042
 40
0.3125000000000042
 40
0.3750000000000082
 40
0.3750000000000082
 40
0.4062500000000102
 40
0.4062500000000102
 40
0.4375000000000121
 40
0.4375000000000121
 40
0.468750000000014
 40
0.468750000000014
 40
0.484375000000015
 40
0.484375000000015
 40
0.500000000000016
 40
0.500000000000016
 40
0.5312500000000179
 40
0.5312500000000179
 40
0.546875000000019
 40
0.546875000000019
 40
0.56250000000002
 40
0.56250000000002
 40
0.5781250000000211
 40
0.5781250000000211
 40
0.5937500000000221
 40
0.5937500000000221
 40
0.6093750000000232
 40
0.6093750000000232
 40
0.6250000000000242
 40
0.6250000000000242
 40
0.6562500000000251
 40
0.6562500000000251
 40
0.6718750000000248
 40
0.6718750000000248
 40
0.6875000000000243
 40
0.6875000000000243
 40
0.7187500000000219
 40
0.7187500000000219
 40
0.7500000000000194
 40
0.7500000000000194
 40
0.7812500000000171
 40
0.7812500000000171
 40
0.8125000000000147
 40
0.8125000000000147
 40
0.8750000000000098
 40
0.8750000000000098
 40
0.9375000000000049
 40
0.9375000000000049
 40
1.0
 40
1.0
 40
1.0
 40
1.0
 10
50.09999999999992
 20
-0.9565173606925064
 30
0.0
 10
50.74520300457813
 20
-1.32754517796001
 30
0.0
 10
51.38751946753167
 20
-1.676209259210607
 30
0.0
 10
52.3533442394084
 20
-2.154430509103989
 30
0.0
 10
52.67589625603985
 20
-2.305909307399138
 30
0.0
 10
53.32286608854658
 20
-2.591529414146011
 30
0.0
 10
53.64908905563804
 20
-2.726332532726523
 30
0.0
 10
54.61570513591347
 20
-3.097113313986013
 30
0.0
 10
55.24293379839456
 20
-3.299732645175891
 30
0.0
 10
56.15755953617462
 20
-3.541846623484604
 30
0.0
 10
56.45809649776196
 20
-3.612009583442208
 30
0.0
 10
57.04938638908381
 20
-3.733105697265869
 30
0.0
 10
57.34020234048693
 20
-3.783945505209654
 30
0.0
 10
58.1789238457478
 20
-3.909469835879593
 30
0.0
 10
58.6995980340031
 20
-3.958209420965011
 30
0.0
 10
59.65362141486501
 20
-4.023941234967502
 30
0.0
 10
60.08872027248437
 20
-4.03991446265914
 30
0.0
 10
60.64001736001661
 20
-4.079664881473012
 30
0.0
 10
60.80782288209129
 20
-4.095745575100339
 30
0.0
 10
61.10839338907208
 20
-4.142911611999203
 30
0.0
 10
61.24169637351984
 20
-4.174126613015463
 30
0.0
 10
61.46566980995188
 20
-4.262986020944794
 30
0.0
 10
61.55529274445455
 20
-4.320070260480636
 30
0.0
 10
61.6527972189207
 20
-4.434214204288041
 30
0.0
 10
61.67911901572863
 20
-4.477038674822198
 30
0.0
 10
61.71837550432723
 20
-4.574312880129509
 30
0.0
 10
61.7312366159487
 20
-4.628932133843453
 30
0.0
 10
61.74760254686383
 20
-4.809743755302269
 30
0.0
 10
61.72968846046895
 20
-4.953563363216301
 30
0.0
 10
61.65434110732691
 20
-5.214514665348209
 30
0.0
 10
61.62097527270099
 20
-5.309036508130328
 30
0.0
 10
61.53946595869759
 20
-5.5085856737027
 30
0.0
 10
61.4911626186035
 20
-5.614247776919291
 30
0.0
 10
61.37937462615513
 20
-5.837757786922015
 30
0.0
 10
61.31589338378312
 20
-5.955602983985552
 30
0.0
 10
61.17305710115163
 20
-6.204114224719842
 30
0.0
 10
61.09404945238585
 20
-6.334045730413297
 30
0.0
 10
60.92531438308124
 20
-6.598145619006755
 30
0.0
 10
60.83505716628572
 20
-6.733249024210293
 30
0.0
 10
60.64296910781319
 20
-7.009104070521039
 30
0.0
 10
60.54047345761181
 20
-7.150726786164467
 30
0.0
 10
60.22038858662266
 20
-7.576685778487081
 30
0.0
 10
59.99207938211391
 20
-7.860115630450757
 30
0.0
 10
59.62777757582511
 20
-8.28214233807539
 30
0.0
 10
59.50276913527868
 20
-8.42211190020207
 30
0.0
 10
59.25057008420298
 20
-8.694953998752792
 30
0.0
 10
59.12272199795926
 20
-8.828597416088067
 30
0.0
 10
58.73365313476408
 20
-9.221282175301278
 30
0.0
 10
58.46694820458775
 20
-9.472125419167655
 30
0.0
 10
57.91679076259742
 20
-9.950977332518494
 30
0.0
 10
57.63917201384599
 20
-10.1738475126982
 30
0.0
 10
57.07860406756787
 20
-10.58706844931792
 30
0.0
 10
56.79524113519746
 20
-10.77775501800954
 30
0.0
 10
56.21978883630429
 20
-11.12813025556152
 30
0.0
 10
55.92603276776698
 20
-11.28852410980163
 30
0.0
 10
55.04448054921092
 20
-11.71498264537882
 30
0.0
 10
54.45358685057711
 20
-11.92938183363344
 30
0.0
 10
53.24603748712865
 20
-12.23039635174964
 30
0.0
 10
52.62475280903006
 20
-12.31636790769298
 30
0.0
 10
51.37621704726885
 20
-12.35904495877456
 30
0.0
 10
50.74513382148787
 20
-12.31793846229142
 30
0.0
 10
50.09999999999998
 20
-12.2163542031839
 30
0.0
  0
SPLINE
  5
AE
330
1F
100
AcDbEntity
  8
0
  6
Continuous
 62
     1
370
    15
100
AcDbSpline
210
0.0
220
0.0
230
1.0
 70
     8
 71
     3
 72
    11
 73
     7
 74
     0
 42
0.000000001
 43
0.00000001
 40
0.0
 40
0.0
 40
0.0
 40
0.0
 40
0.1656074507586919
 40
0.4436849917004532
 40
0.7218255345104082
 40
1.0
 40
1.0
 40
1.0
 40
1.0
 10
35.03154467022213
 20
10.36787127545621
 30
0.0
 10
35.86332470238619
 20
10.64808931331963
 30
0.0
 10
38.09177707561349
 20
11.3988317300054
 30
0.0
 10
41.71723392330729
 20
12.17020703855554
 30
0.0
 10
45.90832900102808
 20
12.71688438552631
 30
0.0
 10
48.70271953539114
 20
12.68224335089681
 30
0.0
 10
50.09999999999992
 20
12.6649217774208
 30
0.0
  0
SPLINE
  5
AF
330
1F
100
AcDbEntity
  8
0
  6
Continuous
 62
     1
370
    15
100
AcDbSpline
210
0.0
220
0.0
230
1.0
 70
     8
 71
     3
 72
    66
 73
    62
 74
     0
 42
0.000000001
 43
0.00000001
 40
0.0
 40
0.0
 40
0.0
 40
0.0
 40
0.0625000000000027
 40
0.0625000000000027
 40
0.093750000000003
 40
0.093750000000003
 40
0.1250000000000033
 40
0.1250000000000033
 40
0.1875000000000019
 40
0.1875000000000019
 40
0.2187500000000022
 40
0.2187500000000022
 40
0.2500000000000025
 40
0.2500000000000025
 40
0.3125000000000049
 40
0.3125000000000049
 40
0.3750000000000072
 40
0.3750000000000072
 40
0.4062500000000083
 40
0.4062500000000083
 40
0.4375000000000094
 40
0.4375000000000094
 40
0.4687500000000105
 40
0.4687500000000105
 40
0.4843750000000111
 40
0.4843750000000111
 40
0.5000000000000117
 40
0.5000000000000117
 40
0.5312500000000128
 40
0.5312500000000128
 40
0.5468750000000134
 40
0.5468750000000134
 40
0.5625000000000141
 40
0.5625000000000141
 40
0.5781250000000148
 40
0.5781250000000148
 40
0.5937500000000154
 40
0.5937500000000154
 40
0.6093750000000161
 40
0.6093750000000161
 40
0.6250000000000168
 40
0.6250000000000168
 40
0.6562500000000182
 40
0.6562500000000182
 40
0.6718750000000181
 40
0.6718750000000181
 40
0.687500000000018
 40
0.687500000000018
 40
0.7187500000000162
 40
0.7187500000000162
 40
0.7500000000000144
 40
0.7500000000000144
 40
0.7812500000000127
 40
0.7812500000000127
 40
0.8125000000000109
 40
0.8125000000000109
 40
0.8750000000000072
 40
0.8750000000000072
 40
0.9375000000000037
 40
0.9375000000000037
 40
1.0
 40
1.0
 40
1.0
 40
1.0
 10
50.09999999999992
 20
12.6649217774208
 30
0.0
 10
50.74520300457813
 20
12.63686605460457
 30
0.0
 10
51.38751946753162
 20
12.54532672310775
 30
0.0
 10
52.35334423940834
 20
12.31777280084193
 30
0.0
 10
52.67589625603991
 20
12.22682274313335
 30
0.0
 10
53.32286608854652
 20
12.01431197399052
 30
0.0
 10
53.64908905563793
 20
11.89194654458572
 30
0.0
 10
54.61570513591347
 20
11.48367420851898
 30
0.0
 10
55.24293379839462
 20
11.15836181293516
 30
0.0
 10
56.15755953617462
 20
10.5925203762721
 30
0.0
 10
56.45809649776213
 20
10.3908589749489
 30
0.0
 10
57.04938638908392
 20
9.960457799253488
 30
0.0
 10
57.34020234048687
 20
9.731430272950476
 30
0.0
 10
58.17892384574786
 20
9.016369050618323
 30
0.0
 10
58.69959803400322
 20
8.49846412569988
 30
0.0
 10
59.65362141486513
 20
7.374147884856963
 30
0.0
 10
60.08872027248439
 20
6.763489334609775
 30
0.0
 10
60.64001736001667
 20
5.804667849239371
 30
0.0
 10
60.80782288209114
 20
5.476922639363973
 30
0.0
 10
61.10839338907205
 20
4.804091460722629
 30
0.0
 10
61.24169637351967
 20
4.457449760886607
 30
0.0
 10
61.46566980995176
 20
3.751850398841624
 30
0.0
 10
61.5552927444546
 20
3.396818460292191
 30
0.0
 10
61.65279721892064
 20
2.862082121997833
 30
0.0
 10
61.6791190157286
 20
2.6834713538125
 30
0.0
 10
61.71837550432723
 20
2.325709576801871
 30
0.0
 10
61.73123661594865
 20
2.14628506948247
 30
0.0
 10
61.74760254686375
 20
1.618977012970787
 30
0.0
 10
61.72968846046884
 20
1.278349597330775
 30
0.0
 10
61.65434110732677
 20
0.7882902610130365
 30
0.0
 10
61.62097527270116
 20
0.6289012611494648
 30
0.0
 10
61.53946595869776
 20
0.3275396826435
 30
0.0
 10
61.4911626186035
 20
0.1843003837294477
 30
0.0
 10
61.37937462615515
 20
-0.0869422337655961
 30
0.0
 10
61.31589338378306
 20
-0.2149489531496903
 30
0.0
 10
61.17305710115163
 20
-0.4549694488409541
 30
0.0
 10
61.09404945238585
 20
-0.5660281094535651
 30
0.0
 10
60.92531438308119
 20
-0.7653059511965281
 30
0.0
 10
60.83505716628555
 20
-0.8544574307086704
 30
0.0
 10
60.64296910781319
 20
-1.012680404066869
 30
0.0
 10
60.54047345761187
 20
-1.08208143588227
 30
0.0
 10
60.2203885866226
 20
-1.257973725407326
 30
0.0
 10
59.99207938211386
 20
-1.332364387532263
 30
0.0
 10
59.62777757582505
 20
-1.389848921298623
 30
0.0
 10
59.50276913527868
 20
-1.399771319736717
 30
0.0
 10
59.25057008420309
 20
-1.402727765654655
 30
0.0
 10
59.12272199795932
 20
-1.395895708785983
 30
0.0
 10
58.73365313476414
 20
-1.353463634572735
 30
0.0
 10
58.46694820458769
 20
-1.295982620621459
 30
0.0
 10
57.91679076259736
 20
-1.13212555624491
 30
0.0
 10
57.63917201384599
 20
-1.027469132404621
 30
0.0
 10
57.07860406756792
 20
-0.7840169787299588
 30
0.0
 10
56.79524113519746
 20
-0.6450047154051846
 30
0.0
 10
56.21978883630435
 20
-0.3392548388777615
 30
0.0
 10
55.92603276776698
 20
-0.1714189514498307
 30
0.0
 10
55.04448054921106
 20
0.3559560647117624
 30
0.0
 10
54.45358685057711
 20
0.7379713899477646
 30
0.0
 10
53.2460374871287
 20
1.526227990908909
 30
0.0
 10
52.62475280903
 20
1.935822671427477
 30
0.0
 10
51.3762170472688
 20
2.727928430092181
 30
0.0
 10
50.74513382148781
 20
3.110790051929692
 30
0.0
 10
50.09999999999998
 20
3.468700255487279
 30
0.0
  0
SPLINE
  5
B0
330
1F
100
AcDbEntity
  8
0
  6
Continuous
 62
     1
370
    15
100
AcDbSpline
210
0.0
220
0.0
230
1.0
 70
     8
 71
     3
 72
    14
 73
    10
 74
     0
 42
0.000000001
 43
0.00000001
 40
0.0
 40
0.0
 40
0.0
 40
0.0
 40
0.14990521107282
 40
0.2997844443879205
 40
0.4496193645880281
 40
0.5994777280491923
 40
0.7493731150995739
 40
0.8966047734854002
 40
1.0
 40
1.0
 40
1.0
 40
1.0
 10
50.09999999999992
 20
3.468700255487311
 30
0.0
 10
48.67729262973609
 20
4.24614409083525
 30
0.0
 10
45.83212443665734
 20
5.800897034743106
 30
0.0
 10
41.56503598480536
 20
7.880834143897961
 30
0.0
 10
37.29879882787289
 20
9.67361679177679
 30
0.0
 10
33.03217439423449
 20
11.10538589214339
 30
0.0
 10
28.78998551832505
 20
12.09817299888723
 30
0.0
 10
24.98881098736875
 20
12.64334654648474
 30
0.0
 10
22.61023906398678
 20
12.65013007617436
 30
0.0
 10
21.6289677095706
 20
12.65292859712755
 30
0.0
  0
SPLINE
  5
B1
330
1F
100
AcDbEntity
  8
0
  6
Continuous
 62
     1
370
    15
100
AcDbSpline
210
0.0
220
0.0
230
1.0
 70
     8
 71
     3
 72
    15
 73
    11
 74
     0
 42
0.000000001
 43
0.00000001
 40
0.0
 40
0.0
 40
0.0
 40
0.0
 40
0.0681987855765887
 40
0.2279162880814891
 40
0.3899630306131388
 40
0.5072661958491527
 40
0.6279233664582339
 40
0.7889629027598689
 40
0.9545279171307942
 40
0.9999999999999999
 40
0.9999999999999999
 40
0.9999999999999999
 40
0.9999999999999999
 10
61.40035589717807
 20
5.784933919764032
 30
0.0
 10
61.33587568892484
 20
5.909254651531716
 30
0.0
 10
61.12038666524877
 20
6.324727148241279
 30
0.0
 10
60.53533953765499
 20
7.189361048619582
 30
0.0
 10
59.73702111160124
 20
8.181822260499692
 30
0.0
 10
58.93023232836852
 20
9.0405184594039
 30
0.0
 10
58.08368346455616
 20
9.832476893767451
 30
0.0
 10
57.09142059914869
 20
10.59267993398576
 30
0.0
 10
56.24894056614592
 20
11.15391787322916
 30
0.0
 10
55.75263150204246
 20
11.35631607149535
 30
0.0
 10
55.64569197725366
 20
11.39992673409684
 30
0.0
  0
LINE
  5
B2
330
1F
100
AcDbEntity
  8
0
  6
Continuous
 62
     1
370
    15
100
AcDbLine
 10
12.00000000000003
 20
-12.65222198368583
 30
0.0
 11
13.88632560948729
 21
-12.64004166991119
 31
0.0
  0
LINE
  5
B3
330
1F
100
AcDbEntity
  8
외형선
  6
Continuous
370
    15
100
AcDbLine
 10
12.0
 20
-12.65222198368583
 30
0.0
 11
12.0
 21
-11.50107820682408
 31
0.0
  0
LINE
  5
B4
330
1F
100
AcDbEntity
  8
중심선
100
AcDbLine
 10
-121.175
 20
0.0010749287238931
 30
0.0
 11
65.79999999999997
 21
0.0010749287239126
 31
0.0
  0
LINE
  5
B5
330
1F
100
AcDbEntity
  8
참조1
100
AcDbLine
 10
48.09999999999999
 20
0.0010749287238892
 30
0.0
 11
48.09999999999999
 21
-39.99892507127611
 31
0.0
  0
LINE
  5
B6
330
1F
100
AcDbEntity
  8
참조1
100
AcDbLine
 10
138.5875
 20
0.0010749287239068
 30
0.0
 11
138.5875
 21
10.39811096570963
 31
0.0
  0
LINE
  5
B7
330
1F
100
AcDbEntity
  8
참조1
100
AcDbLine
 10
48.09999999999999
 20
-39.99892507127611
 30
0.0
 11
12.3036431856913
 21
-39.9989250712761
 31
0.0
  0
CIRCLE
  5
B8
330
1F
100
AcDbEntity
  8
해칭선
100
AcDbCircle
 10
0.0
 20
0.0
 30
0.0
 40
3.000000000000004
  0
INSERT
  5
B9
330
1F
100
AcDbEntity
  8
0
  6
Continuous
 62
     7
100
AcDbBlockReference
 66
     1
  2
블럭10
 10
-41.62777293212522
 20
-52.04609937292004
 30
0.0
  0
ATTRIB
  5
BA
330
B9
100
AcDbEntity
  8
FORMAT
 62
     2
100
AcDbText
 10
-51.76940894426185
 20
-49.97073246008785
 30
0.0
 40
4.233333333333333
  1
EM210064 [ 4 FLUTE ]
 41
0.75
  7
SLDTEXTSTYLE0
 11
-51.76940894426185
 21
-52.08739912675452
 31
0.0
100
AcDbAttribute
  2
AUTOATTR0
 70
     0
 74
     1
  0
SEQEND
  5
BB
330
B9
100
AcDbEntity
  8
0
  6
Continuous
 62
     7
  0
HATCH
  5
BC
330
1F
100
AcDbEntity
  8
중심선
100
AcDbHatch
 10
0.0
 20
0.0
 30
0.0
210
0.0
220
0.0
230
1.0
  2
SOLID
 70
     1
 71
     0
 91
        1
 92
        0
 93
        4
 72
     1
 10
-35.91286362774437
 20
-35.7989250712761
 11
-39.35913887158166
 21
-35.7989250712761
 72
     1
 10
-39.35913887158166
 20
-35.7989250712761
 11
-41.4873687307857
 21
-38.33525065184867
 72
     1
 10
-41.4873687307857
 20
-38.33525065184867
 11
-38.04106040183525
 21
-38.33521122254619
 72
     1
 10
-38.04106040183525
 20
-38.33521122254619
 11
-35.91286362774437
 21
-35.7989250712761
 97
        0
 75
     0
 76
     1
 98
        1
 10
-75.78750000000001
 20
0.0
  0
HATCH
  5
BD
330
1F
100
AcDbEntity
  8
중심선
100
AcDbHatch
 10
0.0
 20
0.0
 30
0.0
210
0.0
220
0.0
230
1.0
  2
SOLID
 70
     1
 71
     0
 91
        1
 92
        0
 93
        4
 72
     1
 10
-30.9000996367084
 20
-35.79892507127608
 11
-34.34637488054567
 21
-35.7989250712761
 72
     1
 10
-34.34637488054567
 20
-35.7989250712761
 11
-38.87751288890309
 21
-41.19892507127612
 72
     1
 10
-38.87751288890309
 20
-41.19892507127612
 11
-35.43123764506581
 21
-41.19892507127612
 72
     1
 10
-35.43123764506581
 20
-41.19892507127612
 11
-30.9000996367084
 21
-35.79892507127608
 97
        0
 75
     0
 76
     1
 98
        1
 10
-75.78750000000001
 20
0.0
  0
HATCH
  5
BE
330
1F
100
AcDbEntity
  8
중심선
100
AcDbHatch
 10
0.0
 20
0.0
 30
0.0
210
0.0
220
0.0
230
1.0
  2
SOLID
 70
     1
 71
     0
 91
        1
 92
        0
 93
        4
 72
     1
 10
-25.8873356456725
 20
-35.79892507127608
 11
-29.33361088950961
 21
-35.7989250712761
 72
     1
 10
-29.33361088950961
 20
-35.7989250712761
 11
-36.38204779139889
 21
-44.19892507127612
 72
     1
 10
-36.38204779139889
 20
-44.19892507127612
 11
-32.93577254756161
 21
-44.19892507127612
 72
     1
 10
-32.93577254756161
 20
-44.19892507127612
 11
-25.8873356456725
 21
-35.79892507127608
 97
        0
 75
     0
 76
     1
 98
        1
 10
-75.78750000000001
 20
0.0
  0
HATCH
  5
BF
330
1F
100
AcDbEntity
  8
중심선
100
AcDbHatch
 10
0.0
 20
0.0
 30
0.0
210
0.0
220
0.0
230
1.0
  2
SOLID
 70
     1
 71
     0
 91
        1
 92
        0
 93
        6
 72
     3
 10
-21.08744521466033
 20
-39.99892507132738
 11
3.960054785062283
 21
1.540882976769353E-10
 40
0.3939339440162628
 50
17.09539180608439
 51
320.0019657685075
 73
     0
 72
     1
 10
-19.40444555895974
 20
-38.58681907591438
 11
-17.0991436852587
 21
-36.65249236586649
 72
     3
 10
-21.08744521471318
 20
-39.99892507127625
 11
6.600054785286829
 21
-1.278976924368180E-13
 40
0.636358354079598
 50
39.99873849337408
 51
368.4976242363725
 73
     1
 72
     1
 10
-14.66211272281257
 20
-39.03892507120613
 11
-22.40737790787725
 21
-39.03892507120613
 72
     1
 10
-22.40737790787725
 20
-39.03892507120613
 11
-22.40740295232319
 21
-40.95892507120602
 72
     1
 10
-22.40740295232319
 20
-40.95892507120602
 11
-17.96602318285115
 21
-40.95892507120599
 97
        0
 75
     0
 76
     1
 98
        1
 10
-75.78750000000001
 20
0.0
  0
DIMENSION
  5
C0
330
1F
100
AcDbEntity
  8
치수문자_일반주서
100
AcDbDimension
  2
_D
 10
11.99999999999999
 20
38.39811096570963
 30
0.0
 11
37.39999999999996
 21
38.39811096570963
 31
0.0
 70
   160
  1
<>
 71
     2
 42
50.79999999999998
  3
SLDDIMSTYLE2
100
AcDbAlignedDimension
 13
62.79999999999997
 23
12.70107492872391
 33
0.0
 14
11.99999999999999
 24
12.70107492872388
 34
0.0
100
AcDbRotatedDimension
1001
ACAD
1000
DSTYLE
1002
{
1070
   171
1070
     6
1070
   273
1070
     7
1002
}
  0
DIMENSION
  5
D4
330
1F
100
AcDbEntity
  8
치수문자_일반주서
100
AcDbDimension
  2
_D_1
 10
-118.175
 20
53.97636907984727
 30
0.0
 11
-28.05209445373223
 21
53.97636907984727
 31
0.0
 70
   160
  1
<>
 71
     2
 42
180.975
  3
SLDDIMSTYLE2
100
AcDbAlignedDimension
 13
62.79999999999997
 23
12.70107492872391
 33
0.0
 14
-118.175
 24
10.1610749287239
 34
0.0
 50
0.0000000000000045
100
AcDbRotatedDimension
1001
ACAD
1000
DSTYLE
1002
{
1070
   171
1070
     6
1070
   273
1070
     7
1002
}
  0
DIMENSION
  5
E8
330
1F
100
AcDbEntity
  8
치수문자_일반주서
100
AcDbDimension
  2
_D_2
 10
-128.9525
 20
-12.69892507127615
 30
0.0
 11
-128.9525
 21
0.0010749287238837
 31
0.0
 70
   160
  1
%%c<>
 71
     2
 42
25.39999999999998
 52
-270.0
  3
SLDDIMSTYLE2
100
AcDbAlignedDimension
 13
-115.635
 23
12.70107492872388
 33
0.0
 14
-115.635
 24
-12.6989250712761
 34
0.0
 50
90.0000000000002
100
AcDbRotatedDimension
1001
ACAD
1000
DSTYLE
1002
{
1070
   171
1070
     6
1070
   273
1070
     7
1002
}
  0
DIMENSION
  5
FD
330
1F
100
AcDbEntity
  8
치수문자_일반주서
100
AcDbDimension
  2
_D_3
 10
93.63937123127855
 20
-12.69892507127597
 30
0.0
 11
93.63937123127839
 21
33.52382492872403
 31
0.0
 70
   160
  1
%%c<>
 71
     2
 42
25.4
 52
-270.0
  3
SLDDIMSTYLE2
100
AcDbAlignedDimension
 13
62.79999999999997
 23
12.70107492872391
 33
0.0
 14
62.79999999999997
 24
-12.69892507127609
 34
0.0
 50
90.0000000000002
100
AcDbRotatedDimension
1001
ACAD
1000
DSTYLE
1002
{
1070
   171
1070
     6
1070
   273
1070
     7
1002
}
  0
LINE
  5
112
330
1F
100
AcDbEntity
  8
참조1
100
AcDbLine
 10
110.2759838153456
 20
7.441074928723896
 30
0.0
 11
110.2759838153456
 21
-7.438925071276109
 31
0.0
  0
LINE
  5
113
330
1F
100
AcDbEntity
  8
참조1
100
AcDbLine
 10
122.9759838153456
 20
5.441074928723896
 30
0.0
 11
110.2759838153456
 21
5.441074928723896
 31
0.0
  0
SOLID
  5
114
330
1F
100
AcDbEntity
  8
참조1
100
AcDbTrace
 10
110.2759838153456
 20
5.441074928723896
 30
0.0
 11
116.6259838153456
 21
4.425074928723896
 31
0.0
 12
116.6259838153456
 22
6.457074928723896
 32
0.0
 13
116.6259838153456
 23
6.457074928723896
 33
0.0
  0
LINE
  5
115
330
1F
100
AcDbEntity
  8
참조1
100
AcDbLine
 10
122.9759838153456
 20
-5.438925071276109
 30
0.0
 11
110.2759838153456
 21
-5.438925071276109
 31
0.0
  0
SOLID
  5
116
330
1F
100
AcDbEntity
  8
참조1
100
AcDbTrace
 10
110.2759838153456
 20
-5.438925071276109
 30
0.0
 11
116.6259838153456
 21
-6.454925071276109
 31
0.0
 12
116.6259838153456
 22
-4.422925071276109
 32
0.0
 13
116.6259838153456
 23
-4.422925071276109
 33
0.0
  0
MTEXT
  5
117
330
1F
100
AcDbEntity
  8
참조1
100
AcDbMText
 10
119.6734739078158
 20
10.98929157337383
 30
0.0
 40
3.5
 41
0.0
 71
     1
 72
     1
  1
A
  7
SLDTEXTSTYLE0
 73
     1
 44
1.0
  0
MTEXT
  5
118
330
1F
100
AcDbEntity
  8
참조1
100
AcDbMText
 10
119.6734739078158
 20
0.1092915733738251
 30
0.0
 40
3.5
 41
0.0
 71
     1
 72
     1
  1
A
  7
SLDTEXTSTYLE0
 73
     1
 44
1.0
  0
INSERT
  5
11F
330
1F
100
AcDbEntity
  8
해칭선
100
AcDbBlockReference
  2
SW_DOWELSYMBOL_0
 10
0.0
 20
0.0
 30
0.0
  0
ENDSEC
  0
SECTION
  2
OBJECTS
  0
DICTIONARY
  5
C
330
0
100
AcDbDictionary
281
     1
  3
ACAD_GROUP
350
D
  3
ACAD_IMAGE_VARS
350
143
  3
ACAD_LAYOUT
350
1A
  3
ACAD_MLINESTYLE
350
17
  3
ACAD_PLOTSETTINGS
350
19
  3
ACAD_PLOTSTYLENAME
350
E
  3
ACAD_SCALELIST
350
47
  3
APPDATA
350
141
  3
DWGPROPS
350
175
  0
DICTIONARY
  5
16A
330
2
100
AcDbDictionary
280
     1
281
     1
  3
ACAD_LAYERSTATES
360
16B
  0
DICTIONARY
  5
D
102
{ACAD_REACTORS
330
C
102
}
330
C
100
AcDbDictionary
281
     1
  0
RASTERVARIABLES
  5
143
102
{ACAD_REACTORS
330
C
102
}
330
C
100
AcDbRasterVariables
 90
        0
 70
     1
 71
     1
 72
     1
  0
DICTIONARY
  5
1A
102
{ACAD_REACTORS
330
C
102
}
330
C
100
AcDbDictionary
281
     1
  3
Layout1
350
1E
  3
Layout2
350
26
  3
Model
350
22
  0
DICTIONARY
  5
17
102
{ACAD_REACTORS
330
C
102
}
330
C
100
AcDbDictionary
281
     1
  3
Standard
350
18
  0
DICTIONARY
  5
19
102
{ACAD_REACTORS
330
C
102
}
330
C
100
AcDbDictionary
281
     1
  0
ACDBDICTIONARYWDFLT
  5
E
102
{ACAD_REACTORS
330
C
102
}
330
C
100
AcDbDictionary
281
     1
  3
Normal
350
F
100
AcDbDictionaryWithDefault
340
F
  0
DICTIONARY
  5
47
102
{ACAD_REACTORS
330
C
102
}
330
C
100
AcDbDictionary
281
     1
  3
A0
350
48
  3
A1
350
49
  3
A2
350
4A
  3
A3
350
4B
  3
A4
350
4C
  3
A5
350
4D
  3
A6
350
4E
  3
A7
350
4F
  3
A8
350
50
  3
A9
350
51
  3
B0
350
52
  3
B1
350
53
  3
B2
350
54
  3
B3
350
55
  3
B4
350
56
  3
B5
350
57
  3
B6
350
58
  3
B7
350
59
  3
B8
350
5A
  3
B9
350
5B
  3
C0
350
5C
  3
C1
350
5D
  3
C2
350
5E
  3
C3
350
5F
  3
C4
350
60
  3
C5
350
61
  3
C6
350
62
  3
C7
350
63
  3
C8
350
64
  3
C9
350
65
  3
D0
350
66
  3
D1
350
67
  3
D2
350
68
  0
DICTIONARY
  5
141
102
{ACAD_REACTORS
330
C
102
}
330
C
100
AcDbDictionary
281
     1
  0
XRECORD
  5
175
102
{ACAD_REACTORS
330
C
102
}
330
C
100
AcDbXrecord
280
     1
  1
DWGPROPS COOKIE
  2

  3

  4

  6

  7

  8
12017012
  9

300
=
301
=
302
=
303
=
304
=
305
=
306
=
307
=
308
=
309
=
 40
0.0
 41
2458289.136526748
 42
2458296.331490683
  1

 90
        0
  0
DICTIONARY
  5
16B
102
{ACAD_REACTORS
330
16A
102
}
330
16A
100
AcDbDictionary
281
     1
  0
LAYOUT
  5
1E
102
{ACAD_REACTORS
330
1A
102
}
330
1A
100
AcDbPlotSettings
  1

  2
none_device
  4

  6

 40
0.0
 41
0.0
 42
0.0
 43
0.0
 44
0.0
 45
0.0
 46
0.0
 47
0.0
 48
0.0
 49
0.0
140
0.0
141
0.0
142
1.0
143
1.0
 70
   688
 72
     1
 73
     0
 74
     5
  7

 75
    16
147
1.0
148
0.0
149
0.0
100
AcDbLayout
  1
Layout1
 70
     1
 71
     1
 10
0.0
 20
0.0
 11
420.0
 21
297.0
 12
0.0
 22
0.0
 32
0.0
 14
1.000000000000000E+20
 24
1.000000000000000E+20
 34
1.000000000000000E+20
 15
-1.000000000000000E+20
 25
-1.000000000000000E+20
 35
-1.000000000000000E+20
146
0.0
 13
0.0
 23
0.0
 33
0.0
 16
1.0
 26
0.0
 36
0.0
 17
0.0
 27
1.0
 37
0.0
 76
     0
330
1B
  0
LAYOUT
  5
26
102
{ACAD_REACTORS
330
1A
102
}
330
1A
100
AcDbPlotSettings
  1

  2
none_device
  4

  6

 40
0.0
 41
0.0
 42
0.0
 43
0.0
 44
0.0
 45
0.0
 46
0.0
 47
0.0
 48
0.0
 49
0.0
140
0.0
141
0.0
142
1.0
143
1.0
 70
   688
 72
     1
 73
     0
 74
     5
  7

 75
    16
147
1.0
148
0.0
149
0.0
100
AcDbLayout
  1
Layout2
 70
     1
 71
     2
 10
0.0
 20
0.0
 11
0.0
 21
0.0
 12
0.0
 22
0.0
 32
0.0
 14
0.0
 24
0.0
 34
0.0
 15
0.0
 25
0.0
 35
0.0
146
0.0
 13
0.0
 23
0.0
 33
0.0
 16
1.0
 26
0.0
 36
0.0
 17
0.0
 27
1.0
 37
0.0
 76
     0
330
23
  0
LAYOUT
  5
22
102
{ACAD_REACTORS
330
1A
102
}
330
1A
100
AcDbPlotSettings
  1

  2
none_device
  4
ANSI_A_(11.00_x_8.50_Inches)
  6

 40
6.35
 41
19.05
 42
6.35000508
 43
19.05000254
 44
279.4
 45
215.9
 46
81.11623279017019
 47
79.44327062585533
 48
0.0
 49
0.0
140
0.0
141
0.0
142
0.0529810006387997
143
1.0
 70
  1696
 72
     0
 73
     0
 74
     0
  7

 75
     0
147
0.0235690232323232
148
0.0
149
0.0
100
AcDbLayout
  1
Model
 70
     1
 71
     0
 10
0.0
 20
0.0
 11
420.0
 21
297.0
 12
0.0
 22
0.0
 32
0.0
 14
1.000000000000000E+20
 24
1.000000000000000E+20
 34
1.000000000000000E+20
 15
-1.000000000000000E+20
 25
-1.000000000000000E+20
 35
-1.000000000000000E+20
146
0.0
 13
0.0
 23
0.0
 33
0.0
 16
1.0
 26
0.0
 36
0.0
 17
0.0
 27
1.0
 37
0.0
 76
     0
330
1F
331
29
  0
MLINESTYLE
  5
18
102
{ACAD_REACTORS
330
17
102
}
330
17
100
AcDbMlineStyle
  2
Standard
 70
     0
  3

 62
   256
 51
90.0
 52
90.0
 71
     2
 49
0.5
 62
   256
  6
BYLAYER
 49
-0.5
 62
   256
  6
BYLAYER
  0
ACDBPLACEHOLDER
  5
F
102
{ACAD_REACTORS
330
E
102
}
330
E
  0
SCALE
  5
48
102
{ACAD_REACTORS
330
47
102
}
330
47
100
AcDbScale
 70
     0
300
1:1
140
1.0
141
1.0
290
     1
  0
SCALE
  5
49
102
{ACAD_REACTORS
330
47
102
}
330
47
100
AcDbScale
 70
     0
300
1:2
140
1.0
141
2.0
290
     0
  0
SCALE
  5
4A
102
{ACAD_REACTORS
330
47
102
}
330
47
100
AcDbScale
 70
     0
300
1:4
140
1.0
141
4.0
290
     0
  0
SCALE
  5
4B
102
{ACAD_REACTORS
330
47
102
}
330
47
100
AcDbScale
 70
     0
300
1:5
140
1.0
141
5.0
290
     0
  0
SCALE
  5
4C
102
{ACAD_REACTORS
330
47
102
}
330
47
100
AcDbScale
 70
     0
300
1:8
140
1.0
141
8.0
290
     0
  0
SCALE
  5
4D
102
{ACAD_REACTORS
330
47
102
}
330
47
100
AcDbScale
 70
     0
300
1:10
140
1.0
141
10.0
290
     0
  0
SCALE
  5
4E
102
{ACAD_REACTORS
330
47
102
}
330
47
100
AcDbScale
 70
     0
300
1:16
140
1.0
141
16.0
290
     0
  0
SCALE
  5
4F
102
{ACAD_REACTORS
330
47
102
}
330
47
100
AcDbScale
 70
     0
300
1:20
140
1.0
141
20.0
290
     0
  0
SCALE
  5
50
102
{ACAD_REACTORS
330
47
102
}
330
47
100
AcDbScale
 70
     0
300
1:30
140
1.0
141
30.0
290
     0
  0
SCALE
  5
51
102
{ACAD_REACTORS
330
47
102
}
330
47
100
AcDbScale
 70
     0
300
1:40
140
1.0
141
40.0
290
     0
  0
SCALE
  5
52
102
{ACAD_REACTORS
330
47
102
}
330
47
100
AcDbScale
 70
     0
300
1:50
140
1.0
141
50.0
290
     0
  0
SCALE
  5
53
102
{ACAD_REACTORS
330
47
102
}
330
47
100
AcDbScale
 70
     0
300
1:100
140
1.0
141
100.0
290
     0
  0
SCALE
  5
54
102
{ACAD_REACTORS
330
47
102
}
330
47
100
AcDbScale
 70
     0
300
2:1
140
2.0
141
1.0
290
     0
  0
SCALE
  5
55
102
{ACAD_REACTORS
330
47
102
}
330
47
100
AcDbScale
 70
     0
300
4:1
140
4.0
141
1.0
290
     0
  0
SCALE
  5
56
102
{ACAD_REACTORS
330
47
102
}
330
47
100
AcDbScale
 70
     0
300
8:1
140
8.0
141
1.0
290
     0
  0
SCALE
  5
57
102
{ACAD_REACTORS
330
47
102
}
330
47
100
AcDbScale
 70
     0
300
10:1
140
10.0
141
1.0
290
     0
  0
SCALE
  5
58
102
{ACAD_REACTORS
330
47
102
}
330
47
100
AcDbScale
 70
     0
300
100:1
140
100.0
141
1.0
290
     0
  0
SCALE
  5
59
102
{ACAD_REACTORS
330
47
102
}
330
47
100
AcDbScale
 70
     0
300
1/128" = 1'-0"
140
0.0078125
141
12.0
290
     0
  0
SCALE
  5
5A
102
{ACAD_REACTORS
330
47
102
}
330
47
100
AcDbScale
 70
     0
300
1/64" = 1'-0"
140
0.015625
141
12.0
290
     0
  0
SCALE
  5
5B
102
{ACAD_REACTORS
330
47
102
}
330
47
100
AcDbScale
 70
     0
300
1/32" = 1'-0"
140
0.03125
141
12.0
290
     0
  0
SCALE
  5
5C
102
{ACAD_REACTORS
330
47
102
}
330
47
100
AcDbScale
 70
     0
300
1/16" = 1'-0"
140
0.0625
141
12.0
290
     0
  0
SCALE
  5
5D
102
{ACAD_REACTORS
330
47
102
}
330
47
100
AcDbScale
 70
     0
300
3/32" = 1'-0"
140
0.09375
141
12.0
290
     0
  0
SCALE
  5
5E
102
{ACAD_REACTORS
330
47
102
}
330
47
100
AcDbScale
 70
     0
300
1/8" = 1'-0"
140
0.125
141
12.0
290
     0
  0
SCALE
  5
5F
102
{ACAD_REACTORS
330
47
102
}
330
47
100
AcDbScale
 70
     0
300
3/16" = 1'-0"
140
0.1875
141
12.0
290
     0
  0
SCALE
  5
60
102
{ACAD_REACTORS
330
47
102
}
330
47
100
AcDbScale
 70
     0
300
1/4" = 1'-0"
140
0.25
141
12.0
290
     0
  0
SCALE
  5
61
102
{ACAD_REACTORS
330
47
102
}
330
47
100
AcDbScale
 70
     0
300
3/8" = 1'-0"
140
0.375
141
12.0
290
     0
  0
SCALE
  5
62
102
{ACAD_REACTORS
330
47
102
}
330
47
100
AcDbScale
 70
     0
300
1/2" = 1'-0"
140
0.5
141
12.0
290
     0
  0
SCALE
  5
63
102
{ACAD_REACTORS
330
47
102
}
330
47
100
AcDbScale
 70
     0
300
3/4" = 1'-0"
140
0.75
141
12.0
290
     0
  0
SCALE
  5
64
102
{ACAD_REACTORS
330
47
102
}
330
47
100
AcDbScale
 70
     0
300
1" = 1'-0"
140
1.0
141
12.0
290
     0
  0
SCALE
  5
65
102
{ACAD_REACTORS
330
47
102
}
330
47
100
AcDbScale
 70
     0
300
1-1/2" = 1'-0"
140
1.5
141
12.0
290
     0
  0
SCALE
  5
66
102
{ACAD_REACTORS
330
47
102
}
330
47
100
AcDbScale
 70
     0
300
3" = 1'-0"
140
3.0
141
12.0
290
     0
  0
SCALE
  5
67
102
{ACAD_REACTORS
330
47
102
}
330
47
100
AcDbScale
 70
     0
300
6" = 1'-0"
140
6.0
141
12.0
290
     0
  0
SCALE
  5
68
102
{ACAD_REACTORS
330
47
102
}
330
47
100
AcDbScale
 70
     0
300
1'-0" = 1'-0"
140
12.0
141
12.0
290
     0
  0
ENDSEC
  0
EOF
