  0
SECTION
  2
HEADER
  9
$ACADVER
  1
AC1015
  9
$ACADMAINTVER
 70
     6
  9
$DWGCODEPAGE
  3
ANSI_949
  9
$INSBASE
 10
0.0
 20
0.0
 30
0.0
  9
$EXTMIN
 10
-52.00042250882228
 20
-49.97180738881174
 30
0.0
  9
$EXTMAX
 10
96.00561285443831
 20
43.28465589824551
 30
0.0
  9
$LIMMIN
 10
0.0
 20
0.0
  9
$LIMMAX
 10
420.0
 20
297.0
  9
$ORTHOMODE
 70
     1
  9
$REGENMODE
 70
     1
  9
$FILLMODE
 70
     1
  9
$QTEXTMODE
 70
     0
  9
$MIRRTEXT
 70
     1
  9
$LTSCALE
 40
1.0
  9
$ATTMODE
 70
     1
  9
$TEXTSIZE
 40
3.5
  9
$TRACEWID
 40
1.0
  9
$TEXTSTYLE
  7
Standard
  9
$CLAYER
  8
0
  9
$CELTYPE
  6
ByLayer
  9
$CECOLOR
 62
   256
  9
$CELTSCALE
 40
1.0
  9
$DISPSILH
 70
     0
  9
$DIMSCALE
 40
1.0
  9
$DIMASZ
 40
3.302
  9
$DIMEXO
 40
1.0
  9
$DIMDLI
 40
3.75
  9
$DIMRND
 40
0.0
  9
$DIMDLE
 40
0.0
  9
$DIMEXE
 40
1.0
  9
$DIMTP
 40
0.0
  9
$DIMTM
 40
0.0
  9
$DIMTXT
 40
3.5
  9
$DIMCEN
 40
2.5
  9
$DIMTSZ
 40
0.0
  9
$DIMTOL
 70
     0
  9
$DIMLIM
 70
     0
  9
$DIMTIH
 70
     1
  9
$DIMTOH
 70
     1
  9
$DIMSE1
 70
     0
  9
$DIMSE2
 70
     0
  9
$DIMTAD
 70
     1
  9
$DIMZIN
 70
     0
  9
$DIMBLK
  1

  9
$DIMASO
 70
     1
  9
$DIMSHO
 70
     1
  9
$DIMPOST
  1

  9
$DIMAPOST
  1

  9
$DIMALT
 70
     0
  9
$DIMALTD
 70
     3
  9
$DIMALTF
 40
0.0393700787401575
  9
$DIMLFAC
 40
1.0
  9
$DIMTOFL
 70
     1
  9
$DIMTVP
 40
0.0
  9
$DIMTIX
 70
     0
  9
$DIMSOXD
 70
     0
  9
$DIMSAH
 70
     0
  9
$DIMBLK1
  1

  9
$DIMBLK2
  1

  9
$DIMSTYLE
  2
ISO-25
  9
$DIMCLRD
 70
     0
  9
$DIMCLRE
 70
     0
  9
$DIMCLRT
 70
     0
  9
$DIMTFAC
 40
1.0
  9
$DIMGAP
 40
1.524
  9
$DIMJUST
 70
     0
  9
$DIMSD1
 70
     0
  9
$DIMSD2
 70
     0
  9
$DIMTOLJ
 70
     0
  9
$DIMTZIN
 70
     0
  9
$DIMALTZ
 70
     0
  9
$DIMALTTZ
 70
     0
  9
$DIMUPT
 70
     0
  9
$DIMDEC
 70
     2
  9
$DIMTDEC
 70
     2
  9
$DIMALTU
 70
     2
  9
$DIMALTTD
 70
     3
  9
$DIMTXSTY
  7
Standard
  9
$DIMAUNIT
 70
     0
  9
$DIMADEC
 70
     2
  9
$DIMALTRND
 40
0.0
  9
$DIMAZIN
 70
     0
  9
$DIMDSEP
 70
    44
  9
$DIMATFIT
 70
     3
  9
$DIMFRAC
 70
     0
  9
$DIMLDRBLK
  1

  9
$DIMLUNIT
 70
     2
  9
$DIMLWD
 70
    -2
  9
$DIMLWE
 70
    -2
  9
$DIMTMOVE
 70
     0
  9
$LUNITS
 70
     2
  9
$LUPREC
 70
     2
  9
$SKETCHINC
 40
1.0
  9
$FILLETRAD
 40
0.508
  9
$AUNITS
 70
     0
  9
$AUPREC
 70
     2
  9
$MENU
  1
.
  9
$ELEVATION
 40
0.0
  9
$PELEVATION
 40
0.0
  9
$THICKNESS
 40
0.0
  9
$LIMCHECK
 70
     0
  9
$CHAMFERA
 40
0.0
  9
$CHAMFERB
 40
0.0
  9
$CHAMFERC
 40
0.0
  9
$CHAMFERD
 40
0.0
  9
$SKPOLY
 70
     0
  9
$TDCREATE
 40
2458288.647280579
  9
$TDUCREATE
 40
2458288.272280579
  9
$TDUPDATE
 40
2458303.381187616
  9
$TDUUPDATE
 40
2458303.006187616
  9
$TDINDWG
 40
0.0018319676
  9
$TDUSRTIMER
 40
0.0003875347
  9
$USRTIMER
 70
     1
  9
$ANGBASE
 50
0.0
  9
$ANGDIR
 70
     0
  9
$PDMODE
 70
     0
  9
$PDSIZE
 40
-1.0
  9
$PLINEWID
 40
0.0
  9
$SPLFRAME
 70
     0
  9
$SPLINETYPE
 70
     6
  9
$SPLINESEGS
 70
     8
  9
$HANDSEED
  5
1EA
  9
$SURFTAB1
 70
     6
  9
$SURFTAB2
 70
     6
  9
$SURFTYPE
 70
     6
  9
$SURFU
 70
     6
  9
$SURFV
 70
     6
  9
$UCSBASE
  2

  9
$UCSNAME
  2

  9
$UCSORG
 10
0.0
 20
0.0
 30
0.0
  9
$UCSXDIR
 10
1.0
 20
0.0
 30
0.0
  9
$UCSYDIR
 10
0.0
 20
1.0
 30
0.0
  9
$UCSORTHOREF
  2

  9
$UCSORTHOVIEW
 70
     0
  9
$UCSORGTOP
 10
0.0
 20
0.0
 30
0.0
  9
$UCSORGBOTTOM
 10
0.0
 20
0.0
 30
0.0
  9
$UCSORGLEFT
 10
0.0
 20
0.0
 30
0.0
  9
$UCSORGRIGHT
 10
0.0
 20
0.0
 30
0.0
  9
$UCSORGFRONT
 10
0.0
 20
0.0
 30
0.0
  9
$UCSORGBACK
 10
0.0
 20
0.0
 30
0.0
  9
$PUCSBASE
  2

  9
$PUCSNAME
  2

  9
$PUCSORG
 10
0.0
 20
0.0
 30
0.0
  9
$PUCSXDIR
 10
1.0
 20
0.0
 30
0.0
  9
$PUCSYDIR
 10
0.0
 20
1.0
 30
0.0
  9
$PUCSORTHOREF
  2

  9
$PUCSORTHOVIEW
 70
     0
  9
$PUCSORGTOP
 10
0.0
 20
0.0
 30
0.0
  9
$PUCSORGBOTTOM
 10
0.0
 20
0.0
 30
0.0
  9
$PUCSORGLEFT
 10
0.0
 20
0.0
 30
0.0
  9
$PUCSORGRIGHT
 10
0.0
 20
0.0
 30
0.0
  9
$PUCSORGFRONT
 10
0.0
 20
0.0
 30
0.0
  9
$PUCSORGBACK
 10
0.0
 20
0.0
 30
0.0
  9
$USERI1
 70
     0
  9
$USERI2
 70
     0
  9
$USERI3
 70
     0
  9
$USERI4
 70
     0
  9
$USERI5
 70
     0
  9
$USERR1
 40
0.0
  9
$USERR2
 40
0.0
  9
$USERR3
 40
0.0
  9
$USERR4
 40
0.0
  9
$USERR5
 40
0.0
  9
$WORLDVIEW
 70
     1
  9
$SHADEDGE
 70
     3
  9
$SHADEDIF
 70
    70
  9
$TILEMODE
 70
     1
  9
$MAXACTVP
 70
    64
  9
$PINSBASE
 10
0.0
 20
0.0
 30
0.0
  9
$PLIMCHECK
 70
     0
  9
$PEXTMIN
 10
1.000000000000000E+20
 20
1.000000000000000E+20
 30
1.000000000000000E+20
  9
$PEXTMAX
 10
-1.000000000000000E+20
 20
-1.000000000000000E+20
 30
-1.000000000000000E+20
  9
$PLIMMIN
 10
0.0
 20
0.0
  9
$PLIMMAX
 10
0.0
 20
0.0
  9
$UNITMODE
 70
     0
  9
$VISRETAIN
 70
     1
  9
$PLINEGEN
 70
     0
  9
$PSLTSCALE
 70
     1
  9
$TREEDEPTH
 70
  3020
  9
$CMLSTYLE
  2
Standard
  9
$CMLJUST
 70
     0
  9
$CMLSCALE
 40
20.0
  9
$PROXYGRAPHICS
 70
     1
  9
$MEASUREMENT
 70
     1
  9
$CELWEIGHT
370
    -1
  9
$ENDCAPS
280
     0
  9
$JOINSTYLE
280
     0
  9
$LWDISPLAY
290
     1
  9
$INSUNITS
 70
     4
  9
$HYPERLINKBASE
  1

  9
$STYLESHEET
  1

  9
$XEDIT
290
     1
  9
$CEPSNTYPE
380
     0
  9
$PSTYLEMODE
290
     1
  9
$FINGERPRINTGUID
  2
{BC2A5845-57EA-4FE7-8838-5BEA06EE03B7}
  9
$VERSIONGUID
  2
{FAEB1C32-E019-11D5-929B-00C0DF256EC4}
  9
$EXTNAMES
290
     1
  9
$PSVPSCALE
 40
0.0
  9
$OLESTARTUP
290
     0
  0
ENDSEC
  0
SECTION
  2
CLASSES
  0
CLASS
  1
ACDBDICTIONARYWDFLT
  2
AcDbDictionaryWithDefault
  3
ObjectDBX Classes
 90
        0
280
     0
281
     0
  0
CLASS
  1
VISUALSTYLE
  2
AcDbVisualStyle
  3
ObjectDBX Classes
 90
     4095
280
     0
281
     0
  0
CLASS
  1
MATERIAL
  2
AcDbMaterial
  3
ObjectDBX Classes
 90
     1153
280
     0
281
     0
  0
CLASS
  1
SCALE
  2
AcDbScale
  3
ObjectDBX Classes
 90
     1153
280
     0
281
     0
  0
CLASS
  1
SUN
  2
AcDbSun
  3
SCENEOE
 90
     1153
280
     0
281
     0
  0
CLASS
  1
ACDBPLACEHOLDER
  2
AcDbPlaceHolder
  3
ObjectDBX Classes
 90
        0
280
     0
281
     0
  0
CLASS
  1
LAYOUT
  2
AcDbLayout
  3
ObjectDBX Classes
 90
        0
280
     0
281
     0
  0
CLASS
  1
TABLESTYLE
  2
AcDbTableStyle
  3
ObjectDBX Classes
 90
     4095
280
     0
281
     0
  0
CLASS
  1
MLEADERSTYLE
  2
AcDbMLeaderStyle
  3
ACDB_MLEADERSTYLE_CLASS
 90
     4095
280
     0
281
     0
  0
CLASS
  1
DICTIONARYVAR
  2
AcDbDictionaryVar
  3
ObjectDBX Classes
 90
        0
280
     0
281
     0
  0
ENDSEC
  0
SECTION
  2
TABLES
  0
TABLE
  2
VPORT
  5
8
330
0
100
AcDbSymbolTable
 70
     1
  0
VPORT
  5
29
330
8
100
AcDbSymbolTableRecord
100
AcDbViewportTableRecord
  2
*Active
 70
     0
 10
0.0
 20
0.0
 11
1.0
 21
1.0
 12
-27.90123544734126
 22
-1.831326841361602
 13
0.0
 23
0.0
 14
10.0
 24
10.0
 15
10.0
 25
10.0
 16
0.0
 26
0.0
 36
1.0
 17
0.0
 27
0.0
 37
0.0
 40
114.0847859343943
 41
2.268018018018018
 42
50.0
 43
0.0
 44
0.0
 50
0.0
 51
0.0
 71
    16
 72
  2000
 73
     1
 74
     3
 75
     0
 76
     0
 77
     0
 78
     0
281
     0
 65
     1
110
0.0
120
0.0
130
0.0
111
1.0
121
0.0
131
0.0
112
0.0
122
1.0
132
0.0
 79
     0
146
0.0
  0
ENDTAB
  0
TABLE
  2
LTYPE
  5
5
330
0
100
AcDbSymbolTable
 70
     6
  0
LTYPE
  5
14
330
5
100
AcDbSymbolTableRecord
100
AcDbLinetypeTableRecord
  2
ByBlock
 70
     0
  3

 72
    65
 73
     0
 40
0.0
  0
LTYPE
  5
15
330
5
100
AcDbSymbolTableRecord
100
AcDbLinetypeTableRecord
  2
ByLayer
 70
     0
  3

 72
    65
 73
     0
 40
0.0
  0
LTYPE
  5
16
330
5
100
AcDbSymbolTableRecord
100
AcDbLinetypeTableRecord
  2
Continuous
 70
     0
  3
Solid line
 72
    65
 73
     0
 40
0.0
  0
LTYPE
  5
6A
330
5
100
AcDbSymbolTableRecord
100
AcDbLinetypeTableRecord
  2
HIDDEN
 70
     0
  3
Hidden __ __ __ __ __ __ __ __ __ __ __ __ __ __
 72
    65
 73
     2
 40
1.905
 49
1.27
 74
     0
 49
-0.635
 74
     0
  0
LTYPE
  5
6B
330
5
100
AcDbSymbolTableRecord
100
AcDbLinetypeTableRecord
  2
PHANTOM
 70
     0
  3
Phantom ______  __  __  ______  __  __  ______
 72
    65
 73
     6
 40
12.7
 49
6.35
 74
     0
 49
-1.27
 74
     0
 49
1.27
 74
     0
 49
-1.27
 74
     0
 49
1.27
 74
     0
 49
-1.27
 74
     0
  0
LTYPE
  5
6C
330
5
100
AcDbSymbolTableRecord
100
AcDbLinetypeTableRecord
  2
CENTER
 70
     0
  3
Center ____ _ ____ _ ____ _ ____ _ ____ _ ____
 72
    65
 73
     4
 40
10.16
 49
6.35
 74
     0
 49
-1.27
 74
     0
 49
1.27
 74
     0
 49
-1.27
 74
     0
  0
LTYPE
  5
6D
330
5
100
AcDbSymbolTableRecord
100
AcDbLinetypeTableRecord
  2
CENTERX2
 70
     0
  3
Center (2x) ________  __  ________  __  _____
 72
    65
 73
     4
 40
20.32
 49
12.7
 74
     0
 49
-2.54
 74
     0
 49
2.54
 74
     0
 49
-2.54
 74
     0
  0
LTYPE
  5
6E
330
5
100
AcDbSymbolTableRecord
100
AcDbLinetypeTableRecord
  2
DOT2
 70
     0
  3
Dot (.5x) ........................................
 72
    65
 73
     2
 40
0.635
 49
0.0
 74
     0
 49
-0.635
 74
     0
  0
ENDTAB
  0
TABLE
  2
LAYER
  5
2
330
0
100
AcDbSymbolTable
 70
    18
  0
LAYER
  5
10
330
2
100
AcDbSymbolTableRecord
100
AcDbLayerTableRecord
  2
0
 70
     0
 62
     7
  6
Continuous
370
    -3
390
F
  0
LAYER
  5
6F
330
2
100
AcDbSymbolTableRecord
100
AcDbLayerTableRecord
  2
FORMAT
 70
     0
 62
     2
  6
Continuous
370
    -3
390
F
  0
LAYER
  5
70
330
2
100
AcDbSymbolTableRecord
100
AcDbLayerTableRecord
  2
외형선
 70
     0
 62
     4
  6
Continuous
370
    30
390
F
  0
LAYER
  5
71
330
2
100
AcDbSymbolTableRecord
100
AcDbLayerTableRecord
  2
숨은선
 70
     0
 62
     2
  6
HIDDEN
370
    15
390
F
  0
LAYER
  5
72
330
2
100
AcDbSymbolTableRecord
100
AcDbLayerTableRecord
  2
중심선
 70
     0
 62
     1
  6
CENTERX2
370
    -3
390
F
  0
LAYER
  5
73
330
2
100
AcDbSymbolTableRecord
100
AcDbLayerTableRecord
  2
파단선
 70
     0
 62
     4
  6
Continuous
370
    -3
390
F
  0
LAYER
  5
74
330
2
100
AcDbSymbolTableRecord
100
AcDbLayerTableRecord
  2
해칭선
 70
     0
 62
   100
  6
Continuous
370
    -3
390
F
  0
LAYER
  5
75
330
2
100
AcDbSymbolTableRecord
100
AcDbLayerTableRecord
  2
가는실선
 70
     0
 62
     4
  6
Continuous
370
    -3
390
F
  0
LAYER
  5
76
330
2
100
AcDbSymbolTableRecord
100
AcDbLayerTableRecord
  2
치수_보조선
 70
     0
 62
     4
  6
Continuous
370
    -3
390
F
  0
LAYER
  5
77
330
2
100
AcDbSymbolTableRecord
100
AcDbLayerTableRecord
  2
치수문자_일반주서
 70
     0
 62
     7
  6
Continuous
370
    15
390
F
  0
LAYER
  5
78
330
2
100
AcDbSymbolTableRecord
100
AcDbLayerTableRecord
  2
개별주서
 70
     0
 62
   100
  6
Continuous
370
    30
390
F
  0
LAYER
  5
79
330
2
100
AcDbSymbolTableRecord
100
AcDbLayerTableRecord
  2
중간선
 70
     0
 62
     2
  6
Continuous
370
    15
390
F
  0
LAYER
  5
7A
330
2
100
AcDbSymbolTableRecord
100
AcDbLayerTableRecord
  2
윤곽선
 70
     0
 62
     3
  6
Continuous
370
    40
390
F
  0
LAYER
  5
7B
330
2
100
AcDbSymbolTableRecord
100
AcDbLayerTableRecord
  2
중심마크
 70
     0
 62
   100
  6
Continuous
370
    30
390
F
  0
LAYER
  5
7C
330
2
100
AcDbSymbolTableRecord
100
AcDbLayerTableRecord
  2
가상선
 70
     0
 62
     4
  6
PHANTOM
370
    -3
390
F
  0
LAYER
  5
7D
330
2
100
AcDbSymbolTableRecord
100
AcDbLayerTableRecord
  2
특수지정선
 70
     0
 62
     5
  6
CENTERX2
370
    60
390
F
  0
LAYER
  5
7E
330
2
100
AcDbSymbolTableRecord
100
AcDbLayerTableRecord
  2
참조1
 70
     0
 62
    -4
  6
Continuous
370
    -3
390
F
  0
LAYER
  5
164
330
2
100
AcDbSymbolTableRecord
100
AcDbLayerTableRecord
  2
Defpoints
 70
     0
 62
     7
  6
Continuous
290
     0
370
    -3
390
F
  0
ENDTAB
  0
TABLE
  2
STYLE
  5
3
330
0
100
AcDbSymbolTable
 70
     2
  0
STYLE
  5
11
330
3
100
AcDbSymbolTableRecord
100
AcDbTextStyleTableRecord
  2
Standard
 70
     0
 40
0.0
 41
1.0
 50
0.0
 71
     0
 42
3.5
  3
txt
  4

  0
STYLE
  5
94
330
3
100
AcDbSymbolTableRecord
100
AcDbTextStyleTableRecord
  2
SLDTEXTSTYLE0
 70
     0
 40
0.0
 41
0.75
 50
0.0
 71
     0
 42
3.5
  3
TXT
  4

  0
ENDTAB
  0
TABLE
  2
VIEW
  5
6
330
0
100
AcDbSymbolTable
 70
     0
  0
ENDTAB
  0
TABLE
  2
UCS
  5
7
330
0
100
AcDbSymbolTable
 70
     0
  0
ENDTAB
  0
TABLE
  2
APPID
  5
9
330
0
100
AcDbSymbolTable
 70
     4
  0
APPID
  5
12
330
9
100
AcDbSymbolTableRecord
100
AcDbRegAppTableRecord
  2
ACAD
 70
     0
  0
APPID
  5
165
330
9
100
AcDbSymbolTableRecord
100
AcDbRegAppTableRecord
  2
PE_URL
 70
     0
  0
APPID
  5
169
330
9
100
AcDbSymbolTableRecord
100
AcDbRegAppTableRecord
  2
ACAD_DSTYLE_DIMFLIPARROW_SYMBOL
 70
     0
  0
APPID
  5
16A
330
9
100
AcDbSymbolTableRecord
100
AcDbRegAppTableRecord
  2
ACAD_DSTYLE_DIMFLIPARROW_WHICH_SYMBOL
 70
     0
  0
ENDTAB
  0
TABLE
  2
DIMSTYLE
  5
A
330
0
100
AcDbSymbolTable
 70
     3
100
AcDbDimStyleTable
  0
DIMSTYLE
105
27
102
{ACAD_REACTORS
330
1C4
102
}
330
A
100
AcDbSymbolTableRecord
100
AcDbDimStyleTableRecord
  2
ISO-25
 70
     0
 41
2.5
 42
0.625
 43
3.75
 44
1.25
 73
     0
 74
     0
 77
     1
 78
     8
140
2.5
141
2.5
143
0.03937007874016
147
0.625
171
     3
172
     1
178
     0
271
     2
272
     2
274
     3
278
    44
283
     0
284
     8
340
11
  0
DIMSTYLE
105
E3
102
{ACAD_REACTORS
330
E2
330
F7
330
10B
330
120
102
}
330
A
100
AcDbSymbolTableRecord
100
AcDbDimStyleTableRecord
  2
SLDDIMSTYLE0
 70
     0
 41
3.302
 44
0.0
 45
0.000000001
 73
     0
 74
     0
 77
     1
 78
    12
 79
     3
140
3.5
143
0.0393700787401575
147
0.875
148
0.000000001
170
     1
172
     1
173
     1
178
     0
271
     2
272
     2
276
     2
284
    12
289
     0
340
94
  0
DIMSTYLE
105
121
330
A
100
AcDbSymbolTableRecord
100
AcDbDimStyleTableRecord
  2
SLDDIMSTYLE1
 70
     0
 41
3.302
 44
0.0
 45
0.000000001
 73
     0
 74
     0
 77
     1
 78
     4
 79
     1
140
3.5
143
0.0393700787401575
147
0.875
148
0.000000001
170
     1
173
     1
178
     0
271
     2
272
     2
276
     2
284
    12
340
94
  0
ENDTAB
  0
TABLE
  2
BLOCK_RECORD
  5
1
330
0
100
AcDbSymbolTable
 70
     7
  0
BLOCK_RECORD
  5
1F
330
1
100
AcDbSymbolTableRecord
100
AcDbBlockTableRecord
  2
*Model_Space
340
22
  0
BLOCK_RECORD
  5
1B
330
1
100
AcDbSymbolTableRecord
100
AcDbBlockTableRecord
  2
*Paper_Space
340
1E
  0
BLOCK_RECORD
  5
23
330
1
100
AcDbSymbolTableRecord
100
AcDbBlockTableRecord
  2
*Paper_Space0
340
26
  0
BLOCK_RECORD
  5
7F
330
1
100
AcDbSymbolTableRecord
100
AcDbBlockTableRecord
  2
블럭10
340
0
102
{BLKREFS
331
DB
102
}
  0
BLOCK_RECORD
  5
E4
330
1
100
AcDbSymbolTableRecord
100
AcDbBlockTableRecord
  2
_D
340
0
  0
BLOCK_RECORD
  5
F8
330
1
100
AcDbSymbolTableRecord
100
AcDbBlockTableRecord
  2
_D_1
340
0
  0
BLOCK_RECORD
  5
10C
330
1
100
AcDbSymbolTableRecord
100
AcDbBlockTableRecord
  2
_D_2
340
0
  0
BLOCK_RECORD
  5
122
330
1
100
AcDbSymbolTableRecord
100
AcDbBlockTableRecord
  2
_D_3
340
0
  0
BLOCK_RECORD
  5
13B
330
1
100
AcDbSymbolTableRecord
100
AcDbBlockTableRecord
  2
SW_DOWELSYMBOL_0
340
0
102
{BLKREFS
331
141
102
}
  0
ENDTAB
  0
ENDSEC
  0
SECTION
  2
BLOCKS
  0
BLOCK
  5
20
330
1F
100
AcDbEntity
  8
0
100
AcDbBlockBegin
  2
*Model_Space
 70
     0
 10
0.0
 20
0.0
 30
0.0
  3
*Model_Space
  1

  0
ENDBLK
  5
21
330
1F
100
AcDbEntity
  8
0
100
AcDbBlockEnd
  0
BLOCK
  5
1C
330
1B
100
AcDbEntity
 67
     1
  8
0
100
AcDbBlockBegin
  2
*Paper_Space
 70
     0
 10
0.0
 20
0.0
 30
0.0
  3
*Paper_Space
  1

  0
ENDBLK
  5
1D
330
1B
100
AcDbEntity
 67
     1
  8
0
100
AcDbBlockEnd
  0
BLOCK
  5
24
330
23
100
AcDbEntity
  8
0
100
AcDbBlockBegin
  2
*Paper_Space0
 70
     0
 10
0.0
 20
0.0
 30
0.0
  3
*Paper_Space0
  1

  0
ENDBLK
  5
25
330
23
100
AcDbEntity
  8
0
100
AcDbBlockEnd
  0
BLOCK
  5
80
330
7F
100
AcDbEntity
  8
0
100
AcDbBlockBegin
  2
블럭10
 70
     2
 10
0.0
 20
0.0
 30
0.0
  3
블럭10
  1

  0
ELLIPSE
  5
82
330
7F
100
AcDbEntity
  8
중심선
100
AcDbEllipse
 10
20.54032771741204
 20
12.0471743016438
 30
0.0
 11
6.600054785286829
 21
-1.261213355974178E-13
 31
0.0
210
0.0
220
0.0
230
1.0
 40
0.636358354079598
 41
0.9219305317359503
 42
6.513795318482858
  0
ELLIPSE
  5
83
330
7F
100
AcDbEntity
  8
중심선
100
AcDbEllipse
 10
20.54032771746488
 20
12.04717430159265
 30
0.0
 11
3.960054785062283
 21
1.540847449632565E-10
 31
0.0
210
0.0
220
0.0
230
1.0
 40
0.3939339440162632
 41
1.131841032648279
 42
5.62031148352944
  0
LINE
  5
84
330
7F
100
AcDbEntity
  8
중심선
100
AcDbLine
 10
2.268634060543552
 20
16.24717430164393
 30
0.0
 11
5.714909304380834
 21
16.24717430164393
 31
0.0
  0
LINE
  5
85
330
7F
100
AcDbEntity
  8
중심선
100
AcDbLine
 10
5.245725140726316
 20
7.84717430164391
 30
0.0
 11
8.692000384563599
 21
7.84717430164391
 31
0.0
  0
LINE
  5
86
330
7F
100
AcDbEntity
  8
중심선
100
AcDbLine
 10
15.74043728645272
 20
16.24717430164393
 30
0.0
 11
8.692000384563599
 21
7.84717430164391
 31
0.0
  0
LINE
  5
87
330
7F
100
AcDbEntity
  8
중심선
100
AcDbLine
 10
0.1404042013395286
 20
13.71084872107135
 30
0.0
 11
3.58671253028996
 21
13.71088815037384
 31
0.0
  0
LINE
  5
88
330
7F
100
AcDbEntity
  8
중심선
100
AcDbLine
 10
2.750260043222114
 20
10.84717430164391
 30
0.0
 11
6.196535287059397
 21
10.84717430164391
 31
0.0
  0
LINE
  5
89
330
7F
100
AcDbEntity
  8
중심선
100
AcDbLine
 10
12.29416204261559
 20
16.24717430164393
 30
0.0
 11
5.245725140726316
 21
7.84717430164391
 31
0.0
  0
LINE
  5
8A
330
7F
100
AcDbEntity
  8
중심선
100
AcDbLine
 10
10.72767329541681
 20
16.24717430164393
 30
0.0
 11
6.196535287059397
 21
10.84717430164391
 31
0.0
  0
LINE
  5
8B
330
7F
100
AcDbEntity
  8
중심선
100
AcDbLine
 10
7.28139805157953
 20
16.24717430164393
 30
0.0
 11
2.750260043222114
 21
10.84717430164391
 31
0.0
  0
LINE
  5
8C
330
7F
100
AcDbEntity
  8
중심선
100
AcDbLine
 10
5.714909304380834
 20
16.24717430164393
 30
0.0
 11
3.58671253028996
 21
13.71088815037384
 31
0.0
  0
LINE
  5
8D
330
7F
100
AcDbEntity
  8
중심선
100
AcDbLine
 10
2.268634060543552
 20
16.24717430164393
 30
0.0
 11
0.1404042013395286
 21
13.71084872107135
 31
0.0
  0
LINE
  5
8E
330
7F
100
AcDbEntity
  8
중심선
100
AcDbLine
 10
7.28139805157953
 20
16.24717430164393
 30
0.0
 11
10.72767329541681
 21
16.24717430164393
 31
0.0
  0
LINE
  5
8F
330
7F
100
AcDbEntity
  8
중심선
100
AcDbLine
 10
12.29416204261559
 20
16.24717430164393
 30
0.0
 11
15.74043728645272
 21
16.24717430164393
 31
0.0
  0
LINE
  5
90
330
7F
100
AcDbEntity
  8
중심선
100
AcDbLine
 10
19.22036997980202
 20
11.08717430171403
 30
0.0
 11
23.66174974927406
 21
11.08717430171406
 31
0.0
  0
LINE
  5
91
330
7F
100
AcDbEntity
  8
중심선
100
AcDbLine
 10
19.22039502424796
 20
13.00717430171391
 30
0.0
 11
19.22036997980202
 21
11.08717430171403
 31
0.0
  0
LINE
  5
92
330
7F
100
AcDbEntity
  8
중심선
100
AcDbLine
 10
19.22039502424796
 20
13.00717430171391
 30
0.0
 11
26.96566020931264
 21
13.00717430171391
 31
0.0
  0
LINE
  5
93
330
7F
100
AcDbEntity
  8
중심선
100
AcDbLine
 10
22.22332737316547
 20
13.45928029700563
 30
0.0
 11
24.52862924686651
 21
15.39360700705356
 31
0.0
  0
ATTDEF
  5
95
330
7F
100
AcDbEntity
  8
FORMAT
 62
     2
100
AcDbText
 10
3.448148490846466
 20
2.075366912832191
 30
0.0
 40
4.233333333333333
  1
EM211016
 41
0.75
  7
SLDTEXTSTYLE0
 11
3.448148490846466
 21
-0.0412997538344756
 31
0.0
100
AcDbAttributeDefinition
  3

  2
AUTOATTR0
 70
     0
 74
     1
  0
ENDBLK
  5
81
330
7F
100
AcDbEntity
  8
0
100
AcDbBlockEnd
  0
BLOCK
  5
E5
330
E4
100
AcDbEntity
  8
0
100
AcDbBlockBegin
  2
_D
 70
     0
 10
0.0
 20
0.0
 30
0.0
  3
_D
  1

  0
LINE
  5
E7
330
E4
100
AcDbEntity
  8
치수문자_일반주서
 62
     0
370
    -2
100
AcDbLine
 10
-37.6875
 20
3.175000000000014
 30
0.0
 11
-47.62542250882218
 21
3.174999999999976
 31
0.0
  0
LINE
  5
E8
330
E4
100
AcDbEntity
  8
치수문자_일반주서
 62
     0
370
    -2
100
AcDbLine
 10
-37.67951352330508
 20
-3.17500000000001
 30
0.0
 11
-47.62542250882215
 21
-3.175000000000047
 31
0.0
  0
LINE
  5
E9
330
E4
100
AcDbEntity
  8
치수문자_일반주서
 62
     0
370
    -2
100
AcDbLine
 10
-47.62542250882218
 20
3.174999999999976
 30
0.0
 11
-47.62542250882228
 21
35.15399999999998
 31
0.0
  0
LINE
  5
EA
330
E4
100
AcDbEntity
  8
치수문자_일반주서
 62
     0
370
    -2
100
AcDbLine
 10
-47.62542250882218
 20
3.174999999999976
 30
0.0
 11
-47.62542250882215
 21
-3.175000000000047
 31
0.0
  0
LINE
  5
EB
330
E4
100
AcDbEntity
  8
치수문자_일반주서
 62
     0
370
    -2
100
AcDbLine
 10
-47.62542250882219
 20
6.476999999999975
 30
0.0
 11
-47.6254225088222
 21
9.778999999999975
 31
0.0
  0
LINE
  5
EC
330
E4
100
AcDbEntity
  8
치수문자_일반주서
 62
     0
370
    -2
100
AcDbLine
 10
-47.62542250882214
 20
-6.477000000000046
 30
0.0
 11
-47.62542250882213
 21
-9.779000000000046
 31
0.0
  0
SOLID
  5
ED
330
E4
100
AcDbEntity
  8
치수문자_일반주서
 62
     0
100
AcDbTrace
 10
-48.17575584215552
 20
6.476999999999974
 30
0.0
 11
-47.07508917548886
 21
6.476999999999977
 31
0.0
 12
-47.62542250882218
 22
3.174999999999976
 32
0.0
 13
-47.62542250882218
 23
3.174999999999976
 33
0.0
  0
SOLID
  5
EE
330
E4
100
AcDbEntity
  8
치수문자_일반주서
 62
     0
100
AcDbTrace
 10
-47.07508917548881
 20
-6.477000000000045
 30
0.0
 11
-48.17575584215547
 21
-6.477000000000048
 31
0.0
 12
-47.62542250882215
 22
-3.175000000000047
 32
0.0
 13
-47.62542250882215
 23
-3.175000000000047
 33
0.0
  0
MTEXT
  5
EF
330
E4
100
AcDbEntity
  8
치수문자_일반주서
 62
     0
100
AcDbMText
 10
-52.00042250882224
 20
22.46649999999997
 30
0.0
 40
3.5
 41
0.0
 71
     2
 72
     1
  1
\A1;%%c6.35 [1/4]
  7
SLDTEXTSTYLE0
 11
-3.356894814614634E-15
 21
1.0
 31
0.0
 73
     1
 44
1.0
  0
POINT
  5
166
330
E4
100
AcDbEntity
  8
Defpoints
 62
     0
100
AcDbPoint
 10
-37.625
 20
3.175000000000014
 30
0.0
  0
POINT
  5
167
330
E4
100
AcDbEntity
  8
Defpoints
 62
     0
100
AcDbPoint
 10
-37.61701352330508
 20
-3.175000000000009
 30
0.0
  0
POINT
  5
1C6
330
E4
100
AcDbEntity
  8
Defpoints
 62
     0
100
AcDbPoint
 10
-47.62542250882215
 20
-3.175000000000046
 30
0.0
  0
ENDBLK
  5
E6
330
E4
100
AcDbEntity
  8
0
100
AcDbBlockEnd
  0
BLOCK
  5
F9
330
F8
100
AcDbEntity
  8
0
100
AcDbBlockBegin
  2
_D_1
 70
     0
 10
0.0
 20
0.0
 30
0.0
  3
_D_1
  1

  0
LINE
  5
FB
330
F8
100
AcDbEntity
  8
치수문자_일반주서
 62
     0
370
    -2
100
AcDbLine
 10
38.63750000000001
 20
3.175000000000118
 30
0.0
 11
48.575
 21
3.175000000000153
 31
0.0
  0
LINE
  5
FC
330
F8
100
AcDbEntity
  8
치수문자_일반주서
 62
     0
370
    -2
100
AcDbLine
 10
38.64391377549552
 20
-3.174999999999944
 30
0.0
 11
48.57500000000002
 21
-3.174999999999908
 31
0.0
  0
LINE
  5
FD
330
F8
100
AcDbEntity
  8
치수문자_일반주서
 62
     0
370
    -2
100
AcDbLine
 10
48.575
 20
3.175000000000153
 30
0.0
 11
48.57499999999989
 21
35.15400000000015
 31
0.0
  0
LINE
  5
FE
330
F8
100
AcDbEntity
  8
치수문자_일반주서
 62
     0
370
    -2
100
AcDbLine
 10
48.575
 20
3.175000000000153
 30
0.0
 11
48.57500000000002
 21
-3.174999999999908
 31
0.0
  0
LINE
  5
FF
330
F8
100
AcDbEntity
  8
치수문자_일반주서
 62
     0
370
    -2
100
AcDbLine
 10
48.57499999999998
 20
6.477000000000153
 30
0.0
 11
48.57499999999997
 21
9.779000000000153
 31
0.0
  0
LINE
  5
100
330
F8
100
AcDbEntity
  8
치수문자_일반주서
 62
     0
370
    -2
100
AcDbLine
 10
48.57500000000003
 20
-6.476999999999908
 30
0.0
 11
48.57500000000005
 21
-9.778999999999908
 31
0.0
  0
SOLID
  5
101
330
F8
100
AcDbEntity
  8
치수문자_일반주서
 62
     0
100
AcDbTrace
 10
48.02466666666665
 20
6.477000000000151
 30
0.0
 11
49.12533333333332
 21
6.477000000000155
 31
0.0
 12
48.575
 22
3.175000000000153
 32
0.0
 13
48.575
 23
3.175000000000153
 33
0.0
  0
SOLID
  5
102
330
F8
100
AcDbEntity
  8
치수문자_일반주서
 62
     0
100
AcDbTrace
 10
49.12533333333337
 20
-6.476999999999906
 30
0.0
 11
48.0246666666667
 21
-6.47699999999991
 31
0.0
 12
48.57500000000002
 22
-3.174999999999908
 32
0.0
 13
48.57500000000002
 23
-3.174999999999908
 33
0.0
  0
MTEXT
  5
103
330
F8
100
AcDbEntity
  8
치수문자_일반주서
 62
     0
100
AcDbMText
 10
44.19999999999993
 20
22.46650000000014
 30
0.0
 40
3.5
 41
0.0
 71
     2
 72
     1
  1
\A1;%%c6.35 [1/4]
  7
SLDTEXTSTYLE0
 11
-3.356894814614614E-15
 21
1.0
 31
0.0
 73
     1
 44
1.0
  0
POINT
  5
104
330
F8
100
AcDbEntity
  8
Defpoints
 62
     0
100
AcDbPoint
 10
38.57500000000001
 20
3.175000000000118
 30
0.0
  0
POINT
  5
105
330
F8
100
AcDbEntity
  8
Defpoints
 62
     0
100
AcDbPoint
 10
38.58141377549552
 20
-3.174999999999944
 30
0.0
  0
POINT
  5
106
330
F8
100
AcDbEntity
  8
Defpoints
 62
     0
100
AcDbPoint
 10
48.57500000000001
 20
-3.174999999999907
 30
0.0
  0
ENDBLK
  5
FA
330
F8
100
AcDbEntity
  8
0
100
AcDbBlockEnd
  0
BLOCK
  5
10D
330
10C
100
AcDbEntity
  8
0
100
AcDbBlockBegin
  2
_D_2
 70
     0
 10
0.0
 20
0.0
 30
0.0
  3
_D_2
  1

  0
LINE
  5
10F
330
10C
100
AcDbEntity
  8
치수문자_일반주서
 62
     0
370
    -2
100
AcDbLine
 10
38.57500000000001
 20
3.237500000000118
 30
0.0
 11
38.57500000000001
 21
22.07033037798316
 31
0.0
  0
LINE
  5
110
330
10C
100
AcDbEntity
  8
치수문자_일반주서
 62
     0
370
    -2
100
AcDbLine
 10
10.0
 20
3.237500000000018
 30
0.0
 11
10.0
 21
22.07033037798316
 31
0.0
  0
LINE
  5
111
330
10C
100
AcDbEntity
  8
치수문자_일반주서
 62
     0
370
    -2
100
AcDbLine
 10
10.0
 20
22.07033037798316
 30
0.0
 11
-26.354
 21
22.07033037798316
 31
0.0
  0
LINE
  5
112
330
10C
100
AcDbEntity
  8
치수문자_일반주서
 62
     0
370
    -2
100
AcDbLine
 10
38.57500000000001
 20
22.07033037798316
 30
0.0
 11
10.0
 21
22.07033037798316
 31
0.0
  0
LINE
  5
113
330
10C
100
AcDbEntity
  8
치수문자_일반주서
 62
     0
370
    -2
100
AcDbLine
 10
41.87700000000001
 20
22.07033037798316
 30
0.0
 11
45.17900000000001
 21
22.07033037798316
 31
0.0
  0
LINE
  5
114
330
10C
100
AcDbEntity
  8
치수문자_일반주서
 62
     0
370
    -2
100
AcDbLine
 10
6.698000000000002
 20
22.07033037798316
 30
0.0
 11
3.396000000000002
 21
22.07033037798316
 31
0.0
  0
SOLID
  5
115
330
10C
100
AcDbEntity
  8
치수문자_일반주서
 62
     0
100
AcDbTrace
 10
41.87700000000001
 20
22.6206637113165
 30
0.0
 11
41.87700000000001
 21
21.51999704464983
 31
0.0
 12
38.57500000000001
 22
22.07033037798316
 32
0.0
 13
38.57500000000001
 23
22.07033037798316
 33
0.0
  0
SOLID
  5
116
330
10C
100
AcDbEntity
  8
치수문자_일반주서
 62
     0
100
AcDbTrace
 10
6.698000000000002
 20
21.51999704464983
 30
0.0
 11
6.698000000000002
 21
22.6206637113165
 31
0.0
 12
10.0
 22
22.07033037798316
 32
0.0
 13
10.0
 23
22.07033037798316
 33
0.0
  0
MTEXT
  5
117
330
10C
100
AcDbEntity
  8
치수문자_일반주서
 62
     0
100
AcDbMText
 10
-11.479
 20
26.44533037798316
 30
0.0
 40
3.5
 41
0.0
 71
     2
 72
     1
  1
\A1;28.58 [1 1/8]
  7
SLDTEXTSTYLE0
 73
     1
 44
1.0
  0
POINT
  5
193
330
10C
100
AcDbEntity
  8
Defpoints
 62
     0
100
AcDbPoint
 10
38.57500000000001
 20
3.175000000000118
 30
0.0
  0
POINT
  5
194
330
10C
100
AcDbEntity
  8
Defpoints
 62
     0
100
AcDbPoint
 10
10.0
 20
3.175000000000018
 30
0.0
  0
POINT
  5
195
330
10C
100
AcDbEntity
  8
Defpoints
 62
     0
100
AcDbPoint
 10
10.0
 20
22.07033037798316
 30
0.0
  0
ENDBLK
  5
10E
330
10C
100
AcDbEntity
  8
0
100
AcDbBlockEnd
  0
BLOCK
  5
123
330
122
100
AcDbEntity
  8
0
100
AcDbBlockBegin
  2
_D_3
 70
     0
 10
0.0
 20
0.0
 30
0.0
  3
_D_3
  1

  0
LINE
  5
125
330
122
100
AcDbEntity
  8
치수문자_일반주서
 62
     0
370
    -2
100
AcDbLine
 10
38.57500000000001
 20
3.237500000000118
 30
0.0
 11
38.57500000000002
 21
38.90965589824551
 31
0.0
  0
LINE
  5
126
330
122
100
AcDbEntity
  8
치수문자_일반주서
 62
     0
370
    -2
100
AcDbLine
 10
-37.625
 20
3.237500000000012
 30
0.0
 11
-37.62499999999999
 21
38.90965589824551
 31
0.0
  0
LINE
  5
127
330
122
100
AcDbEntity
  8
치수문자_일반주서
 62
     0
370
    -2
100
AcDbLine
 10
35.27300000000002
 20
38.90965589824551
 30
0.0
 11
-34.32299999999999
 21
38.90965589824551
 31
0.0
  0
SOLID
  5
128
330
122
100
AcDbEntity
  8
치수문자_일반주서
 62
     0
100
AcDbTrace
 10
35.27300000000002
 20
38.35932256491218
 30
0.0
 11
35.27300000000002
 21
39.45998923157885
 31
0.0
 12
38.57500000000002
 22
38.90965589824551
 32
0.0
 13
38.57500000000002
 23
38.90965589824551
 33
0.0
  0
SOLID
  5
129
330
122
100
AcDbEntity
  8
치수문자_일반주서
 62
     0
100
AcDbTrace
 10
-34.32299999999999
 20
39.45998923157885
 30
0.0
 11
-34.32299999999999
 21
38.35932256491218
 31
0.0
 12
-37.62499999999999
 22
38.90965589824551
 32
0.0
 13
-37.62499999999999
 23
38.90965589824551
 33
0.0
  0
MTEXT
  5
12A
330
122
100
AcDbEntity
  8
치수문자_일반주서
 62
     0
100
AcDbMText
 10
0.1321110371027103
 20
43.28465589824551
 30
0.0
 40
3.5
 41
0.0
 71
     2
 72
     1
  1
\A1;76.2 [3]
  7
SLDTEXTSTYLE0
 73
     1
 44
1.0
  0
POINT
  5
12B
330
122
100
AcDbEntity
  8
Defpoints
 62
     0
100
AcDbPoint
 10
38.57500000000001
 20
3.175000000000118
 30
0.0
  0
POINT
  5
12C
330
122
100
AcDbEntity
  8
Defpoints
 62
     0
100
AcDbPoint
 10
-37.625
 20
3.175000000000012
 30
0.0
  0
POINT
  5
12D
330
122
100
AcDbEntity
  8
Defpoints
 62
     0
100
AcDbPoint
 10
-37.625
 20
38.90965589824551
 30
0.0
  0
ENDBLK
  5
124
330
122
100
AcDbEntity
  8
0
100
AcDbBlockEnd
  0
BLOCK
  5
13C
330
13B
100
AcDbEntity
  8
0
100
AcDbBlockBegin
  2
SW_DOWELSYMBOL_0
 70
     0
 10
0.0
 20
0.0
 30
0.0
  3
SW_DOWELSYMBOL_0
  1

  0
CIRCLE
  5
13E
330
13B
100
AcDbEntity
  8
해칭선
 62
     0
100
AcDbCircle
 10
0.0
 20
0.0
 30
0.0
 40
3.000000000000002
  0
HATCH
  5
13F
330
13B
100
AcDbEntity
  8
0
  6
Continuous
 62
     0
370
     0
100
AcDbHatch
 10
0.0
 20
0.0
 30
0.0
210
0.0
220
0.0
230
1.0
  2
SOLID
 70
     1
 71
     0
 91
        1
 92
        0
 93
        3
 72
     2
 10
0.0000000000000069
 20
0.0
 40
3.000000000000002
 50
0.0
 51
90.0
 73
     1
 72
     1
 10
0.0000000000000069
 20
3.000000000000002
 11
0.0000000000000069
 21
0.0
 72
     1
 10
0.0000000000000069
 20
0.0
 11
3.000000000000009
 21
0.0
 97
        0
 75
     0
 76
     1
 98
        1
 10
0.0
 20
0.0
  0
HATCH
  5
140
330
13B
100
AcDbEntity
  8
0
  6
Continuous
 62
     0
370
     0
100
AcDbHatch
 10
0.0
 20
0.0
 30
0.0
210
0.0
220
0.0
230
1.0
  2
SOLID
 70
     1
 71
     0
 91
        1
 92
        0
 93
        3
 72
     2
 10
0.0000000000000069
 20
0.0
 40
3.000000000000002
 50
180.0
 51
270.0000000000007
 73
     1
 72
     1
 10
0.0000000000000069
 20
-3.000000000000002
 11
0.0000000000000069
 21
0.0
 72
     1
 10
0.0000000000000069
 20
0.0
 11
-2.999999999999995
 21
0.0
 97
        0
 75
     0
 76
     1
 98
        1
 10
0.0
 20
0.0
  0
ENDBLK
  5
13D
330
13B
100
AcDbEntity
  8
0
100
AcDbBlockEnd
  0
ENDSEC
  0
SECTION
  2
ENTITIES
  0
LINE
  5
96
330
1F
100
AcDbEntity
  8
외형선
  6
Continuous
370
    15
100
AcDbLine
 10
8.479918330987047
 20
3.175000000000004
 30
0.0
 11
-36.81499999999999
 21
3.175000000000002
 31
0.0
  0
LINE
  5
97
330
1F
100
AcDbEntity
  8
외형선
  6
Continuous
370
    15
100
AcDbLine
 10
-36.81499999999999
 20
-3.174999999999998
 30
0.0
 11
8.479918330987047
 21
-3.174999999999996
 31
0.0
  0
LINE
  5
98
330
1F
100
AcDbEntity
  8
외형선
  6
Continuous
370
    15
100
AcDbLine
 10
-36.81499999999999
 20
3.174999999999998
 30
0.0
 11
-37.625
 21
2.364999999999998
 31
0.0
  0
LINE
  5
99
330
1F
100
AcDbEntity
  8
외형선
  6
Continuous
370
    15
100
AcDbLine
 10
-37.625
 20
-2.364999999999998
 30
0.0
 11
-36.81499999999999
 21
-3.174999999999995
 31
0.0
  0
SPLINE
  5
9A
330
1F
100
AcDbEntity
  8
외형선
  6
Continuous
370
    15
100
AcDbSpline
210
0.0
220
0.0
230
1.0
 70
     8
 71
     3
 72
     9
 73
     5
 74
     0
 42
0.000000001
 43
0.00000001
 40
0.0
 40
0.0
 40
0.0
 40
0.0
 40
0.4401139745396209
 40
1.0
 40
1.0
 40
1.0
 40
1.0
 10
8.470747702763475
 20
-2.541586809387682
 30
0.0
 10
8.695178649014299
 20
-2.528527276454227
 30
0.0
 10
9.205116890547274
 20
-2.498854206093041
 30
0.0
 10
9.714694575377377
 20
-2.488218909268618
 30
0.0
 10
10.0000000000002
 20
-2.482264355200001
 30
0.0
  0
LINE
  5
9B
330
1F
100
AcDbEntity
  8
외형선
  6
Continuous
370
    15
100
AcDbLine
 10
10.0
 20
2.482264358750039
 30
0.0
 11
9.435560546621671
 21
2.497079083884564
 31
0.0
  0
SPLINE
  5
9C
330
1F
100
AcDbEntity
  8
외형선
  6
Continuous
 62
     1
370
    15
100
AcDbSpline
210
0.0
220
0.0
230
1.0
 70
     8
 71
     3
 72
     9
 73
     5
 74
     0
 42
0.000000001
 43
0.00000001
 40
0.0
 40
0.0
 40
0.0
 40
0.0
 40
0.4369074201417986
 40
1.0
 40
1.0
 40
1.0
 40
1.0
 10
30.34827534423827
 20
0.8137244786513159
 30
0.0
 10
30.22027145956099
 20
0.8747061613694751
 30
0.0
 10
29.92729432349922
 20
1.01428191565254
 30
0.0
 10
29.63429441030122
 20
1.167701869290709
 30
0.0
 10
29.46930833328032
 20
1.254091506786552
 30
0.0
  0
SPLINE
  5
9D
330
1F
100
AcDbEntity
  8
외형선
  6
Continuous
 62
     1
370
    15
100
AcDbSpline
210
0.0
220
0.0
230
1.0
 70
     8
 71
     3
 72
     9
 73
     5
 74
     0
 42
0.000000001
 43
0.00000001
 40
0.0
 40
0.0
 40
0.0
 40
0.0
 40
0.4370435182851325
 40
1.0
 40
1.0
 40
1.0
 40
1.0
 10
13.07202490621097
 20
0.813636388449025
 30
0.0
 10
12.94392441604731
 20
0.8746631358738219
 30
0.0
 10
12.65081747176336
 20
1.014298538005521
 30
0.0
 10
12.35773813022482
 20
1.167762601438534
 30
0.0
 10
12.19274721524897
 20
1.254156190658451
 30
0.0
  0
LINE
  5
9E
330
1F
100
AcDbEntity
  8
외형선
  6
Continuous
 62
     1
370
    15
100
AcDbLine
 10
23.0641566838894
 20
3.175000000000006
 30
0.0
 11
21.52498637497692
 21
3.175000000000006
 31
0.0
  0
LINE
  5
9F
330
1F
100
AcDbEntity
  8
외형선
  6
Continuous
 62
     1
370
    15
100
AcDbLine
 10
21.52498637497694
 20
-3.174999999999998
 30
0.0
 11
23.06415668388943
 21
-3.174999999999998
 31
0.0
  0
SPLINE
  5
A0
330
1F
100
AcDbEntity
  8
외형선
  6
Continuous
 62
     1
370
    15
100
AcDbSpline
210
0.0
220
0.0
230
1.0
 70
     8
 71
     3
 72
     9
 73
     5
 74
     0
 42
0.000000001
 43
0.00000001
 40
0.0
 40
0.0
 40
0.0
 40
0.0
 40
0.4592057442812419
 40
1.0
 40
1.0
 40
1.0
 40
1.0
 10
10.0
 20
-2.48226435875003
 30
0.0
 10
10.30970465383577
 20
-2.480474405871657
 30
0.0
 10
10.9841401496733
 20
-2.476576473625244
 30
0.0
 10
11.65875280705042
 20
-2.506692507757105
 30
0.0
 10
12.02357945699514
 20
-2.522979086020646
 30
0.0
  0
SPLINE
  5
A1
330
1F
100
AcDbEntity
  8
외형선
  6
Continuous
 62
     1
370
    15
100
AcDbSpline
210
0.0
220
0.0
230
1.0
 70
     8
 71
     3
 72
    15
 73
    11
 74
     0
 42
0.000000001
 43
0.00000001
 40
0.0
 40
0.0
 40
0.0
 40
0.0
 40
0.1924204493754111
 40
0.3274994231356212
 40
0.4101252220634909
 40
0.4831292178497005
 40
0.5590135043055448
 40
0.8480581553087104
 40
0.9383836983850712
 40
1.0
 40
1.0
 40
1.0
 40
1.0
 10
29.30008187941682
 20
2.522982465119461
 30
0.0
 10
29.13104233192727
 20
2.514744679661183
 30
0.0
 10
28.84333718172296
 20
2.50072397659008
 30
0.0
 10
28.48410404582068
 20
2.489761359221787
 30
0.0
 10
28.23220195238736
 20
2.48430320481958
 30
0.0
 10
28.03121915995936
 20
2.481325184846783
 30
0.0
 10
27.64849796789132
 20
2.478097229766344
 30
0.0
 10
27.25151763135173
 20
2.481259722197924
 30
0.0
 10
26.86570860225991
 20
2.490319924625137
 30
0.0
 10
26.73281102676845
 20
2.494794059534183
 30
0.0
 10
26.67891766308043
 20
2.496608435597484
 30
0.0
  0
SPLINE
  5
A2
330
1F
100
AcDbEntity
  8
외형선
  6
Continuous
 62
     1
370
    15
100
AcDbSpline
210
0.0
220
0.0
230
1.0
 70
     8
 71
     3
 72
    11
 73
     7
 74
     0
 42
0.000000001
 43
0.00000001
 40
0.0
 40
0.0
 40
0.0
 40
0.0
 40
0.2155654027821075
 40
0.4833914469440543
 40
0.6808046852601065
 40
1.0
 40
1.0
 40
1.0
 40
1.0
 10
24.52352252412416
 20
-2.642057274717093
 30
0.0
 10
24.86713021492481
 20
-2.610588995086971
 30
0.0
 10
25.63764819551707
 20
-2.540023417183819
 30
0.0
 10
26.72024531734107
 20
-2.489077456897447
 30
0.0
 10
27.96903656250435
 20
-2.470110603859884
 30
0.0
 10
28.79175277825415
 20
-2.502790586323608
 30
0.0
 10
29.30008187941681
 20
-2.522982465119453
 30
0.0
  0
SPLINE
  5
A3
330
1F
100
AcDbEntity
  8
외형선
  6
Continuous
 62
     1
370
    15
100
AcDbSpline
210
0.0
220
0.0
230
1.0
 70
     8
 71
     3
 72
     9
 73
     5
 74
     0
 42
0.000000001
 43
0.00000001
 40
0.0
 40
0.0
 40
0.0
 40
0.0
 40
0.3653495384158181
 40
1.0
 40
1.0
 40
1.0
 40
1.0
 10
12.02357945699514
 20
2.522979086020654
 30
0.0
 10
11.77828313330919
 20
2.511297727049953
 30
0.0
 10
11.10688137172611
 20
2.479324622550211
 30
0.0
 10
10.42974494547545
 20
2.481123010810524
 30
0.0
 10
10.0
 20
2.482264358750037
 30
0.0
  0
SPLINE
  5
A4
330
1F
100
AcDbEntity
  8
외형선
  6
Continuous
 62
     1
370
    15
100
AcDbSpline
210
0.0
220
0.0
230
1.0
 70
     8
 71
     3
 72
    15
 73
    11
 74
     0
 42
0.000000001
 43
0.00000001
 40
0.0
 40
0.0
 40
0.0
 40
0.0
 40
0.1954084327303764
 40
0.3328897177856438
 40
0.4167086729608721
 40
0.4953133492770425
 40
0.5820468081703462
 40
0.6769985061229351
 40
0.9308328012575628
 40
0.9999999999999999
 40
0.9999999999999999
 40
0.9999999999999999
 40
0.9999999999999999
 10
31.84807486654956
 20
-2.388030990252229
 30
0.0
 10
32.00289758135647
 20
-2.364468514010521
 30
0.0
 10
32.26664714998432
 20
-2.324328454767244
 30
0.0
 10
32.59597086075312
 20
-2.280668858049698
 30
0.0
 10
32.83233419461851
 20
-2.251402043703788
 30
0.0
 10
33.02890072194823
 20
-2.228708482938684
 30
0.0
 10
33.2345337407798
 20
-2.206687919470907
 30
0.0
 10
33.57881860607721
 20
-2.173373547331833
 30
0.0
 10
33.90921608303496
 20
-2.145071873134282
 30
0.0
 10
34.16425000841156
 20
-2.131699674304349
 30
0.0
 10
34.21886270382312
 20
-2.128836165770714
 30
0.0
  0
SPLINE
  5
A5
330
1F
100
AcDbEntity
  8
외형선
  6
Continuous
 62
     1
370
    15
100
AcDbSpline
210
0.0
220
0.0
230
1.0
 70
     8
 71
     3
 72
    21
 73
    17
 74
     0
 42
0.000000001
 43
0.00000001
 40
0.0
 40
0.0
 40
0.0
 40
0.0
 40
0.0930581658032922
 40
0.1567318142980093
 40
0.2251044956143919
 40
0.3042969489719093
 40
0.3759350667581124
 40
0.4394737455238545
 40
0.4963891751785138
 40
0.5719160368391494
 40
0.6651501015319393
 40
0.7694436137854255
 40
0.8229312315040855
 40
0.8651180213766637
 40
0.9210545242034791
 40
1.0
 40
1.0
 40
1.0
 40
1.0
 10
20.11783308504545
 20
2.171536048084703
 30
0.0
 10
19.94875433838426
 20
2.157930333204652
 30
0.0
 10
19.66398600564643
 20
2.135015112820023
 30
0.0
 10
19.24264417663177
 20
2.112232291309229
 30
0.0
 10
18.84867849915962
 20
2.097029179988893
 30
0.0
 10
18.44449485150338
 20
2.089101985864783
 30
0.0
 10
18.046391025759
 20
2.089023406230535
 30
0.0
 10
17.69082276698092
 20
2.095180779364465
 30
0.0
 10
17.33087555523273
 20
2.106887389670077
 30
0.0
 10
16.91346786623359
 20
2.127571193870445
 30
0.0
 10
16.40892458411998
 20
2.163264647751641
 30
0.0
 10
15.94494355285956
 20
2.206950543252169
 30
0.0
 10
15.57458940726408
 20
2.248935430897776
 30
0.0
 10
15.29098734517872
 20
2.284297866521809
 30
0.0
 10
14.96417048889248
 20
2.328145147159152
 30
0.0
 10
14.71659106638261
 20
2.365916210693022
 30
0.0
 10
14.57168456733094
 20
2.388023349188884
 30
0.0
  0
SPLINE
  5
A6
330
1F
100
AcDbEntity
  8
외형선
  6
Continuous
 62
     1
370
    15
100
AcDbSpline
210
0.0
220
0.0
230
1.0
 70
     8
 71
     3
 72
    14
 73
    10
 74
     0
 42
0.000000001
 43
0.00000001
 40
0.0
 40
0.0
 40
0.0
 40
0.0
 40
0.1874962712086866
 40
0.3191932669575182
 40
0.4201602405611143
 40
0.5494995174217779
 40
0.6977370416265103
 40
0.9657376375745136
 40
1.0
 40
1.0
 40
1.0
 40
1.0
 10
14.57168456733094
 20
-2.388023349188875
 30
0.0
 10
14.71882505602475
 20
-2.365585256757869
 30
0.0
 10
14.96931672172633
 20
-2.327386694294853
 30
0.0
 10
15.30106268591235
 20
-2.282976279276983
 30
0.0
 10
15.59056078674187
 20
-2.24702046301213
 30
0.0
 10
15.89024226748093
 20
-2.213213720017722
 30
0.0
 10
16.32142162083536
 20
-2.17147983112105
 30
0.0
 10
16.6777139941667
 20
-2.141548503575804
 30
0.0
 10
16.91640142501067
 20
-2.129579053576937
 30
0.0
 10
16.94345732132689
 20
-2.128222282518711
 30
0.0
  0
SPLINE
  5
A7
330
1F
100
AcDbEntity
  8
외형선
  6
Continuous
 62
     1
370
    15
100
AcDbSpline
210
0.0
220
0.0
230
1.0
 70
     8
 71
     3
 72
    25
 73
    21
 74
     0
 42
0.000000001
 43
0.00000001
 40
0.0
 40
0.0
 40
0.0
 40
0.0
 40
0.0683084319718088
 40
0.1234539309772563
 40
0.1753866162648164
 40
0.2072602649173015
 40
0.2363377114123956
 40
0.2652764008785636
 40
0.295628664814571
 40
0.3295701869585487
 40
0.4208167150187148
 40
0.5094284977369978
 40
0.6066040194683406
 40
0.6963126803506408
 40
0.7262534723652494
 40
0.756069579904623
 40
0.7929159667518312
 40
0.8456002460658241
 40
0.9146439021400022
 40
1.0
 40
1.0
 40
1.0
 40
1.0
 10
37.39431577039726
 20
2.171539814434579
 30
0.0
 10
37.26708038197825
 20
2.16115317282769
 30
0.0
 10
37.03712767473079
 20
2.142381379961014
 30
0.0
 10
36.71174572585198
 20
2.122374657698729
 30
0.0
 10
36.45431951935722
 20
2.109809477945264
 30
0.0
 10
36.24827894206992
 20
2.102006532514773
 30
0.0
 10
36.08337742152232
 20
2.096975830791328
 30
0.0
 10
35.92030389479196
 20
2.093195570096428
 30
0.0
 10
35.74776625059985
 20
2.090501229077899
 30
0.0
 10
35.46037304458761
 20
2.088402944144457
 30
0.0
 10
35.06474105851722
 20
2.091953554162337
 30
0.0
 10
34.5531407434774
 20
2.108134759675293
 30
0.0
 10
34.04097836111416
 20
2.1368603906742
 30
0.0
 10
33.64860448827673
 20
2.167552393611724
 30
0.0
 10
33.37326223932929
 20
2.192964491629397
 30
0.0
 10
33.19287669199223
 20
2.211031889417822
 30
0.0
 10
32.97011078056917
 20
2.235093386611944
 30
0.0
 10
32.67633433358618
 20
2.270143901139706
 30
0.0
 10
32.29260993045753
 20
2.320455013171548
 30
0.0
 10
32.00633493875712
 20
2.36397309273057
 30
0.0
 10
31.84807486654956
 20
2.388030990252238
 30
0.0
  0
SPLINE
  5
A8
330
1F
100
AcDbEntity
  8
외형선
  6
Continuous
370
    15
100
AcDbSpline
210
0.0
220
0.0
230
1.0
 70
     8
 71
     3
 72
     9
 73
     5
 74
     0
 42
0.000000001
 43
0.00000001
 40
0.0
 40
0.0
 40
0.0
 40
0.0
 40
0.2008429871977195
 40
1.0
 40
1.0
 40
1.0
 40
1.0
 10
9.432940659917223
 20
-2.498051037071855
 30
0.0
 10
9.369175471758917
 20
-2.522127088948154
 30
0.0
 10
9.051687721511838
 20
-2.642002082903498
 30
0.0
 10
8.733841771476254
 20
-2.730790928530654
 30
0.0
 10
8.479832951514513
 20
-2.801747157172215
 30
0.0
  0
LINE
  5
A9
330
1F
100
AcDbEntity
  8
외형선
  6
Continuous
370
    15
100
AcDbLine
 10
8.479918330987045
 20
2.801811166049055
 30
0.0
 11
8.479918330987047
 21
3.175000000000004
 31
0.0
  0
SPLINE
  5
AA
330
1F
100
AcDbEntity
  8
외형선
  6
Continuous
370
    15
100
AcDbSpline
210
0.0
220
0.0
230
1.0
 70
     8
 71
     3
 72
    10
 73
     6
 74
     0
 42
0.000000001
 43
0.00000001
 40
0.0
 40
0.0
 40
0.0
 40
0.0
 40
0.5
 40
0.5
 40
1.0
 40
1.0
 40
1.0
 40
1.0
 10
10.0
 20
2.287677385399902
 30
0.0
 10
9.747085122615783
 20
2.38906163960988
 30
0.0
 10
9.495915819690062
 20
2.482956787685301
 30
0.0
 10
8.987345473136104
 20
2.655093697488576
 30
0.0
 10
8.732200575206194
 20
2.733016912113722
 30
0.0
 10
8.479832951514512
 20
2.801747157172222
 30
0.0
  0
LINE
  5
AB
330
1F
100
AcDbEntity
  8
외형선
  6
Continuous
370
    15
100
AcDbLine
 10
10.0
 20
2.287677385399901
 30
0.0
 11
10.0
 21
1.590653006593686
 31
0.0
  0
SPLINE
  5
AC
330
1F
100
AcDbEntity
  8
외형선
  6
Continuous
370
    15
100
AcDbSpline
210
0.0
220
0.0
230
1.0
 70
     8
 71
     3
 72
    10
 73
     6
 74
     0
 42
0.000000001
 43
0.00000001
 40
0.0
 40
0.0
 40
0.0
 40
0.0
 40
0.4999999999999999
 40
0.4999999999999999
 40
1.0
 40
1.0
 40
1.0
 40
1.0
 10
8.479918330987045
 20
2.280237467210413
 30
0.0
 10
8.73227234872198
 20
2.178577378969885
 30
0.0
 10
8.987402922688164
 20
2.069269282447664
 30
0.0
 10
9.495944398221347
 20
1.838375483774893
 30
0.0
 10
9.747099383367495
 20
1.717181644114395
 30
0.0
 10
10.0
 20
1.590653006593688
 30
0.0
  0
LINE
  5
AD
330
1F
100
AcDbEntity
  8
외형선
  6
Continuous
370
    15
100
AcDbLine
 10
8.479918330987047
 20
-3.174999999999996
 30
0.0
 11
8.479918330987045
 21
2.280234104121796
 31
0.0
  0
LINE
  5
AE
330
1F
100
AcDbEntity
  8
외형선
  6
Continuous
370
    15
100
AcDbLine
 10
-36.81499999999999
 20
3.174999999999998
 30
0.0
 11
-36.81499999999999
 21
-3.174999999999998
 31
0.0
  0
LINE
  5
AF
330
1F
100
AcDbEntity
  8
외형선
  6
Continuous
370
    15
100
AcDbLine
 10
-37.625
 20
2.364999999999998
 30
0.0
 11
-37.625
 21
-2.364999999999999
 31
0.0
  0
SPLINE
  5
B0
330
1F
100
AcDbEntity
  8
외형선
  6
Continuous
370
    15
100
AcDbSpline
210
0.0
220
0.0
230
1.0
 70
    24
 71
     3
 72
    10
 73
     6
 74
     0
 42
0.000000001
 43
0.00000001
 40
0.0
 40
0.0
 40
0.0
 40
0.0
 40
0.5
 40
0.5
 40
1.0
 40
1.0
 40
1.0
 40
1.0
 10
10.0
 20
1.590653006593688
 30
0.0
 10
10.0
 20
1.552734751178414
 30
0.0
 10
10.0
 20
1.48173493593141
 30
0.0
 10
10.0
 20
1.287487911284547
 30
0.0
 10
10.0
 20
1.164957879069926
 30
0.0
 10
10.0
 20
1.033451178620688
 30
0.0
  0
SPLINE
  5
B1
330
1F
100
AcDbEntity
  8
외형선
  6
Continuous
370
    15
100
AcDbSpline
210
0.0
220
0.0
230
1.0
 70
     8
 71
     3
 72
    10
 73
     6
 74
     0
 42
0.000000001
 43
0.00000001
 40
0.0
 40
0.0
 40
0.0
 40
0.0
 40
0.5
 40
0.5
 40
1.0
 40
1.0
 40
1.0
 40
1.0
 10
10.00000000000002
 20
1.033451178620683
 30
0.0
 10
9.810288176341455
 20
1.101416248344654
 30
0.0
 10
9.622293438060845
 20
1.167334219957092
 30
0.0
 10
9.241803205131237
 20
1.295275702797043
 30
0.0
 10
9.050558999115855
 20
1.35714435623751
 30
0.0
 10
8.859856485206071
 20
1.416406657039525
 30
0.0
  0
SPLINE
  5
B2
330
1F
100
AcDbEntity
  8
외형선
  6
Continuous
370
    15
100
AcDbSpline
210
0.0
220
0.0
230
1.0
 70
     8
 71
     3
 72
    14
 73
    10
 74
     0
 42
0.000000001
 43
0.00000001
 40
0.0
 40
0.0
 40
0.0
 40
0.0
 40
0.2499999999999999
 40
0.2499999999999999
 40
0.4999999999999999
 40
0.4999999999999999
 40
0.7499999999999999
 40
0.7499999999999999
 40
1.0
 40
1.0
 40
1.0
 40
1.0
 10
8.479918330987045
 20
1.954271467829189
 30
0.0
 10
8.479918330987045
 20
1.906234235781178
 30
0.0
 10
8.492542409178165
 20
1.853303693830622
 30
0.0
 10
8.53205654617783
 20
1.747794892280081
 30
0.0
 10
8.559050009536843
 20
1.695123248138253
 30
0.0
 10
8.62433754330234
 20
1.595499887739047
 30
0.0
 10
8.662594040446193
 20
1.548450586415712
 30
0.0
 10
8.751988884229663
 20
1.467581151286937
 30
0.0
 10
8.803362887839079
 20
1.433962485182068
 30
0.0
 10
8.859856485206071
 20
1.416406657039527
 30
0.0
  0
SPLINE
  5
B3
330
1F
100
AcDbEntity
  8
외형선
  6
Continuous
370
    15
100
AcDbSpline
210
0.0
220
0.0
230
1.0
 70
     8
 71
     3
 72
    12
 73
     8
 74
     0
 42
0.000000001
 43
0.00000001
 40
0.0
 40
0.0
 40
0.0
 40
0.0
 40
0.2500000000000002
 40
0.2500000000000002
 40
0.5000000000000003
 40
0.5000000000000003
 40
1.0
 40
1.0
 40
1.0
 40
1.0
 10
8.775589592433548
 20
-1.932370960808553
 30
0.0
 10
8.711566430800982
 20
-1.913207997822755
 30
0.0
 10
8.666807675896036
 20
-1.878894877753916
 30
0.0
 10
8.594838604332228
 20
-1.806477104575161
 30
0.0
 10
8.567813851104782
 20
-1.767015927043572
 30
0.0
 10
8.503073677999318
 20
-1.646386971680829
 30
0.0
 10
8.479918330987024
 20
-1.560558229192431
 30
0.0
 10
8.479918330987019
 20
-1.477173232749253
 30
0.0
  0
SPLINE
  5
B4
330
1F
100
AcDbEntity
  8
외형선
  6
Continuous
370
    15
100
AcDbSpline
210
0.0
220
0.0
230
1.0
 70
     8
 71
     3
 72
    10
 73
     6
 74
     0
 42
0.000000001
 43
0.00000001
 40
0.0
 40
0.0
 40
0.0
 40
0.0
 40
0.5
 40
0.5
 40
1.0
 40
1.0
 40
1.0
 40
1.0
 10
10.00000000000001
 20
-2.248695922901785
 30
0.0
 10
9.796309984195782
 20
-2.204892884524641
 30
0.0
 10
9.5943917334099
 20
-2.156593678964914
 30
0.0
 10
9.1855687290185
 20
-2.050895307432091
 30
0.0
 10
8.98013593676922
 20
-1.993594335684704
 30
0.0
 10
8.775589592433542
 20
-1.932370960808552
 30
0.0
  0
SPLINE
  5
B5
330
1F
100
AcDbEntity
  8
외형선
  6
Continuous
370
    15
100
AcDbSpline
210
0.0
220
0.0
230
1.0
 70
    24
 71
     3
 72
    14
 73
    10
 74
     0
 42
0.000000001
 43
0.00000001
 40
0.0
 40
0.0
 40
0.0
 40
0.0
 40
0.25
 40
0.25
 40
0.4999999999999999
 40
0.4999999999999999
 40
0.75
 40
0.75
 40
1.0
 40
1.0
 40
1.0
 40
1.0
 10
10.0
 20
1.033451178620691
 30
0.0
 10
10.0
 20
0.7623168604209235
 30
0.0
 10
10.0
 20
0.4733104625554956
 30
0.0
 10
10.0
 20
-0.1166157411594725
 30
0.0
 10
10.0
 20
-0.4172719273188001
 30
0.0
 10
10.0
 20
-1.000604095203746
 30
0.0
 10
10.0
 20
-1.282969253162234
 30
0.0
 10
10.0
 20
-1.8032007294826
 30
0.0
 10
10.0
 20
-2.040901318159444
 30
0.0
 10
10.0
 20
-2.248695922901784
 30
0.0
  0
SPLINE
  5
B6
330
1F
100
AcDbEntity
  8
외형선
  6
Continuous
370
    15
100
AcDbSpline
210
0.0
220
0.0
230
1.0
 70
    24
 71
     3
 72
    12
 73
     8
 74
     0
 42
0.000000001
 43
0.00000001
 40
0.0
 40
0.0
 40
0.0
 40
0.0
 40
0.1534392845736105
 40
0.4626940789212207
 40
0.6186550473098849
 40
0.8433553613295914
 40
1.0
 40
1.0
 40
1.0
 40
1.0
 10
10.0
 20
-2.248695922901784
 30
0.0
 10
10.0
 20
-2.27131496760495
 30
0.0
 10
10.00000000000001
 20
-2.339522389739978
 30
0.0
 10
10.0
 20
-2.405471570984026
 30
0.0
 10
10.0
 20
-2.454777938948201
 30
0.0
 10
10.0
 20
-2.479565735347566
 30
0.0
 10
10.0
 20
-2.47964303207851
 30
0.0
 10
10.0
 20
-2.479674783170021
 30
0.0
  0
SPLINE
  5
B7
330
1F
100
AcDbEntity
  8
외형선
  6
Continuous
370
    15
100
AcDbSpline
210
0.0
220
0.0
230
1.0
 70
    24
 71
     3
 72
    10
 73
     6
 74
     0
 42
0.000000001
 43
0.00000001
 40
0.0
 40
0.0
 40
0.0
 40
0.0
 40
0.0930814327126045
 40
0.7135327650938692
 40
0.9999999999999999
 40
0.9999999999999999
 40
0.9999999999999999
 40
0.9999999999999999
 10
10.0
 20
2.475969592728887
 30
0.0
 10
10.0
 20
2.477918706352347
 30
0.0
 10
10.0
 20
2.492859993703648
 30
0.0
 10
10.0
 20
2.449037804015842
 30
0.0
 10
10.0
 20
2.366228477351517
 30
0.0
 10
10.0
 20
2.340071598785319
 30
0.0
  0
SPLINE
  5
B8
330
1F
100
AcDbEntity
  8
외형선
  6
Continuous
 62
     1
370
    15
100
AcDbSpline
210
0.0
220
0.0
230
1.0
 70
     8
 71
     3
 72
    14
 73
    10
 74
     0
 42
0.000000001
 43
0.00000001
 40
0.0
 40
0.0
 40
0.0
 40
0.0
 40
0.1522570476982986
 40
0.3044176083875185
 40
0.4565149705695097
 40
0.6085827681309486
 40
0.7606547969815299
 40
0.9127648298246229
 40
1.0
 40
1.0
 40
1.0
 40
1.0
 10
38.57500000000001
 20
-2.504986939369084
 30
0.0
 10
38.15667174315738
 20
-2.416067685499149
 30
0.0
 10
37.32028032880854
 20
-2.238285526893754
 30
0.0
 10
36.06615972836133
 20
-1.820856477129474
 30
0.0
 10
34.81262484152573
 20
-1.318681712149903
 30
0.0
 10
33.55937382167027
 20
-0.7452877993095193
 30
0.0
 10
32.30607693317178
 20
-0.1358974489080416
 30
0.0
 10
31.23084859141778
 20
0.3991371606004308
 30
0.0
 10
30.57329886132518
 20
0.7047834370196248
 30
0.0
 10
30.33363889789163
 20
0.8161836430845074
 30
0.0
1001
PE_URL
1000

  0
SPLINE
  5
B9
330
1F
100
AcDbEntity
  8
외형선
  6
Continuous
 62
     1
370
    15
100
AcDbSpline
210
0.0
220
0.0
230
1.0
 70
     8
 71
     3
 72
    14
 73
    10
 74
     0
 42
0.000000001
 43
0.00000001
 40
0.0
 40
0.0
 40
0.0
 40
0.0
 40
0.25
 40
0.25
 40
0.5
 40
0.5
 40
0.75
 40
0.75
 40
1.0
 40
1.0
 40
1.0
 40
1.0
 10
38.06700000000001
 20
-2.907524063168392
 30
0.0
 10
38.12507673028365
 20
-2.920965997741233
 30
0.0
 10
38.18420919362674
 20
-2.923455678239093
 30
0.0
 10
38.3007662171885
 20
-2.901946773823239
 30
0.0
 10
38.35695850854786
 20
-2.877759269007417
 30
0.0
 10
38.45484618352964
 20
-2.802996405286075
 30
0.0
 10
38.49602157071677
 20
-2.752358119747227
 30
0.0
 10
38.55335671439009
 20
-2.636696234885998
 30
0.0
 10
38.56996902901037
 20
-2.57149651060848
 30
0.0
 10
38.57400684166983
 20
-2.50480451159721
 30
0.0
1001
PE_URL
1000

  0
SPLINE
  5
BA
330
1F
100
AcDbEntity
  8
외형선
  6
Continuous
 62
     1
370
    15
100
AcDbSpline
210
0.0
220
0.0
230
1.0
 70
     8
 71
     3
 72
    20
 73
    16
 74
     0
 42
0.000000001
 43
0.00000001
 40
0.0
 40
0.0
 40
0.0
 40
0.0
 40
0.0779126707783214
 40
0.1559204259611948
 40
0.2339021311413205
 40
0.3117996082597888
 40
0.3896674008371637
 40
0.4675603896580386
 40
0.5511548163332805
 40
0.6348000610023043
 40
0.7184198335583695
 40
0.8019932305434108
 40
0.8855378111938651
 40
0.9690712902591032
 40
1.0
 40
1.0
 40
1.0
 40
1.0
 10
38.06699999999995
 20
-2.907524063168379
 30
0.0
 10
37.67742182480043
 20
-2.804421126820909
 30
0.0
 10
36.89779003429074
 20
-2.598089427592081
 30
0.0
 10
35.7277696378808
 20
-2.136887096801519
 30
0.0
 10
34.55797738129434
 20
-1.588779251339431
 30
0.0
 10
33.38920902809799
 20
-0.9664610106746776
 30
0.0
 10
32.22095101616031
 20
-0.3014127690559225
 30
0.0
 10
31.02415222446404
 20
0.3937678995263537
 30
0.0
 10
29.79814045432013
 20
1.086930870372914
 30
0.0
 10
28.54331533852555
 20
1.739865867390253
 30
0.0
 10
27.288712609852
 20
2.302099107614866
 30
0.0
 10
26.03477279545913
 20
2.747984576505311
 30
0.0
 10
24.78134301366509
 20
3.040847294920418
 30
0.0
 10
23.79120886896813
 20
3.179455824058361
 30
0.0
 10
23.21882101448718
 20
3.160822375410822
 30
0.0
 10
23.06415668388941
 20
3.155787450509397
 30
0.0
  0
SPLINE
  5
BB
330
1F
100
AcDbEntity
  8
외형선
  6
Continuous
 62
     1
370
    15
100
AcDbSpline
210
0.0
220
0.0
230
1.0
 70
     8
 71
     3
 72
    17
 73
    13
 74
     0
 42
0.000000001
 43
0.00000001
 40
0.0
 40
0.0
 40
0.0
 40
0.0
 40
0.0870920956165403
 40
0.1963617757525739
 40
0.3056648164879415
 40
0.4150252761913196
 40
0.524443628619576
 40
0.6338040183633625
 40
0.7431070132754984
 40
0.8523766719751504
 40
0.9616372355664886
 40
0.9999999999999999
 40
0.9999999999999999
 40
0.9999999999999999
 40
0.9999999999999999
 10
24.5270373697604
 20
-2.63057957354064
 30
0.0
 10
24.19407466619548
 20
-2.66006552601679
 30
0.0
 10
23.44336190324565
 20
-2.726545887374329
 30
0.0
 10
22.2747638986939
 20
-2.663266674496374
 30
0.0
 10
21.02097030642389
 20
-2.472983968463518
 30
0.0
 10
19.76651846662893
 20
-2.150474947805789
 30
0.0
 10
18.51168059146342
 20
-1.717835606568435
 30
0.0
 10
17.25722911631723
 20
-1.196016633134455
 30
0.0
 10
16.00343707401986
 20
-0.611612497529115
 30
0.0
 10
14.75008271688423
 20
0.0013639762174583
 30
0.0
 10
13.7679636781441
 20
0.4905481368279946
 30
0.0
 10
13.2035693917879
 20
0.7489192566267249
 30
0.0
 10
13.0569006684581
 20
0.816061967320747
 30
0.0
  0
SPLINE
  5
BC
330
1F
100
AcDbEntity
  8
외형선
  6
Continuous
 62
     1
370
    15
100
AcDbSpline
210
0.0
220
0.0
230
1.0
 70
     8
 71
     3
 72
    21
 73
    17
 74
     0
 42
0.000000001
 43
0.00000001
 40
0.0
 40
0.0
 40
0.0
 40
0.0
 40
0.038137854967771
 40
0.1133263283732959
 40
0.1885048105712727
 40
0.2636892985275472
 40
0.3388957567155135
 40
0.414140030953106
 40
0.4894224353644347
 40
0.5646666635253995
 40
0.6398730915351305
 40
0.7118525317914285
 40
0.7838296544344484
 40
0.8558385098975815
 40
0.9279128663189418
 40
1.0
 40
1.0
 40
1.0
 40
1.0
 10
26.67042075611988
 20
-2.499588172049184
 30
0.0
 10
26.45849202145205
 20
-2.577285584525612
 30
0.0
 10
25.82874749604546
 20
-2.808162818903367
 30
0.0
 10
24.78134871938882
 20
-3.043356112610232
 30
0.0
 10
23.52811716229216
 20
-3.192337402397242
 30
0.0
 10
22.27477224196673
 20
-3.16938638730372
 30
0.0
 10
21.02098388090001
 20
-2.984169535240377
 30
0.0
 10
19.76653652933345
 20
-2.643903714809136
 30
0.0
 10
18.51166089550676
 20
-2.16703462023861
 30
0.0
 10
17.25722361317685
 20
-1.577775806007853
 30
0.0
 10
16.02120807868624
 20
-0.9164283062388103
 30
0.0
 10
14.80359174522939
 20
-0.2201244712985479
 30
0.0
 10
13.60371148743332
 20
0.4770343937913372
 30
0.0
 10
12.40323024105141
 20
1.149612065789933
 30
0.0
 10
11.20182541562626
 20
1.775241096592264
 30
0.0
 10
10.40063214221279
 20
2.116855196533411
 30
0.0
 10
9.999999999995826
 20
2.287677385401578
 30
0.0
  0
SPLINE
  5
BD
330
1F
100
AcDbEntity
  8
외형선
  6
Continuous
 62
     1
370
    15
100
AcDbSpline
210
0.0
220
0.0
230
1.0
 70
     8
 71
     3
 72
    16
 73
    12
 74
     0
 42
0.000000001
 43
0.00000001
 40
0.0
 40
0.0
 40
0.0
 40
0.0
 40
0.0838468920876053
 40
0.2025955707157008
 40
0.3213049096767532
 40
0.4399426491119495
 40
0.558535896178063
 40
0.6771120043812039
 40
0.7956984223416268
 40
0.9143225414498309
 40
1.0
 40
1.0
 40
1.0
 40
1.0
 10
30.68457395243756
 20
-0.2997472988384771
 30
0.0
 10
30.38918249644202
 20
-0.1812091592579386
 30
0.0
 10
29.67544106701095
 20
0.1052093524121757
 30
0.0
 10
28.54335307239576
 20
0.5621656385716917
 30
0.0
 10
27.2887699496772
 20
1.037858785457867
 30
0.0
 10
26.03481784461697
 20
1.4603628021246
 30
0.0
 10
24.78138207321869
 20
1.80679711666338
 30
0.0
 10
23.52814706015118
 20
2.060792132403812
 30
0.0
 10
22.27478877151233
 20
2.204185011996186
 30
0.0
 10
21.13729848598284
 20
2.244121906871665
 30
0.0
 10
20.41751530872223
 20
2.184739546422696
 30
0.0
 10
20.11566157836105
 20
2.159836509528457
 30
0.0
  0
SPLINE
  5
BE
330
1F
100
AcDbEntity
  8
외형선
  6
Continuous
 62
     1
370
    15
100
AcDbSpline
210
0.0
220
0.0
230
1.0
 70
     8
 71
     3
 72
    31
 73
    27
 74
     0
 42
0.000000001
 43
0.00000001
 40
0.0
 40
0.0
 40
0.0
 40
0.0
 40
0.0262372290964752
 40
0.0693998371690824
 40
0.1128601182091309
 40
0.1560229176873433
 40
0.1994834369595495
 40
0.2426452689069682
 40
0.286106755114137
 40
0.3292683624528433
 40
0.3727286544633548
 40
0.415890288725214
 40
0.459349311258109
 40
0.5025110754524214
 40
0.5459710932969701
 40
0.5891279953614057
 40
0.6325848891307251
 40
0.6757413553506426
 40
0.7191958790396661
 40
0.7623525102620378
 40
0.8058064053370528
 40
0.8489631113535875
 40
0.8924186510493762
 40
0.9250037052596013
 40
0.9577171295191905
 40
1.0
 40
1.0
 40
1.0
 40
1.0
 10
16.94192135973467
 20
2.127576165381654
 30
0.0
 10
17.12659594718215
 20
2.207370998764216
 30
0.0
 10
17.61507688588938
 20
2.418435529371521
 30
0.0
 10
18.41006356598774
 20
2.689917968339264
 30
0.0
 10
19.32425212553049
 20
2.937948838159901
 30
0.0
 10
20.23953852946177
 20
3.103095069313015
 30
0.0
 10
21.15419567015525
 20
3.18237469666713
 30
0.0
 10
22.06997515735787
 20
3.174098756813719
 30
0.0
 10
22.98339679513751
 20
3.077834621085584
 30
0.0
 10
23.90024994019345
 20
2.897066670078197
 30
0.0
 10
24.81359474051336
 20
2.63592330646643
 30
0.0
 10
25.72945826523678
 20
2.301394116292935
 30
0.0
 10
26.64402696265632
 20
1.905332546062602
 30
0.0
 10
27.55926692263396
 20
1.453702934930348
 30
0.0
 10
28.47353077822854
 20
0.9646323987904742
 30
0.0
 10
29.38967428396418
 20
0.4476275928605505
 30
0.0
 10
30.30278692183796
 20
-0.0821475046337687
 30
0.0
 10
31.21944912608787
 20
-0.6082893085163167
 30
0.0
 10
32.13297354249146
 20
-1.118299655847791
 30
0.0
 10
33.04838288818424
 20
-1.598679849969799
 30
0.0
 10
33.96302085814099
 20
-2.032093239622621
 30
0.0
 10
34.87828982454347
 20
-2.412205093357158
 30
0.0
 10
35.7176628633374
 20
-2.699022690866754
 30
0.0
 10
36.48369437832536
 20
-2.90404754528463
 30
0.0
 10
37.2408498990558
 20
-3.061533970489832
 30
0.0
 10
37.76799982011544
 20
-3.123557208794216
 30
0.0
 10
38.067
 20
-3.1750000000001
 30
0.0
  0
LINE
  5
C0
330
1F
100
AcDbEntity
  8
외형선
  6
Continuous
 62
     1
370
    15
100
AcDbLine
 10
38.57500000000001
 20
2.222500000000004
 30
0.0
 11
37.39343621617805
 21
2.168308642817744
 31
0.0
  0
SPLINE
  5
C1
330
1F
100
AcDbEntity
  8
외형선
  6
Continuous
 62
     1
370
    15
100
AcDbSpline
210
0.0
220
0.0
230
1.0
 70
     8
 71
     3
 72
    10
 73
     6
 74
     0
 42
0.000000001
 43
0.00000001
 40
0.0
 40
0.0
 40
0.0
 40
0.0
 40
0.3430291161424058
 40
0.671328496903394
 40
1.0
 40
1.0
 40
1.0
 40
1.0
 10
13.41500548285714
 20
-0.3036468466580191
 30
0.0
 10
13.02454061583928
 20
-0.1462101935215862
 30
0.0
 10
12.26037751733465
 20
0.1619027529715781
 30
0.0
 10
11.12211868697375
 20
0.6201823907992019
 30
0.0
 10
10.37418077832482
 20
0.8956429071075896
 30
0.0
 10
10.00000000000002
 20
1.033451178620684
 30
0.0
  0
SPLINE
  5
C2
330
1F
100
AcDbEntity
  8
외형선
  6
Continuous
370
    15
100
AcDbSpline
210
0.0
220
0.0
230
1.0
 70
    24
 71
     3
 72
    10
 73
     6
 74
     0
 42
0.000000001
 43
0.00000001
 40
0.0
 40
0.0
 40
0.0
 40
0.0
 40
0.5
 40
0.5
 40
1.0
 40
1.0
 40
1.0
 40
1.0
 10
10.0
 20
1.590653006593688
 30
0.0
 10
10.0
 20
1.552734751178414
 30
0.0
 10
10.0
 20
1.48173493593141
 30
0.0
 10
10.0
 20
1.287487911284547
 30
0.0
 10
10.0
 20
1.164957879069925
 30
0.0
 10
10.0
 20
1.033451178620688
 30
0.0
  0
SPLINE
  5
C3
330
1F
100
AcDbEntity
  8
외형선
  6
Continuous
 62
     1
370
    15
100
AcDbSpline
210
0.0
220
0.0
230
1.0
 70
     8
 71
     3
 72
    20
 73
    16
 74
     0
 42
0.000000001
 43
0.00000001
 40
0.0
 40
0.0
 40
0.0
 40
0.0
 40
0.0865201300961799
 40
0.1737570913461385
 40
0.2530268257139325
 40
0.3328448673541262
 40
0.4119646453113365
 40
0.4916327003012602
 40
0.570752443160789
 40
0.6504209070570587
 40
0.7295402769513546
 40
0.8092052973211477
 40
0.8883250180721586
 40
0.9679904751342429
 40
1.0
 40
1.0
 40
1.0
 40
1.0
 10
10.0
 20
1.590653006593689
 30
0.0
 10
10.33254547266921
 20
1.419784285404955
 30
0.0
 10
11.00039160289457
 20
1.076631172218644
 30
0.0
 10
11.97230386134621
 20
0.527649135681027
 30
0.0
 10
12.91800614179596
 20
-0.0191249811811886
 30
0.0
 10
13.8339446240801
 20
-0.5459218374334417
 30
0.0
 10
14.75001133029256
 20
-1.060585415814738
 30
0.0
 10
15.66377702397551
 20
-1.543848674992641
 30
0.0
 10
16.58051149016825
 20
-1.984301804293849
 30
0.0
 10
17.49371199564196
 20
-2.371062263791069
 30
0.0
 10
18.41007065689081
 20
-2.691293396280924
 30
0.0
 10
19.32425645089901
 20
-2.938422880592066
 30
0.0
 10
20.23951431633706
 20
-3.099849924880477
 30
0.0
 10
20.9731495186575
 20
-3.176119006105211
 30
0.0
 10
21.40205011714107
 20
-3.167077378753177
 30
0.0
 10
21.52498637497694
 20
-3.164485767001328
 30
0.0
  0
SPLINE
  5
C4
330
1F
100
AcDbEntity
  8
외형선
  6
Continuous
 62
     1
370
    15
100
AcDbSpline
210
0.0
220
0.0
230
1.0
 70
     8
 71
     3
 72
    12
 73
     8
 74
     0
 42
0.000000001
 43
0.00000001
 40
0.0
 40
0.0
 40
0.0
 40
0.0
 40
0.1708099262059025
 40
0.4093801357092827
 40
0.5882715558603888
 40
0.7678677255045433
 40
1.0
 40
1.0
 40
1.0
 40
1.0
 10
34.21921848881194
 20
2.128983038094155
 30
0.0
 10
34.43823510741064
 20
2.222156561303798
 30
0.0
 10
34.96315221870567
 20
2.445465536509932
 30
0.0
 10
35.71765131074852
 20
2.698074340850338
 30
0.0
 10
36.48369706844834
 20
2.904268377012976
 30
0.0
 10
37.24084899137547
 20
3.061459459170551
 30
0.0
 10
37.76515220854587
 20
3.142280634491557
 30
0.0
 10
38.06700000000001
 20
3.175000000000119
 30
0.0
  0
SPLINE
  5
C6
330
1F
100
AcDbEntity
  8
외형선
  6
Continuous
 62
     1
370
    15
100
AcDbSpline
210
0.0
220
0.0
230
1.0
 70
    24
 71
     3
 72
     8
 73
     4
 74
     0
 42
0.000000001
 43
0.00000001
 40
0.0
 40
0.0
 40
0.0
 40
0.0
 40
1.0
 40
1.0
 40
1.0
 40
1.0
 10
38.57500000000001
 20
2.222500000000004
 30
0.0
 10
38.57500000000001
 20
2.352971081309029
 30
0.0
 10
38.57500000000001
 20
2.503876629904787
 30
0.0
 10
38.57500000000001
 20
2.667000000000123
 30
0.0
  0
SPLINE
  5
C7
330
1F
100
AcDbEntity
  8
외형선
  6
Continuous
 62
     1
370
    15
100
AcDbSpline
210
0.0
220
0.0
230
1.0
 70
     8
 71
     3
 72
     8
 73
     4
 74
     0
 42
0.000000001
 43
0.00000001
 40
0.0
 40
0.0
 40
0.0
 40
0.0
 40
1.0
 40
1.0
 40
1.0
 40
1.0
 10
38.57500000000001
 20
-0.8484963536441146
 30
0.0
 10
38.09992325518358
 20
-0.4750038811930158
 30
0.0
 10
37.63657491095472
 20
-0.0813433057310329
 30
0.0
 10
37.18623646476653
 20
0.3346890297926803
 30
0.0
  0
LINE
  5
C8
330
1F
100
AcDbEntity
  8
외형선
  6
Continuous
 62
     1
370
    15
100
AcDbLine
 10
37.52358107100641
 20
0.6177547644686573
 30
0.0
 11
38.57500000000001
 21
0.0000000000000076
 31
0.0
  0
LINE
  5
C9
330
1F
100
AcDbEntity
  8
외형선
  6
Continuous
 62
     1
370
    15
100
AcDbLine
 10
38.57500000000001
 20
0.0000000000000076
 30
0.0
 11
38.57500000000001
 21
-0.8484963536441148
 31
0.0
  0
SPLINE
  5
CA
330
1F
100
AcDbEntity
  8
외형선
  6
Continuous
 62
     1
370
    15
100
AcDbSpline
210
0.0
220
0.0
230
1.0
 70
     8
 71
     3
 72
     8
 73
     4
 74
     0
 42
0.000000001
 43
0.00000001
 40
0.0
 40
0.0
 40
0.0
 40
0.0
 40
0.000160049027068
 40
0.000160049027068
 40
0.000160049027068
 40
0.000160049027068
 10
38.57400684166982
 20
-2.50480451159721
 30
0.0
 10
38.57469229778081
 20
-2.475210361108525
 30
0.0
 10
38.57500000000001
 20
-2.44462376109101
 30
0.0
 10
38.57500000000001
 20
-2.413082253047683
 30
0.0
1001
PE_URL
1000

  0
SPLINE
  5
CB
330
1F
100
AcDbEntity
  8
외형선
  6
Continuous
 62
     1
370
    15
100
AcDbSpline
210
0.0
220
0.0
230
1.0
 70
     8
 71
     3
 72
    14
 73
    10
 74
     0
 42
0.000000001
 43
0.00000001
 40
0.0
 40
0.0
 40
0.0
 40
0.0
 40
0.1604696358349121
 40
0.3209091765592799
 40
0.4752287214127247
 40
0.6295526221774215
 40
0.7839156329194735
 40
0.9383522925684614
 40
1.0
 40
1.0
 40
1.0
 40
1.0
 10
37.41873067762791
 20
0.5297748380559676
 30
0.0
 10
36.98432146400042
 20
0.7231271320336546
 30
0.0
 10
36.11558450756849
 20
1.109795457934647
 30
0.0
 10
34.82910208929101
 20
1.613534651730149
 30
0.0
 10
33.55938552414081
 20
2.025758439552998
 30
0.0
 10
32.30608929788917
 20
2.329411927720502
 30
0.0
 10
31.05243371453062
 20
2.504574633572687
 30
0.0
 10
30.04960368692933
 20
2.565077599818633
 30
0.0
 10
29.46457818525705
 20
2.520018852686966
 30
0.0
 10
29.29767355696601
 20
2.507163834538571
 30
0.0
  0
SPLINE
  5
CC
330
1F
100
AcDbEntity
  8
외형선
  6
Continuous
 62
     1
370
    15
100
AcDbSpline
210
0.0
220
0.0
230
1.0
 70
     8
 71
     3
 72
    11
 73
     7
 74
     0
 42
0.000000001
 43
0.00000001
 40
0.0
 40
0.0
 40
0.0
 40
0.0
 40
0.2357358269874563
 40
0.5096724293025293
 40
0.7547009508194876
 40
1.0
 40
1.0
 40
1.0
 40
1.0
 10
14.57549523167789
 20
-2.379935148570252
 30
0.0
 10
14.21598261799958
 20
-2.430909894527706
 30
0.0
 10
13.43869870015
 20
-2.541119797439908
 30
0.0
 10
12.28768578562134
 20
-2.550839641039897
 30
0.0
 10
11.1221340036323
 20
-2.462761537299683
 30
0.0
 10
10.37418222329935
 20
-2.320077368672136
 30
0.0
 10
10.00000000000001
 20
-2.248695922901785
 30
0.0
  0
SPLINE
  5
CD
330
1F
100
AcDbEntity
  8
외형선
  6
Continuous
 62
     1
370
    15
100
AcDbSpline
210
0.0
220
0.0
230
1.0
 70
    24
 71
     3
 72
     8
 73
     4
 74
     0
 42
0.000000001
 43
0.00000001
 40
0.0
 40
0.0
 40
0.0
 40
0.0
 40
1.0
 40
1.0
 40
1.0
 40
1.0
 10
37.41873067762791
 20
0.5297748380559704
 30
0.0
 10
37.34123158405604
 20
0.464745377223244
 30
0.0
 10
37.26373352345886
 20
0.3997167831591888
 30
0.0
 10
37.18623646475989
 20
0.3346890297875617
 30
0.0
  0
SPLINE
  5
CE
330
1F
100
AcDbEntity
  8
외형선
  6
Continuous
 62
     1
370
    15
100
AcDbSpline
210
0.0
220
0.0
230
1.0
 70
    24
 71
     3
 72
    10
 73
     6
 74
     0
 42
0.000000001
 43
0.00000001
 40
0.0
 40
0.0
 40
0.0
 40
0.0
 40
0.5
 40
0.5
 40
1.0
 40
1.0
 40
1.0
 40
1.0
 10
38.57500000000001
 20
-2.413082253047667
 30
0.0
 10
38.57500000000001
 20
-2.221900568292032
 30
0.0
 10
38.57500000000001
 20
-1.988381393347876
 30
0.0
 10
38.57500000000001
 20
-1.456952539924554
 30
0.0
 10
38.57500000000001
 20
-1.159404431486294
 30
0.0
 10
38.57500000000001
 20
-0.8484963536442167
 30
0.0
  0
SPLINE
  5
CF
330
1F
100
AcDbEntity
  8
외형선
  6
Continuous
370
    15
100
AcDbSpline
210
0.0
220
0.0
230
1.0
 70
    24
 71
     3
 72
    10
 73
     6
 74
     0
 42
0.000000001
 43
0.00000001
 40
0.0
 40
0.0
 40
0.0
 40
0.0
 40
0.3092743475504974
 40
0.6226068859794563
 40
1.0
 40
1.0
 40
1.0
 40
1.0
 10
10.00000000000001
 20
-2.248695922901785
 30
0.0
 10
10.00000000000001
 20
-2.291792456748694
 30
0.0
 10
10.0
 20
-2.378551022234154
 30
0.0
 10
10.0
 20
-2.46450254560002
 30
0.0
 10
10.0
 20
-2.47163126557548
 30
0.0
 10
10.0
 20
-2.475526198130799
 30
0.0
  0
SPLINE
  5
D0
330
1F
100
AcDbEntity
  8
외형선
  6
Continuous
 62
     1
370
    15
100
AcDbSpline
210
0.0
220
0.0
230
1.0
 70
     8
 71
     3
 72
    24
 73
    20
 74
     0
 42
0.000000001
 43
0.00000001
 40
0.0
 40
0.0
 40
0.0
 40
0.0
 40
0.0405182333758205
 40
0.10375512669741
 40
0.167032739662714
 40
0.230289935585413
 40
0.2935099702660889
 40
0.3567069132981964
 40
0.4198949611210999
 40
0.4830883591485227
 40
0.5463013233301227
 40
0.6095479620542273
 40
0.6728285423690605
 40
0.7360751246862138
 40
0.7992880519211483
 40
0.8624814326650144
 40
0.9256694829626168
 40
0.9888664482140452
 40
1.0
 40
1.0
 40
1.0
 40
1.0
 10
31.85621234720318
 20
-2.372579146927615
 30
0.0
 10
31.58835167424892
 20
-2.415625891683197
 30
0.0
 10
30.90244027722815
 20
-2.525855782868228
 30
0.0
 10
29.79813924455255
 20
-2.558114301877755
 30
0.0
 10
28.54334496293451
 20
-2.481186138122367
 30
0.0
 10
27.28875517783611
 20
-2.27073209948908
 30
0.0
 10
26.03480747629952
 20
-1.944055284200486
 30
0.0
 10
24.78137490359385
 20
-1.516434175551587
 30
0.0
 10
23.5281425463932
 20
-1.010448559930473
 30
0.0
 10
22.27479044429697
 20
-0.4521215843606053
 30
0.0
 10
21.02099759257401
 20
0.1296625640822728
 30
0.0
 10
19.76654660846662
 20
0.7048349041592502
 30
0.0
 10
18.51172239826591
 20
1.243258030919491
 30
0.0
 10
17.25727222242936
 20
1.717713738874898
 30
0.0
 10
16.00348022679449
 20
2.102412763725082
 30
0.0
 10
14.75012836081755
 20
2.381022960315748
 30
0.0
 10
13.49689652733026
 20
2.526042393210254
 30
0.0
 10
12.58779321074459
 20
2.564424364382279
 30
0.0
 10
12.0964004073115
 20
2.521161149270912
 30
0.0
 10
12.02279743181334
 20
2.514680994617513
 30
0.0
  0
SPLINE
  5
D1
330
1F
100
AcDbEntity
  8
외형선
  6
Continuous
370
    15
100
AcDbSpline
210
0.0
220
0.0
230
1.0
 70
    24
 71
     3
 72
    10
 73
     6
 74
     0
 42
0.000000001
 43
0.00000001
 40
0.0
 40
0.0
 40
0.0
 40
0.0
 40
0.1001143461529751
 40
0.7157804607897158
 40
1.0
 40
1.0
 40
1.0
 40
1.0
 10
10.0
 20
2.475544895949797
 30
0.0
 10
10.0
 20
2.477677500614275
 30
0.0
 10
10.0
 20
2.492924833370066
 30
0.0
 10
10.0
 20
2.449085156413107
 30
0.0
 10
10.0
 20
2.366245609468576
 30
0.0
 10
10.0
 20
2.340081598785318
 30
0.0
  0
SPLINE
  5
D2
330
1F
100
AcDbEntity
  8
외형선
  6
Continuous
 62
     1
370
    15
100
AcDbSpline
210
0.0
220
0.0
230
1.0
 70
    24
 71
     3
 72
    10
 73
     6
 74
     0
 42
0.000000001
 43
0.00000001
 40
0.0
 40
0.0
 40
0.0
 40
0.0
 40
0.5
 40
0.5
 40
1.0
 40
1.0
 40
1.0
 40
1.0
 10
38.57500000000001
 20
1.499999999997708
 30
0.0
 10
38.57500000000001
 20
1.681161257549194
 30
0.0
 10
38.57500000000001
 20
1.834868597517473
 30
0.0
 10
38.57500000000002
 20
2.077169582715882
 30
0.0
 10
38.57500000000001
 20
2.165782276926214
 30
0.0
 10
38.57500000000001
 20
2.222500000000004
 30
0.0
  0
SPLINE
  5
D3
330
1F
100
AcDbEntity
  8
외형선
  6
Continuous
 62
     1
370
    15
100
AcDbSpline
210
0.0
220
0.0
230
1.0
 70
    24
 71
     3
 72
     8
 73
     4
 74
     0
 42
0.000000001
 43
0.00000001
 40
0.0
 40
0.0
 40
0.0
 40
0.0
 40
1.0
 40
1.0
 40
1.0
 40
1.0
 10
38.57500000000001
 20
1.500000000000006
 30
0.0
 10
38.21612387580975
 20
1.198867176553625
 30
0.0
 10
37.82586612946892
 20
0.8714020455352832
 30
0.0
 10
37.41873067762786
 20
0.5297748380562455
 30
0.0
  0
SPLINE
  5
D4
330
1F
100
AcDbEntity
  8
외형선
  6
Continuous
370
    15
100
AcDbSpline
210
0.0
220
0.0
230
1.0
 70
    24
 71
     3
 72
    14
 73
    10
 74
     0
 42
0.000000001
 43
0.00000001
 40
0.0
 40
0.0
 40
0.0
 40
0.0
 40
0.25
 40
0.25
 40
0.4999999999999999
 40
0.4999999999999999
 40
0.75
 40
0.75
 40
1.0
 40
1.0
 40
1.0
 40
1.0
 10
10.0
 20
1.033451178620691
 30
0.0
 10
10.0
 20
0.7623168604209235
 30
0.0
 10
10.0
 20
0.4733104625554956
 30
0.0
 10
10.0
 20
-0.1166157411594725
 30
0.0
 10
10.0
 20
-0.4172719273188001
 30
0.0
 10
10.0
 20
-1.000604095203746
 30
0.0
 10
10.0
 20
-1.282969253162234
 30
0.0
 10
10.0
 20
-1.8032007294826
 30
0.0
 10
10.0
 20
-2.040901318159444
 30
0.0
 10
10.0
 20
-2.248695922901784
 30
0.0
  0
LINE
  5
D5
330
1F
100
AcDbEntity
  8
외형선
  6
Continuous
 62
     1
370
    15
100
AcDbLine
 10
38.57500000000001
 20
-2.413082253047667
 30
0.0
 11
38.575
 21
-2.667000000000108
 31
0.0
1001
PE_URL
1000

  0
LINE
  5
D6
330
1F
100
AcDbEntity
  8
외형선
  6
Continuous
 62
     1
370
    15
100
AcDbLine
 10
38.57500000000001
 20
0.0000000000000076
 30
0.0
 11
38.57500000000001
 21
1.500000000000008
 31
0.0
  0
LINE
  5
D7
330
1F
100
AcDbEntity
  8
중심선
 62
     1
100
AcDbLine
 10
-40.625
 20
0.0
 30
0.0
 11
41.57500000000001
 21
0.0
 31
0.0
  0
LINE
  5
D8
330
1F
100
AcDbEntity
  8
참조1
100
AcDbLine
 10
0.47500000000001
 20
0.0
 30
0.0
 11
0.4750000000000149
 21
-40.0
 31
0.0
  0
LINE
  5
D9
330
1F
100
AcDbEntity
  8
참조1
100
AcDbLine
 10
0.4750000000000149
 20
-40.0
 30
0.0
 11
-14.66672777521595
 21
-39.99999999999999
 31
0.0
  0
CIRCLE
  5
DA
330
1F
100
AcDbEntity
  8
해칭선
100
AcDbCircle
 10
0.0
 20
0.0
 30
0.0
 40
3.000000000000001
  0
INSERT
  5
DB
330
1F
100
AcDbEntity
  8
0
  6
Continuous
 62
     7
100
AcDbBlockReference
 66
     1
  2
블럭10
 10
-13.4652729321252
 20
-52.04717430164393
 30
0.0
  0
ATTRIB
  5
DC
330
DB
100
AcDbEntity
  8
FORMAT
 62
     2
100
AcDbText
 10
-23.60690894426183
 20
-49.97180738881174
 30
0.0
 40
4.233333333333333
  1
EM211016 [ 2 FLUTE ]
 41
0.75
  7
SLDTEXTSTYLE0
 11
-23.60690894426183
 21
-52.08847405547841
 31
0.0
100
AcDbAttribute
  2
AUTOATTR0
 70
     0
 74
     1
  0
SEQEND
  5
DD
330
DB
100
AcDbEntity
  8
0
  6
Continuous
 62
     7
  0
HATCH
  5
DE
330
1F
100
AcDbEntity
  8
중심선
100
AcDbHatch
 10
0.0
 20
0.0
 30
0.0
210
0.0
220
0.0
230
1.0
  2
SOLID
 70
     1
 71
     0
 91
        1
 92
        0
 93
        4
 72
     1
 10
-7.750363627744346
 20
-35.79999999999999
 11
-11.19663887158163
 21
-35.79999999999999
 72
     1
 10
-11.19663887158163
 20
-35.79999999999999
 11
-13.32486873078565
 21
-38.33632558057259
 72
     1
 10
-13.32486873078565
 20
-38.33632558057259
 11
-9.87856040183522
 21
-38.33628615127009
 72
     1
 10
-9.87856040183522
 20
-38.33628615127009
 11
-7.750363627744346
 21
-35.79999999999999
 97
        0
 75
     0
 76
     1
 98
        1
 10
-0.0000000000000071
 20
-0.0010749287238892
  0
HATCH
  5
DF
330
1F
100
AcDbEntity
  8
중심선
100
AcDbHatch
 10
0.0
 20
0.0
 30
0.0
210
0.0
220
0.0
230
1.0
  2
SOLID
 70
     1
 71
     0
 91
        1
 92
        0
 93
        4
 72
     1
 10
-2.737599636708395
 20
-35.79999999999999
 11
-6.183874880545649
 21
-35.79999999999999
 72
     1
 10
-6.183874880545649
 20
-35.79999999999999
 11
-10.71501288890307
 21
-41.20000000000001
 72
     1
 10
-10.71501288890307
 20
-41.20000000000001
 11
-7.268737645065783
 21
-41.20000000000001
 72
     1
 10
-7.268737645065783
 20
-41.20000000000001
 11
-2.737599636708395
 21
-35.79999999999999
 97
        0
 75
     0
 76
     1
 98
        1
 10
-0.0000000000000071
 20
-0.0010749287238892
  0
HATCH
  5
E0
330
1F
100
AcDbEntity
  8
중심선
100
AcDbHatch
 10
0.0
 20
0.0
 30
0.0
210
0.0
220
0.0
230
1.0
  2
SOLID
 70
     1
 71
     0
 91
        1
 92
        0
 93
        4
 72
     1
 10
2.275164354327501
 20
-35.79999999999999
 11
-1.171110889509587
 21
-35.79999999999999
 72
     1
 10
-1.171110889509587
 20
-35.79999999999999
 11
-8.219547791398863
 21
-44.20000000000001
 72
     1
 10
-8.219547791398863
 20
-44.20000000000001
 11
-4.773272547561581
 21
-44.20000000000001
 72
     1
 10
-4.773272547561581
 20
-44.20000000000001
 11
2.275164354327501
 21
-35.79999999999999
 97
        0
 75
     0
 76
     1
 98
        1
 10
-0.0000000000000071
 20
-0.0010749287238892
  0
HATCH
  5
E1
330
1F
100
AcDbEntity
  8
중심선
100
AcDbHatch
 10
0.0
 20
0.0
 30
0.0
210
0.0
220
0.0
230
1.0
  2
SOLID
 70
     1
 71
     0
 91
        1
 92
        0
 93
        6
 72
     3
 10
7.075054785339701
 20
-40.00000000005127
 11
3.960054785062285
 21
1.540882976769353E-10
 40
0.3939339440162626
 50
17.09539180608438
 51
320.0019657685079
 73
     0
 72
     1
 10
8.758054441040295
 20
-38.5878940046383
 11
11.06335631474136
 21
-36.65356729459038
 72
     3
 10
7.075054785286854
 20
-40.00000000000014
 11
6.600054785286829
 21
-1.278976924368180E-13
 40
0.636358354079598
 50
39.99873849337385
 51
368.4976242363725
 73
     1
 72
     1
 10
13.50038727718746
 20
-39.03999999993002
 11
5.755122092122776
 21
-39.03999999992999
 72
     1
 10
5.755122092122776
 20
-39.03999999992999
 11
5.755097047676842
 21
-40.95999999992991
 72
     1
 10
5.755097047676842
 20
-40.95999999992991
 11
10.19647681714888
 21
-40.95999999992988
 97
        0
 75
     0
 76
     1
 98
        1
 10
-0.0000000000000071
 20
-0.0010749287238892
  0
DIMENSION
  5
E2
330
1F
100
AcDbEntity
  8
치수문자_일반주서
100
AcDbDimension
  2
_D
 10
-47.62542250882215
 20
-3.175000000000047
 30
0.0
 11
-47.62542250882224
 21
22.46649999999998
 31
0.0
 70
   160
  1
%%c<>
 71
     2
 42
6.350000000000024
 52
-270.0
  3
SLDDIMSTYLE0
100
AcDbAlignedDimension
 13
-37.625
 23
3.175000000000014
 33
0.0
 14
-37.61701352330508
 24
-3.175000000000009
 34
0.0
 50
90.0000000000002
100
AcDbRotatedDimension
1001
PE_URL
1000

1001
ACAD
1000
DSTYLE
1002
{
1070
   171
1070
     6
1070
   273
1070
     7
1002
}
  0
DIMENSION
  5
F7
330
1F
100
AcDbEntity
  8
치수문자_일반주서
100
AcDbDimension
  2
_D_1
 10
48.57500000000002
 20
-3.174999999999908
 30
0.0
 11
48.57499999999993
 21
22.46650000000015
 31
0.0
 70
   160
  1
%%c<>
 71
     2
 42
6.350000000000062
 52
-270.0
  3
SLDDIMSTYLE0
100
AcDbAlignedDimension
 13
38.57500000000001
 23
3.175000000000118
 33
0.0
 14
38.58141377549552
 24
-3.174999999999944
 34
0.0
 50
90.0000000000002
100
AcDbRotatedDimension
1001
ACAD
1000
DSTYLE
1002
{
1070
   171
1070
     6
1070
   273
1070
     7
1002
}
1001
PE_URL
1000

  0
DIMENSION
  5
10B
330
1F
100
AcDbEntity
  8
치수문자_일반주서
100
AcDbDimension
  2
_D_2
 10
10.0
 20
22.07033037798316
 30
0.0
 11
-11.479
 21
22.07033037798316
 31
0.0
 70
   160
  1
<>
 71
     2
 42
28.57500000000001
  3
SLDDIMSTYLE0
100
AcDbAlignedDimension
 13
38.57500000000001
 23
3.175000000000118
 33
0.0
 14
10.0
 24
3.175000000000018
 34
0.0
100
AcDbRotatedDimension
1001
PE_URL
1000

1001
ACAD
1000
DSTYLE
1002
{
1070
   171
1070
     6
1070
   273
1070
     7
1002
}
  0
DIMENSION
  5
120
330
1F
100
AcDbEntity
  8
치수문자_일반주서
100
AcDbDimension
  2
_D_3
 10
-37.62499999999999
 20
38.90965589824551
 30
0.0
 11
0.1321110371027103
 21
38.90965589824551
 31
0.0
 70
   160
  1
<>
 71
     2
 42
76.20000000000002
  3
SLDDIMSTYLE0
100
AcDbAlignedDimension
 13
38.57500000000001
 23
3.175000000000118
 33
0.0
 14
-37.625
 24
3.175000000000012
 34
0.0
 50
0.0000000000000053
100
AcDbRotatedDimension
1001
PE_URL
1000

1001
ACAD
1000
DSTYLE
1002
{
1070
   171
1070
     6
1070
   273
1070
     7
1002
}
  0
LINE
  5
134
330
1F
100
AcDbEntity
  8
참조1
100
AcDbLine
 10
83.30561285443832
 20
7.440000000000007
 30
0.0
 11
83.30561285443832
 21
-7.439999999999998
 31
0.0
  0
LINE
  5
135
330
1F
100
AcDbEntity
  8
참조1
100
AcDbLine
 10
96.00561285443831
 20
5.440000000000007
 30
0.0
 11
83.30561285443832
 21
5.440000000000007
 31
0.0
  0
SOLID
  5
136
330
1F
100
AcDbEntity
  8
참조1
100
AcDbTrace
 10
83.30561285443832
 20
5.440000000000007
 30
0.0
 11
89.65561285443832
 21
4.424000000000007
 31
0.0
 12
89.65561285443832
 22
6.456000000000008
 32
0.0
 13
89.65561285443832
 23
6.456000000000008
 33
0.0
  0
LINE
  5
137
330
1F
100
AcDbEntity
  8
참조1
100
AcDbLine
 10
96.00561285443831
 20
-5.439999999999998
 30
0.0
 11
83.30561285443832
 21
-5.439999999999998
 31
0.0
  0
SOLID
  5
138
330
1F
100
AcDbEntity
  8
참조1
100
AcDbTrace
 10
83.30561285443832
 20
-5.439999999999998
 30
0.0
 11
89.65561285443832
 21
-6.455999999999998
 31
0.0
 12
89.65561285443832
 22
-4.423999999999998
 32
0.0
 13
89.65561285443832
 23
-4.423999999999998
 33
0.0
  0
MTEXT
  5
139
330
1F
100
AcDbEntity
  8
참조1
100
AcDbMText
 10
92.70310294690859
 20
10.98821664464994
 30
0.0
 40
3.5
 41
0.0
 71
     1
 72
     1
  1
A
  7
SLDTEXTSTYLE0
 73
     1
 44
1.0
  0
MTEXT
  5
13A
330
1F
100
AcDbEntity
  8
참조1
100
AcDbMText
 10
92.70310294690859
 20
0.1082166446499359
 30
0.0
 40
3.5
 41
0.0
 71
     1
 72
     1
  1
A
  7
SLDTEXTSTYLE0
 73
     1
 44
1.0
  0
INSERT
  5
141
330
1F
100
AcDbEntity
  8
해칭선
100
AcDbBlockReference
  2
SW_DOWELSYMBOL_0
 10
0.0
 20
0.0
 30
0.0
  0
ARC
  5
199
330
1F
100
AcDbEntity
  8
외형선
  6
Continuous
 62
     1
370
    15
100
AcDbCircle
 10
38.06700000000001
 20
2.667000000000119
 30
0.0
 40
0.5079999999999998
100
AcDbArc
 50
0.0000000000004007
 51
90.0
1001
PE_URL
1000

  0
ARC
  5
19A
330
1F
100
AcDbEntity
  8
외형선
  6
Continuous
 62
     1
370
    15
100
AcDbCircle
 10
38.067
 20
-2.667000000000102
 30
0.0
 40
0.5079999999999998
100
AcDbArc
 50
270.0
 51
359.9999999999993
1001
PE_URL
1000

  0
MTEXT
  5
1C3
102
{ACAD_REACTORS
330
1C4
102
}
330
1F
100
AcDbEntity
  8
0
100
AcDbMText
 10
48.75040630891164
 20
-17.45438376833056
 30
0.0
 40
3.5
 41
0.0
 71
     7
 72
     1
  1
{R0.51[.020"]}
 73
     1
 44
1.0
1001
ACAD
1000
ACAD_MTEXT_DEFINED_HEIGHT_BEGIN
1070
    46
1040
3.5
1000
ACAD_MTEXT_DEFINED_HEIGHT_END
  0
LEADER
  5
1C4
102
{ACAD_XDICTIONARY
360
1C5
102
}
330
1F
100
AcDbEntity
  8
0
100
AcDbLeader
  3
ISO-25
 73
     0
 74
     0
 75
     1
 40
3.5
 41
29.75
 76
     3
 10
38.31969312720689
 20
-3.107692844805189
 30
0.0
 10
43.92440630891164
 20
-15.70438376833056
 30
0.0
 10
47.22640630891164
 20
-15.70438376833056
 30
0.0
340
1C3
213
0.0
223
1.75
233
0.0
1001
ACAD
1000
DSTYLE
1002
{
1070
    77
1070
     0
1070
   179
1070
     2
1070
   143
1040
0.0393700787401575
1070
    41
1040
3.302
1070
    44
1040
1.0
1070
    42
1040
1.0
1070
   147
1040
1.524
1070
    73
1070
     1
1070
    74
1070
     1
1070
   140
1040
3.5
1070
   284
1070
     0
1070
    78
1070
     0
1002
}
  0
ENDSEC
  0
SECTION
  2
OBJECTS
  0
DICTIONARY
  5
C
330
0
100
AcDbDictionary
281
     1
  3
ACAD_DETAILVIEWSTYLE
350
191
  3
ACAD_GROUP
350
D
  3
ACAD_LAYOUT
350
1A
  3
ACAD_MLINESTYLE
350
17
  3
ACAD_PLOTSETTINGS
350
19
  3
ACAD_PLOTSTYLENAME
350
E
  3
ACAD_SCALELIST
350
47
  3
ACAD_SECTIONVIEWSTYLE
350
192
  3
AcDbVariableDictionary
350
18C
  3
APPDATA
350
163
  3
DWGPROPS
350
1E9
  0
DICTIONARY
  5
1C5
330
1C4
100
AcDbDictionary
280
     1
281
     1
  0
DICTIONARY
  5
191
102
{ACAD_REACTORS
330
C
102
}
330
C
100
AcDbDictionary
281
     1
  0
DICTIONARY
  5
D
102
{ACAD_REACTORS
330
C
102
}
330
C
100
AcDbDictionary
281
     1
  0
DICTIONARY
  5
1A
102
{ACAD_REACTORS
330
C
102
}
330
C
100
AcDbDictionary
281
     1
  3
Layout1
350
1E
  3
Layout2
350
26
  3
Model
350
22
  0
DICTIONARY
  5
17
102
{ACAD_REACTORS
330
C
102
}
330
C
100
AcDbDictionary
281
     1
  3
Standard
350
18
  0
DICTIONARY
  5
19
102
{ACAD_REACTORS
330
C
102
}
330
C
100
AcDbDictionary
281
     1
  0
ACDBDICTIONARYWDFLT
  5
E
102
{ACAD_REACTORS
330
C
102
}
330
C
100
AcDbDictionary
281
     1
  3
Normal
350
F
100
AcDbDictionaryWithDefault
340
F
  0
DICTIONARY
  5
47
102
{ACAD_REACTORS
330
C
102
}
330
C
100
AcDbDictionary
281
     1
  3
A0
350
48
  3
A1
350
49
  3
A2
350
4A
  3
A3
350
4B
  3
A4
350
4C
  3
A5
350
4D
  3
A6
350
4E
  3
A7
350
4F
  3
A8
350
50
  3
A9
350
51
  3
B0
350
52
  3
B1
350
53
  3
B2
350
54
  3
B3
350
55
  3
B4
350
56
  3
B5
350
57
  3
B6
350
58
  3
B7
350
59
  3
B8
350
5A
  3
B9
350
5B
  3
C0
350
5C
  3
C1
350
5D
  3
C2
350
5E
  3
C3
350
5F
  3
C4
350
60
  3
C5
350
61
  3
C6
350
62
  3
C7
350
63
  3
C8
350
64
  3
C9
350
65
  3
D0
350
66
  3
D1
350
67
  3
D2
350
68
  0
DICTIONARY
  5
192
102
{ACAD_REACTORS
330
C
102
}
330
C
100
AcDbDictionary
281
     1
  0
DICTIONARY
  5
18C
102
{ACAD_REACTORS
330
C
102
}
330
C
100
AcDbDictionary
281
     1
  0
DICTIONARY
  5
163
102
{ACAD_REACTORS
330
C
102
}
330
C
100
AcDbDictionary
281
     1
  0
XRECORD
  5
1E9
102
{ACAD_REACTORS
330
C
102
}
330
C
100
AcDbXrecord
280
     1
  1
DWGPROPS COOKIE
  2

  3

  4

  6

  7

  8
USER
  9

300
=
301
=
302
=
303
=
304
=
305
=
306
=
307
=
308
=
309
=
 40
0.0
 41
2458288.272280579
 42
2458303.006187616
  1

 90
        0
  0
LAYOUT
  5
1E
102
{ACAD_REACTORS
330
1A
102
}
330
1A
100
AcDbPlotSettings
  1

  2
none_device
  4

  6

 40
0.0
 41
0.0
 42
0.0
 43
0.0
 44
0.0
 45
0.0
 46
0.0
 47
0.0
 48
0.0
 49
0.0
140
0.0
141
0.0
142
1.0
143
1.0
 70
   688
 72
     1
 73
     0
 74
     5
  7

 75
    16
147
1.0
148
0.0
149
0.0
100
AcDbLayout
  1
Layout1
 70
     1
 71
     1
 10
0.0
 20
0.0
 11
420.0
 21
297.0
 12
0.0
 22
0.0
 32
0.0
 14
1.000000000000000E+20
 24
1.000000000000000E+20
 34
1.000000000000000E+20
 15
-1.000000000000000E+20
 25
-1.000000000000000E+20
 35
-1.000000000000000E+20
146
0.0
 13
0.0
 23
0.0
 33
0.0
 16
1.0
 26
0.0
 36
0.0
 17
0.0
 27
1.0
 37
0.0
 76
     0
330
1B
  0
LAYOUT
  5
26
102
{ACAD_REACTORS
330
1A
102
}
330
1A
100
AcDbPlotSettings
  1

  2
none_device
  4

  6

 40
0.0
 41
0.0
 42
0.0
 43
0.0
 44
0.0
 45
0.0
 46
0.0
 47
0.0
 48
0.0
 49
0.0
140
0.0
141
0.0
142
1.0
143
1.0
 70
   688
 72
     1
 73
     0
 74
     5
  7

 75
    16
147
1.0
148
0.0
149
0.0
100
AcDbLayout
  1
Layout2
 70
     1
 71
     2
 10
0.0
 20
0.0
 11
0.0
 21
0.0
 12
0.0
 22
0.0
 32
0.0
 14
0.0
 24
0.0
 34
0.0
 15
0.0
 25
0.0
 35
0.0
146
0.0
 13
0.0
 23
0.0
 33
0.0
 16
1.0
 26
0.0
 36
0.0
 17
0.0
 27
1.0
 37
0.0
 76
     0
330
23
  0
LAYOUT
  5
22
102
{ACAD_REACTORS
330
1A
102
}
330
1A
100
AcDbPlotSettings
  1

  2
none_device
  4
ANSI_A_(11.00_x_8.50_Inches)
  6

 40
6.35
 41
19.05
 42
6.35000508
 43
19.05000254
 44
279.4
 45
215.9
 46
102.6304152698886
 47
101.8624946882648
 48
0.0
 49
0.0
140
0.0
141
0.0
142
0.0693129513144063
143
1.0
 70
  1696
 72
     0
 73
     0
 74
     0
  7

 75
     0
147
0.0235690232323232
148
0.0
149
0.0
100
AcDbLayout
  1
Model
 70
     1
 71
     0
 10
0.0
 20
0.0
 11
420.0
 21
297.0
 12
0.0
 22
0.0
 32
0.0
 14
-52.00042250882228
 24
-49.97180738881174
 34
0.0
 15
96.00561285443831
 25
43.28465589824551
 35
0.0
146
0.0
 13
0.0
 23
0.0
 33
0.0
 16
1.0
 26
0.0
 36
0.0
 17
0.0
 27
1.0
 37
0.0
 76
     0
330
1F
331
29
  0
MLINESTYLE
  5
18
102
{ACAD_REACTORS
330
17
102
}
330
17
100
AcDbMlineStyle
  2
Standard
 70
     0
  3

 62
   256
 51
90.0
 52
90.0
 71
     2
 49
0.5
 62
   256
  6
BYLAYER
 49
-0.5
 62
   256
  6
BYLAYER
  0
ACDBPLACEHOLDER
  5
F
102
{ACAD_REACTORS
330
E
102
}
330
E
  0
SCALE
  5
48
102
{ACAD_REACTORS
330
47
102
}
330
47
100
AcDbScale
 70
     0
300
1:1
140
1.0
141
1.0
290
     1
  0
SCALE
  5
49
102
{ACAD_REACTORS
330
47
102
}
330
47
100
AcDbScale
 70
     0
300
1:2
140
1.0
141
2.0
290
     0
  0
SCALE
  5
4A
102
{ACAD_REACTORS
330
47
102
}
330
47
100
AcDbScale
 70
     0
300
1:4
140
1.0
141
4.0
290
     0
  0
SCALE
  5
4B
102
{ACAD_REACTORS
330
47
102
}
330
47
100
AcDbScale
 70
     0
300
1:5
140
1.0
141
5.0
290
     0
  0
SCALE
  5
4C
102
{ACAD_REACTORS
330
47
102
}
330
47
100
AcDbScale
 70
     0
300
1:8
140
1.0
141
8.0
290
     0
  0
SCALE
  5
4D
102
{ACAD_REACTORS
330
47
102
}
330
47
100
AcDbScale
 70
     0
300
1:10
140
1.0
141
10.0
290
     0
  0
SCALE
  5
4E
102
{ACAD_REACTORS
330
47
102
}
330
47
100
AcDbScale
 70
     0
300
1:16
140
1.0
141
16.0
290
     0
  0
SCALE
  5
4F
102
{ACAD_REACTORS
330
47
102
}
330
47
100
AcDbScale
 70
     0
300
1:20
140
1.0
141
20.0
290
     0
  0
SCALE
  5
50
102
{ACAD_REACTORS
330
47
102
}
330
47
100
AcDbScale
 70
     0
300
1:30
140
1.0
141
30.0
290
     0
  0
SCALE
  5
51
102
{ACAD_REACTORS
330
47
102
}
330
47
100
AcDbScale
 70
     0
300
1:40
140
1.0
141
40.0
290
     0
  0
SCALE
  5
52
102
{ACAD_REACTORS
330
47
102
}
330
47
100
AcDbScale
 70
     0
300
1:50
140
1.0
141
50.0
290
     0
  0
SCALE
  5
53
102
{ACAD_REACTORS
330
47
102
}
330
47
100
AcDbScale
 70
     0
300
1:100
140
1.0
141
100.0
290
     0
  0
SCALE
  5
54
102
{ACAD_REACTORS
330
47
102
}
330
47
100
AcDbScale
 70
     0
300
2:1
140
2.0
141
1.0
290
     0
  0
SCALE
  5
55
102
{ACAD_REACTORS
330
47
102
}
330
47
100
AcDbScale
 70
     0
300
4:1
140
4.0
141
1.0
290
     0
  0
SCALE
  5
56
102
{ACAD_REACTORS
330
47
102
}
330
47
100
AcDbScale
 70
     0
300
8:1
140
8.0
141
1.0
290
     0
  0
SCALE
  5
57
102
{ACAD_REACTORS
330
47
102
}
330
47
100
AcDbScale
 70
     0
300
10:1
140
10.0
141
1.0
290
     0
  0
SCALE
  5
58
102
{ACAD_REACTORS
330
47
102
}
330
47
100
AcDbScale
 70
     0
300
100:1
140
100.0
141
1.0
290
     0
  0
SCALE
  5
59
102
{ACAD_REACTORS
330
47
102
}
330
47
100
AcDbScale
 70
     0
300
1/128" = 1'-0"
140
0.0078125
141
12.0
290
     0
  0
SCALE
  5
5A
102
{ACAD_REACTORS
330
47
102
}
330
47
100
AcDbScale
 70
     0
300
1/64" = 1'-0"
140
0.015625
141
12.0
290
     0
  0
SCALE
  5
5B
102
{ACAD_REACTORS
330
47
102
}
330
47
100
AcDbScale
 70
     0
300
1/32" = 1'-0"
140
0.03125
141
12.0
290
     0
  0
SCALE
  5
5C
102
{ACAD_REACTORS
330
47
102
}
330
47
100
AcDbScale
 70
     0
300
1/16" = 1'-0"
140
0.0625
141
12.0
290
     0
  0
SCALE
  5
5D
102
{ACAD_REACTORS
330
47
102
}
330
47
100
AcDbScale
 70
     0
300
3/32" = 1'-0"
140
0.09375
141
12.0
290
     0
  0
SCALE
  5
5E
102
{ACAD_REACTORS
330
47
102
}
330
47
100
AcDbScale
 70
     0
300
1/8" = 1'-0"
140
0.125
141
12.0
290
     0
  0
SCALE
  5
5F
102
{ACAD_REACTORS
330
47
102
}
330
47
100
AcDbScale
 70
     0
300
3/16" = 1'-0"
140
0.1875
141
12.0
290
     0
  0
SCALE
  5
60
102
{ACAD_REACTORS
330
47
102
}
330
47
100
AcDbScale
 70
     0
300
1/4" = 1'-0"
140
0.25
141
12.0
290
     0
  0
SCALE
  5
61
102
{ACAD_REACTORS
330
47
102
}
330
47
100
AcDbScale
 70
     0
300
3/8" = 1'-0"
140
0.375
141
12.0
290
     0
  0
SCALE
  5
62
102
{ACAD_REACTORS
330
47
102
}
330
47
100
AcDbScale
 70
     0
300
1/2" = 1'-0"
140
0.5
141
12.0
290
     0
  0
SCALE
  5
63
102
{ACAD_REACTORS
330
47
102
}
330
47
100
AcDbScale
 70
     0
300
3/4" = 1'-0"
140
0.75
141
12.0
290
     0
  0
SCALE
  5
64
102
{ACAD_REACTORS
330
47
102
}
330
47
100
AcDbScale
 70
     0
300
1" = 1'-0"
140
1.0
141
12.0
290
     0
  0
SCALE
  5
65
102
{ACAD_REACTORS
330
47
102
}
330
47
100
AcDbScale
 70
     0
300
1-1/2" = 1'-0"
140
1.5
141
12.0
290
     0
  0
SCALE
  5
66
102
{ACAD_REACTORS
330
47
102
}
330
47
100
AcDbScale
 70
     0
300
3" = 1'-0"
140
3.0
141
12.0
290
     0
  0
SCALE
  5
67
102
{ACAD_REACTORS
330
47
102
}
330
47
100
AcDbScale
 70
     0
300
6" = 1'-0"
140
6.0
141
12.0
290
     0
  0
SCALE
  5
68
102
{ACAD_REACTORS
330
47
102
}
330
47
100
AcDbScale
 70
     0
300
1'-0" = 1'-0"
140
12.0
141
12.0
290
     0
  0
ENDSEC
  0
EOF
