  0
SECTION
  2
HEADER
  9
$ACADVER
  1
AC1015
  9
$ACADMAINTVER
 70
     6
  9
$DWGCODEPAGE
  3
ANSI_949
  9
$INSBASE
 10
0.0
 20
0.0
 30
0.0
  9
$EXTMIN
 10
-49.90070365944356
 20
-49.97180738881174
 30
0.0
  9
$EXTMAX
 10
96.00561285443831
 20
42.61014140286156
 30
0.0
  9
$LIMMIN
 10
0.0
 20
0.0
  9
$LIMMAX
 10
420.0
 20
297.0
  9
$ORTHOMODE
 70
     0
  9
$REGENMODE
 70
     1
  9
$FILLMODE
 70
     1
  9
$QTEXTMODE
 70
     0
  9
$MIRRTEXT
 70
     1
  9
$LTSCALE
 40
1.0
  9
$ATTMODE
 70
     1
  9
$TEXTSIZE
 40
3.5
  9
$TRACEWID
 40
1.0
  9
$TEXTSTYLE
  7
Standard
  9
$CLAYER
  8
0
  9
$CELTYPE
  6
ByLayer
  9
$CECOLOR
 62
   256
  9
$CELTSCALE
 40
1.0
  9
$DISPSILH
 70
     0
  9
$DIMSCALE
 40
1.0
  9
$DIMASZ
 40
3.302
  9
$DIMEXO
 40
1.0
  9
$DIMDLI
 40
3.75
  9
$DIMRND
 40
0.0
  9
$DIMDLE
 40
0.0
  9
$DIMEXE
 40
1.0
  9
$DIMTP
 40
0.0
  9
$DIMTM
 40
0.0
  9
$DIMTXT
 40
3.5
  9
$DIMCEN
 40
2.5
  9
$DIMTSZ
 40
0.0
  9
$DIMTOL
 70
     0
  9
$DIMLIM
 70
     0
  9
$DIMTIH
 70
     1
  9
$DIMTOH
 70
     1
  9
$DIMSE1
 70
     0
  9
$DIMSE2
 70
     0
  9
$DIMTAD
 70
     1
  9
$DIMZIN
 70
     0
  9
$DIMBLK
  1

  9
$DIMASO
 70
     1
  9
$DIMSHO
 70
     1
  9
$DIMPOST
  1

  9
$DIMAPOST
  1

  9
$DIMALT
 70
     0
  9
$DIMALTD
 70
     3
  9
$DIMALTF
 40
0.0393700787401575
  9
$DIMLFAC
 40
1.0
  9
$DIMTOFL
 70
     1
  9
$DIMTVP
 40
0.0
  9
$DIMTIX
 70
     0
  9
$DIMSOXD
 70
     0
  9
$DIMSAH
 70
     0
  9
$DIMBLK1
  1

  9
$DIMBLK2
  1

  9
$DIMSTYLE
  2
ISO-25
  9
$DIMCLRD
 70
     0
  9
$DIMCLRE
 70
     0
  9
$DIMCLRT
 70
     0
  9
$DIMTFAC
 40
1.0
  9
$DIMGAP
 40
1.524
  9
$DIMJUST
 70
     0
  9
$DIMSD1
 70
     0
  9
$DIMSD2
 70
     0
  9
$DIMTOLJ
 70
     0
  9
$DIMTZIN
 70
     0
  9
$DIMALTZ
 70
     0
  9
$DIMALTTZ
 70
     0
  9
$DIMUPT
 70
     0
  9
$DIMDEC
 70
     2
  9
$DIMTDEC
 70
     2
  9
$DIMALTU
 70
     2
  9
$DIMALTTD
 70
     3
  9
$DIMTXSTY
  7
Standard
  9
$DIMAUNIT
 70
     0
  9
$DIMADEC
 70
     2
  9
$DIMALTRND
 40
0.0
  9
$DIMAZIN
 70
     0
  9
$DIMDSEP
 70
    44
  9
$DIMATFIT
 70
     3
  9
$DIMFRAC
 70
     0
  9
$DIMLDRBLK
  1

  9
$DIMLUNIT
 70
     2
  9
$DIMLWD
 70
    -2
  9
$DIMLWE
 70
    -2
  9
$DIMTMOVE
 70
     0
  9
$LUNITS
 70
     2
  9
$LUPREC
 70
     2
  9
$SKETCHINC
 40
1.0
  9
$FILLETRAD
 40
0.762
  9
$AUNITS
 70
     0
  9
$AUPREC
 70
     2
  9
$MENU
  1
.
  9
$ELEVATION
 40
0.0
  9
$PELEVATION
 40
0.0
  9
$THICKNESS
 40
0.0
  9
$LIMCHECK
 70
     0
  9
$CHAMFERA
 40
0.0
  9
$CHAMFERB
 40
0.0
  9
$CHAMFERC
 40
0.0
  9
$CHAMFERD
 40
0.0
  9
$SKPOLY
 70
     0
  9
$TDCREATE
 40
2458288.64803603
  9
$TDUCREATE
 40
2458288.27303603
  9
$TDUPDATE
 40
2458303.379392303
  9
$TDUUPDATE
 40
2458303.004392303
  9
$TDINDWG
 40
0.005475625
  9
$TDUSRTIMER
 40
0.0002880787
  9
$USRTIMER
 70
     1
  9
$ANGBASE
 50
0.0
  9
$ANGDIR
 70
     0
  9
$PDMODE
 70
     0
  9
$PDSIZE
 40
-1.0
  9
$PLINEWID
 40
0.0
  9
$SPLFRAME
 70
     0
  9
$SPLINETYPE
 70
     6
  9
$SPLINESEGS
 70
     8
  9
$HANDSEED
  5
20D
  9
$SURFTAB1
 70
     6
  9
$SURFTAB2
 70
     6
  9
$SURFTYPE
 70
     6
  9
$SURFU
 70
     6
  9
$SURFV
 70
     6
  9
$UCSBASE
  2

  9
$UCSNAME
  2

  9
$UCSORG
 10
0.0
 20
0.0
 30
0.0
  9
$UCSXDIR
 10
1.0
 20
0.0
 30
0.0
  9
$UCSYDIR
 10
0.0
 20
1.0
 30
0.0
  9
$UCSORTHOREF
  2

  9
$UCSORTHOVIEW
 70
     0
  9
$UCSORGTOP
 10
0.0
 20
0.0
 30
0.0
  9
$UCSORGBOTTOM
 10
0.0
 20
0.0
 30
0.0
  9
$UCSORGLEFT
 10
0.0
 20
0.0
 30
0.0
  9
$UCSORGRIGHT
 10
0.0
 20
0.0
 30
0.0
  9
$UCSORGFRONT
 10
0.0
 20
0.0
 30
0.0
  9
$UCSORGBACK
 10
0.0
 20
0.0
 30
0.0
  9
$PUCSBASE
  2

  9
$PUCSNAME
  2

  9
$PUCSORG
 10
0.0
 20
0.0
 30
0.0
  9
$PUCSXDIR
 10
1.0
 20
0.0
 30
0.0
  9
$PUCSYDIR
 10
0.0
 20
1.0
 30
0.0
  9
$PUCSORTHOREF
  2

  9
$PUCSORTHOVIEW
 70
     0
  9
$PUCSORGTOP
 10
0.0
 20
0.0
 30
0.0
  9
$PUCSORGBOTTOM
 10
0.0
 20
0.0
 30
0.0
  9
$PUCSORGLEFT
 10
0.0
 20
0.0
 30
0.0
  9
$PUCSORGRIGHT
 10
0.0
 20
0.0
 30
0.0
  9
$PUCSORGFRONT
 10
0.0
 20
0.0
 30
0.0
  9
$PUCSORGBACK
 10
0.0
 20
0.0
 30
0.0
  9
$USERI1
 70
     0
  9
$USERI2
 70
     0
  9
$USERI3
 70
     0
  9
$USERI4
 70
     0
  9
$USERI5
 70
     0
  9
$USERR1
 40
0.0
  9
$USERR2
 40
0.0
  9
$USERR3
 40
0.0
  9
$USERR4
 40
0.0
  9
$USERR5
 40
0.0
  9
$WORLDVIEW
 70
     1
  9
$SHADEDGE
 70
     3
  9
$SHADEDIF
 70
    70
  9
$TILEMODE
 70
     1
  9
$MAXACTVP
 70
    64
  9
$PINSBASE
 10
0.0
 20
0.0
 30
0.0
  9
$PLIMCHECK
 70
     0
  9
$PEXTMIN
 10
1.000000000000000E+20
 20
1.000000000000000E+20
 30
1.000000000000000E+20
  9
$PEXTMAX
 10
-1.000000000000000E+20
 20
-1.000000000000000E+20
 30
-1.000000000000000E+20
  9
$PLIMMIN
 10
0.0
 20
0.0
  9
$PLIMMAX
 10
0.0
 20
0.0
  9
$UNITMODE
 70
     0
  9
$VISRETAIN
 70
     1
  9
$PLINEGEN
 70
     0
  9
$PSLTSCALE
 70
     1
  9
$TREEDEPTH
 70
  3020
  9
$CMLSTYLE
  2
Standard
  9
$CMLJUST
 70
     0
  9
$CMLSCALE
 40
20.0
  9
$PROXYGRAPHICS
 70
     1
  9
$MEASUREMENT
 70
     1
  9
$CELWEIGHT
370
    -1
  9
$ENDCAPS
280
     0
  9
$JOINSTYLE
280
     0
  9
$LWDISPLAY
290
     1
  9
$INSUNITS
 70
     4
  9
$HYPERLINKBASE
  1

  9
$STYLESHEET
  1

  9
$XEDIT
290
     1
  9
$CEPSNTYPE
380
     0
  9
$PSTYLEMODE
290
     1
  9
$FINGERPRINTGUID
  2
{5483871F-6046-4F8D-8404-EA3E9A27DAFC}
  9
$VERSIONGUID
  2
{FAEB1C32-E019-11D5-929B-00C0DF256EC4}
  9
$EXTNAMES
290
     1
  9
$PSVPSCALE
 40
0.0
  9
$OLESTARTUP
290
     0
  0
ENDSEC
  0
SECTION
  2
CLASSES
  0
CLASS
  1
ACDBDICTIONARYWDFLT
  2
AcDbDictionaryWithDefault
  3
ObjectDBX Classes
 90
        0
280
     0
281
     0
  0
CLASS
  1
VISUALSTYLE
  2
AcDbVisualStyle
  3
ObjectDBX Classes
 90
     4095
280
     0
281
     0
  0
CLASS
  1
MATERIAL
  2
AcDbMaterial
  3
ObjectDBX Classes
 90
     1153
280
     0
281
     0
  0
CLASS
  1
SCALE
  2
AcDbScale
  3
ObjectDBX Classes
 90
     1153
280
     0
281
     0
  0
CLASS
  1
SUN
  2
AcDbSun
  3
SCENEOE
 90
     1153
280
     0
281
     0
  0
CLASS
  1
ACDBPLACEHOLDER
  2
AcDbPlaceHolder
  3
ObjectDBX Classes
 90
        0
280
     0
281
     0
  0
CLASS
  1
LAYOUT
  2
AcDbLayout
  3
ObjectDBX Classes
 90
        0
280
     0
281
     0
  0
CLASS
  1
TABLESTYLE
  2
AcDbTableStyle
  3
ObjectDBX Classes
 90
     4095
280
     0
281
     0
  0
CLASS
  1
MLEADERSTYLE
  2
AcDbMLeaderStyle
  3
ACDB_MLEADERSTYLE_CLASS
 90
     4095
280
     0
281
     0
  0
CLASS
  1
DICTIONARYVAR
  2
AcDbDictionaryVar
  3
ObjectDBX Classes
 90
        0
280
     0
281
     0
  0
ENDSEC
  0
SECTION
  2
TABLES
  0
TABLE
  2
VPORT
  5
8
330
0
100
AcDbSymbolTable
 70
     1
  0
VPORT
  5
29
330
8
100
AcDbSymbolTableRecord
100
AcDbViewportTableRecord
  2
*Active
 70
     0
 10
0.0
 20
0.0
 11
1.0
 21
1.0
 12
-24.08459693868318
 22
-7.313396486666772
 13
0.0
 23
0.0
 14
10.0
 24
10.0
 15
10.0
 25
10.0
 16
0.0
 26
0.0
 36
1.0
 17
0.0
 27
0.0
 37
0.0
 40
118.0419847093835
 41
2.268018018018018
 42
50.0
 43
0.0
 44
0.0
 50
0.0
 51
0.0
 71
    16
 72
  2000
 73
     1
 74
     3
 75
     0
 76
     0
 77
     0
 78
     0
281
     0
 65
     1
110
0.0
120
0.0
130
0.0
111
1.0
121
0.0
131
0.0
112
0.0
122
1.0
132
0.0
 79
     0
146
0.0
  0
ENDTAB
  0
TABLE
  2
LTYPE
  5
5
330
0
100
AcDbSymbolTable
 70
     6
  0
LTYPE
  5
14
330
5
100
AcDbSymbolTableRecord
100
AcDbLinetypeTableRecord
  2
ByBlock
 70
     0
  3

 72
    65
 73
     0
 40
0.0
  0
LTYPE
  5
15
330
5
100
AcDbSymbolTableRecord
100
AcDbLinetypeTableRecord
  2
ByLayer
 70
     0
  3

 72
    65
 73
     0
 40
0.0
  0
LTYPE
  5
16
330
5
100
AcDbSymbolTableRecord
100
AcDbLinetypeTableRecord
  2
Continuous
 70
     0
  3
Solid line
 72
    65
 73
     0
 40
0.0
  0
LTYPE
  5
6A
330
5
100
AcDbSymbolTableRecord
100
AcDbLinetypeTableRecord
  2
HIDDEN
 70
     0
  3
Hidden __ __ __ __ __ __ __ __ __ __ __ __ __ __
 72
    65
 73
     2
 40
1.905
 49
1.27
 74
     0
 49
-0.635
 74
     0
  0
LTYPE
  5
6B
330
5
100
AcDbSymbolTableRecord
100
AcDbLinetypeTableRecord
  2
PHANTOM
 70
     0
  3
Phantom ______  __  __  ______  __  __  ______
 72
    65
 73
     6
 40
12.7
 49
6.35
 74
     0
 49
-1.27
 74
     0
 49
1.27
 74
     0
 49
-1.27
 74
     0
 49
1.27
 74
     0
 49
-1.27
 74
     0
  0
LTYPE
  5
6C
330
5
100
AcDbSymbolTableRecord
100
AcDbLinetypeTableRecord
  2
CENTER
 70
     0
  3
Center ____ _ ____ _ ____ _ ____ _ ____ _ ____
 72
    65
 73
     4
 40
10.16
 49
6.35
 74
     0
 49
-1.27
 74
     0
 49
1.27
 74
     0
 49
-1.27
 74
     0
  0
LTYPE
  5
6D
330
5
100
AcDbSymbolTableRecord
100
AcDbLinetypeTableRecord
  2
CENTERX2
 70
     0
  3
Center (2x) ________  __  ________  __  _____
 72
    65
 73
     4
 40
20.32
 49
12.7
 74
     0
 49
-2.54
 74
     0
 49
2.54
 74
     0
 49
-2.54
 74
     0
  0
LTYPE
  5
6E
330
5
100
AcDbSymbolTableRecord
100
AcDbLinetypeTableRecord
  2
DOT2
 70
     0
  3
Dot (.5x) ........................................
 72
    65
 73
     2
 40
0.635
 49
0.0
 74
     0
 49
-0.635
 74
     0
  0
ENDTAB
  0
TABLE
  2
LAYER
  5
2
330
0
100
AcDbSymbolTable
 70
    18
  0
LAYER
  5
10
330
2
100
AcDbSymbolTableRecord
100
AcDbLayerTableRecord
  2
0
 70
     0
 62
     7
  6
Continuous
370
    -3
390
F
  0
LAYER
  5
6F
330
2
100
AcDbSymbolTableRecord
100
AcDbLayerTableRecord
  2
FORMAT
 70
     0
 62
     2
  6
Continuous
370
    -3
390
F
  0
LAYER
  5
70
330
2
100
AcDbSymbolTableRecord
100
AcDbLayerTableRecord
  2
외형선
 70
     0
 62
     4
  6
Continuous
370
    30
390
F
  0
LAYER
  5
71
330
2
100
AcDbSymbolTableRecord
100
AcDbLayerTableRecord
  2
숨은선
 70
     0
 62
     2
  6
HIDDEN
370
    15
390
F
  0
LAYER
  5
72
330
2
100
AcDbSymbolTableRecord
100
AcDbLayerTableRecord
  2
중심선
 70
     0
 62
     1
  6
CENTERX2
370
    -3
390
F
  0
LAYER
  5
73
330
2
100
AcDbSymbolTableRecord
100
AcDbLayerTableRecord
  2
파단선
 70
     0
 62
     4
  6
Continuous
370
    -3
390
F
  0
LAYER
  5
74
330
2
100
AcDbSymbolTableRecord
100
AcDbLayerTableRecord
  2
해칭선
 70
     0
 62
   100
  6
Continuous
370
    -3
390
F
  0
LAYER
  5
75
330
2
100
AcDbSymbolTableRecord
100
AcDbLayerTableRecord
  2
가는실선
 70
     0
 62
     4
  6
Continuous
370
    -3
390
F
  0
LAYER
  5
76
330
2
100
AcDbSymbolTableRecord
100
AcDbLayerTableRecord
  2
치수_보조선
 70
     0
 62
     4
  6
Continuous
370
    -3
390
F
  0
LAYER
  5
77
330
2
100
AcDbSymbolTableRecord
100
AcDbLayerTableRecord
  2
치수문자_일반주서
 70
     0
 62
     7
  6
Continuous
370
    15
390
F
  0
LAYER
  5
78
330
2
100
AcDbSymbolTableRecord
100
AcDbLayerTableRecord
  2
개별주서
 70
     0
 62
   100
  6
Continuous
370
    30
390
F
  0
LAYER
  5
79
330
2
100
AcDbSymbolTableRecord
100
AcDbLayerTableRecord
  2
중간선
 70
     0
 62
     2
  6
Continuous
370
    15
390
F
  0
LAYER
  5
7A
330
2
100
AcDbSymbolTableRecord
100
AcDbLayerTableRecord
  2
윤곽선
 70
     0
 62
     3
  6
Continuous
370
    40
390
F
  0
LAYER
  5
7B
330
2
100
AcDbSymbolTableRecord
100
AcDbLayerTableRecord
  2
중심마크
 70
     0
 62
   100
  6
Continuous
370
    30
390
F
  0
LAYER
  5
7C
330
2
100
AcDbSymbolTableRecord
100
AcDbLayerTableRecord
  2
가상선
 70
     0
 62
     4
  6
PHANTOM
370
    -3
390
F
  0
LAYER
  5
7D
330
2
100
AcDbSymbolTableRecord
100
AcDbLayerTableRecord
  2
특수지정선
 70
     0
 62
     5
  6
CENTERX2
370
    60
390
F
  0
LAYER
  5
7E
330
2
100
AcDbSymbolTableRecord
100
AcDbLayerTableRecord
  2
참조1
 70
     0
 62
    -4
  6
Continuous
370
    -3
390
F
  0
LAYER
  5
164
330
2
100
AcDbSymbolTableRecord
100
AcDbLayerTableRecord
  2
Defpoints
 70
     0
 62
     7
  6
Continuous
290
     0
370
    -3
390
F
  0
ENDTAB
  0
TABLE
  2
STYLE
  5
3
330
0
100
AcDbSymbolTable
 70
     2
  0
STYLE
  5
11
330
3
100
AcDbSymbolTableRecord
100
AcDbTextStyleTableRecord
  2
Standard
 70
     0
 40
0.0
 41
1.0
 50
0.0
 71
     0
 42
3.5
  3
txt
  4

  0
STYLE
  5
94
330
3
100
AcDbSymbolTableRecord
100
AcDbTextStyleTableRecord
  2
SLDTEXTSTYLE0
 70
     0
 40
0.0
 41
0.75
 50
0.0
 71
     0
 42
3.5
  3
TXT
  4

  0
ENDTAB
  0
TABLE
  2
VIEW
  5
6
330
0
100
AcDbSymbolTable
 70
     0
  0
ENDTAB
  0
TABLE
  2
UCS
  5
7
330
0
100
AcDbSymbolTable
 70
     0
  0
ENDTAB
  0
TABLE
  2
APPID
  5
9
330
0
100
AcDbSymbolTable
 70
     4
  0
APPID
  5
12
330
9
100
AcDbSymbolTableRecord
100
AcDbRegAppTableRecord
  2
ACAD
 70
     0
  0
APPID
  5
165
330
9
100
AcDbSymbolTableRecord
100
AcDbRegAppTableRecord
  2
PE_URL
 70
     0
  0
APPID
  5
169
330
9
100
AcDbSymbolTableRecord
100
AcDbRegAppTableRecord
  2
ACAD_DSTYLE_DIMFLIPARROW_SYMBOL
 70
     0
  0
APPID
  5
16A
330
9
100
AcDbSymbolTableRecord
100
AcDbRegAppTableRecord
  2
ACAD_DSTYLE_DIMFLIPARROW_WHICH_SYMBOL
 70
     0
  0
ENDTAB
  0
TABLE
  2
DIMSTYLE
  5
A
330
0
100
AcDbSymbolTable
 70
     3
100
AcDbDimStyleTable
  0
DIMSTYLE
105
27
102
{ACAD_REACTORS
330
1BF
102
}
330
A
100
AcDbSymbolTableRecord
100
AcDbDimStyleTableRecord
  2
ISO-25
 70
     0
 41
2.5
 42
0.625
 43
3.75
 44
1.25
 73
     0
 74
     0
 77
     1
 78
     8
140
2.5
141
2.5
143
0.03937007874016
147
0.625
171
     3
172
     1
178
     0
271
     2
272
     2
274
     3
278
    44
283
     0
284
     8
340
11
  0
DIMSTYLE
105
E3
102
{ACAD_REACTORS
330
E2
330
F7
330
10B
330
120
102
}
330
A
100
AcDbSymbolTableRecord
100
AcDbDimStyleTableRecord
  2
SLDDIMSTYLE0
 70
     0
 41
3.302
 44
0.0
 45
0.000000001
 73
     0
 74
     0
 77
     1
 78
    12
 79
     3
140
3.5
143
0.0393700787401575
147
0.875
148
0.000000001
170
     1
172
     1
173
     1
178
     0
271
     2
272
     2
276
     2
284
    12
289
     0
340
94
  0
DIMSTYLE
105
121
330
A
100
AcDbSymbolTableRecord
100
AcDbDimStyleTableRecord
  2
SLDDIMSTYLE1
 70
     0
 41
3.302
 44
0.0
 45
0.000000001
 73
     0
 74
     0
 77
     1
 78
     4
 79
     1
140
3.5
143
0.0393700787401575
147
0.875
148
0.000000001
170
     1
173
     1
178
     0
271
     2
272
     2
276
     2
284
    12
340
94
  0
ENDTAB
  0
TABLE
  2
BLOCK_RECORD
  5
1
330
0
100
AcDbSymbolTable
 70
     7
  0
BLOCK_RECORD
  5
1F
330
1
100
AcDbSymbolTableRecord
100
AcDbBlockTableRecord
  2
*Model_Space
340
22
  0
BLOCK_RECORD
  5
1B
330
1
100
AcDbSymbolTableRecord
100
AcDbBlockTableRecord
  2
*Paper_Space
340
1E
  0
BLOCK_RECORD
  5
23
330
1
100
AcDbSymbolTableRecord
100
AcDbBlockTableRecord
  2
*Paper_Space0
340
26
  0
BLOCK_RECORD
  5
7F
330
1
100
AcDbSymbolTableRecord
100
AcDbBlockTableRecord
  2
블럭10
340
0
102
{BLKREFS
331
DB
102
}
  0
BLOCK_RECORD
  5
E4
330
1
100
AcDbSymbolTableRecord
100
AcDbBlockTableRecord
  2
_D
340
0
  0
BLOCK_RECORD
  5
F8
330
1
100
AcDbSymbolTableRecord
100
AcDbBlockTableRecord
  2
_D_1
340
0
  0
BLOCK_RECORD
  5
10C
330
1
100
AcDbSymbolTableRecord
100
AcDbBlockTableRecord
  2
_D_2
340
0
  0
BLOCK_RECORD
  5
122
330
1
100
AcDbSymbolTableRecord
100
AcDbBlockTableRecord
  2
_D_3
340
0
  0
BLOCK_RECORD
  5
13B
330
1
100
AcDbSymbolTableRecord
100
AcDbBlockTableRecord
  2
SW_DOWELSYMBOL_0
340
0
102
{BLKREFS
331
141
102
}
  0
ENDTAB
  0
ENDSEC
  0
SECTION
  2
BLOCKS
  0
BLOCK
  5
20
330
1F
100
AcDbEntity
  8
0
100
AcDbBlockBegin
  2
*Model_Space
 70
     0
 10
0.0
 20
0.0
 30
0.0
  3
*Model_Space
  1

  0
ENDBLK
  5
21
330
1F
100
AcDbEntity
  8
0
100
AcDbBlockEnd
  0
BLOCK
  5
1C
330
1B
100
AcDbEntity
 67
     1
  8
0
100
AcDbBlockBegin
  2
*Paper_Space
 70
     0
 10
0.0
 20
0.0
 30
0.0
  3
*Paper_Space
  1

  0
ENDBLK
  5
1D
330
1B
100
AcDbEntity
 67
     1
  8
0
100
AcDbBlockEnd
  0
BLOCK
  5
24
330
23
100
AcDbEntity
  8
0
100
AcDbBlockBegin
  2
*Paper_Space0
 70
     0
 10
0.0
 20
0.0
 30
0.0
  3
*Paper_Space0
  1

  0
ENDBLK
  5
25
330
23
100
AcDbEntity
  8
0
100
AcDbBlockEnd
  0
BLOCK
  5
80
330
7F
100
AcDbEntity
  8
0
100
AcDbBlockBegin
  2
블럭10
 70
     2
 10
0.0
 20
0.0
 30
0.0
  3
블럭10
  1

  0
ELLIPSE
  5
82
330
7F
100
AcDbEntity
  8
중심선
100
AcDbEllipse
 10
20.54032771741204
 20
12.0471743016438
 30
0.0
 11
6.600054785286829
 21
-1.261213355974178E-13
 31
0.0
210
0.0
220
0.0
230
1.0
 40
0.636358354079598
 41
0.9219305317359503
 42
6.513795318482858
  0
ELLIPSE
  5
83
330
7F
100
AcDbEntity
  8
중심선
100
AcDbEllipse
 10
20.54032771746488
 20
12.04717430159265
 30
0.0
 11
3.960054785062283
 21
1.540847449632565E-10
 31
0.0
210
0.0
220
0.0
230
1.0
 40
0.3939339440162632
 41
1.131841032648279
 42
5.62031148352944
  0
LINE
  5
84
330
7F
100
AcDbEntity
  8
중심선
100
AcDbLine
 10
2.268634060543552
 20
16.24717430164393
 30
0.0
 11
5.714909304380834
 21
16.24717430164393
 31
0.0
  0
LINE
  5
85
330
7F
100
AcDbEntity
  8
중심선
100
AcDbLine
 10
5.245725140726316
 20
7.84717430164391
 30
0.0
 11
8.692000384563599
 21
7.84717430164391
 31
0.0
  0
LINE
  5
86
330
7F
100
AcDbEntity
  8
중심선
100
AcDbLine
 10
15.74043728645272
 20
16.24717430164393
 30
0.0
 11
8.692000384563599
 21
7.84717430164391
 31
0.0
  0
LINE
  5
87
330
7F
100
AcDbEntity
  8
중심선
100
AcDbLine
 10
0.1404042013395286
 20
13.71084872107135
 30
0.0
 11
3.58671253028996
 21
13.71088815037384
 31
0.0
  0
LINE
  5
88
330
7F
100
AcDbEntity
  8
중심선
100
AcDbLine
 10
2.750260043222114
 20
10.84717430164391
 30
0.0
 11
6.196535287059397
 21
10.84717430164391
 31
0.0
  0
LINE
  5
89
330
7F
100
AcDbEntity
  8
중심선
100
AcDbLine
 10
12.29416204261559
 20
16.24717430164393
 30
0.0
 11
5.245725140726316
 21
7.84717430164391
 31
0.0
  0
LINE
  5
8A
330
7F
100
AcDbEntity
  8
중심선
100
AcDbLine
 10
10.72767329541681
 20
16.24717430164393
 30
0.0
 11
6.196535287059397
 21
10.84717430164391
 31
0.0
  0
LINE
  5
8B
330
7F
100
AcDbEntity
  8
중심선
100
AcDbLine
 10
7.28139805157953
 20
16.24717430164393
 30
0.0
 11
2.750260043222114
 21
10.84717430164391
 31
0.0
  0
LINE
  5
8C
330
7F
100
AcDbEntity
  8
중심선
100
AcDbLine
 10
5.714909304380834
 20
16.24717430164393
 30
0.0
 11
3.58671253028996
 21
13.71088815037384
 31
0.0
  0
LINE
  5
8D
330
7F
100
AcDbEntity
  8
중심선
100
AcDbLine
 10
2.268634060543552
 20
16.24717430164393
 30
0.0
 11
0.1404042013395286
 21
13.71084872107135
 31
0.0
  0
LINE
  5
8E
330
7F
100
AcDbEntity
  8
중심선
100
AcDbLine
 10
7.28139805157953
 20
16.24717430164393
 30
0.0
 11
10.72767329541681
 21
16.24717430164393
 31
0.0
  0
LINE
  5
8F
330
7F
100
AcDbEntity
  8
중심선
100
AcDbLine
 10
12.29416204261559
 20
16.24717430164393
 30
0.0
 11
15.74043728645272
 21
16.24717430164393
 31
0.0
  0
LINE
  5
90
330
7F
100
AcDbEntity
  8
중심선
100
AcDbLine
 10
19.22036997980202
 20
11.08717430171403
 30
0.0
 11
23.66174974927406
 21
11.08717430171406
 31
0.0
  0
LINE
  5
91
330
7F
100
AcDbEntity
  8
중심선
100
AcDbLine
 10
19.22039502424796
 20
13.00717430171391
 30
0.0
 11
19.22036997980202
 21
11.08717430171403
 31
0.0
  0
LINE
  5
92
330
7F
100
AcDbEntity
  8
중심선
100
AcDbLine
 10
19.22039502424796
 20
13.00717430171391
 30
0.0
 11
26.96566020931264
 21
13.00717430171391
 31
0.0
  0
LINE
  5
93
330
7F
100
AcDbEntity
  8
중심선
100
AcDbLine
 10
22.22332737316547
 20
13.45928029700563
 30
0.0
 11
24.52862924686651
 21
15.39360700705356
 31
0.0
  0
ATTDEF
  5
95
330
7F
100
AcDbEntity
  8
FORMAT
 62
     2
100
AcDbText
 10
3.448148490846466
 20
2.075366912832191
 30
0.0
 40
4.233333333333333
  1
EM211901
 41
0.75
  7
SLDTEXTSTYLE0
 11
3.448148490846466
 21
-0.0412997538344756
 31
0.0
100
AcDbAttributeDefinition
  3

  2
AUTOATTR0
 70
     0
 74
     1
  0
ENDBLK
  5
81
330
7F
100
AcDbEntity
  8
0
100
AcDbBlockEnd
  0
BLOCK
  5
E5
330
E4
100
AcDbEntity
  8
0
100
AcDbBlockBegin
  2
_D
 70
     0
 10
0.0
 20
0.0
 30
0.0
  3
_D
  1

  0
LINE
  5
E7
330
E4
100
AcDbEntity
  8
치수문자_일반주서
 62
     0
370
    -2
100
AcDbLine
 10
-37.6875
 20
3.17500000000001
 30
0.0
 11
-45.52570365944345
 21
3.174999999999983
 31
0.0
  0
LINE
  5
E8
330
E4
100
AcDbEntity
  8
치수문자_일반주서
 62
     0
370
    -2
100
AcDbLine
 10
-37.67309764070509
 20
-3.175000000000012
 30
0.0
 11
-45.52570365944343
 21
-3.17500000000004
 31
0.0
  0
LINE
  5
E9
330
E4
100
AcDbEntity
  8
치수문자_일반주서
 62
     0
370
    -2
100
AcDbLine
 10
-45.52570365944345
 20
3.174999999999983
 30
0.0
 11
-45.52570365944356
 21
35.15399999999998
 31
0.0
  0
LINE
  5
EA
330
E4
100
AcDbEntity
  8
치수문자_일반주서
 62
     0
370
    -2
100
AcDbLine
 10
-45.52570365944345
 20
3.174999999999983
 30
0.0
 11
-45.52570365944343
 21
-3.17500000000004
 31
0.0
  0
LINE
  5
EB
330
E4
100
AcDbEntity
  8
치수문자_일반주서
 62
     0
370
    -2
100
AcDbLine
 10
-45.52570365944347
 20
6.476999999999983
 30
0.0
 11
-45.52570365944348
 21
9.778999999999982
 31
0.0
  0
LINE
  5
EC
330
E4
100
AcDbEntity
  8
치수문자_일반주서
 62
     0
370
    -2
100
AcDbLine
 10
-45.52570365944342
 20
-6.477000000000039
 30
0.0
 11
-45.5257036594434
 21
-9.779000000000039
 31
0.0
  0
SOLID
  5
ED
330
E4
100
AcDbEntity
  8
치수문자_일반주서
 62
     0
100
AcDbTrace
 10
-46.0760369927768
 20
6.476999999999981
 30
0.0
 11
-44.97537032611013
 21
6.476999999999984
 31
0.0
 12
-45.52570365944345
 22
3.174999999999983
 32
0.0
 13
-45.52570365944345
 23
3.174999999999983
 33
0.0
  0
SOLID
  5
EE
330
E4
100
AcDbEntity
  8
치수문자_일반주서
 62
     0
100
AcDbTrace
 10
-44.97537032611008
 20
-6.477000000000038
 30
0.0
 11
-46.07603699277675
 21
-6.477000000000041
 31
0.0
 12
-45.52570365944343
 22
-3.17500000000004
 32
0.0
 13
-45.52570365944343
 23
-3.17500000000004
 33
0.0
  0
MTEXT
  5
EF
330
E4
100
AcDbEntity
  8
치수문자_일반주서
 62
     0
100
AcDbMText
 10
-49.90070365944351
 20
22.46649999999997
 30
0.0
 40
3.5
 41
0.0
 71
     2
 72
     1
  1
\A1;%%c6.35 [1/4]
  7
SLDTEXTSTYLE0
 11
-3.356894814614635E-15
 21
1.0
 31
0.0
 73
     1
 44
1.0
  0
POINT
  5
166
330
E4
100
AcDbEntity
  8
Defpoints
 62
     0
100
AcDbPoint
 10
-37.625
 20
3.17500000000001
 30
0.0
  0
POINT
  5
167
330
E4
100
AcDbEntity
  8
Defpoints
 62
     0
100
AcDbPoint
 10
-37.61059764070509
 20
-3.175000000000012
 30
0.0
  0
POINT
  5
18F
330
E4
100
AcDbEntity
  8
Defpoints
 62
     0
100
AcDbPoint
 10
-45.52570365944344
 20
-3.175000000000042
 30
0.0
  0
ENDBLK
  5
E6
330
E4
100
AcDbEntity
  8
0
100
AcDbBlockEnd
  0
BLOCK
  5
F9
330
F8
100
AcDbEntity
  8
0
100
AcDbBlockBegin
  2
_D_1
 70
     0
 10
0.0
 20
0.0
 30
0.0
  3
_D_1
  1

  0
LINE
  5
FB
330
F8
100
AcDbEntity
  8
치수문자_일반주서
 62
     0
370
    -2
100
AcDbLine
 10
38.63750000000001
 20
3.175000000000112
 30
0.0
 11
48.575
 21
3.175000000000146
 31
0.0
  0
LINE
  5
FC
330
F8
100
AcDbEntity
  8
치수문자_일반주서
 62
     0
370
    -2
100
AcDbLine
 10
38.6385092063528
 20
-3.17499999999995
 30
0.0
 11
48.57500000000002
 21
-3.174999999999915
 31
0.0
  0
LINE
  5
FD
330
F8
100
AcDbEntity
  8
치수문자_일반주서
 62
     0
370
    -2
100
AcDbLine
 10
48.575
 20
3.175000000000146
 30
0.0
 11
48.57499999999989
 21
35.15400000000015
 31
0.0
  0
LINE
  5
FE
330
F8
100
AcDbEntity
  8
치수문자_일반주서
 62
     0
370
    -2
100
AcDbLine
 10
48.575
 20
3.175000000000146
 30
0.0
 11
48.57500000000002
 21
-3.174999999999915
 31
0.0
  0
LINE
  5
FF
330
F8
100
AcDbEntity
  8
치수문자_일반주서
 62
     0
370
    -2
100
AcDbLine
 10
48.57499999999998
 20
6.477000000000146
 30
0.0
 11
48.57499999999997
 21
9.779000000000146
 31
0.0
  0
LINE
  5
100
330
F8
100
AcDbEntity
  8
치수문자_일반주서
 62
     0
370
    -2
100
AcDbLine
 10
48.57500000000003
 20
-6.476999999999915
 30
0.0
 11
48.57500000000005
 21
-9.778999999999915
 31
0.0
  0
SOLID
  5
101
330
F8
100
AcDbEntity
  8
치수문자_일반주서
 62
     0
100
AcDbTrace
 10
48.02466666666665
 20
6.477000000000144
 30
0.0
 11
49.12533333333332
 21
6.477000000000148
 31
0.0
 12
48.575
 22
3.175000000000146
 32
0.0
 13
48.575
 23
3.175000000000146
 33
0.0
  0
SOLID
  5
102
330
F8
100
AcDbEntity
  8
치수문자_일반주서
 62
     0
100
AcDbTrace
 10
49.12533333333337
 20
-6.476999999999913
 30
0.0
 11
48.0246666666667
 21
-6.476999999999917
 31
0.0
 12
48.57500000000002
 22
-3.174999999999915
 32
0.0
 13
48.57500000000002
 23
-3.174999999999915
 33
0.0
  0
MTEXT
  5
103
330
F8
100
AcDbEntity
  8
치수문자_일반주서
 62
     0
100
AcDbMText
 10
44.19999999999993
 20
22.46650000000013
 30
0.0
 40
3.5
 41
0.0
 71
     2
 72
     1
  1
\A1;%%c6.35 [1/4]
  7
SLDTEXTSTYLE0
 11
-3.356894814614614E-15
 21
1.0
 31
0.0
 73
     1
 44
1.0
  0
POINT
  5
104
330
F8
100
AcDbEntity
  8
Defpoints
 62
     0
100
AcDbPoint
 10
38.57500000000001
 20
3.175000000000112
 30
0.0
  0
POINT
  5
105
330
F8
100
AcDbEntity
  8
Defpoints
 62
     0
100
AcDbPoint
 10
38.5760092063528
 20
-3.17499999999995
 30
0.0
  0
POINT
  5
106
330
F8
100
AcDbEntity
  8
Defpoints
 62
     0
100
AcDbPoint
 10
48.57500000000001
 20
-3.174999999999913
 30
0.0
  0
ENDBLK
  5
FA
330
F8
100
AcDbEntity
  8
0
100
AcDbBlockEnd
  0
BLOCK
  5
10D
330
10C
100
AcDbEntity
  8
0
100
AcDbBlockBegin
  2
_D_2
 70
     0
 10
0.0
 20
0.0
 30
0.0
  3
_D_2
  1

  0
LINE
  5
10F
330
10C
100
AcDbEntity
  8
치수문자_일반주서
 62
     0
370
    -2
100
AcDbLine
 10
38.57500000000001
 20
3.237500000000112
 30
0.0
 11
38.57500000000001
 21
21.41704269982869
 31
0.0
  0
LINE
  5
110
330
10C
100
AcDbEntity
  8
치수문자_일반주서
 62
     0
370
    -2
100
AcDbLine
 10
10.0
 20
3.237500000000013
 30
0.0
 11
10.0
 21
21.41704269982869
 31
0.0
  0
LINE
  5
111
330
10C
100
AcDbEntity
  8
치수문자_일반주서
 62
     0
370
    -2
100
AcDbLine
 10
10.0
 20
21.41704269982869
 30
0.0
 11
-26.354
 21
21.41704269982869
 31
0.0
  0
LINE
  5
112
330
10C
100
AcDbEntity
  8
치수문자_일반주서
 62
     0
370
    -2
100
AcDbLine
 10
38.57500000000001
 20
21.41704269982869
 30
0.0
 11
10.0
 21
21.41704269982869
 31
0.0
  0
LINE
  5
113
330
10C
100
AcDbEntity
  8
치수문자_일반주서
 62
     0
370
    -2
100
AcDbLine
 10
41.87700000000001
 20
21.41704269982869
 30
0.0
 11
45.17900000000001
 21
21.41704269982869
 31
0.0
  0
LINE
  5
114
330
10C
100
AcDbEntity
  8
치수문자_일반주서
 62
     0
370
    -2
100
AcDbLine
 10
6.698000000000002
 20
21.41704269982869
 30
0.0
 11
3.396000000000002
 21
21.41704269982869
 31
0.0
  0
SOLID
  5
115
330
10C
100
AcDbEntity
  8
치수문자_일반주서
 62
     0
100
AcDbTrace
 10
41.87700000000001
 20
21.96737603316203
 30
0.0
 11
41.87700000000001
 21
20.86670936649536
 31
0.0
 12
38.57500000000001
 22
21.41704269982869
 32
0.0
 13
38.57500000000001
 23
21.41704269982869
 33
0.0
  0
SOLID
  5
116
330
10C
100
AcDbEntity
  8
치수문자_일반주서
 62
     0
100
AcDbTrace
 10
6.698000000000002
 20
20.86670936649536
 30
0.0
 11
6.698000000000002
 21
21.96737603316203
 31
0.0
 12
10.0
 22
21.41704269982869
 32
0.0
 13
10.0
 23
21.41704269982869
 33
0.0
  0
MTEXT
  5
117
330
10C
100
AcDbEntity
  8
치수문자_일반주서
 62
     0
100
AcDbMText
 10
-11.479
 20
25.79204269982869
 30
0.0
 40
3.5
 41
0.0
 71
     2
 72
     1
  1
\A1;28.58 [1 1/8]
  7
SLDTEXTSTYLE0
 73
     1
 44
1.0
  0
POINT
  5
18C
330
10C
100
AcDbEntity
  8
Defpoints
 62
     0
100
AcDbPoint
 10
38.57500000000001
 20
3.175000000000112
 30
0.0
  0
POINT
  5
18D
330
10C
100
AcDbEntity
  8
Defpoints
 62
     0
100
AcDbPoint
 10
10.0
 20
3.175000000000013
 30
0.0
  0
POINT
  5
18E
330
10C
100
AcDbEntity
  8
Defpoints
 62
     0
100
AcDbPoint
 10
10.0
 20
21.41704269982869
 30
0.0
  0
ENDBLK
  5
10E
330
10C
100
AcDbEntity
  8
0
100
AcDbBlockEnd
  0
BLOCK
  5
123
330
122
100
AcDbEntity
  8
0
100
AcDbBlockBegin
  2
_D_3
 70
     0
 10
0.0
 20
0.0
 30
0.0
  3
_D_3
  1

  0
LINE
  5
125
330
122
100
AcDbEntity
  8
치수문자_일반주서
 62
     0
370
    -2
100
AcDbLine
 10
38.57500000000001
 20
3.237500000000112
 30
0.0
 11
38.57500000000002
 21
38.23514140286156
 31
0.0
  0
LINE
  5
126
330
122
100
AcDbEntity
  8
치수문자_일반주서
 62
     0
370
    -2
100
AcDbLine
 10
-37.625
 20
3.237500000000007
 30
0.0
 11
-37.62499999999999
 21
38.23514140286156
 31
0.0
  0
LINE
  5
127
330
122
100
AcDbEntity
  8
치수문자_일반주서
 62
     0
370
    -2
100
AcDbLine
 10
35.27300000000002
 20
38.23514140286156
 30
0.0
 11
-34.32299999999999
 21
38.23514140286156
 31
0.0
  0
SOLID
  5
128
330
122
100
AcDbEntity
  8
치수문자_일반주서
 62
     0
100
AcDbTrace
 10
35.27300000000002
 20
37.68480806952822
 30
0.0
 11
35.27300000000002
 21
38.78547473619489
 31
0.0
 12
38.57500000000002
 22
38.23514140286156
 32
0.0
 13
38.57500000000002
 23
38.23514140286156
 33
0.0
  0
SOLID
  5
129
330
122
100
AcDbEntity
  8
치수문자_일반주서
 62
     0
100
AcDbTrace
 10
-34.32299999999999
 20
38.78547473619489
 30
0.0
 11
-34.32299999999999
 21
37.68480806952822
 31
0.0
 12
-37.62499999999999
 22
38.23514140286156
 32
0.0
 13
-37.62499999999999
 23
38.23514140286156
 33
0.0
  0
MTEXT
  5
12A
330
122
100
AcDbEntity
  8
치수문자_일반주서
 62
     0
100
AcDbMText
 10
0.1321110371026819
 20
42.61014140286156
 30
0.0
 40
3.5
 41
0.0
 71
     2
 72
     1
  1
\A1;76.2 [3]
  7
SLDTEXTSTYLE0
 73
     1
 44
1.0
  0
POINT
  5
12B
330
122
100
AcDbEntity
  8
Defpoints
 62
     0
100
AcDbPoint
 10
38.57500000000001
 20
3.175000000000112
 30
0.0
  0
POINT
  5
12C
330
122
100
AcDbEntity
  8
Defpoints
 62
     0
100
AcDbPoint
 10
-37.625
 20
3.175000000000007
 30
0.0
  0
POINT
  5
12D
330
122
100
AcDbEntity
  8
Defpoints
 62
     0
100
AcDbPoint
 10
-37.625
 20
38.23514140286156
 30
0.0
  0
ENDBLK
  5
124
330
122
100
AcDbEntity
  8
0
100
AcDbBlockEnd
  0
BLOCK
  5
13C
330
13B
100
AcDbEntity
  8
0
100
AcDbBlockBegin
  2
SW_DOWELSYMBOL_0
 70
     0
 10
0.0
 20
0.0
 30
0.0
  3
SW_DOWELSYMBOL_0
  1

  0
CIRCLE
  5
13E
330
13B
100
AcDbEntity
  8
해칭선
 62
     0
100
AcDbCircle
 10
0.0
 20
0.0
 30
0.0
 40
3.000000000000002
  0
HATCH
  5
13F
330
13B
100
AcDbEntity
  8
0
  6
Continuous
 62
     0
370
     0
100
AcDbHatch
 10
0.0
 20
0.0
 30
0.0
210
0.0
220
0.0
230
1.0
  2
SOLID
 70
     1
 71
     0
 91
        1
 92
        0
 93
        3
 72
     2
 10
0.0000000000000069
 20
0.0
 40
3.000000000000002
 50
0.0
 51
90.0
 73
     1
 72
     1
 10
0.0000000000000069
 20
3.000000000000002
 11
0.0000000000000069
 21
0.0
 72
     1
 10
0.0000000000000069
 20
0.0
 11
3.000000000000009
 21
0.0
 97
        0
 75
     0
 76
     1
 98
        1
 10
0.0
 20
0.0
  0
HATCH
  5
140
330
13B
100
AcDbEntity
  8
0
  6
Continuous
 62
     0
370
     0
100
AcDbHatch
 10
0.0
 20
0.0
 30
0.0
210
0.0
220
0.0
230
1.0
  2
SOLID
 70
     1
 71
     0
 91
        1
 92
        0
 93
        3
 72
     2
 10
0.0000000000000069
 20
0.0
 40
3.000000000000002
 50
180.0
 51
270.0000000000007
 73
     1
 72
     1
 10
0.0000000000000069
 20
-3.000000000000002
 11
0.0000000000000069
 21
0.0
 72
     1
 10
0.0000000000000069
 20
0.0
 11
-2.999999999999995
 21
0.0
 97
        0
 75
     0
 76
     1
 98
        1
 10
0.0
 20
0.0
  0
ENDBLK
  5
13D
330
13B
100
AcDbEntity
  8
0
100
AcDbBlockEnd
  0
ENDSEC
  0
SECTION
  2
ENTITIES
  0
LINE
  5
96
330
1F
100
AcDbEntity
  8
외형선
  6
Continuous
370
    15
100
AcDbLine
 10
8.479918330987047
 20
3.174999999999999
 30
0.0
 11
-36.81499999999999
 21
3.174999999999997
 31
0.0
  0
LINE
  5
97
330
1F
100
AcDbEntity
  8
외형선
  6
Continuous
370
    15
100
AcDbLine
 10
-36.81499999999999
 20
-3.175000000000003
 30
0.0
 11
8.479918330987047
 21
-3.175000000000001
 31
0.0
  0
LINE
  5
98
330
1F
100
AcDbEntity
  8
외형선
  6
Continuous
370
    15
100
AcDbLine
 10
-36.81499999999999
 20
3.174999999999993
 30
0.0
 11
-37.625
 21
2.364999999999994
 31
0.0
  0
LINE
  5
99
330
1F
100
AcDbEntity
  8
외형선
  6
Continuous
370
    15
100
AcDbLine
 10
-37.625
 20
-2.365000000000002
 30
0.0
 11
-36.81499999999999
 21
-3.175
 31
0.0
  0
SPLINE
  5
9A
330
1F
100
AcDbEntity
  8
외형선
  6
Continuous
370
    15
100
AcDbSpline
210
0.0
220
0.0
230
1.0
 70
     8
 71
     3
 72
     9
 73
     5
 74
     0
 42
0.000000001
 43
0.00000001
 40
0.0
 40
0.0
 40
0.0
 40
0.0
 40
0.4401139745396209
 40
1.0
 40
1.0
 40
1.0
 40
1.0
 10
8.470747702763475
 20
-2.541586809387687
 30
0.0
 10
8.695178649014299
 20
-2.528527276454232
 30
0.0
 10
9.205116890547274
 20
-2.498854206093046
 30
0.0
 10
9.714694575377377
 20
-2.488218909268623
 30
0.0
 10
10.0000000000002
 20
-2.482264355200006
 30
0.0
  0
LINE
  5
9B
330
1F
100
AcDbEntity
  8
외형선
  6
Continuous
370
    15
100
AcDbLine
 10
10.0
 20
2.482264358750034
 30
0.0
 11
9.435560546621671
 21
2.497079083884559
 31
0.0
  0
SPLINE
  5
9C
330
1F
100
AcDbEntity
  8
외형선
  6
Continuous
 62
     1
370
    15
100
AcDbSpline
210
0.0
220
0.0
230
1.0
 70
     8
 71
     3
 72
     9
 73
     5
 74
     0
 42
0.000000001
 43
0.00000001
 40
0.0
 40
0.0
 40
0.0
 40
0.0
 40
0.4370435182869427
 40
1.0
 40
1.0
 40
1.0
 40
1.0
 10
13.07202490621097
 20
0.81363638844902
 30
0.0
 10
12.94392441604686
 20
0.8746631358740331
 30
0.0
 10
12.65081747176311
 20
1.014298538005648
 30
0.0
 10
12.35773813022439
 20
1.167762601438755
 30
0.0
 10
12.19274721524897
 20
1.254156190658446
 30
0.0
  0
SPLINE
  5
9D
330
1F
100
AcDbEntity
  8
외형선
  6
Continuous
 62
     1
370
    15
100
AcDbSpline
210
0.0
220
0.0
230
1.0
 70
     8
 71
     3
 72
     9
 73
     5
 74
     0
 42
0.000000001
 43
0.00000001
 40
0.0
 40
0.0
 40
0.0
 40
0.0
 40
0.4369074201436032
 40
1.0
 40
1.0
 40
1.0
 40
1.0
 10
30.34827534423827
 20
0.8137244786513109
 30
0.0
 10
30.22027145956054
 20
0.8747061613696853
 30
0.0
 10
29.92729432349897
 20
1.014281915652666
 30
0.0
 10
29.63429441030079
 20
1.167701869290929
 30
0.0
 10
29.46930833328032
 20
1.254091506786547
 30
0.0
  0
LINE
  5
9E
330
1F
100
AcDbEntity
  8
외형선
  6
Continuous
 62
     1
370
    15
100
AcDbLine
 10
23.06415668388942
 20
3.175000000000001
 30
0.0
 11
21.52498637497693
 21
3.175000000000001
 31
0.0
  0
LINE
  5
9F
330
1F
100
AcDbEntity
  8
외형선
  6
Continuous
 62
     1
370
    15
100
AcDbLine
 10
21.52498637497694
 20
-3.175000000000003
 30
0.0
 11
23.06415668388943
 21
-3.175000000000003
 31
0.0
  0
SPLINE
  5
A0
330
1F
100
AcDbEntity
  8
외형선
  6
Continuous
 62
     1
370
    15
100
AcDbSpline
210
0.0
220
0.0
230
1.0
 70
     8
 71
     3
 72
    11
 73
     7
 74
     0
 42
0.000000001
 43
0.00000001
 40
0.0
 40
0.0
 40
0.0
 40
0.0
 40
0.2155654027821066
 40
0.4833914469440557
 40
0.6808046852601065
 40
1.0
 40
1.0
 40
1.0
 40
1.0
 10
24.52352252412416
 20
-2.642057274717098
 30
0.0
 10
24.8671302149248
 20
-2.610588995086976
 30
0.0
 10
25.63764819551708
 20
-2.540023417183826
 30
0.0
 10
26.72024531734106
 20
-2.489077456897452
 30
0.0
 10
27.96903656250436
 20
-2.470110603859889
 30
0.0
 10
28.79175277825416
 20
-2.502790586323613
 30
0.0
 10
29.30008187941681
 20
-2.522982465119457
 30
0.0
  0
SPLINE
  5
A1
330
1F
100
AcDbEntity
  8
외형선
  6
Continuous
 62
     1
370
    15
100
AcDbSpline
210
0.0
220
0.0
230
1.0
 70
     8
 71
     3
 72
     9
 73
     5
 74
     0
 42
0.000000001
 43
0.00000001
 40
0.0
 40
0.0
 40
0.0
 40
0.0
 40
0.365349538415818
 40
1.0
 40
1.0
 40
1.0
 40
1.0
 10
12.02357945699514
 20
2.522979086020649
 30
0.0
 10
11.77828313330919
 20
2.511297727049947
 30
0.0
 10
11.10688137172611
 20
2.479324622550205
 30
0.0
 10
10.42974494547545
 20
2.481123010810519
 30
0.0
 10
10.0
 20
2.482264358750034
 30
0.0
  0
SPLINE
  5
A2
330
1F
100
AcDbEntity
  8
외형선
  6
Continuous
 62
     1
370
    15
100
AcDbSpline
210
0.0
220
0.0
230
1.0
 70
     8
 71
     3
 72
     9
 73
     5
 74
     0
 42
0.000000001
 43
0.00000001
 40
0.0
 40
0.0
 40
0.0
 40
0.0
 40
0.4592057442812401
 40
1.0
 40
1.0
 40
1.0
 40
1.0
 10
10.0
 20
-2.482264358750036
 30
0.0
 10
10.30970465383576
 20
-2.480474405871663
 30
0.0
 10
10.98414014967329
 20
-2.476576473625249
 30
0.0
 10
11.65875280705042
 20
-2.50669250775711
 30
0.0
 10
12.02357945699514
 20
-2.522979086020651
 30
0.0
  0
SPLINE
  5
A3
330
1F
100
AcDbEntity
  8
외형선
  6
Continuous
 62
     1
370
    15
100
AcDbSpline
210
0.0
220
0.0
230
1.0
 70
     8
 71
     3
 72
    15
 73
    11
 74
     0
 42
0.000000001
 43
0.00000001
 40
0.0
 40
0.0
 40
0.0
 40
0.0
 40
0.1924204493754083
 40
0.3274994231356184
 40
0.4101252220634932
 40
0.4831292178497018
 40
0.559013504305545
 40
0.8480581553087093
 40
0.9383836983850687
 40
1.0
 40
1.0
 40
1.0
 40
1.0
 10
29.30008187941681
 20
2.522982465119455
 30
0.0
 10
29.13104233192727
 20
2.514744679661178
 30
0.0
 10
28.84333718172295
 20
2.500723976590073
 30
0.0
 10
28.48410404582068
 20
2.489761359221784
 30
0.0
 10
28.23220195238736
 20
2.484303204819572
 30
0.0
 10
28.03121915995936
 20
2.481325184846778
 30
0.0
 10
27.64849796789133
 20
2.478097229766337
 30
0.0
 10
27.25151763135175
 20
2.48125972219792
 30
0.0
 10
26.86570860225991
 20
2.490319924625133
 30
0.0
 10
26.73281102676845
 20
2.494794059534178
 30
0.0
 10
26.67891766308043
 20
2.496608435597479
 30
0.0
  0
SPLINE
  5
A4
330
1F
100
AcDbEntity
  8
외형선
  6
Continuous
 62
     1
370
    15
100
AcDbSpline
210
0.0
220
0.0
230
1.0
 70
     8
 71
     3
 72
    15
 73
    11
 74
     0
 42
0.000000001
 43
0.00000001
 40
0.0
 40
0.0
 40
0.0
 40
0.0
 40
0.1954084327303764
 40
0.3328897177856438
 40
0.4167086729608721
 40
0.4953133492770425
 40
0.5820468081703462
 40
0.6769985061229351
 40
0.9308328012575628
 40
0.9999999999999999
 40
0.9999999999999999
 40
0.9999999999999999
 40
0.9999999999999999
 10
31.84807486654956
 20
-2.388030990252234
 30
0.0
 10
32.00289758135647
 20
-2.364468514010526
 30
0.0
 10
32.26664714998432
 20
-2.324328454767249
 30
0.0
 10
32.59597086075312
 20
-2.280668858049703
 30
0.0
 10
32.83233419461851
 20
-2.251402043703793
 30
0.0
 10
33.02890072194823
 20
-2.228708482938689
 30
0.0
 10
33.2345337407798
 20
-2.206687919470912
 30
0.0
 10
33.57881860607721
 20
-2.173373547331838
 30
0.0
 10
33.90921608303496
 20
-2.145071873134287
 30
0.0
 10
34.16425000841156
 20
-2.131699674304354
 30
0.0
 10
34.21886270382312
 20
-2.128836165770719
 30
0.0
  0
SPLINE
  5
A5
330
1F
100
AcDbEntity
  8
외형선
  6
Continuous
 62
     1
370
    15
100
AcDbSpline
210
0.0
220
0.0
230
1.0
 70
     8
 71
     3
 72
    21
 73
    17
 74
     0
 42
0.000000001
 43
0.00000001
 40
0.0
 40
0.0
 40
0.0
 40
0.0
 40
0.0930581658032922
 40
0.1567318142980093
 40
0.2251044956143919
 40
0.3042969489719093
 40
0.3759350667581124
 40
0.4394737455238545
 40
0.4963891751785138
 40
0.5719160368391494
 40
0.6651501015319393
 40
0.7694436137854255
 40
0.8229312315040855
 40
0.8651180213766637
 40
0.9210545242034791
 40
1.0
 40
1.0
 40
1.0
 40
1.0
 10
20.11783308504545
 20
2.171536048084698
 30
0.0
 10
19.94875433838426
 20
2.157930333204647
 30
0.0
 10
19.66398600564643
 20
2.135015112820018
 30
0.0
 10
19.24264417663177
 20
2.112232291309224
 30
0.0
 10
18.84867849915962
 20
2.097029179988888
 30
0.0
 10
18.44449485150338
 20
2.089101985864778
 30
0.0
 10
18.046391025759
 20
2.08902340623053
 30
0.0
 10
17.69082276698092
 20
2.095180779364461
 30
0.0
 10
17.33087555523273
 20
2.106887389670072
 30
0.0
 10
16.91346786623359
 20
2.12757119387044
 30
0.0
 10
16.40892458411998
 20
2.163264647751636
 30
0.0
 10
15.94494355285956
 20
2.206950543252165
 30
0.0
 10
15.57458940726408
 20
2.248935430897771
 30
0.0
 10
15.29098734517872
 20
2.284297866521804
 30
0.0
 10
14.96417048889248
 20
2.328145147159147
 30
0.0
 10
14.71659106638261
 20
2.365916210693017
 30
0.0
 10
14.57168456733094
 20
2.388023349188879
 30
0.0
  0
SPLINE
  5
A6
330
1F
100
AcDbEntity
  8
외형선
  6
Continuous
 62
     1
370
    15
100
AcDbSpline
210
0.0
220
0.0
230
1.0
 70
     8
 71
     3
 72
    14
 73
    10
 74
     0
 42
0.000000001
 43
0.00000001
 40
0.0
 40
0.0
 40
0.0
 40
0.0
 40
0.1874962712086866
 40
0.3191932669575182
 40
0.4201602405611143
 40
0.5494995174217779
 40
0.6977370416265103
 40
0.9657376375745136
 40
1.0
 40
1.0
 40
1.0
 40
1.0
 10
14.57168456733094
 20
-2.38802334918888
 30
0.0
 10
14.71882505602475
 20
-2.365585256757874
 30
0.0
 10
14.96931672172633
 20
-2.327386694294858
 30
0.0
 10
15.30106268591235
 20
-2.282976279276987
 30
0.0
 10
15.59056078674187
 20
-2.247020463012134
 30
0.0
 10
15.89024226748093
 20
-2.213213720017726
 30
0.0
 10
16.32142162083536
 20
-2.171479831121055
 30
0.0
 10
16.6777139941667
 20
-2.141548503575809
 30
0.0
 10
16.91640142501067
 20
-2.129579053576942
 30
0.0
 10
16.94345732132689
 20
-2.128222282518716
 30
0.0
  0
SPLINE
  5
A7
330
1F
100
AcDbEntity
  8
외형선
  6
Continuous
 62
     1
370
    15
100
AcDbSpline
210
0.0
220
0.0
230
1.0
 70
     8
 71
     3
 72
    25
 73
    21
 74
     0
 42
0.000000001
 43
0.00000001
 40
0.0
 40
0.0
 40
0.0
 40
0.0
 40
0.0683084319718088
 40
0.1234539309772563
 40
0.1753866162648164
 40
0.2072602649173015
 40
0.2363377114123956
 40
0.2652764008785636
 40
0.295628664814571
 40
0.3295701869585487
 40
0.4208167150187148
 40
0.5094284977369978
 40
0.6066040194683406
 40
0.6963126803506408
 40
0.7262534723652494
 40
0.756069579904623
 40
0.7929159667518312
 40
0.8456002460658241
 40
0.9146439021400022
 40
1.0
 40
1.0
 40
1.0
 40
1.0
 10
37.39431577039726
 20
2.171539814434574
 30
0.0
 10
37.26708038197825
 20
2.161153172827686
 30
0.0
 10
37.03712767473079
 20
2.142381379961009
 30
0.0
 10
36.71174572585198
 20
2.122374657698724
 30
0.0
 10
36.45431951935722
 20
2.109809477945259
 30
0.0
 10
36.24827894206992
 20
2.102006532514769
 30
0.0
 10
36.08337742152232
 20
2.096975830791323
 30
0.0
 10
35.92030389479196
 20
2.093195570096424
 30
0.0
 10
35.74776625059985
 20
2.090501229077894
 30
0.0
 10
35.46037304458761
 20
2.088402944144452
 30
0.0
 10
35.06474105851722
 20
2.091953554162332
 30
0.0
 10
34.5531407434774
 20
2.108134759675288
 30
0.0
 10
34.04097836111416
 20
2.136860390674195
 30
0.0
 10
33.64860448827673
 20
2.167552393611719
 30
0.0
 10
33.37326223932929
 20
2.192964491629392
 30
0.0
 10
33.19287669199223
 20
2.211031889417817
 30
0.0
 10
32.97011078056917
 20
2.235093386611939
 30
0.0
 10
32.67633433358618
 20
2.270143901139702
 30
0.0
 10
32.29260993045753
 20
2.320455013171543
 30
0.0
 10
32.00633493875712
 20
2.363973092730565
 30
0.0
 10
31.84807486654956
 20
2.388030990252233
 30
0.0
  0
SPLINE
  5
A8
330
1F
100
AcDbEntity
  8
외형선
  6
Continuous
370
    15
100
AcDbSpline
210
0.0
220
0.0
230
1.0
 70
     8
 71
     3
 72
     9
 73
     5
 74
     0
 42
0.000000001
 43
0.00000001
 40
0.0
 40
0.0
 40
0.0
 40
0.0
 40
0.2008429871977195
 40
1.0
 40
1.0
 40
1.0
 40
1.0
 10
9.432940659917223
 20
-2.49805103707186
 30
0.0
 10
9.369175471758917
 20
-2.522127088948159
 30
0.0
 10
9.051687721511838
 20
-2.642002082903503
 30
0.0
 10
8.733841771476254
 20
-2.730790928530659
 30
0.0
 10
8.479832951514513
 20
-2.801747157172219
 30
0.0
  0
LINE
  5
A9
330
1F
100
AcDbEntity
  8
외형선
  6
Continuous
370
    15
100
AcDbLine
 10
8.479918330987045
 20
2.80181116604905
 30
0.0
 11
8.479918330987047
 21
3.174999999999999
 31
0.0
  0
SPLINE
  5
AA
330
1F
100
AcDbEntity
  8
외형선
  6
Continuous
370
    15
100
AcDbSpline
210
0.0
220
0.0
230
1.0
 70
     8
 71
     3
 72
    10
 73
     6
 74
     0
 42
0.000000001
 43
0.00000001
 40
0.0
 40
0.0
 40
0.0
 40
0.0
 40
0.5
 40
0.5
 40
1.0
 40
1.0
 40
1.0
 40
1.0
 10
10.0
 20
2.287677385399897
 30
0.0
 10
9.747085122615783
 20
2.389061639609875
 30
0.0
 10
9.495915819690062
 20
2.482956787685296
 30
0.0
 10
8.987345473136104
 20
2.655093697488571
 30
0.0
 10
8.732200575206194
 20
2.733016912113718
 30
0.0
 10
8.479832951514512
 20
2.801747157172217
 30
0.0
  0
LINE
  5
AB
330
1F
100
AcDbEntity
  8
외형선
  6
Continuous
370
    15
100
AcDbLine
 10
10.0
 20
2.287677385399896
 30
0.0
 11
10.0
 21
1.590653006593681
 31
0.0
  0
SPLINE
  5
AC
330
1F
100
AcDbEntity
  8
외형선
  6
Continuous
370
    15
100
AcDbSpline
210
0.0
220
0.0
230
1.0
 70
     8
 71
     3
 72
    10
 73
     6
 74
     0
 42
0.000000001
 43
0.00000001
 40
0.0
 40
0.0
 40
0.0
 40
0.0
 40
0.4999999999999999
 40
0.4999999999999999
 40
1.0
 40
1.0
 40
1.0
 40
1.0
 10
8.479918330987045
 20
2.280237467210408
 30
0.0
 10
8.73227234872198
 20
2.17857737896988
 30
0.0
 10
8.987402922688164
 20
2.069269282447659
 30
0.0
 10
9.495944398221347
 20
1.838375483774888
 30
0.0
 10
9.747099383367495
 20
1.71718164411439
 30
0.0
 10
10.0
 20
1.590653006593683
 30
0.0
  0
LINE
  5
AD
330
1F
100
AcDbEntity
  8
외형선
  6
Continuous
370
    15
100
AcDbLine
 10
8.479918330987047
 20
-3.175000000000001
 30
0.0
 11
8.479918330987045
 21
2.280234104121791
 31
0.0
  0
LINE
  5
AE
330
1F
100
AcDbEntity
  8
외형선
  6
Continuous
370
    15
100
AcDbLine
 10
-36.81499999999999
 20
3.174999999999993
 30
0.0
 11
-36.81499999999999
 21
-3.175000000000003
 31
0.0
  0
LINE
  5
AF
330
1F
100
AcDbEntity
  8
외형선
  6
Continuous
370
    15
100
AcDbLine
 10
-37.625
 20
2.364999999999994
 30
0.0
 11
-37.625
 21
-2.365000000000004
 31
0.0
  0
SPLINE
  5
B0
330
1F
100
AcDbEntity
  8
외형선
  6
Continuous
370
    15
100
AcDbSpline
210
0.0
220
0.0
230
1.0
 70
    24
 71
     3
 72
    10
 73
     6
 74
     0
 42
0.000000001
 43
0.00000001
 40
0.0
 40
0.0
 40
0.0
 40
0.0
 40
0.5
 40
0.5
 40
1.0
 40
1.0
 40
1.0
 40
1.0
 10
10.0
 20
1.590653006593683
 30
0.0
 10
10.0
 20
1.552734751178409
 30
0.0
 10
10.0
 20
1.481734935931405
 30
0.0
 10
10.0
 20
1.287487911284542
 30
0.0
 10
10.0
 20
1.164957879069921
 30
0.0
 10
10.0
 20
1.033451178620683
 30
0.0
  0
SPLINE
  5
B1
330
1F
100
AcDbEntity
  8
외형선
  6
Continuous
370
    15
100
AcDbSpline
210
0.0
220
0.0
230
1.0
 70
     8
 71
     3
 72
    10
 73
     6
 74
     0
 42
0.000000001
 43
0.00000001
 40
0.0
 40
0.0
 40
0.0
 40
0.0
 40
0.5
 40
0.5
 40
1.0
 40
1.0
 40
1.0
 40
1.0
 10
10.00000000000002
 20
1.033451178620678
 30
0.0
 10
9.810288176341455
 20
1.101416248344649
 30
0.0
 10
9.622293438060845
 20
1.167334219957087
 30
0.0
 10
9.241803205131237
 20
1.295275702797038
 30
0.0
 10
9.050558999115855
 20
1.357144356237505
 30
0.0
 10
8.859856485206071
 20
1.41640665703952
 30
0.0
  0
SPLINE
  5
B2
330
1F
100
AcDbEntity
  8
외형선
  6
Continuous
370
    15
100
AcDbSpline
210
0.0
220
0.0
230
1.0
 70
     8
 71
     3
 72
    14
 73
    10
 74
     0
 42
0.000000001
 43
0.00000001
 40
0.0
 40
0.0
 40
0.0
 40
0.0
 40
0.2499999999999999
 40
0.2499999999999999
 40
0.4999999999999999
 40
0.4999999999999999
 40
0.7499999999999999
 40
0.7499999999999999
 40
1.0
 40
1.0
 40
1.0
 40
1.0
 10
8.479918330987045
 20
1.954271467829184
 30
0.0
 10
8.479918330987045
 20
1.906234235781173
 30
0.0
 10
8.492542409178165
 20
1.853303693830617
 30
0.0
 10
8.53205654617783
 20
1.747794892280076
 30
0.0
 10
8.559050009536843
 20
1.695123248138248
 30
0.0
 10
8.62433754330234
 20
1.595499887739042
 30
0.0
 10
8.662594040446193
 20
1.548450586415707
 30
0.0
 10
8.751988884229663
 20
1.467581151286932
 30
0.0
 10
8.803362887839079
 20
1.433962485182063
 30
0.0
 10
8.859856485206071
 20
1.416406657039522
 30
0.0
  0
SPLINE
  5
B3
330
1F
100
AcDbEntity
  8
외형선
  6
Continuous
370
    15
100
AcDbSpline
210
0.0
220
0.0
230
1.0
 70
     8
 71
     3
 72
    12
 73
     8
 74
     0
 42
0.000000001
 43
0.00000001
 40
0.0
 40
0.0
 40
0.0
 40
0.0
 40
0.2500000000000002
 40
0.2500000000000002
 40
0.5000000000000003
 40
0.5000000000000003
 40
1.0
 40
1.0
 40
1.0
 40
1.0
 10
8.775589592433548
 20
-1.932370960808558
 30
0.0
 10
8.711566430800982
 20
-1.91320799782276
 30
0.0
 10
8.666807675896036
 20
-1.878894877753921
 30
0.0
 10
8.594838604332228
 20
-1.806477104575166
 30
0.0
 10
8.567813851104782
 20
-1.767015927043577
 30
0.0
 10
8.503073677999318
 20
-1.646386971680834
 30
0.0
 10
8.479918330987024
 20
-1.560558229192436
 30
0.0
 10
8.479918330987019
 20
-1.477173232749258
 30
0.0
  0
SPLINE
  5
B4
330
1F
100
AcDbEntity
  8
외형선
  6
Continuous
370
    15
100
AcDbSpline
210
0.0
220
0.0
230
1.0
 70
     8
 71
     3
 72
    10
 73
     6
 74
     0
 42
0.000000001
 43
0.00000001
 40
0.0
 40
0.0
 40
0.0
 40
0.0
 40
0.5
 40
0.5
 40
1.0
 40
1.0
 40
1.0
 40
1.0
 10
10.00000000000001
 20
-2.24869592290179
 30
0.0
 10
9.796309984195782
 20
-2.204892884524646
 30
0.0
 10
9.5943917334099
 20
-2.156593678964919
 30
0.0
 10
9.1855687290185
 20
-2.050895307432095
 30
0.0
 10
8.98013593676922
 20
-1.993594335684709
 30
0.0
 10
8.775589592433542
 20
-1.932370960808557
 30
0.0
  0
SPLINE
  5
B5
330
1F
100
AcDbEntity
  8
외형선
  6
Continuous
370
    15
100
AcDbSpline
210
0.0
220
0.0
230
1.0
 70
    24
 71
     3
 72
    14
 73
    10
 74
     0
 42
0.000000001
 43
0.00000001
 40
0.0
 40
0.0
 40
0.0
 40
0.0
 40
0.25
 40
0.25
 40
0.4999999999999999
 40
0.4999999999999999
 40
0.75
 40
0.75
 40
1.0
 40
1.0
 40
1.0
 40
1.0
 10
10.0
 20
1.033451178620686
 30
0.0
 10
10.0
 20
0.7623168604209185
 30
0.0
 10
10.0
 20
0.4733104625554906
 30
0.0
 10
10.0
 20
-0.1166157411594775
 30
0.0
 10
10.0
 20
-0.4172719273188051
 30
0.0
 10
10.0
 20
-1.000604095203751
 30
0.0
 10
10.0
 20
-1.282969253162239
 30
0.0
 10
10.0
 20
-1.803200729482605
 30
0.0
 10
10.0
 20
-2.040901318159448
 30
0.0
 10
10.0
 20
-2.248695922901788
 30
0.0
  0
SPLINE
  5
B6
330
1F
100
AcDbEntity
  8
외형선
  6
Continuous
370
    15
100
AcDbSpline
210
0.0
220
0.0
230
1.0
 70
    24
 71
     3
 72
    12
 73
     8
 74
     0
 42
0.000000001
 43
0.00000001
 40
0.0
 40
0.0
 40
0.0
 40
0.0
 40
0.1534386864465466
 40
0.4626922752771822
 40
0.6186526357089183
 40
0.8433520738164394
 40
1.0
 40
1.0
 40
1.0
 40
1.0
 10
10.0
 20
-2.248695922901789
 30
0.0
 10
10.0
 20
-2.271314967810472
 30
0.0
 10
10.00000000000001
 20
-2.339522390565239
 30
0.0
 10
10.0
 20
-2.405471565141728
 30
0.0
 10
10.0
 20
-2.454777950821389
 30
0.0
 10
10.0
 20
-2.479565855856302
 30
0.0
 10
10.0
 20
-2.479643120648969
 30
0.0
 10
10.0
 20
-2.479674859086603
 30
0.0
  0
SPLINE
  5
B7
330
1F
100
AcDbEntity
  8
외형선
  6
Continuous
370
    15
100
AcDbSpline
210
0.0
220
0.0
230
1.0
 70
    24
 71
     3
 72
    10
 73
     6
 74
     0
 42
0.000000001
 43
0.00000001
 40
0.0
 40
0.0
 40
0.0
 40
0.0
 40
0.0931157851045836
 40
0.7138314577574103
 40
1.0
 40
1.0
 40
1.0
 40
1.0
 10
10.0
 20
2.475969881018686
 30
0.0
 10
10.0
 20
2.477918835141025
 30
0.0
 10
10.0
 20
2.492859639868057
 30
0.0
 10
10.0
 20
2.449064357314417
 30
0.0
 10
10.0
 20
2.366297642120725
 30
0.0
 10
10.0
 20
2.34018049304683
 30
0.0
  0
SPLINE
  5
B8
330
1F
100
AcDbEntity
  8
외형선
  6
Continuous
 62
     1
370
    15
100
AcDbSpline
210
0.0
220
0.0
230
1.0
 70
     8
 71
     3
 72
    17
 73
    13
 74
     0
 42
0.000000001
 43
0.00000001
 40
0.0
 40
0.0
 40
0.0
 40
0.0
 40
0.0870917579618391
 40
0.196361014461021
 40
0.3056636314301984
 40
0.4150236671447738
 40
0.5244415953597784
 40
0.6338015611150334
 40
0.7431041322611567
 40
0.8523733673240401
 40
0.9616335073138712
 40
0.9999999999999999
 40
0.9999999999999999
 40
0.9999999999999999
 40
0.9999999999999999
 10
24.5270373697604
 20
-2.630579573540645
 30
0.0
 10
24.19407466619549
 20
-2.660065526018924
 30
0.0
 10
23.44336190324565
 20
-2.72654588738126
 30
0.0
 10
22.27476389869393
 20
-2.663266674460251
 30
0.0
 10
21.02097030642377
 20
-2.472983968598052
 30
0.0
 10
19.76651846662938
 20
-2.150474947303428
 30
0.0
 10
18.51168059146173
 20
-1.717835608443921
 30
0.0
 10
17.25722911632352
 20
-1.196016626140889
 30
0.0
 10
16.00343707399641
 20
-0.6116125236112935
 30
0.0
 10
14.75008271697173
 20
0.0013640735227932
 30
0.0
 10
13.76794885587922
 20
0.4905552559998679
 30
0.0
 10
13.20353974683076
 20
0.748933019710281
 30
0.0
 10
13.05685620090295
 20
0.8160824791402266
 30
0.0
  0
SPLINE
  5
B9
330
1F
100
AcDbEntity
  8
외형선
  6
Continuous
 62
     1
370
    15
100
AcDbSpline
210
0.0
220
0.0
230
1.0
 70
     8
 71
     3
 72
    21
 73
    17
 74
     0
 42
0.000000001
 43
0.00000001
 40
0.0
 40
0.0
 40
0.0
 40
0.0
 40
0.0381378549677708
 40
0.1133263283732957
 40
0.1885048105712726
 40
0.2636892985275471
 40
0.3388957567155134
 40
0.4141400309531059
 40
0.4894224353644346
 40
0.5646666635253994
 40
0.6398730915351304
 40
0.7118525317914284
 40
0.7838296544344484
 40
0.8558385098975814
 40
0.9279128663189418
 40
1.0
 40
1.0
 40
1.0
 40
1.0
 10
26.67042075611987
 20
-2.49958817204919
 30
0.0
 10
26.45849202145204
 20
-2.577285584525617
 30
0.0
 10
25.82874749604546
 20
-2.808162818903372
 30
0.0
 10
24.78134871938882
 20
-3.043356112610236
 30
0.0
 10
23.52811716229216
 20
-3.192337402397247
 30
0.0
 10
22.27477224196672
 20
-3.169386387303724
 30
0.0
 10
21.02098388090001
 20
-2.984169535240383
 30
0.0
 10
19.76653652933345
 20
-2.64390371480914
 30
0.0
 10
18.51166089550676
 20
-2.167034620238616
 30
0.0
 10
17.25722361317685
 20
-1.577775806007858
 30
0.0
 10
16.02120807868624
 20
-0.9164283062388153
 30
0.0
 10
14.80359174522939
 20
-0.220124471298552
 30
0.0
 10
13.60371148743333
 20
0.4770343937913307
 30
0.0
 10
12.40323024105141
 20
1.149612065789929
 30
0.0
 10
11.20182541562626
 20
1.775241096592259
 30
0.0
 10
10.40063214221279
 20
2.116855196533406
 30
0.0
 10
9.999999999995826
 20
2.287677385401573
 30
0.0
  0
SPLINE
  5
BA
330
1F
100
AcDbEntity
  8
외형선
  6
Continuous
 62
     1
370
    15
100
AcDbSpline
210
0.0
220
0.0
230
1.0
 70
     8
 71
     3
 72
    14
 73
    10
 74
     0
 42
0.000000001
 43
0.00000001
 40
0.0
 40
0.0
 40
0.0
 40
0.0
 40
0.1510429390240179
 40
0.301971982667167
 40
0.4528198652438862
 40
0.6059199586090278
 40
0.7590243119869605
 40
0.9121669273433995
 40
1.0
 40
1.0
 40
1.0
 40
1.0
 10
38.51939290966888
 20
-2.494652427339447
 30
0.0
 10
38.10718874131156
 20
-2.405384808613533
 30
0.0
 10
37.28309123111455
 20
-2.226916884268161
 30
0.0
 10
36.04750334434874
 20
-1.81359031643724
 30
0.0
 10
34.80640550150233
 20
-1.315826093161683
 30
0.0
 10
33.55937198095183
 20
-0.7452897019627698
 30
0.0
 10
32.30607743337567
 20
-0.135896876078306
 30
0.0
 10
31.23083292968672
 20
0.3991446695818107
 30
0.0
 10
30.57326764959201
 20
0.7047981427559531
 30
0.0
 10
30.33359210597497
 20
0.8162055794912058
 30
0.0
  0
SPLINE
  5
BB
330
1F
100
AcDbEntity
  8
외형선
  6
Continuous
 62
     1
370
    15
100
AcDbSpline
210
0.0
220
0.0
230
1.0
 70
     8
 71
     3
 72
    10
 73
     6
 74
     0
 42
0.000000001
 43
0.00000001
 40
0.0
 40
0.0
 40
0.0
 40
0.0
 40
0.5
 40
0.5
 40
1.0
 40
1.0
 40
1.0
 40
1.0
 10
37.81300000000001
 20
-2.845703033831628
 30
0.0
 10
37.95073050627281
 20
-2.880868386410104
 30
0.0
 10
38.0948436047745
 20
-2.873333619244733
 30
0.0
 10
38.35196390440047
 20
-2.752027403691264
 30
0.0
 10
38.45998320929041
 20
-2.636953008915241
 30
0.0
 10
38.51939290589587
 20
-2.494652426629935
 30
0.0
1001
PE_URL
1000

  0
SPLINE
  5
BC
330
1F
100
AcDbEntity
  8
외형선
  6
Continuous
 62
     1
370
    15
100
AcDbSpline
210
0.0
220
0.0
230
1.0
 70
     8
 71
     3
 72
    19
 73
    15
 74
     0
 42
0.000000001
 43
0.00000001
 40
0.0
 40
0.0
 40
0.0
 40
0.0
 40
0.0916657393202728
 40
0.1833324558341704
 40
0.2750020292237807
 40
0.3666763357237298
 40
0.4583572458623461
 40
0.5433965904480278
 40
0.6284876314093684
 40
0.7135527599758594
 40
0.7985707113761027
 40
0.8835593483554676
 40
0.9685366918602769
 40
1.0
 40
1.0
 40
1.0
 40
1.0
 10
37.81300000000007
 20
-2.845703033831638
 30
0.0
 10
37.36234109618916
 20
-2.713655721564393
 30
0.0
 10
36.46101848436227
 20
-2.44955968935248
 30
0.0
 10
35.1090169000606
 20
-1.860175336578754
 30
0.0
 10
33.75696076725364
 20
-1.171160636006776
 30
0.0
 10
32.40483520354757
 20
-0.4083901961906747
 30
0.0
 10
31.08523533817445
 20
0.3591267894376517
 30
0.0
 10
29.7981625302593
 20
1.086945881691037
 30
0.0
 10
28.54330942360907
 20
1.739861845332916
 30
0.0
 10
27.28871419380365
 20
2.302100184678984
 30
0.0
 10
26.0347723704872
 20
2.747984287530562
 30
0.0
 10
24.78134313053871
 20
3.040847374392775
 30
0.0
 10
23.79120885980771
 20
3.179455817829403
 30
0.0
 10
23.21882101253851
 20
3.160822374085745
 30
0.0
 10
23.06415668388942
 20
3.155787450509392
 30
0.0
  0
SPLINE
  5
BD
330
1F
100
AcDbEntity
  8
외형선
  6
Continuous
 62
     1
370
    15
100
AcDbSpline
210
0.0
220
0.0
230
1.0
 70
     8
 71
     3
 72
    16
 73
    12
 74
     0
 42
0.000000001
 43
0.00000001
 40
0.0
 40
0.0
 40
0.0
 40
0.0
 40
0.0838468920876053
 40
0.2025955707157008
 40
0.3213049096767532
 40
0.4399426491119495
 40
0.558535896178063
 40
0.6771120043812039
 40
0.7956984223416268
 40
0.9143225414498309
 40
1.0
 40
1.0
 40
1.0
 40
1.0
 10
30.68457395243756
 20
-0.2997472988384821
 30
0.0
 10
30.38918249644202
 20
-0.1812091592579436
 30
0.0
 10
29.67544106701095
 20
0.1052093524121707
 30
0.0
 10
28.54335307239576
 20
0.5621656385716867
 30
0.0
 10
27.2887699496772
 20
1.037858785457862
 30
0.0
 10
26.03481784461697
 20
1.460362802124595
 30
0.0
 10
24.78138207321869
 20
1.806797116663375
 30
0.0
 10
23.52814706015118
 20
2.060792132403807
 30
0.0
 10
22.27478877151233
 20
2.204185011996181
 30
0.0
 10
21.13729848598284
 20
2.24412190687166
 30
0.0
 10
20.41751530872223
 20
2.184739546422691
 30
0.0
 10
20.11566157836105
 20
2.159836509528452
 30
0.0
  0
SPLINE
  5
BE
330
1F
100
AcDbEntity
  8
외형선
  6
Continuous
 62
     1
370
    15
100
AcDbSpline
210
0.0
220
0.0
230
1.0
 70
     8
 71
     3
 72
    31
 73
    27
 74
     0
 42
0.000000001
 43
0.00000001
 40
0.0
 40
0.0
 40
0.0
 40
0.0
 40
0.0265562156727271
 40
0.0702435854311265
 40
0.1142322472007457
 40
0.1579198106918185
 40
0.2019087135899707
 40
0.2455952977872189
 40
0.2895851793761205
 40
0.333271536233912
 40
0.3772602091073707
 40
0.420946593215641
 40
0.4649339811774481
 40
0.5086204967978623
 40
0.5526088921721076
 40
0.5962904865499179
 40
0.6402757198671006
 40
0.6839568731014892
 40
0.7279397075234506
 40
0.7716210277663575
 40
0.8156032259317569
 40
0.8592846218781581
 40
0.9032684846592761
 40
0.9362497009352926
 40
0.9693608479560648
 40
1.0
 40
1.0
 40
1.0
 40
1.0
 10
16.94192135973467
 20
2.127576165381649
 30
0.0
 10
17.12659594718215
 20
2.207370998764211
 30
0.0
 10
17.61507688588938
 20
2.418435529371516
 30
0.0
 10
18.41006356598774
 20
2.689917968339258
 30
0.0
 10
19.32425212553049
 20
2.937948838159898
 30
0.0
 10
20.23953852946177
 20
3.103095069313002
 30
0.0
 10
21.15419567015525
 20
3.182374696667153
 30
0.0
 10
22.06997515735787
 20
3.174098756813611
 30
0.0
 10
22.98339679513755
 20
3.077834621085966
 30
0.0
 10
23.90024994019329
 20
2.897066670076757
 30
0.0
 10
24.81359474051398
 20
2.635923306471812
 30
0.0
 10
25.72945826523448
 20
2.301394116272926
 30
0.0
 10
26.64402696266496
 20
1.905332546137628
 30
0.0
 10
27.55926692260189
 20
1.453702934651703
 30
0.0
 10
28.47353077834881
 20
0.964632399835507
 30
0.0
 10
29.38967428351758
 20
0.4476275889801465
 30
0.0
 10
30.30278692351309
 20
-0.0821474900792993
 30
0.0
 10
31.2194491198675
 20
-0.6082893625621524
 30
0.0
 10
32.13297356582196
 20
-1.118299453139912
 30
0.0
 10
33.04838280154491
 20
-1.598680602738824
 30
0.0
 10
33.96302118309124
 20
-2.032090416280615
 30
0.0
 10
34.87828861777857
 20
-2.41221557837756
 30
0.0
 10
35.71766692250996
 20
-2.698987422600088
 30
0.0
 10
36.48368336281112
 20
-2.904143253975691
 30
0.0
 10
37.15635181531502
 20
-3.04359938231416
 30
0.0
 10
37.59253065420495
 20
-3.129393722652635
 30
0.0
 10
37.81300000000002
 20
-3.175000000000114
 30
0.0
  0
LINE
  5
C0
330
1F
100
AcDbEntity
  8
외형선
  6
Continuous
 62
     1
370
    15
100
AcDbLine
 10
38.57500000000001
 20
2.222499999999999
 30
0.0
 11
37.39343621617805
 21
2.168308642817739
 31
0.0
  0
SPLINE
  5
C1
330
1F
100
AcDbEntity
  8
외형선
  6
Continuous
 62
     1
370
    15
100
AcDbSpline
210
0.0
220
0.0
230
1.0
 70
     8
 71
     3
 72
    10
 73
     6
 74
     0
 42
0.000000001
 43
0.00000001
 40
0.0
 40
0.0
 40
0.0
 40
0.0
 40
0.3430291161424058
 40
0.671328496903394
 40
1.0
 40
1.0
 40
1.0
 40
1.0
 10
13.41500548285714
 20
-0.3036468466580241
 30
0.0
 10
13.02454061583928
 20
-0.1462101935215912
 30
0.0
 10
12.26037751733465
 20
0.1619027529715731
 30
0.0
 10
11.12211868697375
 20
0.6201823907991969
 30
0.0
 10
10.37418077832482
 20
0.8956429071075847
 30
0.0
 10
10.00000000000002
 20
1.033451178620679
 30
0.0
  0
SPLINE
  5
C2
330
1F
100
AcDbEntity
  8
외형선
  6
Continuous
370
    15
100
AcDbSpline
210
0.0
220
0.0
230
1.0
 70
    24
 71
     3
 72
    10
 73
     6
 74
     0
 42
0.000000001
 43
0.00000001
 40
0.0
 40
0.0
 40
0.0
 40
0.0
 40
0.5
 40
0.5
 40
1.0
 40
1.0
 40
1.0
 40
1.0
 10
10.0
 20
1.590653006593683
 30
0.0
 10
10.0
 20
1.552734751178409
 30
0.0
 10
10.0
 20
1.481734935931405
 30
0.0
 10
10.0
 20
1.287487911284542
 30
0.0
 10
10.0
 20
1.16495787906992
 30
0.0
 10
10.0
 20
1.033451178620683
 30
0.0
  0
SPLINE
  5
C3
330
1F
100
AcDbEntity
  8
외형선
  6
Continuous
 62
     1
370
    15
100
AcDbSpline
210
0.0
220
0.0
230
1.0
 70
     8
 71
     3
 72
    20
 73
    16
 74
     0
 42
0.000000001
 43
0.00000001
 40
0.0
 40
0.0
 40
0.0
 40
0.0
 40
0.0865201300961799
 40
0.1737570913461385
 40
0.2530268257139325
 40
0.3328448673541262
 40
0.4119646453113365
 40
0.4916327003012602
 40
0.570752443160789
 40
0.6504209070570587
 40
0.7295402769513546
 40
0.8092052973211477
 40
0.8883250180721586
 40
0.9679904751342429
 40
1.0
 40
1.0
 40
1.0
 40
1.0
 10
10.0
 20
1.590653006593684
 30
0.0
 10
10.33254547266921
 20
1.41978428540495
 30
0.0
 10
11.00039160289457
 20
1.076631172218639
 30
0.0
 10
11.97230386134621
 20
0.527649135681022
 30
0.0
 10
12.91800614179596
 20
-0.0191249811811936
 30
0.0
 10
13.8339446240801
 20
-0.5459218374334467
 30
0.0
 10
14.75001133029256
 20
-1.060585415814743
 30
0.0
 10
15.66377702397551
 20
-1.543848674992646
 30
0.0
 10
16.58051149016825
 20
-1.984301804293854
 30
0.0
 10
17.49371199564196
 20
-2.371062263791074
 30
0.0
 10
18.41007065689081
 20
-2.691293396280929
 30
0.0
 10
19.32425645089901
 20
-2.93842288059207
 30
0.0
 10
20.23951431633706
 20
-3.099849924880481
 30
0.0
 10
20.9731495186575
 20
-3.176119006105216
 30
0.0
 10
21.40205011714107
 20
-3.167077378753182
 30
0.0
 10
21.52498637497694
 20
-3.164485767001333
 30
0.0
  0
SPLINE
  5
C4
330
1F
100
AcDbEntity
  8
외형선
  6
Continuous
 62
     1
370
    15
100
AcDbSpline
210
0.0
220
0.0
230
1.0
 70
     8
 71
     3
 72
    12
 73
     8
 74
     0
 42
0.000000001
 43
0.00000001
 40
0.0
 40
0.0
 40
0.0
 40
0.0
 40
0.1828691017081803
 40
0.438282360616947
 40
0.6298035094926789
 40
0.8220791631538512
 40
1.0
 40
1.0
 40
1.0
 40
1.0
 10
34.21921848881194
 20
2.12898303809415
 30
0.0
 10
34.4382348803559
 20
2.222158593769041
 30
0.0
 10
34.9631514474689
 20
2.445472440184465
 30
0.0
 10
35.7176553800421
 20
2.698037914840976
 30
0.0
 10
36.48368607960212
 20
2.904366742935213
 30
0.0
 10
37.1563511939241
 20
3.043548265384938
 30
0.0
 10
37.59984945857276
 20
3.134182903264944
 30
0.0
 10
37.81300000000001
 20
3.175000000000118
 30
0.0
  0
SPLINE
  5
C6
330
1F
100
AcDbEntity
  8
외형선
  6
Continuous
 62
     1
370
    15
100
AcDbSpline
210
0.0
220
0.0
230
1.0
 70
    24
 71
     3
 72
     8
 73
     4
 74
     0
 42
0.000000001
 43
0.00000001
 40
0.0
 40
0.0
 40
0.0
 40
0.0
 40
1.0
 40
1.0
 40
1.0
 40
1.0
 10
38.57500000000001
 20
2.222499999999999
 30
0.0
 10
38.57500000000001
 20
2.2816884293432
 30
0.0
 10
38.57500000000001
 20
2.344953238287624
 30
0.0
 10
38.57500000000001
 20
2.413000000000119
 30
0.0
  0
SPLINE
  5
C7
330
1F
100
AcDbEntity
  8
외형선
  6
Continuous
 62
     1
370
    15
100
AcDbSpline
210
0.0
220
0.0
230
1.0
 70
     8
 71
     3
 72
     8
 73
     4
 74
     0
 42
0.000000001
 43
0.00000001
 40
0.0
 40
0.0
 40
0.0
 40
0.0
 40
1.0
 40
1.0
 40
1.0
 40
1.0
 10
38.57197252258909
 20
-0.8461158154243726
 30
0.0
 10
38.09795716120064
 20
-0.4733270510656467
 30
0.0
 10
37.63561824832851
 20
-0.0804595202357861
 30
0.0
 10
37.18623646476653
 20
0.3346890297926753
 30
0.0
  0
LINE
  5
C8
330
1F
100
AcDbEntity
  8
외형선
  6
Continuous
 62
     1
370
    15
100
AcDbLine
 10
37.52358107100641
 20
0.6177547644686523
 30
0.0
 11
38.57500000000001
 21
0.0000000000000026
 31
0.0
  0
LINE
  5
C9
330
1F
100
AcDbEntity
  8
외형선
  6
Continuous
 62
     1
370
    15
100
AcDbLine
 10
38.57500000000001
 20
0.0000000000000026
 30
0.0
 11
38.57500000000001
 21
-0.825294605844847
 31
0.0
  0
SPLINE
  5
CA
330
1F
100
AcDbEntity
  8
외형선
  6
Continuous
 62
     1
370
    15
100
AcDbSpline
210
0.0
220
0.0
230
1.0
 70
     8
 71
     3
 72
     8
 73
     4
 74
     0
 42
0.000000001
 43
0.00000001
 40
0.0
 40
0.0
 40
0.0
 40
0.0
 40
1.0
 40
1.0
 40
1.0
 40
1.0
 10
38.5750000000025
 20
-0.8252946058469977
 30
0.0
 10
38.57500000000249
 20
-0.8331082769873868
 30
0.0
 10
38.57397502556425
 20
-0.8400349945336096
 30
0.0
 10
38.57197252257851
 20
-0.8461158154151902
 30
0.0
  0
SPLINE
  5
CB
330
1F
100
AcDbEntity
  8
외형선
  6
Continuous
 62
     1
370
    15
100
AcDbSpline
210
0.0
220
0.0
230
1.0
 70
     8
 71
     3
 72
    24
 73
    20
 74
     0
 42
0.000000001
 43
0.00000001
 40
0.0
 40
0.0
 40
0.0
 40
0.0
 40
0.0405182333758205
 40
0.10375512669741
 40
0.167032739662714
 40
0.230289935585413
 40
0.2935099702660889
 40
0.3567069132981964
 40
0.4198949611210999
 40
0.4830883591485227
 40
0.5463013233301227
 40
0.6095479620542273
 40
0.6728285423690605
 40
0.7360751246862138
 40
0.7992880519211483
 40
0.8624814326650144
 40
0.9256694829626168
 40
0.9888664482140452
 40
1.0
 40
1.0
 40
1.0
 40
1.0
 10
31.85621234720318
 20
-2.37257914692762
 30
0.0
 10
31.58835167424892
 20
-2.415625891683202
 30
0.0
 10
30.90244027722815
 20
-2.525855782868232
 30
0.0
 10
29.79813924455255
 20
-2.558114301877759
 30
0.0
 10
28.54334496293451
 20
-2.481186138122372
 30
0.0
 10
27.28875517783611
 20
-2.270732099489085
 30
0.0
 10
26.03480747629952
 20
-1.944055284200491
 30
0.0
 10
24.78137490359385
 20
-1.516434175551592
 30
0.0
 10
23.5281425463932
 20
-1.010448559930478
 30
0.0
 10
22.27479044429697
 20
-0.4521215843606103
 30
0.0
 10
21.02099759257401
 20
0.1296625640822678
 30
0.0
 10
19.76654660846662
 20
0.7048349041592452
 30
0.0
 10
18.51172239826591
 20
1.243258030919486
 30
0.0
 10
17.25727222242936
 20
1.717713738874893
 30
0.0
 10
16.00348022679449
 20
2.102412763725078
 30
0.0
 10
14.75012836081755
 20
2.381022960315744
 30
0.0
 10
13.49689652733026
 20
2.526042393210249
 30
0.0
 10
12.58779321074459
 20
2.564424364382274
 30
0.0
 10
12.0964004073115
 20
2.521161149270907
 30
0.0
 10
12.02279743181334
 20
2.514680994617508
 30
0.0
  0
SPLINE
  5
CC
330
1F
100
AcDbEntity
  8
외형선
  6
Continuous
370
    15
100
AcDbSpline
210
0.0
220
0.0
230
1.0
 70
    24
 71
     3
 72
    10
 73
     6
 74
     0
 42
0.000000001
 43
0.00000001
 40
0.0
 40
0.0
 40
0.0
 40
0.0
 40
0.1001648720638724
 40
0.7160820476674384
 40
1.0
 40
1.0
 40
1.0
 40
1.0
 10
10.0
 20
2.475544364636529
 30
0.0
 10
10.0
 20
2.477677158585216
 30
0.0
 10
10.0
 20
2.492924574436308
 30
0.0
 10
10.0
 20
2.449111716773641
 30
0.0
 10
10.0
 20
2.366314767882131
 30
0.0
 10
10.0
 20
2.34019049304683
 30
0.0
  0
SPLINE
  5
CD
330
1F
100
AcDbEntity
  8
외형선
  6
Continuous
 62
     1
370
    15
100
AcDbSpline
210
0.0
220
0.0
230
1.0
 70
     8
 71
     3
 72
    14
 73
    10
 74
     0
 42
0.000000001
 43
0.00000001
 40
0.0
 40
0.0
 40
0.0
 40
0.0
 40
0.1604696358349121
 40
0.3209091765592799
 40
0.4752287214127247
 40
0.6295526221774215
 40
0.7839156329194735
 40
0.9383522925684614
 40
1.0
 40
1.0
 40
1.0
 40
1.0
 10
37.41873067762791
 20
0.5297748380559626
 30
0.0
 10
36.98432146400042
 20
0.7231271320336496
 30
0.0
 10
36.11558450756849
 20
1.109795457934642
 30
0.0
 10
34.82910208929101
 20
1.613534651730144
 30
0.0
 10
33.55938552414081
 20
2.025758439552993
 30
0.0
 10
32.30608929788917
 20
2.329411927720497
 30
0.0
 10
31.05243371453062
 20
2.504574633572682
 30
0.0
 10
30.04960368692933
 20
2.565077599818628
 30
0.0
 10
29.46457818525705
 20
2.520018852686961
 30
0.0
 10
29.29767355696601
 20
2.507163834538566
 30
0.0
  0
SPLINE
  5
CE
330
1F
100
AcDbEntity
  8
외형선
  6
Continuous
 62
     1
370
    15
100
AcDbSpline
210
0.0
220
0.0
230
1.0
 70
     8
 71
     3
 72
    11
 73
     7
 74
     0
 42
0.000000001
 43
0.00000001
 40
0.0
 40
0.0
 40
0.0
 40
0.0
 40
0.2357358269874563
 40
0.5096724293025293
 40
0.7547009508194876
 40
1.0
 40
1.0
 40
1.0
 40
1.0
 10
14.57549523167789
 20
-2.379935148570257
 30
0.0
 10
14.21598261799958
 20
-2.430909894527711
 30
0.0
 10
13.43869870015
 20
-2.541119797439912
 30
0.0
 10
12.28768578562134
 20
-2.550839641039902
 30
0.0
 10
11.1221340036323
 20
-2.462761537299688
 30
0.0
 10
10.37418222329935
 20
-2.320077368672141
 30
0.0
 10
10.00000000000001
 20
-2.24869592290179
 30
0.0
  0
SPLINE
  5
CF
330
1F
100
AcDbEntity
  8
외형선
  6
Continuous
 62
     1
370
    15
100
AcDbSpline
210
0.0
220
0.0
230
1.0
 70
    24
 71
     3
 72
     8
 73
     4
 74
     0
 42
0.000000001
 43
0.00000001
 40
0.0
 40
0.0
 40
0.0
 40
0.0
 40
1.0
 40
1.0
 40
1.0
 40
1.0
 10
37.41873067762791
 20
0.5297748380559654
 30
0.0
 10
37.34123158405604
 20
0.464745377223239
 30
0.0
 10
37.26373352345886
 20
0.3997167831591838
 30
0.0
 10
37.18623646475989
 20
0.3346890297875567
 30
0.0
  0
SPLINE
  5
D0
330
1F
100
AcDbEntity
  8
외형선
  6
Continuous
 62
     1
370
    15
100
AcDbSpline
210
0.0
220
0.0
230
1.0
 70
     8
 71
     3
 72
    10
 73
     6
 74
     0
 42
0.000000001
 43
0.00000001
 40
0.0
 40
0.0
 40
0.0
 40
0.0
 40
0.5
 40
0.5
 40
1.0
 40
1.0
 40
1.0
 40
1.0
 10
38.51939290589587
 20
-2.494652426629932
 30
0.0
 10
38.55006032282056
 20
-2.291495919291808
 30
0.0
 10
38.56047327142358
 20
-2.051120971686758
 30
0.0
 10
38.57195938218878
 20
-1.493015534455534
 30
0.0
 10
38.57253344458108
 20
-1.176309695557561
 30
0.0
 10
38.57197252257824
 20
-0.8461158154363976
 30
0.0
1001
PE_URL
1000

  0
SPLINE
  5
D1
330
1F
100
AcDbEntity
  8
외형선
  6
Continuous
370
    15
100
AcDbSpline
210
0.0
220
0.0
230
1.0
 70
    24
 71
     3
 72
    10
 73
     6
 74
     0
 42
0.000000001
 43
0.00000001
 40
0.0
 40
0.0
 40
0.0
 40
0.0
 40
0.3092767884526356
 40
0.6226117998124051
 40
0.9999999999999999
 40
0.9999999999999999
 40
0.9999999999999999
 40
0.9999999999999999
 10
10.00000000000001
 20
-2.24869592290179
 30
0.0
 10
10.00000000000001
 20
-2.291792446103679
 30
0.0
 10
10.0
 20
-2.378550990159417
 30
0.0
 10
10.0
 20
-2.464502008621197
 30
0.0
 10
10.0
 20
-2.471630730820413
 30
0.0
 10
10.0
 20
-2.475525627640766
 30
0.0
  0
SPLINE
  5
D2
330
1F
100
AcDbEntity
  8
외형선
  6
Continuous
 62
     1
370
    15
100
AcDbSpline
210
0.0
220
0.0
230
1.0
 70
    24
 71
     3
 72
    10
 73
     6
 74
     0
 42
0.000000001
 43
0.00000001
 40
0.0
 40
0.0
 40
0.0
 40
0.0
 40
0.5
 40
0.5
 40
1.0
 40
1.0
 40
1.0
 40
1.0
 10
38.57500000000001
 20
1.499999999997703
 30
0.0
 10
38.57500000000001
 20
1.681161257549189
 30
0.0
 10
38.57500000000001
 20
1.834868597517468
 30
0.0
 10
38.57500000000002
 20
2.077169582715877
 30
0.0
 10
38.57500000000001
 20
2.165782276926209
 30
0.0
 10
38.57500000000001
 20
2.222499999999999
 30
0.0
  0
SPLINE
  5
D3
330
1F
100
AcDbEntity
  8
외형선
  6
Continuous
 62
     1
370
    15
100
AcDbSpline
210
0.0
220
0.0
230
1.0
 70
    24
 71
     3
 72
     8
 73
     4
 74
     0
 42
0.000000001
 43
0.00000001
 40
0.0
 40
0.0
 40
0.0
 40
0.0
 40
1.0
 40
1.0
 40
1.0
 40
1.0
 10
38.57500000000001
 20
1.500000000000001
 30
0.0
 10
38.21612387580975
 20
1.19886717655362
 30
0.0
 10
37.82586612946892
 20
0.8714020455352782
 30
0.0
 10
37.41873067762786
 20
0.5297748380562405
 30
0.0
  0
SPLINE
  5
D4
330
1F
100
AcDbEntity
  8
외형선
  6
Continuous
370
    15
100
AcDbSpline
210
0.0
220
0.0
230
1.0
 70
    24
 71
     3
 72
    14
 73
    10
 74
     0
 42
0.000000001
 43
0.00000001
 40
0.0
 40
0.0
 40
0.0
 40
0.0
 40
0.25
 40
0.25
 40
0.4999999999999999
 40
0.4999999999999999
 40
0.75
 40
0.75
 40
1.0
 40
1.0
 40
1.0
 40
1.0
 10
10.0
 20
1.033451178620686
 30
0.0
 10
10.0
 20
0.7623168604209185
 30
0.0
 10
10.0
 20
0.4733104625554906
 30
0.0
 10
10.0
 20
-0.1166157411594775
 30
0.0
 10
10.0
 20
-0.4172719273188051
 30
0.0
 10
10.0
 20
-1.000604095203751
 30
0.0
 10
10.0
 20
-1.282969253162239
 30
0.0
 10
10.0
 20
-1.803200729482605
 30
0.0
 10
10.0
 20
-2.040901318159448
 30
0.0
 10
10.0
 20
-2.248695922901788
 30
0.0
  0
LINE
  5
D5
330
1F
100
AcDbEntity
  8
외형선
  6
Continuous
 62
     1
370
    15
100
AcDbLine
 10
38.57500000000001
 20
-0.825294605844847
 30
0.0
 11
38.57500000000002
 21
-2.413000000000113
 31
0.0
1001
PE_URL
1000

  0
LINE
  5
D6
330
1F
100
AcDbEntity
  8
외형선
  6
Continuous
 62
     1
370
    15
100
AcDbLine
 10
38.57500000000001
 20
0.0000000000000026
 30
0.0
 11
38.57500000000001
 21
1.500000000000003
 31
0.0
  0
LINE
  5
D7
330
1F
100
AcDbEntity
  8
중심선
 62
     1
100
AcDbLine
 10
-40.625
 20
-0.000000000000005
 30
0.0
 11
41.57500000000002
 21
0.0000000000000051
 31
0.0
  0
LINE
  5
D8
330
1F
100
AcDbEntity
  8
참조1
100
AcDbLine
 10
0.47500000000001
 20
-0.000000000000005
 30
0.0
 11
0.4750000000000152
 21
-40.00000000000001
 31
0.0
  0
LINE
  5
D9
330
1F
100
AcDbEntity
  8
참조1
100
AcDbLine
 10
0.4750000000000152
 20
-40.00000000000001
 30
0.0
 11
-14.66672777521595
 21
-39.99999999999999
 31
0.0
  0
CIRCLE
  5
DA
330
1F
100
AcDbEntity
  8
해칭선
100
AcDbCircle
 10
0.0
 20
0.0
 30
0.0
 40
3.000000000000001
  0
INSERT
  5
DB
330
1F
100
AcDbEntity
  8
0
  6
Continuous
 62
     7
100
AcDbBlockReference
 66
     1
  2
블럭10
 10
-13.4652729321252
 20
-52.04717430164393
 30
0.0
  0
ATTRIB
  5
DC
330
DB
100
AcDbEntity
  8
FORMAT
 62
     2
100
AcDbText
 10
-23.60690894426183
 20
-49.97180738881175
 30
0.0
 40
4.233333333333333
  1
EM211901 [ 2 FLUTE ]
 41
0.75
  7
SLDTEXTSTYLE0
 11
-23.60690894426183
 21
-52.08847405547841
 31
0.0
100
AcDbAttribute
  2
AUTOATTR0
 70
     0
 74
     1
  0
SEQEND
  5
DD
330
DB
100
AcDbEntity
  8
0
  6
Continuous
 62
     7
  0
HATCH
  5
DE
330
1F
100
AcDbEntity
  8
중심선
100
AcDbHatch
 10
0.0
 20
0.0
 30
0.0
210
0.0
220
0.0
230
1.0
  2
SOLID
 70
     1
 71
     0
 91
        1
 92
        0
 93
        4
 72
     1
 10
-7.750363627744346
 20
-35.8
 11
-11.19663887158163
 21
-35.8
 72
     1
 10
-11.19663887158163
 20
-35.8
 11
-13.32486873078565
 21
-38.3363255805726
 72
     1
 10
-13.32486873078565
 20
-38.3363255805726
 11
-9.87856040183522
 21
-38.3362861512701
 72
     1
 10
-9.87856040183522
 20
-38.3362861512701
 11
-7.750363627744346
 21
-35.8
 97
        0
 75
     0
 76
     1
 98
        1
 10
-0.0000000000000071
 20
-0.0010749287238942
  0
HATCH
  5
DF
330
1F
100
AcDbEntity
  8
중심선
100
AcDbHatch
 10
0.0
 20
0.0
 30
0.0
210
0.0
220
0.0
230
1.0
  2
SOLID
 70
     1
 71
     0
 91
        1
 92
        0
 93
        4
 72
     1
 10
-2.737599636708395
 20
-35.8
 11
-6.183874880545649
 21
-35.8
 72
     1
 10
-6.183874880545649
 20
-35.8
 11
-10.71501288890307
 21
-41.20000000000002
 72
     1
 10
-10.71501288890307
 20
-41.20000000000002
 11
-7.268737645065783
 21
-41.20000000000002
 72
     1
 10
-7.268737645065783
 20
-41.20000000000002
 11
-2.737599636708395
 21
-35.8
 97
        0
 75
     0
 76
     1
 98
        1
 10
-0.0000000000000071
 20
-0.0010749287238942
  0
HATCH
  5
E0
330
1F
100
AcDbEntity
  8
중심선
100
AcDbHatch
 10
0.0
 20
0.0
 30
0.0
210
0.0
220
0.0
230
1.0
  2
SOLID
 70
     1
 71
     0
 91
        1
 92
        0
 93
        4
 72
     1
 10
2.275164354327501
 20
-35.8
 11
-1.171110889509587
 21
-35.8
 72
     1
 10
-1.171110889509587
 20
-35.8
 11
-8.219547791398863
 21
-44.20000000000002
 72
     1
 10
-8.219547791398863
 20
-44.20000000000002
 11
-4.773272547561581
 21
-44.20000000000002
 72
     1
 10
-4.773272547561581
 20
-44.20000000000002
 11
2.275164354327501
 21
-35.8
 97
        0
 75
     0
 76
     1
 98
        1
 10
-0.0000000000000071
 20
-0.0010749287238942
  0
HATCH
  5
E1
330
1F
100
AcDbEntity
  8
중심선
100
AcDbHatch
 10
0.0
 20
0.0
 30
0.0
210
0.0
220
0.0
230
1.0
  2
SOLID
 70
     1
 71
     0
 91
        1
 92
        0
 93
        6
 72
     3
 10
7.075054785339701
 20
-40.00000000005127
 11
3.960054785062285
 21
1.540882976769353E-10
 40
0.3939339440162626
 50
17.09539180608438
 51
320.0019657685079
 73
     0
 72
     1
 10
8.758054441040295
 20
-38.58789400463831
 11
11.06335631474136
 21
-36.65356729459039
 72
     3
 10
7.075054785286854
 20
-40.00000000000014
 11
6.600054785286829
 21
-1.278976924368180E-13
 40
0.636358354079598
 50
39.99873849337384
 51
368.4976242363725
 73
     1
 72
     1
 10
13.50038727718746
 20
-39.03999999993002
 11
5.755122092122776
 21
-39.03999999993
 72
     1
 10
5.755122092122776
 20
-39.03999999993
 11
5.755097047676842
 21
-40.95999999992991
 72
     1
 10
5.755097047676842
 20
-40.95999999992991
 11
10.19647681714888
 21
-40.95999999992988
 97
        0
 75
     0
 76
     1
 98
        1
 10
-0.0000000000000071
 20
-0.0010749287238942
  0
DIMENSION
  5
E2
330
1F
100
AcDbEntity
  8
치수문자_일반주서
100
AcDbDimension
  2
_D
 10
-45.52570365944343
 20
-3.17500000000004
 30
0.0
 11
-45.52570365944351
 21
22.46649999999998
 31
0.0
 70
   160
  1
%%c<>
 71
     2
 42
6.350000000000022
 52
-270.0
  3
SLDDIMSTYLE0
100
AcDbAlignedDimension
 13
-37.625
 23
3.17500000000001
 33
0.0
 14
-37.61059764070509
 24
-3.175000000000012
 34
0.0
 50
90.0000000000002
100
AcDbRotatedDimension
1001
PE_URL
1000

1001
ACAD
1000
DSTYLE
1002
{
1070
   171
1070
     6
1070
   273
1070
     7
1002
}
  0
DIMENSION
  5
F7
330
1F
100
AcDbEntity
  8
치수문자_일반주서
100
AcDbDimension
  2
_D_1
 10
48.57500000000002
 20
-3.174999999999915
 30
0.0
 11
48.57499999999993
 21
22.46650000000015
 31
0.0
 70
   160
  1
%%c<>
 71
     2
 42
6.350000000000062
 52
-270.0
  3
SLDDIMSTYLE0
100
AcDbAlignedDimension
 13
38.57500000000001
 23
3.175000000000112
 33
0.0
 14
38.5760092063528
 24
-3.17499999999995
 34
0.0
 50
90.0000000000002
100
AcDbRotatedDimension
1001
ACAD
1000
DSTYLE
1002
{
1070
   171
1070
     6
1070
   273
1070
     7
1002
}
1001
PE_URL
1000

  0
DIMENSION
  5
10B
330
1F
100
AcDbEntity
  8
치수문자_일반주서
100
AcDbDimension
  2
_D_2
 10
10.0
 20
21.41704269982869
 30
0.0
 11
-11.479
 21
21.41704269982869
 31
0.0
 70
   160
  1
<>
 71
     2
 42
28.57500000000001
  3
SLDDIMSTYLE0
100
AcDbAlignedDimension
 13
38.57500000000001
 23
3.175000000000112
 33
0.0
 14
10.0
 24
3.175000000000013
 34
0.0
 50
0.0000000000000427
100
AcDbRotatedDimension
1001
PE_URL
1000

1001
ACAD
1000
DSTYLE
1002
{
1070
   171
1070
     6
1070
   273
1070
     7
1002
}
  0
DIMENSION
  5
120
330
1F
100
AcDbEntity
  8
치수문자_일반주서
100
AcDbDimension
  2
_D_3
 10
-37.62499999999999
 20
38.23514140286156
 30
0.0
 11
0.1321110371026819
 21
38.23514140286156
 31
0.0
 70
   160
  1
<>
 71
     2
 42
76.20000000000002
  3
SLDDIMSTYLE0
100
AcDbAlignedDimension
 13
38.57500000000001
 23
3.175000000000112
 33
0.0
 14
-37.625
 24
3.175000000000007
 34
0.0
 50
0.0000000000000053
100
AcDbRotatedDimension
1001
PE_URL
1000

1001
ACAD
1000
DSTYLE
1002
{
1070
   171
1070
     6
1070
   273
1070
     7
1002
}
  0
LINE
  5
134
330
1F
100
AcDbEntity
  8
참조1
100
AcDbLine
 10
83.30561285443832
 20
7.440000000000002
 30
0.0
 11
83.30561285443832
 21
-7.440000000000003
 31
0.0
  0
LINE
  5
135
330
1F
100
AcDbEntity
  8
참조1
100
AcDbLine
 10
96.00561285443831
 20
5.440000000000002
 30
0.0
 11
83.30561285443832
 21
5.440000000000002
 31
0.0
  0
SOLID
  5
136
330
1F
100
AcDbEntity
  8
참조1
100
AcDbTrace
 10
83.30561285443832
 20
5.440000000000002
 30
0.0
 11
89.65561285443832
 21
4.424000000000002
 31
0.0
 12
89.65561285443832
 22
6.456000000000002
 32
0.0
 13
89.65561285443832
 23
6.456000000000002
 33
0.0
  0
LINE
  5
137
330
1F
100
AcDbEntity
  8
참조1
100
AcDbLine
 10
96.00561285443831
 20
-5.440000000000003
 30
0.0
 11
83.30561285443832
 21
-5.440000000000003
 31
0.0
  0
SOLID
  5
138
330
1F
100
AcDbEntity
  8
참조1
100
AcDbTrace
 10
83.30561285443832
 20
-5.440000000000003
 30
0.0
 11
89.65561285443832
 21
-6.456000000000003
 31
0.0
 12
89.65561285443832
 22
-4.424000000000003
 32
0.0
 13
89.65561285443832
 23
-4.424000000000003
 33
0.0
  0
MTEXT
  5
139
330
1F
100
AcDbEntity
  8
참조1
100
AcDbMText
 10
92.70310294690859
 20
10.98821664464994
 30
0.0
 40
3.5
 41
0.0
 71
     1
 72
     1
  1
A
  7
SLDTEXTSTYLE0
 73
     1
 44
1.0
  0
MTEXT
  5
13A
330
1F
100
AcDbEntity
  8
참조1
100
AcDbMText
 10
92.70310294690859
 20
0.1082166446499309
 30
0.0
 40
3.5
 41
0.0
 71
     1
 72
     1
  1
A
  7
SLDTEXTSTYLE0
 73
     1
 44
1.0
  0
INSERT
  5
141
330
1F
100
AcDbEntity
  8
해칭선
100
AcDbBlockReference
  2
SW_DOWELSYMBOL_0
 10
0.0
 20
0.0
 30
0.0
  0
ARC
  5
194
330
1F
100
AcDbEntity
  8
외형선
  6
Continuous
 62
     1
370
    15
100
AcDbCircle
 10
37.81300000000001
 20
2.413000000000119
 30
0.0
 40
0.7619999999999997
100
AcDbArc
 50
0.0
 51
90.0
1001
PE_URL
1000

  0
ARC
  5
195
330
1F
100
AcDbEntity
  8
외형선
  6
Continuous
 62
     1
370
    15
100
AcDbCircle
 10
37.81300000000002
 20
-2.413000000000114
 30
0.0
 40
0.7619999999999997
100
AcDbArc
 50
270.0
 51
0.0000000000001002
1001
PE_URL
1000

  0
MTEXT
  5
1BE
102
{ACAD_REACTORS
330
1BF
102
}
330
1F
100
AcDbEntity
  8
0
100
AcDbMText
 10
48.81852413332329
 20
-17.51733397917063
 30
0.0
 40
3.5
 41
0.0
 71
     7
 72
     1
  1
{R0.76[.030"]}
 73
     1
 44
1.0
1001
ACAD
1000
ACAD_MTEXT_DEFINED_HEIGHT_BEGIN
1070
    46
1040
3.5
1000
ACAD_MTEXT_DEFINED_HEIGHT_END
  0
LEADER
  5
1BF
102
{ACAD_XDICTIONARY
360
1C0
102
}
330
1F
100
AcDbEntity
  8
0
100
AcDbLeader
  3
ISO-25
 73
     0
 74
     0
 75
     1
 40
3.5
 41
30.91666666666667
 76
     3
 10
38.27356653034988
 20
-3.020060516852838
 30
0.0
 10
43.99252413332329
 20
-15.76733397917063
 30
0.0
 10
47.29452413332329
 20
-15.76733397917063
 30
0.0
340
1BE
213
0.0
223
1.75
233
0.0
1001
ACAD
1000
DSTYLE
1002
{
1070
    77
1070
     0
1070
   179
1070
     2
1070
   143
1040
0.0393700787401575
1070
    41
1040
3.302
1070
    44
1040
1.0
1070
    42
1040
1.0
1070
   147
1040
1.524
1070
    73
1070
     1
1070
    74
1070
     1
1070
   140
1040
3.5
1070
   284
1070
     0
1070
    78
1070
     0
1002
}
  0
ENDSEC
  0
SECTION
  2
OBJECTS
  0
DICTIONARY
  5
C
330
0
100
AcDbDictionary
281
     1
  3
ACAD_DETAILVIEWSTYLE
350
1E8
  3
ACAD_GROUP
350
D
  3
ACAD_LAYOUT
350
1A
  3
ACAD_MLINESTYLE
350
17
  3
ACAD_PLOTSETTINGS
350
19
  3
ACAD_PLOTSTYLENAME
350
E
  3
ACAD_SCALELIST
350
47
  3
ACAD_SECTIONVIEWSTYLE
350
1E9
  3
AcDbVariableDictionary
350
1E3
  3
APPDATA
350
163
  3
DWGPROPS
350
20C
  0
DICTIONARY
  5
1C0
330
1BF
100
AcDbDictionary
280
     1
281
     1
  0
DICTIONARY
  5
1E8
102
{ACAD_REACTORS
330
C
102
}
330
C
100
AcDbDictionary
281
     1
  0
DICTIONARY
  5
D
102
{ACAD_REACTORS
330
C
102
}
330
C
100
AcDbDictionary
281
     1
  0
DICTIONARY
  5
1A
102
{ACAD_REACTORS
330
C
102
}
330
C
100
AcDbDictionary
281
     1
  3
Layout1
350
1E
  3
Layout2
350
26
  3
Model
350
22
  0
DICTIONARY
  5
17
102
{ACAD_REACTORS
330
C
102
}
330
C
100
AcDbDictionary
281
     1
  3
Standard
350
18
  0
DICTIONARY
  5
19
102
{ACAD_REACTORS
330
C
102
}
330
C
100
AcDbDictionary
281
     1
  0
ACDBDICTIONARYWDFLT
  5
E
102
{ACAD_REACTORS
330
C
102
}
330
C
100
AcDbDictionary
281
     1
  3
Normal
350
F
100
AcDbDictionaryWithDefault
340
F
  0
DICTIONARY
  5
47
102
{ACAD_REACTORS
330
C
102
}
330
C
100
AcDbDictionary
281
     1
  3
A0
350
48
  3
A1
350
49
  3
A2
350
4A
  3
A3
350
4B
  3
A4
350
4C
  3
A5
350
4D
  3
A6
350
4E
  3
A7
350
4F
  3
A8
350
50
  3
A9
350
51
  3
B0
350
52
  3
B1
350
53
  3
B2
350
54
  3
B3
350
55
  3
B4
350
56
  3
B5
350
57
  3
B6
350
58
  3
B7
350
59
  3
B8
350
5A
  3
B9
350
5B
  3
C0
350
5C
  3
C1
350
5D
  3
C2
350
5E
  3
C3
350
5F
  3
C4
350
60
  3
C5
350
61
  3
C6
350
62
  3
C7
350
63
  3
C8
350
64
  3
C9
350
65
  3
D0
350
66
  3
D1
350
67
  3
D2
350
68
  0
DICTIONARY
  5
1E9
102
{ACAD_REACTORS
330
C
102
}
330
C
100
AcDbDictionary
281
     1
  0
DICTIONARY
  5
1E3
102
{ACAD_REACTORS
330
C
102
}
330
C
100
AcDbDictionary
281
     1
  0
DICTIONARY
  5
163
102
{ACAD_REACTORS
330
C
102
}
330
C
100
AcDbDictionary
281
     1
  0
XRECORD
  5
20C
102
{ACAD_REACTORS
330
C
102
}
330
C
100
AcDbXrecord
280
     1
  1
DWGPROPS COOKIE
  2

  3

  4

  6

  7

  8
USER
  9

300
=
301
=
302
=
303
=
304
=
305
=
306
=
307
=
308
=
309
=
 40
0.0
 41
2458288.27303603
 42
2458303.004392303
  1

 90
        0
  0
LAYOUT
  5
1E
102
{ACAD_REACTORS
330
1A
102
}
330
1A
100
AcDbPlotSettings
  1

  2
none_device
  4

  6

 40
0.0
 41
0.0
 42
0.0
 43
0.0
 44
0.0
 45
0.0
 46
0.0
 47
0.0
 48
0.0
 49
0.0
140
0.0
141
0.0
142
1.0
143
1.0
 70
   688
 72
     1
 73
     0
 74
     5
  7

 75
    16
147
1.0
148
0.0
149
0.0
100
AcDbLayout
  1
Layout1
 70
     1
 71
     1
 10
0.0
 20
0.0
 11
420.0
 21
297.0
 12
0.0
 22
0.0
 32
0.0
 14
1.000000000000000E+20
 24
1.000000000000000E+20
 34
1.000000000000000E+20
 15
-1.000000000000000E+20
 25
-1.000000000000000E+20
 35
-1.000000000000000E+20
146
0.0
 13
0.0
 23
0.0
 33
0.0
 16
1.0
 26
0.0
 36
0.0
 17
0.0
 27
1.0
 37
0.0
 76
     0
330
1B
  0
LAYOUT
  5
26
102
{ACAD_REACTORS
330
1A
102
}
330
1A
100
AcDbPlotSettings
  1

  2
none_device
  4

  6

 40
0.0
 41
0.0
 42
0.0
 43
0.0
 44
0.0
 45
0.0
 46
0.0
 47
0.0
 48
0.0
 49
0.0
140
0.0
141
0.0
142
1.0
143
1.0
 70
   688
 72
     1
 73
     0
 74
     5
  7

 75
    16
147
1.0
148
0.0
149
0.0
100
AcDbLayout
  1
Layout2
 70
     1
 71
     2
 10
0.0
 20
0.0
 11
0.0
 21
0.0
 12
0.0
 22
0.0
 32
0.0
 14
0.0
 24
0.0
 34
0.0
 15
0.0
 25
0.0
 35
0.0
146
0.0
 13
0.0
 23
0.0
 33
0.0
 16
1.0
 26
0.0
 36
0.0
 17
0.0
 27
1.0
 37
0.0
 76
     0
330
23
  0
LAYOUT
  5
22
102
{ACAD_REACTORS
330
1A
102
}
330
1A
100
AcDbPlotSettings
  1

  2
none_device
  4
ANSI_A_(11.00_x_8.50_Inches)
  6

 40
6.35
 41
19.05
 42
6.35000508
 43
19.05000254
 44
279.4
 45
215.9
 46
102.6304152698886
 47
101.8624946882648
 48
0.0
 49
0.0
140
0.0
141
0.0
142
0.0693129513144063
143
1.0
 70
  1696
 72
     0
 73
     0
 74
     0
  7

 75
     0
147
0.0235690232323232
148
0.0
149
0.0
100
AcDbLayout
  1
Model
 70
     1
 71
     0
 10
0.0
 20
0.0
 11
420.0
 21
297.0
 12
0.0
 22
0.0
 32
0.0
 14
-49.90070365944356
 24
-49.97180738881174
 34
0.0
 15
96.00561285443831
 25
42.61014140286156
 35
0.0
146
0.0
 13
0.0
 23
0.0
 33
0.0
 16
1.0
 26
0.0
 36
0.0
 17
0.0
 27
1.0
 37
0.0
 76
     0
330
1F
331
29
  0
MLINESTYLE
  5
18
102
{ACAD_REACTORS
330
17
102
}
330
17
100
AcDbMlineStyle
  2
Standard
 70
     0
  3

 62
   256
 51
90.0
 52
90.0
 71
     2
 49
0.5
 62
   256
  6
BYLAYER
 49
-0.5
 62
   256
  6
BYLAYER
  0
ACDBPLACEHOLDER
  5
F
102
{ACAD_REACTORS
330
E
102
}
330
E
  0
SCALE
  5
48
102
{ACAD_REACTORS
330
47
102
}
330
47
100
AcDbScale
 70
     0
300
1:1
140
1.0
141
1.0
290
     1
  0
SCALE
  5
49
102
{ACAD_REACTORS
330
47
102
}
330
47
100
AcDbScale
 70
     0
300
1:2
140
1.0
141
2.0
290
     0
  0
SCALE
  5
4A
102
{ACAD_REACTORS
330
47
102
}
330
47
100
AcDbScale
 70
     0
300
1:4
140
1.0
141
4.0
290
     0
  0
SCALE
  5
4B
102
{ACAD_REACTORS
330
47
102
}
330
47
100
AcDbScale
 70
     0
300
1:5
140
1.0
141
5.0
290
     0
  0
SCALE
  5
4C
102
{ACAD_REACTORS
330
47
102
}
330
47
100
AcDbScale
 70
     0
300
1:8
140
1.0
141
8.0
290
     0
  0
SCALE
  5
4D
102
{ACAD_REACTORS
330
47
102
}
330
47
100
AcDbScale
 70
     0
300
1:10
140
1.0
141
10.0
290
     0
  0
SCALE
  5
4E
102
{ACAD_REACTORS
330
47
102
}
330
47
100
AcDbScale
 70
     0
300
1:16
140
1.0
141
16.0
290
     0
  0
SCALE
  5
4F
102
{ACAD_REACTORS
330
47
102
}
330
47
100
AcDbScale
 70
     0
300
1:20
140
1.0
141
20.0
290
     0
  0
SCALE
  5
50
102
{ACAD_REACTORS
330
47
102
}
330
47
100
AcDbScale
 70
     0
300
1:30
140
1.0
141
30.0
290
     0
  0
SCALE
  5
51
102
{ACAD_REACTORS
330
47
102
}
330
47
100
AcDbScale
 70
     0
300
1:40
140
1.0
141
40.0
290
     0
  0
SCALE
  5
52
102
{ACAD_REACTORS
330
47
102
}
330
47
100
AcDbScale
 70
     0
300
1:50
140
1.0
141
50.0
290
     0
  0
SCALE
  5
53
102
{ACAD_REACTORS
330
47
102
}
330
47
100
AcDbScale
 70
     0
300
1:100
140
1.0
141
100.0
290
     0
  0
SCALE
  5
54
102
{ACAD_REACTORS
330
47
102
}
330
47
100
AcDbScale
 70
     0
300
2:1
140
2.0
141
1.0
290
     0
  0
SCALE
  5
55
102
{ACAD_REACTORS
330
47
102
}
330
47
100
AcDbScale
 70
     0
300
4:1
140
4.0
141
1.0
290
     0
  0
SCALE
  5
56
102
{ACAD_REACTORS
330
47
102
}
330
47
100
AcDbScale
 70
     0
300
8:1
140
8.0
141
1.0
290
     0
  0
SCALE
  5
57
102
{ACAD_REACTORS
330
47
102
}
330
47
100
AcDbScale
 70
     0
300
10:1
140
10.0
141
1.0
290
     0
  0
SCALE
  5
58
102
{ACAD_REACTORS
330
47
102
}
330
47
100
AcDbScale
 70
     0
300
100:1
140
100.0
141
1.0
290
     0
  0
SCALE
  5
59
102
{ACAD_REACTORS
330
47
102
}
330
47
100
AcDbScale
 70
     0
300
1/128" = 1'-0"
140
0.0078125
141
12.0
290
     0
  0
SCALE
  5
5A
102
{ACAD_REACTORS
330
47
102
}
330
47
100
AcDbScale
 70
     0
300
1/64" = 1'-0"
140
0.015625
141
12.0
290
     0
  0
SCALE
  5
5B
102
{ACAD_REACTORS
330
47
102
}
330
47
100
AcDbScale
 70
     0
300
1/32" = 1'-0"
140
0.03125
141
12.0
290
     0
  0
SCALE
  5
5C
102
{ACAD_REACTORS
330
47
102
}
330
47
100
AcDbScale
 70
     0
300
1/16" = 1'-0"
140
0.0625
141
12.0
290
     0
  0
SCALE
  5
5D
102
{ACAD_REACTORS
330
47
102
}
330
47
100
AcDbScale
 70
     0
300
3/32" = 1'-0"
140
0.09375
141
12.0
290
     0
  0
SCALE
  5
5E
102
{ACAD_REACTORS
330
47
102
}
330
47
100
AcDbScale
 70
     0
300
1/8" = 1'-0"
140
0.125
141
12.0
290
     0
  0
SCALE
  5
5F
102
{ACAD_REACTORS
330
47
102
}
330
47
100
AcDbScale
 70
     0
300
3/16" = 1'-0"
140
0.1875
141
12.0
290
     0
  0
SCALE
  5
60
102
{ACAD_REACTORS
330
47
102
}
330
47
100
AcDbScale
 70
     0
300
1/4" = 1'-0"
140
0.25
141
12.0
290
     0
  0
SCALE
  5
61
102
{ACAD_REACTORS
330
47
102
}
330
47
100
AcDbScale
 70
     0
300
3/8" = 1'-0"
140
0.375
141
12.0
290
     0
  0
SCALE
  5
62
102
{ACAD_REACTORS
330
47
102
}
330
47
100
AcDbScale
 70
     0
300
1/2" = 1'-0"
140
0.5
141
12.0
290
     0
  0
SCALE
  5
63
102
{ACAD_REACTORS
330
47
102
}
330
47
100
AcDbScale
 70
     0
300
3/4" = 1'-0"
140
0.75
141
12.0
290
     0
  0
SCALE
  5
64
102
{ACAD_REACTORS
330
47
102
}
330
47
100
AcDbScale
 70
     0
300
1" = 1'-0"
140
1.0
141
12.0
290
     0
  0
SCALE
  5
65
102
{ACAD_REACTORS
330
47
102
}
330
47
100
AcDbScale
 70
     0
300
1-1/2" = 1'-0"
140
1.5
141
12.0
290
     0
  0
SCALE
  5
66
102
{ACAD_REACTORS
330
47
102
}
330
47
100
AcDbScale
 70
     0
300
3" = 1'-0"
140
3.0
141
12.0
290
     0
  0
SCALE
  5
67
102
{ACAD_REACTORS
330
47
102
}
330
47
100
AcDbScale
 70
     0
300
6" = 1'-0"
140
6.0
141
12.0
290
     0
  0
SCALE
  5
68
102
{ACAD_REACTORS
330
47
102
}
330
47
100
AcDbScale
 70
     0
300
1'-0" = 1'-0"
140
12.0
141
12.0
290
     0
  0
ENDSEC
  0
EOF
