  0
SECTION
  2
HEADER
  9
$ACADVER
  1
AC1015
  9
$ACADMAINTVER
 70
     6
  9
$DWGCODEPAGE
  3
ANSI_949
  9
$INSBASE
 10
0.0
 20
0.0
 30
0.0
  9
$EXTMIN
 10
-54.89528910076226
 20
-49.97180738881175
 30
0.0
  9
$EXTMAX
 10
103.9299663466689
 20
46.03790740783463
 30
0.0
  9
$LIMMIN
 10
0.0
 20
0.0
  9
$LIMMAX
 10
420.0
 20
297.0
  9
$ORTHOMODE
 70
     1
  9
$REGENMODE
 70
     1
  9
$FILLMODE
 70
     1
  9
$QTEXTMODE
 70
     0
  9
$MIRRTEXT
 70
     1
  9
$LTSCALE
 40
1.0
  9
$ATTMODE
 70
     1
  9
$TEXTSIZE
 40
3.5
  9
$TRACEWID
 40
1.0
  9
$TEXTSTYLE
  7
Standard
  9
$CLAYER
  8
0
  9
$CELTYPE
  6
ByLayer
  9
$CECOLOR
 62
   256
  9
$CELTSCALE
 40
1.0
  9
$DISPSILH
 70
     0
  9
$DIMSCALE
 40
1.0
  9
$DIMASZ
 40
3.302
  9
$DIMEXO
 40
1.0
  9
$DIMDLI
 40
3.75
  9
$DIMRND
 40
0.0
  9
$DIMDLE
 40
0.0
  9
$DIMEXE
 40
1.0
  9
$DIMTP
 40
0.0
  9
$DIMTM
 40
0.0
  9
$DIMTXT
 40
3.5
  9
$DIMCEN
 40
2.5
  9
$DIMTSZ
 40
0.0
  9
$DIMTOL
 70
     0
  9
$DIMLIM
 70
     0
  9
$DIMTIH
 70
     1
  9
$DIMTOH
 70
     1
  9
$DIMSE1
 70
     0
  9
$DIMSE2
 70
     0
  9
$DIMTAD
 70
     1
  9
$DIMZIN
 70
     0
  9
$DIMBLK
  1

  9
$DIMASO
 70
     1
  9
$DIMSHO
 70
     1
  9
$DIMPOST
  1

  9
$DIMAPOST
  1

  9
$DIMALT
 70
     0
  9
$DIMALTD
 70
     3
  9
$DIMALTF
 40
0.0393700787401575
  9
$DIMLFAC
 40
1.0
  9
$DIMTOFL
 70
     1
  9
$DIMTVP
 40
0.0
  9
$DIMTIX
 70
     0
  9
$DIMSOXD
 70
     0
  9
$DIMSAH
 70
     0
  9
$DIMBLK1
  1

  9
$DIMBLK2
  1

  9
$DIMSTYLE
  2
ISO-25
  9
$DIMCLRD
 70
     0
  9
$DIMCLRE
 70
     0
  9
$DIMCLRT
 70
     0
  9
$DIMTFAC
 40
1.0
  9
$DIMGAP
 40
1.524
  9
$DIMJUST
 70
     0
  9
$DIMSD1
 70
     0
  9
$DIMSD2
 70
     0
  9
$DIMTOLJ
 70
     0
  9
$DIMTZIN
 70
     0
  9
$DIMALTZ
 70
     0
  9
$DIMALTTZ
 70
     0
  9
$DIMUPT
 70
     0
  9
$DIMDEC
 70
     2
  9
$DIMTDEC
 70
     2
  9
$DIMALTU
 70
     2
  9
$DIMALTTD
 70
     3
  9
$DIMTXSTY
  7
Standard
  9
$DIMAUNIT
 70
     0
  9
$DIMADEC
 70
     2
  9
$DIMALTRND
 40
0.0
  9
$DIMAZIN
 70
     0
  9
$DIMDSEP
 70
    44
  9
$DIMATFIT
 70
     3
  9
$DIMFRAC
 70
     0
  9
$DIMLDRBLK
  1

  9
$DIMLUNIT
 70
     2
  9
$DIMLWD
 70
    -2
  9
$DIMLWE
 70
    -2
  9
$DIMTMOVE
 70
     0
  9
$LUNITS
 70
     2
  9
$LUPREC
 70
     2
  9
$SKETCHINC
 40
1.0
  9
$FILLETRAD
 40
0.762
  9
$AUNITS
 70
     0
  9
$AUPREC
 70
     2
  9
$MENU
  1
.
  9
$ELEVATION
 40
0.0
  9
$PELEVATION
 40
0.0
  9
$THICKNESS
 40
0.0
  9
$LIMCHECK
 70
     0
  9
$CHAMFERA
 40
0.0
  9
$CHAMFERB
 40
0.0
  9
$CHAMFERC
 40
0.0
  9
$CHAMFERD
 40
0.0
  9
$SKPOLY
 70
     0
  9
$TDCREATE
 40
2458288.649359688
  9
$TDUCREATE
 40
2458288.274359688
  9
$TDUPDATE
 40
2458303.375958276
  9
$TDUUPDATE
 40
2458303.000958276
  9
$TDINDWG
 40
0.0051044792
  9
$TDUSRTIMER
 40
0.0004995486
  9
$USRTIMER
 70
     1
  9
$ANGBASE
 50
0.0
  9
$ANGDIR
 70
     0
  9
$PDMODE
 70
     0
  9
$PDSIZE
 40
-1.0
  9
$PLINEWID
 40
0.0
  9
$SPLFRAME
 70
     0
  9
$SPLINETYPE
 70
     6
  9
$SPLINESEGS
 70
     8
  9
$HANDSEED
  5
20F
  9
$SURFTAB1
 70
     6
  9
$SURFTAB2
 70
     6
  9
$SURFTYPE
 70
     6
  9
$SURFU
 70
     6
  9
$SURFV
 70
     6
  9
$UCSBASE
  2

  9
$UCSNAME
  2

  9
$UCSORG
 10
0.0
 20
0.0
 30
0.0
  9
$UCSXDIR
 10
1.0
 20
0.0
 30
0.0
  9
$UCSYDIR
 10
0.0
 20
1.0
 30
0.0
  9
$UCSORTHOREF
  2

  9
$UCSORTHOVIEW
 70
     0
  9
$UCSORGTOP
 10
0.0
 20
0.0
 30
0.0
  9
$UCSORGBOTTOM
 10
0.0
 20
0.0
 30
0.0
  9
$UCSORGLEFT
 10
0.0
 20
0.0
 30
0.0
  9
$UCSORGRIGHT
 10
0.0
 20
0.0
 30
0.0
  9
$UCSORGFRONT
 10
0.0
 20
0.0
 30
0.0
  9
$UCSORGBACK
 10
0.0
 20
0.0
 30
0.0
  9
$PUCSBASE
  2

  9
$PUCSNAME
  2

  9
$PUCSORG
 10
0.0
 20
0.0
 30
0.0
  9
$PUCSXDIR
 10
1.0
 20
0.0
 30
0.0
  9
$PUCSYDIR
 10
0.0
 20
1.0
 30
0.0
  9
$PUCSORTHOREF
  2

  9
$PUCSORTHOVIEW
 70
     0
  9
$PUCSORGTOP
 10
0.0
 20
0.0
 30
0.0
  9
$PUCSORGBOTTOM
 10
0.0
 20
0.0
 30
0.0
  9
$PUCSORGLEFT
 10
0.0
 20
0.0
 30
0.0
  9
$PUCSORGRIGHT
 10
0.0
 20
0.0
 30
0.0
  9
$PUCSORGFRONT
 10
0.0
 20
0.0
 30
0.0
  9
$PUCSORGBACK
 10
0.0
 20
0.0
 30
0.0
  9
$USERI1
 70
     0
  9
$USERI2
 70
     0
  9
$USERI3
 70
     0
  9
$USERI4
 70
     0
  9
$USERI5
 70
     0
  9
$USERR1
 40
0.0
  9
$USERR2
 40
0.0
  9
$USERR3
 40
0.0
  9
$USERR4
 40
0.0
  9
$USERR5
 40
0.0
  9
$WORLDVIEW
 70
     1
  9
$SHADEDGE
 70
     3
  9
$SHADEDIF
 70
    70
  9
$TILEMODE
 70
     1
  9
$MAXACTVP
 70
    64
  9
$PINSBASE
 10
0.0
 20
0.0
 30
0.0
  9
$PLIMCHECK
 70
     0
  9
$PEXTMIN
 10
1.000000000000000E+20
 20
1.000000000000000E+20
 30
1.000000000000000E+20
  9
$PEXTMAX
 10
-1.000000000000000E+20
 20
-1.000000000000000E+20
 30
-1.000000000000000E+20
  9
$PLIMMIN
 10
0.0
 20
0.0
  9
$PLIMMAX
 10
0.0
 20
0.0
  9
$UNITMODE
 70
     0
  9
$VISRETAIN
 70
     1
  9
$PLINEGEN
 70
     0
  9
$PSLTSCALE
 70
     1
  9
$TREEDEPTH
 70
  3020
  9
$CMLSTYLE
  2
Standard
  9
$CMLJUST
 70
     0
  9
$CMLSCALE
 40
20.0
  9
$PROXYGRAPHICS
 70
     1
  9
$MEASUREMENT
 70
     1
  9
$CELWEIGHT
370
    -1
  9
$ENDCAPS
280
     0
  9
$JOINSTYLE
280
     0
  9
$LWDISPLAY
290
     1
  9
$INSUNITS
 70
     4
  9
$HYPERLINKBASE
  1

  9
$STYLESHEET
  1

  9
$XEDIT
290
     1
  9
$CEPSNTYPE
380
     0
  9
$PSTYLEMODE
290
     1
  9
$FINGERPRINTGUID
  2
{D1D2FB36-0086-43A5-962C-5267C9AD1BA1}
  9
$VERSIONGUID
  2
{FAEB1C32-E019-11D5-929B-00C0DF256EC4}
  9
$EXTNAMES
290
     1
  9
$PSVPSCALE
 40
0.0
  9
$OLESTARTUP
290
     0
  0
ENDSEC
  0
SECTION
  2
CLASSES
  0
CLASS
  1
ACDBDICTIONARYWDFLT
  2
AcDbDictionaryWithDefault
  3
ObjectDBX Classes
 90
        0
280
     0
281
     0
  0
CLASS
  1
VISUALSTYLE
  2
AcDbVisualStyle
  3
ObjectDBX Classes
 90
     4095
280
     0
281
     0
  0
CLASS
  1
MATERIAL
  2
AcDbMaterial
  3
ObjectDBX Classes
 90
     1153
280
     0
281
     0
  0
CLASS
  1
SCALE
  2
AcDbScale
  3
ObjectDBX Classes
 90
     1153
280
     0
281
     0
  0
CLASS
  1
SUN
  2
AcDbSun
  3
SCENEOE
 90
     1153
280
     0
281
     0
  0
CLASS
  1
ACDBPLACEHOLDER
  2
AcDbPlaceHolder
  3
ObjectDBX Classes
 90
        0
280
     0
281
     0
  0
CLASS
  1
LAYOUT
  2
AcDbLayout
  3
ObjectDBX Classes
 90
        0
280
     0
281
     0
  0
CLASS
  1
TABLESTYLE
  2
AcDbTableStyle
  3
ObjectDBX Classes
 90
     4095
280
     0
281
     0
  0
CLASS
  1
MLEADERSTYLE
  2
AcDbMLeaderStyle
  3
ACDB_MLEADERSTYLE_CLASS
 90
     4095
280
     0
281
     0
  0
CLASS
  1
DICTIONARYVAR
  2
AcDbDictionaryVar
  3
ObjectDBX Classes
 90
        0
280
     0
281
     0
  0
ENDSEC
  0
SECTION
  2
TABLES
  0
TABLE
  2
VPORT
  5
8
330
0
100
AcDbSymbolTable
 70
     1
  0
VPORT
  5
29
330
8
100
AcDbSymbolTableRecord
100
AcDbViewportTableRecord
  2
*Active
 70
     0
 10
0.0
 20
0.0
 11
1.0
 21
1.0
 12
3.926681869672308
 22
-2.533608045442939
 13
0.0
 23
0.0
 14
10.0
 24
10.0
 15
10.0
 25
10.0
 16
0.0
 26
0.0
 36
1.0
 17
0.0
 27
0.0
 37
0.0
 40
153.0154829571551
 41
2.268018018018018
 42
50.0
 43
0.0
 44
0.0
 50
0.0
 51
0.0
 71
    16
 72
  2000
 73
     1
 74
     3
 75
     0
 76
     0
 77
     0
 78
     0
281
     0
 65
     1
110
0.0
120
0.0
130
0.0
111
1.0
121
0.0
131
0.0
112
0.0
122
1.0
132
0.0
 79
     0
146
0.0
  0
ENDTAB
  0
TABLE
  2
LTYPE
  5
5
330
0
100
AcDbSymbolTable
 70
     6
  0
LTYPE
  5
14
330
5
100
AcDbSymbolTableRecord
100
AcDbLinetypeTableRecord
  2
ByBlock
 70
     0
  3

 72
    65
 73
     0
 40
0.0
  0
LTYPE
  5
15
330
5
100
AcDbSymbolTableRecord
100
AcDbLinetypeTableRecord
  2
ByLayer
 70
     0
  3

 72
    65
 73
     0
 40
0.0
  0
LTYPE
  5
16
330
5
100
AcDbSymbolTableRecord
100
AcDbLinetypeTableRecord
  2
Continuous
 70
     0
  3
Solid line
 72
    65
 73
     0
 40
0.0
  0
LTYPE
  5
6A
330
5
100
AcDbSymbolTableRecord
100
AcDbLinetypeTableRecord
  2
HIDDEN
 70
     0
  3
Hidden __ __ __ __ __ __ __ __ __ __ __ __ __ __
 72
    65
 73
     2
 40
1.905
 49
1.27
 74
     0
 49
-0.635
 74
     0
  0
LTYPE
  5
6B
330
5
100
AcDbSymbolTableRecord
100
AcDbLinetypeTableRecord
  2
PHANTOM
 70
     0
  3
Phantom ______  __  __  ______  __  __  ______
 72
    65
 73
     6
 40
12.7
 49
6.35
 74
     0
 49
-1.27
 74
     0
 49
1.27
 74
     0
 49
-1.27
 74
     0
 49
1.27
 74
     0
 49
-1.27
 74
     0
  0
LTYPE
  5
6C
330
5
100
AcDbSymbolTableRecord
100
AcDbLinetypeTableRecord
  2
CENTER
 70
     0
  3
Center ____ _ ____ _ ____ _ ____ _ ____ _ ____
 72
    65
 73
     4
 40
10.16
 49
6.35
 74
     0
 49
-1.27
 74
     0
 49
1.27
 74
     0
 49
-1.27
 74
     0
  0
LTYPE
  5
6D
330
5
100
AcDbSymbolTableRecord
100
AcDbLinetypeTableRecord
  2
CENTERX2
 70
     0
  3
Center (2x) ________  __  ________  __  _____
 72
    65
 73
     4
 40
20.32
 49
12.7
 74
     0
 49
-2.54
 74
     0
 49
2.54
 74
     0
 49
-2.54
 74
     0
  0
LTYPE
  5
6E
330
5
100
AcDbSymbolTableRecord
100
AcDbLinetypeTableRecord
  2
DOT2
 70
     0
  3
Dot (.5x) ........................................
 72
    65
 73
     2
 40
0.635
 49
0.0
 74
     0
 49
-0.635
 74
     0
  0
ENDTAB
  0
TABLE
  2
LAYER
  5
2
330
0
100
AcDbSymbolTable
 70
    18
  0
LAYER
  5
10
330
2
100
AcDbSymbolTableRecord
100
AcDbLayerTableRecord
  2
0
 70
     0
 62
     7
  6
Continuous
370
    -3
390
F
  0
LAYER
  5
6F
330
2
100
AcDbSymbolTableRecord
100
AcDbLayerTableRecord
  2
FORMAT
 70
     0
 62
     2
  6
Continuous
370
    -3
390
F
  0
LAYER
  5
70
330
2
100
AcDbSymbolTableRecord
100
AcDbLayerTableRecord
  2
외형선
 70
     0
 62
     4
  6
Continuous
370
    30
390
F
  0
LAYER
  5
71
330
2
100
AcDbSymbolTableRecord
100
AcDbLayerTableRecord
  2
숨은선
 70
     0
 62
     2
  6
HIDDEN
370
    15
390
F
  0
LAYER
  5
72
330
2
100
AcDbSymbolTableRecord
100
AcDbLayerTableRecord
  2
중심선
 70
     0
 62
     1
  6
CENTERX2
370
    -3
390
F
  0
LAYER
  5
73
330
2
100
AcDbSymbolTableRecord
100
AcDbLayerTableRecord
  2
파단선
 70
     0
 62
     4
  6
Continuous
370
    -3
390
F
  0
LAYER
  5
74
330
2
100
AcDbSymbolTableRecord
100
AcDbLayerTableRecord
  2
해칭선
 70
     0
 62
   100
  6
Continuous
370
    -3
390
F
  0
LAYER
  5
75
330
2
100
AcDbSymbolTableRecord
100
AcDbLayerTableRecord
  2
가는실선
 70
     0
 62
     4
  6
Continuous
370
    -3
390
F
  0
LAYER
  5
76
330
2
100
AcDbSymbolTableRecord
100
AcDbLayerTableRecord
  2
치수_보조선
 70
     0
 62
     4
  6
Continuous
370
    -3
390
F
  0
LAYER
  5
77
330
2
100
AcDbSymbolTableRecord
100
AcDbLayerTableRecord
  2
치수문자_일반주서
 70
     0
 62
     7
  6
Continuous
370
    15
390
F
  0
LAYER
  5
78
330
2
100
AcDbSymbolTableRecord
100
AcDbLayerTableRecord
  2
개별주서
 70
     0
 62
   100
  6
Continuous
370
    30
390
F
  0
LAYER
  5
79
330
2
100
AcDbSymbolTableRecord
100
AcDbLayerTableRecord
  2
중간선
 70
     0
 62
     2
  6
Continuous
370
    15
390
F
  0
LAYER
  5
7A
330
2
100
AcDbSymbolTableRecord
100
AcDbLayerTableRecord
  2
윤곽선
 70
     0
 62
     3
  6
Continuous
370
    40
390
F
  0
LAYER
  5
7B
330
2
100
AcDbSymbolTableRecord
100
AcDbLayerTableRecord
  2
중심마크
 70
     0
 62
   100
  6
Continuous
370
    30
390
F
  0
LAYER
  5
7C
330
2
100
AcDbSymbolTableRecord
100
AcDbLayerTableRecord
  2
가상선
 70
     0
 62
     4
  6
PHANTOM
370
    -3
390
F
  0
LAYER
  5
7D
330
2
100
AcDbSymbolTableRecord
100
AcDbLayerTableRecord
  2
특수지정선
 70
     0
 62
     5
  6
CENTERX2
370
    60
390
F
  0
LAYER
  5
7E
330
2
100
AcDbSymbolTableRecord
100
AcDbLayerTableRecord
  2
참조1
 70
     0
 62
    -4
  6
Continuous
370
    -3
390
F
  0
LAYER
  5
15E
330
2
100
AcDbSymbolTableRecord
100
AcDbLayerTableRecord
  2
Defpoints
 70
     0
 62
     7
  6
Continuous
290
     0
370
    -3
390
F
  0
ENDTAB
  0
TABLE
  2
STYLE
  5
3
330
0
100
AcDbSymbolTable
 70
     2
  0
STYLE
  5
11
330
3
100
AcDbSymbolTableRecord
100
AcDbTextStyleTableRecord
  2
Standard
 70
     0
 40
0.0
 41
1.0
 50
0.0
 71
     0
 42
3.5
  3
txt
  4

  0
STYLE
  5
94
330
3
100
AcDbSymbolTableRecord
100
AcDbTextStyleTableRecord
  2
SLDTEXTSTYLE0
 70
     0
 40
0.0
 41
0.75
 50
0.0
 71
     0
 42
3.5
  3
TXT
  4

  0
ENDTAB
  0
TABLE
  2
VIEW
  5
6
330
0
100
AcDbSymbolTable
 70
     0
  0
ENDTAB
  0
TABLE
  2
UCS
  5
7
330
0
100
AcDbSymbolTable
 70
     0
  0
ENDTAB
  0
TABLE
  2
APPID
  5
9
330
0
100
AcDbSymbolTable
 70
     4
  0
APPID
  5
12
330
9
100
AcDbSymbolTableRecord
100
AcDbRegAppTableRecord
  2
ACAD
 70
     0
  0
APPID
  5
161
330
9
100
AcDbSymbolTableRecord
100
AcDbRegAppTableRecord
  2
PE_URL
 70
     0
  0
APPID
  5
165
330
9
100
AcDbSymbolTableRecord
100
AcDbRegAppTableRecord
  2
ACAD_DSTYLE_DIMFLIPARROW_SYMBOL
 70
     0
  0
APPID
  5
166
330
9
100
AcDbSymbolTableRecord
100
AcDbRegAppTableRecord
  2
ACAD_DSTYLE_DIMFLIPARROW_WHICH_SYMBOL
 70
     0
  0
ENDTAB
  0
TABLE
  2
DIMSTYLE
  5
A
330
0
100
AcDbSymbolTable
 70
     3
100
AcDbDimStyleTable
  0
DIMSTYLE
105
27
102
{ACAD_REACTORS
330
1E6
102
}
330
A
100
AcDbSymbolTableRecord
100
AcDbDimStyleTableRecord
  2
ISO-25
 70
     0
 41
2.5
 42
0.625
 43
3.75
 44
1.25
 73
     0
 74
     0
 77
     1
 78
     8
140
2.5
141
2.5
143
0.03937007874016
147
0.625
171
     3
172
     1
178
     0
271
     2
272
     2
274
     3
278
    44
283
     0
284
     8
340
11
  0
DIMSTYLE
105
E0
330
A
100
AcDbSymbolTableRecord
100
AcDbDimStyleTableRecord
  2
SLDDIMSTYLE0
 70
     0
 41
3.302
 44
0.0
 45
0.000000001
 73
     0
 74
     0
 77
     1
 78
     4
 79
     1
140
3.5
143
0.0393700787401575
147
0.875
148
0.000000001
170
     1
172
     1
173
     1
178
     0
271
     2
272
     2
276
     2
284
    12
289
     0
340
94
  0
DIMSTYLE
105
F5
102
{ACAD_REACTORS
330
F4
330
108
330
11B
330
DF
102
}
330
A
100
AcDbSymbolTableRecord
100
AcDbDimStyleTableRecord
  2
SLDDIMSTYLE1
 70
     0
 41
3.302
 44
0.0
 45
0.000000001
 73
     0
 74
     0
 77
     1
 78
     4
 79
     1
140
3.5
143
0.0393700787401575
147
0.875
148
0.000000001
170
     1
173
     1
178
     0
271
     2
272
     2
276
     2
284
    12
340
94
  0
ENDTAB
  0
TABLE
  2
BLOCK_RECORD
  5
1
330
0
100
AcDbSymbolTable
 70
     7
  0
BLOCK_RECORD
  5
1F
330
1
100
AcDbSymbolTableRecord
100
AcDbBlockTableRecord
  2
*Model_Space
340
22
  0
BLOCK_RECORD
  5
1B
330
1
100
AcDbSymbolTableRecord
100
AcDbBlockTableRecord
  2
*Paper_Space
340
1E
  0
BLOCK_RECORD
  5
23
330
1
100
AcDbSymbolTableRecord
100
AcDbBlockTableRecord
  2
*Paper_Space0
340
26
  0
BLOCK_RECORD
  5
7F
330
1
100
AcDbSymbolTableRecord
100
AcDbBlockTableRecord
  2
블럭10
340
0
102
{BLKREFS
331
D8
102
}
  0
BLOCK_RECORD
  5
E1
330
1
100
AcDbSymbolTableRecord
100
AcDbBlockTableRecord
  2
_D
340
0
  0
BLOCK_RECORD
  5
F6
330
1
100
AcDbSymbolTableRecord
100
AcDbBlockTableRecord
  2
_D_1
340
0
  0
BLOCK_RECORD
  5
109
330
1
100
AcDbSymbolTableRecord
100
AcDbBlockTableRecord
  2
_D_2
340
0
  0
BLOCK_RECORD
  5
11C
330
1
100
AcDbSymbolTableRecord
100
AcDbBlockTableRecord
  2
_D_3
340
0
  0
BLOCK_RECORD
  5
135
330
1
100
AcDbSymbolTableRecord
100
AcDbBlockTableRecord
  2
SW_DOWELSYMBOL_0
340
0
102
{BLKREFS
331
13B
102
}
  0
ENDTAB
  0
ENDSEC
  0
SECTION
  2
BLOCKS
  0
BLOCK
  5
20
330
1F
100
AcDbEntity
  8
0
100
AcDbBlockBegin
  2
*Model_Space
 70
     0
 10
0.0
 20
0.0
 30
0.0
  3
*Model_Space
  1

  0
ENDBLK
  5
21
330
1F
100
AcDbEntity
  8
0
100
AcDbBlockEnd
  0
BLOCK
  5
1C
330
1B
100
AcDbEntity
 67
     1
  8
0
100
AcDbBlockBegin
  2
*Paper_Space
 70
     0
 10
0.0
 20
0.0
 30
0.0
  3
*Paper_Space
  1

  0
ENDBLK
  5
1D
330
1B
100
AcDbEntity
 67
     1
  8
0
100
AcDbBlockEnd
  0
BLOCK
  5
24
330
23
100
AcDbEntity
  8
0
100
AcDbBlockBegin
  2
*Paper_Space0
 70
     0
 10
0.0
 20
0.0
 30
0.0
  3
*Paper_Space0
  1

  0
ENDBLK
  5
25
330
23
100
AcDbEntity
  8
0
100
AcDbBlockEnd
  0
BLOCK
  5
80
330
7F
100
AcDbEntity
  8
0
100
AcDbBlockBegin
  2
블럭10
 70
     2
 10
0.0
 20
0.0
 30
0.0
  3
블럭10
  1

  0
ELLIPSE
  5
82
330
7F
100
AcDbEntity
  8
중심선
100
AcDbEllipse
 10
20.54032771741204
 20
12.0471743016438
 30
0.0
 11
6.600054785286829
 21
-1.261213355974178E-13
 31
0.0
210
0.0
220
0.0
230
1.0
 40
0.636358354079598
 41
0.9219305317359503
 42
6.513795318482858
  0
ELLIPSE
  5
83
330
7F
100
AcDbEntity
  8
중심선
100
AcDbEllipse
 10
20.54032771746488
 20
12.04717430159265
 30
0.0
 11
3.960054785062283
 21
1.540847449632565E-10
 31
0.0
210
0.0
220
0.0
230
1.0
 40
0.3939339440162632
 41
1.131841032648279
 42
5.62031148352944
  0
LINE
  5
84
330
7F
100
AcDbEntity
  8
중심선
100
AcDbLine
 10
2.268634060543552
 20
16.24717430164393
 30
0.0
 11
5.714909304380834
 21
16.24717430164393
 31
0.0
  0
LINE
  5
85
330
7F
100
AcDbEntity
  8
중심선
100
AcDbLine
 10
5.245725140726316
 20
7.84717430164391
 30
0.0
 11
8.692000384563599
 21
7.84717430164391
 31
0.0
  0
LINE
  5
86
330
7F
100
AcDbEntity
  8
중심선
100
AcDbLine
 10
15.74043728645272
 20
16.24717430164393
 30
0.0
 11
8.692000384563599
 21
7.84717430164391
 31
0.0
  0
LINE
  5
87
330
7F
100
AcDbEntity
  8
중심선
100
AcDbLine
 10
0.1404042013395286
 20
13.71084872107135
 30
0.0
 11
3.58671253028996
 21
13.71088815037384
 31
0.0
  0
LINE
  5
88
330
7F
100
AcDbEntity
  8
중심선
100
AcDbLine
 10
2.750260043222114
 20
10.84717430164391
 30
0.0
 11
6.196535287059397
 21
10.84717430164391
 31
0.0
  0
LINE
  5
89
330
7F
100
AcDbEntity
  8
중심선
100
AcDbLine
 10
12.29416204261559
 20
16.24717430164393
 30
0.0
 11
5.245725140726316
 21
7.84717430164391
 31
0.0
  0
LINE
  5
8A
330
7F
100
AcDbEntity
  8
중심선
100
AcDbLine
 10
10.72767329541681
 20
16.24717430164393
 30
0.0
 11
6.196535287059397
 21
10.84717430164391
 31
0.0
  0
LINE
  5
8B
330
7F
100
AcDbEntity
  8
중심선
100
AcDbLine
 10
7.28139805157953
 20
16.24717430164393
 30
0.0
 11
2.750260043222114
 21
10.84717430164391
 31
0.0
  0
LINE
  5
8C
330
7F
100
AcDbEntity
  8
중심선
100
AcDbLine
 10
5.714909304380834
 20
16.24717430164393
 30
0.0
 11
3.58671253028996
 21
13.71088815037384
 31
0.0
  0
LINE
  5
8D
330
7F
100
AcDbEntity
  8
중심선
100
AcDbLine
 10
2.268634060543552
 20
16.24717430164393
 30
0.0
 11
0.1404042013395286
 21
13.71084872107135
 31
0.0
  0
LINE
  5
8E
330
7F
100
AcDbEntity
  8
중심선
100
AcDbLine
 10
7.28139805157953
 20
16.24717430164393
 30
0.0
 11
10.72767329541681
 21
16.24717430164393
 31
0.0
  0
LINE
  5
8F
330
7F
100
AcDbEntity
  8
중심선
100
AcDbLine
 10
12.29416204261559
 20
16.24717430164393
 30
0.0
 11
15.74043728645272
 21
16.24717430164393
 31
0.0
  0
LINE
  5
90
330
7F
100
AcDbEntity
  8
중심선
100
AcDbLine
 10
19.22036997980202
 20
11.08717430171403
 30
0.0
 11
23.66174974927406
 21
11.08717430171406
 31
0.0
  0
LINE
  5
91
330
7F
100
AcDbEntity
  8
중심선
100
AcDbLine
 10
19.22039502424796
 20
13.00717430171391
 30
0.0
 11
19.22036997980202
 21
11.08717430171403
 31
0.0
  0
LINE
  5
92
330
7F
100
AcDbEntity
  8
중심선
100
AcDbLine
 10
19.22039502424796
 20
13.00717430171391
 30
0.0
 11
26.96566020931264
 21
13.00717430171391
 31
0.0
  0
LINE
  5
93
330
7F
100
AcDbEntity
  8
중심선
100
AcDbLine
 10
22.22332737316547
 20
13.45928029700563
 30
0.0
 11
24.52862924686651
 21
15.39360700705356
 31
0.0
  0
ATTDEF
  5
95
330
7F
100
AcDbEntity
  8
FORMAT
 62
     2
100
AcDbText
 10
3.448148490846466
 20
2.075366912832191
 30
0.0
 40
4.233333333333333
  1
EM211908
 41
0.75
  7
SLDTEXTSTYLE0
 11
3.448148490846466
 21
-0.0412997538344756
 31
0.0
100
AcDbAttributeDefinition
  3

  2
AUTOATTR0
 70
     0
 74
     1
  0
ENDBLK
  5
81
330
7F
100
AcDbEntity
  8
0
100
AcDbBlockEnd
  0
BLOCK
  5
E2
330
E1
100
AcDbEntity
  8
0
100
AcDbBlockBegin
  2
_D
 70
     0
 10
0.0
 20
0.0
 30
0.0
  3
_D
  1

  0
LINE
  5
E4
330
E1
100
AcDbEntity
  8
치수문자_일반주서
 62
     0
370
    -2
100
AcDbLine
 10
-38.86249999999998
 20
6.349999999999994
 30
0.0
 11
-50.52028910076216
 21
6.349999999999948
 31
0.0
  0
LINE
  5
E5
330
E1
100
AcDbEntity
  8
치수문자_일반주서
 62
     0
370
    -2
100
AcDbLine
 10
-38.84516944824279
 20
-6.349999999999999
 30
0.0
 11
-50.52028910076212
 21
-6.350000000000044
 31
0.0
  0
LINE
  5
E6
330
E1
100
AcDbEntity
  8
치수문자_일반주서
 62
     0
370
    -2
100
AcDbLine
 10
-50.52028910076216
 20
6.349999999999948
 30
0.0
 11
-50.52028910076226
 21
36.33949999999996
 31
0.0
  0
LINE
  5
E7
330
E1
100
AcDbEntity
  8
치수문자_일반주서
 62
     0
370
    -2
100
AcDbLine
 10
-50.52028910076216
 20
6.349999999999948
 30
0.0
 11
-50.52028910076212
 21
-6.350000000000044
 31
0.0
  0
LINE
  5
E8
330
E1
100
AcDbEntity
  8
치수문자_일반주서
 62
     0
370
    -2
100
AcDbLine
 10
-50.52028910076218
 20
9.651999999999948
 30
0.0
 11
-50.52028910076219
 21
12.95399999999995
 31
0.0
  0
LINE
  5
E9
330
E1
100
AcDbEntity
  8
치수문자_일반주서
 62
     0
370
    -2
100
AcDbLine
 10
-50.52028910076211
 20
-9.652000000000044
 30
0.0
 11
-50.52028910076209
 21
-12.95400000000004
 31
0.0
  0
SOLID
  5
EA
330
E1
100
AcDbEntity
  8
치수문자_일반주서
 62
     0
100
AcDbTrace
 10
-51.07062243409551
 20
9.651999999999946
 30
0.0
 11
-49.96995576742884
 21
9.65199999999995
 31
0.0
 12
-50.52028910076216
 22
6.349999999999948
 32
0.0
 13
-50.52028910076216
 23
6.349999999999948
 33
0.0
  0
SOLID
  5
EB
330
E1
100
AcDbEntity
  8
치수문자_일반주서
 62
     0
100
AcDbTrace
 10
-49.96995576742877
 20
-9.652000000000042
 30
0.0
 11
-51.07062243409544
 21
-9.652000000000045
 31
0.0
 12
-50.52028910076212
 22
-6.350000000000044
 32
0.0
 13
-50.52028910076212
 23
-6.350000000000044
 33
0.0
  0
MTEXT
  5
EC
330
E1
100
AcDbEntity
  8
치수문자_일반주서
 62
     0
100
AcDbMText
 10
-54.89528910076222
 20
22.99574999999994
 30
0.0
 40
3.5
 41
0.0
 71
     2
 72
     1
  1
\A1;%%c12.70 [1/2]
  7
SLDTEXTSTYLE0
 11
-3.356894814614648E-15
 21
1.0
 31
0.0
 73
     1
 44
1.0
  0
POINT
  5
162
330
E1
100
AcDbEntity
  8
Defpoints
 62
     0
100
AcDbPoint
 10
-38.79999999999998
 20
6.349999999999994
 30
0.0
  0
POINT
  5
163
330
E1
100
AcDbEntity
  8
Defpoints
 62
     0
100
AcDbPoint
 10
-38.78266944824279
 20
-6.349999999999999
 30
0.0
  0
POINT
  5
18F
330
E1
100
AcDbEntity
  8
Defpoints
 62
     0
100
AcDbPoint
 10
-50.52028910076212
 20
-6.350000000000042
 30
0.0
  0
ENDBLK
  5
E3
330
E1
100
AcDbEntity
  8
0
100
AcDbBlockEnd
  0
BLOCK
  5
F7
330
F6
100
AcDbEntity
  8
0
100
AcDbBlockBegin
  2
_D_1
 70
     0
 10
0.0
 20
0.0
 30
0.0
  3
_D_1
  1

  0
LINE
  5
F9
330
F6
100
AcDbEntity
  8
치수문자_일반주서
 62
     0
370
    -2
100
AcDbLine
 10
62.86250000000002
 20
6.350000000000204
 30
0.0
 11
74.80000000000001
 21
6.350000000000247
 31
0.0
  0
LINE
  5
FA
330
F6
100
AcDbEntity
  8
치수문자_일반주서
 62
     0
370
    -2
100
AcDbLine
 10
62.87085363021518
 20
-6.349999999999806
 30
0.0
 11
74.80000000000005
 21
-6.349999999999763
 31
0.0
  0
LINE
  5
FB
330
F6
100
AcDbEntity
  8
치수문자_일반주서
 62
     0
370
    -2
100
AcDbLine
 10
74.80000000000001
 20
6.350000000000247
 30
0.0
 11
74.79999999999991
 21
36.33950000000025
 31
0.0
  0
LINE
  5
FC
330
F6
100
AcDbEntity
  8
치수문자_일반주서
 62
     0
370
    -2
100
AcDbLine
 10
74.80000000000001
 20
6.350000000000247
 30
0.0
 11
74.80000000000005
 21
-6.349999999999763
 31
0.0
  0
LINE
  5
FD
330
F6
100
AcDbEntity
  8
치수문자_일반주서
 62
     0
370
    -2
100
AcDbLine
 10
74.8
 20
9.652000000000246
 30
0.0
 11
74.79999999999998
 21
12.95400000000025
 31
0.0
  0
LINE
  5
FE
330
F6
100
AcDbEntity
  8
치수문자_일반주서
 62
     0
370
    -2
100
AcDbLine
 10
74.80000000000007
 20
-9.651999999999763
 30
0.0
 11
74.80000000000008
 21
-12.95399999999976
 31
0.0
  0
SOLID
  5
FF
330
F6
100
AcDbEntity
  8
치수문자_일반주서
 62
     0
100
AcDbTrace
 10
74.24966666666667
 20
9.652000000000244
 30
0.0
 11
75.35033333333332
 21
9.652000000000248
 31
0.0
 12
74.80000000000001
 22
6.350000000000247
 32
0.0
 13
74.80000000000001
 23
6.350000000000247
 33
0.0
  0
SOLID
  5
100
330
F6
100
AcDbEntity
  8
치수문자_일반주서
 62
     0
100
AcDbTrace
 10
75.3503333333334
 20
-9.651999999999761
 30
0.0
 11
74.24966666666674
 21
-9.651999999999765
 31
0.0
 12
74.80000000000005
 22
-6.349999999999763
 32
0.0
 13
74.80000000000005
 23
-6.349999999999763
 33
0.0
  0
MTEXT
  5
101
330
F6
100
AcDbEntity
  8
치수문자_일반주서
 62
     0
100
AcDbMText
 10
70.42499999999995
 20
22.99575000000024
 30
0.0
 40
3.5
 41
0.0
 71
     2
 72
     1
  1
\A1;%%c12.70 [1/2]
  7
SLDTEXTSTYLE0
 11
-3.356894814614644E-15
 21
1.0
 31
0.0
 73
     1
 44
1.0
  0
POINT
  5
102
330
F6
100
AcDbEntity
  8
Defpoints
 62
     0
100
AcDbPoint
 10
62.80000000000002
 20
6.350000000000204
 30
0.0
  0
POINT
  5
15F
330
F6
100
AcDbEntity
  8
Defpoints
 62
     0
100
AcDbPoint
 10
62.80835363021518
 20
-6.349999999999806
 30
0.0
  0
POINT
  5
160
330
F6
100
AcDbEntity
  8
Defpoints
 62
     0
100
AcDbPoint
 10
74.80000000000004
 20
-6.349999999999762
 30
0.0
  0
ENDBLK
  5
F8
330
F6
100
AcDbEntity
  8
0
100
AcDbBlockEnd
  0
BLOCK
  5
10A
330
109
100
AcDbEntity
  8
0
100
AcDbBlockBegin
  2
_D_2
 70
     0
 10
0.0
 20
0.0
 30
0.0
  3
_D_2
  1

  0
LINE
  5
10C
330
109
100
AcDbEntity
  8
치수문자_일반주서
 62
     0
370
    -2
100
AcDbLine
 10
62.80000000000002
 20
6.412500000000204
 30
0.0
 11
62.80000000000001
 21
24.03770370391742
 31
0.0
  0
LINE
  5
10D
330
109
100
AcDbEntity
  8
치수문자_일반주서
 62
     0
370
    -2
100
AcDbLine
 10
12.00000000000002
 20
6.412500000000026
 30
0.0
 11
12.00000000000001
 21
24.03770370391742
 31
0.0
  0
LINE
  5
10E
330
109
100
AcDbEntity
  8
치수문자_일반주서
 62
     0
370
    -2
100
AcDbLine
 10
59.49800000000001
 20
24.03770370391742
 30
0.0
 11
15.30200000000001
 21
24.03770370391742
 31
0.0
  0
SOLID
  5
10F
330
109
100
AcDbEntity
  8
치수문자_일반주서
 62
     0
100
AcDbTrace
 10
59.49800000000001
 20
23.48737037058408
 30
0.0
 11
59.49800000000001
 21
24.58803703725075
 31
0.0
 12
62.80000000000001
 22
24.03770370391742
 32
0.0
 13
62.80000000000001
 23
24.03770370391742
 33
0.0
  0
SOLID
  5
110
330
109
100
AcDbEntity
  8
치수문자_일반주서
 62
     0
100
AcDbTrace
 10
15.30200000000001
 20
24.58803703725075
 30
0.0
 11
15.30200000000001
 21
23.48737037058408
 31
0.0
 12
12.00000000000001
 22
24.03770370391742
 32
0.0
 13
12.00000000000001
 23
24.03770370391742
 33
0.0
  0
MTEXT
  5
111
330
109
100
AcDbEntity
  8
치수문자_일반주서
 62
     0
100
AcDbMText
 10
37.50681402746532
 20
28.41270370391742
 30
0.0
 40
3.5
 41
0.0
 71
     2
 72
     1
  1
\A1;50.80 [2]
  7
SLDTEXTSTYLE0
 73
     1
 44
1.0
  0
POINT
  5
112
330
109
100
AcDbEntity
  8
Defpoints
 62
     0
100
AcDbPoint
 10
62.80000000000002
 20
6.350000000000204
 30
0.0
  0
POINT
  5
113
330
109
100
AcDbEntity
  8
Defpoints
 62
     0
100
AcDbPoint
 10
12.00000000000002
 20
6.350000000000026
 30
0.0
  0
POINT
  5
114
330
109
100
AcDbEntity
  8
Defpoints
 62
     0
100
AcDbPoint
 10
12.00000000000002
 20
24.03770370391742
 30
0.0
  0
ENDBLK
  5
10B
330
109
100
AcDbEntity
  8
0
100
AcDbBlockEnd
  0
BLOCK
  5
11D
330
11C
100
AcDbEntity
  8
0
100
AcDbBlockBegin
  2
_D_3
 70
     0
 10
0.0
 20
0.0
 30
0.0
  3
_D_3
  1

  0
LINE
  5
11F
330
11C
100
AcDbEntity
  8
치수문자_일반주서
 62
     0
370
    -2
100
AcDbLine
 10
62.80000000000002
 20
6.412500000000204
 30
0.0
 11
62.80000000000002
 21
41.66290740783462
 31
0.0
  0
LINE
  5
120
330
11C
100
AcDbEntity
  8
치수문자_일반주서
 62
     0
370
    -2
100
AcDbLine
 10
-38.79999999999998
 20
6.412499999999991
 30
0.0
 11
-38.79999999999998
 21
41.66290740783462
 31
0.0
  0
LINE
  5
121
330
11C
100
AcDbEntity
  8
치수문자_일반주서
 62
     0
370
    -2
100
AcDbLine
 10
59.49800000000002
 20
41.66290740783462
 30
0.0
 11
-35.49799999999998
 21
41.66290740783462
 31
0.0
  0
SOLID
  5
122
330
11C
100
AcDbEntity
  8
치수문자_일반주서
 62
     0
100
AcDbTrace
 10
59.49800000000002
 20
41.11257407450129
 30
0.0
 11
59.49800000000002
 21
42.21324074116796
 31
0.0
 12
62.80000000000002
 22
41.66290740783462
 32
0.0
 13
62.80000000000002
 23
41.66290740783462
 33
0.0
  0
SOLID
  5
123
330
11C
100
AcDbEntity
  8
치수문자_일반주서
 62
     0
100
AcDbTrace
 10
-35.49799999999998
 20
42.21324074116796
 30
0.0
 11
-35.49799999999998
 21
41.11257407450129
 31
0.0
 12
-38.79999999999998
 22
41.66290740783462
 32
0.0
 13
-38.79999999999998
 23
41.66290740783462
 33
0.0
  0
MTEXT
  5
124
330
11C
100
AcDbEntity
  8
치수문자_일반주서
 62
     0
100
AcDbMText
 10
11.48637359758953
 20
46.03790740783462
 30
0.0
 40
3.5
 41
0.0
 71
     2
 72
     1
  1
\A1;101.60 [4]
  7
SLDTEXTSTYLE0
 73
     1
 44
1.0
  0
POINT
  5
125
330
11C
100
AcDbEntity
  8
Defpoints
 62
     0
100
AcDbPoint
 10
62.80000000000002
 20
6.350000000000204
 30
0.0
  0
POINT
  5
126
330
11C
100
AcDbEntity
  8
Defpoints
 62
     0
100
AcDbPoint
 10
-38.79999999999998
 20
6.349999999999991
 30
0.0
  0
POINT
  5
127
330
11C
100
AcDbEntity
  8
Defpoints
 62
     0
100
AcDbPoint
 10
-38.79999999999998
 20
41.66290740783462
 30
0.0
  0
ENDBLK
  5
11E
330
11C
100
AcDbEntity
  8
0
100
AcDbBlockEnd
  0
BLOCK
  5
136
330
135
100
AcDbEntity
  8
0
100
AcDbBlockBegin
  2
SW_DOWELSYMBOL_0
 70
     0
 10
0.0
 20
0.0
 30
0.0
  3
SW_DOWELSYMBOL_0
  1

  0
CIRCLE
  5
138
330
135
100
AcDbEntity
  8
해칭선
 62
     0
100
AcDbCircle
 10
0.0
 20
0.0
 30
0.0
 40
3.000000000000002
  0
HATCH
  5
139
330
135
100
AcDbEntity
  8
0
  6
Continuous
 62
     0
370
     0
100
AcDbHatch
 10
0.0
 20
0.0
 30
0.0
210
0.0
220
0.0
230
1.0
  2
SOLID
 70
     1
 71
     0
 91
        1
 92
        0
 93
        3
 72
     2
 10
0.0000000000000069
 20
0.0
 40
3.000000000000002
 50
0.0
 51
90.0
 73
     1
 72
     1
 10
0.0000000000000069
 20
3.000000000000002
 11
0.0000000000000069
 21
0.0
 72
     1
 10
0.0000000000000069
 20
0.0
 11
3.000000000000009
 21
0.0
 97
        0
 75
     0
 76
     1
 98
        1
 10
0.0
 20
0.0
  0
HATCH
  5
13A
330
135
100
AcDbEntity
  8
0
  6
Continuous
 62
     0
370
     0
100
AcDbHatch
 10
0.0
 20
0.0
 30
0.0
210
0.0
220
0.0
230
1.0
  2
SOLID
 70
     1
 71
     0
 91
        1
 92
        0
 93
        3
 72
     2
 10
0.0000000000000069
 20
0.0
 40
3.000000000000002
 50
180.0
 51
270.0000000000007
 73
     1
 72
     1
 10
0.0000000000000069
 20
-3.000000000000002
 11
0.0000000000000069
 21
0.0
 72
     1
 10
0.0000000000000069
 20
0.0
 11
-2.999999999999995
 21
0.0
 97
        0
 75
     0
 76
     1
 98
        1
 10
0.0
 20
0.0
  0
ENDBLK
  5
137
330
135
100
AcDbEntity
  8
0
100
AcDbBlockEnd
  0
ENDSEC
  0
SECTION
  2
ENTITIES
  0
LINE
  5
96
330
1F
100
AcDbEntity
  8
외형선
  6
Continuous
370
    15
100
AcDbLine
 10
9.969936745991728
 20
6.35
 30
0.0
 11
-37.79999999999998
 21
6.349999999999997
 31
0.0
  0
LINE
  5
97
330
1F
100
AcDbEntity
  8
외형선
  6
Continuous
370
    15
100
AcDbLine
 10
-37.79999999999998
 20
-6.350000000000002
 30
0.0
 11
9.969936745991728
 21
-6.35
 31
0.0
  0
LINE
  5
98
330
1F
100
AcDbEntity
  8
외형선
  6
Continuous
370
    15
100
AcDbLine
 10
-37.79999999999998
 20
6.349999999999993
 30
0.0
 11
-38.79999999999998
 21
5.349999999999993
 31
0.0
  0
LINE
  5
99
330
1F
100
AcDbEntity
  8
외형선
  6
Continuous
370
    15
100
AcDbLine
 10
-38.79999999999998
 20
-5.349999999999999
 30
0.0
 11
-37.79999999999998
 21
-6.349999999999999
 31
0.0
  0
SPLINE
  5
9A
330
1F
100
AcDbEntity
  8
외형선
  6
Continuous
370
    15
100
AcDbSpline
210
0.0
220
0.0
230
1.0
 70
     8
 71
     3
 72
     9
 73
     5
 74
     0
 42
0.000000001
 43
0.00000001
 40
0.0
 40
0.0
 40
0.0
 40
0.0
 40
0.4365335359919832
 40
1.0
 40
1.0
 40
1.0
 40
1.0
 10
11.65937957597936
 20
1.691210924560635
 30
0.0
 10
11.45506615151406
 20
1.78928659483025
 30
0.0
 10
10.98703011849539
 20
2.013955863473599
 30
0.0
 10
10.51504777336681
 20
2.256678562713817
 30
0.0
 10
10.249101550283
 20
2.393444663789182
 30
0.0
  0
SPLINE
  5
9B
330
1F
100
AcDbEntity
  8
외형선
  6
Continuous
 62
     1
370
    15
100
AcDbSpline
210
0.0
220
0.0
230
1.0
 70
     8
 71
     3
 72
     9
 73
     5
 74
     0
 42
0.000000001
 43
0.00000001
 40
0.0
 40
0.0
 40
0.0
 40
0.0
 40
0.4623969680546876
 40
1.0
 40
1.0
 40
1.0
 40
1.0
 10
46.349384733444
 20
1.627139968365879
 30
0.0
 10
46.07797019058367
 20
1.756240529464894
 30
0.0
 10
45.49099717473069
 20
2.035439075342353
 30
0.0
 10
44.90281487538519
 20
2.342951187691078
 30
0.0
 10
44.58660628792047
 20
2.50827063164966
 30
0.0
  0
LINE
  5
9C
330
1F
100
AcDbEntity
  8
외형선
  6
Continuous
 62
     1
370
    15
100
AcDbLine
 10
31.7779368678037
 20
6.350000000000005
 30
0.0
 11
28.69924227173863
 21
6.350000000000005
 31
0.0
  0
LINE
  5
9D
330
1F
100
AcDbEntity
  8
외형선
  6
Continuous
 62
     1
370
    15
100
AcDbLine
 10
28.69924227173866
 20
-6.350000000000005
 30
0.0
 11
31.77793686780372
 21
-6.350000000000005
 31
0.0
  0
SPLINE
  5
9E
330
1F
100
AcDbEntity
  8
외형선
  6
Continuous
 62
     1
370
    15
100
AcDbSpline
210
0.0
220
0.0
230
1.0
 70
     8
 71
     3
 72
    22
 73
    18
 74
     0
 42
0.000000001
 43
0.00000001
 40
0.0
 40
0.0
 40
0.0
 40
0.0
 40
0.109094708173939
 40
0.2020793893750246
 40
0.2795225901175151
 40
0.3469191412891954
 40
0.4069739366759075
 40
0.4624719668592789
 40
0.5244219315234752
 40
0.6034733944420542
 40
0.6722650484953642
 40
0.738299046558328
 40
0.774033286033312
 40
0.8120898246345082
 40
0.8521499375528704
 40
0.9191533953241724
 40
1.0
 40
1.0
 40
1.0
 40
1.0
 10
34.69990182248772
 20
-5.284065902910228
 30
0.0
 10
35.04359775203068
 20
-5.250760658414852
 30
0.0
 10
35.68023599723307
 20
-5.189068358364143
 30
0.0
 10
36.58264338907268
 20
-5.119043502789614
 30
0.0
 10
37.36112822893242
 20
-5.068875094810624
 30
0.0
 10
38.03055269914275
 20
-5.031070125917366
 30
0.0
 10
38.62351592664384
 20
-5.004932418063695
 30
0.0
 10
39.17280586877911
 20
-4.986682682931366
 30
0.0
 10
39.7986263412393
 20
-4.970068984901546
 30
0.0
 10
40.47574919541846
 20
-4.9600731612161
 30
0.0
 10
41.15855225171052
 20
-4.957932213898419
 30
0.0
 10
41.71676254919877
 20
-4.962541510995316
 30
0.0
 10
42.17514446488368
 20
-4.969046668899386
 30
0.0
 10
42.54237528289962
 20
-4.973851113424586
 30
0.0
 10
43.02009096350907
 20
-4.981646023909927
 30
0.0
 10
43.62339681124293
 20
-5.009293830473003
 30
0.0
 10
44.02857685237419
 20
-5.033003453489558
 30
0.0
 10
44.25013530196624
 20
-5.045968226634092
 30
0.0
  0
SPLINE
  5
9F
330
1F
100
AcDbEntity
  8
외형선
  6
Continuous
 62
     1
370
    15
100
AcDbSpline
210
0.0
220
0.0
230
1.0
 70
     8
 71
     3
 72
    16
 73
    12
 74
     0
 42
0.000000001
 43
0.00000001
 40
0.0
 40
0.0
 40
0.0
 40
0.0
 40
0.1476838041960978
 40
0.2700801073882478
 40
0.3990884908267871
 40
0.5153208285740707
 40
0.6217843225370436
 40
0.7380044521212837
 40
0.8685697744603499
 40
0.9817347798196636
 40
1.0
 40
1.0
 40
1.0
 40
1.0
 10
44.25013530196624
 20
5.045968226634093
 30
0.0
 10
44.02878871694356
 20
5.032976264654065
 30
0.0
 10
43.62399612795004
 20
5.009216919437776
 30
0.0
 10
42.9199959523547
 20
4.977401906766958
 30
0.0
 10
42.26234184360079
 20
4.970737078670508
 30
0.0
 10
41.63095309500195
 20
4.961158984623383
 30
0.0
 10
41.02896688114033
 20
4.958066365562144
 30
0.0
 10
40.40982477929548
 20
4.960830192933186
 30
0.0
 10
39.77454617462784
 20
4.971029729735184
 30
0.0
 10
39.31772048851295
 20
4.982186389070649
 30
0.0
 10
39.09254452784104
 20
4.989937924379721
 30
0.0
 10
39.06125120483178
 20
4.991015176576271
 30
0.0
  0
SPLINE
  5
A0
330
1F
100
AcDbEntity
  8
외형선
  6
Continuous
 62
     1
370
    15
100
AcDbSpline
210
0.0
220
0.0
230
1.0
 70
     8
 71
     3
 72
    17
 73
    13
 74
     0
 42
0.000000001
 43
0.00000001
 40
0.0
 40
0.0
 40
0.0
 40
0.0
 40
0.1481432782750343
 40
0.2634056960870554
 40
0.3453252281471028
 40
0.420491411760542
 40
0.5129072216033217
 40
0.6203673664959339
 40
0.7186336284299943
 40
0.860967688992134
 40
0.9836690084413172
 40
1.0
 40
1.0
 40
1.0
 40
1.0
 10
49.3466836037123
 20
-4.77605334712198
 30
0.0
 10
49.57922658170361
 20
-4.740312318301299
 30
0.0
 10
49.99269890188706
 20
-4.676763092950009
 30
0.0
 10
50.53578683925391
 20
-4.601651323726824
 30
0.0
 10
50.96813601135501
 20
-4.545482376705705
 30
0.0
 10
51.36576326912809
 20
-4.496716843247844
 30
0.0
 10
51.80132858352125
 20
-4.446927485183813
 30
0.0
 10
52.27230877149053
 20
-4.397981541254947
 30
0.0
 10
52.82168362357015
 20
-4.346429865694371
 30
0.0
 10
53.39582057093778
 20
-4.300415014695299
 30
0.0
 10
53.83766841324227
 20
-4.268741303499969
 30
0.0
 10
54.05678346092078
 20
-4.257064557198446
 30
0.0
 10
54.08252111836227
 20
-4.255692985051649
 30
0.0
  0
SPLINE
  5
A1
330
1F
100
AcDbEntity
  8
외형선
  6
Continuous
 62
     1
370
    15
100
AcDbSpline
210
0.0
220
0.0
230
1.0
 70
     8
 71
     3
 72
    29
 73
    25
 74
     0
 42
0.000000001
 43
0.00000001
 40
0.0
 40
0.0
 40
0.0
 40
0.0
 40
0.0707977095536042
 40
0.1255275513753208
 40
0.167362698883955
 40
0.1923839911069331
 40
0.2173194378877965
 40
0.244277211550801
 40
0.2732870195265906
 40
0.3044627922499047
 40
0.3377945876692066
 40
0.4019501962832789
 40
0.4557014745075099
 40
0.5004709677145072
 40
0.5436949382466333
 40
0.5952000997321522
 40
0.6570370984983327
 40
0.7156842423620753
 40
0.7680286088221138
 40
0.8136551300114586
 40
0.8368861641413438
 40
0.8748614417371324
 40
0.9292977052305316
 40
1.0
 40
1.0
 40
1.0
 40
1.0
 10
25.88779883533557
 20
4.343105277760025
 30
0.0
 10
25.62417748961621
 20
4.321685611875562
 30
0.0
 10
25.15676488224419
 20
4.283707572378138
 30
0.0
 10
24.53595115795688
 20
4.245980732232237
 30
0.0
 10
24.0858857035467
 20
4.223585889876389
 30
0.0
 10
23.75071593182648
 20
4.209825454334224
 30
0.0
 10
23.46834003685844
 20
4.199935557898788
 30
0.0
 10
23.1700518002552
 20
4.191495660325625
 30
0.0
 10
22.84763506259252
 20
4.184688900315805
 30
0.0
 10
22.50075730224474
 20
4.18005020429732
 30
0.0
 10
22.02268259626741
 20
4.177614354511213
 30
0.0
 10
21.45871657421627
 20
4.181782013305544
 30
0.0
 10
20.85798956795615
 20
4.195590350811528
 30
0.0
 10
20.34135412080577
 20
4.213840704329224
 30
0.0
 10
19.82537333739913
 20
4.237674773747774
 30
0.0
 10
19.2464568070776
 20
4.271388201416938
 30
0.0
 10
18.61078684046255
 20
4.317594047325747
 30
0.0
 10
17.97148693980108
 20
4.373197668128062
 30
0.0
 10
17.3916325783764
 20
4.431309448034765
 30
0.0
 10
16.94573082029886
 20
4.481193594348495
 30
0.0
 10
16.55470978042662
 20
4.52809442366117
 30
0.0
 10
16.12673810134796
 20
4.582358440080708
 30
0.0
 10
15.52198415050822
 20
4.664490052689523
 30
0.0
 10
15.05652018902321
 20
4.735803928926352
 30
0.0
 10
14.79353673559115
 20
4.776095704449752
 30
0.0
  0
SPLINE
  5
A2
330
1F
100
AcDbEntity
  8
외형선
  6
Continuous
 62
     1
370
    15
100
AcDbSpline
210
0.0
220
0.0
230
1.0
 70
     8
 71
     3
 72
    18
 73
    14
 74
     0
 42
0.000000001
 43
0.00000001
 40
0.0
 40
0.0
 40
0.0
 40
0.0
 40
0.1659094984333196
 40
0.2936492443952018
 40
0.3908639549519108
 40
0.449282963131085
 40
0.5083500462657591
 40
0.5724068537824586
 40
0.6413950038723083
 40
0.7150603411574697
 40
0.7932633248869635
 40
0.9426568964607855
 40
1.0
 40
1.0
 40
1.0
 40
1.0
 10
14.79353673559115
 20
-4.776095704449753
 30
0.0
 10
15.05651876889409
 20
-4.735804314357713
 30
0.0
 10
15.52198021684102
 20
-4.664491120309848
 30
0.0
 10
16.13954985301786
 20
-4.580617054750006
 30
0.0
 10
16.58639312266063
 20
-4.524116121229153
 30
0.0
 10
16.92093773400745
 20
-4.484319743740465
 30
0.0
 10
17.20544211212973
 20
-4.452155156944463
 30
0.0
 10
17.50749197625323
 20
-4.419882687497442
 30
0.0
 10
17.8335208528688
 20
-4.3872605222016
 30
0.0
 10
18.18171635735482
 20
-4.354886182249435
 30
0.0
 10
18.65663627094589
 20
-4.314667162586339
 30
0.0
 10
19.10538577848951
 20
-4.280429662112349
 30
0.0
 10
19.43115440892145
 20
-4.261859625587334
 30
0.0
 10
19.52151372370908
 20
-4.256708804976535
 30
0.0
  0
SPLINE
  5
A3
330
1F
100
AcDbEntity
  8
외형선
  6
Continuous
 62
     1
370
    15
100
AcDbSpline
210
0.0
220
0.0
230
1.0
 70
     8
 71
     3
 72
    27
 73
    23
 74
     0
 42
0.000000001
 43
0.00000001
 40
0.0
 40
0.0
 40
0.0
 40
0.0
 40
0.0659995873551251
 40
0.116116856896457
 40
0.1500521954863512
 40
0.1807480717452615
 40
0.2193970946695195
 40
0.2651396234000013
 40
0.3077710016335748
 40
0.3717586113782882
 40
0.42561799526656
 40
0.4792292629575734
 40
0.5328162239056032
 40
0.5928397072290496
 40
0.6565782697971146
 40
0.7104272773809647
 40
0.7403656018517696
 40
0.7679578609371124
 40
0.7958339015085062
 40
0.8419139768554009
 40
0.9100096775666361
 40
1.0
 40
1.0
 40
1.0
 40
1.0
 10
60.44057835560294
 20
4.343096787551234
 30
0.0
 10
60.19747321547604
 20
4.323251443872675
 30
0.0
 10
59.76976440852522
 20
4.288336393274177
 30
0.0
 10
59.21669111691331
 20
4.253584412862987
 30
0.0
 10
58.79062829980931
 20
4.230874375706978
 30
0.0
 10
58.40563638359507
 20
4.213568810556842
 30
0.0
 10
57.97928573703815
 20
4.19809339253277
 30
0.0
 10
57.50952007462817
 20
4.186205213928454
 30
0.0
 10
56.94622724427965
 20
4.178333964901143
 30
0.0
 10
56.35286210789188
 20
4.178133973415954
 30
0.0
 10
55.71914439697315
 20
4.187573308613695
 30
0.0
 10
55.12327440179975
 20
4.204664109040305
 30
0.0
 10
54.50520829571096
 20
4.230751219830504
 30
0.0
 10
53.84652056057187
 20
4.268003085056224
 30
0.0
 10
53.18392398214671
 20
4.315936539493578
 30
0.0
 10
52.63854297093502
 20
4.363180373437771
 30
0.0
 10
52.23310307957504
 20
4.40234509679082
 30
0.0
 10
51.92110631224742
 20
4.434524023006881
 30
0.0
 10
51.5495916401824
 20
4.475197972659589
 30
0.0
 10
51.02495568688012
 20
4.537532014939267
 30
0.0
 10
50.26885646458422
 20
4.635842890274022
 30
0.0
 10
49.68120414373325
 20
4.725191648918226
 30
0.0
 10
49.3466836037123
 20
4.776053347121981
 30
0.0
  0
SPLINE
  5
A4
330
1F
100
AcDbEntity
  8
외형선
  6
Continuous
370
    15
100
AcDbSpline
210
0.0
220
0.0
230
1.0
 70
     8
 71
     3
 72
     8
 73
     4
 74
     0
 42
0.000000001
 43
0.00000001
 40
0.0
 40
0.0
 40
0.0
 40
0.0
 40
1.0
 40
1.0
 40
1.0
 40
1.0
 10
9.969936745991623
 20
0.8361789523236967
 30
0.0
 10
10.64386885521863
 20
0.4495790625631008
 30
0.0
 10
11.32631120166673
 20
0.0566017016611422
 30
0.0
 10
11.99999999999999
 20
-0.3328114303276233
 30
0.0
  0
SPLINE
  5
A5
330
1F
100
AcDbEntity
  8
외형선
  6
Continuous
370
    15
100
AcDbSpline
210
0.0
220
0.0
230
1.0
 70
    24
 71
     3
 72
     9
 73
     5
 74
     0
 42
0.000000001
 43
0.00000001
 40
0.0
 40
0.0
 40
0.0
 40
0.0
 40
0.2244781654846027
 40
0.9999999999999999
 40
0.9999999999999999
 40
0.9999999999999999
 40
0.9999999999999999
 10
12.00000000000002
 20
-0.3328114303275997
 30
0.0
 10
12.00000000000002
 20
-0.338048537729423
 30
0.0
 10
12.00000000000001
 20
-0.3613786793960627
 30
0.0
 10
12.00000000000002
 20
-0.3917105337631084
 30
0.0
 10
12.00000000000002
 20
-0.4152335491060936
 30
0.0
  0
SPLINE
  5
A6
330
1F
100
AcDbEntity
  8
외형선
  6
Continuous
370
    15
100
AcDbSpline
210
0.0
220
0.0
230
1.0
 70
    24
 71
     3
 72
     8
 73
     4
 74
     0
 42
0.000000001
 43
0.00000001
 40
0.0
 40
0.0
 40
0.0
 40
0.0
 40
1.0
 40
1.0
 40
1.0
 40
1.0
 10
12.00000000000002
 20
-0.4152335491063666
 30
0.0
 10
11.45266987561006
 20
-0.1944367809990418
 30
0.0
 10
10.89955980460255
 20
0.0286916576597825
 30
0.0
 10
10.3499329780214
 20
0.2504149313594717
 30
0.0
  0
SPLINE
  5
A7
330
1F
100
AcDbEntity
  8
외형선
  6
Continuous
370
    15
100
AcDbSpline
210
0.0
220
0.0
230
1.0
 70
     8
 71
     3
 72
    12
 73
     8
 74
     0
 42
0.000000001
 43
0.00000001
 40
0.0
 40
0.0
 40
0.0
 40
0.0
 40
0.5000000000000013
 40
0.5000000000000013
 40
0.7500000000000007
 40
0.7500000000000007
 40
1.0
 40
1.0
 40
1.0
 40
1.0
 10
9.969936745991678
 20
0.6473398050226348
 30
0.0
 10
9.969936745991498
 20
0.5962932436783646
 30
0.0
 10
10.01172639947382
 20
0.5232816023260676
 30
0.0
 10
10.10902456680726
 20
0.4126186985190765
 30
0.0
 10
10.14762622886777
 20
0.3755702255855676
 30
0.0
 10
10.2389861852745
 20
0.3060893116284478
 30
0.0
 10
10.29184886494133
 20
0.2738464654098897
 30
0.0
 10
10.34993297802141
 20
0.250414931359471
 30
0.0
  0
LINE
  5
A8
330
1F
100
AcDbEntity
  8
외형선
  6
Continuous
370
    15
100
AcDbLine
 10
9.969936745991657
 20
2.542417186322107
 30
0.0
 11
9.969936745991728
 21
6.35
 31
0.0
  0
SPLINE
  5
A9
330
1F
100
AcDbEntity
  8
외형선
  6
Continuous
370
    15
100
AcDbSpline
210
0.0
220
0.0
230
1.0
 70
     8
 71
     3
 72
     8
 73
     4
 74
     0
 42
0.000000001
 43
0.00000001
 40
0.0
 40
0.0
 40
0.0
 40
0.0
 40
1.0
 40
1.0
 40
1.0
 40
1.0
 10
12.00000000000002
 20
1.431470580999412
 30
0.0
 10
11.32628916193827
 20
1.811394698160067
 30
0.0
 10
10.64382420449607
 20
2.184777150792454
 30
0.0
 10
9.969870602953668
 20
2.542167805920453
 30
0.0
  0
LINE
  5
AA
330
1F
100
AcDbEntity
  8
외형선
  6
Continuous
370
    15
100
AcDbLine
 10
12.00000000000002
 20
1.431470580999411
 30
0.0
 11
12.00000000000002
 21
-0.3328114303276366
 31
0.0
  0
LINE
  5
AB
330
1F
100
AcDbEntity
  8
외형선
  6
Continuous
370
    15
100
AcDbLine
 10
9.969936745991728
 20
-6.35
 30
0.0
 11
9.969936745991623
 21
0.8361767514838903
 31
0.0
  0
LINE
  5
AC
330
1F
100
AcDbEntity
  8
외형선
  6
Continuous
370
    15
100
AcDbLine
 10
-37.79999999999998
 20
6.349999999999993
 30
0.0
 11
-37.79999999999998
 21
-6.350000000000002
 31
0.0
  0
LINE
  5
AD
330
1F
100
AcDbEntity
  8
외형선
  6
Continuous
370
    15
100
AcDbLine
 10
-38.79999999999998
 20
5.349999999999993
 30
0.0
 11
-38.79999999999998
 21
-5.349999999999999
 31
0.0
  0
LINE
  5
AE
330
1F
100
AcDbEntity
  8
외형선
  6
Continuous
370
    15
100
AcDbLine
 10
11.99999999999999
 20
1.531481970067777
 30
0.0
 11
11.63888042772151
 21
1.695761769348093
 31
0.0
  0
SPLINE
  5
AF
330
1F
100
AcDbEntity
  8
외형선
  6
Continuous
370
    15
100
AcDbSpline
210
0.0
220
0.0
230
1.0
 70
    24
 71
     3
 72
     8
 73
     4
 74
     0
 42
0.000000001
 43
0.00000001
 40
0.0
 40
0.0
 40
0.0
 40
0.0
 40
1.0
 40
1.0
 40
1.0
 40
1.0
 10
12.00000000000002
 20
1.531481970067763
 30
0.0
 10
12.00000000000002
 20
1.525217347573265
 30
0.0
 10
12.00000000000002
 20
1.491786088515095
 30
0.0
 10
12.00000000000002
 20
1.431470581002468
 30
0.0
  0
SPLINE
  5
B0
330
1F
100
AcDbEntity
  8
외형선
  6
Continuous
370
    15
100
AcDbSpline
210
0.0
220
0.0
230
1.0
 70
     8
 71
     3
 72
    12
 73
     8
 74
     0
 42
0.000000001
 43
0.00000001
 40
0.0
 40
0.0
 40
0.0
 40
0.0
 40
0.25
 40
0.25
 40
0.5
 40
0.5
 40
1.0
 40
1.0
 40
1.0
 40
1.0
 10
10.26551571048233
 20
-5.069586258367494
 30
0.0
 10
10.19951235491387
 20
-5.06763481310287
 30
0.0
 10
10.15382222611021
 20
-5.067783290834281
 30
0.0
 10
10.08094513859558
 20
-5.068053826093792
 30
0.0
 10
10.05415180178219
 20
-5.068436921384073
 30
0.0
 10
9.990723740345537
 20
-5.06988171574141
 30
0.0
 10
9.9699367459917
 20
-5.07117339294147
 30
0.0
 10
9.969936745991696
 20
-5.074733966129635
 30
0.0
  0
SPLINE
  5
B1
330
1F
100
AcDbEntity
  8
외형선
  6
Continuous
370
    15
100
AcDbSpline
210
0.0
220
0.0
230
1.0
 70
     8
 71
     3
 72
     8
 73
     4
 74
     0
 42
0.000000001
 43
0.00000001
 40
0.0
 40
0.0
 40
0.0
 40
0.0
 40
1.0
 40
1.0
 40
1.0
 40
1.0
 10
12.00000000000001
 20
5.05778605752411
 30
0.0
 10
11.32630314913145
 20
5.086928352653757
 30
0.0
 10
10.64385254142994
 20
5.08734111016544
 30
0.0
 10
9.969912579664543
 20
5.059003621056592
 30
0.0
  0
SPLINE
  5
B2
330
1F
100
AcDbEntity
  8
외형선
  6
Continuous
370
    15
100
AcDbSpline
210
0.0
220
0.0
230
1.0
 70
    24
 71
     3
 72
    14
 73
    10
 74
     0
 42
0.000000001
 43
0.00000001
 40
0.0
 40
0.0
 40
0.0
 40
0.0
 40
0.25
 40
0.25
 40
0.5
 40
0.5
 40
0.75
 40
0.75
 40
1.0
 40
1.0
 40
1.0
 40
1.0
 10
12.00000000000002
 20
5.057786057524107
 30
0.0
 10
12.00000000000002
 20
4.955991922115861
 30
0.0
 10
12.00000000000002
 20
4.800841828128233
 30
0.0
 10
12.00000000000002
 20
4.383466439459222
 30
0.0
 10
12.00000000000002
 20
4.121238199235123
 30
0.0
 10
12.00000000000002
 20
3.50492919129293
 30
0.0
 10
12.00000000000002
 20
3.151026394907594
 30
0.0
 10
12.00000000000002
 20
2.379861326347185
 30
0.0
 10
12.00000000000002
 20
1.962874697405593
 30
0.0
 10
12.00000000000002
 20
1.531481970067766
 30
0.0
  0
SPLINE
  5
B3
330
1F
100
AcDbEntity
  8
외형선
  6
Continuous
370
    15
100
AcDbSpline
210
0.0
220
0.0
230
1.0
 70
     8
 71
     3
 72
     8
 73
     4
 74
     0
 42
0.000000001
 43
0.00000001
 40
0.0
 40
0.0
 40
0.0
 40
0.0
 40
1.0
 40
1.0
 40
1.0
 40
1.0
 10
12.00000000000001
 20
-5.057786057524113
 30
0.0
 10
11.42463885558252
 20
-5.082674617200663
 30
0.0
 10
10.84289048887709
 20
-5.086656834060304
 30
0.0
 10
10.26551571048232
 20
-5.069586258367494
 30
0.0
  0
SPLINE
  5
B4
330
1F
100
AcDbEntity
  8
외형선
  6
Continuous
370
    15
100
AcDbSpline
210
0.0
220
0.0
230
1.0
 70
    24
 71
     3
 72
    14
 73
    10
 74
     0
 42
0.000000001
 43
0.00000001
 40
0.0
 40
0.0
 40
0.0
 40
0.0
 40
0.25
 40
0.25
 40
0.5
 40
0.5
 40
0.75
 40
0.75
 40
1.0
 40
1.0
 40
1.0
 40
1.0
 10
12.00000000000002
 20
-0.4152335491063652
 30
0.0
 10
12.00000000000002
 20
-0.951259374867182
 30
0.0
 10
12.00000000000002
 20
-1.4835896560277
 30
0.0
 10
12.00000000000002
 20
-2.485843943124369
 30
0.0
 10
12.00000000000002
 20
-2.955159362025841
 30
0.0
 10
12.00000000000002
 20
-3.780274792714124
 30
0.0
 10
12.00000000000002
 20
-4.135635148502855
 30
0.0
 10
12.00000000000002
 20
-4.703683825522729
 30
0.0
 10
12.00000000000002
 20
-4.91637342492719
 30
0.0
 10
12.00000000000002
 20
-5.057786057524109
 30
0.0
  0
SPLINE
  5
B5
330
1F
100
AcDbEntity
  8
외형선
  6
Continuous
 62
     1
370
    15
100
AcDbSpline
210
0.0
220
0.0
230
1.0
 70
     8
 71
     3
 72
    17
 73
    13
 74
     0
 42
0.000000001
 43
0.00000001
 40
0.0
 40
0.0
 40
0.0
 40
0.0
 40
0.086699135175339
 40
0.1908213684429423
 40
0.2949423105899183
 40
0.3990625330645876
 40
0.5031826076199082
 40
0.6073031060714614
 40
0.7114246000553786
 40
0.8155476607864275
 40
0.9196728588164794
 40
1.0
 40
1.0
 40
1.0
 40
1.0
 10
47.02205914813677
 20
-0.6028666476021656
 30
0.0
 10
46.41115909924056
 20
-0.3570848640218685
 30
0.0
 10
45.06659224656693
 20
0.1838711234431588
 30
0.0
 10
42.98837290125779
 20
1.022546704031496
 30
0.0
 10
40.78740356997584
 20
1.867731144210436
 30
0.0
 10
38.58645116002279
 20
2.638923435481752
 30
0.0
 10
36.38550216571133
 20
3.304719954863997
 30
0.0
 10
34.18454328145319
 20
3.838242936133583
 30
0.0
 10
31.98356123821741
 20
4.220020457283137
 30
0.0
 10
29.78254244633018
 20
4.427809462729405
 30
0.0
 10
27.74917978520448
 20
4.475555123528338
 30
0.0
 10
26.44948533991855
 20
4.372242016732319
 30
0.0
 10
25.88348146245599
 20
4.327250196346117
 30
0.0
  0
SPLINE
  5
B6
330
1F
100
AcDbEntity
  8
외형선
  6
Continuous
 62
     1
370
    15
100
AcDbSpline
210
0.0
220
0.0
230
1.0
 70
     8
 71
     3
 72
    31
 73
    27
 74
     0
 42
0.000000001
 43
0.00000001
 40
0.0
 40
0.0
 40
0.0
 40
0.0
 40
0.007342970977349
 40
0.0506410133605258
 40
0.0936172750631868
 40
0.1368919018444939
 40
0.1798560820396305
 40
0.2231185552231215
 40
0.2660826911973508
 40
0.3090468766517517
 40
0.3519995770213513
 40
0.3952507664366443
 40
0.4382033662287397
 40
0.481453543601299
 40
0.5244061972444602
 40
0.5676569581473664
 40
0.6106095763131845
 40
0.6535621733446547
 40
0.6965147534820834
 40
0.7397647788156836
 40
0.7827174464834626
 40
0.8259684738121487
 40
0.8729506256805764
 40
0.9199327818574117
 40
0.9598470446873104
 40
0.9999999999999999
 40
0.9999999999999999
 40
0.9999999999999999
 40
0.9999999999999999
 10
19.52133686428387
 20
4.256629567448793
 30
0.0
 10
19.62539031637694
 20
4.303680193031543
 30
0.0
 10
20.34299798143628
 20
4.628166203681323
 30
0.0
 10
21.66968825261711
 20
5.114106349533047
 30
0.0
 10
23.5061023216295
 20
5.682974196404756
 30
0.0
 10
25.33743760189492
 20
6.083138559674134
 30
0.0
 10
27.17252601361979
 20
6.318227269868232
 30
0.0
 10
29.0032307911459
 20
6.377007179436371
 30
0.0
 10
30.83404154285269
 20
6.259345608610451
 30
0.0
 10
32.66103571337089
 20
5.970010663321678
 30
0.0
 10
34.49161253428782
 20
5.515311759116828
 30
0.0
 10
36.32183757341593
 20
4.90775437664495
 30
0.0
 10
38.15624337632521
 20
4.162649636890419
 30
0.0
 10
39.9866320583644
 20
3.304227365763388
 30
0.0
 10
41.82173606952211
 20
2.353125365022668
 30
0.0
 10
43.65210828084417
 20
1.338240632892788
 30
0.0
 10
45.48229529703287
 20
0.2860890259756046
 30
0.0
 10
47.30826665089432
 20
-0.7715007936168191
 30
0.0
 10
49.13871351479172
 20
-1.809786788972622
 30
0.0
 10
50.96957195039361
 20
-2.797460210510323
 30
0.0
 10
52.80411016938846
 20
-3.710754073937236
 30
0.0
 10
54.69134959002368
 20
-4.544472106039346
 30
0.0
 10
56.63605610894597
 20
-5.265002103137328
 30
0.0
 10
58.53335480179611
 20
-5.799987010049866
 30
0.0
 10
60.33434239337074
 20
-6.158905712840666
 30
0.0
 10
61.46307643356518
 20
-6.29948978749222
 30
0.0
 10
62.038
 20
-6.350000000000199
 30
0.0
  0
SPLINE
  5
B8
330
1F
100
AcDbEntity
  8
외형선
  6
Continuous
 62
     1
370
    15
100
AcDbSpline
210
0.0
220
0.0
230
1.0
 70
     8
 71
     3
 72
    15
 73
    11
 74
     0
 42
0.000000001
 43
0.00000001
 40
0.0
 40
0.0
 40
0.0
 40
0.0
 40
0.1335329278423724
 40
0.2670586848568119
 40
0.4005779612160817
 40
0.5340914497904358
 40
0.6675998458625514
 40
0.8011038468403242
 40
0.9346041519677778
 40
1.0
 40
1.0
 40
1.0
 40
1.0
 10
62.80000000000002
 20
-5.009973878738171
 30
0.0
 10
62.06609358198584
 20
-4.856610704429229
 30
0.0
 10
60.5983201573351
 20
-4.549892591539806
 30
0.0
 10
58.39673802715433
 20
-3.854566038479945
 30
0.0
 10
56.1952772041058
 20
-3.01965245902748
 30
0.0
 10
53.99392635502965
 20
-2.060600573527076
 30
0.0
 10
51.79267173342743
 20
-1.019390652413805
 30
0.0
 10
49.59150070302475
 20
0.0592749580833883
 30
0.0
 10
47.76467471344539
 20
0.963338545765713
 30
0.0
 10
46.67157303943763
 20
1.469298847431093
 30
0.0
 10
46.31216784320042
 20
1.635655523879648
 30
0.0
  0
LINE
  5
B9
330
1F
100
AcDbEntity
  8
외형선
  6
Continuous
 62
     1
370
    15
100
AcDbLine
 10
62.80000000000002
 20
-5.21006539684217
 30
0.0
 11
62.80000000000002
 21
-5.009973878738171
 31
0.0
  0
SPLINE
  5
BA
330
1F
100
AcDbEntity
  8
외형선
  6
Continuous
 62
     1
370
    15
100
AcDbSpline
210
0.0
220
0.0
230
1.0
 70
     8
 71
     3
 72
    14
 73
    10
 74
     0
 42
0.000000001
 43
0.00000001
 40
0.0
 40
0.0
 40
0.0
 40
0.0
 40
0.25
 40
0.25
 40
0.5
 40
0.5
 40
0.75
 40
0.75
 40
1.0
 40
1.0
 40
1.0
 40
1.0
 10
62.03800000000003
 20
-5.872509779261071
 30
0.0
 10
62.12882397553184
 20
-5.892435150217056
 30
0.0
 10
62.22165606932268
 20
-5.894646570789513
 30
0.0
 10
62.40307855514848
 20
-5.856095240853035
 30
0.0
 10
62.49056472405609
 20
-5.814726339890669
 30
0.0
 10
62.63915309742796
 20
-5.690394022230078
 30
0.0
 10
62.70010464378232
 20
-5.606975496809159
 30
0.0
 10
62.7802218063843
 20
-5.419110273740937
 30
0.0
 10
62.80000000000003
 20
-5.315036921006674
 30
0.0
 10
62.80000000000003
 20
-5.21006539684217
 30
0.0
  0
SPLINE
  5
BB
330
1F
100
AcDbEntity
  8
외형선
  6
Continuous
 62
     1
370
    15
100
AcDbSpline
210
0.0
220
0.0
230
1.0
 70
     8
 71
     3
 72
    22
 73
    18
 74
     0
 42
0.000000001
 43
0.00000001
 40
0.0
 40
0.0
 40
0.0
 40
0.0
 40
0.068536231547013
 40
0.1370835997590073
 40
0.2056462041077533
 40
0.2742187183543184
 40
0.3427755263873606
 40
0.4113185297337829
 40
0.4840572897355414
 40
0.5567944877525133
 40
0.6295304899213576
 40
0.7022656628737272
 40
0.775000373584657
 40
0.8477349892206534
 40
0.9204698769876086
 40
0.9932054039786844
 40
1.0
 40
1.0
 40
1.0
 40
1.0
 10
62.03800000000002
 20
-5.872509779261072
 30
0.0
 10
61.34673507199917
 20
-5.700504104095705
 30
0.0
 10
59.9640928902138
 20
-5.35646480402896
 30
0.0
 10
57.88984215105599
 20
-4.594683229799085
 30
0.0
 10
55.81513168918248
 20
-3.684885026107972
 30
0.0
 10
53.74022611587904
 20
-2.640518268671642
 30
0.0
 10
51.66565252248575
 20
-1.503465776355954
 30
0.0
 10
49.54918955218392
 20
-0.2885559293983124
 30
0.0
 10
47.39038946248314
 20
0.9624682291027351
 30
0.0
 10
45.18935604310662
 20
2.199634316849617
 30
0.0
 10
42.98835215604752
 20
3.348847151939362
 30
0.0
 10
40.78738211140466
 20
4.364882417912149
 30
0.0
 10
38.58642780192277
 20
5.204770234536215
 30
0.0
 10
36.3854774057559
 20
5.843996719438888
 30
0.0
 10
34.18451633271651
 20
6.22341697142189
 30
0.0
 10
32.64866935585707
 20
6.383892087614644
 30
0.0
 10
31.84647199383923
 20
6.342770406783097
 30
0.0
 10
31.7779368678037
 20
6.339257207024508
 30
0.0
  0
SPLINE
  5
BC
330
1F
100
AcDbEntity
  8
외형선
  6
Continuous
370
    15
100
AcDbSpline
210
0.0
220
0.0
230
1.0
 70
    24
 71
     3
 72
     8
 73
     4
 74
     0
 42
0.000000001
 43
0.00000001
 40
0.0
 40
0.0
 40
0.0
 40
0.0
 40
1.0
 40
1.0
 40
1.0
 40
1.0
 10
12.00000000000002
 20
1.531481970067763
 30
0.0
 10
12.00000000000002
 20
1.525217347573265
 30
0.0
 10
12.00000000000002
 20
1.491786088515095
 30
0.0
 10
12.00000000000002
 20
1.431470581002468
 30
0.0
  0
SPLINE
  5
BD
330
1F
100
AcDbEntity
  8
외형선
  6
Continuous
 62
     1
370
    15
100
AcDbSpline
210
0.0
220
0.0
230
1.0
 70
     8
 71
     3
 72
    18
 73
    14
 74
     0
 42
0.000000001
 43
0.00000001
 40
0.0
 40
0.0
 40
0.0
 40
0.0
 40
0.0228861257679626
 40
0.1198298363310716
 40
0.2167749478058195
 40
0.3137219704048464
 40
0.4106714135408007
 40
0.5076237856137761
 40
0.6045795937996498
 40
0.7015393438395109
 40
0.7985035398303607
 40
0.8992517074467073
 40
0.9999999999999999
 40
0.9999999999999999
 40
0.9999999999999999
 40
0.9999999999999999
 10
34.70412148262934
 20
-5.264676793416051
 30
0.0
 10
34.53092186899062
 20
-5.287788961422196
 30
0.0
 10
33.62406320862333
 20
-5.408802335966771
 30
0.0
 10
31.98353228897513
 20
-5.418212075768806
 30
0.0
 10
29.78251196776786
 20
-5.27858698509842
 30
0.0
 10
27.58144161536841
 20
-4.91107783702168
 30
0.0
 10
25.38030823279368
 20
-4.352116318841899
 30
0.0
 10
23.17909835162422
 20
-3.618148803764453
 30
0.0
 10
20.97779932560114
 20
-2.740145396088923
 30
0.0
 10
18.77639588709272
 20
-1.752307211817243
 30
0.0
 10
16.54628256928096
 20
-0.682040529151996
 30
0.0
 10
14.28745577358394
 20
0.4359028290805573
 30
0.0
 10
12.76248557304487
 20
1.166288772114565
 30
0.0
 10
11.99999999999999
 20
1.531481970067777
 30
0.0
  0
SPLINE
  5
BE
330
1F
100
AcDbEntity
  8
외형선
  6
Continuous
 62
     1
370
    15
100
AcDbSpline
210
0.0
220
0.0
230
1.0
 70
     8
 71
     3
 72
    20
 73
    16
 74
     0
 42
0.000000001
 43
0.00000001
 40
0.0
 40
0.0
 40
0.0
 40
0.0
 40
0.017546662979049
 40
0.0988805356139173
 40
0.1802147125532019
 40
0.2615496042906982
 40
0.3428856210241505
 40
0.4242231724855244
 40
0.5055626677716887
 40
0.5869045151756619
 40
0.6695207126441369
 40
0.75213824176943
 40
0.8347572207766035
 40
0.9173777676275834
 40
1.0
 40
1.0
 40
1.0
 40
1.0
 10
39.06125120483178
 20
-4.991015176576273
 30
0.0
 10
38.90297646920015
 20
-5.052254311743285
 30
0.0
 10
38.01105242346605
 20
-5.397354601928229
 30
0.0
 10
36.38547735230762
 20
-5.82922219161792
 30
0.0
 10
34.18451675592941
 20
-6.242791046805852
 30
0.0
 10
31.98353313228759
 20
-6.390667002255938
 30
0.0
 10
29.78251272365958
 20
-6.287850663179704
 30
0.0
 10
27.58144332430439
 20
-5.932838280888429
 30
0.0
 10
25.38030770193429
 20
-5.34129974373708
 30
0.0
 10
23.16763711123796
 20
-4.53223152917144
 30
0.0
 10
20.94337893152636
 20
-3.534606352956781
 30
0.0
 10
18.70760744109985
 20
-2.38596497219931
 30
0.0
 10
16.47178485330857
 20
-1.140199420340735
 30
0.0
 10
14.23591308738016
 20
0.1567623804411184
 30
0.0
 10
12.74530943064808
 20
1.006564958073923
 30
0.0
 10
12.00000000000002
 20
1.431470580999411
 30
0.0
  0
SPLINE
  5
BF
330
1F
100
AcDbEntity
  8
외형선
  6
Continuous
 62
     1
370
    15
100
AcDbSpline
210
0.0
220
0.0
230
1.0
 70
     8
 71
     3
 72
    16
 73
    12
 74
     0
 42
0.000000001
 43
0.00000001
 40
0.0
 40
0.0
 40
0.0
 40
0.0
 40
0.1195399862053229
 40
0.2400738252735849
 40
0.3596134065176946
 40
0.469090783559556
 40
0.5793285109342992
 40
0.6887469779226431
 40
0.7989250886821041
 40
0.9083127958979632
 40
1.0
 40
1.0
 40
1.0
 40
1.0
 10
12.00000000000003
 20
-0.3328114303276023
 30
0.0
 10
12.66548565552338
 20
-0.7153352295078524
 30
0.0
 10
14.00198979993391
 20
-1.483563122471237
 30
0.0
 10
16.00378886546296
 20
-2.582754088279372
 30
0.0
 10
17.94958028697997
 20
-3.568810060692696
 30
0.0
 10
19.83769583808923
 20
-4.418778843810426
 30
0.0
 10
21.66968827267819
 20
-5.12037489408289
 30
0.0
 10
23.50610195224972
 20
-5.682055912993387
 30
0.0
 10
25.337439067576
 20
-6.080493194135253
 30
0.0
 10
27.06977804980297
 20
-6.315701822391154
 30
0.0
 10
28.18892686265888
 20
-6.330756327136688
 30
0.0
 10
28.69924227173866
 20
-6.337620960025057
 30
0.0
  0
SPLINE
  5
C0
330
1F
100
AcDbEntity
  8
외형선
  6
Continuous
 62
     1
370
    15
100
AcDbSpline
210
0.0
220
0.0
230
1.0
 70
     8
 71
     3
 72
    12
 73
     8
 74
     0
 42
0.000000001
 43
0.00000001
 40
0.0
 40
0.0
 40
0.0
 40
0.0
 40
0.069742904102691
 40
0.3208783225725249
 40
0.5720137640722476
 40
0.7853689361974663
 40
1.0
 40
1.0
 40
1.0
 40
1.0
 10
54.08386433818357
 20
4.256283674658391
 30
0.0
 10
54.26875244656047
 20
4.338792323502173
 30
0.0
 10
55.11939935957446
 20
4.71840423068251
 30
0.0
 10
56.63606215903854
 20
5.259056595080873
 30
0.0
 10
58.53335345732009
 20
5.801308244888435
 30
0.0
 10
60.334342708592
 20
6.158595940641888
 30
0.0
 10
61.44690826491722
 20
6.301146894012167
 30
0.0
 10
62.038
 20
6.350000000000211
 30
0.0
  0
SPLINE
  5
C1
330
1F
100
AcDbEntity
  8
외형선
  6
Continuous
 62
     1
370
    15
100
AcDbSpline
210
0.0
220
0.0
230
1.0
 70
     8
 71
     3
 72
     9
 73
     5
 74
     0
 42
0.000000001
 43
0.00000001
 40
0.0
 40
0.0
 40
0.0
 40
0.0
 40
0.9323656110908293
 40
1.0
 40
1.0
 40
1.0
 40
1.0
 10
62.80000000000003
 20
4.445
 30
0.0
 10
62.06609356825277
 20
4.442449978381824
 30
0.0
 10
61.27894910151441
 20
4.439714976588708
 30
0.0
 10
60.49181143586609
 20
4.343699534199938
 30
0.0
 10
60.43857386086257
 20
4.33720558842813
 30
0.0
  0
LINE
  5
C2
330
1F
100
AcDbEntity
  8
외형선
  6
Continuous
 62
     1
370
    15
100
AcDbLine
 10
12.47105462040843
 20
-0.6015661348913289
 30
0.0
 11
12.00000000000002
 21
-0.4152335491063652
 31
0.0
  0
SPLINE
  5
C4
330
1F
100
AcDbEntity
  8
외형선
  6
Continuous
 62
     1
370
    15
100
AcDbSpline
210
0.0
220
0.0
230
1.0
 70
    24
 71
     3
 72
     8
 73
     4
 74
     0
 42
0.000000001
 43
0.00000001
 40
0.0
 40
0.0
 40
0.0
 40
0.0
 40
1.0
 40
1.0
 40
1.0
 40
1.0
 10
62.80000000000002
 20
4.444999999999999
 30
0.0
 10
62.80000000000002
 20
4.77465178727916
 30
0.0
 10
62.80000000000002
 20
5.170767440519417
 30
0.0
 10
62.8
 20
5.58800000000021
 30
0.0
  0
SPLINE
  5
C5
330
1F
100
AcDbEntity
  8
외형선
  6
Continuous
370
    15
100
AcDbSpline
210
0.0
220
0.0
230
1.0
 70
    24
 71
     3
 72
    11
 73
     7
 74
     0
 42
0.000000001
 43
0.00000001
 40
0.0
 40
0.0
 40
0.0
 40
0.0
 40
0.2878904203967711
 40
0.6856096303781172
 40
0.842445831301264
 40
1.0
 40
1.0
 40
1.0
 40
1.0
 10
12.00000000000002
 20
-0.1906232294541868
 30
0.0
 10
12.00000000000002
 20
-0.1916726569077957
 30
0.0
 10
12.00000000000003
 20
-0.1941718632641098
 30
0.0
 10
12.00000000000002
 20
-0.2643918236004116
 30
0.0
 10
12.00000000000004
 20
-0.3466173335399715
 30
0.0
 10
12.00000000000002
 20
-0.3923266820381052
 30
0.0
 10
12.00000000000002
 20
-0.4152335491060938
 30
0.0
  0
SPLINE
  5
C6
330
1F
100
AcDbEntity
  8
외형선
  6
Continuous
 62
     1
370
    15
100
AcDbSpline
210
0.0
220
0.0
230
1.0
 70
     8
 71
     3
 72
    24
 73
    20
 74
     0
 42
0.000000001
 43
0.00000001
 40
0.0
 40
0.0
 40
0.0
 40
0.0
 40
0.0524945005366886
 40
0.1114232780729011
 40
0.1703510292622682
 40
0.2292780687841073
 40
0.2882047116169148
 40
0.3471312729060001
 40
0.406058067830966
 40
0.4649854114731617
 40
0.523913618683221
 40
0.5828430039488081
 40
0.6417738812626888
 40
0.7007065639912395
 40
0.7596413647435187
 40
0.8185785952410107
 40
0.8775185661881579
 40
0.9387592446791649
 40
1.0
 40
1.0
 40
1.0
 40
1.0
 10
49.35111578109916
 20
-4.765899729588329
 30
0.0
 10
48.69754218118456
 20
-4.858058033204883
 30
0.0
 10
47.31028614064949
 20
-5.053670529478035
 30
0.0
 10
45.18936899517719
 20
-5.108694589360413
 30
0.0
 10
42.9883693243647
 20
-4.979608046329558
 30
0.0
 10
40.78739995775194
 20
-4.646986352759845
 30
0.0
 10
38.58644732030429
 20
-4.130138018737938
 30
0.0
 10
36.38549814670796
 20
-3.448079168005956
 30
0.0
 10
34.18453908543815
 20
-2.628468066145381
 30
0.0
 10
31.98355681113118
 20
-1.703903515982355
 30
0.0
 10
29.78253800567847
 20
-0.7113231459402293
 30
0.0
 10
27.58146935611
 20
0.3096679878675681
 30
0.0
 10
25.38033761654559
 20
1.31828591436506
 30
0.0
 10
23.1791293969887
 20
2.27436425085323
 30
0.0
 10
20.97783198060949
 20
3.139372114791313
 30
0.0
 10
18.77643029988463
 20
3.88012263031029
 30
0.0
 10
16.54631111007144
 20
4.469560347695684
 30
0.0
 10
14.28747428176983
 20
4.8957271536041
 30
0.0
 10
12.76249174611895
 20
5.003766400293915
 30
0.0
 10
12.00000000000002
 20
5.057786057524108
 30
0.0
  0
SPLINE
  5
C7
330
1F
100
AcDbEntity
  8
외형선
  6
Continuous
370
    15
100
AcDbSpline
210
0.0
220
0.0
230
1.0
 70
    24
 71
     3
 72
    14
 73
    10
 74
     0
 42
0.000000001
 43
0.00000001
 40
0.0
 40
0.0
 40
0.0
 40
0.0
 40
0.25
 40
0.25
 40
0.5
 40
0.5
 40
0.75
 40
0.75
 40
1.0
 40
1.0
 40
1.0
 40
1.0
 10
12.00000000000002
 20
5.057786057524107
 30
0.0
 10
12.00000000000002
 20
4.955991922115861
 30
0.0
 10
12.00000000000002
 20
4.800841828128233
 30
0.0
 10
12.00000000000002
 20
4.383466439459222
 30
0.0
 10
12.00000000000002
 20
4.121238199235123
 30
0.0
 10
12.00000000000002
 20
3.50492919129293
 30
0.0
 10
12.00000000000002
 20
3.151026394907594
 30
0.0
 10
12.00000000000002
 20
2.379861326347185
 30
0.0
 10
12.00000000000002
 20
1.962874697405593
 30
0.0
 10
12.00000000000002
 20
1.531481970067766
 30
0.0
  0
SPLINE
  5
C8
330
1F
100
AcDbEntity
  8
외형선
  6
Continuous
 62
     1
370
    15
100
AcDbSpline
210
0.0
220
0.0
230
1.0
 70
     8
 71
     3
 72
    16
 73
    12
 74
     0
 42
0.000000001
 43
0.00000001
 40
0.0
 40
0.0
 40
0.0
 40
0.0
 40
0.1043648494229318
 40
0.2088021803440576
 40
0.3133161447920694
 40
0.4398363836573283
 40
0.5663517291672638
 40
0.6928628514607723
 40
0.8193704224473999
 40
0.945875115526985
 40
1.0
 40
1.0
 40
1.0
 40
1.0
 10
61.64627083110449
 20
0.531906279901287
 30
0.0
 10
61.04109795085562
 20
0.8086239234957275
 30
0.0
 10
59.83033189715311
 20
1.362251391380459
 30
0.0
 10
58.0133379999317
 20
2.151658913252941
 30
0.0
 10
56.06759873483329
 20
2.934609146532979
 30
0.0
 10
53.99394028653165
 20
3.670848583691898
 30
0.0
 10
51.79267938654689
 20
4.304761990372997
 30
0.0
 10
49.59151186742434
 20
4.770069973775047
 30
0.0
 10
47.39041184277443
 20
5.033018464589722
 30
0.0
 10
45.60913133553893
 20
5.119202503513814
 30
0.0
 10
44.56155025921914
 20
5.043791495823695
 30
0.0
 10
44.24764704635571
 20
5.021194908185477
 30
0.0
  0
SPLINE
  5
C9
330
1F
100
AcDbEntity
  8
외형선
  6
Continuous
 62
     1
370
    15
100
AcDbSpline
210
0.0
220
0.0
230
1.0
 70
     8
 71
     3
 72
     9
 73
     5
 74
     0
 42
0.000000001
 43
0.00000001
 40
0.0
 40
0.0
 40
0.0
 40
0.0
 40
0.1841753860565116
 40
1.0
 40
1.0
 40
1.0
 40
1.0
 10
14.80388289898602
 20
-4.756885445394509
 30
0.0
 10
14.63174751984352
 20
-4.789641806976729
 30
0.0
 10
13.69712002792842
 20
-4.967495983278929
 30
0.0
 10
12.76249230292875
 20
-5.017219989414684
 30
0.0
 10
12.00000000000002
 20
-5.057786057524108
 30
0.0
  0
SPLINE
  5
CA
330
1F
100
AcDbEntity
  8
외형선
  6
Continuous
 62
     1
370
    15
100
AcDbSpline
210
0.0
220
0.0
230
1.0
 70
    24
 71
     3
 72
     8
 73
     4
 74
     0
 42
0.000000001
 43
0.00000001
 40
0.0
 40
0.0
 40
0.0
 40
0.0
 40
1.0
 40
1.0
 40
1.0
 40
1.0
 10
61.64627083110449
 20
0.5319062799012908
 30
0.0
 10
61.39226809442523
 20
0.3187726772356988
 30
0.0
 10
61.13857374671344
 20
0.1058978436389229
 30
0.0
 10
60.88518188485774
 20
-0.1067231741875068
 30
0.0
  0
SPLINE
  5
CB
330
1F
100
AcDbEntity
  8
외형선
  6
Continuous
 62
     1
370
    15
100
AcDbSpline
210
0.0
220
0.0
230
1.0
 70
     8
 71
     3
 72
     8
 73
     4
 74
     0
 42
0.000000001
 43
0.00000001
 40
0.0
 40
0.0
 40
0.0
 40
0.0
 40
1.0
 40
1.0
 40
1.0
 40
1.0
 10
62.8
 20
-1.696992707288233
 30
0.0
 10
62.1549523265634
 20
-1.189877340515797
 30
0.0
 10
61.51656081378367
 20
-0.6601903829914764
 30
0.0
 10
60.88518188486471
 20
-0.1067231741816002
 30
0.0
  0
SPLINE
  5
CC
330
1F
100
AcDbEntity
  8
외형선
  6
Continuous
 62
     1
370
    15
100
AcDbSpline
210
0.0
220
0.0
230
1.0
 70
    24
 71
     3
 72
    10
 73
     6
 74
     0
 42
0.000000001
 43
0.00000001
 40
0.0
 40
0.0
 40
0.0
 40
0.0
 40
0.5
 40
0.5
 40
1.0
 40
1.0
 40
1.0
 40
1.0
 10
62.80000000000002
 20
-5.00997387873817
 30
0.0
 10
62.80000000000002
 20
-4.625920320174161
 30
0.0
 10
62.8
 20
-4.140653922806075
 30
0.0
 10
62.8
 20
-3.012456250606812
 30
0.0
 10
62.80000000000003
 20
-2.370502263375809
 30
0.0
 10
62.80000000000002
 20
-1.696992707288437
 30
0.0
  0
LINE
  5
CD
330
1F
100
AcDbEntity
  8
외형선
  6
Continuous
 62
     1
370
    15
100
AcDbLine
 10
61.74858107100642
 20
0.617754764468656
 30
0.0
 11
62.80000000000002
 21
0.0000000000000063
 31
0.0
  0
LINE
  5
CE
330
1F
100
AcDbEntity
  8
외형선
  6
Continuous
 62
     1
370
    15
100
AcDbLine
 10
62.80000000000002
 20
0.0000000000000063
 30
0.0
 11
62.80000000000002
 21
-1.696992707288239
 31
0.0
  0
SPLINE
  5
CF
330
1F
100
AcDbEntity
  8
외형선
  6
Continuous
 62
     1
370
    15
100
AcDbSpline
210
0.0
220
0.0
230
1.0
 70
    24
 71
     3
 72
    14
 73
    10
 74
     0
 42
0.000000001
 43
0.00000001
 40
0.0
 40
0.0
 40
0.0
 40
0.0
 40
0.25
 40
0.25
 40
0.5
 40
0.5
 40
0.75
 40
0.75
 40
1.0
 40
1.0
 40
1.0
 40
1.0
 10
62.80000000000002
 20
1.500000000000007
 30
0.0
 10
62.8
 20
1.870972544391126
 30
0.0
 10
62.80000000000003
 20
2.222751651562183
 30
0.0
 10
62.8
 20
2.865867809526874
 30
0.0
 10
62.80000000000002
 20
3.157076711148592
 30
0.0
 10
62.80000000000004
 20
3.662943604909868
 30
0.0
 10
62.80000000000003
 20
3.877547716141516
 30
0.0
 10
62.80000000000004
 20
4.22324657887753
 30
0.0
 10
62.80000000000002
 20
4.354375114955245
 30
0.0
 10
62.80000000000002
 20
4.444999999999999
 30
0.0
  0
SPLINE
  5
D0
330
1F
100
AcDbEntity
  8
외형선
  6
Continuous
 62
     1
370
    15
100
AcDbSpline
210
0.0
220
0.0
230
1.0
 70
    24
 71
     3
 72
     8
 73
     4
 74
     0
 42
0.000000001
 43
0.00000001
 40
0.0
 40
0.0
 40
0.0
 40
0.0
 40
1.0
 40
1.0
 40
1.0
 40
1.0
 10
62.80000000000002
 20
1.500000000000007
 30
0.0
 10
62.42152726809085
 20
1.182423670244361
 30
0.0
 10
62.03681278668896
 20
0.859609890791475
 30
0.0
 10
61.64627083110449
 20
0.5319062799012952
 30
0.0
  0
SPLINE
  5
D1
330
1F
100
AcDbEntity
  8
외형선
  6
Continuous
370
    15
100
AcDbSpline
210
0.0
220
0.0
230
1.0
 70
    24
 71
     3
 72
    14
 73
    10
 74
     0
 42
0.000000001
 43
0.00000001
 40
0.0
 40
0.0
 40
0.0
 40
0.0
 40
0.25
 40
0.25
 40
0.5
 40
0.5
 40
0.75
 40
0.75
 40
1.0
 40
1.0
 40
1.0
 40
1.0
 10
12.00000000000002
 20
-0.4152335491063652
 30
0.0
 10
12.00000000000002
 20
-0.951259374867182
 30
0.0
 10
12.00000000000002
 20
-1.4835896560277
 30
0.0
 10
12.00000000000002
 20
-2.485843943124369
 30
0.0
 10
12.00000000000002
 20
-2.955159362025841
 30
0.0
 10
12.00000000000002
 20
-3.780274792714124
 30
0.0
 10
12.00000000000002
 20
-4.135635148502855
 30
0.0
 10
12.00000000000002
 20
-4.703683825522729
 30
0.0
 10
12.00000000000002
 20
-4.91637342492719
 30
0.0
 10
12.00000000000002
 20
-5.057786057524109
 30
0.0
  0
LINE
  5
D2
330
1F
100
AcDbEntity
  8
외형선
  6
Continuous
 62
     1
370
    15
100
AcDbLine
 10
62.80000000000002
 20
-5.21006539684217
 30
0.0
 11
62.8
 21
-5.588000000000197
 31
0.0
  0
LINE
  5
D3
330
1F
100
AcDbEntity
  8
외형선
  6
Continuous
 62
     1
370
    15
100
AcDbLine
 10
62.80000000000002
 20
0.0000000000000063
 30
0.0
 11
62.80000000000002
 21
1.500000000000007
 31
0.0
  0
LINE
  5
D4
330
1F
100
AcDbEntity
  8
중심선
 62
     1
100
AcDbLine
 10
-41.79999999999998
 20
-0.0000000000000044
 30
0.0
 11
69.80000000000001
 21
0.0000000000000073
 31
0.0
  0
LINE
  5
D5
330
1F
100
AcDbEntity
  8
참조1
100
AcDbLine
 10
12.00000000000002
 20
-0.000000000000004
 30
0.0
 11
12.00000000000002
 21
-40.00000000000001
 31
0.0
  0
LINE
  5
D6
330
1F
100
AcDbEntity
  8
참조1
100
AcDbLine
 10
12.00000000000002
 20
-40.00000000000001
 30
0.0
 11
-12.66672777521593
 21
-39.99999999999999
 31
0.0
  0
CIRCLE
  5
D7
330
1F
100
AcDbEntity
  8
해칭선
100
AcDbCircle
 10
0.0
 20
0.0
 30
0.0
 40
3.000000000000001
  0
INSERT
  5
D8
330
1F
100
AcDbEntity
  8
0
  6
Continuous
 62
     7
100
AcDbBlockReference
 66
     1
  2
블럭10
 10
-1.940272932125189
 20
-52.04717430164393
 30
0.0
  0
ATTRIB
  5
D9
330
D8
100
AcDbEntity
  8
FORMAT
 62
     2
100
AcDbText
 10
-12.08190894426181
 20
-49.97180738881175
 30
0.0
 40
4.233333333333333
  1
EM211908 [ 2 FLUTE ]
 41
0.75
  7
SLDTEXTSTYLE0
 11
-12.08190894426181
 21
-52.08847405547841
 31
0.0
100
AcDbAttribute
  2
AUTOATTR0
 70
     0
 74
     1
  0
SEQEND
  5
DA
330
D8
100
AcDbEntity
  8
0
  6
Continuous
 62
     7
  0
HATCH
  5
DB
330
1F
100
AcDbEntity
  8
중심선
100
AcDbHatch
 10
0.0
 20
0.0
 30
0.0
210
0.0
220
0.0
230
1.0
  2
SOLID
 70
     1
 71
     0
 91
        1
 92
        0
 93
        4
 72
     1
 10
3.774636372255646
 20
-35.8
 11
0.3283611284183641
 21
-35.8
 72
     1
 10
0.3283611284183641
 20
-35.8
 11
-1.799868730785686
 21
-38.3363255805726
 72
     1
 10
-1.799868730785687
 20
-38.3363255805726
 11
1.646439598164772
 21
-38.3362861512701
 72
     1
 10
1.646439598164772
 20
-38.3362861512701
 11
3.774636372255646
 21
-35.8
 97
        0
 75
     0
 76
     1
 98
        1
 10
2.000000000000007
 20
-0.0010749287238932
  0
HATCH
  5
DC
330
1F
100
AcDbEntity
  8
중심선
100
AcDbHatch
 10
0.0
 20
0.0
 30
0.0
210
0.0
220
0.0
230
1.0
  2
SOLID
 70
     1
 71
     0
 91
        1
 92
        0
 93
        4
 72
     1
 10
8.787400363291596
 20
-35.80000000000003
 11
5.341125119454342
 21
-35.79999999999998
 72
     1
 10
5.341125119454343
 20
-35.79999999999998
 11
0.8099871110969259
 21
-41.20000000000002
 72
     1
 10
0.809987111096927
 20
-41.20000000000002
 11
4.256262354934209
 21
-41.20000000000002
 72
     1
 10
4.256262354934209
 20
-41.20000000000002
 11
8.787400363291598
 21
-35.80000000000003
 97
        0
 75
     0
 76
     1
 98
        1
 10
2.000000000000007
 20
-0.0010749287238932
  0
HATCH
  5
DD
330
1F
100
AcDbEntity
  8
중심선
100
AcDbHatch
 10
0.0
 20
0.0
 30
0.0
210
0.0
220
0.0
230
1.0
  2
SOLID
 70
     1
 71
     0
 91
        1
 92
        0
 93
        4
 72
     1
 10
13.80016435432752
 20
-35.79999999999998
 11
10.35388911049041
 21
-35.79999999999998
 72
     1
 10
10.35388911049041
 20
-35.79999999999998
 11
3.305452208601128
 21
-44.20000000000002
 72
     1
 10
3.305452208601128
 20
-44.20000000000002
 11
6.751727452438411
 21
-44.20000000000002
 72
     1
 10
6.751727452438411
 20
-44.20000000000002
 11
13.80016435432752
 21
-35.79999999999998
 97
        0
 75
     0
 76
     1
 98
        1
 10
2.000000000000007
 20
-0.0010749287238932
  0
HATCH
  5
DE
330
1F
100
AcDbEntity
  8
중심선
100
AcDbHatch
 10
0.0
 20
0.0
 30
0.0
210
0.0
220
0.0
230
1.0
  2
SOLID
 70
     1
 71
     0
 91
        1
 92
        0
 93
        6
 72
     3
 10
18.6000547853397
 20
-40.00000000005127
 11
3.960054785062283
 21
1.540882976769353E-10
 40
0.3939339440162628
 50
17.09539180608439
 51
320.0019657685078
 73
     0
 72
     1
 10
20.28305444104029
 20
-38.58789400463831
 11
22.58835631474133
 21
-36.6535672945904
 72
     3
 10
18.60005478528685
 20
-40.00000000000014
 11
6.600054785286829
 21
-1.278976924368180E-13
 40
0.636358354079598
 50
39.99873849337384
 51
368.4976242363724
 73
     1
 72
     1
 10
25.02538727718746
 20
-39.03999999993002
 11
17.2801220921228
 21
-39.03999999993002
 72
     1
 10
17.2801220921228
 20
-39.03999999993002
 11
17.28009704767684
 21
-40.95999999992991
 72
     1
 10
17.28009704767684
 20
-40.95999999992991
 11
21.72147681714888
 21
-40.95999999992988
 97
        0
 75
     0
 76
     1
 98
        1
 10
2.000000000000007
 20
-0.0010749287238932
  0
DIMENSION
  5
DF
330
1F
100
AcDbEntity
  8
치수문자_일반주서
100
AcDbDimension
  2
_D
 10
-50.52028910076212
 20
-6.350000000000044
 30
0.0
 11
-50.52028910076222
 21
22.99574999999996
 31
0.0
 70
   160
  1
%%c<>
 71
     2
 42
12.69999999999999
 52
-270.0
  3
SLDDIMSTYLE1
100
AcDbAlignedDimension
 13
-38.79999999999998
 23
6.349999999999994
 33
0.0
 14
-38.78266944824279
 24
-6.349999999999999
 34
0.0
 50
90.0000000000002
100
AcDbRotatedDimension
1001
PE_URL
1000

1001
ACAD
1000
DSTYLE
1002
{
1070
   171
1070
     6
1070
   273
1070
     7
1002
}
1001
ACAD_DSTYLE_DIMFLIPARROW_SYMBOL
1070
   385
1070
     0
1001
ACAD_DSTYLE_DIMFLIPARROW_WHICH_SYMBOL
1070
   386
1070
     3
  0
DIMENSION
  5
F4
330
1F
100
AcDbEntity
  8
치수문자_일반주서
100
AcDbDimension
  2
_D_1
 10
74.80000000000005
 20
-6.349999999999763
 30
0.0
 11
74.79999999999995
 21
22.99575000000025
 31
0.0
 70
   160
  1
%%c<>
 71
     2
 42
12.70000000000001
 52
-270.0
  3
SLDDIMSTYLE1
100
AcDbAlignedDimension
 13
62.80000000000002
 23
6.350000000000204
 33
0.0
 14
62.80835363021518
 24
-6.349999999999806
 34
0.0
 50
90.0000000000002
100
AcDbRotatedDimension
1001
ACAD
1000
DSTYLE
1002
{
1070
   171
1070
     6
1070
   273
1070
     7
1002
}
1001
PE_URL
1000

1001
ACAD_DSTYLE_DIMFLIPARROW_SYMBOL
1070
   385
1070
     0
1001
ACAD_DSTYLE_DIMFLIPARROW_WHICH_SYMBOL
1070
   386
1070
     3
  0
DIMENSION
  5
108
330
1F
100
AcDbEntity
  8
치수문자_일반주서
100
AcDbDimension
  2
_D_2
 10
12.00000000000001
 20
24.03770370391742
 30
0.0
 11
37.50681402746532
 21
24.03770370391742
 31
0.0
 70
   160
  1
<>
 71
     2
 42
50.8
  3
SLDDIMSTYLE1
100
AcDbAlignedDimension
 13
62.80000000000002
 23
6.350000000000204
 33
0.0
 14
12.00000000000002
 24
6.350000000000026
 34
0.0
 50
0.000000000000006
100
AcDbRotatedDimension
1001
PE_URL
1000

1001
ACAD
1000
DSTYLE
1002
{
1070
   171
1070
     6
1070
   273
1070
     7
1002
}
  0
DIMENSION
  5
11B
330
1F
100
AcDbEntity
  8
치수문자_일반주서
100
AcDbDimension
  2
_D_3
 10
-38.79999999999998
 20
41.66290740783462
 30
0.0
 11
11.48637359758953
 21
41.66290740783462
 31
0.0
 70
   160
  1
<>
 71
     2
 42
101.6
  3
SLDDIMSTYLE1
100
AcDbAlignedDimension
 13
62.80000000000002
 23
6.350000000000204
 33
0.0
 14
-38.79999999999998
 24
6.349999999999991
 34
0.0
 50
0.000000000000004
100
AcDbRotatedDimension
1001
PE_URL
1000

1001
ACAD
1000
DSTYLE
1002
{
1070
   171
1070
     6
1070
   273
1070
     7
1002
}
  0
LINE
  5
12E
330
1F
100
AcDbEntity
  8
참조1
100
AcDbLine
 10
85.30561285443832
 20
7.440000000000003
 30
0.0
 11
85.30561285443832
 21
-7.440000000000002
 31
0.0
  0
LINE
  5
12F
330
1F
100
AcDbEntity
  8
참조1
100
AcDbLine
 10
98.00561285443834
 20
5.440000000000003
 30
0.0
 11
85.30561285443832
 21
5.440000000000003
 31
0.0
  0
SOLID
  5
130
330
1F
100
AcDbEntity
  8
참조1
100
AcDbTrace
 10
85.30561285443832
 20
5.440000000000003
 30
0.0
 11
91.65561285443832
 21
4.424000000000003
 31
0.0
 12
91.65561285443832
 22
6.456000000000003
 32
0.0
 13
91.65561285443832
 23
6.456000000000003
 33
0.0
  0
LINE
  5
131
330
1F
100
AcDbEntity
  8
참조1
100
AcDbLine
 10
98.00561285443834
 20
-5.440000000000002
 30
0.0
 11
85.30561285443832
 21
-5.440000000000002
 31
0.0
  0
SOLID
  5
132
330
1F
100
AcDbEntity
  8
참조1
100
AcDbTrace
 10
85.30561285443832
 20
-5.440000000000002
 30
0.0
 11
91.65561285443832
 21
-6.456000000000002
 31
0.0
 12
91.65561285443832
 22
-4.424000000000002
 32
0.0
 13
91.65561285443832
 23
-4.424000000000002
 33
0.0
  0
MTEXT
  5
133
330
1F
100
AcDbEntity
  8
참조1
100
AcDbMText
 10
94.70310294690861
 20
10.98821664464994
 30
0.0
 40
3.5
 41
0.0
 71
     1
 72
     1
  1
A
  7
SLDTEXTSTYLE0
 73
     1
 44
1.0
  0
MTEXT
  5
134
330
1F
100
AcDbEntity
  8
참조1
100
AcDbMText
 10
94.70310294690861
 20
0.1082166446499319
 30
0.0
 40
3.5
 41
0.0
 71
     1
 72
     1
  1
A
  7
SLDTEXTSTYLE0
 73
     1
 44
1.0
  0
INSERT
  5
13B
330
1F
100
AcDbEntity
  8
해칭선
100
AcDbBlockReference
  2
SW_DOWELSYMBOL_0
 10
0.0
 20
0.0
 30
0.0
  0
MTEXT
  5
1E5
102
{ACAD_REACTORS
330
1E6
102
}
330
1F
100
AcDbEntity
  8
0
100
AcDbMText
 10
73.0132996800022
 20
-21.1856603189522
 30
0.0
 40
3.5
 41
0.0
 71
     7
 72
     1
  1
{R0.76[.030"]}
 73
     1
 44
1.0
1001
ACAD
1000
ACAD_MTEXT_DEFINED_HEIGHT_BEGIN
1070
    46
1040
3.5
1000
ACAD_MTEXT_DEFINED_HEIGHT_END
  0
LEADER
  5
1E6
102
{ACAD_XDICTIONARY
360
1E7
102
}
330
1F
100
AcDbEntity
  8
0
100
AcDbLeader
  3
ISO-25
 73
     0
 74
     0
 75
     1
 40
3.5
 41
30.91666666666667
 76
     3
 10
62.51322557156994
 20
-6.288227000860327
 30
0.0
 10
68.1872996800022
 20
-19.4356603189522
 30
0.0
 10
71.4892996800022
 20
-19.4356603189522
 30
0.0
340
1E5
213
0.0
223
1.75
233
0.0
1001
ACAD
1000
DSTYLE
1002
{
1070
    77
1070
     0
1070
   179
1070
     2
1070
   143
1040
0.0393700787401575
1070
    41
1040
3.302
1070
    44
1040
1.0
1070
    42
1040
1.0
1070
   147
1040
1.524
1070
    73
1070
     1
1070
    74
1070
     1
1070
   140
1040
3.5
1070
   284
1070
     0
1070
    78
1070
     0
1002
}
  0
ARC
  5
1EA
330
1F
100
AcDbEntity
  8
외형선
  6
Continuous
 62
     1
370
    15
100
AcDbCircle
 10
62.038
 20
5.58800000000021
 30
0.0
 40
0.7620000000000005
100
AcDbArc
 50
0.0
 51
90.0
1001
PE_URL
1000

  0
ARC
  5
1EB
330
1F
100
AcDbEntity
  8
외형선
  6
Continuous
 62
     1
370
    15
100
AcDbCircle
 10
62.038
 20
-5.588000000000198
 30
0.0
 40
0.7620000000000005
100
AcDbArc
 50
270.0
 51
0.0000000000000668
1001
PE_URL
1000

  0
ENDSEC
  0
SECTION
  2
OBJECTS
  0
DICTIONARY
  5
C
330
0
100
AcDbDictionary
281
     1
  3
ACAD_DETAILVIEWSTYLE
350
18D
  3
ACAD_GROUP
350
D
  3
ACAD_LAYOUT
350
1A
  3
ACAD_MLINESTYLE
350
17
  3
ACAD_PLOTSETTINGS
350
19
  3
ACAD_PLOTSTYLENAME
350
E
  3
ACAD_SCALELIST
350
47
  3
ACAD_SECTIONVIEWSTYLE
350
18E
  3
AcDbVariableDictionary
350
188
  3
APPDATA
350
15D
  3
DWGPROPS
350
20E
  0
DICTIONARY
  5
1E7
330
1E6
100
AcDbDictionary
280
     1
281
     1
  0
DICTIONARY
  5
18D
102
{ACAD_REACTORS
330
C
102
}
330
C
100
AcDbDictionary
281
     1
  0
DICTIONARY
  5
D
102
{ACAD_REACTORS
330
C
102
}
330
C
100
AcDbDictionary
281
     1
  0
DICTIONARY
  5
1A
102
{ACAD_REACTORS
330
C
102
}
330
C
100
AcDbDictionary
281
     1
  3
Layout1
350
1E
  3
Layout2
350
26
  3
Model
350
22
  0
DICTIONARY
  5
17
102
{ACAD_REACTORS
330
C
102
}
330
C
100
AcDbDictionary
281
     1
  3
Standard
350
18
  0
DICTIONARY
  5
19
102
{ACAD_REACTORS
330
C
102
}
330
C
100
AcDbDictionary
281
     1
  0
ACDBDICTIONARYWDFLT
  5
E
102
{ACAD_REACTORS
330
C
102
}
330
C
100
AcDbDictionary
281
     1
  3
Normal
350
F
100
AcDbDictionaryWithDefault
340
F
  0
DICTIONARY
  5
47
102
{ACAD_REACTORS
330
C
102
}
330
C
100
AcDbDictionary
281
     1
  3
A0
350
48
  3
A1
350
49
  3
A2
350
4A
  3
A3
350
4B
  3
A4
350
4C
  3
A5
350
4D
  3
A6
350
4E
  3
A7
350
4F
  3
A8
350
50
  3
A9
350
51
  3
B0
350
52
  3
B1
350
53
  3
B2
350
54
  3
B3
350
55
  3
B4
350
56
  3
B5
350
57
  3
B6
350
58
  3
B7
350
59
  3
B8
350
5A
  3
B9
350
5B
  3
C0
350
5C
  3
C1
350
5D
  3
C2
350
5E
  3
C3
350
5F
  3
C4
350
60
  3
C5
350
61
  3
C6
350
62
  3
C7
350
63
  3
C8
350
64
  3
C9
350
65
  3
D0
350
66
  3
D1
350
67
  3
D2
350
68
  0
DICTIONARY
  5
18E
102
{ACAD_REACTORS
330
C
102
}
330
C
100
AcDbDictionary
281
     1
  0
DICTIONARY
  5
188
102
{ACAD_REACTORS
330
C
102
}
330
C
100
AcDbDictionary
281
     1
  0
DICTIONARY
  5
15D
102
{ACAD_REACTORS
330
C
102
}
330
C
100
AcDbDictionary
281
     1
  0
XRECORD
  5
20E
102
{ACAD_REACTORS
330
C
102
}
330
C
100
AcDbXrecord
280
     1
  1
DWGPROPS COOKIE
  2

  3

  4

  6

  7

  8
USER
  9

300
=
301
=
302
=
303
=
304
=
305
=
306
=
307
=
308
=
309
=
 40
0.0
 41
2458288.274359688
 42
2458303.000958276
  1

 90
        0
  0
LAYOUT
  5
1E
102
{ACAD_REACTORS
330
1A
102
}
330
1A
100
AcDbPlotSettings
  1

  2
none_device
  4

  6

 40
0.0
 41
0.0
 42
0.0
 43
0.0
 44
0.0
 45
0.0
 46
0.0
 47
0.0
 48
0.0
 49
0.0
140
0.0
141
0.0
142
1.0
143
1.0
 70
   688
 72
     1
 73
     0
 74
     5
  7

 75
    16
147
1.0
148
0.0
149
0.0
100
AcDbLayout
  1
Layout1
 70
     1
 71
     1
 10
0.0
 20
0.0
 11
420.0
 21
297.0
 12
0.0
 22
0.0
 32
0.0
 14
1.000000000000000E+20
 24
1.000000000000000E+20
 34
1.000000000000000E+20
 15
-1.000000000000000E+20
 25
-1.000000000000000E+20
 35
-1.000000000000000E+20
146
0.0
 13
0.0
 23
0.0
 33
0.0
 16
1.0
 26
0.0
 36
0.0
 17
0.0
 27
1.0
 37
0.0
 76
     0
330
1B
  0
LAYOUT
  5
26
102
{ACAD_REACTORS
330
1A
102
}
330
1A
100
AcDbPlotSettings
  1

  2
none_device
  4

  6

 40
0.0
 41
0.0
 42
0.0
 43
0.0
 44
0.0
 45
0.0
 46
0.0
 47
0.0
 48
0.0
 49
0.0
140
0.0
141
0.0
142
1.0
143
1.0
 70
   688
 72
     1
 73
     0
 74
     5
  7

 75
    16
147
1.0
148
0.0
149
0.0
100
AcDbLayout
  1
Layout2
 70
     1
 71
     2
 10
0.0
 20
0.0
 11
0.0
 21
0.0
 12
0.0
 22
0.0
 32
0.0
 14
0.0
 24
0.0
 34
0.0
 15
0.0
 25
0.0
 35
0.0
146
0.0
 13
0.0
 23
0.0
 33
0.0
 16
1.0
 26
0.0
 36
0.0
 17
0.0
 27
1.0
 37
0.0
 76
     0
330
23
  0
LAYOUT
  5
22
102
{ACAD_REACTORS
330
1A
102
}
330
1A
100
AcDbPlotSettings
  1

  2
none_device
  4
ANSI_A_(11.00_x_8.50_Inches)
  6

 40
6.35
 41
19.05
 42
6.35000508
 43
19.05000254
 44
279.4
 45
215.9
 46
105.7818028528329
 47
99.70087868516701
 48
0.0
 49
0.0
140
0.0
141
0.0
142
0.0680206271096811
143
1.0
 70
  1696
 72
     0
 73
     0
 74
     0
  7

 75
     0
147
0.0235690232323232
148
0.0
149
0.0
100
AcDbLayout
  1
Model
 70
     1
 71
     0
 10
0.0
 20
0.0
 11
420.0
 21
297.0
 12
0.0
 22
0.0
 32
0.0
 14
-54.89528910076226
 24
-49.97180738881175
 34
0.0
 15
103.9299663466689
 25
46.03790740783463
 35
0.0
146
0.0
 13
0.0
 23
0.0
 33
0.0
 16
1.0
 26
0.0
 36
0.0
 17
0.0
 27
1.0
 37
0.0
 76
     0
330
1F
331
29
  0
MLINESTYLE
  5
18
102
{ACAD_REACTORS
330
17
102
}
330
17
100
AcDbMlineStyle
  2
Standard
 70
     0
  3

 62
   256
 51
90.0
 52
90.0
 71
     2
 49
0.5
 62
   256
  6
BYLAYER
 49
-0.5
 62
   256
  6
BYLAYER
  0
ACDBPLACEHOLDER
  5
F
102
{ACAD_REACTORS
330
E
102
}
330
E
  0
SCALE
  5
48
102
{ACAD_REACTORS
330
47
102
}
330
47
100
AcDbScale
 70
     0
300
1:1
140
1.0
141
1.0
290
     1
  0
SCALE
  5
49
102
{ACAD_REACTORS
330
47
102
}
330
47
100
AcDbScale
 70
     0
300
1:2
140
1.0
141
2.0
290
     0
  0
SCALE
  5
4A
102
{ACAD_REACTORS
330
47
102
}
330
47
100
AcDbScale
 70
     0
300
1:4
140
1.0
141
4.0
290
     0
  0
SCALE
  5
4B
102
{ACAD_REACTORS
330
47
102
}
330
47
100
AcDbScale
 70
     0
300
1:5
140
1.0
141
5.0
290
     0
  0
SCALE
  5
4C
102
{ACAD_REACTORS
330
47
102
}
330
47
100
AcDbScale
 70
     0
300
1:8
140
1.0
141
8.0
290
     0
  0
SCALE
  5
4D
102
{ACAD_REACTORS
330
47
102
}
330
47
100
AcDbScale
 70
     0
300
1:10
140
1.0
141
10.0
290
     0
  0
SCALE
  5
4E
102
{ACAD_REACTORS
330
47
102
}
330
47
100
AcDbScale
 70
     0
300
1:16
140
1.0
141
16.0
290
     0
  0
SCALE
  5
4F
102
{ACAD_REACTORS
330
47
102
}
330
47
100
AcDbScale
 70
     0
300
1:20
140
1.0
141
20.0
290
     0
  0
SCALE
  5
50
102
{ACAD_REACTORS
330
47
102
}
330
47
100
AcDbScale
 70
     0
300
1:30
140
1.0
141
30.0
290
     0
  0
SCALE
  5
51
102
{ACAD_REACTORS
330
47
102
}
330
47
100
AcDbScale
 70
     0
300
1:40
140
1.0
141
40.0
290
     0
  0
SCALE
  5
52
102
{ACAD_REACTORS
330
47
102
}
330
47
100
AcDbScale
 70
     0
300
1:50
140
1.0
141
50.0
290
     0
  0
SCALE
  5
53
102
{ACAD_REACTORS
330
47
102
}
330
47
100
AcDbScale
 70
     0
300
1:100
140
1.0
141
100.0
290
     0
  0
SCALE
  5
54
102
{ACAD_REACTORS
330
47
102
}
330
47
100
AcDbScale
 70
     0
300
2:1
140
2.0
141
1.0
290
     0
  0
SCALE
  5
55
102
{ACAD_REACTORS
330
47
102
}
330
47
100
AcDbScale
 70
     0
300
4:1
140
4.0
141
1.0
290
     0
  0
SCALE
  5
56
102
{ACAD_REACTORS
330
47
102
}
330
47
100
AcDbScale
 70
     0
300
8:1
140
8.0
141
1.0
290
     0
  0
SCALE
  5
57
102
{ACAD_REACTORS
330
47
102
}
330
47
100
AcDbScale
 70
     0
300
10:1
140
10.0
141
1.0
290
     0
  0
SCALE
  5
58
102
{ACAD_REACTORS
330
47
102
}
330
47
100
AcDbScale
 70
     0
300
100:1
140
100.0
141
1.0
290
     0
  0
SCALE
  5
59
102
{ACAD_REACTORS
330
47
102
}
330
47
100
AcDbScale
 70
     0
300
1/128" = 1'-0"
140
0.0078125
141
12.0
290
     0
  0
SCALE
  5
5A
102
{ACAD_REACTORS
330
47
102
}
330
47
100
AcDbScale
 70
     0
300
1/64" = 1'-0"
140
0.015625
141
12.0
290
     0
  0
SCALE
  5
5B
102
{ACAD_REACTORS
330
47
102
}
330
47
100
AcDbScale
 70
     0
300
1/32" = 1'-0"
140
0.03125
141
12.0
290
     0
  0
SCALE
  5
5C
102
{ACAD_REACTORS
330
47
102
}
330
47
100
AcDbScale
 70
     0
300
1/16" = 1'-0"
140
0.0625
141
12.0
290
     0
  0
SCALE
  5
5D
102
{ACAD_REACTORS
330
47
102
}
330
47
100
AcDbScale
 70
     0
300
3/32" = 1'-0"
140
0.09375
141
12.0
290
     0
  0
SCALE
  5
5E
102
{ACAD_REACTORS
330
47
102
}
330
47
100
AcDbScale
 70
     0
300
1/8" = 1'-0"
140
0.125
141
12.0
290
     0
  0
SCALE
  5
5F
102
{ACAD_REACTORS
330
47
102
}
330
47
100
AcDbScale
 70
     0
300
3/16" = 1'-0"
140
0.1875
141
12.0
290
     0
  0
SCALE
  5
60
102
{ACAD_REACTORS
330
47
102
}
330
47
100
AcDbScale
 70
     0
300
1/4" = 1'-0"
140
0.25
141
12.0
290
     0
  0
SCALE
  5
61
102
{ACAD_REACTORS
330
47
102
}
330
47
100
AcDbScale
 70
     0
300
3/8" = 1'-0"
140
0.375
141
12.0
290
     0
  0
SCALE
  5
62
102
{ACAD_REACTORS
330
47
102
}
330
47
100
AcDbScale
 70
     0
300
1/2" = 1'-0"
140
0.5
141
12.0
290
     0
  0
SCALE
  5
63
102
{ACAD_REACTORS
330
47
102
}
330
47
100
AcDbScale
 70
     0
300
3/4" = 1'-0"
140
0.75
141
12.0
290
     0
  0
SCALE
  5
64
102
{ACAD_REACTORS
330
47
102
}
330
47
100
AcDbScale
 70
     0
300
1" = 1'-0"
140
1.0
141
12.0
290
     0
  0
SCALE
  5
65
102
{ACAD_REACTORS
330
47
102
}
330
47
100
AcDbScale
 70
     0
300
1-1/2" = 1'-0"
140
1.5
141
12.0
290
     0
  0
SCALE
  5
66
102
{ACAD_REACTORS
330
47
102
}
330
47
100
AcDbScale
 70
     0
300
3" = 1'-0"
140
3.0
141
12.0
290
     0
  0
SCALE
  5
67
102
{ACAD_REACTORS
330
47
102
}
330
47
100
AcDbScale
 70
     0
300
6" = 1'-0"
140
6.0
141
12.0
290
     0
  0
SCALE
  5
68
102
{ACAD_REACTORS
330
47
102
}
330
47
100
AcDbScale
 70
     0
300
1'-0" = 1'-0"
140
12.0
141
12.0
290
     0
  0
ENDSEC
  0
EOF
