  0
SECTION
  2
HEADER
  9
$ACADVER
  1
AC1015
  9
$ACADMAINTVER
 70
     6
  9
$DWGCODEPAGE
  3
ANSI_949
  9
$INSBASE
 10
0.0
 20
0.0
 30
0.0
  9
$EXTMIN
 10
1.000000000000000E+20
 20
1.000000000000000E+20
 30
1.000000000000000E+20
  9
$EXTMAX
 10
-1.000000000000000E+20
 20
-1.000000000000000E+20
 30
-1.000000000000000E+20
  9
$LIMMIN
 10
0.0
 20
0.0
  9
$LIMMAX
 10
420.0
 20
297.0
  9
$ORTHOMODE
 70
     0
  9
$REGENMODE
 70
     1
  9
$FILLMODE
 70
     1
  9
$QTEXTMODE
 70
     0
  9
$MIRRTEXT
 70
     1
  9
$LTSCALE
 40
1.0
  9
$ATTMODE
 70
     1
  9
$TEXTSIZE
 40
3.5
  9
$TRACEWID
 40
1.0
  9
$TEXTSTYLE
  7
Standard
  9
$CLAYER
  8
0
  9
$CELTYPE
  6
ByLayer
  9
$CECOLOR
 62
   256
  9
$CELTSCALE
 40
1.0
  9
$DISPSILH
 70
     0
  9
$DIMSCALE
 40
1.0
  9
$DIMASZ
 40
3.302
  9
$DIMEXO
 40
1.0
  9
$DIMDLI
 40
3.75
  9
$DIMRND
 40
0.0
  9
$DIMDLE
 40
0.0
  9
$DIMEXE
 40
1.0
  9
$DIMTP
 40
0.0
  9
$DIMTM
 40
0.0
  9
$DIMTXT
 40
3.5
  9
$DIMCEN
 40
2.5
  9
$DIMTSZ
 40
0.0
  9
$DIMTOL
 70
     0
  9
$DIMLIM
 70
     0
  9
$DIMTIH
 70
     1
  9
$DIMTOH
 70
     1
  9
$DIMSE1
 70
     0
  9
$DIMSE2
 70
     0
  9
$DIMTAD
 70
     1
  9
$DIMZIN
 70
     0
  9
$DIMBLK
  1

  9
$DIMASO
 70
     1
  9
$DIMSHO
 70
     1
  9
$DIMPOST
  1

  9
$DIMAPOST
  1

  9
$DIMALT
 70
     0
  9
$DIMALTD
 70
     3
  9
$DIMALTF
 40
0.0393700787401575
  9
$DIMLFAC
 40
1.0
  9
$DIMTOFL
 70
     1
  9
$DIMTVP
 40
0.0
  9
$DIMTIX
 70
     0
  9
$DIMSOXD
 70
     0
  9
$DIMSAH
 70
     0
  9
$DIMBLK1
  1

  9
$DIMBLK2
  1

  9
$DIMSTYLE
  2
ISO-25
  9
$DIMCLRD
 70
     0
  9
$DIMCLRE
 70
     0
  9
$DIMCLRT
 70
     0
  9
$DIMTFAC
 40
1.0
  9
$DIMGAP
 40
1.524
  9
$DIMJUST
 70
     0
  9
$DIMSD1
 70
     0
  9
$DIMSD2
 70
     0
  9
$DIMTOLJ
 70
     0
  9
$DIMTZIN
 70
     0
  9
$DIMALTZ
 70
     0
  9
$DIMALTTZ
 70
     0
  9
$DIMUPT
 70
     0
  9
$DIMDEC
 70
     2
  9
$DIMTDEC
 70
     2
  9
$DIMALTU
 70
     2
  9
$DIMALTTD
 70
     3
  9
$DIMTXSTY
  7
Standard
  9
$DIMAUNIT
 70
     0
  9
$DIMADEC
 70
     2
  9
$DIMALTRND
 40
0.0
  9
$DIMAZIN
 70
     0
  9
$DIMDSEP
 70
    44
  9
$DIMATFIT
 70
     3
  9
$DIMFRAC
 70
     0
  9
$DIMLDRBLK
  1

  9
$DIMLUNIT
 70
     2
  9
$DIMLWD
 70
    -2
  9
$DIMLWE
 70
    -2
  9
$DIMTMOVE
 70
     0
  9
$LUNITS
 70
     2
  9
$LUPREC
 70
     2
  9
$SKETCHINC
 40
1.0
  9
$FILLETRAD
 40
10.0
  9
$AUNITS
 70
     0
  9
$AUPREC
 70
     2
  9
$MENU
  1
.
  9
$ELEVATION
 40
0.0
  9
$PELEVATION
 40
0.0
  9
$THICKNESS
 40
0.0
  9
$LIMCHECK
 70
     0
  9
$CHAMFERA
 40
0.0
  9
$CHAMFERB
 40
0.0
  9
$CHAMFERC
 40
0.0
  9
$CHAMFERD
 40
0.0
  9
$SKPOLY
 70
     0
  9
$TDCREATE
 40
2458304.450007454
  9
$TDUCREATE
 40
2458304.075007454
  9
$TDUPDATE
 40
2458304.566376586
  9
$TDUUPDATE
 40
2458304.191376586
  9
$TDINDWG
 40
0.0010946065
  9
$TDUSRTIMER
 40
2458304.190282627
  9
$USRTIMER
 70
     1
  9
$ANGBASE
 50
0.0
  9
$ANGDIR
 70
     0
  9
$PDMODE
 70
     0
  9
$PDSIZE
 40
-1.0
  9
$PLINEWID
 40
0.0
  9
$SPLFRAME
 70
     0
  9
$SPLINETYPE
 70
     6
  9
$SPLINESEGS
 70
     8
  9
$HANDSEED
  5
2BC
  9
$SURFTAB1
 70
     6
  9
$SURFTAB2
 70
     6
  9
$SURFTYPE
 70
     6
  9
$SURFU
 70
     6
  9
$SURFV
 70
     6
  9
$UCSBASE
  2

  9
$UCSNAME
  2

  9
$UCSORG
 10
0.0
 20
0.0
 30
0.0
  9
$UCSXDIR
 10
1.0
 20
0.0
 30
0.0
  9
$UCSYDIR
 10
0.0
 20
1.0
 30
0.0
  9
$UCSORTHOREF
  2

  9
$UCSORTHOVIEW
 70
     0
  9
$UCSORGTOP
 10
0.0
 20
0.0
 30
0.0
  9
$UCSORGBOTTOM
 10
0.0
 20
0.0
 30
0.0
  9
$UCSORGLEFT
 10
0.0
 20
0.0
 30
0.0
  9
$UCSORGRIGHT
 10
0.0
 20
0.0
 30
0.0
  9
$UCSORGFRONT
 10
0.0
 20
0.0
 30
0.0
  9
$UCSORGBACK
 10
0.0
 20
0.0
 30
0.0
  9
$PUCSBASE
  2

  9
$PUCSNAME
  2

  9
$PUCSORG
 10
0.0
 20
0.0
 30
0.0
  9
$PUCSXDIR
 10
1.0
 20
0.0
 30
0.0
  9
$PUCSYDIR
 10
0.0
 20
1.0
 30
0.0
  9
$PUCSORTHOREF
  2

  9
$PUCSORTHOVIEW
 70
     0
  9
$PUCSORGTOP
 10
0.0
 20
0.0
 30
0.0
  9
$PUCSORGBOTTOM
 10
0.0
 20
0.0
 30
0.0
  9
$PUCSORGLEFT
 10
0.0
 20
0.0
 30
0.0
  9
$PUCSORGRIGHT
 10
0.0
 20
0.0
 30
0.0
  9
$PUCSORGFRONT
 10
0.0
 20
0.0
 30
0.0
  9
$PUCSORGBACK
 10
0.0
 20
0.0
 30
0.0
  9
$USERI1
 70
     0
  9
$USERI2
 70
     0
  9
$USERI3
 70
     0
  9
$USERI4
 70
     0
  9
$USERI5
 70
     0
  9
$USERR1
 40
0.0
  9
$USERR2
 40
0.0
  9
$USERR3
 40
0.0
  9
$USERR4
 40
0.0
  9
$USERR5
 40
0.0
  9
$WORLDVIEW
 70
     1
  9
$SHADEDGE
 70
     3
  9
$SHADEDIF
 70
    70
  9
$TILEMODE
 70
     1
  9
$MAXACTVP
 70
    64
  9
$PINSBASE
 10
0.0
 20
0.0
 30
0.0
  9
$PLIMCHECK
 70
     0
  9
$PEXTMIN
 10
1.000000000000000E+20
 20
1.000000000000000E+20
 30
1.000000000000000E+20
  9
$PEXTMAX
 10
-1.000000000000000E+20
 20
-1.000000000000000E+20
 30
-1.000000000000000E+20
  9
$PLIMMIN
 10
0.0
 20
0.0
  9
$PLIMMAX
 10
0.0
 20
0.0
  9
$UNITMODE
 70
     0
  9
$VISRETAIN
 70
     1
  9
$PLINEGEN
 70
     0
  9
$PSLTSCALE
 70
     1
  9
$TREEDEPTH
 70
  3020
  9
$CMLSTYLE
  2
Standard
  9
$CMLJUST
 70
     0
  9
$CMLSCALE
 40
20.0
  9
$PROXYGRAPHICS
 70
     1
  9
$MEASUREMENT
 70
     1
  9
$CELWEIGHT
370
    -1
  9
$ENDCAPS
280
     0
  9
$JOINSTYLE
280
     0
  9
$LWDISPLAY
290
     1
  9
$INSUNITS
 70
     4
  9
$HYPERLINKBASE
  1

  9
$STYLESHEET
  1

  9
$XEDIT
290
     1
  9
$CEPSNTYPE
380
     0
  9
$PSTYLEMODE
290
     1
  9
$FINGERPRINTGUID
  2
{ACF61ABB-760C-4B39-B09B-BAE9736059E2}
  9
$VERSIONGUID
  2
{FAEB1C32-E019-11D5-929B-00C0DF256EC4}
  9
$EXTNAMES
290
     1
  9
$PSVPSCALE
 40
0.0
  9
$OLESTARTUP
290
     0
  0
ENDSEC
  0
SECTION
  2
CLASSES
  0
CLASS
  1
ACDBDICTIONARYWDFLT
  2
AcDbDictionaryWithDefault
  3
ObjectDBX Classes
 90
        0
280
     0
281
     0
  0
CLASS
  1
VISUALSTYLE
  2
AcDbVisualStyle
  3
ObjectDBX Classes
 90
     4095
280
     0
281
     0
  0
CLASS
  1
MATERIAL
  2
AcDbMaterial
  3
ObjectDBX Classes
 90
     1153
280
     0
281
     0
  0
CLASS
  1
SCALE
  2
AcDbScale
  3
ObjectDBX Classes
 90
     1153
280
     0
281
     0
  0
CLASS
  1
SUN
  2
AcDbSun
  3
SCENEOE
 90
     1153
280
     0
281
     0
  0
CLASS
  1
ACDBPLACEHOLDER
  2
AcDbPlaceHolder
  3
ObjectDBX Classes
 90
        0
280
     0
281
     0
  0
CLASS
  1
LAYOUT
  2
AcDbLayout
  3
ObjectDBX Classes
 90
        0
280
     0
281
     0
  0
CLASS
  1
TABLESTYLE
  2
AcDbTableStyle
  3
ObjectDBX Classes
 90
     4095
280
     0
281
     0
  0
CLASS
  1
MLEADERSTYLE
  2
AcDbMLeaderStyle
  3
ACDB_MLEADERSTYLE_CLASS
 90
     4095
280
     0
281
     0
  0
CLASS
  1
RASTERVARIABLES
  2
AcDbRasterVariables
  3
ISM
 90
        0
280
     0
281
     0
  0
CLASS
  1
DIMASSOC
  2
AcDbDimAssoc
  3
"AcDbDimAssoc|Product Desc:     AcDim ARX App For Dimension|Company:          Autodesk, Inc.|WEB Address:      www.autodesk.com"
 90
        0
280
     0
281
     0
  0
ENDSEC
  0
SECTION
  2
TABLES
  0
TABLE
  2
VPORT
  5
8
330
0
100
AcDbSymbolTable
 70
     1
  0
VPORT
  5
29
330
8
100
AcDbSymbolTableRecord
100
AcDbViewportTableRecord
  2
*Active
 70
     0
 10
0.0
 20
0.0
 11
1.0
 21
1.0
 12
15.88347415248229
 22
-10.85991744314423
 13
0.0
 23
0.0
 14
10.0
 24
10.0
 15
10.0
 25
10.0
 16
0.0
 26
0.0
 36
1.0
 17
0.0
 27
0.0
 37
0.0
 40
129.4363161708161
 41
1.547388781431335
 42
50.0
 43
0.0
 44
0.0
 50
0.0
 51
0.0
 71
    16
 72
  2000
 73
     1
 74
     3
 75
     0
 76
     0
 77
     0
 78
     0
281
     0
 65
     1
110
0.0
120
0.0
130
0.0
111
1.0
121
0.0
131
0.0
112
0.0
122
1.0
132
0.0
 79
     0
146
0.0
  0
ENDTAB
  0
TABLE
  2
LTYPE
  5
5
330
0
100
AcDbSymbolTable
 70
     6
  0
LTYPE
  5
14
330
5
100
AcDbSymbolTableRecord
100
AcDbLinetypeTableRecord
  2
ByBlock
 70
     0
  3

 72
    65
 73
     0
 40
0.0
  0
LTYPE
  5
15
330
5
100
AcDbSymbolTableRecord
100
AcDbLinetypeTableRecord
  2
ByLayer
 70
     0
  3

 72
    65
 73
     0
 40
0.0
  0
LTYPE
  5
16
330
5
100
AcDbSymbolTableRecord
100
AcDbLinetypeTableRecord
  2
Continuous
 70
     0
  3
Solid line
 72
    65
 73
     0
 40
0.0
  0
LTYPE
  5
6A
330
5
100
AcDbSymbolTableRecord
100
AcDbLinetypeTableRecord
  2
HIDDEN
 70
     0
  3
Hidden __ __ __ __ __ __ __ __ __ __ __ __ __ __
 72
    65
 73
     2
 40
1.905
 49
1.27
 74
     0
 49
-0.635
 74
     0
  0
LTYPE
  5
6B
330
5
100
AcDbSymbolTableRecord
100
AcDbLinetypeTableRecord
  2
PHANTOM
 70
     0
  3
Phantom ______  __  __  ______  __  __  ______
 72
    65
 73
     6
 40
12.7
 49
6.35
 74
     0
 49
-1.27
 74
     0
 49
1.27
 74
     0
 49
-1.27
 74
     0
 49
1.27
 74
     0
 49
-1.27
 74
     0
  0
LTYPE
  5
6C
330
5
100
AcDbSymbolTableRecord
100
AcDbLinetypeTableRecord
  2
CENTER
 70
     0
  3
Center ____ _ ____ _ ____ _ ____ _ ____ _ ____
 72
    65
 73
     4
 40
10.16
 49
6.35
 74
     0
 49
-1.27
 74
     0
 49
1.27
 74
     0
 49
-1.27
 74
     0
  0
LTYPE
  5
6D
330
5
100
AcDbSymbolTableRecord
100
AcDbLinetypeTableRecord
  2
CENTERX2
 70
     0
  3
Center (2x) ________  __  ________  __  _____
 72
    65
 73
     4
 40
20.32
 49
12.7
 74
     0
 49
-2.54
 74
     0
 49
2.54
 74
     0
 49
-2.54
 74
     0
  0
LTYPE
  5
6E
330
5
100
AcDbSymbolTableRecord
100
AcDbLinetypeTableRecord
  2
DOT2
 70
     0
  3
Dot (.5x) ........................................
 72
    65
 73
     2
 40
0.635
 49
0.0
 74
     0
 49
-0.635
 74
     0
  0
ENDTAB
  0
TABLE
  2
LAYER
  5
2
330
0
100
AcDbSymbolTable
 70
    18
  0
LAYER
  5
10
330
2
100
AcDbSymbolTableRecord
100
AcDbLayerTableRecord
  2
0
 70
     0
 62
     7
  6
Continuous
370
    -3
390
F
  0
LAYER
  5
6F
330
2
100
AcDbSymbolTableRecord
100
AcDbLayerTableRecord
  2
FORMAT
 70
     0
 62
     2
  6
Continuous
370
    -3
390
F
  0
LAYER
  5
70
330
2
100
AcDbSymbolTableRecord
100
AcDbLayerTableRecord
  2
외형선
 70
     0
 62
     4
  6
Continuous
370
    30
390
F
  0
LAYER
  5
71
330
2
100
AcDbSymbolTableRecord
100
AcDbLayerTableRecord
  2
숨은선
 70
     0
 62
     2
  6
HIDDEN
370
    15
390
F
  0
LAYER
  5
72
330
2
100
AcDbSymbolTableRecord
100
AcDbLayerTableRecord
  2
중심선
 70
     0
 62
     1
  6
CENTERX2
370
    -3
390
F
  0
LAYER
  5
73
330
2
100
AcDbSymbolTableRecord
100
AcDbLayerTableRecord
  2
파단선
 70
     0
 62
     4
  6
Continuous
370
    -3
390
F
  0
LAYER
  5
74
330
2
100
AcDbSymbolTableRecord
100
AcDbLayerTableRecord
  2
해칭선
 70
     0
 62
   100
  6
Continuous
370
    -3
390
F
  0
LAYER
  5
75
330
2
100
AcDbSymbolTableRecord
100
AcDbLayerTableRecord
  2
가는실선
 70
     0
 62
     4
  6
Continuous
370
    -3
390
F
  0
LAYER
  5
76
330
2
100
AcDbSymbolTableRecord
100
AcDbLayerTableRecord
  2
치수_보조선
 70
     0
 62
     4
  6
Continuous
370
    -3
390
F
  0
LAYER
  5
77
330
2
100
AcDbSymbolTableRecord
100
AcDbLayerTableRecord
  2
치수문자_일반주서
 70
     0
 62
     7
  6
Continuous
370
    15
390
F
  0
LAYER
  5
78
330
2
100
AcDbSymbolTableRecord
100
AcDbLayerTableRecord
  2
개별주서
 70
     0
 62
   100
  6
Continuous
370
    30
390
F
  0
LAYER
  5
79
330
2
100
AcDbSymbolTableRecord
100
AcDbLayerTableRecord
  2
중간선
 70
     0
 62
     2
  6
Continuous
370
    15
390
F
  0
LAYER
  5
7A
330
2
100
AcDbSymbolTableRecord
100
AcDbLayerTableRecord
  2
윤곽선
 70
     0
 62
     3
  6
Continuous
370
    40
390
F
  0
LAYER
  5
7B
330
2
100
AcDbSymbolTableRecord
100
AcDbLayerTableRecord
  2
중심마크
 70
     0
 62
   100
  6
Continuous
370
    30
390
F
  0
LAYER
  5
7C
330
2
100
AcDbSymbolTableRecord
100
AcDbLayerTableRecord
  2
가상선
 70
     0
 62
     4
  6
PHANTOM
370
    -3
390
F
  0
LAYER
  5
7D
330
2
100
AcDbSymbolTableRecord
100
AcDbLayerTableRecord
  2
특수지정선
 70
     0
 62
     5
  6
CENTERX2
370
    60
390
F
  0
LAYER
  5
7E
330
2
100
AcDbSymbolTableRecord
100
AcDbLayerTableRecord
  2
참조1
 70
     0
 62
    -4
  6
Continuous
370
    -3
390
F
  0
LAYER
  5
153
330
2
100
AcDbSymbolTableRecord
100
AcDbLayerTableRecord
  2
Defpoints
 70
     0
 62
     7
  6
Continuous
290
     0
370
    -3
390
F
  0
ENDTAB
  0
TABLE
  2
STYLE
  5
3
330
0
100
AcDbSymbolTable
 70
     2
  0
STYLE
  5
11
330
3
100
AcDbSymbolTableRecord
100
AcDbTextStyleTableRecord
  2
Standard
 70
     0
 40
0.0
 41
1.0
 50
0.0
 71
     0
 42
3.5
  3
txt
  4

  0
STYLE
  5
94
330
3
100
AcDbSymbolTableRecord
100
AcDbTextStyleTableRecord
  2
SLDTEXTSTYLE0
 70
     0
 40
0.0
 41
0.75
 50
0.0
 71
     0
 42
3.5
  3
TXT
  4

  0
ENDTAB
  0
TABLE
  2
VIEW
  5
6
330
0
100
AcDbSymbolTable
 70
     0
  0
ENDTAB
  0
TABLE
  2
UCS
  5
7
330
0
100
AcDbSymbolTable
 70
     0
  0
ENDTAB
  0
TABLE
  2
APPID
  5
9
330
0
100
AcDbSymbolTable
 70
     2
  0
APPID
  5
12
330
9
100
AcDbSymbolTableRecord
100
AcDbRegAppTableRecord
  2
ACAD
 70
     0
  0
APPID
  5
161
330
9
100
AcDbSymbolTableRecord
100
AcDbRegAppTableRecord
  2
ACAD_DSTYLE_DIMRADIAL_EXTENSION
 70
     0
  0
ENDTAB
  0
TABLE
  2
DIMSTYLE
  5
A
330
0
100
AcDbSymbolTable
 70
     4
100
AcDbDimStyleTable
  0
DIMSTYLE
105
27
330
A
100
AcDbSymbolTableRecord
100
AcDbDimStyleTableRecord
  2
ISO-25
 70
     0
 41
2.5
 42
0.625
 43
3.75
 44
1.25
 73
     0
 74
     0
 77
     1
 78
     8
140
2.5
141
2.5
143
0.03937007874016
147
0.625
171
     3
172
     1
178
     0
271
     2
272
     2
274
     3
278
    44
283
     0
284
     8
340
11
  0
DIMSTYLE
105
D0
102
{ACAD_REACTORS
330
1AE
330
1BB
330
25F
330
260
102
}
330
A
100
AcDbSymbolTableRecord
100
AcDbDimStyleTableRecord
  2
SLDDIMSTYLE0
 70
     0
 41
3.302
 44
0.0
 45
0.000000001
 73
     0
 74
     0
 77
     1
 78
    12
 79
     3
140
3.5
143
0.0393700787401575
147
0.875
148
0.000000001
170
     1
172
     1
173
     1
178
     0
271
     2
272
     2
276
     2
284
    12
289
     0
340
94
  0
DIMSTYLE
105
FA
102
{ACAD_REACTORS
330
1C8
330
261
102
}
330
A
100
AcDbSymbolTableRecord
100
AcDbDimStyleTableRecord
  2
SLDDIMSTYLE1
 70
     0
 41
3.302
 44
0.0
 45
0.000000001
 73
     0
 74
     0
 77
     1
 78
     4
 79
     1
140
3.5
143
0.0393700787401575
147
0.875
148
0.000000001
170
     1
173
     1
178
     0
271
     2
272
     2
276
     2
284
    12
340
94
  0
DIMSTYLE
105
10E
102
{ACAD_REACTORS
330
1D5
330
1F0
330
262
330
2AD
102
}
330
A
100
AcDbSymbolTableRecord
100
AcDbDimStyleTableRecord
  2
SLDDIMSTYLE2
 70
     0
 41
3.302
 44
0.0
 45
0.000000001
 73
     0
 74
     0
 77
     1
 78
    12
 79
     3
140
3.5
143
0.0393700787401575
147
0.875
148
0.000000001
170
     1
173
     1
178
     0
271
     2
272
     2
276
     2
284
    12
340
94
  0
ENDTAB
  0
TABLE
  2
BLOCK_RECORD
  5
1
330
0
100
AcDbSymbolTable
 70
    19
  0
BLOCK_RECORD
  5
1F
330
1
100
AcDbSymbolTableRecord
100
AcDbBlockTableRecord
  2
*Model_Space
340
22
  0
BLOCK_RECORD
  5
1B
330
1
100
AcDbSymbolTableRecord
100
AcDbBlockTableRecord
  2
*Paper_Space
340
1E
  0
BLOCK_RECORD
  5
23
330
1
100
AcDbSymbolTableRecord
100
AcDbBlockTableRecord
  2
*Paper_Space0
340
26
  0
BLOCK_RECORD
  5
7F
330
1
100
AcDbSymbolTableRecord
100
AcDbBlockTableRecord
  2
블럭10
340
0
102
{BLKREFS
331
C8
102
}
  0
BLOCK_RECORD
  5
D1
330
1
100
AcDbSymbolTableRecord
100
AcDbBlockTableRecord
  2
_D
340
0
  0
BLOCK_RECORD
  5
E5
330
1
100
AcDbSymbolTableRecord
100
AcDbBlockTableRecord
  2
_D_1
340
0
  0
BLOCK_RECORD
  5
FB
330
1
100
AcDbSymbolTableRecord
100
AcDbBlockTableRecord
  2
_D_2
340
0
  0
BLOCK_RECORD
  5
10F
330
1
100
AcDbSymbolTableRecord
100
AcDbBlockTableRecord
  2
_D_3
340
0
  0
BLOCK_RECORD
  5
128
330
1
100
AcDbSymbolTableRecord
100
AcDbBlockTableRecord
  2
SW_DOWELSYMBOL_0
340
0
102
{BLKREFS
331
0
331
1E3
331
263
102
}
  0
BLOCK_RECORD
  5
1F3
330
1
100
AcDbSymbolTableRecord
100
AcDbBlockTableRecord
  2
*D8
340
0
  0
BLOCK_RECORD
  5
1FF
330
1
100
AcDbSymbolTableRecord
100
AcDbBlockTableRecord
  2
*D9
340
0
  0
BLOCK_RECORD
  5
20B
330
1
100
AcDbSymbolTableRecord
100
AcDbBlockTableRecord
  2
*D10
340
0
  0
BLOCK_RECORD
  5
217
330
1
100
AcDbSymbolTableRecord
100
AcDbBlockTableRecord
  2
*D11
340
0
  0
BLOCK_RECORD
  5
223
330
1
100
AcDbSymbolTableRecord
100
AcDbBlockTableRecord
  2
*D12
340
0
  0
BLOCK_RECORD
  5
26D
330
1
100
AcDbSymbolTableRecord
100
AcDbBlockTableRecord
  2
*D13
340
0
  0
BLOCK_RECORD
  5
279
330
1
100
AcDbSymbolTableRecord
100
AcDbBlockTableRecord
  2
*D14
340
0
  0
BLOCK_RECORD
  5
285
330
1
100
AcDbSymbolTableRecord
100
AcDbBlockTableRecord
  2
*D15
340
0
  0
BLOCK_RECORD
  5
291
330
1
100
AcDbSymbolTableRecord
100
AcDbBlockTableRecord
  2
*D16
340
0
  0
BLOCK_RECORD
  5
29E
330
1
100
AcDbSymbolTableRecord
100
AcDbBlockTableRecord
  2
*D17
340
0
  0
BLOCK_RECORD
  5
2B0
330
1
100
AcDbSymbolTableRecord
100
AcDbBlockTableRecord
  2
*D18
340
0
  0
ENDTAB
  0
ENDSEC
  0
SECTION
  2
BLOCKS
  0
BLOCK
  5
20
330
1F
100
AcDbEntity
  8
0
100
AcDbBlockBegin
  2
*Model_Space
 70
     0
 10
0.0
 20
0.0
 30
0.0
  3
*Model_Space
  1
*Model_Space
  0
ENDBLK
  5
21
330
1F
100
AcDbEntity
  8
0
100
AcDbBlockEnd
  0
BLOCK
  5
1C
330
1B
100
AcDbEntity
 67
     1
  8
0
100
AcDbBlockBegin
  2
*Paper_Space
 70
     0
 10
0.0
 20
0.0
 30
0.0
  3
*Paper_Space
  1
*Paper_Space
  0
ENDBLK
  5
1D
330
1B
100
AcDbEntity
 67
     1
  8
0
100
AcDbBlockEnd
  0
BLOCK
  5
24
330
23
100
AcDbEntity
  8
0
100
AcDbBlockBegin
  2
*Paper_Space0
 70
     0
 10
0.0
 20
0.0
 30
0.0
  3
*Paper_Space0
  1
*Paper_Space0
  0
ENDBLK
  5
25
330
23
100
AcDbEntity
  8
0
100
AcDbBlockEnd
  0
BLOCK
  5
80
330
7F
100
AcDbEntity
  8
0
100
AcDbBlockBegin
  2
블럭10
 70
     2
 10
0.0
 20
0.0
 30
0.0
  3
블럭10
  1
블럭10
  0
ELLIPSE
  5
82
330
7F
100
AcDbEntity
  8
중심선
100
AcDbEllipse
 10
20.54032771741204
 20
12.0471743016438
 30
0.0
 11
6.600054785286829
 21
-1.261213355974178E-13
 31
0.0
210
0.0
220
0.0
230
1.0
 40
0.636358354079598
 41
0.9219305317359503
 42
6.513795318482858
  0
ELLIPSE
  5
83
330
7F
100
AcDbEntity
  8
중심선
100
AcDbEllipse
 10
20.54032771746488
 20
12.04717430159265
 30
0.0
 11
3.960054785062283
 21
1.540847449632565E-10
 31
0.0
210
0.0
220
0.0
230
1.0
 40
0.3939339440162632
 41
1.131841032648279
 42
5.62031148352944
  0
LINE
  5
84
330
7F
100
AcDbEntity
  8
중심선
100
AcDbLine
 10
2.268634060543552
 20
16.24717430164393
 30
0.0
 11
5.714909304380834
 21
16.24717430164393
 31
0.0
  0
LINE
  5
85
330
7F
100
AcDbEntity
  8
중심선
100
AcDbLine
 10
5.245725140726316
 20
7.84717430164391
 30
0.0
 11
8.692000384563599
 21
7.84717430164391
 31
0.0
  0
LINE
  5
86
330
7F
100
AcDbEntity
  8
중심선
100
AcDbLine
 10
15.74043728645272
 20
16.24717430164393
 30
0.0
 11
8.692000384563599
 21
7.84717430164391
 31
0.0
  0
LINE
  5
87
330
7F
100
AcDbEntity
  8
중심선
100
AcDbLine
 10
0.1404042013395286
 20
13.71084872107135
 30
0.0
 11
3.58671253028996
 21
13.71088815037384
 31
0.0
  0
LINE
  5
88
330
7F
100
AcDbEntity
  8
중심선
100
AcDbLine
 10
2.750260043222114
 20
10.84717430164391
 30
0.0
 11
6.196535287059397
 21
10.84717430164391
 31
0.0
  0
LINE
  5
89
330
7F
100
AcDbEntity
  8
중심선
100
AcDbLine
 10
12.29416204261559
 20
16.24717430164393
 30
0.0
 11
5.245725140726316
 21
7.84717430164391
 31
0.0
  0
LINE
  5
8A
330
7F
100
AcDbEntity
  8
중심선
100
AcDbLine
 10
10.72767329541681
 20
16.24717430164393
 30
0.0
 11
6.196535287059397
 21
10.84717430164391
 31
0.0
  0
LINE
  5
8B
330
7F
100
AcDbEntity
  8
중심선
100
AcDbLine
 10
7.28139805157953
 20
16.24717430164393
 30
0.0
 11
2.750260043222114
 21
10.84717430164391
 31
0.0
  0
LINE
  5
8C
330
7F
100
AcDbEntity
  8
중심선
100
AcDbLine
 10
5.714909304380834
 20
16.24717430164393
 30
0.0
 11
3.58671253028996
 21
13.71088815037384
 31
0.0
  0
LINE
  5
8D
330
7F
100
AcDbEntity
  8
중심선
100
AcDbLine
 10
2.268634060543552
 20
16.24717430164393
 30
0.0
 11
0.1404042013395286
 21
13.71084872107135
 31
0.0
  0
LINE
  5
8E
330
7F
100
AcDbEntity
  8
중심선
100
AcDbLine
 10
7.28139805157953
 20
16.24717430164393
 30
0.0
 11
10.72767329541681
 21
16.24717430164393
 31
0.0
  0
LINE
  5
8F
330
7F
100
AcDbEntity
  8
중심선
100
AcDbLine
 10
12.29416204261559
 20
16.24717430164393
 30
0.0
 11
15.74043728645272
 21
16.24717430164393
 31
0.0
  0
LINE
  5
90
330
7F
100
AcDbEntity
  8
중심선
100
AcDbLine
 10
19.22036997980202
 20
11.08717430171403
 30
0.0
 11
23.66174974927406
 21
11.08717430171406
 31
0.0
  0
LINE
  5
91
330
7F
100
AcDbEntity
  8
중심선
100
AcDbLine
 10
19.22039502424796
 20
13.00717430171391
 30
0.0
 11
19.22036997980202
 21
11.08717430171403
 31
0.0
  0
LINE
  5
92
330
7F
100
AcDbEntity
  8
중심선
100
AcDbLine
 10
19.22039502424796
 20
13.00717430171391
 30
0.0
 11
26.96566020931264
 21
13.00717430171391
 31
0.0
  0
LINE
  5
93
330
7F
100
AcDbEntity
  8
중심선
100
AcDbLine
 10
22.22332737316547
 20
13.45928029700563
 30
0.0
 11
24.52862924686651
 21
15.39360700705356
 31
0.0
  0
ATTDEF
  5
95
330
7F
100
AcDbEntity
  8
FORMAT
 62
     2
100
AcDbText
 10
3.448148490846466
 20
2.075366912832191
 30
0.0
 40
4.233333333333333
  1
EM212906
 41
0.75
  7
SLDTEXTSTYLE0
 11
3.448148490846466
 21
-0.0412997538344756
 31
0.0
100
AcDbAttributeDefinition
  3

  2
AUTOATTR0
 70
     0
 74
     1
  0
ENDBLK
  5
81
330
7F
100
AcDbEntity
  8
0
100
AcDbBlockEnd
  0
BLOCK
  5
D2
330
D1
100
AcDbEntity
  8
0
100
AcDbBlockBegin
  2
_D
 70
     0
 10
0.0
 20
0.0
 30
0.0
  3
_D
  1
_D
  0
SOLID
  5
D4
330
D1
100
AcDbEntity
  8
치수문자_일반주서
100
AcDbTrace
 10
-50.3075
 20
4.762500000000002
 30
0.0
 11
-49.7995
 21
8.064500000000002
 31
0.0
 12
-50.81550000000001
 22
8.064500000000002
 32
0.0
 13
-50.81550000000001
 23
8.064500000000002
 33
0.0
  0
SOLID
  5
D5
330
D1
100
AcDbEntity
  8
치수문자_일반주서
100
AcDbTrace
 10
-50.3075
 20
-4.762500000000004
 30
0.0
 11
-50.81550000000001
 21
-8.064500000000002
 31
0.0
 12
-49.7995
 22
-8.064500000000002
 32
0.0
 13
-49.7995
 23
-8.064500000000002
 33
0.0
  0
LINE
  5
D6
330
D1
100
AcDbEntity
  8
치수문자_일반주서
100
AcDbLine
 10
-61.10038171604272
 20
-5.414366431068707
 30
0.0
 11
-61.10038171604271
 21
-6.125303916633207
 31
0.0
  0
LINE
  5
D7
330
D1
100
AcDbEntity
  8
치수문자_일반주서
100
AcDbLine
 10
-61.10038171604271
 20
-6.125303916633207
 30
0.0
 11
-55.54413172498341
 21
-6.125303916633168
 31
0.0
  0
LINE
  5
D8
330
D1
100
AcDbEntity
  8
치수문자_일반주서
100
AcDbLine
 10
-55.54413172498341
 20
-6.125303916633168
 30
0.0
 11
-55.54413172498342
 21
-5.414366431068668
 31
0.0
  0
LINE
  5
D9
330
D1
100
AcDbEntity
  8
치수문자_일반주서
100
AcDbLine
 10
-61.10038171604279
 20
5.414366431068551
 30
0.0
 11
-61.1003817160428
 21
6.125303916633051
 31
0.0
  0
LINE
  5
DA
330
D1
100
AcDbEntity
  8
치수문자_일반주서
100
AcDbLine
 10
-61.1003817160428
 20
6.125303916633051
 30
0.0
 11
-55.54413172498349
 21
6.12530391663309
 31
0.0
  0
LINE
  5
DB
330
D1
100
AcDbEntity
  8
치수문자_일반주서
100
AcDbLine
 10
-55.54413172498349
 20
6.12530391663309
 30
0.0
 11
-55.54413172498349
 21
5.41436643106859
 31
0.0
  0
LINE
  5
DC
330
D1
100
AcDbEntity
  8
치수문자_일반주서
100
AcDbLine
 10
-37.67249999999999
 20
4.762500000000003
 30
0.0
 11
-51.3075
 21
4.762500000000002
 31
0.0
  0
LINE
  5
DD
330
D1
100
AcDbEntity
  8
치수문자_일반주서
100
AcDbLine
 10
-37.67249999999999
 20
-4.762500000000003
 30
0.0
 11
-51.3075
 21
-4.762500000000004
 31
0.0
  0
LINE
  5
DE
330
D1
100
AcDbEntity
  8
치수문자_일반주서
100
AcDbLine
 10
-50.3075
 20
4.762500000000002
 30
0.0
 11
-50.3075
 21
11.1125
 31
0.0
  0
LINE
  5
DF
330
D1
100
AcDbEntity
  8
치수문자_일반주서
100
AcDbLine
 10
-50.3075
 20
4.762500000000002
 30
0.0
 11
-50.3075
 21
-4.762500000000004
 31
0.0
  0
LINE
  5
E0
330
D1
100
AcDbEntity
  8
치수문자_일반주서
100
AcDbLine
 10
-50.3075
 20
-4.762500000000004
 30
0.0
 11
-50.3075
 21
-11.1125
 31
0.0
  0
MTEXT
  5
E1
330
D1
100
AcDbEntity
  8
치수문자_일반주서
100
AcDbMText
 10
-60.05586863956231
 20
-4.525694530457329
 30
0.0
 40
3.5
 41
0.0
 71
     1
 72
     1
  1
0.38
  7
SLDTEXTSTYLE0
 11
-7.044195017643634E-15
 21
1.0
 31
0.0
 73
     1
 44
1.0
  0
MTEXT
  5
E2
330
D1
100
AcDbEntity
  8
치수문자_일반주서
100
AcDbMText
 10
-54.81923708920183
 20
-7.164913695305621
 30
0.0
 40
3.5
 41
0.0
 71
     1
 72
     1
  1
%%c
  7
SLDTEXTSTYLE0
 11
-7.044195017643634E-15
 21
1.0
 31
0.0
 73
     1
 44
1.0
  0
MTEXT
  5
E3
330
D1
100
AcDbEntity
  8
치수문자_일반주서
100
AcDbMText
 10
-54.81923708920186
 20
-1.886476296931539
 30
0.0
 40
3.5
 41
0.0
 71
     1
 72
     1
  1
9.53
  7
SLDTEXTSTYLE0
 11
-7.044195017643634E-15
 21
1.0
 31
0.0
 73
     1
 44
1.0
  0
ENDBLK
  5
D3
330
D1
100
AcDbEntity
  8
0
100
AcDbBlockEnd
  0
BLOCK
  5
E6
330
E5
100
AcDbEntity
  8
0
100
AcDbBlockBegin
  2
_D_1
 70
     0
 10
0.0
 20
0.0
 30
0.0
  3
_D_1
  1
_D_1
  0
SOLID
  5
E8
330
E5
100
AcDbEntity
  8
치수문자_일반주서
100
AcDbTrace
 10
38.57500000000007
 20
13.77243756385889
 30
0.0
 11
41.87700000000007
 21
13.26443756385888
 31
0.0
 12
41.87700000000007
 22
14.28043756385888
 32
0.0
 13
41.87700000000007
 23
14.28043756385888
 33
0.0
  0
SOLID
  5
E9
330
E5
100
AcDbEntity
  8
치수문자_일반주서
100
AcDbTrace
 10
10.0000000000001
 20
13.77243756385905
 30
0.0
 11
6.698000000000099
 21
14.28043756385907
 31
0.0
 12
6.698000000000094
 22
13.26443756385907
 32
0.0
 13
6.698000000000094
 23
13.26443756385907
 33
0.0
  0
LINE
  5
EA
330
E5
100
AcDbEntity
  8
치수문자_일반주서
100
AcDbLine
 10
18.87313391817739
 20
24.5653192799017
 30
0.0
 11
18.16219643261289
 21
24.56531927990171
 31
0.0
  0
LINE
  5
EB
330
E5
100
AcDbEntity
  8
치수문자_일반주서
100
AcDbLine
 10
18.16219643261289
 20
24.56531927990171
 30
0.0
 11
18.16219643261283
 21
19.0090692888424
 31
0.0
  0
LINE
  5
EC
330
E5
100
AcDbEntity
  8
치수문자_일반주서
100
AcDbLine
 10
18.16219643261283
 20
19.0090692888424
 30
0.0
 11
18.87313391817733
 21
19.00906928884239
 31
0.0
  0
LINE
  5
ED
330
E5
100
AcDbEntity
  8
치수문자_일반주서
100
AcDbLine
 10
29.70186678031465
 20
24.56531927990157
 30
0.0
 11
30.41280426587915
 21
24.56531927990155
 31
0.0
  0
LINE
  5
EE
330
E5
100
AcDbEntity
  8
치수문자_일반주서
100
AcDbLine
 10
30.41280426587915
 20
24.56531927990155
 30
0.0
 11
30.41280426587909
 21
19.00906928884225
 31
0.0
  0
LINE
  5
EF
330
E5
100
AcDbEntity
  8
치수문자_일반주서
100
AcDbLine
 10
30.41280426587909
 20
19.00906928884225
 30
0.0
 11
29.70186678031459
 21
19.00906928884226
 31
0.0
  0
LINE
  5
F0
330
E5
100
AcDbEntity
  8
치수문자_일반주서
100
AcDbLine
 10
38.57500000000002
 20
4.221654183183419
 30
0.0
 11
38.57500000000008
 21
14.77243756385889
 31
0.0
  0
LINE
  5
F1
330
E5
100
AcDbEntity
  8
치수문자_일반주서
100
AcDbLine
 10
10.00000000000005
 20
5.370962374617576
 30
0.0
 11
10.0000000000001
 21
14.77243756385905
 31
0.0
  0
LINE
  5
F2
330
E5
100
AcDbEntity
  8
치수문자_일반주서
100
AcDbLine
 10
38.57500000000007
 20
13.77243756385889
 30
0.0
 11
44.92500000000008
 21
13.77243756385886
 31
0.0
  0
LINE
  5
F3
330
E5
100
AcDbEntity
  8
치수문자_일반주서
100
AcDbLine
 10
38.57500000000007
 20
13.77243756385889
 30
0.0
 11
10.0000000000001
 21
13.77243756385905
 31
0.0
  0
LINE
  5
F4
330
E5
100
AcDbEntity
  8
치수문자_일반주서
100
AcDbLine
 10
10.0000000000001
 20
13.77243756385905
 30
0.0
 11
3.650000000000096
 21
13.77243756385908
 31
0.0
  0
MTEXT
  5
F5
330
E5
100
AcDbEntity
  8
치수문자_일반주서
100
AcDbMText
 10
17.64843770712613
 20
18.33764682972068
 30
0.0
 40
3.5
 41
0.0
 71
     1
 72
     1
  1

  7
SLDTEXTSTYLE0
 73
     1
 44
1.0
  0
MTEXT
  5
F6
330
E5
100
AcDbEntity
  8
치수문자_일반주서
100
AcDbMText
 10
19.76180581878875
 20
23.52080620342128
 30
0.0
 40
3.5
 41
0.0
 71
     1
 72
     1
  1
1.13
  7
SLDTEXTSTYLE0
 73
     1
 44
1.0
  0
MTEXT
  5
F7
330
E5
100
AcDbEntity
  8
치수문자_일반주서
100
AcDbMText
 10
18.46875010561196
 20
18.28417465306082
 30
0.0
 40
3.5
 41
0.0
 71
     1
 72
     1
  1
28.58
  7
SLDTEXTSTYLE0
 73
     1
 44
1.0
  0
MTEXT
  5
F8
330
E5
100
AcDbEntity
  8
치수문자_일반주서
100
AcDbMText
 10
32.25850751101969
 20
18.3376468297205
 30
0.0
 40
3.5
 41
0.0
 71
     1
 72
     1
  1

  7
SLDTEXTSTYLE0
 73
     1
 44
1.0
  0
ENDBLK
  5
E7
330
E5
100
AcDbEntity
  8
0
100
AcDbBlockEnd
  0
BLOCK
  5
FC
330
FB
100
AcDbEntity
  8
0
100
AcDbBlockBegin
  2
_D_2
 70
     0
 10
0.0
 20
0.0
 30
0.0
  3
_D_2
  1
_D_2
  0
SOLID
  5
FE
330
FB
100
AcDbEntity
  8
치수문자_일반주서
100
AcDbTrace
 10
38.57500000000002
 20
25.55521362110757
 30
0.0
 11
35.27300000000002
 21
26.06321362110757
 31
0.0
 12
35.27300000000002
 22
25.04721362110757
 32
0.0
 13
35.27300000000002
 23
25.04721362110757
 33
0.0
  0
SOLID
  5
FF
330
FB
100
AcDbEntity
  8
치수문자_일반주서
100
AcDbTrace
 10
-37.62499999999999
 20
25.55521362110756
 30
0.0
 11
-34.32299999999999
 21
25.04721362110756
 31
0.0
 12
-34.32299999999999
 22
26.06321362110756
 32
0.0
 13
-34.32299999999999
 23
26.06321362110756
 33
0.0
  0
LINE
  5
100
330
FB
100
AcDbEntity
  8
치수문자_일반주서
100
AcDbLine
 10
-4.939366081822651
 20
36.34809533715029
 30
0.0
 11
-5.650303567387151
 21
36.3480953371503
 31
0.0
  0
LINE
  5
101
330
FB
100
AcDbEntity
  8
치수문자_일반주서
100
AcDbLine
 10
-5.650303567387151
 20
36.3480953371503
 30
0.0
 11
-5.650303567387191
 21
30.79184534609099
 31
0.0
  0
LINE
  5
102
330
FB
100
AcDbEntity
  8
치수문자_일반주서
100
AcDbLine
 10
-5.650303567387191
 20
30.79184534609099
 30
0.0
 11
-4.939366081822691
 21
30.79184534609099
 31
0.0
  0
LINE
  5
103
330
FB
100
AcDbEntity
  8
치수문자_일반주서
100
AcDbLine
 10
5.889366780314607
 20
36.34809533715021
 30
0.0
 11
6.600304265879108
 21
36.34809533715021
 31
0.0
  0
LINE
  5
104
330
FB
100
AcDbEntity
  8
치수문자_일반주서
100
AcDbLine
 10
6.600304265879108
 20
36.34809533715021
 30
0.0
 11
6.600304265879068
 21
30.79184534609091
 31
0.0
  0
LINE
  5
105
330
FB
100
AcDbEntity
  8
치수문자_일반주서
100
AcDbLine
 10
6.600304265879068
 20
30.79184534609091
 30
0.0
 11
5.889366780314568
 21
30.79184534609091
 31
0.0
  0
LINE
  5
106
330
FB
100
AcDbEntity
  8
치수문자_일반주서
100
AcDbLine
 10
38.57500000000002
 20
4.221654183183419
 30
0.0
 11
38.57500000000002
 21
26.55521362110757
 31
0.0
  0
LINE
  5
107
330
FB
100
AcDbEntity
  8
치수문자_일반주서
100
AcDbLine
 10
-37.62499999999999
 20
4.810000000000003
 30
0.0
 11
-37.62499999999999
 21
26.55521362110756
 31
0.0
  0
LINE
  5
108
330
FB
100
AcDbEntity
  8
치수문자_일반주서
100
AcDbLine
 10
38.57500000000002
 20
25.55521362110757
 30
0.0
 11
-37.62499999999999
 21
25.55521362110756
 31
0.0
  0
MTEXT
  5
109
330
FB
100
AcDbEntity
  8
치수문자_일반주서
100
AcDbMText
 10
-6.164062292873892
 20
30.12042288696928
 30
0.0
 40
3.5
 41
0.0
 71
     1
 72
     1
  1

  7
SLDTEXTSTYLE0
 73
     1
 44
1.0
  0
MTEXT
  5
10A
330
FB
100
AcDbEntity
  8
치수문자_일반주서
100
AcDbMText
 10
-4.050694181211288
 20
35.30358226066988
 30
0.0
 40
3.5
 41
0.0
 71
     1
 72
     1
  1
3.00
  7
SLDTEXTSTYLE0
 73
     1
 44
1.0
  0
MTEXT
  5
10B
330
FB
100
AcDbEntity
  8
치수문자_일반주서
100
AcDbMText
 10
-5.343749894388052
 20
30.06695071030942
 30
0.0
 40
3.5
 41
0.0
 71
     1
 72
     1
  1
76.20
  7
SLDTEXTSTYLE0
 73
     1
 44
1.0
  0
MTEXT
  5
10C
330
FB
100
AcDbEntity
  8
치수문자_일반주서
100
AcDbMText
 10
8.446007511019674
 20
30.12042288696918
 30
0.0
 40
3.5
 41
0.0
 71
     1
 72
     1
  1

  7
SLDTEXTSTYLE0
 73
     1
 44
1.0
  0
ENDBLK
  5
FD
330
FB
100
AcDbEntity
  8
0
100
AcDbBlockEnd
  0
BLOCK
  5
110
330
10F
100
AcDbEntity
  8
0
100
AcDbBlockBegin
  2
_D_3
 70
     0
 10
0.0
 20
0.0
 30
0.0
  3
_D_3
  1
_D_3
  0
SOLID
  5
112
330
10F
100
AcDbEntity
  8
치수문자_일반주서
100
AcDbTrace
 10
53.8573564043882
 20
4.762499999999998
 30
0.0
 11
53.3493564043882
 21
1.460499999999999
 31
0.0
 12
54.3653564043882
 22
1.460499999999999
 32
0.0
 13
54.3653564043882
 23
1.460499999999999
 33
0.0
  0
SOLID
  5
113
330
10F
100
AcDbEntity
  8
치수문자_일반주서
100
AcDbTrace
 10
53.8573564043882
 20
-4.762500000000004
 30
0.0
 11
54.3653564043882
 21
-1.460500000000004
 31
0.0
 12
53.3493564043882
 22
-1.460500000000004
 32
0.0
 13
53.3493564043882
 23
-1.460500000000004
 33
0.0
  0
LINE
  5
114
330
10F
100
AcDbEntity
  8
치수문자_일반주서
100
AcDbLine
 10
43.06447468834547
 20
11.48531311233865
 30
0.0
 11
43.06447468834548
 21
10.77437562677415
 31
0.0
  0
LINE
  5
115
330
10F
100
AcDbEntity
  8
치수문자_일반주서
100
AcDbLine
 10
43.06447468834548
 20
10.77437562677415
 30
0.0
 11
48.62072467940478
 21
10.77437562677419
 31
0.0
  0
LINE
  5
116
330
10F
100
AcDbEntity
  8
치수문자_일반주서
100
AcDbLine
 10
48.62072467940478
 20
10.77437562677419
 30
0.0
 11
48.62072467940477
 21
11.48531311233869
 31
0.0
  0
LINE
  5
117
330
10F
100
AcDbEntity
  8
치수문자_일반주서
100
AcDbLine
 10
43.0644746883454
 20
22.31404597447591
 30
0.0
 11
43.06447468834539
 21
23.02498346004041
 31
0.0
  0
LINE
  5
118
330
10F
100
AcDbEntity
  8
치수문자_일반주서
100
AcDbLine
 10
43.06447468834539
 20
23.02498346004041
 30
0.0
 11
48.6207246794047
 21
23.02498346004045
 31
0.0
  0
LINE
  5
119
330
10F
100
AcDbEntity
  8
치수문자_일반주서
100
AcDbLine
 10
48.6207246794047
 20
23.02498346004045
 30
0.0
 11
48.6207246794047
 21
22.31404597447595
 31
0.0
  0
LINE
  5
11A
330
10F
100
AcDbEntity
  8
치수문자_일반주서
100
AcDbLine
 10
17.27213405711731
 20
4.762500000000001
 30
0.0
 11
54.8573564043882
 21
4.762499999999998
 31
0.0
  0
LINE
  5
11B
330
10F
100
AcDbEntity
  8
치수문자_일반주서
100
AcDbLine
 10
17.27213405711726
 20
-4.762500000000001
 30
0.0
 11
54.8573564043882
 21
-4.762500000000004
 31
0.0
  0
LINE
  5
11C
330
10F
100
AcDbEntity
  8
치수문자_일반주서
100
AcDbLine
 10
53.8573564043882
 20
4.762499999999998
 30
0.0
 11
53.8573564043882
 21
24.06459323871295
 31
0.0
  0
LINE
  5
11D
330
10F
100
AcDbEntity
  8
치수문자_일반주서
100
AcDbLine
 10
53.8573564043882
 20
4.762499999999998
 30
0.0
 11
53.8573564043882
 21
-4.762500000000004
 31
0.0
  0
MTEXT
  5
11E
330
10F
100
AcDbEntity
  8
치수문자_일반주서
100
AcDbMText
 10
44.10898776482588
 20
12.37398501295003
 30
0.0
 40
3.5
 41
0.0
 71
     1
 72
     1
  1
0.38
  7
SLDTEXTSTYLE0
 11
-7.044195017643634E-15
 21
1.0
 31
0.0
 73
     1
 44
1.0
  0
MTEXT
  5
11F
330
10F
100
AcDbEntity
  8
치수문자_일반주서
100
AcDbMText
 10
49.34561931518636
 20
9.734765848101741
 30
0.0
 40
3.5
 41
0.0
 71
     1
 72
     1
  1
%%c
  7
SLDTEXTSTYLE0
 11
-7.044195017643634E-15
 21
1.0
 31
0.0
 73
     1
 44
1.0
  0
MTEXT
  5
120
330
10F
100
AcDbEntity
  8
치수문자_일반주서
100
AcDbMText
 10
49.34561931518633
 20
15.01320324647582
 30
0.0
 40
3.5
 41
0.0
 71
     1
 72
     1
  1
9.53
  7
SLDTEXTSTYLE0
 11
-7.044195017643634E-15
 21
1.0
 31
0.0
 73
     1
 44
1.0
  0
ENDBLK
  5
111
330
10F
100
AcDbEntity
  8
0
100
AcDbBlockEnd
  0
BLOCK
  5
129
330
128
100
AcDbEntity
  8
0
100
AcDbBlockBegin
  2
SW_DOWELSYMBOL_0
 70
     0
 10
0.0
 20
0.0
 30
0.0
  3
SW_DOWELSYMBOL_0
  1
SW_DOWELSYMBOL_0
  0
CIRCLE
  5
12B
330
128
100
AcDbEntity
  8
해칭선
 62
     0
100
AcDbCircle
 10
0.0
 20
0.0
 30
0.0
 40
3.000000000000002
  0
HATCH
  5
12C
330
128
100
AcDbEntity
  8
0
  6
Continuous
 62
     0
370
     0
100
AcDbHatch
 10
0.0
 20
0.0
 30
0.0
210
0.0
220
0.0
230
1.0
  2
SOLID
 70
     1
 71
     0
 91
        1
 92
        0
 93
        3
 72
     2
 10
0.0
 20
0.0
 40
3.000000000000002
 50
0.0
 51
90.0
 73
     1
 72
     1
 10
0.0
 20
3.000000000000002
 11
0.0
 21
0.0
 72
     1
 10
0.0
 20
0.0
 11
3.000000000000002
 21
0.0
 97
        0
 75
     0
 76
     1
 98
        1
 10
0.0
 20
0.0
  0
HATCH
  5
12D
330
128
100
AcDbEntity
  8
0
  6
Continuous
 62
     0
370
     0
100
AcDbHatch
 10
0.0
 20
0.0
 30
0.0
210
0.0
220
0.0
230
1.0
  2
SOLID
 70
     1
 71
     0
 91
        1
 92
        0
 93
        3
 72
     2
 10
0.0
 20
0.0
 40
3.000000000000002
 50
180.0
 51
270.0000000000008
 73
     1
 72
     1
 10
0.0
 20
-3.000000000000002
 11
0.0
 21
0.0
 72
     1
 10
0.0
 20
0.0
 11
-3.000000000000002
 21
0.0
 97
        0
 75
     0
 76
     1
 98
        1
 10
0.0
 20
0.0
  0
ENDBLK
  5
12A
330
128
100
AcDbEntity
  8
0
100
AcDbBlockEnd
  0
BLOCK
  5
1F4
330
1F3
100
AcDbEntity
  8
0
100
AcDbBlockBegin
  2
*D8
 70
     1
 10
0.0
 20
0.0
 30
0.0
  3
*D8
  1
*D8
  0
LINE
  5
1F5
330
1F3
100
AcDbEntity
  8
치수문자_일반주서
 62
     0
370
    -2
100
AcDbLine
 10
94.41448736827893
 20
27.92823207616113
 30
0.0
 11
116.2617147933457
 21
0.0000000000001208
 31
0.0
  0
MTEXT
  5
1F6
330
1F3
100
AcDbEntity
  8
치수문자_일반주서
 62
     0
100
AcDbMText
 10
110.1076510210695
 20
12.12739824320372
 30
0.0
 40
3.5
 41
0.0
 71
     5
 72
     1
  1
\A1;R2.29 [R.09]
  7
SLDTEXTSTYLE0
 11
0.6161394717750258
 21
-0.7876370682749716
 31
0.0
 73
     1
 44
1.0
  0
SOLID
  5
1F7
330
1F3
100
AcDbEntity
  8
치수문자_일반주서
 62
     0
100
AcDbTrace
 10
94.84795030151959
 20
28.26731416546132
 30
0.0
 11
93.98102443503826
 21
27.58914998686095
 31
0.0
 12
92.37999483247779
 22
30.52900967560509
 32
0.0
 13
92.37999483247779
 23
30.52900967560509
 33
0.0
  0
LINE
  5
1F8
330
1F3
100
AcDbEntity
  8
치수문자_일반주서
 62
     0
100
AcDbLine
 10
90.88150000000007
 20
32.32954801368168
 30
0.0
 11
91.06150000000008
 21
32.32954801368168
 31
0.0
  0
LINE
  5
1F9
330
1F3
100
AcDbEntity
  8
치수문자_일반주서
 62
     0
100
AcDbLine
 10
90.97150000000008
 20
32.23954801368168
 30
0.0
 11
90.97150000000008
 21
32.41954801368168
 31
0.0
  0
POINT
  5
1FA
330
1F3
100
AcDbEntity
  8
Defpoints
 62
     0
100
AcDbPoint
 10
92.37999483247779
 20
30.52900967560509
 30
0.0
  0
POINT
  5
1FB
330
1F3
100
AcDbEntity
  8
Defpoints
 62
     0
100
AcDbPoint
 10
90.97150000000008
 20
32.32954801368168
 30
0.0
  0
ENDBLK
  5
1FC
330
1F3
100
AcDbEntity
  8
0
100
AcDbBlockEnd
  0
BLOCK
  5
200
330
1FF
100
AcDbEntity
  8
0
100
AcDbBlockBegin
  2
*D9
 70
     1
 10
0.0
 20
0.0
 30
0.0
  3
*D9
  1
*D9
  0
LINE
  5
202
330
1FF
100
AcDbEntity
  8
치수문자_일반주서
 62
     0
370
    -2
100
AcDbLine
 10
17.94750000000006
 20
39.56854801368175
 30
0.0
 11
4.375000000000034
 21
39.5685480136817
 31
0.0
  0
LINE
  5
203
330
1FF
100
AcDbEntity
  8
치수문자_일반주서
 62
     0
370
    -2
100
AcDbLine
 10
17.94750000000006
 20
30.04354801368174
 30
0.0
 11
4.375000000000067
 21
30.04354801368169
 31
0.0
  0
LINE
  5
204
330
1FF
100
AcDbEntity
  8
치수문자_일반주서
 62
     0
370
    -2
100
AcDbLine
 10
4.375000000000045
 20
36.2665480136817
 30
0.0
 11
4.375000000000055
 21
33.34554801368169
 31
0.0
  0
SOLID
  5
205
330
1FF
100
AcDbEntity
  8
치수문자_일반주서
 62
     0
100
AcDbTrace
 10
4.925333333333379
 20
36.2665480136817
 30
0.0
 11
3.824666666666712
 21
36.2665480136817
 31
0.0
 12
4.375000000000034
 22
39.5685480136817
 32
0.0
 13
4.375000000000034
 23
39.5685480136817
 33
0.0
  0
SOLID
  5
206
330
1FF
100
AcDbEntity
  8
치수문자_일반주서
 62
     0
100
AcDbTrace
 10
3.824666666666722
 20
33.34554801368169
 30
0.0
 11
4.925333333333389
 21
33.34554801368169
 31
0.0
 12
4.375000000000067
 22
30.04354801368169
 32
0.0
 13
4.375000000000067
 23
30.04354801368169
 33
0.0
  0
MTEXT
  5
207
330
1FF
100
AcDbEntity
  8
치수문자_일반주서
 62
     0
100
AcDbMText
 10
0.0000000000000497
 20
34.80604801368173
 30
0.0
 40
3.5
 41
0.0
 71
     2
 72
     1
  1
\A1;%%c9.53 [3/8]
  7
SLDTEXTSTYLE0
 11
-3.450141892798385E-15
 21
1.0
 31
0.0
 73
     1
 44
1.0
  0
POINT
  5
208
330
1FF
100
AcDbEntity
  8
Defpoints
 62
     0
100
AcDbPoint
 10
18.01000000000006
 20
39.56854801368175
 30
0.0
  0
POINT
  5
209
330
1FF
100
AcDbEntity
  8
Defpoints
 62
     0
100
AcDbPoint
 10
18.01000000000006
 20
30.04354801368174
 30
0.0
  0
POINT
  5
20A
330
1FF
100
AcDbEntity
  8
Defpoints
 62
     0
100
AcDbPoint
 10
4.375000000000071
 20
30.04354801368169
 30
0.0
  0
ENDBLK
  5
201
330
1FF
100
AcDbEntity
  8
0
100
AcDbBlockEnd
  0
BLOCK
  5
20C
330
20B
100
AcDbEntity
  8
0
100
AcDbBlockBegin
  2
*D10
 70
     1
 10
0.0
 20
0.0
 30
0.0
  3
*D10
  1
*D10
  0
LINE
  5
20E
330
20B
100
AcDbEntity
  8
치수문자_일반주서
 62
     0
370
    -2
100
AcDbLine
 10
93.25750000000008
 20
37.34459945096779
 30
0.0
 11
93.25750000000008
 21
47.83288283164328
 31
0.0
  0
LINE
  5
20F
330
20B
100
AcDbEntity
  8
치수문자_일반주서
 62
     0
370
    -2
100
AcDbLine
 10
64.68250000000008
 20
39.23951038829932
 30
0.0
 11
64.68250000000008
 21
47.83288283164328
 31
0.0
  0
LINE
  5
210
330
20B
100
AcDbEntity
  8
치수문자_일반주서
 62
     0
370
    -2
100
AcDbLine
 10
89.95550000000009
 20
47.83288283164328
 30
0.0
 11
67.98450000000008
 21
47.83288283164328
 31
0.0
  0
SOLID
  5
211
330
20B
100
AcDbEntity
  8
치수문자_일반주서
 62
     0
100
AcDbTrace
 10
89.95550000000009
 20
47.28254949830995
 30
0.0
 11
89.95550000000009
 21
48.38321616497662
 31
0.0
 12
93.25750000000008
 22
47.83288283164328
 32
0.0
 13
93.25750000000008
 23
47.83288283164328
 33
0.0
  0
SOLID
  5
212
330
20B
100
AcDbEntity
  8
치수문자_일반주서
 62
     0
100
AcDbTrace
 10
67.98450000000008
 20
48.38321616497662
 30
0.0
 11
67.98450000000008
 21
47.28254949830995
 31
0.0
 12
64.68250000000008
 22
47.83288283164328
 32
0.0
 13
64.68250000000008
 23
47.83288283164328
 33
0.0
  0
MTEXT
  5
213
330
20B
100
AcDbEntity
  8
치수문자_일반주서
 62
     0
100
AcDbMText
 10
78.97000000000008
 20
52.20788283164328
 30
0.0
 40
3.5
 41
0.0
 71
     2
 72
     1
  1
\A1;28.58 [1 1/8]
  7
SLDTEXTSTYLE0
 73
     1
 44
1.0
  0
POINT
  5
214
330
20B
100
AcDbEntity
  8
Defpoints
 62
     0
100
AcDbPoint
 10
93.25750000000008
 20
37.28209945096779
 30
0.0
  0
POINT
  5
215
330
20B
100
AcDbEntity
  8
Defpoints
 62
     0
100
AcDbPoint
 10
64.68250000000008
 20
39.17701038829932
 30
0.0
  0
POINT
  5
216
330
20B
100
AcDbEntity
  8
Defpoints
 62
     0
100
AcDbPoint
 10
64.68250000000008
 20
47.83288283164328
 30
0.0
  0
ENDBLK
  5
20D
330
20B
100
AcDbEntity
  8
0
100
AcDbBlockEnd
  0
BLOCK
  5
218
330
217
100
AcDbEntity
  8
0
100
AcDbBlockBegin
  2
*D11
 70
     1
 10
0.0
 20
0.0
 30
0.0
  3
*D11
  1
*D11
  0
LINE
  5
21A
330
217
100
AcDbEntity
  8
치수문자_일반주서
 62
     0
370
    -2
100
AcDbLine
 10
93.25750000000008
 20
37.34459945096779
 30
0.0
 11
93.25750000000008
 21
59.61565888889194
 31
0.0
  0
LINE
  5
21B
330
217
100
AcDbEntity
  8
치수문자_일반주서
 62
     0
370
    -2
100
AcDbLine
 10
17.05750000000007
 20
38.67854801368175
 30
0.0
 11
17.05750000000007
 21
59.61565888889194
 31
0.0
  0
LINE
  5
21C
330
217
100
AcDbEntity
  8
치수문자_일반주서
 62
     0
370
    -2
100
AcDbLine
 10
89.95550000000009
 20
59.61565888889194
 30
0.0
 11
20.35950000000007
 21
59.61565888889194
 31
0.0
  0
SOLID
  5
21D
330
217
100
AcDbEntity
  8
치수문자_일반주서
 62
     0
100
AcDbTrace
 10
89.95550000000009
 20
59.0653255555586
 30
0.0
 11
89.95550000000009
 21
60.16599222222527
 31
0.0
 12
93.25750000000008
 22
59.61565888889194
 32
0.0
 13
93.25750000000008
 23
59.61565888889194
 33
0.0
  0
SOLID
  5
21E
330
217
100
AcDbEntity
  8
치수문자_일반주서
 62
     0
100
AcDbTrace
 10
20.35950000000007
 20
60.16599222222527
 30
0.0
 11
20.35950000000007
 21
59.0653255555586
 31
0.0
 12
17.05750000000007
 22
59.61565888889194
 32
0.0
 13
17.05750000000007
 23
59.61565888889194
 33
0.0
  0
MTEXT
  5
21F
330
217
100
AcDbEntity
  8
치수문자_일반주서
 62
     0
100
AcDbMText
 10
55.15750000000008
 20
63.99065888889194
 30
0.0
 40
3.5
 41
0.0
 71
     2
 72
     1
  1
\A1;76.20 [3]
  7
SLDTEXTSTYLE0
 73
     1
 44
1.0
  0
POINT
  5
220
330
217
100
AcDbEntity
  8
Defpoints
 62
     0
100
AcDbPoint
 10
93.25750000000008
 20
37.28209945096779
 30
0.0
  0
POINT
  5
221
330
217
100
AcDbEntity
  8
Defpoints
 62
     0
100
AcDbPoint
 10
17.05750000000007
 20
38.61604801368175
 30
0.0
  0
POINT
  5
222
330
217
100
AcDbEntity
  8
Defpoints
 62
     0
100
AcDbPoint
 10
17.05750000000007
 20
59.61565888889194
 30
0.0
  0
ENDBLK
  5
219
330
217
100
AcDbEntity
  8
0
100
AcDbBlockEnd
  0
BLOCK
  5
224
330
223
100
AcDbEntity
  8
0
100
AcDbBlockBegin
  2
*D12
 70
     1
 10
0.0
 20
0.0
 30
0.0
  3
*D12
  1
*D12
  0
LINE
  5
226
330
223
100
AcDbEntity
  8
치수문자_일반주서
 62
     0
370
    -2
100
AcDbLine
 10
71.01713405711737
 20
39.56854801368175
 30
0.0
 11
108.5398564043883
 21
39.56854801368189
 31
0.0
  0
LINE
  5
227
330
223
100
AcDbEntity
  8
치수문자_일반주서
 62
     0
370
    -2
100
AcDbLine
 10
71.01713405711732
 20
30.04354801368174
 30
0.0
 11
108.5398564043883
 21
30.04354801368189
 31
0.0
  0
LINE
  5
228
330
223
100
AcDbEntity
  8
치수문자_일반주서
 62
     0
370
    -2
100
AcDbLine
 10
108.5398564043883
 20
39.56854801368189
 30
0.0
 11
108.5398564043882
 21
69.12054801368188
 31
0.0
  0
LINE
  5
229
330
223
100
AcDbEntity
  8
치수문자_일반주서
 62
     0
370
    -2
100
AcDbLine
 10
108.5398564043883
 20
36.26654801368189
 30
0.0
 11
108.5398564043883
 21
33.34554801368188
 31
0.0
  0
SOLID
  5
22A
330
223
100
AcDbEntity
  8
치수문자_일반주서
 62
     0
100
AcDbTrace
 10
109.0901897377216
 20
36.26654801368189
 30
0.0
 11
107.989523071055
 21
36.26654801368189
 31
0.0
 12
108.5398564043883
 22
39.56854801368189
 32
0.0
 13
108.5398564043883
 23
39.56854801368189
 33
0.0
  0
SOLID
  5
22B
330
223
100
AcDbEntity
  8
치수문자_일반주서
 62
     0
100
AcDbTrace
 10
107.989523071055
 20
33.34554801368188
 30
0.0
 11
109.0901897377216
 21
33.34554801368188
 31
0.0
 12
108.5398564043883
 22
30.04354801368189
 32
0.0
 13
108.5398564043883
 23
30.04354801368189
 33
0.0
  0
MTEXT
  5
22C
330
223
100
AcDbEntity
  8
치수문자_일반주서
 62
     0
100
AcDbMText
 10
104.1648564043883
 20
55.99554801368188
 30
0.0
 40
3.5
 41
0.0
 71
     2
 72
     1
  1
\A1;%%c9.53 [3/8]
  7
SLDTEXTSTYLE0
 11
-2.983906501879684E-15
 21
1.0
 31
0.0
 73
     1
 44
1.0
  0
POINT
  5
22D
330
223
100
AcDbEntity
  8
Defpoints
 62
     0
100
AcDbPoint
 10
70.95463405711737
 20
39.56854801368175
 30
0.0
  0
POINT
  5
22E
330
223
100
AcDbEntity
  8
Defpoints
 62
     0
100
AcDbPoint
 10
70.95463405711732
 20
30.04354801368174
 30
0.0
  0
POINT
  5
22F
330
223
100
AcDbEntity
  8
Defpoints
 62
     0
100
AcDbPoint
 10
108.5398564043884
 20
30.04354801368189
 30
0.0
  0
ENDBLK
  5
225
330
223
100
AcDbEntity
  8
0
100
AcDbBlockEnd
  0
BLOCK
  5
26E
330
26D
100
AcDbEntity
  8
0
100
AcDbBlockBegin
  2
*D13
 70
     1
 10
0.0
 20
0.0
 30
0.0
  3
*D13
  1
*D13
  0
LINE
  5
270
330
26D
100
AcDbEntity
  8
치수문자_일반주서
 62
     0
370
    -2
100
AcDbLine
 10
-36.73499999999999
 20
4.763574928723894
 30
0.0
 11
-50.30750000000002
 21
4.763574928723842
 31
0.0
  0
LINE
  5
271
330
26D
100
AcDbEntity
  8
치수문자_일반주서
 62
     0
370
    -2
100
AcDbLine
 10
-36.73499999999999
 20
-4.761425071276108
 30
0.0
 11
-50.30749999999998
 21
-4.76142507127616
 31
0.0
  0
LINE
  5
272
330
26D
100
AcDbEntity
  8
치수문자_일반주서
 62
     0
370
    -2
100
AcDbLine
 10
-50.3075
 20
1.461574928723842
 30
0.0
 11
-50.3075
 21
-1.459425071276161
 31
0.0
  0
SOLID
  5
273
330
26D
100
AcDbEntity
  8
치수문자_일반주서
 62
     0
100
AcDbTrace
 10
-49.75716666666667
 20
1.461574928723844
 30
0.0
 11
-50.85783333333334
 21
1.46157492872384
 31
0.0
 12
-50.30750000000002
 22
4.763574928723842
 32
0.0
 13
-50.30750000000002
 23
4.763574928723842
 33
0.0
  0
SOLID
  5
274
330
26D
100
AcDbEntity
  8
치수문자_일반주서
 62
     0
100
AcDbTrace
 10
-50.85783333333333
 20
-1.459425071276162
 30
0.0
 11
-49.75716666666666
 21
-1.459425071276159
 31
0.0
 12
-50.30749999999998
 22
-4.76142507127616
 32
0.0
 13
-50.30749999999998
 23
-4.76142507127616
 33
0.0
  0
MTEXT
  5
275
330
26D
100
AcDbEntity
  8
치수문자_일반주서
 62
     0
100
AcDbMText
 10
-54.6825
 20
0.0010749287238789
 30
0.0
 40
3.5
 41
0.0
 71
     2
 72
     1
  1
\A1;%%c9.53 [3/8]
  7
SLDTEXTSTYLE0
 11
-3.729883127349607E-15
 21
1.0
 31
0.0
 73
     1
 44
1.0
  0
POINT
  5
276
330
26D
100
AcDbEntity
  8
Defpoints
 62
     0
100
AcDbPoint
 10
-36.67249999999999
 20
4.763574928723894
 30
0.0
  0
POINT
  5
277
330
26D
100
AcDbEntity
  8
Defpoints
 62
     0
100
AcDbPoint
 10
-36.67249999999999
 20
-4.761425071276108
 30
0.0
  0
POINT
  5
278
330
26D
100
AcDbEntity
  8
Defpoints
 62
     0
100
AcDbPoint
 10
-50.30749999999998
 20
-4.761425071276158
 30
0.0
  0
ENDBLK
  5
26F
330
26D
100
AcDbEntity
  8
0
100
AcDbBlockEnd
  0
BLOCK
  5
27A
330
279
100
AcDbEntity
  8
0
100
AcDbBlockBegin
  2
*D14
 70
     1
 10
0.0
 20
0.0
 30
0.0
  3
*D14
  1
*D14
  0
LINE
  5
27C
330
279
100
AcDbEntity
  8
치수문자_일반주서
 62
     0
370
    -2
100
AcDbLine
 10
38.57500000000002
 20
2.539626366009937
 30
0.0
 11
38.57500000000002
 21
13.02790974668543
 31
0.0
  0
LINE
  5
27D
330
279
100
AcDbEntity
  8
치수문자_일반주서
 62
     0
370
    -2
100
AcDbLine
 10
10.00000000000002
 20
4.434537303341468
 30
0.0
 11
10.00000000000002
 21
13.02790974668543
 31
0.0
  0
LINE
  5
27E
330
279
100
AcDbEntity
  8
치수문자_일반주서
 62
     0
370
    -2
100
AcDbLine
 10
35.27300000000002
 20
13.02790974668543
 30
0.0
 11
13.30200000000002
 21
13.02790974668543
 31
0.0
  0
SOLID
  5
27F
330
279
100
AcDbEntity
  8
치수문자_일반주서
 62
     0
100
AcDbTrace
 10
35.27300000000002
 20
12.4775764133521
 30
0.0
 11
35.27300000000002
 21
13.57824308001877
 31
0.0
 12
38.57500000000002
 22
13.02790974668543
 32
0.0
 13
38.57500000000002
 23
13.02790974668543
 33
0.0
  0
SOLID
  5
280
330
279
100
AcDbEntity
  8
치수문자_일반주서
 62
     0
100
AcDbTrace
 10
13.30200000000002
 20
13.57824308001877
 30
0.0
 11
13.30200000000002
 21
12.4775764133521
 31
0.0
 12
10.00000000000002
 22
13.02790974668543
 32
0.0
 13
10.00000000000002
 23
13.02790974668543
 33
0.0
  0
MTEXT
  5
281
330
279
100
AcDbEntity
  8
치수문자_일반주서
 62
     0
100
AcDbMText
 10
24.28750000000003
 20
17.40290974668543
 30
0.0
 40
3.5
 41
0.0
 71
     2
 72
     1
  1
\A1;28.58 [1 1/8]
  7
SLDTEXTSTYLE0
 73
     1
 44
1.0
  0
POINT
  5
282
330
279
100
AcDbEntity
  8
Defpoints
 62
     0
100
AcDbPoint
 10
38.57500000000002
 20
2.477126366009937
 30
0.0
  0
POINT
  5
283
330
279
100
AcDbEntity
  8
Defpoints
 62
     0
100
AcDbPoint
 10
10.00000000000002
 20
4.372037303341468
 30
0.0
  0
POINT
  5
284
330
279
100
AcDbEntity
  8
Defpoints
 62
     0
100
AcDbPoint
 10
10.00000000000002
 20
13.02790974668543
 30
0.0
  0
ENDBLK
  5
27B
330
279
100
AcDbEntity
  8
0
100
AcDbBlockEnd
  0
BLOCK
  5
286
330
285
100
AcDbEntity
  8
0
100
AcDbBlockBegin
  2
*D15
 70
     1
 10
0.0
 20
0.0
 30
0.0
  3
*D15
  1
*D15
  0
LINE
  5
288
330
285
100
AcDbEntity
  8
치수문자_일반주서
 62
     0
370
    -2
100
AcDbLine
 10
38.57500000000002
 20
2.539626366009937
 30
0.0
 11
38.57500000000003
 21
24.81068580393409
 31
0.0
  0
LINE
  5
289
330
285
100
AcDbEntity
  8
치수문자_일반주서
 62
     0
370
    -2
100
AcDbLine
 10
-37.62499999999999
 20
3.873574928723894
 30
0.0
 11
-37.62499999999998
 21
24.81068580393409
 31
0.0
  0
LINE
  5
28A
330
285
100
AcDbEntity
  8
치수문자_일반주서
 62
     0
370
    -2
100
AcDbLine
 10
35.27300000000003
 20
24.81068580393409
 30
0.0
 11
-34.32299999999998
 21
24.81068580393409
 31
0.0
  0
SOLID
  5
28B
330
285
100
AcDbEntity
  8
치수문자_일반주서
 62
     0
100
AcDbTrace
 10
35.27300000000003
 20
24.26035247060075
 30
0.0
 11
35.27300000000003
 21
25.36101913726742
 31
0.0
 12
38.57500000000003
 22
24.81068580393409
 32
0.0
 13
38.57500000000003
 23
24.81068580393409
 33
0.0
  0
SOLID
  5
28C
330
285
100
AcDbEntity
  8
치수문자_일반주서
 62
     0
100
AcDbTrace
 10
-34.32299999999998
 20
25.36101913726742
 30
0.0
 11
-34.32299999999998
 21
24.26035247060075
 31
0.0
 12
-37.62499999999998
 22
24.81068580393409
 32
0.0
 13
-37.62499999999998
 23
24.81068580393409
 33
0.0
  0
MTEXT
  5
28D
330
285
100
AcDbEntity
  8
치수문자_일반주서
 62
     0
100
AcDbMText
 10
0.4750000000000227
 20
29.18568580393409
 30
0.0
 40
3.5
 41
0.0
 71
     2
 72
     1
  1
\A1;76.20 [3]
  7
SLDTEXTSTYLE0
 73
     1
 44
1.0
  0
POINT
  5
28E
330
285
100
AcDbEntity
  8
Defpoints
 62
     0
100
AcDbPoint
 10
38.57500000000002
 20
2.477126366009937
 30
0.0
  0
POINT
  5
28F
330
285
100
AcDbEntity
  8
Defpoints
 62
     0
100
AcDbPoint
 10
-37.62499999999999
 20
3.811074928723894
 30
0.0
  0
POINT
  5
290
330
285
100
AcDbEntity
  8
Defpoints
 62
     0
100
AcDbPoint
 10
-37.62499999999999
 20
24.81068580393409
 30
0.0
  0
ENDBLK
  5
287
330
285
100
AcDbEntity
  8
0
100
AcDbBlockEnd
  0
BLOCK
  5
292
330
291
100
AcDbEntity
  8
0
100
AcDbBlockBegin
  2
*D16
 70
     1
 10
0.0
 20
0.0
 30
0.0
  3
*D16
  1
*D16
  0
LINE
  5
294
330
291
100
AcDbEntity
  8
치수문자_일반주서
 62
     0
370
    -2
100
AcDbLine
 10
16.33463405711732
 20
4.763574928723894
 30
0.0
 11
53.85735640438827
 21
4.763574928724033
 31
0.0
  0
LINE
  5
295
330
291
100
AcDbEntity
  8
치수문자_일반주서
 62
     0
370
    -2
100
AcDbLine
 10
16.33463405711726
 20
-4.761425071276108
 30
0.0
 11
53.85735640438831
 21
-4.761425071275969
 31
0.0
  0
LINE
  5
296
330
291
100
AcDbEntity
  8
치수문자_일반주서
 62
     0
370
    -2
100
AcDbLine
 10
53.85735640438827
 20
4.763574928724033
 30
0.0
 11
53.85735640438816
 21
34.31557492872405
 31
0.0
  0
LINE
  5
297
330
291
100
AcDbEntity
  8
치수문자_일반주서
 62
     0
370
    -2
100
AcDbLine
 10
53.85735640438828
 20
1.461574928724033
 30
0.0
 11
53.85735640438829
 21
-1.45942507127597
 31
0.0
  0
SOLID
  5
298
330
291
100
AcDbEntity
  8
치수문자_일반주서
 62
     0
100
AcDbTrace
 10
54.40768973772162
 20
1.461574928724035
 30
0.0
 11
53.30702307105495
 21
1.461574928724031
 31
0.0
 12
53.85735640438827
 22
4.763574928724033
 32
0.0
 13
53.85735640438827
 23
4.763574928724033
 33
0.0
  0
SOLID
  5
299
330
291
100
AcDbEntity
  8
치수문자_일반주서
 62
     0
100
AcDbTrace
 10
53.30702307105496
 20
-1.459425071275972
 30
0.0
 11
54.40768973772163
 21
-1.459425071275968
 31
0.0
 12
53.85735640438831
 22
-4.761425071275969
 32
0.0
 13
53.85735640438831
 23
-4.761425071275969
 33
0.0
  0
MTEXT
  5
29A
330
291
100
AcDbEntity
  8
치수문자_일반주서
 62
     0
100
AcDbMText
 10
49.48235640438821
 20
21.19057492872403
 30
0.0
 40
3.5
 41
0.0
 71
     2
 72
     1
  1
\A1;%%c9.53 [3/8]
  7
SLDTEXTSTYLE0
 11
-3.729883127349606E-15
 21
1.0
 31
0.0
 73
     1
 44
1.0
  0
POINT
  5
29B
330
291
100
AcDbEntity
  8
Defpoints
 62
     0
100
AcDbPoint
 10
16.27213405711732
 20
4.763574928723894
 30
0.0
  0
POINT
  5
29C
330
291
100
AcDbEntity
  8
Defpoints
 62
     0
100
AcDbPoint
 10
16.27213405711726
 20
-4.761425071276108
 30
0.0
  0
POINT
  5
29D
330
291
100
AcDbEntity
  8
Defpoints
 62
     0
100
AcDbPoint
 10
53.85735640438831
 20
-4.761425071275967
 30
0.0
  0
ENDBLK
  5
293
330
291
100
AcDbEntity
  8
0
100
AcDbBlockEnd
  0
BLOCK
  5
29F
330
29E
100
AcDbEntity
  8
0
100
AcDbBlockBegin
  2
*D17
 70
     1
 10
0.0
 20
0.0
 30
0.0
  3
*D17
  1
*D17
  0
LINE
  5
2A1
330
29E
100
AcDbEntity
  8
치수문자_일반주서
 62
     0
370
    -2
100
AcDbLine
 10
39.73198736827887
 20
-6.876741008796718
 30
0.0
 11
61.57921479334568
 21
-34.80497308495772
 31
0.0
  0
MTEXT
  5
2A2
330
29E
100
AcDbEntity
  8
치수문자_일반주서
 62
     0
100
AcDbMText
 10
55.42515102106947
 20
-22.67757484175413
 30
0.0
 40
3.5
 41
0.0
 71
     5
 72
     1
  1
\A1;R2.29 [R.09]
  7
SLDTEXTSTYLE0
 11
0.6161394717750258
 21
-0.7876370682749716
 31
0.0
 73
     1
 44
1.0
  0
SOLID
  5
2A3
330
29E
100
AcDbEntity
  8
치수문자_일반주서
 62
     0
100
AcDbTrace
 10
40.16545030151953
 20
-6.537658919496529
 30
0.0
 11
39.29852443503821
 21
-7.215823098096907
 31
0.0
 12
37.69749483247774
 22
-4.275963409352762
 32
0.0
 13
37.69749483247774
 23
-4.275963409352762
 33
0.0
  0
LINE
  5
2A4
330
29E
100
AcDbEntity
  8
치수문자_일반주서
 62
     0
100
AcDbLine
 10
36.19900000000002
 20
-2.47542507127617
 30
0.0
 11
36.37900000000003
 21
-2.47542507127617
 31
0.0
  0
LINE
  5
2A5
330
29E
100
AcDbEntity
  8
치수문자_일반주서
 62
     0
100
AcDbLine
 10
36.28900000000002
 20
-2.56542507127617
 30
0.0
 11
36.28900000000002
 21
-2.38542507127617
 31
0.0
  0
POINT
  5
2A6
330
29E
100
AcDbEntity
  8
Defpoints
 62
     0
100
AcDbPoint
 10
37.69749483247774
 20
-4.275963409352762
 30
0.0
  0
POINT
  5
2A7
330
29E
100
AcDbEntity
  8
Defpoints
 62
     0
100
AcDbPoint
 10
36.28900000000002
 20
-2.47542507127617
 30
0.0
  0
ENDBLK
  5
2A0
330
29E
100
AcDbEntity
  8
0
100
AcDbBlockEnd
  0
BLOCK
  5
2B1
330
2B0
100
AcDbEntity
  8
0
100
AcDbBlockBegin
  2
*D18
 70
     1
 10
0.0
 20
0.0
 30
0.0
  3
*D18
  1
*D18
  0
LINE
  5
2B3
330
2B0
100
AcDbEntity
  8
치수문자_일반주서
 62
     0
370
    -2
100
AcDbLine
 10
40.2316694280342
 20
-6.866972975570688
 30
0.0
 11
63.74529213503281
 21
-33.69900376328631
 31
0.0
  0
MTEXT
  5
2B4
330
2B0
100
AcDbEntity
  8
치수문자_일반주서
 62
     0
100
AcDbMText
 10
56.49253441772959
 20
-21.43979781452688
 30
0.0
 40
3.5
 41
0.0
 71
     5
 72
     1
  1
\A1;R1.52 [R0.06]
  7
SLDTEXTSTYLE0
 11
0.6590695043585113
 21
-0.7520820357013097
 31
0.0
 73
     1
 44
1.0
  0
SOLID
  5
2B5
330
2B0
100
AcDbEntity
  8
치수문자_일반주서
 62
     0
100
AcDbTrace
 10
40.64556524168182
 20
-6.504265058338721
 30
0.0
 11
39.81777361438658
 21
-7.229680892802655
 31
0.0
 12
38.0554219246424
 22
-4.383598093684963
 32
0.0
 13
38.0554219246424
 23
-4.383598093684963
 33
0.0
  0
LINE
  5
2B6
330
2B0
100
AcDbEntity
  8
치수문자_일반주서
 62
     0
100
AcDbLine
 10
36.96100000000002
 20
-3.237425071276166
 30
0.0
 11
37.14100000000003
 21
-3.237425071276166
 31
0.0
  0
LINE
  5
2B7
330
2B0
100
AcDbEntity
  8
치수문자_일반주서
 62
     0
100
AcDbLine
 10
37.05100000000002
 20
-3.327425071276166
 30
0.0
 11
37.05100000000002
 21
-3.147425071276166
 31
0.0
  0
POINT
  5
2B8
330
2B0
100
AcDbEntity
  8
Defpoints
 62
     0
100
AcDbPoint
 10
38.0554219246424
 20
-4.383598093684963
 30
0.0
  0
POINT
  5
2B9
330
2B0
100
AcDbEntity
  8
Defpoints
 62
     0
100
AcDbPoint
 10
37.05100000000002
 20
-3.237425071276166
 30
0.0
  0
ENDBLK
  5
2B2
330
2B0
100
AcDbEntity
  8
0
100
AcDbBlockEnd
  0
ENDSEC
  0
SECTION
  2
ENTITIES
  0
LINE
  5
C5
330
1F
100
AcDbEntity
  8
참조1
100
AcDbLine
 10
0.4750000000000032
 20
-0.0000000000000039
 30
0.0
 11
0.4750000000000084
 21
-40.00000000000001
 31
0.0
  0
LINE
  5
C6
330
1F
100
AcDbEntity
  8
참조1
100
AcDbLine
 10
0.4750000000000084
 20
-40.00000000000001
 30
0.0
 11
-14.68385681430865
 21
-40.0
 31
0.0
  0
INSERT
  5
C8
330
1F
100
AcDbEntity
  8
0
  6
Continuous
 62
     7
100
AcDbBlockReference
 66
     1
  2
블럭10
 10
-13.4652729321252
 20
-52.04717430164393
 30
0.0
  0
ATTRIB
  5
C9
330
C8
100
AcDbEntity
  8
FORMAT
 62
     2
100
AcDbText
 10
-23.60690894426183
 20
-49.97180738881174
 30
0.0
 40
4.233333333333333
  1
EM212906 [ 4 FLUTE ]
 41
0.75
  7
SLDTEXTSTYLE0
 11
-23.60690894426183
 21
-52.08847405547841
 31
0.0
100
AcDbAttribute
  2
AUTOATTR0
 70
     0
 74
     1
  0
SEQEND
  5
CA
330
C8
100
AcDbEntity
  8
0
  6
Continuous
 62
     7
  0
HATCH
  5
CB
330
1F
100
AcDbEntity
  8
중심선
100
AcDbHatch
 10
0.0
 20
0.0
 30
0.0
210
0.0
220
0.0
230
1.0
  2
SOLID
 70
     1
 71
     0
 91
        1
 92
        0
 93
        4
 72
     1
 10
-7.750363627744367
 20
-35.8
 11
-11.19663887158165
 21
-35.8
 72
     1
 10
-11.19663887158165
 20
-35.8
 11
-13.32486873078567
 21
-38.33632558057259
 72
     1
 10
-13.32486873078567
 20
-38.33632558057259
 11
-9.87856040183524
 21
-38.3362861512701
 72
     1
 10
-9.87856040183524
 20
-38.3362861512701
 11
-7.750363627744367
 21
-35.8
 97
        0
 75
     0
 76
     1
 98
        1
 10
0.0
 20
0.0
  0
HATCH
  5
CC
330
1F
100
AcDbEntity
  8
중심선
100
AcDbHatch
 10
0.0
 20
0.0
 30
0.0
210
0.0
220
0.0
230
1.0
  2
SOLID
 70
     1
 71
     0
 91
        1
 92
        0
 93
        4
 72
     1
 10
-2.737599636708415
 20
-35.8
 11
-6.183874880545698
 21
-35.8
 72
     1
 10
-6.183874880545698
 20
-35.8
 11
-10.71501288890309
 21
-41.20000000000002
 72
     1
 10
-10.71501288890309
 20
-41.20000000000002
 11
-7.268737645065803
 21
-41.20000000000002
 72
     1
 10
-7.268737645065803
 20
-41.20000000000002
 11
-2.737599636708415
 21
-35.8
 97
        0
 75
     0
 76
     1
 98
        1
 10
0.0
 20
0.0
  0
HATCH
  5
CD
330
1F
100
AcDbEntity
  8
중심선
100
AcDbHatch
 10
0.0
 20
0.0
 30
0.0
210
0.0
220
0.0
230
1.0
  2
SOLID
 70
     1
 71
     0
 91
        1
 92
        0
 93
        4
 72
     1
 10
2.275164354327508
 20
-35.8
 11
-1.171110889509608
 21
-35.8
 72
     1
 10
-1.171110889509608
 20
-35.8
 11
-8.219547791398885
 21
-44.20000000000002
 72
     1
 10
-8.219547791398885
 20
-44.20000000000002
 11
-4.773272547561602
 21
-44.20000000000002
 72
     1
 10
-4.773272547561602
 20
-44.20000000000002
 11
2.275164354327508
 21
-35.8
 97
        0
 75
     0
 76
     1
 98
        1
 10
0.0
 20
0.0
  0
HATCH
  5
CE
330
1F
100
AcDbEntity
  8
중심선
100
AcDbHatch
 10
0.0
 20
0.0
 30
0.0
210
0.0
220
0.0
230
1.0
  2
SOLID
 70
     1
 71
     0
 91
        1
 92
        0
 93
        6
 72
     3
 10
7.075054785339679
 20
-40.00000000005127
 11
3.960054785062284
 21
1.540850780301639E-10
 40
0.3939339440162633
 50
17.09539180608433
 51
320.0019657685081
 73
     0
 72
     1
 10
8.758054441040276
 20
-38.5878940046383
 11
11.06335631474134
 21
-36.65356729459038
 72
     3
 10
7.075054785286833
 20
-40.00000000000015
 11
6.600054785286829
 21
-1.249000902703301E-13
 40
0.6363583540795982
 50
39.99873849337387
 51
368.4976242363725
 73
     1
 72
     1
 10
13.50038727718744
 20
-39.03999999993002
 11
5.755122092122756
 21
-39.03999999992999
 72
     1
 10
5.755122092122756
 20
-39.03999999992999
 11
5.755097047676822
 21
-40.95999999992991
 72
     1
 10
5.755097047676822
 20
-40.95999999992991
 11
10.19647681714886
 21
-40.95999999992988
 97
        0
 75
     0
 76
     1
 98
        1
 10
0.0
 20
0.0
  0
LINE
  5
121
330
1F
100
AcDbEntity
  8
참조1
100
AcDbLine
 10
83.28848381534561
 20
7.440000000000002
 30
0.0
 11
83.28848381534561
 21
-7.440000000000002
 31
0.0
  0
LINE
  5
122
330
1F
100
AcDbEntity
  8
참조1
100
AcDbLine
 10
95.98848381534562
 20
5.440000000000002
 30
0.0
 11
83.28848381534561
 21
5.440000000000002
 31
0.0
  0
SOLID
  5
123
330
1F
100
AcDbEntity
  8
참조1
100
AcDbTrace
 10
83.28848381534561
 20
5.440000000000002
 30
0.0
 11
89.63848381534561
 21
4.424000000000002
 31
0.0
 12
89.63848381534561
 22
6.456000000000002
 32
0.0
 13
89.63848381534561
 23
6.456000000000002
 33
0.0
  0
LINE
  5
124
330
1F
100
AcDbEntity
  8
참조1
100
AcDbLine
 10
95.98848381534562
 20
-5.440000000000002
 30
0.0
 11
83.28848381534561
 21
-5.440000000000002
 31
0.0
  0
SOLID
  5
125
330
1F
100
AcDbEntity
  8
참조1
100
AcDbTrace
 10
83.28848381534561
 20
-5.440000000000002
 30
0.0
 11
89.63848381534561
 21
-6.456000000000002
 31
0.0
 12
89.63848381534561
 22
-4.424000000000002
 32
0.0
 13
89.63848381534561
 23
-4.424000000000002
 33
0.0
  0
MTEXT
  5
126
330
1F
100
AcDbEntity
  8
참조1
100
AcDbMText
 10
92.88859862590819
 20
11.06571756601608
 30
0.0
 40
3.5
 41
0.0
 71
     1
 72
     1
  1
A
  7
SLDTEXTSTYLE0
 73
     1
 44
1.0
  0
MTEXT
  5
127
330
1F
100
AcDbEntity
  8
참조1
100
AcDbMText
 10
92.88859862590819
 20
0.1857175660160727
 30
0.0
 40
3.5
 41
0.0
 71
     1
 72
     1
  1
A
  7
SLDTEXTSTYLE0
 73
     1
 44
1.0
  0
LINE
  5
231
330
1F
100
AcDbEntity
  8
외형선
  6
Continuous
370
    15
100
AcDbLine
 10
10.91112735517499
 20
1.399159077857149
 30
0.0
 11
10.85448161501048
 21
1.429797539057013
 31
0.0
  0
LINE
  5
232
330
1F
100
AcDbEntity
  8
외형선
  6
Continuous
 62
     1
370
    15
100
AcDbLine
 10
31.51341640225633
 20
-1.303658363231094
 30
0.0
 11
31.74176488261616
 21
-1.427612440630512
 31
0.0
  0
LINE
  5
233
330
1F
100
AcDbEntity
  8
외형선
  6
Continuous
 62
     1
370
    15
100
AcDbLine
 10
26.32536077514464
 20
-4.761425071276108
 30
0.0
 11
29.22891759828115
 21
-4.761425071276108
 31
0.0
  0
LINE
  5
234
330
1F
100
AcDbEntity
  8
외형선
  6
Continuous
 62
     1
370
    15
100
AcDbLine
 10
16.27167501066098
 20
4.763574928723894
 30
0.0
 11
13.3672512887673
 21
4.763574928723894
 31
0.0
  0
LINE
  5
235
330
1F
100
AcDbEntity
  8
외형선
  6
Continuous
 62
     1
370
    15
100
AcDbLine
 10
29.22891759828114
 20
4.763574928723894
 30
0.0
 11
26.32536077514469
 21
4.763574928723894
 31
0.0
  0
LINE
  5
237
330
1F
100
AcDbEntity
  8
외형선
  6
Continuous
 62
     1
370
    15
100
AcDbLine
 10
13.36725128876729
 20
-4.761425071276108
 30
0.0
 11
16.27167501066092
 21
-4.761425071276108
 31
0.0
  0
ARC
  5
238
330
1F
100
AcDbEntity
  8
외형선
  6
Continuous
 62
     1
370
    15
100
AcDbCircle
 10
36.28900000000002
 20
2.477574928723893
 30
0.0
 40
2.286000000000008
100
AcDbArc
 50
0.0
 51
1.842771417753554
  0
LINE
  5
239
330
1F
100
AcDbEntity
  8
외형선
  6
Continuous
370
    15
100
AcDbLine
 10
-36.67249999999999
 20
-4.761425071276104
 30
0.0
 11
9.749944547680506
 21
-4.761425071276104
 31
0.0
  0
LINE
  5
23A
330
1F
100
AcDbEntity
  8
외형선
  6
Continuous
370
    15
100
AcDbLine
 10
9.749944547680506
 20
4.763574928723894
 30
0.0
 11
-36.67249999999999
 21
4.763574928723894
 31
0.0
  0
LINE
  5
23B
330
1F
100
AcDbEntity
  8
외형선
  6
Continuous
370
    15
100
AcDbLine
 10
-36.67249999999999
 20
4.763574928723894
 30
0.0
 11
-37.62499999999999
 21
3.811074928723894
 31
0.0
  0
LINE
  5
23C
330
1F
100
AcDbEntity
  8
외형선
  6
Continuous
370
    15
100
AcDbLine
 10
-37.62499999999999
 20
-3.808925071276107
 30
0.0
 11
-36.67249999999999
 21
-4.761425071276108
 31
0.0
  0
SPLINE
  5
23D
330
1F
100
AcDbEntity
  8
외형선
  6
Continuous
370
    15
100
AcDbSpline
210
0.0
220
0.0
230
1.0
 70
    24
 71
     3
 72
    11
 73
     7
 74
     0
 42
0.000000001
 43
0.00000001
 40
0.0
 40
0.0
 40
0.0
 40
0.0
 40
0.2781753279997165
 40
0.5595366317905538
 40
0.995546652468284
 40
1.0
 40
1.0
 40
1.0
 40
1.0
 10
10.00000000000001
 20
4.372037303366152
 30
0.0
 10
9.999999999999993
 20
4.271792035497295
 30
0.0
 10
9.99999999999995
 20
4.070153378540848
 30
0.0
 10
10.00000000000023
 20
3.723413333987818
 30
0.0
 10
9.999999999999439
 20
3.47204464573586
 30
0.0
 10
10.00000000000001
 20
3.337455527122028
 30
0.0
 10
9.999999999999993
 20
3.336094750806819
 30
0.0
  0
SPLINE
  5
23E
330
1F
100
AcDbEntity
  8
외형선
  6
Continuous
 62
     1
370
    15
100
AcDbSpline
210
0.0
220
0.0
230
1.0
 70
     8
 71
     3
 72
    14
 73
    10
 74
     0
 42
0.000000001
 43
0.00000001
 40
0.0
 40
0.0
 40
0.0
 40
0.0
 40
0.1458267085727582
 40
0.2916591875361544
 40
0.4375109307127281
 40
0.5833953769498049
 40
0.7293258719598555
 40
0.8726747686540798
 40
0.9999999999999999
 40
0.9999999999999999
 40
0.9999999999999999
 40
0.9999999999999999
 10
10.00000000000004
 20
-3.449807076560667
 30
0.0
 10
10.54938929623061
 20
-3.655149615700484
 30
0.0
 10
11.64818962813086
 20
-4.065842819423509
 30
0.0
 10
13.29648164424983
 20
-4.483244960315591
 30
0.0
 10
14.94503722718422
 20
-4.731704185577769
 30
0.0
 10
16.59403126022296
 20
-4.790110590605906
 30
0.0
 10
18.23371535219265
 20
-4.655315354193512
 30
0.0
 10
19.80353632875504
 20
-4.364970562115126
 30
0.0
 10
20.82332964531302
 20
-4.045512332967803
 30
0.0
 10
21.30304087924562
 20
-3.895239038560042
 30
0.0
  0
SPLINE
  5
23F
330
1F
100
AcDbEntity
  8
외형선
  6
Continuous
370
    15
100
AcDbSpline
210
0.0
220
0.0
230
1.0
 70
    24
 71
     3
 72
    22
 73
    18
 74
     0
 42
0.000000001
 43
0.00000001
 40
0.0
 40
0.0
 40
0.0
 40
0.0
 40
0.1249999999999997
 40
0.1249999999999997
 40
0.2499999999999997
 40
0.2499999999999997
 40
0.3749999999999997
 40
0.3749999999999997
 40
0.4999999999999997
 40
0.4999999999999997
 40
0.6249999999999998
 40
0.6249999999999998
 40
0.7499999999999998
 40
0.7499999999999998
 40
0.8749999999999999
 40
0.8749999999999999
 40
1.0
 40
1.0
 40
1.0
 40
1.0
 10
10.00000000000004
 20
1.892131292099066
 30
0.0
 10
10.00000000000004
 20
1.868335182164749
 30
0.0
 10
10.00000000000001
 20
1.819755243654939
 30
0.0
 10
10.00000000000001
 20
1.699756417856861
 30
0.0
 10
10.00000000000005
 20
1.61616304349743
 30
0.0
 10
10.00000000000005
 20
1.378497888820043
 30
0.0
 10
10.00000000000002
 20
1.223977556459985
 30
0.0
 10
10.00000000000001
 20
0.8229684178931507
 30
0.0
 10
10.00000000000002
 20
0.5756100566752167
 30
0.0
 10
10.00000000000002
 20
-0.0105689223180505
 30
0.0
 10
10.00000000000002
 20
-0.3498971311677934
 30
0.0
 10
10.00000000000002
 20
-1.072567209765531
 30
0.0
 10
10.00000000000001
 20
-1.454659210203033
 30
0.0
 10
10.00000000000001
 20
-2.175127191689299
 30
0.0
 10
10.00000000000004
 20
-2.51141789499281
 30
0.0
 10
10.00000000000002
 20
-3.069388667144658
 30
0.0
 10
10.00000000000005
 20
-3.290787836714802
 30
0.0
 10
10.00000000000004
 20
-3.44980707656066
 30
0.0
  0
SPLINE
  5
240
330
1F
100
AcDbEntity
  8
외형선
  6
Continuous
 62
     1
370
    15
100
AcDbSpline
210
0.0
220
0.0
230
1.0
 70
     8
 71
     3
 72
    17
 73
    13
 74
     0
 42
0.000000001
 43
0.00000001
 40
0.0
 40
0.0
 40
0.0
 40
0.0
 40
0.0931034441777867
 40
0.1922667282551771
 40
0.2914509078379764
 40
0.3926862676901316
 40
0.4939535649461604
 40
0.595205524927183
 40
0.6964273623395026
 40
0.7976278363262095
 40
0.8988157647446753
 40
1.0
 40
1.0
 40
1.0
 40
1.0
 10
26.32536077514464
 20
-4.756180506455081
 30
0.0
 10
25.81875242231241
 20
-4.742713169176056
 30
0.0
 10
24.77256201157099
 20
-4.714901943718036
 30
0.0
 10
23.18665929519484
 20
-4.446611036344041
 30
0.0
 10
21.55644011410876
 20
-4.014172146670145
 30
0.0
 10
19.914644407232
 20
-3.41652821054182
 30
0.0
 10
18.26145109400215
 20
-2.679369835293897
 30
0.0
 10
16.60841500659811
 20
-1.834720927697184
 30
0.0
 10
14.95585237508335
 20
-0.9163483802815762
 30
0.0
 10
13.30370457946322
 20
0.0371974041505183
 30
0.0
 10
11.65180443661732
 20
0.9946776986786858
 30
0.0
 10
10.55059478008075
 20
1.592983733860343
 30
0.0
 10
10.00000000000002
 20
1.892131292099066
 30
0.0
  0
LINE
  5
241
330
1F
100
AcDbEntity
  8
외형선
  6
Continuous
 62
     1
370
    15
100
AcDbLine
 10
38.57500000000002
 20
-2.119681962809466
 30
0.0
 11
38.57500000000002
 21
-0.0460581797427153
 31
0.0
  0
SPLINE
  5
242
330
1F
100
AcDbEntity
  8
외형선
  6
Continuous
 62
     1
370
    15
100
AcDbSpline
210
0.0
220
0.0
230
1.0
 70
     8
 71
     3
 72
    22
 73
    18
 74
     0
 42
0.000000001
 43
0.00000001
 40
0.0
 40
0.0
 40
0.0
 40
0.0
 40
0.125
 40
0.125
 40
0.25
 40
0.25
 40
0.375
 40
0.375
 40
0.5
 40
0.5
 40
0.625
 40
0.625
 40
0.75
 40
0.75
 40
0.875
 40
0.875
 40
1.0
 40
1.0
 40
1.0
 40
1.0
 10
36.28900000000001
 20
-3.594962396458733
 30
0.0
 10
36.43282633447033
 20
-3.649387330904194
 30
0.0
 10
36.57238023543669
 20
-3.693331051575697
 30
0.0
 10
36.84582968593475
 20
-3.75903947083285
 30
0.0
 10
36.98101686353329
 20
-3.780685092524877
 30
0.0
 10
37.24319373318239
 20
-3.796106065127979
 30
0.0
 10
37.36872975282122
 20
-3.790075285389456
 30
0.0
 10
37.6114464884166
 20
-3.746123325454654
 30
0.0
 10
37.73013810720831
 20
-3.707380494444941
 30
0.0
 10
37.95101553998028
 20
-3.592418493749918
 30
0.0
 10
38.05474541120835
 20
-3.515710425148786
 30
0.0
 10
38.24110242895788
 20
-3.319600072743931
 30
0.0
 10
38.32271740330851
 20
-3.200903955347034
 30
0.0
 10
38.45384738759987
 20
-2.927129996536955
 30
0.0
 10
38.50203182071494
 20
-2.774503621110277
 30
0.0
 10
38.56288607781699
 20
-2.451868184326386
 30
0.0
 10
38.57500000000002
 20
-2.285722160959004
 30
0.0
 10
38.57500000000002
 20
-2.119681962809466
 30
0.0
  0
SPLINE
  5
243
330
1F
100
AcDbEntity
  8
외형선
  6
Continuous
 62
     1
370
    15
100
AcDbSpline
210
0.0
220
0.0
230
1.0
 70
     8
 71
     3
 72
    20
 73
    16
 74
     0
 42
0.000000001
 43
0.00000001
 40
0.0
 40
0.0
 40
0.0
 40
0.0
 40
0.0160961717155231
 40
0.0984982876420878
 40
0.179442660526791
 40
0.2603521788143948
 40
0.3412373947720381
 40
0.4221097198332392
 40
0.5046340801801409
 40
0.587164615325459
 40
0.6697085352261788
 40
0.7522730130077538
 40
0.8348638942367012
 40
0.9174443990892666
 40
0.9999999999999999
 40
0.9999999999999999
 40
0.9999999999999999
 40
0.9999999999999999
 10
16.27167501066098
 20
4.748643012853133
 30
0.0
 10
16.37907543787022
 20
4.753305693046567
 30
0.0
 10
17.03629743817581
 20
4.781838317014117
 30
0.0
 10
18.23372243206985
 20
4.649615491519565
 30
0.0
 10
19.86367580732855
 20
4.349893691962532
 30
0.0
 10
21.48331048170136
 20
3.868610560737817
 30
0.0
 10
23.10238683852484
 20
3.243162625803347
 30
0.0
 10
24.73215998794078
 20
2.486934910130824
 30
0.0
 10
26.37298748233385
 20
1.627994673714873
 30
0.0
 10
28.02496958387506
 20
0.6980482340952747
 30
0.0
 10
29.67728230701223
 20
-0.259603539260425
 30
0.0
 10
31.33006571065778
 20
-1.207687501455304
 30
0.0
 10
32.98325162391968
 20
-2.104526928077384
 30
0.0
 10
34.63630958988075
 20
-2.927561107147465
 30
0.0
 10
35.73815858605493
 20
-3.372517667777529
 30
0.0
 10
36.28900000000004
 20
-3.594962396458733
 30
0.0
  0
SPLINE
  5
244
330
1F
100
AcDbEntity
  8
외형선
  6
Continuous
 62
     1
370
    15
100
AcDbSpline
210
0.0
220
0.0
230
1.0
 70
     8
 71
     3
 72
    17
 73
    13
 74
     0
 42
0.000000001
 43
0.00000001
 40
0.0
 40
0.0
 40
0.0
 40
0.0
 40
0.1100306171680411
 40
0.2200958956971835
 40
0.3301729161780192
 40
0.4402132768887408
 40
0.5502258913341017
 40
0.6582529420620021
 40
0.7662721480515426
 40
0.8742988272399069
 40
0.9823482696120485
 40
1.0
 40
1.0
 40
1.0
 40
1.0
 10
36.28900000000004
 20
1.692164920233587
 30
0.0
 10
35.73935828781163
 20
1.982292787699933
 30
0.0
 10
34.63990171772003
 20
2.562639917437448
 30
0.0
 10
32.99043079135432
 20
3.312939809281115
 30
0.0
 10
31.3408521801633
 20
3.936165940985685
 30
0.0
 10
29.69170291067895
 20
4.401380906718583
 30
0.0
 10
28.05284574661882
 20
4.690190193444518
 30
0.0
 10
26.42420706193248
 20
4.793286278053312
 30
0.0
 10
24.80550113946041
 20
4.715420449010576
 30
0.0
 10
23.18665150640135
 20
4.442673741706923
 30
0.0
 10
22.01917102132395
 20
4.160124447586636
 30
0.0
 10
21.39122141771443
 20
3.929740784375308
 30
0.0
 10
21.30304087924569
 20
3.897388896007836
 30
0.0
  0
SPLINE
  5
245
330
1F
100
AcDbEntity
  8
외형선
  6
Continuous
 62
     1
370
    15
100
AcDbSpline
210
0.0
220
0.0
230
1.0
 70
     8
 71
     3
 72
    22
 73
    18
 74
     0
 42
0.000000001
 43
0.00000001
 40
0.0
 40
0.0
 40
0.0
 40
0.0
 40
0.125
 40
0.125
 40
0.25
 40
0.25
 40
0.375
 40
0.375
 40
0.5
 40
0.5
 40
0.625
 40
0.625
 40
0.75
 40
0.75
 40
0.875
 40
0.875
 40
1.0
 40
1.0
 40
1.0
 40
1.0
 10
38.57500000000002
 20
-0.0460581797427153
 30
0.0
 10
38.57500000000005
 20
0.0480750169719499
 30
0.0
 10
38.56339218105183
 20
0.1315592214987618
 30
0.0
 10
38.51004398734747
 20
0.2859035177397615
 30
0.0
 10
38.46773890370981
 20
0.3574726073447962
 30
0.0
 10
38.35286743225809
 20
0.4920742090243237
 30
0.0
 10
38.28094188801852
 20
0.5551217631380467
 30
0.0
 10
38.10876232853271
 20
0.6814584058538031
 30
0.0
 10
38.00769947407807
 20
0.745070580502528
 30
0.0
 10
37.78762600611862
 20
0.8740542685607267
 30
0.0
 10
37.66775866557519
 20
0.9401155416694564
 30
0.0
 10
37.40948351255202
 20
1.080679747158896
 30
0.0
 10
37.27437366333141
 20
1.153420829887025
 30
0.0
 10
36.99873312456771
 20
1.303194658425703
 30
0.0
 10
36.85591184274738
 20
1.381482625940151
 30
0.0
 10
36.57175421056068
 20
1.538041743181822
 30
0.0
 10
36.43036743815779
 20
1.615890677138481
 30
0.0
 10
36.28900000000005
 20
1.692164920233587
 30
0.0
  0
LINE
  5
246
330
1F
100
AcDbEntity
  8
외형선
  6
Continuous
370
    15
100
AcDbLine
 10
10.00000000000001
 20
1.892131292099066
 30
0.0
 11
10.00000000000002
 21
3.283272307859288
 31
0.0
  0
SPLINE
  5
247
330
1F
100
AcDbEntity
  8
외형선
  6
Continuous
 62
     1
370
    15
100
AcDbSpline
210
0.0
220
0.0
230
1.0
 70
     8
 71
     3
 72
    16
 73
    12
 74
     0
 42
0.000000001
 43
0.00000001
 40
0.0
 40
0.0
 40
0.0
 40
0.0
 40
0.1191626077734682
 40
0.2417884326412722
 40
0.3609511562843635
 40
0.4840663094711782
 40
0.5646156674123217
 40
0.6471676280124351
 40
0.7809411085277157
 40
0.9152513734438606
 40
0.9999999999999999
 40
0.9999999999999999
 40
0.9999999999999999
 40
0.9999999999999999
 10
36.28900000000002
 20
3.123561406820027
 30
0.0
 10
36.41541810299226
 20
3.06224236441447
 30
0.0
 10
36.67192839217697
 20
2.937822167245809
 30
0.0
 10
37.0377535315558
 20
2.687483855194582
 30
0.0
 10
37.39031069160453
 20
2.405875819074591
 30
0.0
 10
37.68258037494846
 20
2.139724321879221
 30
0.0
 10
37.9215486708005
 20
1.906678273883948
 30
0.0
 10
38.14883825778359
 20
1.676040755265966
 30
0.0
 10
38.37236755460139
 20
1.443844944366681
 30
0.0
 10
38.52401028846453
 20
1.291687711701535
 30
0.0
 10
38.54718837898577
 20
1.284763155625811
 30
0.0
 10
38.55615542581352
 20
1.282084211105527
 30
0.0
  0
SPLINE
  5
248
330
1F
100
AcDbEntity
  8
외형선
  6
Continuous
 62
     1
370
    15
100
AcDbSpline
210
0.0
220
0.0
230
1.0
 70
     8
 71
     3
 72
     8
 73
     4
 74
     0
 42
0.000000001
 43
0.00000001
 40
0.0
 40
0.0
 40
0.0
 40
0.0
 40
1.0
 40
1.0
 40
1.0
 40
1.0
 10
38.57319702192843
 20
1.272483435781346
 30
0.0
 10
38.57442837166079
 20
1.274081892377595
 30
0.0
 10
38.57500000000002
 20
1.276579719683383
 30
0.0
 10
38.57500000000002
 20
1.279919116658341
 30
0.0
  0
LINE
  5
249
330
1F
100
AcDbEntity
  8
외형선
  6
Continuous
 62
     1
370
    15
100
AcDbLine
 10
38.57500000000002
 20
-0.0460581797427153
 30
0.0
 11
38.57500000000002
 21
1.279919116658341
 31
0.0
  0
SPLINE
  5
24A
330
1F
100
AcDbEntity
  8
외형선
  6
Continuous
 62
     1
370
    15
100
AcDbSpline
210
0.0
220
0.0
230
1.0
 70
     8
 71
     3
 72
    12
 73
     8
 74
     0
 42
0.000000001
 43
0.00000001
 40
0.0
 40
0.0
 40
0.0
 40
0.0
 40
0.0634933491896683
 40
0.2975962274341209
 40
0.531773969871882
 40
0.7659222911876089
 40
1.0
 40
1.0
 40
1.0
 40
1.0
 10
29.22891759828114
 20
4.744711613710404
 30
0.0
 10
29.37832998755346
 20
4.750271760625633
 30
0.0
 10
30.07863267983293
 20
4.776332423152777
 30
0.0
 10
31.33006889362407
 20
4.631997106600092
 30
0.0
 10
32.98325077512465
 20
4.308526927364976
 30
0.0
 10
34.63630980199378
 20
3.807111510279181
 30
0.0
 10
35.73815865675216
 20
3.351388532327828
 30
0.0
 10
36.28900000000004
 20
3.123561406820027
 30
0.0
  0
LINE
  5
24B
330
1F
100
AcDbEntity
  8
외형선
  6
Continuous
 62
     1
370
    15
100
AcDbLine
 10
38.57500000000002
 20
1.279919116658341
 30
0.0
 11
38.57500000000002
 21
3.239574928723969
 31
0.0
  0
SPLINE
  5
24C
330
1F
100
AcDbEntity
  8
외형선
  6
Continuous
 62
     1
370
    15
100
AcDbSpline
210
0.0
220
0.0
230
1.0
 70
     8
 71
     3
 72
    10
 73
     6
 74
     0
 42
0.000000001
 43
0.00000001
 40
0.0
 40
0.0
 40
0.0
 40
0.0
 40
0.0188895996807114
 40
0.5094537521604324
 40
1.0
 40
1.0
 40
1.0
 40
1.0
 10
13.36725128876729
 20
-4.757898722969912
 30
0.0
 10
13.34604867692831
 20
-4.759065592933354
 30
0.0
 10
12.77421283394836
 20
-4.790536152987961
 30
0.0
 10
11.65180783736906
 20
-4.685644724655894
 30
0.0
 10
10.55059591365089
 20
-4.475138591629914
 30
0.0
 10
10.00000000000002
 20
-4.369887445918373
 30
0.0
  0
LINE
  5
24D
330
1F
100
AcDbEntity
  8
외형선
  6
Continuous
 62
     1
370
    15
100
AcDbLine
 10
38.57500000000002
 20
-3.237425071276136
 30
0.0
 11
38.57500000000002
 21
-2.119681962809466
 31
0.0
  0
LINE
  5
24E
330
1F
100
AcDbEntity
  8
외형선
  6
Continuous
370
    15
100
AcDbLine
 10
10.00000000000001
 20
-4.369887445918366
 30
0.0
 11
10.00000000000002
 21
-3.449807076560663
 31
0.0
  0
SPLINE
  5
24F
330
1F
100
AcDbEntity
  8
외형선
  6
Continuous
370
    15
100
AcDbSpline
210
0.0
220
0.0
230
1.0
 70
     8
 71
     3
 72
     8
 73
     4
 74
     0
 42
0.000000001
 43
0.00000001
 40
0.0
 40
0.0
 40
0.0
 40
0.0
 40
1.0
 40
1.0
 40
1.0
 40
1.0
 10
10.00000000000002
 20
4.372037303366167
 30
0.0
 10
9.916655704198867
 20
4.352968822969142
 30
0.0
 10
9.8332848173143
 20
4.333231522621627
 30
0.0
 10
9.749944547680506
 20
4.312838977873664
 30
0.0
  0
LINE
  5
250
330
1F
100
AcDbEntity
  8
외형선
  6
Continuous
370
    15
100
AcDbLine
 10
9.749944547680506
 20
3.386128532153688
 30
0.0
 11
9.749944547680506
 21
4.763574928723894
 31
0.0
  0
SPLINE
  5
251
330
1F
100
AcDbEntity
  8
외형선
  6
Continuous
370
    15
100
AcDbSpline
210
0.0
220
0.0
230
1.0
 70
     8
 71
     3
 72
     8
 73
     4
 74
     0
 42
0.000000001
 43
0.00000001
 40
0.0
 40
0.0
 40
0.0
 40
0.0
 40
1.0
 40
1.0
 40
1.0
 40
1.0
 10
10.00000000000002
 20
3.283272307859274
 30
0.0
 10
9.916655704198853
 20
3.318069301298816
 30
0.0
 10
9.833284817314315
 20
3.352369292916602
 30
0.0
 10
9.74994454768052
 20
3.386148770905418
 30
0.0
  0
SPLINE
  5
252
330
1F
100
AcDbEntity
  8
외형선
  6
Continuous
370
    15
100
AcDbSpline
210
0.0
220
0.0
230
1.0
 70
     8
 71
     3
 72
     8
 73
     4
 74
     0
 42
0.000000001
 43
0.00000001
 40
0.0
 40
0.0
 40
0.0
 40
0.0
 40
1.0
 40
1.0
 40
1.0
 40
1.0
 10
10.00000000000002
 20
1.892131292099066
 30
0.0
 10
9.916655704198867
 20
1.93620592253906
 30
0.0
 10
9.8332848173143
 20
1.979996756809335
 30
0.0
 10
9.749944547680506
 20
2.023473760423443
 30
0.0
  0
SPLINE
  5
253
330
1F
100
AcDbEntity
  8
외형선
  6
Continuous
370
    15
100
AcDbSpline
210
0.0
220
0.0
230
1.0
 70
     8
 71
     3
 72
     8
 73
     4
 74
     0
 42
0.000000001
 43
0.00000001
 40
0.0
 40
0.0
 40
0.0
 40
0.0
 40
1.0
 40
1.0
 40
1.0
 40
1.0
 10
10.00000000000002
 20
-3.449807076560667
 30
0.0
 10
9.916655704198853
 20
-3.416711015758185
 30
0.0
 10
9.833284817314315
 20
-3.383085002522662
 30
0.0
 10
9.74994454768052
 20
-3.348952135790409
 30
0.0
  0
SPLINE
  5
254
330
1F
100
AcDbEntity
  8
외형선
  6
Continuous
370
    15
100
AcDbSpline
210
0.0
220
0.0
230
1.0
 70
     8
 71
     3
 72
     8
 73
     4
 74
     0
 42
0.000000001
 43
0.00000001
 40
0.0
 40
0.0
 40
0.0
 40
0.0
 40
1.0
 40
1.0
 40
1.0
 40
1.0
 10
10.00000000000002
 20
-4.369887445918369
 30
0.0
 10
9.916655704198867
 20
-4.350818965521356
 30
0.0
 10
9.8332848173143
 20
-4.331081665173837
 30
0.0
 10
9.749944547680506
 20
-4.31068912042587
 30
0.0
  0
LINE
  5
255
330
1F
100
AcDbEntity
  8
외형선
  6
Continuous
370
    15
100
AcDbLine
 10
9.749944547680506
 20
-4.761425071276104
 30
0.0
 11
9.749944547680506
 21
-4.310681820568071
 31
0.0
  0
LINE
  5
256
330
1F
100
AcDbEntity
  8
외형선
  6
Continuous
370
    15
100
AcDbLine
 10
-36.67249999999999
 20
0.0010749287238951
 30
0.0
 11
-36.67249999999999
 21
4.763574928723894
 31
0.0
  0
LINE
  5
257
330
1F
100
AcDbEntity
  8
외형선
  6
Continuous
370
    15
100
AcDbLine
 10
-36.67249999999999
 20
-4.761425071276104
 30
0.0
 11
-36.67249999999999
 21
0.0010749287238951
 31
0.0
  0
LINE
  5
258
330
1F
100
AcDbEntity
  8
외형선
  6
Continuous
370
    15
100
AcDbLine
 10
9.749944547680506
 20
-3.34897258614912
 30
0.0
 11
9.749944547680506
 21
2.023489323682369
 31
0.0
  0
LINE
  5
259
330
1F
100
AcDbEntity
  8
외형선
  6
Continuous
370
    15
100
AcDbLine
 10
-37.62499999999999
 20
0.0010749287238951
 30
0.0
 11
-37.62499999999999
 21
3.811074928723894
 31
0.0
  0
LINE
  5
25A
330
1F
100
AcDbEntity
  8
외형선
  6
Continuous
370
    15
100
AcDbLine
 10
-37.62499999999999
 20
-3.808925071276107
 30
0.0
 11
-37.62499999999999
 21
0.0010749287238951
 31
0.0
  0
SPLINE
  5
25B
330
1F
100
AcDbEntity
  8
외형선
  6
Continuous
370
    15
100
AcDbSpline
210
0.0
220
0.0
230
1.0
 70
    24
 71
     3
 72
    22
 73
    18
 74
     0
 42
0.000000001
 43
0.00000001
 40
0.0
 40
0.0
 40
0.0
 40
0.0
 40
0.125
 40
0.125
 40
0.2500000000000001
 40
0.2500000000000001
 40
0.3750000000000001
 40
0.3750000000000001
 40
0.5000000000000001
 40
0.5000000000000001
 40
0.6250000000000001
 40
0.6250000000000001
 40
0.7500000000000002
 40
0.7500000000000002
 40
0.8750000000000002
 40
0.8750000000000002
 40
1.0
 40
1.0
 40
1.0
 40
1.0
 10
10.00000000000002
 20
-3.449807076560663
 30
0.0
 10
10.00000000000004
 20
-3.29078783671552
 30
0.0
 10
10.00000000000002
 20
-3.069388667146676
 30
0.0
 10
10.00000000000004
 20
-2.511417894998331
 30
0.0
 10
10.00000000000001
 20
-2.175127191697008
 30
0.0
 10
10.00000000000002
 20
-1.454659210214778
 30
0.0
 10
10.00000000000002
 20
-1.072567209779073
 30
0.0
 10
10.00000000000002
 20
-0.3498971311835106
 30
0.0
 10
10.00000000000002
 20
-0.0105689223341372
 30
0.0
 10
10.00000000000002
 20
0.5756100566596629
 30
0.0
 10
10.00000000000002
 20
0.8229684178784851
 30
0.0
 10
10.00000000000001
 20
1.223977556447601
 30
0.0
 10
10.00000000000001
 20
1.378497888809051
 30
0.0
 10
10.00000000000002
 20
1.61616304348918
 30
0.0
 10
10.00000000000002
 20
1.699756417849962
 30
0.0
 10
10.00000000000001
 20
1.819755243650498
 30
0.0
 10
10.00000000000002
 20
1.868335182160465
 30
0.0
 10
10.00000000000004
 20
1.892131292096494
 30
0.0
  0
SPLINE
  5
25C
330
1F
100
AcDbEntity
  8
외형선
  6
Continuous
370
    15
100
AcDbSpline
210
0.0
220
0.0
230
1.0
 70
    24
 71
     3
 72
    11
 73
     7
 74
     0
 42
0.000000001
 43
0.00000001
 40
0.0
 40
0.0
 40
0.0
 40
0.0
 40
0.0590078575844959
 40
0.494177591230034
 40
0.9419672766317981
 40
1.0
 40
1.0
 40
1.0
 40
1.0
 10
10.00000000000001
 20
3.336094750806819
 30
0.0
 10
10.00000000000001
 20
3.354302815553677
 30
0.0
 10
9.999999999999993
 20
3.506791279732791
 30
0.0
 10
9.999999999999979
 20
3.834758893685358
 30
0.0
 10
10.00000000000009
 20
4.168268176006787
 30
0.0
 10
10.00000000000002
 20
4.351065112571913
 30
0.0
 10
10.00000000000002
 20
4.372037303341468
 30
0.0
  0
LINE
  5
25D
330
1F
100
AcDbEntity
  8
중심선
 62
     1
100
AcDbLine
 10
-40.62499999999999
 20
0.001074928723888
 30
0.0
 11
41.575
 21
0.0010749287239022
 31
0.0
  0
CIRCLE
  5
25E
330
1F
100
AcDbEntity
  8
해칭선
100
AcDbCircle
 10
0.0
 20
0.0
 30
0.0
 40
3.000000000000002
  0
DIMENSION
  5
25F
330
1F
100
AcDbEntity
  8
치수문자_일반주서
100
AcDbDimension
  2
*D13
 10
-50.30749999999998
 20
-4.76142507127616
 30
0.0
 11
-50.3075
 21
0.0010749287238951
 31
0.0
 70
   160
  1
%%c<>
 71
     2
 42
9.525000000000002
 52
-270.0
  3
SLDDIMSTYLE0
100
AcDbAlignedDimension
 13
-36.67249999999999
 23
4.763574928723894
 33
0.0
 14
-36.67249999999999
 24
-4.761425071276108
 34
0.0
 50
90.0000000000002
100
AcDbRotatedDimension
1001
ACAD
1000
DSTYLE
1002
{
1070
   171
1070
     6
1070
   273
1070
     7
1002
}
  0
DIMENSION
  5
260
330
1F
100
AcDbEntity
  8
치수문자_일반주서
100
AcDbDimension
  2
*D14
 10
10.00000000000002
 20
13.02790974668543
 30
0.0
 11
24.28750000000003
 21
13.02790974668543
 31
0.0
 70
   160
  1
<>
 71
     2
 42
28.57500000000001
  3
SLDDIMSTYLE0
100
AcDbAlignedDimension
 13
38.57500000000002
 23
2.477126366009937
 33
0.0
 14
10.00000000000002
 24
4.372037303341468
 34
0.0
 50
-0.0000000000000855
100
AcDbRotatedDimension
1001
ACAD
1000
DSTYLE
1002
{
1070
   171
1070
     6
1070
   273
1070
     7
1002
}
  0
DIMENSION
  5
261
330
1F
100
AcDbEntity
  8
치수문자_일반주서
100
AcDbDimension
  2
*D15
 10
-37.62499999999998
 20
24.81068580393409
 30
0.0
 11
0.4750000000000227
 21
24.81068580393409
 31
0.0
 70
   160
  1
<>
 71
     2
 42
76.20000000000002
  3
SLDDIMSTYLE1
100
AcDbAlignedDimension
 13
38.57500000000002
 23
2.477126366009937
 33
0.0
 14
-37.62499999999999
 24
3.811074928723894
 34
0.0
 50
0.0000000000000027
100
AcDbRotatedDimension
1001
ACAD
1000
DSTYLE
1002
{
1070
   171
1070
     6
1070
   273
1070
     7
1002
}
  0
DIMENSION
  5
262
330
1F
100
AcDbEntity
  8
치수문자_일반주서
100
AcDbDimension
  2
*D16
 10
53.85735640438831
 20
-4.761425071275969
 30
0.0
 11
53.85735640438821
 21
21.19057492872404
 31
0.0
 70
   160
  1
%%c<>
 71
     2
 42
9.525000000000002
 52
-270.0
  3
SLDDIMSTYLE2
100
AcDbAlignedDimension
 13
16.27213405711732
 23
4.763574928723894
 33
0.0
 14
16.27213405711726
 24
-4.761425071276108
 34
0.0
 50
90.0000000000002
100
AcDbRotatedDimension
1001
ACAD
1000
DSTYLE
1002
{
1070
   171
1070
     6
1070
   273
1070
     7
1002
}
  0
INSERT
  5
263
330
1F
100
AcDbEntity
  8
해칭선
100
AcDbBlockReference
  2
SW_DOWELSYMBOL_0
 10
0.0
 20
0.0
 30
0.0
  0
SPLINE
  5
264
330
1F
100
AcDbEntity
  8
외형선
  6
Continuous
 62
     1
370
    15
100
AcDbSpline
210
0.0
220
0.0
230
1.0
 70
     8
 71
     3
 72
     9
 73
     5
 74
     0
 42
0.000000001
 43
0.00000001
 40
0.0
 40
0.0
 40
0.0
 40
0.0
 40
0.8108778891903338
 40
0.9605304679392611
 40
0.9605304679392611
 40
0.9605304679392611
 40
0.9605304679392611
 10
37.05100000000002
 20
4.763574928723969
 30
0.0
 10
35.73936448154056
 20
4.643761714703327
 30
0.0
 10
35.08829029542716
 20
4.501836223747514
 30
0.0
 10
34.43715711205402
 20
4.268721067579616
 30
0.0
 10
33.85391911674254
 20
4.036846488408468
 30
0.0
  0
SPLINE
  5
267
330
1F
100
AcDbEntity
  8
외형선
  6
Continuous
 62
     1
370
    15
100
AcDbSpline
210
0.0
220
0.0
230
1.0
 70
     8
 71
     3
 72
    22
 73
    18
 74
     0
 42
0.000000001
 43
0.00000001
 40
0.0
 40
0.0
 40
0.0
 40
0.0
 40
0.0679548076840252
 40
0.1359123043527358
 40
0.2038787780868583
 40
0.2718604913488348
 40
0.3398636632005454
 40
0.4066638180001235
 40
0.4734352086941973
 40
0.5401865436469577
 40
0.60692724025826
 40
0.6750312955427632
 40
0.7431404466415321
 40
0.8112606436438133
 40
0.8793978062432652
 40
0.9475567585522268
 40
0.9661486085785639
 40
0.9661486085785639
 40
0.9661486085785639
 40
0.9661486085785639
 10
10.00000000000004
 20
3.283272307859274
 30
0.0
 10
10.54938929875045
 20
3.040723658562282
 30
0.0
 10
11.64818963569051
 20
2.555616762272049
 30
0.0
 10
13.29648161400818
 20
1.691213129484574
 30
0.0
 10
14.94503734061767
 20
0.7688528390390985
 30
0.0
 10
16.59403083657765
 20
-0.1866843650183014
 30
0.0
 10
18.23371692201463
 20
-1.128463451500764
 30
0.0
 10
19.86367727209717
 20
-2.020346673577905
 30
0.0
 10
21.48331008869224
 20
-2.829331635293414
 30
0.0
 10
23.10238694650811
 20
-3.529472851109237
 30
0.0
 10
24.73215994789978
 20
-4.097796565671743
 30
0.0
 10
26.37298753313235
 20
-4.508972616584984
 30
0.0
 10
28.02496942131007
 20
-4.742216966190952
 30
0.0
 10
29.67728290663533
 20
-4.787135215287698
 30
0.0
 10
31.33006347386669
 20
-4.635471904069718
 30
0.0
 10
32.58251942919659
 20
-4.394378025191095
 30
0.0
 10
33.28397218467686
 20
-4.193693264384068
 30
0.0
 10
33.90934196773834
 20
-4.014228922142047
 30
0.0
  0
SPLINE
  5
268
330
1F
100
AcDbEntity
  8
외형선
  6
Continuous
 62
     1
370
    15
100
AcDbSpline
210
0.0
220
0.0
230
1.0
 70
  1064
 71
     3
 72
    11
 73
     7
 74
     5
 42
0.000000001
 43
0.0000000001
 44
0.0
 40
0.0
 40
0.0
 40
0.0
 40
0.0
 40
5.895534551000406
 40
16.0767709288811
 40
21.82526894362037
 40
25.6017509194138
 40
25.6017509194138
 40
25.6017509194138
 40
25.6017509194138
 10
37.05100000000002
 20
-4.761425071276165
 30
0.0
 10
35.12220992449785
 20
-4.329657409290898
 30
0.0
 10
29.86251448119225
 20
-3.152252759010659
 30
0.0
 10
23.69749797676641
 20
0.9571177075849215
 30
0.0
 10
17.52874294246819
 20
3.235836669604273
 30
0.0
 10
14.54876037870059
 20
4.329827419322203
 30
0.0
 10
13.3672512887673
 20
4.763574928723894
 30
0.0
 11
37.05100000000002
 21
-4.761425071276165
 31
0.0
 11
31.36124705983247
 21
-3.217391677241459
 31
0.0
 11
22.24648720456496
 21
1.318986499573711
 31
0.0
 11
16.91204249664342
 21
3.461165083069769
 31
0.0
 11
13.3672512887673
 21
4.763574928723894
 31
0.0
  0
SPLINE
  5
269
330
1F
100
AcDbEntity
  8
외형선
  6
Continuous
 62
     1
370
    15
100
AcDbSpline
210
0.0
220
0.0
230
1.0
 70
  1064
 71
     3
 72
     9
 73
     5
 74
     3
 42
0.000000001
 43
0.0000000001
 44
0.0
 40
0.0
 40
0.0
 40
0.0
 40
0.0
 40
2.403988870568245
 40
3.401555972243182
 40
3.401555972243182
 40
3.401555972243182
 40
3.401555972243182
 10
13.3672512887673
 20
4.763574928723894
 30
0.0
 10
12.55702018325571
 20
4.802626631743058
 30
0.0
 10
11.41057292237522
 20
4.857883357453147
 30
0.0
 10
10.3198685552168
 20
4.530537367242743
 30
0.0
 10
10.00000000000002
 20
4.434537303341468
 30
0.0
 11
13.3672512887673
 21
4.763574928723894
 31
0.0
 11
10.96439989165638
 21
4.689631347406287
 31
0.0
 11
10.00000000000002
 21
4.434537303341468
 31
0.0
  0
LINE
  5
2A8
330
1F
100
AcDbEntity
  8
0
100
AcDbLine
 10
38.57381775778385
 20
2.551085565476125
 30
0.0
 11
38.57500000000002
 21
2.551085565476125
 31
0.0
  0
ARC
  5
2AB
330
1F
100
AcDbEntity
  8
외형선
  6
Continuous
 62
     1
370
    15
100
AcDbCircle
 10
37.05100000000002
 20
3.239574928723969
 30
0.0
 40
1.524
100
AcDbArc
 50
0.0
 51
90.00000000000026
  0
ARC
  5
2AC
102
{ACAD_REACTORS
102
}
330
1F
100
AcDbEntity
  8
외형선
  6
Continuous
 62
     1
370
    15
100
AcDbCircle
 10
37.05100000000002
 20
-3.237425071276166
 30
0.0
 40
1.524
100
AcDbArc
 50
269.9999999999998
 51
0.0
  0
DIMENSION
  5
2AD
102
{ACAD_REACTORS
102
}
102
{ACAD_XDICTIONARY
360
2AE
102
}
330
1F
100
AcDbEntity
  8
치수문자_일반주서
100
AcDbDimension
  2
*D18
 10
37.05100000000002
 20
-3.237425071276166
 30
0.0
 11
54.51831907401365
 21
-23.16985526346798
 31
0.0
 70
   164
  1
<>
 71
     5
 42
1.524000000000001
  3
SLDDIMSTYLE2
100
AcDbRadialDimension
 15
38.0554219246424
 25
-4.383598093684963
 35
0.0
 40
0.0
1001
ACAD
1000
DSTYLE
1002
{
1070
   171
1070
     2
1070
   273
1070
     2
1002
}
1001
ACAD_DSTYLE_DIMRADIAL_EXTENSION
1070
   387
1070
     1
1070
   388
1040
4.712388980384685
1070
   390
1040
0.0
  0
ENDSEC
  0
SECTION
  2
OBJECTS
  0
DICTIONARY
  5
C
330
0
100
AcDbDictionary
281
     1
  3
ACAD_GROUP
350
D
  3
ACAD_IMAGE_VARS
350
152
  3
ACAD_LAYOUT
350
1A
  3
ACAD_MLINESTYLE
350
17
  3
ACAD_PLOTSETTINGS
350
19
  3
ACAD_PLOTSTYLENAME
350
E
  3
ACAD_SCALELIST
350
47
  3
APPDATA
350
150
  3
DWGPROPS
350
2BB
  0
DICTIONARY
  5
2AE
330
2AD
100
AcDbDictionary
280
     1
281
     1
  0
DICTIONARY
  5
D
102
{ACAD_REACTORS
330
C
102
}
330
C
100
AcDbDictionary
281
     1
  0
RASTERVARIABLES
  5
152
102
{ACAD_REACTORS
330
C
102
}
330
C
100
AcDbRasterVariables
 90
        0
 70
     1
 71
     1
 72
     1
  0
DICTIONARY
  5
1A
102
{ACAD_REACTORS
330
C
102
}
330
C
100
AcDbDictionary
281
     1
  3
Layout1
350
1E
  3
Layout2
350
26
  3
Model
350
22
  0
DICTIONARY
  5
17
102
{ACAD_REACTORS
330
C
102
}
330
C
100
AcDbDictionary
281
     1
  3
Standard
350
18
  0
DICTIONARY
  5
19
102
{ACAD_REACTORS
330
C
102
}
330
C
100
AcDbDictionary
281
     1
  0
ACDBDICTIONARYWDFLT
  5
E
102
{ACAD_REACTORS
330
C
102
}
330
C
100
AcDbDictionary
281
     1
  3
Normal
350
F
100
AcDbDictionaryWithDefault
340
F
  0
DICTIONARY
  5
47
102
{ACAD_REACTORS
330
C
102
}
330
C
100
AcDbDictionary
281
     1
  3
A0
350
48
  3
A1
350
49
  3
A2
350
4A
  3
A3
350
4B
  3
A4
350
4C
  3
A5
350
4D
  3
A6
350
4E
  3
A7
350
4F
  3
A8
350
50
  3
A9
350
51
  3
B0
350
52
  3
B1
350
53
  3
B2
350
54
  3
B3
350
55
  3
B4
350
56
  3
B5
350
57
  3
B6
350
58
  3
B7
350
59
  3
B8
350
5A
  3
B9
350
5B
  3
C0
350
5C
  3
C1
350
5D
  3
C2
350
5E
  3
C3
350
5F
  3
C4
350
60
  3
C5
350
61
  3
C6
350
62
  3
C7
350
63
  3
C8
350
64
  3
C9
350
65
  3
D0
350
66
  3
D1
350
67
  3
D2
350
68
  0
DICTIONARY
  5
150
102
{ACAD_REACTORS
330
C
102
}
330
C
100
AcDbDictionary
281
     1
  0
XRECORD
  5
2BB
102
{ACAD_REACTORS
330
C
102
}
330
C
100
AcDbXrecord
280
     1
  1
DWGPROPS COOKIE
  2

  3

  4

  6

  7

  8
12016016
  9

300
=
301
=
302
=
303
=
304
=
305
=
306
=
307
=
308
=
309
=
 40
0.0
 41
2458304.075007454
 42
2458304.191376586
  1

 90
        0
  0
LAYOUT
  5
1E
102
{ACAD_REACTORS
330
1A
102
}
330
1A
100
AcDbPlotSettings
  1

  2
none_device
  4

  6

 40
0.0
 41
0.0
 42
0.0
 43
0.0
 44
0.0
 45
0.0
 46
0.0
 47
0.0
 48
0.0
 49
0.0
140
0.0
141
0.0
142
1.0
143
1.0
 70
   688
 72
     1
 73
     0
 74
     5
  7

 75
    16
147
1.0
148
0.0
149
0.0
100
AcDbLayout
  1
Layout1
 70
     1
 71
     1
 10
0.0
 20
0.0
 11
420.0
 21
297.0
 12
0.0
 22
0.0
 32
0.0
 14
1.000000000000000E+20
 24
1.000000000000000E+20
 34
1.000000000000000E+20
 15
-1.000000000000000E+20
 25
-1.000000000000000E+20
 35
-1.000000000000000E+20
146
0.0
 13
0.0
 23
0.0
 33
0.0
 16
1.0
 26
0.0
 36
0.0
 17
0.0
 27
1.0
 37
0.0
 76
     0
330
1B
  0
LAYOUT
  5
26
102
{ACAD_REACTORS
330
1A
102
}
330
1A
100
AcDbPlotSettings
  1

  2
none_device
  4

  6

 40
0.0
 41
0.0
 42
0.0
 43
0.0
 44
0.0
 45
0.0
 46
0.0
 47
0.0
 48
0.0
 49
0.0
140
0.0
141
0.0
142
1.0
143
1.0
 70
   688
 72
     1
 73
     0
 74
     5
  7

 75
    16
147
1.0
148
0.0
149
0.0
100
AcDbLayout
  1
Layout2
 70
     1
 71
     2
 10
0.0
 20
0.0
 11
0.0
 21
0.0
 12
0.0
 22
0.0
 32
0.0
 14
0.0
 24
0.0
 34
0.0
 15
0.0
 25
0.0
 35
0.0
146
0.0
 13
0.0
 23
0.0
 33
0.0
 16
1.0
 26
0.0
 36
0.0
 17
0.0
 27
1.0
 37
0.0
 76
     0
330
23
  0
LAYOUT
  5
22
102
{ACAD_REACTORS
330
1A
102
}
330
1A
100
AcDbPlotSettings
  1

  2
none_device
  4
ANSI_A_(11.00_x_8.50_Inches)
  6

 40
6.35
 41
19.05
 42
6.35000508
 43
19.05000254
 44
279.4
 45
215.9
 46
102.6340764536461
 47
101.5494817764549
 48
0.0
 49
0.0
140
0.0
141
0.0
142
0.0693238184842836
143
1.0
 70
  1696
 72
     0
 73
     0
 74
     0
  7

 75
     0
147
0.0235690232323232
148
0.0
149
0.0
100
AcDbLayout
  1
Model
 70
     1
 71
     0
 10
0.0
 20
0.0
 11
420.0
 21
297.0
 12
0.0
 22
0.0
 32
0.0
 14
1.000000000000000E+20
 24
1.000000000000000E+20
 34
1.000000000000000E+20
 15
-1.000000000000000E+20
 25
-1.000000000000000E+20
 35
-1.000000000000000E+20
146
0.0
 13
0.0
 23
0.0
 33
0.0
 16
1.0
 26
0.0
 36
0.0
 17
0.0
 27
1.0
 37
0.0
 76
     0
330
1F
331
29
  0
MLINESTYLE
  5
18
102
{ACAD_REACTORS
330
17
102
}
330
17
100
AcDbMlineStyle
  2
Standard
 70
     0
  3

 62
   256
 51
90.0
 52
90.0
 71
     2
 49
0.5
 62
   256
  6
BYLAYER
 49
-0.5
 62
   256
  6
BYLAYER
  0
ACDBPLACEHOLDER
  5
F
102
{ACAD_REACTORS
330
E
102
}
330
E
  0
SCALE
  5
48
102
{ACAD_REACTORS
330
47
102
}
330
47
100
AcDbScale
 70
     0
300
1:1
140
1.0
141
1.0
290
     1
  0
SCALE
  5
49
102
{ACAD_REACTORS
330
47
102
}
330
47
100
AcDbScale
 70
     0
300
1:2
140
1.0
141
2.0
290
     0
  0
SCALE
  5
4A
102
{ACAD_REACTORS
330
47
102
}
330
47
100
AcDbScale
 70
     0
300
1:4
140
1.0
141
4.0
290
     0
  0
SCALE
  5
4B
102
{ACAD_REACTORS
330
47
102
}
330
47
100
AcDbScale
 70
     0
300
1:5
140
1.0
141
5.0
290
     0
  0
SCALE
  5
4C
102
{ACAD_REACTORS
330
47
102
}
330
47
100
AcDbScale
 70
     0
300
1:8
140
1.0
141
8.0
290
     0
  0
SCALE
  5
4D
102
{ACAD_REACTORS
330
47
102
}
330
47
100
AcDbScale
 70
     0
300
1:10
140
1.0
141
10.0
290
     0
  0
SCALE
  5
4E
102
{ACAD_REACTORS
330
47
102
}
330
47
100
AcDbScale
 70
     0
300
1:16
140
1.0
141
16.0
290
     0
  0
SCALE
  5
4F
102
{ACAD_REACTORS
330
47
102
}
330
47
100
AcDbScale
 70
     0
300
1:20
140
1.0
141
20.0
290
     0
  0
SCALE
  5
50
102
{ACAD_REACTORS
330
47
102
}
330
47
100
AcDbScale
 70
     0
300
1:30
140
1.0
141
30.0
290
     0
  0
SCALE
  5
51
102
{ACAD_REACTORS
330
47
102
}
330
47
100
AcDbScale
 70
     0
300
1:40
140
1.0
141
40.0
290
     0
  0
SCALE
  5
52
102
{ACAD_REACTORS
330
47
102
}
330
47
100
AcDbScale
 70
     0
300
1:50
140
1.0
141
50.0
290
     0
  0
SCALE
  5
53
102
{ACAD_REACTORS
330
47
102
}
330
47
100
AcDbScale
 70
     0
300
1:100
140
1.0
141
100.0
290
     0
  0
SCALE
  5
54
102
{ACAD_REACTORS
330
47
102
}
330
47
100
AcDbScale
 70
     0
300
2:1
140
2.0
141
1.0
290
     0
  0
SCALE
  5
55
102
{ACAD_REACTORS
330
47
102
}
330
47
100
AcDbScale
 70
     0
300
4:1
140
4.0
141
1.0
290
     0
  0
SCALE
  5
56
102
{ACAD_REACTORS
330
47
102
}
330
47
100
AcDbScale
 70
     0
300
8:1
140
8.0
141
1.0
290
     0
  0
SCALE
  5
57
102
{ACAD_REACTORS
330
47
102
}
330
47
100
AcDbScale
 70
     0
300
10:1
140
10.0
141
1.0
290
     0
  0
SCALE
  5
58
102
{ACAD_REACTORS
330
47
102
}
330
47
100
AcDbScale
 70
     0
300
100:1
140
100.0
141
1.0
290
     0
  0
SCALE
  5
59
102
{ACAD_REACTORS
330
47
102
}
330
47
100
AcDbScale
 70
     0
300
1/128" = 1'-0"
140
0.0078125
141
12.0
290
     0
  0
SCALE
  5
5A
102
{ACAD_REACTORS
330
47
102
}
330
47
100
AcDbScale
 70
     0
300
1/64" = 1'-0"
140
0.015625
141
12.0
290
     0
  0
SCALE
  5
5B
102
{ACAD_REACTORS
330
47
102
}
330
47
100
AcDbScale
 70
     0
300
1/32" = 1'-0"
140
0.03125
141
12.0
290
     0
  0
SCALE
  5
5C
102
{ACAD_REACTORS
330
47
102
}
330
47
100
AcDbScale
 70
     0
300
1/16" = 1'-0"
140
0.0625
141
12.0
290
     0
  0
SCALE
  5
5D
102
{ACAD_REACTORS
330
47
102
}
330
47
100
AcDbScale
 70
     0
300
3/32" = 1'-0"
140
0.09375
141
12.0
290
     0
  0
SCALE
  5
5E
102
{ACAD_REACTORS
330
47
102
}
330
47
100
AcDbScale
 70
     0
300
1/8" = 1'-0"
140
0.125
141
12.0
290
     0
  0
SCALE
  5
5F
102
{ACAD_REACTORS
330
47
102
}
330
47
100
AcDbScale
 70
     0
300
3/16" = 1'-0"
140
0.1875
141
12.0
290
     0
  0
SCALE
  5
60
102
{ACAD_REACTORS
330
47
102
}
330
47
100
AcDbScale
 70
     0
300
1/4" = 1'-0"
140
0.25
141
12.0
290
     0
  0
SCALE
  5
61
102
{ACAD_REACTORS
330
47
102
}
330
47
100
AcDbScale
 70
     0
300
3/8" = 1'-0"
140
0.375
141
12.0
290
     0
  0
SCALE
  5
62
102
{ACAD_REACTORS
330
47
102
}
330
47
100
AcDbScale
 70
     0
300
1/2" = 1'-0"
140
0.5
141
12.0
290
     0
  0
SCALE
  5
63
102
{ACAD_REACTORS
330
47
102
}
330
47
100
AcDbScale
 70
     0
300
3/4" = 1'-0"
140
0.75
141
12.0
290
     0
  0
SCALE
  5
64
102
{ACAD_REACTORS
330
47
102
}
330
47
100
AcDbScale
 70
     0
300
1" = 1'-0"
140
1.0
141
12.0
290
     0
  0
SCALE
  5
65
102
{ACAD_REACTORS
330
47
102
}
330
47
100
AcDbScale
 70
     0
300
1-1/2" = 1'-0"
140
1.5
141
12.0
290
     0
  0
SCALE
  5
66
102
{ACAD_REACTORS
330
47
102
}
330
47
100
AcDbScale
 70
     0
300
3" = 1'-0"
140
3.0
141
12.0
290
     0
  0
SCALE
  5
67
102
{ACAD_REACTORS
330
47
102
}
330
47
100
AcDbScale
 70
     0
300
6" = 1'-0"
140
6.0
141
12.0
290
     0
  0
SCALE
  5
68
102
{ACAD_REACTORS
330
47
102
}
330
47
100
AcDbScale
 70
     0
300
1'-0" = 1'-0"
140
12.0
141
12.0
290
     0
  0
ENDSEC
  0
EOF
