  0
SECTION
  2
HEADER
  9
$ACADVER
  1
AC1015
  9
$ACADMAINTVER
 70
     6
  9
$DWGCODEPAGE
  3
ANSI_949
  9
$INSBASE
 10
0.0
 20
0.0
 30
0.0
  9
$EXTMIN
 10
1.000000000000000E+20
 20
1.000000000000000E+20
 30
1.000000000000000E+20
  9
$EXTMAX
 10
-1.000000000000000E+20
 20
-1.000000000000000E+20
 30
-1.000000000000000E+20
  9
$LIMMIN
 10
0.0
 20
0.0
  9
$LIMMAX
 10
420.0
 20
297.0
  9
$ORTHOMODE
 70
     0
  9
$REGENMODE
 70
     1
  9
$FILLMODE
 70
     1
  9
$QTEXTMODE
 70
     0
  9
$MIRRTEXT
 70
     1
  9
$LTSCALE
 40
1.0
  9
$ATTMODE
 70
     1
  9
$TEXTSIZE
 40
3.5
  9
$TRACEWID
 40
1.0
  9
$TEXTSTYLE
  7
Standard
  9
$CLAYER
  8
0
  9
$CELTYPE
  6
ByLayer
  9
$CECOLOR
 62
   256
  9
$CELTSCALE
 40
1.0
  9
$DISPSILH
 70
     0
  9
$DIMSCALE
 40
1.0
  9
$DIMASZ
 40
3.302
  9
$DIMEXO
 40
1.0
  9
$DIMDLI
 40
3.75
  9
$DIMRND
 40
0.0
  9
$DIMDLE
 40
0.0
  9
$DIMEXE
 40
1.0
  9
$DIMTP
 40
0.0
  9
$DIMTM
 40
0.0
  9
$DIMTXT
 40
3.5
  9
$DIMCEN
 40
2.5
  9
$DIMTSZ
 40
0.0
  9
$DIMTOL
 70
     0
  9
$DIMLIM
 70
     0
  9
$DIMTIH
 70
     1
  9
$DIMTOH
 70
     1
  9
$DIMSE1
 70
     0
  9
$DIMSE2
 70
     0
  9
$DIMTAD
 70
     1
  9
$DIMZIN
 70
     0
  9
$DIMBLK
  1

  9
$DIMASO
 70
     1
  9
$DIMSHO
 70
     1
  9
$DIMPOST
  1

  9
$DIMAPOST
  1

  9
$DIMALT
 70
     0
  9
$DIMALTD
 70
     3
  9
$DIMALTF
 40
0.0393700787401575
  9
$DIMLFAC
 40
1.0
  9
$DIMTOFL
 70
     1
  9
$DIMTVP
 40
0.0
  9
$DIMTIX
 70
     0
  9
$DIMSOXD
 70
     0
  9
$DIMSAH
 70
     0
  9
$DIMBLK1
  1

  9
$DIMBLK2
  1

  9
$DIMSTYLE
  2
ISO-25
  9
$DIMCLRD
 70
     0
  9
$DIMCLRE
 70
     0
  9
$DIMCLRT
 70
     0
  9
$DIMTFAC
 40
1.0
  9
$DIMGAP
 40
1.524
  9
$DIMJUST
 70
     0
  9
$DIMSD1
 70
     0
  9
$DIMSD2
 70
     0
  9
$DIMTOLJ
 70
     0
  9
$DIMTZIN
 70
     0
  9
$DIMALTZ
 70
     0
  9
$DIMALTTZ
 70
     0
  9
$DIMUPT
 70
     0
  9
$DIMDEC
 70
     2
  9
$DIMTDEC
 70
     2
  9
$DIMALTU
 70
     2
  9
$DIMALTTD
 70
     3
  9
$DIMTXSTY
  7
Standard
  9
$DIMAUNIT
 70
     0
  9
$DIMADEC
 70
     2
  9
$DIMALTRND
 40
0.0
  9
$DIMAZIN
 70
     0
  9
$DIMDSEP
 70
    44
  9
$DIMATFIT
 70
     3
  9
$DIMFRAC
 70
     0
  9
$DIMLDRBLK
  1

  9
$DIMLUNIT
 70
     2
  9
$DIMLWD
 70
    -2
  9
$DIMLWE
 70
    -2
  9
$DIMTMOVE
 70
     0
  9
$LUNITS
 70
     2
  9
$LUPREC
 70
     2
  9
$SKETCHINC
 40
1.0
  9
$FILLETRAD
 40
10.0
  9
$AUNITS
 70
     0
  9
$AUPREC
 70
     2
  9
$MENU
  1
.
  9
$ELEVATION
 40
0.0
  9
$PELEVATION
 40
0.0
  9
$THICKNESS
 40
0.0
  9
$LIMCHECK
 70
     0
  9
$CHAMFERA
 40
0.0
  9
$CHAMFERB
 40
0.0
  9
$CHAMFERC
 40
0.0
  9
$CHAMFERD
 40
0.0
  9
$SKPOLY
 70
     0
  9
$TDCREATE
 40
2458304.450204803
  9
$TDUCREATE
 40
2458304.075204803
  9
$TDUPDATE
 40
2458304.561013808
  9
$TDUUPDATE
 40
2458304.186013808
  9
$TDINDWG
 40
0.0009074421
  9
$TDUSRTIMER
 40
2458304.184627465
  9
$USRTIMER
 70
     1
  9
$ANGBASE
 50
0.0
  9
$ANGDIR
 70
     0
  9
$PDMODE
 70
     0
  9
$PDSIZE
 40
-1.0
  9
$PLINEWID
 40
0.0
  9
$SPLFRAME
 70
     0
  9
$SPLINETYPE
 70
     6
  9
$SPLINESEGS
 70
     8
  9
$HANDSEED
  5
2A2
  9
$SURFTAB1
 70
     6
  9
$SURFTAB2
 70
     6
  9
$SURFTYPE
 70
     6
  9
$SURFU
 70
     6
  9
$SURFV
 70
     6
  9
$UCSBASE
  2

  9
$UCSNAME
  2

  9
$UCSORG
 10
0.0
 20
0.0
 30
0.0
  9
$UCSXDIR
 10
1.0
 20
0.0
 30
0.0
  9
$UCSYDIR
 10
0.0
 20
1.0
 30
0.0
  9
$UCSORTHOREF
  2

  9
$UCSORTHOVIEW
 70
     0
  9
$UCSORGTOP
 10
0.0
 20
0.0
 30
0.0
  9
$UCSORGBOTTOM
 10
0.0
 20
0.0
 30
0.0
  9
$UCSORGLEFT
 10
0.0
 20
0.0
 30
0.0
  9
$UCSORGRIGHT
 10
0.0
 20
0.0
 30
0.0
  9
$UCSORGFRONT
 10
0.0
 20
0.0
 30
0.0
  9
$UCSORGBACK
 10
0.0
 20
0.0
 30
0.0
  9
$PUCSBASE
  2

  9
$PUCSNAME
  2

  9
$PUCSORG
 10
0.0
 20
0.0
 30
0.0
  9
$PUCSXDIR
 10
1.0
 20
0.0
 30
0.0
  9
$PUCSYDIR
 10
0.0
 20
1.0
 30
0.0
  9
$PUCSORTHOREF
  2

  9
$PUCSORTHOVIEW
 70
     0
  9
$PUCSORGTOP
 10
0.0
 20
0.0
 30
0.0
  9
$PUCSORGBOTTOM
 10
0.0
 20
0.0
 30
0.0
  9
$PUCSORGLEFT
 10
0.0
 20
0.0
 30
0.0
  9
$PUCSORGRIGHT
 10
0.0
 20
0.0
 30
0.0
  9
$PUCSORGFRONT
 10
0.0
 20
0.0
 30
0.0
  9
$PUCSORGBACK
 10
0.0
 20
0.0
 30
0.0
  9
$USERI1
 70
     0
  9
$USERI2
 70
     0
  9
$USERI3
 70
     0
  9
$USERI4
 70
     0
  9
$USERI5
 70
     0
  9
$USERR1
 40
0.0
  9
$USERR2
 40
0.0
  9
$USERR3
 40
0.0
  9
$USERR4
 40
0.0
  9
$USERR5
 40
0.0
  9
$WORLDVIEW
 70
     1
  9
$SHADEDGE
 70
     3
  9
$SHADEDIF
 70
    70
  9
$TILEMODE
 70
     1
  9
$MAXACTVP
 70
    64
  9
$PINSBASE
 10
0.0
 20
0.0
 30
0.0
  9
$PLIMCHECK
 70
     0
  9
$PEXTMIN
 10
1.000000000000000E+20
 20
1.000000000000000E+20
 30
1.000000000000000E+20
  9
$PEXTMAX
 10
-1.000000000000000E+20
 20
-1.000000000000000E+20
 30
-1.000000000000000E+20
  9
$PLIMMIN
 10
0.0
 20
0.0
  9
$PLIMMAX
 10
0.0
 20
0.0
  9
$UNITMODE
 70
     0
  9
$VISRETAIN
 70
     1
  9
$PLINEGEN
 70
     0
  9
$PSLTSCALE
 70
     1
  9
$TREEDEPTH
 70
  3020
  9
$CMLSTYLE
  2
Standard
  9
$CMLJUST
 70
     0
  9
$CMLSCALE
 40
20.0
  9
$PROXYGRAPHICS
 70
     1
  9
$MEASUREMENT
 70
     1
  9
$CELWEIGHT
370
    -1
  9
$ENDCAPS
280
     0
  9
$JOINSTYLE
280
     0
  9
$LWDISPLAY
290
     1
  9
$INSUNITS
 70
     4
  9
$HYPERLINKBASE
  1

  9
$STYLESHEET
  1

  9
$XEDIT
290
     1
  9
$CEPSNTYPE
380
     0
  9
$PSTYLEMODE
290
     1
  9
$FINGERPRINTGUID
  2
{0B62EAD0-9A78-4683-90B6-29784B7ED036}
  9
$VERSIONGUID
  2
{FAEB1C32-E019-11D5-929B-00C0DF256EC4}
  9
$EXTNAMES
290
     1
  9
$PSVPSCALE
 40
0.0
  9
$OLESTARTUP
290
     0
  0
ENDSEC
  0
SECTION
  2
CLASSES
  0
CLASS
  1
ACDBDICTIONARYWDFLT
  2
AcDbDictionaryWithDefault
  3
ObjectDBX Classes
 90
        0
280
     0
281
     0
  0
CLASS
  1
VISUALSTYLE
  2
AcDbVisualStyle
  3
ObjectDBX Classes
 90
     4095
280
     0
281
     0
  0
CLASS
  1
MATERIAL
  2
AcDbMaterial
  3
ObjectDBX Classes
 90
     1153
280
     0
281
     0
  0
CLASS
  1
SCALE
  2
AcDbScale
  3
ObjectDBX Classes
 90
     1153
280
     0
281
     0
  0
CLASS
  1
SUN
  2
AcDbSun
  3
SCENEOE
 90
     1153
280
     0
281
     0
  0
CLASS
  1
ACDBPLACEHOLDER
  2
AcDbPlaceHolder
  3
ObjectDBX Classes
 90
        0
280
     0
281
     0
  0
CLASS
  1
LAYOUT
  2
AcDbLayout
  3
ObjectDBX Classes
 90
        0
280
     0
281
     0
  0
CLASS
  1
TABLESTYLE
  2
AcDbTableStyle
  3
ObjectDBX Classes
 90
     4095
280
     0
281
     0
  0
CLASS
  1
MLEADERSTYLE
  2
AcDbMLeaderStyle
  3
ACDB_MLEADERSTYLE_CLASS
 90
     4095
280
     0
281
     0
  0
CLASS
  1
RASTERVARIABLES
  2
AcDbRasterVariables
  3
ISM
 90
        0
280
     0
281
     0
  0
CLASS
  1
DIMASSOC
  2
AcDbDimAssoc
  3
"AcDbDimAssoc|Product Desc:     AcDim ARX App For Dimension|Company:          Autodesk, Inc.|WEB Address:      www.autodesk.com"
 90
        0
280
     0
281
     0
  0
ENDSEC
  0
SECTION
  2
TABLES
  0
TABLE
  2
VPORT
  5
8
330
0
100
AcDbSymbolTable
 70
     1
  0
VPORT
  5
29
330
8
100
AcDbSymbolTableRecord
100
AcDbViewportTableRecord
  2
*Active
 70
     0
 10
0.0
 20
0.0
 11
1.0
 21
1.0
 12
53.94758233171269
 22
-9.375059254212644
 13
0.0
 23
0.0
 14
10.0
 24
10.0
 15
10.0
 25
10.0
 16
0.0
 26
0.0
 36
1.0
 17
0.0
 27
0.0
 37
0.0
 40
66.13744951945793
 41
1.547388781431335
 42
50.0
 43
0.0
 44
0.0
 50
0.0
 51
0.0
 71
    16
 72
  2000
 73
     1
 74
     3
 75
     0
 76
     0
 77
     0
 78
     0
281
     0
 65
     1
110
0.0
120
0.0
130
0.0
111
1.0
121
0.0
131
0.0
112
0.0
122
1.0
132
0.0
 79
     0
146
0.0
  0
ENDTAB
  0
TABLE
  2
LTYPE
  5
5
330
0
100
AcDbSymbolTable
 70
     6
  0
LTYPE
  5
14
330
5
100
AcDbSymbolTableRecord
100
AcDbLinetypeTableRecord
  2
ByBlock
 70
     0
  3

 72
    65
 73
     0
 40
0.0
  0
LTYPE
  5
15
330
5
100
AcDbSymbolTableRecord
100
AcDbLinetypeTableRecord
  2
ByLayer
 70
     0
  3

 72
    65
 73
     0
 40
0.0
  0
LTYPE
  5
16
330
5
100
AcDbSymbolTableRecord
100
AcDbLinetypeTableRecord
  2
Continuous
 70
     0
  3
Solid line
 72
    65
 73
     0
 40
0.0
  0
LTYPE
  5
6A
330
5
100
AcDbSymbolTableRecord
100
AcDbLinetypeTableRecord
  2
HIDDEN
 70
     0
  3
Hidden __ __ __ __ __ __ __ __ __ __ __ __ __ __
 72
    65
 73
     2
 40
1.905
 49
1.27
 74
     0
 49
-0.635
 74
     0
  0
LTYPE
  5
6B
330
5
100
AcDbSymbolTableRecord
100
AcDbLinetypeTableRecord
  2
PHANTOM
 70
     0
  3
Phantom ______  __  __  ______  __  __  ______
 72
    65
 73
     6
 40
12.7
 49
6.35
 74
     0
 49
-1.27
 74
     0
 49
1.27
 74
     0
 49
-1.27
 74
     0
 49
1.27
 74
     0
 49
-1.27
 74
     0
  0
LTYPE
  5
6C
330
5
100
AcDbSymbolTableRecord
100
AcDbLinetypeTableRecord
  2
CENTER
 70
     0
  3
Center ____ _ ____ _ ____ _ ____ _ ____ _ ____
 72
    65
 73
     4
 40
10.16
 49
6.35
 74
     0
 49
-1.27
 74
     0
 49
1.27
 74
     0
 49
-1.27
 74
     0
  0
LTYPE
  5
6D
330
5
100
AcDbSymbolTableRecord
100
AcDbLinetypeTableRecord
  2
CENTERX2
 70
     0
  3
Center (2x) ________  __  ________  __  _____
 72
    65
 73
     4
 40
20.32
 49
12.7
 74
     0
 49
-2.54
 74
     0
 49
2.54
 74
     0
 49
-2.54
 74
     0
  0
LTYPE
  5
6E
330
5
100
AcDbSymbolTableRecord
100
AcDbLinetypeTableRecord
  2
DOT2
 70
     0
  3
Dot (.5x) ........................................
 72
    65
 73
     2
 40
0.635
 49
0.0
 74
     0
 49
-0.635
 74
     0
  0
ENDTAB
  0
TABLE
  2
LAYER
  5
2
330
0
100
AcDbSymbolTable
 70
    18
  0
LAYER
  5
10
330
2
100
AcDbSymbolTableRecord
100
AcDbLayerTableRecord
  2
0
 70
     0
 62
     7
  6
Continuous
370
    -3
390
F
  0
LAYER
  5
6F
330
2
100
AcDbSymbolTableRecord
100
AcDbLayerTableRecord
  2
FORMAT
 70
     0
 62
     2
  6
Continuous
370
    -3
390
F
  0
LAYER
  5
70
330
2
100
AcDbSymbolTableRecord
100
AcDbLayerTableRecord
  2
외형선
 70
     0
 62
     4
  6
Continuous
370
    30
390
F
  0
LAYER
  5
71
330
2
100
AcDbSymbolTableRecord
100
AcDbLayerTableRecord
  2
숨은선
 70
     0
 62
     2
  6
HIDDEN
370
    15
390
F
  0
LAYER
  5
72
330
2
100
AcDbSymbolTableRecord
100
AcDbLayerTableRecord
  2
중심선
 70
     0
 62
     1
  6
CENTERX2
370
    -3
390
F
  0
LAYER
  5
73
330
2
100
AcDbSymbolTableRecord
100
AcDbLayerTableRecord
  2
파단선
 70
     0
 62
     4
  6
Continuous
370
    -3
390
F
  0
LAYER
  5
74
330
2
100
AcDbSymbolTableRecord
100
AcDbLayerTableRecord
  2
해칭선
 70
     0
 62
   100
  6
Continuous
370
    -3
390
F
  0
LAYER
  5
75
330
2
100
AcDbSymbolTableRecord
100
AcDbLayerTableRecord
  2
가는실선
 70
     0
 62
     4
  6
Continuous
370
    -3
390
F
  0
LAYER
  5
76
330
2
100
AcDbSymbolTableRecord
100
AcDbLayerTableRecord
  2
치수_보조선
 70
     0
 62
     4
  6
Continuous
370
    -3
390
F
  0
LAYER
  5
77
330
2
100
AcDbSymbolTableRecord
100
AcDbLayerTableRecord
  2
치수문자_일반주서
 70
     0
 62
     7
  6
Continuous
370
    15
390
F
  0
LAYER
  5
78
330
2
100
AcDbSymbolTableRecord
100
AcDbLayerTableRecord
  2
개별주서
 70
     0
 62
   100
  6
Continuous
370
    30
390
F
  0
LAYER
  5
79
330
2
100
AcDbSymbolTableRecord
100
AcDbLayerTableRecord
  2
중간선
 70
     0
 62
     2
  6
Continuous
370
    15
390
F
  0
LAYER
  5
7A
330
2
100
AcDbSymbolTableRecord
100
AcDbLayerTableRecord
  2
윤곽선
 70
     0
 62
     3
  6
Continuous
370
    40
390
F
  0
LAYER
  5
7B
330
2
100
AcDbSymbolTableRecord
100
AcDbLayerTableRecord
  2
중심마크
 70
     0
 62
   100
  6
Continuous
370
    30
390
F
  0
LAYER
  5
7C
330
2
100
AcDbSymbolTableRecord
100
AcDbLayerTableRecord
  2
가상선
 70
     0
 62
     4
  6
PHANTOM
370
    -3
390
F
  0
LAYER
  5
7D
330
2
100
AcDbSymbolTableRecord
100
AcDbLayerTableRecord
  2
특수지정선
 70
     0
 62
     5
  6
CENTERX2
370
    60
390
F
  0
LAYER
  5
7E
330
2
100
AcDbSymbolTableRecord
100
AcDbLayerTableRecord
  2
참조1
 70
     0
 62
    -4
  6
Continuous
370
    -3
390
F
  0
LAYER
  5
156
330
2
100
AcDbSymbolTableRecord
100
AcDbLayerTableRecord
  2
Defpoints
 70
     0
 62
     7
  6
Continuous
290
     0
370
    -3
390
F
  0
ENDTAB
  0
TABLE
  2
STYLE
  5
3
330
0
100
AcDbSymbolTable
 70
     2
  0
STYLE
  5
11
330
3
100
AcDbSymbolTableRecord
100
AcDbTextStyleTableRecord
  2
Standard
 70
     0
 40
0.0
 41
1.0
 50
0.0
 71
     0
 42
3.5
  3
txt
  4

  0
STYLE
  5
94
330
3
100
AcDbSymbolTableRecord
100
AcDbTextStyleTableRecord
  2
SLDTEXTSTYLE0
 70
     0
 40
0.0
 41
0.75
 50
0.0
 71
     0
 42
3.5
  3
TXT
  4

  0
ENDTAB
  0
TABLE
  2
VIEW
  5
6
330
0
100
AcDbSymbolTable
 70
     0
  0
ENDTAB
  0
TABLE
  2
UCS
  5
7
330
0
100
AcDbSymbolTable
 70
     0
  0
ENDTAB
  0
TABLE
  2
APPID
  5
9
330
0
100
AcDbSymbolTable
 70
     2
  0
APPID
  5
12
330
9
100
AcDbSymbolTableRecord
100
AcDbRegAppTableRecord
  2
ACAD
 70
     0
  0
APPID
  5
293
330
9
100
AcDbSymbolTableRecord
100
AcDbRegAppTableRecord
  2
ACAD_DSTYLE_DIMRADIAL_EXTENSION
 70
     0
  0
ENDTAB
  0
TABLE
  2
DIMSTYLE
  5
A
330
0
100
AcDbSymbolTable
 70
     3
100
AcDbDimStyleTable
  0
DIMSTYLE
105
27
330
A
100
AcDbSymbolTableRecord
100
AcDbDimStyleTableRecord
  2
ISO-25
 70
     0
 41
2.5
 42
0.625
 43
3.75
 44
1.25
 73
     0
 74
     0
 77
     1
 78
     8
140
2.5
141
2.5
143
0.03937007874016
147
0.625
171
     3
172
     1
178
     0
271
     2
272
     2
274
     3
278
    44
283
     0
284
     8
340
11
  0
DIMSTYLE
105
D6
102
{ACAD_REACTORS
330
1AF
330
253
102
}
330
A
100
AcDbSymbolTableRecord
100
AcDbDimStyleTableRecord
  2
SLDDIMSTYLE0
 70
     0
 41
3.302
 44
0.0
 45
0.000000001
 73
     0
 74
     0
 77
     1
 78
     4
 79
     1
140
3.5
143
0.0393700787401575
147
0.875
148
0.000000001
170
     1
172
     1
173
     1
178
     0
271
     2
272
     2
276
     2
284
    12
289
     0
340
94
  0
DIMSTYLE
105
EB
102
{ACAD_REACTORS
330
1BC
330
1C9
330
1D6
330
254
330
255
330
256
330
294
102
}
330
A
100
AcDbSymbolTableRecord
100
AcDbDimStyleTableRecord
  2
SLDDIMSTYLE1
 70
     0
 41
3.302
 44
0.0
 45
0.000000001
 73
     0
 74
     0
 77
     1
 78
     4
 79
     1
140
3.5
143
0.0393700787401575
147
0.875
148
0.000000001
170
     1
173
     1
178
     0
271
     2
272
     2
276
     2
284
    12
340
94
  0
ENDTAB
  0
TABLE
  2
BLOCK_RECORD
  5
1
330
0
100
AcDbSymbolTable
 70
    17
  0
BLOCK_RECORD
  5
1F
330
1
100
AcDbSymbolTableRecord
100
AcDbBlockTableRecord
  2
*Model_Space
340
22
  0
BLOCK_RECORD
  5
1B
330
1
100
AcDbSymbolTableRecord
100
AcDbBlockTableRecord
  2
*Paper_Space
340
1E
  0
BLOCK_RECORD
  5
23
330
1
100
AcDbSymbolTableRecord
100
AcDbBlockTableRecord
  2
*Paper_Space0
340
26
  0
BLOCK_RECORD
  5
7F
330
1
100
AcDbSymbolTableRecord
100
AcDbBlockTableRecord
  2
블럭10
340
0
102
{BLKREFS
331
CE
102
}
  0
BLOCK_RECORD
  5
D7
330
1
100
AcDbSymbolTableRecord
100
AcDbBlockTableRecord
  2
_D
340
0
  0
BLOCK_RECORD
  5
EC
330
1
100
AcDbSymbolTableRecord
100
AcDbBlockTableRecord
  2
_D_1
340
0
  0
BLOCK_RECORD
  5
FF
330
1
100
AcDbSymbolTableRecord
100
AcDbBlockTableRecord
  2
_D_2
340
0
  0
BLOCK_RECORD
  5
112
330
1
100
AcDbSymbolTableRecord
100
AcDbBlockTableRecord
  2
_D_3
340
0
  0
BLOCK_RECORD
  5
12B
330
1
100
AcDbSymbolTableRecord
100
AcDbBlockTableRecord
  2
SW_DOWELSYMBOL_0
340
0
102
{BLKREFS
331
0
331
1E4
331
257
102
}
  0
BLOCK_RECORD
  5
1F3
330
1
100
AcDbSymbolTableRecord
100
AcDbBlockTableRecord
  2
*D8
340
0
  0
BLOCK_RECORD
  5
1FF
330
1
100
AcDbSymbolTableRecord
100
AcDbBlockTableRecord
  2
*D9
340
0
  0
BLOCK_RECORD
  5
20B
330
1
100
AcDbSymbolTableRecord
100
AcDbBlockTableRecord
  2
*D10
340
0
  0
BLOCK_RECORD
  5
217
330
1
100
AcDbSymbolTableRecord
100
AcDbBlockTableRecord
  2
*D11
340
0
  0
BLOCK_RECORD
  5
25E
330
1
100
AcDbSymbolTableRecord
100
AcDbBlockTableRecord
  2
*D12
340
0
  0
BLOCK_RECORD
  5
26A
330
1
100
AcDbSymbolTableRecord
100
AcDbBlockTableRecord
  2
*D13
340
0
  0
BLOCK_RECORD
  5
276
330
1
100
AcDbSymbolTableRecord
100
AcDbBlockTableRecord
  2
*D14
340
0
  0
BLOCK_RECORD
  5
282
330
1
100
AcDbSymbolTableRecord
100
AcDbBlockTableRecord
  2
*D15
340
0
  0
BLOCK_RECORD
  5
297
330
1
100
AcDbSymbolTableRecord
100
AcDbBlockTableRecord
  2
*D16
340
0
  0
ENDTAB
  0
ENDSEC
  0
SECTION
  2
BLOCKS
  0
BLOCK
  5
20
330
1F
100
AcDbEntity
  8
0
100
AcDbBlockBegin
  2
*Model_Space
 70
     0
 10
0.0
 20
0.0
 30
0.0
  3
*Model_Space
  1
*Model_Space
  0
ENDBLK
  5
21
330
1F
100
AcDbEntity
  8
0
100
AcDbBlockEnd
  0
BLOCK
  5
1C
330
1B
100
AcDbEntity
 67
     1
  8
0
100
AcDbBlockBegin
  2
*Paper_Space
 70
     0
 10
0.0
 20
0.0
 30
0.0
  3
*Paper_Space
  1
*Paper_Space
  0
ENDBLK
  5
1D
330
1B
100
AcDbEntity
 67
     1
  8
0
100
AcDbBlockEnd
  0
BLOCK
  5
24
330
23
100
AcDbEntity
  8
0
100
AcDbBlockBegin
  2
*Paper_Space0
 70
     0
 10
0.0
 20
0.0
 30
0.0
  3
*Paper_Space0
  1
*Paper_Space0
  0
ENDBLK
  5
25
330
23
100
AcDbEntity
  8
0
100
AcDbBlockEnd
  0
BLOCK
  5
80
330
7F
100
AcDbEntity
  8
0
100
AcDbBlockBegin
  2
블럭10
 70
     2
 10
0.0
 20
0.0
 30
0.0
  3
블럭10
  1
블럭10
  0
ELLIPSE
  5
82
330
7F
100
AcDbEntity
  8
중심선
100
AcDbEllipse
 10
20.54032771741204
 20
12.0471743016438
 30
0.0
 11
6.600054785286829
 21
-1.261213355974178E-13
 31
0.0
210
0.0
220
0.0
230
1.0
 40
0.636358354079598
 41
0.9219305317359503
 42
6.513795318482858
  0
ELLIPSE
  5
83
330
7F
100
AcDbEntity
  8
중심선
100
AcDbEllipse
 10
20.54032771746488
 20
12.04717430159265
 30
0.0
 11
3.960054785062283
 21
1.540847449632565E-10
 31
0.0
210
0.0
220
0.0
230
1.0
 40
0.3939339440162632
 41
1.131841032648279
 42
5.62031148352944
  0
LINE
  5
84
330
7F
100
AcDbEntity
  8
중심선
100
AcDbLine
 10
2.268634060543552
 20
16.24717430164393
 30
0.0
 11
5.714909304380834
 21
16.24717430164393
 31
0.0
  0
LINE
  5
85
330
7F
100
AcDbEntity
  8
중심선
100
AcDbLine
 10
5.245725140726316
 20
7.84717430164391
 30
0.0
 11
8.692000384563599
 21
7.84717430164391
 31
0.0
  0
LINE
  5
86
330
7F
100
AcDbEntity
  8
중심선
100
AcDbLine
 10
15.74043728645272
 20
16.24717430164393
 30
0.0
 11
8.692000384563599
 21
7.84717430164391
 31
0.0
  0
LINE
  5
87
330
7F
100
AcDbEntity
  8
중심선
100
AcDbLine
 10
0.1404042013395286
 20
13.71084872107135
 30
0.0
 11
3.58671253028996
 21
13.71088815037384
 31
0.0
  0
LINE
  5
88
330
7F
100
AcDbEntity
  8
중심선
100
AcDbLine
 10
2.750260043222114
 20
10.84717430164391
 30
0.0
 11
6.196535287059397
 21
10.84717430164391
 31
0.0
  0
LINE
  5
89
330
7F
100
AcDbEntity
  8
중심선
100
AcDbLine
 10
12.29416204261559
 20
16.24717430164393
 30
0.0
 11
5.245725140726316
 21
7.84717430164391
 31
0.0
  0
LINE
  5
8A
330
7F
100
AcDbEntity
  8
중심선
100
AcDbLine
 10
10.72767329541681
 20
16.24717430164393
 30
0.0
 11
6.196535287059397
 21
10.84717430164391
 31
0.0
  0
LINE
  5
8B
330
7F
100
AcDbEntity
  8
중심선
100
AcDbLine
 10
7.28139805157953
 20
16.24717430164393
 30
0.0
 11
2.750260043222114
 21
10.84717430164391
 31
0.0
  0
LINE
  5
8C
330
7F
100
AcDbEntity
  8
중심선
100
AcDbLine
 10
5.714909304380834
 20
16.24717430164393
 30
0.0
 11
3.58671253028996
 21
13.71088815037384
 31
0.0
  0
LINE
  5
8D
330
7F
100
AcDbEntity
  8
중심선
100
AcDbLine
 10
2.268634060543552
 20
16.24717430164393
 30
0.0
 11
0.1404042013395286
 21
13.71084872107135
 31
0.0
  0
LINE
  5
8E
330
7F
100
AcDbEntity
  8
중심선
100
AcDbLine
 10
7.28139805157953
 20
16.24717430164393
 30
0.0
 11
10.72767329541681
 21
16.24717430164393
 31
0.0
  0
LINE
  5
8F
330
7F
100
AcDbEntity
  8
중심선
100
AcDbLine
 10
12.29416204261559
 20
16.24717430164393
 30
0.0
 11
15.74043728645272
 21
16.24717430164393
 31
0.0
  0
LINE
  5
90
330
7F
100
AcDbEntity
  8
중심선
100
AcDbLine
 10
19.22036997980202
 20
11.08717430171403
 30
0.0
 11
23.66174974927406
 21
11.08717430171406
 31
0.0
  0
LINE
  5
91
330
7F
100
AcDbEntity
  8
중심선
100
AcDbLine
 10
19.22039502424796
 20
13.00717430171391
 30
0.0
 11
19.22036997980202
 21
11.08717430171403
 31
0.0
  0
LINE
  5
92
330
7F
100
AcDbEntity
  8
중심선
100
AcDbLine
 10
19.22039502424796
 20
13.00717430171391
 30
0.0
 11
26.96566020931264
 21
13.00717430171391
 31
0.0
  0
LINE
  5
93
330
7F
100
AcDbEntity
  8
중심선
100
AcDbLine
 10
22.22332737316547
 20
13.45928029700563
 30
0.0
 11
24.52862924686651
 21
15.39360700705356
 31
0.0
  0
ATTDEF
  5
95
330
7F
100
AcDbEntity
  8
FORMAT
 62
     2
100
AcDbText
 10
3.448148490846466
 20
2.075366912832191
 30
0.0
 40
4.233333333333333
  1
EM212909
 41
0.75
  7
SLDTEXTSTYLE0
 11
3.448148490846466
 21
-0.0412997538344756
 31
0.0
100
AcDbAttributeDefinition
  3

  2
AUTOATTR0
 70
     0
 74
     1
  0
ENDBLK
  5
81
330
7F
100
AcDbEntity
  8
0
100
AcDbBlockEnd
  0
BLOCK
  5
D8
330
D7
100
AcDbEntity
  8
0
100
AcDbBlockBegin
  2
_D
 70
     0
 10
0.0
 20
0.0
 30
0.0
  3
_D
  1
_D
  0
SOLID
  5
DA
330
D7
100
AcDbEntity
  8
치수문자_일반주서
100
AcDbTrace
 10
-49.99000000000002
 20
6.349999999999993
 30
0.0
 11
-49.48200000000002
 21
9.651999999999994
 31
0.0
 12
-50.49800000000003
 22
9.651999999999994
 32
0.0
 13
-50.49800000000003
 23
9.651999999999994
 33
0.0
  0
SOLID
  5
DB
330
D7
100
AcDbEntity
  8
치수문자_일반주서
100
AcDbTrace
 10
-49.99000000000002
 20
-6.349999999999995
 30
0.0
 11
-50.49800000000003
 21
-9.651999999999994
 31
0.0
 12
-49.48200000000002
 22
-9.651999999999994
 32
0.0
 13
-49.48200000000002
 23
-9.651999999999994
 33
0.0
  0
LINE
  5
DC
330
D7
100
AcDbEntity
  8
치수문자_일반주서
100
AcDbLine
 10
-60.78288171604275
 20
-5.414366431068721
 30
0.0
 11
-60.78288171604274
 21
-6.125303916633221
 31
0.0
  0
LINE
  5
DD
330
D7
100
AcDbEntity
  8
치수문자_일반주서
100
AcDbLine
 10
-60.78288171604274
 20
-6.125303916633221
 30
0.0
 11
-55.22663172498344
 21
-6.125303916633182
 31
0.0
  0
LINE
  5
DE
330
D7
100
AcDbEntity
  8
치수문자_일반주서
100
AcDbLine
 10
-55.22663172498344
 20
-6.125303916633182
 30
0.0
 11
-55.22663172498345
 21
-5.414366431068682
 31
0.0
  0
LINE
  5
DF
330
D7
100
AcDbEntity
  8
치수문자_일반주서
100
AcDbLine
 10
-60.78288171604282
 20
5.414366431068537
 30
0.0
 11
-60.78288171604282
 21
6.125303916633037
 31
0.0
  0
LINE
  5
E0
330
D7
100
AcDbEntity
  8
치수문자_일반주서
100
AcDbLine
 10
-60.78288171604282
 20
6.125303916633037
 30
0.0
 11
-55.22663172498352
 21
6.125303916633076
 31
0.0
  0
LINE
  5
E1
330
D7
100
AcDbEntity
  8
치수문자_일반주서
100
AcDbLine
 10
-55.22663172498352
 20
6.125303916633076
 30
0.0
 11
-55.22663172498351
 21
5.414366431068576
 31
0.0
  0
LINE
  5
E2
330
D7
100
AcDbEntity
  8
치수문자_일반주서
100
AcDbLine
 10
-37.35499999999999
 20
6.349999999999994
 30
0.0
 11
-50.99000000000002
 21
6.349999999999993
 31
0.0
  0
LINE
  5
E3
330
D7
100
AcDbEntity
  8
치수문자_일반주서
100
AcDbLine
 10
-37.35499999999999
 20
-6.349999999999994
 30
0.0
 11
-50.99000000000002
 21
-6.349999999999995
 31
0.0
  0
LINE
  5
E4
330
D7
100
AcDbEntity
  8
치수문자_일반주서
100
AcDbLine
 10
-49.99000000000002
 20
6.349999999999993
 30
0.0
 11
-49.99000000000002
 21
12.69999999999999
 31
0.0
  0
LINE
  5
E5
330
D7
100
AcDbEntity
  8
치수문자_일반주서
100
AcDbLine
 10
-49.99000000000002
 20
6.349999999999993
 30
0.0
 11
-49.99000000000002
 21
-6.349999999999995
 31
0.0
  0
LINE
  5
E6
330
D7
100
AcDbEntity
  8
치수문자_일반주서
100
AcDbLine
 10
-49.99000000000002
 20
-6.349999999999995
 30
0.0
 11
-49.99000000000002
 21
-12.7
 31
0.0
  0
MTEXT
  5
E7
330
D7
100
AcDbEntity
  8
치수문자_일반주서
100
AcDbMText
 10
-59.73836863956234
 20
-4.525694530457343
 30
0.0
 40
3.5
 41
0.0
 71
     1
 72
     1
  1
0.50
  7
SLDTEXTSTYLE0
 11
-7.044195017643634E-15
 21
1.0
 31
0.0
 73
     1
 44
1.0
  0
MTEXT
  5
E8
330
D7
100
AcDbEntity
  8
치수문자_일반주서
100
AcDbMText
 10
-54.50173708920184
 20
-8.457968942821074
 30
0.0
 40
3.5
 41
0.0
 71
     1
 72
     1
  1
%%c
  7
SLDTEXTSTYLE0
 11
-7.044195017643634E-15
 21
1.0
 31
0.0
 73
     1
 44
1.0
  0
MTEXT
  5
E9
330
D7
100
AcDbEntity
  8
치수문자_일반주서
100
AcDbMText
 10
-54.50173708920187
 20
-3.179531544446994
 30
0.0
 40
3.5
 41
0.0
 71
     1
 72
     1
  1
12.70
  7
SLDTEXTSTYLE0
 11
-7.044195017643634E-15
 21
1.0
 31
0.0
 73
     1
 44
1.0
  0
ENDBLK
  5
D9
330
D7
100
AcDbEntity
  8
0
100
AcDbBlockEnd
  0
BLOCK
  5
ED
330
EC
100
AcDbEntity
  8
0
100
AcDbBlockBegin
  2
_D_1
 70
     0
 10
0.0
 20
0.0
 30
0.0
  3
_D_1
  1
_D_1
  0
SOLID
  5
EF
330
EC
100
AcDbEntity
  8
치수문자_일반주서
100
AcDbTrace
 10
63.975
 20
15.34314079838252
 30
0.0
 11
60.673
 21
15.85114079838252
 31
0.0
 12
60.673
 22
14.83514079838252
 32
0.0
 13
60.673
 23
14.83514079838252
 33
0.0
  0
SOLID
  5
F0
330
EC
100
AcDbEntity
  8
치수문자_일반주서
100
AcDbTrace
 10
13.17500000000001
 20
15.34314079838251
 30
0.0
 11
16.47700000000001
 21
14.83514079838251
 31
0.0
 12
16.47700000000001
 22
15.85114079838251
 32
0.0
 13
16.47700000000001
 23
15.85114079838251
 33
0.0
  0
LINE
  5
F1
330
EC
100
AcDbEntity
  8
치수문자_일반주서
100
AcDbLine
 10
33.16063391817735
 20
26.13602251442526
 30
0.0
 11
32.44969643261285
 21
26.13602251442526
 31
0.0
  0
LINE
  5
F2
330
EC
100
AcDbEntity
  8
치수문자_일반주서
100
AcDbLine
 10
32.44969643261285
 20
26.13602251442526
 30
0.0
 11
32.44969643261281
 21
20.57977252336596
 31
0.0
  0
LINE
  5
F3
330
EC
100
AcDbEntity
  8
치수문자_일반주서
100
AcDbLine
 10
32.44969643261281
 20
20.57977252336596
 30
0.0
 11
33.16063391817731
 21
20.57977252336595
 31
0.0
  0
LINE
  5
F4
330
EC
100
AcDbEntity
  8
치수문자_일반주서
100
AcDbLine
 10
43.98936678031461
 20
26.13602251442518
 30
0.0
 11
44.70030426587911
 21
26.13602251442517
 31
0.0
  0
LINE
  5
F5
330
EC
100
AcDbEntity
  8
치수문자_일반주서
100
AcDbLine
 10
44.70030426587911
 20
26.13602251442517
 30
0.0
 11
44.70030426587907
 21
20.57977252336587
 31
0.0
  0
LINE
  5
F6
330
EC
100
AcDbEntity
  8
치수문자_일반주서
100
AcDbLine
 10
44.70030426587907
 20
20.57977252336587
 30
0.0
 11
43.98936678031457
 21
20.57977252336588
 31
0.0
  0
LINE
  5
F7
330
EC
100
AcDbEntity
  8
치수문자_일반주서
100
AcDbLine
 10
63.975
 20
5.792357417707048
 30
0.0
 11
63.975
 21
16.34314079838252
 31
0.0
  0
LINE
  5
F8
330
EC
100
AcDbEntity
  8
치수문자_일반주서
100
AcDbLine
 10
13.17500000000001
 20
7.349808527062113
 30
0.0
 11
13.17500000000001
 21
16.34314079838251
 31
0.0
  0
LINE
  5
F9
330
EC
100
AcDbEntity
  8
치수문자_일반주서
100
AcDbLine
 10
63.975
 20
15.34314079838252
 30
0.0
 11
13.17500000000001
 21
15.34314079838251
 31
0.0
  0
MTEXT
  5
FA
330
EC
100
AcDbEntity
  8
치수문자_일반주서
100
AcDbMText
 10
31.9359377071261
 20
19.90835006424424
 30
0.0
 40
3.5
 41
0.0
 71
     1
 72
     1
  1

  7
SLDTEXTSTYLE0
 73
     1
 44
1.0
  0
MTEXT
  5
FB
330
EC
100
AcDbEntity
  8
치수문자_일반주서
100
AcDbMText
 10
34.04930581878872
 20
25.09150943794484
 30
0.0
 40
3.5
 41
0.0
 71
     1
 72
     1
  1
2.00
  7
SLDTEXTSTYLE0
 73
     1
 44
1.0
  0
MTEXT
  5
FC
330
EC
100
AcDbEntity
  8
치수문자_일반주서
100
AcDbMText
 10
32.75625010561195
 20
19.85487788758438
 30
0.0
 40
3.5
 41
0.0
 71
     1
 72
     1
  1
50.80
  7
SLDTEXTSTYLE0
 73
     1
 44
1.0
  0
MTEXT
  5
FD
330
EC
100
AcDbEntity
  8
치수문자_일반주서
100
AcDbMText
 10
46.54600751101968
 20
19.90835006424413
 30
0.0
 40
3.5
 41
0.0
 71
     1
 72
     1
  1

  7
SLDTEXTSTYLE0
 73
     1
 44
1.0
  0
ENDBLK
  5
EE
330
EC
100
AcDbEntity
  8
0
100
AcDbBlockEnd
  0
BLOCK
  5
100
330
FF
100
AcDbEntity
  8
0
100
AcDbBlockBegin
  2
_D_2
 70
     0
 10
0.0
 20
0.0
 30
0.0
  3
_D_2
  1
_D_2
  0
SOLID
  5
102
330
FF
100
AcDbEntity
  8
치수문자_일반주서
100
AcDbTrace
 10
63.975
 20
27.1259168556312
 30
0.0
 11
60.673
 21
27.6339168556312
 31
0.0
 12
60.673
 22
26.6179168556312
 32
0.0
 13
60.673
 23
26.6179168556312
 33
0.0
  0
SOLID
  5
103
330
FF
100
AcDbEntity
  8
치수문자_일반주서
100
AcDbTrace
 10
-37.62499999999999
 20
27.12591685563119
 30
0.0
 11
-34.32299999999999
 21
26.61791685563119
 31
0.0
 12
-34.32299999999999
 22
27.63391685563118
 32
0.0
 13
-34.32299999999999
 23
27.63391685563118
 33
0.0
  0
LINE
  5
104
330
FF
100
AcDbEntity
  8
치수문자_일반주서
100
AcDbLine
 10
7.760633918177352
 20
37.91879857167392
 30
0.0
 11
7.049696432612852
 21
37.91879857167392
 31
0.0
  0
LINE
  5
105
330
FF
100
AcDbEntity
  8
치수문자_일반주서
100
AcDbLine
 10
7.049696432612852
 20
37.91879857167392
 30
0.0
 11
7.049696432612812
 21
32.36254858061462
 31
0.0
  0
LINE
  5
106
330
FF
100
AcDbEntity
  8
치수문자_일반주서
100
AcDbLine
 10
7.049696432612812
 20
32.36254858061462
 30
0.0
 11
7.760633918177312
 21
32.36254858061461
 31
0.0
  0
LINE
  5
107
330
FF
100
AcDbEntity
  8
치수문자_일반주서
100
AcDbLine
 10
18.58936678031461
 20
37.91879857167385
 30
0.0
 11
19.30030426587911
 21
37.91879857167384
 31
0.0
  0
LINE
  5
108
330
FF
100
AcDbEntity
  8
치수문자_일반주서
100
AcDbLine
 10
19.30030426587911
 20
37.91879857167384
 30
0.0
 11
19.30030426587907
 21
32.36254858061454
 31
0.0
  0
LINE
  5
109
330
FF
100
AcDbEntity
  8
치수문자_일반주서
100
AcDbLine
 10
19.30030426587907
 20
32.36254858061454
 30
0.0
 11
18.58936678031457
 21
32.36254858061454
 31
0.0
  0
LINE
  5
10A
330
FF
100
AcDbEntity
  8
치수문자_일반주서
100
AcDbLine
 10
63.975
 20
5.792357417707048
 30
0.0
 11
63.975
 21
28.1259168556312
 31
0.0
  0
LINE
  5
10B
330
FF
100
AcDbEntity
  8
치수문자_일반주서
100
AcDbLine
 10
-37.62499999999999
 20
6.080000000000004
 30
0.0
 11
-37.62499999999999
 21
28.12591685563119
 31
0.0
  0
LINE
  5
10C
330
FF
100
AcDbEntity
  8
치수문자_일반주서
100
AcDbLine
 10
63.975
 20
27.1259168556312
 30
0.0
 11
-37.62499999999999
 21
27.12591685563119
 31
0.0
  0
MTEXT
  5
10D
330
FF
100
AcDbEntity
  8
치수문자_일반주서
100
AcDbMText
 10
6.082638795673818
 20
31.69112612149291
 30
0.0
 40
3.5
 41
0.0
 71
     1
 72
     1
  1

  7
SLDTEXTSTYLE0
 73
     1
 44
1.0
  0
MTEXT
  5
10E
330
FF
100
AcDbEntity
  8
치수문자_일반주서
100
AcDbMText
 10
8.649305818788713
 20
36.87428549519351
 30
0.0
 40
3.5
 41
0.0
 71
     1
 72
     1
  1
4.00
  7
SLDTEXTSTYLE0
 73
     1
 44
1.0
  0
MTEXT
  5
10F
330
FF
100
AcDbEntity
  8
치수문자_일반주서
100
AcDbMText
 10
6.063194392435222
 20
31.63765394483305
 30
0.0
 40
3.5
 41
0.0
 71
     1
 72
     1
  1
101.60
  7
SLDTEXTSTYLE0
 73
     1
 44
1.0
  0
MTEXT
  5
110
330
FF
100
AcDbEntity
  8
치수문자_일반주서
100
AcDbMText
 10
21.59930642247197
 20
31.6911261214928
 30
0.0
 40
3.5
 41
0.0
 71
     1
 72
     1
  1

  7
SLDTEXTSTYLE0
 73
     1
 44
1.0
  0
ENDBLK
  5
101
330
FF
100
AcDbEntity
  8
0
100
AcDbBlockEnd
  0
BLOCK
  5
113
330
112
100
AcDbEntity
  8
0
100
AcDbBlockBegin
  2
_D_3
 70
     0
 10
0.0
 20
0.0
 30
0.0
  3
_D_3
  1
_D_3
  0
SOLID
  5
115
330
112
100
AcDbEntity
  8
치수문자_일반주서
100
AcDbTrace
 10
71.8220646045958
 20
6.35
 30
0.0
 11
71.3140646045958
 21
3.048
 31
0.0
 12
72.33006460459579
 22
3.048
 32
0.0
 13
72.33006460459579
 23
3.048
 33
0.0
  0
SOLID
  5
116
330
112
100
AcDbEntity
  8
치수문자_일반주서
100
AcDbTrace
 10
71.8220646045958
 20
-6.350000000000005
 30
0.0
 11
72.33006460459579
 21
-3.048000000000005
 31
0.0
 12
71.3140646045958
 22
-3.048000000000005
 32
0.0
 13
71.3140646045958
 23
-3.048000000000005
 33
0.0
  0
LINE
  5
117
330
112
100
AcDbEntity
  8
치수문자_일반주서
100
AcDbLine
 10
61.02918288855307
 20
17.11853962680777
 30
0.0
 11
61.02918288855307
 21
16.40760214124327
 31
0.0
  0
LINE
  5
118
330
112
100
AcDbEntity
  8
치수문자_일반주서
100
AcDbLine
 10
61.02918288855307
 20
16.40760214124327
 30
0.0
 11
66.58543287961238
 21
16.40760214124331
 31
0.0
  0
LINE
  5
119
330
112
100
AcDbEntity
  8
치수문자_일반주서
100
AcDbLine
 10
66.58543287961238
 20
16.40760214124331
 30
0.0
 11
66.58543287961237
 21
17.11853962680781
 31
0.0
  0
LINE
  5
11A
330
112
100
AcDbEntity
  8
치수문자_일반주서
100
AcDbLine
 10
61.029182888553
 20
27.94727248894502
 30
0.0
 11
61.02918288855299
 21
28.65820997450952
 31
0.0
  0
LINE
  5
11B
330
112
100
AcDbEntity
  8
치수문자_일반주서
100
AcDbLine
 10
61.02918288855299
 20
28.65820997450952
 30
0.0
 11
66.5854328796123
 21
28.65820997450956
 31
0.0
  0
LINE
  5
11C
330
112
100
AcDbEntity
  8
치수문자_일반주서
100
AcDbLine
 10
66.5854328796123
 20
28.65820997450956
 30
0.0
 11
66.5854328796123
 21
27.94727248894506
 31
0.0
  0
LINE
  5
11D
330
112
100
AcDbEntity
  8
치수문자_일반주서
100
AcDbLine
 10
35.23684225732489
 20
6.350000000000002
 30
0.0
 11
72.8220646045958
 21
6.35
 31
0.0
  0
LINE
  5
11E
330
112
100
AcDbEntity
  8
치수문자_일반주서
100
AcDbLine
 10
35.23684225732482
 20
-6.350000000000002
 30
0.0
 11
72.8220646045958
 21
-6.350000000000005
 31
0.0
  0
LINE
  5
11F
330
112
100
AcDbEntity
  8
치수문자_일반주서
100
AcDbLine
 10
71.8220646045958
 20
6.35
 30
0.0
 11
71.8220646045958
 21
30.9908750006975
 31
0.0
  0
LINE
  5
120
330
112
100
AcDbEntity
  8
치수문자_일반주서
100
AcDbLine
 10
71.8220646045958
 20
6.35
 30
0.0
 11
71.8220646045958
 21
-6.350000000000005
 31
0.0
  0
MTEXT
  5
121
330
112
100
AcDbEntity
  8
치수문자_일반주서
100
AcDbMText
 10
62.07369596503347
 20
18.00721152741914
 30
0.0
 40
3.5
 41
0.0
 71
     1
 72
     1
  1
0.50
  7
SLDTEXTSTYLE0
 11
-7.044195017643634E-15
 21
1.0
 31
0.0
 73
     1
 44
1.0
  0
MTEXT
  5
122
330
112
100
AcDbEntity
  8
치수문자_일반주서
100
AcDbMText
 10
67.31032751539395
 20
14.07493711505541
 30
0.0
 40
3.5
 41
0.0
 71
     1
 72
     1
  1
%%c
  7
SLDTEXTSTYLE0
 11
-7.044195017643634E-15
 21
1.0
 31
0.0
 73
     1
 44
1.0
  0
MTEXT
  5
123
330
112
100
AcDbEntity
  8
치수문자_일반주서
100
AcDbMText
 10
67.31032751539391
 20
19.35337451342949
 30
0.0
 40
3.5
 41
0.0
 71
     1
 72
     1
  1
12.70
  7
SLDTEXTSTYLE0
 11
-7.044195017643634E-15
 21
1.0
 31
0.0
 73
     1
 44
1.0
  0
ENDBLK
  5
114
330
112
100
AcDbEntity
  8
0
100
AcDbBlockEnd
  0
BLOCK
  5
12C
330
12B
100
AcDbEntity
  8
0
100
AcDbBlockBegin
  2
SW_DOWELSYMBOL_0
 70
     0
 10
0.0
 20
0.0
 30
0.0
  3
SW_DOWELSYMBOL_0
  1
SW_DOWELSYMBOL_0
  0
CIRCLE
  5
12E
330
12B
100
AcDbEntity
  8
해칭선
 62
     0
100
AcDbCircle
 10
0.0
 20
0.0
 30
0.0
 40
3.000000000000001
  0
HATCH
  5
12F
330
12B
100
AcDbEntity
  8
0
  6
Continuous
 62
     0
370
     0
100
AcDbHatch
 10
0.0
 20
0.0
 30
0.0
210
0.0
220
0.0
230
1.0
  2
SOLID
 70
     1
 71
     0
 91
        1
 92
        0
 93
        3
 72
     2
 10
0.0
 20
0.0
 40
3.000000000000001
 50
0.0
 51
90.0
 73
     1
 72
     1
 10
0.0
 20
3.000000000000001
 11
0.0
 21
0.0
 72
     1
 10
0.0
 20
0.0
 11
3.000000000000001
 21
0.0
 97
        0
 75
     0
 76
     1
 98
        1
 10
0.0
 20
0.0
  0
HATCH
  5
130
330
12B
100
AcDbEntity
  8
0
  6
Continuous
 62
     0
370
     0
100
AcDbHatch
 10
0.0
 20
0.0
 30
0.0
210
0.0
220
0.0
230
1.0
  2
SOLID
 70
     1
 71
     0
 91
        1
 92
        0
 93
        3
 72
     2
 10
0.0
 20
0.0
 40
3.000000000000001
 50
180.0
 51
270.0000000000008
 73
     1
 72
     1
 10
0.0
 20
-3.000000000000001
 11
0.0
 21
0.0
 72
     1
 10
0.0
 20
0.0
 11
-3.000000000000001
 21
0.0
 97
        0
 75
     0
 76
     1
 98
        1
 10
0.0
 20
0.0
  0
ENDBLK
  5
12D
330
12B
100
AcDbEntity
  8
0
100
AcDbBlockEnd
  0
BLOCK
  5
1F4
330
1F3
100
AcDbEntity
  8
0
100
AcDbBlockBegin
  2
*D8
 70
     1
 10
0.0
 20
0.0
 30
0.0
  3
*D8
  1
*D8
  0
LINE
  5
1F6
330
1F3
100
AcDbEntity
  8
치수문자_일반주서
 62
     0
370
    -2
100
AcDbLine
 10
17.94750000000006
 20
18.81875
 30
0.0
 11
4.37500000000002
 21
18.81874999999995
 31
0.0
  0
LINE
  5
1F7
330
1F3
100
AcDbEntity
  8
치수문자_일반주서
 62
     0
370
    -2
100
AcDbLine
 10
17.94750000000006
 20
6.118750000000016
 30
0.0
 11
4.375000000000065
 21
6.118749999999963
 31
0.0
  0
LINE
  5
1F8
330
1F3
100
AcDbEntity
  8
치수문자_일반주서
 62
     0
370
    -2
100
AcDbLine
 10
4.375000000000032
 20
15.51674999999995
 30
0.0
 11
4.375000000000053
 21
9.420749999999963
 31
0.0
  0
SOLID
  5
1F9
330
1F3
100
AcDbEntity
  8
치수문자_일반주서
 62
     0
100
AcDbTrace
 10
4.925333333333366
 20
15.51674999999995
 30
0.0
 11
3.824666666666699
 21
15.51674999999995
 31
0.0
 12
4.37500000000002
 22
18.81874999999995
 32
0.0
 13
4.37500000000002
 23
18.81874999999995
 33
0.0
  0
SOLID
  5
1FA
330
1F3
100
AcDbEntity
  8
치수문자_일반주서
 62
     0
100
AcDbTrace
 10
3.82466666666672
 20
9.42074999999996
 30
0.0
 11
4.925333333333387
 21
9.420749999999964
 31
0.0
 12
4.375000000000065
 22
6.118749999999963
 32
0.0
 13
4.375000000000065
 23
6.118749999999963
 33
0.0
  0
MTEXT
  5
1FB
330
1F3
100
AcDbEntity
  8
치수문자_일반주서
 62
     0
100
AcDbMText
 10
0.0000000000000426
 20
12.46874999999999
 30
0.0
 40
3.5
 41
0.0
 71
     2
 72
     1
  1
\A1;%%c12.70 [1/2]
  7
SLDTEXTSTYLE0
 11
-3.496765431890261E-15
 21
1.0
 31
0.0
 73
     1
 44
1.0
  0
POINT
  5
1FC
330
1F3
100
AcDbEntity
  8
Defpoints
 62
     0
100
AcDbPoint
 10
18.01000000000006
 20
18.81875
 30
0.0
  0
POINT
  5
1FD
330
1F3
100
AcDbEntity
  8
Defpoints
 62
     0
100
AcDbPoint
 10
18.01000000000006
 20
6.118750000000016
 30
0.0
  0
POINT
  5
1FE
330
1F3
100
AcDbEntity
  8
Defpoints
 62
     0
100
AcDbPoint
 10
4.375000000000064
 20
6.118749999999966
 30
0.0
  0
ENDBLK
  5
1F5
330
1F3
100
AcDbEntity
  8
0
100
AcDbBlockEnd
  0
BLOCK
  5
200
330
1FF
100
AcDbEntity
  8
0
100
AcDbBlockBegin
  2
*D9
 70
     1
 10
0.0
 20
0.0
 30
0.0
  3
*D9
  1
*D9
  0
LINE
  5
202
330
1FF
100
AcDbEntity
  8
치수문자_일반주서
 62
     0
370
    -2
100
AcDbLine
 10
118.3400000000001
 20
16.58030501197112
 30
0.0
 11
118.3400000000001
 21
27.0685883926466
 31
0.0
  0
LINE
  5
203
330
1FF
100
AcDbEntity
  8
치수문자_일반주서
 62
     0
370
    -2
100
AcDbLine
 10
67.54000000000006
 20
18.88105852706241
 30
0.0
 11
67.54000000000006
 21
27.0685883926466
 31
0.0
  0
LINE
  5
204
330
1FF
100
AcDbEntity
  8
치수문자_일반주서
 62
     0
370
    -2
100
AcDbLine
 10
115.0380000000001
 20
27.0685883926466
 30
0.0
 11
70.84200000000007
 21
27.0685883926466
 31
0.0
  0
SOLID
  5
205
330
1FF
100
AcDbEntity
  8
치수문자_일반주서
 62
     0
100
AcDbTrace
 10
115.0380000000001
 20
26.51825505931326
 30
0.0
 11
115.0380000000001
 21
27.61892172597993
 31
0.0
 12
118.3400000000001
 22
27.0685883926466
 32
0.0
 13
118.3400000000001
 23
27.0685883926466
 33
0.0
  0
SOLID
  5
206
330
1FF
100
AcDbEntity
  8
치수문자_일반주서
 62
     0
100
AcDbTrace
 10
70.84200000000007
 20
27.61892172597993
 30
0.0
 11
70.84200000000007
 21
26.51825505931326
 31
0.0
 12
67.54000000000006
 22
27.0685883926466
 32
0.0
 13
67.54000000000006
 23
27.0685883926466
 33
0.0
  0
MTEXT
  5
207
330
1FF
100
AcDbEntity
  8
치수문자_일반주서
 62
     0
100
AcDbMText
 10
92.94000000000005
 20
31.4435883926466
 30
0.0
 40
3.5
 41
0.0
 71
     2
 72
     1
  1
\A1;50.80 [2]
  7
SLDTEXTSTYLE0
 73
     1
 44
1.0
  0
POINT
  5
208
330
1FF
100
AcDbEntity
  8
Defpoints
 62
     0
100
AcDbPoint
 10
118.3400000000001
 20
16.51780501197112
 30
0.0
  0
POINT
  5
209
330
1FF
100
AcDbEntity
  8
Defpoints
 62
     0
100
AcDbPoint
 10
67.54000000000006
 20
18.81855852706241
 30
0.0
  0
POINT
  5
20A
330
1FF
100
AcDbEntity
  8
Defpoints
 62
     0
100
AcDbPoint
 10
67.54000000000006
 20
27.0685883926466
 30
0.0
  0
ENDBLK
  5
201
330
1FF
100
AcDbEntity
  8
0
100
AcDbBlockEnd
  0
BLOCK
  5
20C
330
20B
100
AcDbEntity
  8
0
100
AcDbBlockBegin
  2
*D10
 70
     1
 10
0.0
 20
0.0
 30
0.0
  3
*D10
  1
*D10
  0
LINE
  5
20E
330
20B
100
AcDbEntity
  8
치수문자_일반주서
 62
     0
370
    -2
100
AcDbLine
 10
118.3400000000001
 20
16.58030501197112
 30
0.0
 11
118.3400000000001
 21
38.85136444989526
 31
0.0
  0
LINE
  5
20F
330
20B
100
AcDbEntity
  8
치수문자_일반주서
 62
     0
370
    -2
100
AcDbLine
 10
16.74000000000007
 20
17.61125000000001
 30
0.0
 11
16.74000000000007
 21
38.85136444989526
 31
0.0
  0
LINE
  5
210
330
20B
100
AcDbEntity
  8
치수문자_일반주서
 62
     0
370
    -2
100
AcDbLine
 10
115.0380000000001
 20
38.85136444989526
 30
0.0
 11
20.04200000000007
 21
38.85136444989526
 31
0.0
  0
SOLID
  5
211
330
20B
100
AcDbEntity
  8
치수문자_일반주서
 62
     0
100
AcDbTrace
 10
115.0380000000001
 20
38.30103111656193
 30
0.0
 11
115.0380000000001
 21
39.4016977832286
 31
0.0
 12
118.3400000000001
 22
38.85136444989526
 32
0.0
 13
118.3400000000001
 23
38.85136444989526
 33
0.0
  0
SOLID
  5
212
330
20B
100
AcDbEntity
  8
치수문자_일반주서
 62
     0
100
AcDbTrace
 10
20.04200000000007
 20
39.4016977832286
 30
0.0
 11
20.04200000000007
 21
38.30103111656193
 31
0.0
 12
16.74000000000007
 22
38.85136444989526
 32
0.0
 13
16.74000000000007
 23
38.85136444989526
 33
0.0
  0
MTEXT
  5
213
330
20B
100
AcDbEntity
  8
치수문자_일반주서
 62
     0
100
AcDbMText
 10
67.54000000000006
 20
43.22636444989526
 30
0.0
 40
3.5
 41
0.0
 71
     2
 72
     1
  1
\A1;101.60 [4]
  7
SLDTEXTSTYLE0
 73
     1
 44
1.0
  0
POINT
  5
214
330
20B
100
AcDbEntity
  8
Defpoints
 62
     0
100
AcDbPoint
 10
118.3400000000001
 20
16.51780501197112
 30
0.0
  0
POINT
  5
215
330
20B
100
AcDbEntity
  8
Defpoints
 62
     0
100
AcDbPoint
 10
16.74000000000007
 20
17.54875000000001
 30
0.0
  0
POINT
  5
216
330
20B
100
AcDbEntity
  8
Defpoints
 62
     0
100
AcDbPoint
 10
16.74000000000007
 20
38.85136444989526
 30
0.0
  0
ENDBLK
  5
20D
330
20B
100
AcDbEntity
  8
0
100
AcDbBlockEnd
  0
BLOCK
  5
218
330
217
100
AcDbEntity
  8
0
100
AcDbBlockBegin
  2
*D11
 70
     1
 10
0.0
 20
0.0
 30
0.0
  3
*D11
  1
*D11
  0
LINE
  5
21A
330
217
100
AcDbEntity
  8
치수문자_일반주서
 62
     0
370
    -2
100
AcDbLine
 10
88.66434225732495
 20
18.81875000000002
 30
0.0
 11
131.1804745971158
 21
18.81875000000018
 31
0.0
  0
LINE
  5
21B
330
217
100
AcDbEntity
  8
치수문자_일반주서
 62
     0
370
    -2
100
AcDbLine
 10
88.66434225732488
 20
6.118750000000005
 30
0.0
 11
131.1804745971158
 21
6.118750000000166
 31
0.0
  0
LINE
  5
21C
330
217
100
AcDbEntity
  8
치수문자_일반주서
 62
     0
370
    -2
100
AcDbLine
 10
131.1804745971158
 20
18.81875000000018
 30
0.0
 11
131.1804745971156
 21
48.80825000000018
 31
0.0
  0
LINE
  5
21D
330
217
100
AcDbEntity
  8
치수문자_일반주서
 62
     0
370
    -2
100
AcDbLine
 10
131.1804745971158
 20
15.51675000000018
 30
0.0
 11
131.1804745971158
 21
9.420750000000165
 31
0.0
  0
SOLID
  5
21E
330
217
100
AcDbEntity
  8
치수문자_일반주서
 62
     0
100
AcDbTrace
 10
131.7308079304491
 20
15.51675000000018
 30
0.0
 11
130.6301412637825
 21
15.51675000000017
 31
0.0
 12
131.1804745971158
 22
18.81875000000018
 32
0.0
 13
131.1804745971158
 23
18.81875000000018
 33
0.0
  0
SOLID
  5
21F
330
217
100
AcDbEntity
  8
치수문자_일반주서
 62
     0
100
AcDbTrace
 10
130.6301412637825
 20
9.420750000000163
 30
0.0
 11
131.7308079304491
 21
9.420750000000167
 31
0.0
 12
131.1804745971158
 22
6.118750000000166
 32
0.0
 13
131.1804745971158
 23
6.118750000000166
 33
0.0
  0
MTEXT
  5
220
330
217
100
AcDbEntity
  8
치수문자_일반주서
 62
     0
100
AcDbMText
 10
126.8054745971157
 20
35.46450000000016
 30
0.0
 40
3.5
 41
0.0
 71
     2
 72
     1
  1
\A1;%%c12.70 [1/2]
  7
SLDTEXTSTYLE0
 11
-4.475859752819525E-15
 21
1.0
 31
0.0
 73
     1
 44
1.0
  0
POINT
  5
221
330
217
100
AcDbEntity
  8
Defpoints
 62
     0
100
AcDbPoint
 10
88.60184225732495
 20
18.81875000000002
 30
0.0
  0
POINT
  5
222
330
217
100
AcDbEntity
  8
Defpoints
 62
     0
100
AcDbPoint
 10
88.60184225732488
 20
6.118750000000005
 30
0.0
  0
POINT
  5
223
330
217
100
AcDbEntity
  8
Defpoints
 62
     0
100
AcDbPoint
 10
131.1804745971158
 20
6.118750000000164
 30
0.0
  0
ENDBLK
  5
219
330
217
100
AcDbEntity
  8
0
100
AcDbBlockEnd
  0
BLOCK
  5
25F
330
25E
100
AcDbEntity
  8
0
100
AcDbBlockBegin
  2
*D12
 70
     1
 10
0.0
 20
0.0
 30
0.0
  3
*D12
  1
*D12
  0
LINE
  5
261
330
25E
100
AcDbEntity
  8
치수문자_일반주서
 62
     0
370
    -2
100
AcDbLine
 10
-39.59250000000001
 20
6.351074928723888
 30
0.0
 11
-53.16500000000005
 21
6.351074928723835
 31
0.0
  0
LINE
  5
262
330
25E
100
AcDbEntity
  8
치수문자_일반주서
 62
     0
370
    -2
100
AcDbLine
 10
-39.59250000000001
 20
-6.348925071276101
 30
0.0
 11
-53.16500000000001
 21
-6.348925071276153
 31
0.0
  0
LINE
  5
263
330
25E
100
AcDbEntity
  8
치수문자_일반주서
 62
     0
370
    -2
100
AcDbLine
 10
-53.16500000000003
 20
3.049074928723836
 30
0.0
 11
-53.16500000000002
 21
-3.046925071276154
 31
0.0
  0
SOLID
  5
264
330
25E
100
AcDbEntity
  8
치수문자_일반주서
 62
     0
100
AcDbTrace
 10
-52.6146666666667
 20
3.049074928723837
 30
0.0
 11
-53.71533333333337
 21
3.049074928723834
 31
0.0
 12
-53.16500000000005
 22
6.351074928723835
 32
0.0
 13
-53.16500000000005
 23
6.351074928723835
 33
0.0
  0
SOLID
  5
265
330
25E
100
AcDbEntity
  8
치수문자_일반주서
 62
     0
100
AcDbTrace
 10
-53.71533333333335
 20
-3.046925071276156
 30
0.0
 11
-52.61466666666669
 21
-3.046925071276152
 31
0.0
 12
-53.16500000000001
 22
-6.348925071276153
 32
0.0
 13
-53.16500000000001
 23
-6.348925071276153
 33
0.0
  0
MTEXT
  5
266
330
25E
100
AcDbEntity
  8
치수문자_일반주서
 62
     0
100
AcDbMText
 10
-57.54000000000003
 20
0.0010749287238735
 30
0.0
 40
3.5
 41
0.0
 71
     2
 72
     1
  1
\A1;%%c12.70 [1/2]
  7
SLDTEXTSTYLE0
 11
-3.356894814614650E-15
 21
1.0
 31
0.0
 73
     1
 44
1.0
  0
POINT
  5
267
330
25E
100
AcDbEntity
  8
Defpoints
 62
     0
100
AcDbPoint
 10
-39.53000000000001
 20
6.351074928723888
 30
0.0
  0
POINT
  5
268
330
25E
100
AcDbEntity
  8
Defpoints
 62
     0
100
AcDbPoint
 10
-39.53000000000001
 20
-6.348925071276101
 30
0.0
  0
POINT
  5
269
330
25E
100
AcDbEntity
  8
Defpoints
 62
     0
100
AcDbPoint
 10
-53.16500000000001
 20
-6.348925071276152
 30
0.0
  0
ENDBLK
  5
260
330
25E
100
AcDbEntity
  8
0
100
AcDbBlockEnd
  0
BLOCK
  5
26B
330
26A
100
AcDbEntity
  8
0
100
AcDbBlockBegin
  2
*D13
 70
     1
 10
0.0
 20
0.0
 30
0.0
  3
*D13
  1
*D13
  0
LINE
  5
26D
330
26A
100
AcDbEntity
  8
치수문자_일반주서
 62
     0
370
    -2
100
AcDbLine
 10
60.79999999999999
 20
4.112629940695006
 30
0.0
 11
60.79999999999999
 21
14.60091332137048
 31
0.0
  0
LINE
  5
26E
330
26A
100
AcDbEntity
  8
치수문자_일반주서
 62
     0
370
    -2
100
AcDbLine
 10
9.999999999999993
 20
6.41338345578629
 30
0.0
 11
9.999999999999993
 21
14.60091332137048
 31
0.0
  0
LINE
  5
26F
330
26A
100
AcDbEntity
  8
치수문자_일반주서
 62
     0
370
    -2
100
AcDbLine
 10
57.49799999999999
 20
14.60091332137048
 30
0.0
 11
13.30199999999999
 21
14.60091332137048
 31
0.0
  0
SOLID
  5
270
330
26A
100
AcDbEntity
  8
치수문자_일반주서
 62
     0
100
AcDbTrace
 10
57.49799999999999
 20
14.05057998803715
 30
0.0
 11
57.49799999999999
 21
15.15124665470381
 31
0.0
 12
60.79999999999999
 22
14.60091332137048
 32
0.0
 13
60.79999999999999
 23
14.60091332137048
 33
0.0
  0
SOLID
  5
271
330
26A
100
AcDbEntity
  8
치수문자_일반주서
 62
     0
100
AcDbTrace
 10
13.30199999999999
 20
15.15124665470381
 30
0.0
 11
13.30199999999999
 21
14.05057998803715
 31
0.0
 12
9.999999999999993
 22
14.60091332137048
 32
0.0
 13
9.999999999999993
 23
14.60091332137048
 33
0.0
  0
MTEXT
  5
272
330
26A
100
AcDbEntity
  8
치수문자_일반주서
 62
     0
100
AcDbMText
 10
35.39999999999998
 20
18.97591332137048
 30
0.0
 40
3.5
 41
0.0
 71
     2
 72
     1
  1
\A1;50.80 [2]
  7
SLDTEXTSTYLE0
 73
     1
 44
1.0
  0
POINT
  5
273
330
26A
100
AcDbEntity
  8
Defpoints
 62
     0
100
AcDbPoint
 10
60.79999999999999
 20
4.050129940695006
 30
0.0
  0
POINT
  5
274
330
26A
100
AcDbEntity
  8
Defpoints
 62
     0
100
AcDbPoint
 10
9.999999999999993
 20
6.35088345578629
 30
0.0
  0
POINT
  5
275
330
26A
100
AcDbEntity
  8
Defpoints
 62
     0
100
AcDbPoint
 10
9.999999999999993
 20
14.60091332137048
 30
0.0
  0
ENDBLK
  5
26C
330
26A
100
AcDbEntity
  8
0
100
AcDbBlockEnd
  0
BLOCK
  5
277
330
276
100
AcDbEntity
  8
0
100
AcDbBlockBegin
  2
*D14
 70
     1
 10
0.0
 20
0.0
 30
0.0
  3
*D14
  1
*D14
  0
LINE
  5
279
330
276
100
AcDbEntity
  8
치수문자_일반주서
 62
     0
370
    -2
100
AcDbLine
 10
60.79999999999999
 20
4.112629940695006
 30
0.0
 11
60.79999999999999
 21
26.38368937861915
 31
0.0
  0
LINE
  5
27A
330
276
100
AcDbEntity
  8
치수문자_일반주서
 62
     0
370
    -2
100
AcDbLine
 10
-40.8
 20
5.143574928723895
 30
0.0
 11
-40.8
 21
26.38368937861915
 31
0.0
  0
LINE
  5
27B
330
276
100
AcDbEntity
  8
치수문자_일반주서
 62
     0
370
    -2
100
AcDbLine
 10
57.49799999999999
 20
26.38368937861915
 30
0.0
 11
-37.498
 21
26.38368937861915
 31
0.0
  0
SOLID
  5
27C
330
276
100
AcDbEntity
  8
치수문자_일반주서
 62
     0
100
AcDbTrace
 10
57.49799999999999
 20
25.83335604528581
 30
0.0
 11
57.49799999999999
 21
26.93402271195248
 31
0.0
 12
60.79999999999999
 22
26.38368937861915
 32
0.0
 13
60.79999999999999
 23
26.38368937861915
 33
0.0
  0
SOLID
  5
27D
330
276
100
AcDbEntity
  8
치수문자_일반주서
 62
     0
100
AcDbTrace
 10
-37.498
 20
26.93402271195248
 30
0.0
 11
-37.498
 21
25.83335604528581
 31
0.0
 12
-40.8
 22
26.38368937861915
 32
0.0
 13
-40.8
 23
26.38368937861915
 33
0.0
  0
MTEXT
  5
27E
330
276
100
AcDbEntity
  8
치수문자_일반주서
 62
     0
100
AcDbMText
 10
9.999999999999993
 20
30.75868937861915
 30
0.0
 40
3.5
 41
0.0
 71
     2
 72
     1
  1
\A1;101.60 [4]
  7
SLDTEXTSTYLE0
 73
     1
 44
1.0
  0
POINT
  5
27F
330
276
100
AcDbEntity
  8
Defpoints
 62
     0
100
AcDbPoint
 10
60.79999999999999
 20
4.050129940695006
 30
0.0
  0
POINT
  5
280
330
276
100
AcDbEntity
  8
Defpoints
 62
     0
100
AcDbPoint
 10
-40.8
 20
5.081074928723895
 30
0.0
  0
POINT
  5
281
330
276
100
AcDbEntity
  8
Defpoints
 62
     0
100
AcDbPoint
 10
-40.8
 20
26.38368937861915
 30
0.0
  0
ENDBLK
  5
278
330
276
100
AcDbEntity
  8
0
100
AcDbBlockEnd
  0
BLOCK
  5
283
330
282
100
AcDbEntity
  8
0
100
AcDbBlockBegin
  2
*D15
 70
     1
 10
0.0
 20
0.0
 30
0.0
  3
*D15
  1
*D15
  0
LINE
  5
285
330
282
100
AcDbEntity
  8
치수문자_일반주서
 62
     0
370
    -2
100
AcDbLine
 10
31.12434225732488
 20
6.351074928723898
 30
0.0
 11
73.64047459711568
 21
6.351074928724056
 31
0.0
  0
LINE
  5
286
330
282
100
AcDbEntity
  8
치수문자_일반주서
 62
     0
370
    -2
100
AcDbLine
 10
31.12434225732481
 20
-6.348925071276112
 30
0.0
 11
73.64047459711573
 21
-6.348925071275954
 31
0.0
  0
LINE
  5
287
330
282
100
AcDbEntity
  8
치수문자_일반주서
 62
     0
370
    -2
100
AcDbLine
 10
73.64047459711568
 20
6.351074928724056
 30
0.0
 11
73.64047459711558
 21
36.34057492872406
 31
0.0
  0
LINE
  5
288
330
282
100
AcDbEntity
  8
치수문자_일반주서
 62
     0
370
    -2
100
AcDbLine
 10
73.6404745971157
 20
3.049074928724057
 30
0.0
 11
73.64047459711571
 21
-3.046925071275954
 31
0.0
  0
SOLID
  5
289
330
282
100
AcDbEntity
  8
치수문자_일반주서
 62
     0
100
AcDbTrace
 10
74.19080793044903
 20
3.049074928724059
 30
0.0
 11
73.09014126378237
 21
3.049074928724055
 31
0.0
 12
73.64047459711568
 22
6.351074928724056
 32
0.0
 13
73.64047459711568
 23
6.351074928724056
 33
0.0
  0
SOLID
  5
28A
330
282
100
AcDbEntity
  8
치수문자_일반주서
 62
     0
100
AcDbTrace
 10
73.09014126378239
 20
-3.046925071275956
 30
0.0
 11
74.19080793044904
 21
-3.046925071275952
 31
0.0
 12
73.64047459711573
 22
-6.348925071275954
 32
0.0
 13
73.64047459711573
 23
-6.348925071275954
 33
0.0
  0
MTEXT
  5
28B
330
282
100
AcDbEntity
  8
치수문자_일반주서
 62
     0
100
AcDbMText
 10
69.26547459711563
 20
22.99682492872405
 30
0.0
 40
3.5
 41
0.0
 71
     2
 72
     1
  1
\A1;%%c12.70 [1/2]
  7
SLDTEXTSTYLE0
 11
-3.356894814614644E-15
 21
1.0
 31
0.0
 73
     1
 44
1.0
  0
POINT
  5
28C
330
282
100
AcDbEntity
  8
Defpoints
 62
     0
100
AcDbPoint
 10
31.06184225732488
 20
6.351074928723898
 30
0.0
  0
POINT
  5
28D
330
282
100
AcDbEntity
  8
Defpoints
 62
     0
100
AcDbPoint
 10
31.06184225732481
 20
-6.348925071276112
 30
0.0
  0
POINT
  5
28E
330
282
100
AcDbEntity
  8
Defpoints
 62
     0
100
AcDbPoint
 10
73.64047459711574
 20
-6.348925071275953
 30
0.0
  0
ENDBLK
  5
284
330
282
100
AcDbEntity
  8
0
100
AcDbBlockEnd
  0
BLOCK
  5
298
330
297
100
AcDbEntity
  8
0
100
AcDbBlockBegin
  2
*D16
 70
     1
 10
0.0
 20
0.0
 30
0.0
  3
*D16
  1
*D16
  0
LINE
  5
29A
330
297
100
AcDbEntity
  8
치수문자_일반주서
 62
     0
370
    -2
100
AcDbLine
 10
61.94339522531173
 20
-8.846775231586017
 30
0.0
 11
79.84896274922238
 21
-35.84446531257583
 31
0.0
  0
MTEXT
  5
29B
330
297
100
AcDbEntity
  8
치수문자_일반주서
 62
     0
100
AcDbMText
 10
74.29857392130049
 20
-22.72639347030878
 30
0.0
 40
3.5
 41
0.0
 71
     5
 72
     1
  1
\A1;R1.52 [R.060]
  7
SLDTEXTSTYLE0
 11
0.5527134739560177
 21
-0.8333713552237504
 31
0.0
 73
     1
 44
1.0
  0
SOLID
  5
29C
330
297
100
AcDbEntity
  8
치수문자_일반주서
 62
     0
100
AcDbTrace
 10
62.40202726113654
 20
-8.542598583085555
 30
0.0
 11
61.48476318948693
 21
-9.15095188008648
 31
0.0
 12
60.11833533430896
 22
-6.094983016637194
 32
0.0
 13
60.11833533430896
 23
-6.094983016637194
 33
0.0
  0
LINE
  5
29D
330
297
100
AcDbEntity
  8
치수문자_일반주서
 62
     0
100
AcDbLine
 10
59.18599999999999
 20
-4.8249250712762
 30
0.0
 11
59.36599999999999
 21
-4.8249250712762
 31
0.0
  0
LINE
  5
29E
330
297
100
AcDbEntity
  8
치수문자_일반주서
 62
     0
100
AcDbLine
 10
59.27599999999999
 20
-4.914925071276199
 30
0.0
 11
59.27599999999999
 21
-4.7349250712762
 31
0.0
  0
POINT
  5
29F
330
297
100
AcDbEntity
  8
Defpoints
 62
     0
100
AcDbPoint
 10
60.11833533430896
 20
-6.094983016637194
 30
0.0
  0
POINT
  5
2A0
330
297
100
AcDbEntity
  8
Defpoints
 62
     0
100
AcDbPoint
 10
59.27599999999999
 20
-4.8249250712762
 30
0.0
  0
ENDBLK
  5
299
330
297
100
AcDbEntity
  8
0
100
AcDbBlockEnd
  0
ENDSEC
  0
SECTION
  2
ENTITIES
  0
LINE
  5
CB
330
1F
100
AcDbEntity
  8
참조1
100
AcDbLine
 10
13.17500000000001
 20
-0.0000000000000039
 30
0.0
 11
13.17500000000001
 21
-40.00000000000001
 31
0.0
  0
LINE
  5
CC
330
1F
100
AcDbEntity
  8
참조1
100
AcDbLine
 10
13.17500000000001
 20
-40.00000000000001
 30
0.0
 11
-14.68385681430865
 21
-40.0
 31
0.0
  0
INSERT
  5
CE
330
1F
100
AcDbEntity
  8
0
  6
Continuous
 62
     7
100
AcDbBlockReference
 66
     1
  2
블럭10
 10
-0.7652729321251991
 20
-52.04717430164393
 30
0.0
  0
ATTRIB
  5
CF
330
CE
100
AcDbEntity
  8
FORMAT
 62
     2
100
AcDbText
 10
-10.90690894426183
 20
-49.97180738881174
 30
0.0
 40
4.233333333333333
  1
EM212909 [ 4 FLUTE ]
 41
0.75
  7
SLDTEXTSTYLE0
 11
-10.90690894426183
 21
-52.08847405547841
 31
0.0
100
AcDbAttribute
  2
AUTOATTR0
 70
     0
 74
     1
  0
SEQEND
  5
D0
330
CE
100
AcDbEntity
  8
0
  6
Continuous
 62
     7
  0
HATCH
  5
D1
330
1F
100
AcDbEntity
  8
중심선
100
AcDbHatch
 10
0.0
 20
0.0
 30
0.0
210
0.0
220
0.0
230
1.0
  2
SOLID
 70
     1
 71
     0
 91
        1
 92
        0
 93
        4
 72
     1
 10
4.94963637225565
 20
-35.8
 11
1.503361128418368
 21
-35.8
 72
     1
 10
1.503361128418368
 20
-35.8
 11
-0.6248687307856549
 21
-38.33632558057259
 72
     1
 10
-0.6248687307856549
 20
-38.33632558057259
 11
2.821439598164777
 21
-38.3362861512701
 72
     1
 10
2.821439598164777
 20
-38.3362861512701
 11
4.94963637225565
 21
-35.8
 97
        0
 75
     0
 76
     1
 98
        1
 10
0.0
 20
0.0
  0
HATCH
  5
D2
330
1F
100
AcDbEntity
  8
중심선
100
AcDbHatch
 10
0.0
 20
0.0
 30
0.0
210
0.0
220
0.0
230
1.0
  2
SOLID
 70
     1
 71
     0
 91
        1
 92
        0
 93
        4
 72
     1
 10
9.962400363291628
 20
-35.8
 11
6.516125119454347
 21
-35.8
 72
     1
 10
6.516125119454347
 20
-35.8
 11
1.984987111096931
 21
-41.20000000000002
 72
     1
 10
1.984987111096931
 20
-41.20000000000002
 11
5.431262354934213
 21
-41.20000000000002
 72
     1
 10
5.431262354934213
 20
-41.20000000000002
 11
9.962400363291628
 21
-35.8
 97
        0
 75
     0
 76
     1
 98
        1
 10
0.0
 20
0.0
  0
HATCH
  5
D3
330
1F
100
AcDbEntity
  8
중심선
100
AcDbHatch
 10
0.0
 20
0.0
 30
0.0
210
0.0
220
0.0
230
1.0
  2
SOLID
 70
     1
 71
     0
 91
        1
 92
        0
 93
        4
 72
     1
 10
14.97516435432755
 20
-35.79999999999997
 11
11.52888911049041
 21
-35.8
 72
     1
 10
11.52888911049041
 20
-35.8
 11
4.480452208601132
 21
-44.20000000000002
 72
     1
 10
4.480452208601132
 20
-44.20000000000002
 11
7.926727452438414
 21
-44.20000000000002
 72
     1
 10
7.926727452438414
 20
-44.20000000000002
 11
14.97516435432755
 21
-35.79999999999997
 97
        0
 75
     0
 76
     1
 98
        1
 10
0.0
 20
0.0
  0
HATCH
  5
D4
330
1F
100
AcDbEntity
  8
중심선
100
AcDbHatch
 10
0.0
 20
0.0
 30
0.0
210
0.0
220
0.0
230
1.0
  2
SOLID
 70
     1
 71
     0
 91
        1
 92
        0
 93
        6
 72
     3
 10
19.7750547853397
 20
-40.00000000005127
 11
3.960054785062284
 21
1.540850780301639E-10
 40
0.3939339440162633
 50
17.09539180608434
 51
320.0019657685081
 73
     0
 72
     1
 10
21.45805444104026
 20
-38.58789400463833
 11
23.76335631474133
 21
-36.65356729459038
 72
     3
 10
19.77505478528685
 20
-40.00000000000015
 11
6.600054785286829
 21
-1.249000902703301E-13
 40
0.6363583540795982
 50
39.99873849337406
 51
368.4976242363725
 73
     1
 72
     1
 10
26.20038727718746
 20
-39.03999999993002
 11
18.45512209212277
 21
-39.03999999993002
 72
     1
 10
18.45512209212277
 20
-39.03999999993002
 11
18.45509704767684
 21
-40.95999999992991
 72
     1
 10
18.45509704767684
 20
-40.95999999992991
 11
22.89647681714888
 21
-40.95999999992988
 97
        0
 75
     0
 76
     1
 98
        1
 10
0.0
 20
0.0
  0
LINE
  5
124
330
1F
100
AcDbEntity
  8
참조1
100
AcDbLine
 10
83.28848381534561
 20
7.440000000000002
 30
0.0
 11
83.28848381534561
 21
-7.440000000000002
 31
0.0
  0
LINE
  5
125
330
1F
100
AcDbEntity
  8
참조1
100
AcDbLine
 10
95.98848381534562
 20
5.440000000000002
 30
0.0
 11
83.28848381534561
 21
5.440000000000002
 31
0.0
  0
SOLID
  5
126
330
1F
100
AcDbEntity
  8
참조1
100
AcDbTrace
 10
83.28848381534561
 20
5.440000000000002
 30
0.0
 11
89.63848381534561
 21
4.424000000000002
 31
0.0
 12
89.63848381534561
 22
6.456000000000002
 32
0.0
 13
89.63848381534561
 23
6.456000000000002
 33
0.0
  0
LINE
  5
127
330
1F
100
AcDbEntity
  8
참조1
100
AcDbLine
 10
95.98848381534562
 20
-5.440000000000002
 30
0.0
 11
83.28848381534561
 21
-5.440000000000002
 31
0.0
  0
SOLID
  5
128
330
1F
100
AcDbEntity
  8
참조1
100
AcDbTrace
 10
83.28848381534561
 20
-5.440000000000002
 30
0.0
 11
89.63848381534561
 21
-6.456000000000002
 31
0.0
 12
89.63848381534561
 22
-4.424000000000002
 32
0.0
 13
89.63848381534561
 23
-4.424000000000002
 33
0.0
  0
MTEXT
  5
129
330
1F
100
AcDbEntity
  8
참조1
100
AcDbMText
 10
92.88859862590819
 20
11.06571756601608
 30
0.0
 40
3.5
 41
0.0
 71
     1
 72
     1
  1
A
  7
SLDTEXTSTYLE0
 73
     1
 44
1.0
  0
MTEXT
  5
12A
330
1F
100
AcDbEntity
  8
참조1
100
AcDbMText
 10
92.88859862590819
 20
0.1857175660160727
 30
0.0
 40
3.5
 41
0.0
 71
     1
 72
     1
  1
A
  7
SLDTEXTSTYLE0
 73
     1
 44
1.0
  0
LINE
  5
225
330
1F
100
AcDbEntity
  8
외형선
  6
Continuous
 62
     1
370
    15
100
AcDbLine
 10
44.46692419371178
 20
-6.348925071276112
 30
0.0
 11
48.33807300104845
 21
-6.348925071276112
 31
0.0
  0
LINE
  5
226
330
1F
100
AcDbEntity
  8
외형선
  6
Continuous
 62
     1
370
    15
100
AcDbLine
 10
13.78735297837395
 20
6.351074928723898
 30
0.0
 11
9.999999999999993
 21
6.351074928723898
 31
0.0
  0
LINE
  5
227
330
1F
100
AcDbEntity
  8
외형선
  6
Continuous
 62
     1
370
    15
100
AcDbLine
 10
27.18921352884335
 20
-6.348925071276112
 30
0.0
 11
31.06181383101946
 21
-6.348925071276112
 31
0.0
  0
LINE
  5
228
330
1F
100
AcDbEntity
  8
외형선
  6
Continuous
 62
     1
370
    15
100
AcDbLine
 10
31.06181383101956
 20
6.351074928723898
 30
0.0
 11
27.18921352884332
 21
6.351074928723898
 31
0.0
  0
LINE
  5
229
330
1F
100
AcDbEntity
  8
외형선
  6
Continuous
 62
     1
370
    15
100
AcDbLine
 10
9.999999999999993
 20
-6.348925071276112
 30
0.0
 11
13.78735297837394
 21
-6.348925071276112
 31
0.0
  0
LINE
  5
22A
330
1F
100
AcDbEntity
  8
외형선
  6
Continuous
 62
     1
370
    15
100
AcDbLine
 10
48.33807300104852
 20
6.351074928723898
 30
0.0
 11
44.46692419371183
 21
6.351074928723898
 31
0.0
  0
LINE
  5
22B
330
1F
100
AcDbEntity
  8
외형선
  6
Continuous
370
    15
100
AcDbLine
 10
9.914723373643021
 20
-6.348925071276106
 30
0.0
 11
9.999999999999993
 21
-6.348925071276106
 31
0.0
  0
LINE
  5
22C
330
1F
100
AcDbEntity
  8
외형선
  6
Continuous
370
    15
100
AcDbLine
 10
-39.53
 20
-6.348925071276106
 30
0.0
 11
9.750156423440181
 21
-6.348925071276106
 31
0.0
  0
LINE
  5
22D
330
1F
100
AcDbEntity
  8
외형선
  6
Continuous
370
    15
100
AcDbLine
 10
9.750156423440181
 20
6.351074928723891
 30
0.0
 11
-39.53
 21
6.351074928723891
 31
0.0
  0
LINE
  5
22E
330
1F
100
AcDbEntity
  8
외형선
  6
Continuous
370
    15
100
AcDbLine
 10
9.999999999999993
 20
6.351074928723891
 30
0.0
 11
9.914723373642893
 21
6.351074928723891
 31
0.0
  0
LINE
  5
22F
330
1F
100
AcDbEntity
  8
외형선
  6
Continuous
370
    15
100
AcDbLine
 10
-39.53
 20
6.351074928723895
 30
0.0
 11
-40.8
 21
5.081074928723895
 31
0.0
  0
LINE
  5
230
330
1F
100
AcDbEntity
  8
외형선
  6
Continuous
370
    15
100
AcDbLine
 10
-40.8
 20
-5.07892507127611
 30
0.0
 11
-39.53
 21
-6.348925071276108
 31
0.0
  0
SPLINE
  5
231
330
1F
100
AcDbEntity
  8
외형선
  6
Continuous
 62
     1
370
    15
100
AcDbSpline
210
0.0
220
0.0
230
1.0
 70
     8
 71
     3
 72
    21
 73
    17
 74
     0
 42
0.000000001
 43
0.00000001
 40
0.0
 40
0.0
 40
0.0
 40
0.0
 40
0.075121151531085
 40
0.1502279475546658
 40
0.2253242301444098
 40
0.3004138610103588
 40
0.3755007143055857
 40
0.4505886693834543
 40
0.5271853242512513
 40
0.6037872814347369
 40
0.6803965806274909
 40
0.7570152525391058
 40
0.8336452709325519
 40
0.9102738973607017
 40
0.9868913675108694
 40
1.0
 40
1.0
 40
1.0
 40
1.0
 10
9.999999999999979
 20
2.1442009445044
 30
0.0
 10
10.69531866623313
 20
1.758958700829071
 30
0.0
 10
12.08582312464024
 20
0.988547832529866
 30
0.0
 10
14.17130932172531
 20
-0.223133205615083
 30
0.0
 10
16.25645302014926
 20
-1.421184320870694
 30
0.0
 10
18.34137174189073
 20
-2.569700182846132
 30
0.0
 10
20.42620408067371
 20
-3.625672087558439
 30
0.0
 10
22.52496894310757
 20
-4.557961847869024
 30
0.0
 10
24.63786439835631
 20
-5.329419031193608
 30
0.0
 10
26.76484493810738
 20
-5.907155178850847
 30
0.0
 10
28.89207836354448
 20
-6.264934356730098
 30
0.0
 10
31.01961526224441
 20
-6.387816945794411
 30
0.0
 10
33.14741893401584
 20
-6.277072916055233
 30
0.0
 10
35.2751935671266
 20
-5.914921324163648
 30
0.0
 10
36.81495760690702
 20
-5.53982032300316
 30
0.0
 10
37.64543056393571
 20
-5.236457797368721
 30
0.0
 10
37.76675941324074
 20
-5.192137719458922
 30
0.0
  0
SPLINE
  5
232
330
1F
100
AcDbEntity
  8
외형선
  6
Continuous
 62
     1
370
    15
100
AcDbSpline
210
0.0
220
0.0
230
1.0
 70
     8
 71
     3
 72
    24
 73
    20
 74
     0
 42
0.000000001
 43
0.00000001
 40
0.0
 40
0.0
 40
0.0
 40
0.0
 40
0.0198239119658124
 40
0.0815300934949395
 40
0.1432403538593687
 40
0.2049563369610295
 40
0.2666796796979363
 40
0.3284120099773479
 40
0.3901454616296124
 40
0.4518697725103849
 40
0.5135865326910687
 40
0.5752973781194962
 40
0.6370039519810364
 40
0.6974951112114431
 40
0.7579853828413136
 40
0.8184778920933524
 40
0.878975760000888
 40
0.9394820975730936
 40
1.0
 40
1.0
 40
1.0
 40
1.0
 10
44.46692419371181
 20
-6.323060593768007
 30
0.0
 10
44.23917466148493
 20
-6.330304885942089
 30
0.0
 10
43.30250581994108
 20
-6.360098592616941
 30
0.0
 10
41.65685612689135
 20
-6.170571417840886
 30
0.0
 10
39.52989511723064
 20
-5.758192923349094
 30
0.0
 10
37.40269551016132
 20
-5.114250363936537
 30
0.0
 10
35.27519610967243
 20
-4.284013636992777
 30
0.0
 10
33.14741825268343
 20
-3.292780592493095
 30
0.0
 10
31.019615444779
 20
-2.179054192235201
 30
0.0
 10
28.89207831464388
 20
-0.9838957440271834
 30
0.0
 10
26.76484495120884
 20
0.2478988301640079
 30
0.0
 10
24.63786439484389
 20
1.470459591223522
 30
0.0
 10
22.52496894402807
 20
2.630516077286634
 30
0.0
 10
20.42620408042915
 20
3.686941513087001
 30
0.0
 10
18.34137174195624
 20
4.603947397591091
 30
0.0
 10
16.25645302013174
 20
5.357180861430416
 30
0.0
 10
14.17130932173001
 20
5.914099395871391
 30
0.0
 10
12.0858231246391
 20
6.275439381613465
 30
0.0
 10
10.69531866623277
 20
6.325733829046664
 30
0.0
 10
10.00000000000004
 20
6.350883455785896
 30
0.0
  0
SPLINE
  5
233
330
1F
100
AcDbEntity
  8
외형선
  6
Continuous
370
    15
100
AcDbSpline
210
0.0
220
0.0
230
1.0
 70
    24
 71
     3
 72
    15
 73
    11
 74
     0
 42
0.000000001
 43
0.00000001
 40
0.0
 40
0.0
 40
0.0
 40
0.0
 40
0.1426723630552141
 40
0.2897903523198704
 40
0.4276838704458734
 40
0.5695763099391006
 40
0.7074698280651023
 40
0.8493622675583289
 40
0.9872557856843316
 40
1.0
 40
1.0
 40
1.0
 40
1.0
 10
9.999999999999993
 20
6.35088345578629
 30
0.0
 10
9.999999999999979
 20
6.139622556143303
 30
0.0
 10
9.99999999999995
 20
5.710517933300119
 30
0.0
 10
10.00000000000005
 20
5.051749443885287
 30
0.0
 10
9.999999999999922
 20
4.4009183816221
 30
0.0
 10
10.00000000000004
 20
3.785870291407507
 30
0.0
 10
9.999999999999979
 20
3.202643002465258
 30
0.0
 10
10.00000000000004
 20
2.689886370583803
 30
0.0
 10
9.999999999999979
 20
2.355966706566884
 30
0.0
 10
10.00000000000002
 20
2.225669542572748
 30
0.0
 10
10.00000000000002
 20
2.214646175745925
 30
0.0
  0
LINE
  5
234
330
1F
100
AcDbEntity
  8
외형선
  6
Continuous
 62
     1
370
    15
100
AcDbLine
 10
60.79999999999999
 20
-3.679614074651463
 30
0.0
 11
60.79999999999999
 21
0.3492839320992953
 31
0.0
  0
SPLINE
  5
235
330
1F
100
AcDbEntity
  8
외형선
  6
Continuous
 62
     1
370
    15
100
AcDbSpline
210
0.0
220
0.0
230
1.0
 70
     8
 71
     3
 72
    20
 73
    16
 74
     0
 42
0.000000001
 43
0.00000001
 40
0.0
 40
0.0
 40
0.0
 40
0.0
 40
0.2499999999999998
 40
0.2499999999999998
 40
0.3749999999999998
 40
0.3749999999999998
 40
0.4999999999999999
 40
0.4999999999999999
 40
0.6249999999999999
 40
0.6249999999999999
 40
0.7499999999999999
 40
0.7499999999999999
 40
0.875
 40
0.875
 40
1.0
 40
1.0
 40
1.0
 40
1.0
 10
58.51400000000002
 20
-5.070716048724695
 30
0.0
 10
58.80006263157113
 20
-5.170443331507637
 30
0.0
 10
59.07176141678293
 20
-5.228474533388299
 30
0.0
 10
59.46308478252309
 20
-5.24159832451978
 30
0.0
 10
59.58764772449434
 20
-5.23326250276086
 30
0.0
 10
59.82714927354747
 20
-5.188402454891779
 30
0.0
 10
59.94321349601
 20
-5.15138291177417
 30
0.0
 10
60.16097725967635
 20
-5.044236697282731
 30
0.0
 10
60.26154532343546
 20
-4.975137074882409
 30
0.0
 10
60.44553706125411
 20
-4.79888502625708
 30
0.0
 10
60.52706334341287
 20
-4.692847960478684
 30
0.0
 10
60.66129700200106
 20
-4.447164788322377
 30
0.0
 10
60.71402519393562
 20
-4.306344343675454
 30
0.0
 10
60.78296059582039
 20
-4.006636334605954
 30
0.0
 10
60.79999999999996
 20
-3.84422562565859
 30
0.0
 10
60.79999999999996
 20
-3.679614074651468
 30
0.0
  0
SPLINE
  5
236
330
1F
100
AcDbEntity
  8
외형선
  6
Continuous
 62
     1
370
    15
100
AcDbSpline
210
0.0
220
0.0
230
1.0
 70
     8
 71
     3
 72
    20
 73
    16
 74
     0
 42
0.000000001
 43
0.00000001
 40
0.0
 40
0.0
 40
0.0
 40
0.0
 40
0.0759679562173084
 40
0.1534748678019681
 40
0.2309704952400695
 40
0.3084568824211499
 40
0.385936084522926
 40
0.4634101655167553
 40
0.5408811956502081
 40
0.6183512489132624
 40
0.6946643447319311
 40
0.7709823768431632
 40
0.8473087438224585
 40
0.9236468300529119
 40
1.0
 40
1.0
 40
1.0
 40
1.0
 10
31.06181383101956
 20
6.348767920122443
 30
0.0
 10
31.75701832327542
 20
6.327687300396116
 30
0.0
 10
33.16151072845603
 20
6.285099010717419
 30
0.0
 10
35.27519714671279
 20
5.924895460689589
 30
0.0
 10
37.40269525302694
 20
5.359223818864573
 30
0.0
 10
39.52989510892846
 20
4.588992872937288
 30
0.0
 10
41.656856417159
 20
3.649004403876935
 30
0.0
 10
43.78365082038435
 20
2.572681428092805
 30
0.0
 10
45.91033970289278
 20
1.400606699298541
 30
0.0
 10
48.02641811916065
 20
0.1823716770838217
 30
0.0
 10
50.13188453307253
 20
-1.035957050303276
 30
0.0
 10
52.22693119704604
 20
-2.211601636056443
 30
0.0
 10
54.32224927389471
 20
-3.303701843529065
 30
0.0
 10
56.41794729400775
 20
-4.28945343611476
 30
0.0
 10
57.81526975283126
 20
-4.81027802784286
 30
0.0
 10
58.51400000000002
 20
-5.070716048724682
 30
0.0
  0
SPLINE
  5
237
330
1F
100
AcDbEntity
  8
외형선
  6
Continuous
 62
     1
370
    15
100
AcDbSpline
210
0.0
220
0.0
230
1.0
 70
     8
 71
     3
 72
    17
 73
    13
 74
     0
 42
0.000000001
 43
0.00000001
 40
0.0
 40
0.0
 40
0.0
 40
0.0
 40
0.1010269085051462
 40
0.2020338589488061
 40
0.3030253030328072
 40
0.40400571881302
 40
0.5049796031240427
 40
0.6074843188852757
 40
0.7099903271952839
 40
0.8125003722596601
 40
0.9150171933322135
 40
0.9999999999999999
 40
0.9999999999999999
 40
0.9999999999999999
 40
0.9999999999999999
 10
58.51399999999999
 20
1.838928782163741
 30
0.0
 10
57.81526975285451
 20
2.218521465461743
 30
0.0
 10
56.41794729407747
 20
2.97763184278781
 30
0.0
 10
54.32224927361569
 20
3.990831362411205
 30
0.0
 10
52.22693119809231
 20
4.864359342298238
 30
0.0
 10
50.1318845291669
 20
5.560572530276259
 30
0.0
 10
48.02641813382932
 20
6.058573939764562
 30
0.0
 10
45.91033964722318
 20
6.335602026091971
 30
0.0
 10
43.78365102804845
 20
6.379364314734369
 30
0.0
 10
41.65685564211856
 20
6.179754232587284
 30
0.0
 10
39.65122441780934
 20
5.793856512284394
 30
0.0
 10
38.35449317121067
 20
5.381283303915277
 30
0.0
 10
37.7667594132408
 20
5.194287576906705
 30
0.0
  0
SPLINE
  5
238
330
1F
100
AcDbEntity
  8
외형선
  6
Continuous
 62
     1
370
    15
100
AcDbSpline
210
0.0
220
0.0
230
1.0
 70
     8
 71
     3
 72
    20
 73
    16
 74
     0
 42
0.000000001
 43
0.00000001
 40
0.0
 40
0.0
 40
0.0
 40
0.0
 40
0.1249999999999979
 40
0.1249999999999979
 40
0.2499999999999959
 40
0.2499999999999959
 40
0.3749999999999938
 40
0.3749999999999938
 40
0.4999999999999918
 40
0.4999999999999918
 40
0.7499999999999958
 40
0.7499999999999958
 40
0.8749999999999978
 40
0.8749999999999978
 40
1.0
 40
1.0
 40
1.0
 40
1.0
 10
60.79999999999999
 20
0.3492839320992953
 30
0.0
 10
60.79999999999999
 20
0.410007528413054
 30
0.0
 10
60.78486358340113
 20
0.4654458484116297
 30
0.0
 10
60.72405187845286
 20
0.5720124107356934
 30
0.0
 10
60.67762967815326
 20
0.623675707156778
 30
0.0
 10
60.55610483899026
 20
0.7257665611958739
 30
0.0
 10
60.48159356305548
 20
0.7761092045574198
 30
0.0
 10
60.30607093348008
 20
0.8815935755855602
 30
0.0
 10
60.20420682643329
 20
0.9371037244675815
 30
0.0
 10
59.87441602466114
 20
1.110992158702174
 30
0.0
 10
59.61319030971084
 20
1.242999455669326
 30
0.0
 10
59.2078084635017
 20
1.45802835398918
 30
0.0
 10
59.06815859734315
 20
1.533434452993566
 30
0.0
 10
58.79021244163338
 20
1.685664641881415
 30
0.0
 10
58.65198038661155
 20
1.762408107450646
 30
0.0
 10
58.51400000000002
 20
1.838928782163725
 30
0.0
  0
LINE
  5
239
330
1F
100
AcDbEntity
  8
외형선
  6
Continuous
370
    15
100
AcDbLine
 10
9.999999999999993
 20
6.35088345578629
 30
0.0
 11
9.999999999999993
 21
6.351074928723898
 31
0.0
  0
SPLINE
  5
23A
330
1F
100
AcDbEntity
  8
외형선
  6
Continuous
 62
     1
370
    15
100
AcDbSpline
210
0.0
220
0.0
230
1.0
 70
     8
 71
     3
 72
    16
 73
    12
 74
     0
 42
0.000000001
 43
0.00000001
 40
0.0
 40
0.0
 40
0.0
 40
0.0
 40
0.0246906866873504
 40
0.1484273147287705
 40
0.2721553778367593
 40
0.3934464088949588
 40
0.5147356602222757
 40
0.6360293982134851
 40
0.7573338808632284
 40
0.8786553460666812
 40
1.0
 40
1.0
 40
1.0
 40
1.0
 10
27.18921352884335
 20
-6.32998806691092
 30
0.0
 10
27.04773717284214
 20
-6.335886516765552
 30
0.0
 10
26.19725634641669
 20
-6.371344869304357
 30
0.0
 10
24.63786696392936
 20
-6.204459703122821
 30
0.0
 10
22.52496827074132
 20
-5.825058183962404
 30
0.0
 10
20.42620425931319
 20
-5.215620595808566
 30
0.0
 10
18.3413716940241
 20
-4.428644653474775
 30
0.0
 10
16.25645303297211
 20
-3.481472021481224
 30
0.0
 10
14.17130931830527
 20
-2.409804594871039
 30
0.0
 10
12.08582312549553
 20
-1.251672228900077
 30
0.0
 10
10.69531866651827
 20
-0.4494076531633731
 30
0.0
 10
10.00000000000004
 20
-0.0482370338283236
 30
0.0
  0
LINE
  5
23B
330
1F
100
AcDbEntity
  8
외형선
  6
Continuous
370
    15
100
AcDbLine
 10
9.999999999999993
 20
-0.0482370338284195
 30
0.0
 11
9.999999999999993
 21
2.144200944504401
 31
0.0
  0
LINE
  5
23C
330
1F
100
AcDbEntity
  8
외형선
  6
Continuous
 62
     1
370
    15
100
AcDbLine
 10
60.79999999999999
 20
1.724044591959915
 30
0.0
 11
60.79999999999999
 21
4.827074928724005
 31
0.0
  0
SPLINE
  5
23D
330
1F
100
AcDbEntity
  8
외형선
  6
Continuous
 62
     1
370
    15
100
AcDbSpline
210
0.0
220
0.0
230
1.0
 70
     8
 71
     3
 72
    20
 73
    16
 74
     0
 42
0.000000001
 43
0.00000001
 40
0.0
 40
0.0
 40
0.0
 40
0.0
 40
0.2499999999999998
 40
0.2499999999999998
 40
0.3749999999999998
 40
0.3749999999999998
 40
0.4999999999999999
 40
0.4999999999999999
 40
0.6249999999999999
 40
0.6249999999999999
 40
0.7499999999999999
 40
0.7499999999999999
 40
0.875
 40
0.875
 40
1.0
 40
1.0
 40
1.0
 40
1.0
 10
58.51400000000002
 20
3.82199579692711
 30
0.0
 10
58.80006263157113
 20
3.689620395689909
 30
0.0
 10
59.07176141678296
 20
3.515724251328271
 30
0.0
 10
59.46308478252312
 20
3.214221491113078
 30
0.0
 10
59.58764772449434
 20
3.109265371385122
 30
0.0
 10
59.82714927354747
 20
2.893360835126957
 30
0.0
 10
59.94321349600997
 20
2.781224227775207
 30
0.0
 10
60.16097725967635
 20
2.558852264306354
 30
0.0
 10
60.26154532343546
 20
2.449947659749286
 30
0.0
 10
60.44553706125411
 20
2.2407392589748
 30
0.0
 10
60.52706334341287
 20
2.142501580825412
 30
0.0
 10
60.66129700200106
 20
1.970636211004472
 30
0.0
 10
60.71402519393562
 20
1.896866179827761
 30
0.0
 10
60.78296059582039
 20
1.785287901999782
 30
0.0
 10
60.79999999999996
 20
1.746087977076989
 30
0.0
 10
60.79999999999996
 20
1.724044591959917
 30
0.0
  0
SPLINE
  5
23E
330
1F
100
AcDbEntity
  8
외형선
  6
Continuous
 62
     1
370
    15
100
AcDbSpline
210
0.0
220
0.0
230
1.0
 70
     8
 71
     3
 72
    13
 73
     9
 74
     0
 42
0.000000001
 43
0.00000001
 40
0.0
 40
0.0
 40
0.0
 40
0.0
 40
0.198866968020582
 40
0.3976959329462491
 40
0.5964970658343609
 40
0.7952805897253228
 40
0.9940567605997679
 40
1.0
 40
1.0
 40
1.0
 40
1.0
 10
9.999999999999979
 20
-5.97634181101284
 30
0.0
 10
10.69531865482721
 20
-6.091136765302172
 30
0.0
 10
12.08582309042473
 20
-6.320704736785972
 30
0.0
 10
14.1713094585488
 20
-6.379667679594858
 30
0.0
 10
16.25645250715726
 20
-6.230895007739734
 30
0.0
 10
18.34137365685191
 20
-5.833689313635643
 30
0.0
 10
19.75203540552841
 20
-5.477162054738355
 30
0.0
 10
20.46774726075392
 20
-5.210946744283468
 30
0.0
 10
20.48852519720595
 20
-5.203218208333126
 30
0.0
  0
SPLINE
  5
23F
330
1F
100
AcDbEntity
  8
외형선
  6
Continuous
370
    15
100
AcDbSpline
210
0.0
220
0.0
230
1.0
 70
    24
 71
     3
 72
    21
 73
    17
 74
     0
 42
0.000000001
 43
0.00000001
 40
0.0
 40
0.0
 40
0.0
 40
0.0
 40
0.0232292200335757
 40
0.0987139346395998
 40
0.1741986492456237
 40
0.2496833638516471
 40
0.3251680784576707
 40
0.4006527930636944
 40
0.4761375076697182
 40
0.551622222275742
 40
0.6271069368817659
 40
0.7025916514877899
 40
0.7780763660938139
 40
0.8535610806998374
 40
0.9290457953058608
 40
1.0
 40
1.0
 40
1.0
 40
1.0
 10
10.00000000000001
 20
0.1235577272814741
 30
0.0
 10
10.00000000000001
 20
0.1281059829291475
 30
0.0
 10
10.00000000000001
 20
0.1474340623945665
 30
0.0
 10
10.00000000000001
 20
0.0677605766581486
 30
0.0
 10
10.00000000000002
 20
-0.1090654906915134
 30
0.0
 10
9.999999999999979
 20
-0.3974099678138696
 30
0.0
 10
10.00000000000002
 20
-0.7746353092599545
 30
0.0
 10
9.999999999999979
 20
-1.236444545968483
 30
0.0
 10
9.99999999999995
 20
-1.765859690380852
 30
0.0
 10
9.999999999999979
 20
-2.350586309011733
 30
0.0
 10
10.00000000000001
 20
-2.972111447891534
 30
0.0
 10
10.00000000000001
 20
-3.613882915117538
 30
0.0
 10
10.00000000000001
 20
-4.257634241466905
 30
0.0
 10
9.999999999999979
 20
-4.88329098467185
 30
0.0
 10
9.999999999999993
 20
-5.467788459074897
 30
0.0
 10
9.999999999999979
 20
-5.810356806665411
 30
0.0
 10
9.999999999999993
 20
-5.976341811012841
 30
0.0
  0
LINE
  5
240
330
1F
100
AcDbEntity
  8
외형선
  6
Continuous
 62
     1
370
    15
100
AcDbLine
 10
60.79999999999999
 20
0.3492839320992953
 30
0.0
 11
60.79999999999999
 21
1.724044591959915
 31
0.0
  0
LINE
  5
241
330
1F
100
AcDbEntity
  8
외형선
  6
Continuous
370
    15
100
AcDbLine
 10
9.999999999999993
 20
-6.348925071276112
 30
0.0
 11
9.999999999999979
 21
-5.97634181101284
 31
0.0
  0
LINE
  5
242
330
1F
100
AcDbEntity
  8
외형선
  6
Continuous
 62
     1
370
    15
100
AcDbLine
 10
60.79999999999999
 20
-4.8249250712762
 30
0.0
 11
60.79999999999999
 21
-3.679614074651463
 31
0.0
  0
LINE
  5
243
330
1F
100
AcDbEntity
  8
외형선
  6
Continuous
370
    15
100
AcDbLine
 10
9.750156423440181
 20
-6.348925071276106
 30
0.0
 11
9.750156423440181
 21
-6.348211357538668
 31
0.0
  0
SPLINE
  5
244
330
1F
100
AcDbEntity
  8
외형선
  6
Continuous
370
    15
100
AcDbSpline
210
0.0
220
0.0
230
1.0
 70
     8
 71
     3
 72
     8
 73
     4
 74
     0
 42
0.000000001
 43
0.00000001
 40
0.0
 40
0.0
 40
0.0
 40
0.0
 40
1.0
 40
1.0
 40
1.0
 40
1.0
 10
10.00000000000001
 20
6.350883455785892
 30
0.0
 10
9.916841125809547
 20
6.351257252725039
 30
0.0
 10
9.833549247357446
 20
6.351083886500197
 30
0.0
 10
9.750156423440181
 20
6.350361887260716
 30
0.0
  0
LINE
  5
245
330
1F
100
AcDbEntity
  8
외형선
  6
Continuous
370
    15
100
AcDbLine
 10
9.750156423440181
 20
2.279586637536909
 30
0.0
 11
9.750156423440181
 21
6.351074928723891
 31
0.0
  0
SPLINE
  5
246
330
1F
100
AcDbEntity
  8
외형선
  6
Continuous
370
    15
100
AcDbSpline
210
0.0
220
0.0
230
1.0
 70
     8
 71
     3
 72
     8
 73
     4
 74
     0
 42
0.000000001
 43
0.00000001
 40
0.0
 40
0.0
 40
0.0
 40
0.0
 40
1.0
 40
1.0
 40
1.0
 40
1.0
 10
10.00000000000001
 20
2.144200944504385
 30
0.0
 10
9.916841125809533
 20
2.189511249868032
 30
0.0
 10
9.833549247357446
 20
2.234660939110384
 30
0.0
 10
9.750156423440181
 20
2.279631980399254
 30
0.0
  0
SPLINE
  5
247
330
1F
100
AcDbEntity
  8
외형선
  6
Continuous
370
    15
100
AcDbSpline
210
0.0
220
0.0
230
1.0
 70
     8
 71
     3
 72
     8
 73
     4
 74
     0
 42
0.000000001
 43
0.00000001
 40
0.0
 40
0.0
 40
0.0
 40
0.0
 40
1.0
 40
1.0
 40
1.0
 40
1.0
 10
10.00000000000001
 20
-0.0482370338283005
 30
0.0
 10
9.916841125809547
 20
-0.0001039061095636
 30
0.0
 10
9.833549247357446
 20
0.0480590995781878
 30
0.0
 10
9.750156423440181
 20
0.0962333132951336
 30
0.0
  0
LINE
  5
248
330
1F
100
AcDbEntity
  8
외형선
  6
Continuous
370
    15
100
AcDbLine
 10
9.750156423440181
 20
-5.926056282309154
 30
0.0
 11
9.750156423440181
 21
0.0962781591216331
 31
0.0
  0
SPLINE
  5
249
330
1F
100
AcDbEntity
  8
외형선
  6
Continuous
370
    15
100
AcDbSpline
210
0.0
220
0.0
230
1.0
 70
     8
 71
     3
 72
     8
 73
     4
 74
     0
 42
0.000000001
 43
0.00000001
 40
0.0
 40
0.0
 40
0.0
 40
0.0
 40
1.0
 40
1.0
 40
1.0
 40
1.0
 10
10.00000000000001
 20
-5.976341811012841
 30
0.0
 10
9.916841125809533
 20
-5.960096382856186
 30
0.0
 10
9.833549247357446
 20
-5.943327043750379
 30
0.0
 10
9.750156423440181
 20
-5.926038851376892
 30
0.0
  0
LINE
  5
24A
330
1F
100
AcDbEntity
  8
외형선
  6
Continuous
370
    15
100
AcDbLine
 10
9.914723373643007
 20
-6.348555576534009
 30
0.0
 11
9.750156423440181
 21
-6.348212029812929
 31
0.0
  0
LINE
  5
24B
330
1F
100
AcDbEntity
  8
외형선
  6
Continuous
370
    15
100
AcDbLine
 10
-39.53
 20
0.0010749287238934
 30
0.0
 11
-39.53
 21
6.351074928723891
 31
0.0
  0
LINE
  5
24C
330
1F
100
AcDbEntity
  8
외형선
  6
Continuous
370
    15
100
AcDbLine
 10
-39.53
 20
-6.348925071276106
 30
0.0
 11
-39.53
 21
0.0010749287238934
 31
0.0
  0
SPLINE
  5
24D
330
1F
100
AcDbEntity
  8
외형선
  6
Continuous
370
    15
100
AcDbSpline
210
0.0
220
0.0
230
1.0
 70
    24
 71
     3
 72
    20
 73
    16
 74
     0
 42
0.000000001
 43
0.00000001
 40
0.0
 40
0.0
 40
0.0
 40
0.0
 40
0.0976436841389441
 40
0.1740407117117007
 40
0.2526532582595697
 40
0.3290502858323266
 40
0.4076628323801961
 40
0.4840598599529135
 40
0.5626724065008221
 40
0.6390694340735782
 40
0.717681980621447
 40
0.794079008194203
 40
0.8726915547420718
 40
0.9490885823148295
 40
1.0
 40
1.0
 40
1.0
 40
1.0
 10
10.00000000000001
 20
-5.976341811012842
 30
0.0
 10
10.00000000000001
 20
-5.751219538803692
 30
0.0
 10
9.999999999999979
 20
-5.34996019650273
 30
0.0
 10
9.999999999999979
 20
-4.688171040999645
 30
0.0
 10
9.999999999999993
 20
-4.058115541744328
 30
0.0
 10
10.00000000000005
 20
-3.409986728677843
 30
0.0
 10
10.00000000000001
 20
-2.775521974270601
 30
0.0
 10
9.999999999999979
 20
-2.160789758642148
 30
0.0
 10
10.00000000000006
 20
-1.594406571882997
 30
0.0
 10
10.00000000000001
 20
-1.082069578536458
 30
0.0
 10
9.99999999999995
 20
-0.6479095570127562
 30
0.0
 10
10.00000000000002
 20
-0.2949063742704432
 30
0.0
 10
9.999999999999993
 20
-0.044965390222556
 30
0.0
 10
9.999999999999993
 20
0.1005534528234477
 30
0.0
 10
10.00000000000001
 20
0.1144416668023265
 30
0.0
 10
10.00000000000001
 20
0.1199956476191311
 30
0.0
  0
LINE
  5
24E
330
1F
100
AcDbEntity
  8
외형선
  6
Continuous
370
    15
100
AcDbLine
 10
-40.8
 20
0.0010749287238934
 30
0.0
 11
-40.8
 21
5.081074928723895
 31
0.0
  0
LINE
  5
24F
330
1F
100
AcDbEntity
  8
외형선
  6
Continuous
370
    15
100
AcDbLine
 10
-40.8
 20
-5.07892507127611
 30
0.0
 11
-40.8
 21
0.0010749287238934
 31
0.0
  0
SPLINE
  5
250
330
1F
100
AcDbEntity
  8
외형선
  6
Continuous
370
    15
100
AcDbSpline
210
0.0
220
0.0
230
1.0
 70
    24
 71
     3
 72
    15
 73
    11
 74
     0
 42
0.000000001
 43
0.00000001
 40
0.0
 40
0.0
 40
0.0
 40
0.0
 40
0.0578654504227581
 40
0.1974140922804734
 40
0.3369627341381886
 40
0.476511375995904
 40
0.6160600178536217
 40
0.7556086597113396
 40
0.8778043298556696
 40
1.0
 40
1.0
 40
1.0
 40
1.0
 10
10.00000000000002
 20
2.214656175745926
 30
0.0
 10
10.00000000000002
 20
2.267670597591165
 30
0.0
 10
10.00000000000001
 20
2.448534893814394
 30
0.0
 10
9.99999999999995
 20
2.842840852846573
 30
0.0
 10
10.00000000000001
 20
3.381221107919743
 30
0.0
 10
9.999999999999979
 20
3.974715945144558
 30
0.0
 10
9.999999999999993
 20
4.6018851625913
 30
0.0
 10
10.00000000000002
 20
5.218294936883931
 30
0.0
 10
9.999999999999993
 20
5.808066421940639
 30
0.0
 10
9.999999999999993
 20
6.169944444504219
 30
0.0
 10
9.999999999999993
 20
6.350883455786006
 30
0.0
  0
LINE
  5
251
330
1F
100
AcDbEntity
  8
중심선
 62
     1
100
AcDbLine
 10
-43.80000000000001
 20
0.0010749287238898
 30
0.0
 11
63.79999999999999
 21
0.0010749287239022
 31
0.0
  0
CIRCLE
  5
252
330
1F
100
AcDbEntity
  8
해칭선
100
AcDbCircle
 10
0.0
 20
0.0
 30
0.0
 40
3.000000000000001
  0
DIMENSION
  5
253
330
1F
100
AcDbEntity
  8
치수문자_일반주서
100
AcDbDimension
  2
*D12
 10
-53.16500000000001
 20
-6.348925071276153
 30
0.0
 11
-53.16500000000003
 21
0.001074928723888
 31
0.0
 70
   160
  1
%%c<>
 71
     2
 42
12.69999999999999
 52
-270.0
  3
SLDDIMSTYLE0
100
AcDbAlignedDimension
 13
-39.53000000000001
 23
6.351074928723888
 33
0.0
 14
-39.53000000000001
 24
-6.348925071276101
 34
0.0
 50
90.0000000000002
100
AcDbRotatedDimension
1001
ACAD
1000
DSTYLE
1002
{
1070
   273
1070
     7
1002
}
  0
DIMENSION
  5
254
330
1F
100
AcDbEntity
  8
치수문자_일반주서
100
AcDbDimension
  2
*D13
 10
9.999999999999993
 20
14.60091332137048
 30
0.0
 11
35.39999999999998
 21
14.60091332137048
 31
0.0
 70
   160
  1
<>
 71
     2
 42
50.8
  3
SLDDIMSTYLE1
100
AcDbAlignedDimension
 13
60.79999999999999
 23
4.050129940695006
 33
0.0
 14
9.999999999999993
 24
6.35088345578629
 34
0.0
 50
0.000000000000004
100
AcDbRotatedDimension
1001
ACAD
1000
DSTYLE
1002
{
1070
   273
1070
     7
1002
}
  0
DIMENSION
  5
255
330
1F
100
AcDbEntity
  8
치수문자_일반주서
100
AcDbDimension
  2
*D14
 10
-40.8
 20
26.38368937861915
 30
0.0
 11
9.999999999999993
 21
26.38368937861915
 31
0.0
 70
   160
  1
<>
 71
     2
 42
101.6
  3
SLDDIMSTYLE1
100
AcDbAlignedDimension
 13
60.79999999999999
 23
4.050129940695006
 33
0.0
 14
-40.8
 24
5.081074928723895
 34
0.0
 50
0.000000000000006
100
AcDbRotatedDimension
1001
ACAD
1000
DSTYLE
1002
{
1070
   273
1070
     7
1002
}
  0
DIMENSION
  5
256
330
1F
100
AcDbEntity
  8
치수문자_일반주서
100
AcDbDimension
  2
*D15
 10
73.64047459711573
 20
-6.348925071275954
 30
0.0
 11
73.64047459711563
 21
22.99682492872406
 31
0.0
 70
   160
  1
%%c<>
 71
     2
 42
12.70000000000001
 52
-270.0
  3
SLDDIMSTYLE1
100
AcDbAlignedDimension
 13
31.06184225732488
 23
6.351074928723898
 33
0.0
 14
31.06184225732481
 24
-6.348925071276112
 34
0.0
 50
90.0000000000002
100
AcDbRotatedDimension
1001
ACAD
1000
DSTYLE
1002
{
1070
   273
1070
     7
1002
}
  0
INSERT
  5
257
330
1F
100
AcDbEntity
  8
해칭선
100
AcDbBlockReference
  2
SW_DOWELSYMBOL_0
 10
0.0
 20
0.0
 30
0.0
  0
SPLINE
  5
258
330
1F
100
AcDbEntity
  8
외형선
  6
Continuous
 62
     1
370
    15
100
AcDbSpline
210
0.0
220
0.0
230
1.0
 70
     8
 71
     3
 72
     9
 73
     5
 74
     0
 42
0.000000001
 43
0.00000001
 40
0.0
 40
0.0
 40
0.0
 40
0.0
 40
0.6036144205427451
 40
0.9566543865034148
 40
0.9566543865034148
 40
0.9566543865034148
 40
0.9566543865034148
 10
59.27599999999999
 20
6.351074928724005
 30
0.0
 10
57.81526751400532
 20
6.218857856845622
 30
0.0
 10
56.70786272881447
 20
6.009310110008558
 30
0.0
 10
55.60052062800812
 20
5.645496666117518
 30
0.0
 10
54.60226965821995
 20
5.349325857234755
 30
0.0
  0
SPLINE
  5
259
330
1F
100
AcDbEntity
  8
외형선
  6
Continuous
 62
     1
370
    15
100
AcDbSpline
210
0.0
220
0.0
230
1.0
 70
     8
 71
     3
 72
    12
 73
     8
 74
     0
 42
0.000000001
 43
0.00000001
 40
0.0
 40
0.0
 40
0.0
 40
0.0
 40
0.176284132728751
 40
0.3821702548514587
 40
0.588078862271762
 40
0.7940190851715059
 40
1.0
 40
1.0
 40
1.0
 40
1.0
 10
48.33807300104852
 20
6.336922264489525
 30
0.0
 10
48.93599635722781
 20
6.32632729567389
 30
0.0
 10
50.2322475732365
 20
6.303358229373154
 30
0.0
 10
52.22693057741981
 20
5.991001774790815
 30
0.0
 10
54.32224943916328
 20
5.466439296604731
 30
0.0
 10
56.41794725267841
 20
4.747855749547535
 30
0.0
 10
57.81526973905392
 20
4.130636105297532
 30
0.0
 10
58.51399999999999
 20
3.821995796927117
 30
0.0
  0
SPLINE
  5
25C
330
1F
100
AcDbEntity
  8
외형선
  6
Continuous
 62
     1
370
    15
100
AcDbSpline
210
0.0
220
0.0
230
1.0
 70
     8
 71
     3
 72
    25
 73
    21
 74
     0
 42
0.000000001
 43
0.00000001
 40
0.0
 40
0.0
 40
0.0
 40
0.0
 40
0.055122398168407
 40
0.1102339068002729
 40
0.1653369548373925
 40
0.2204339856008808
 40
0.2755274526579209
 40
0.331456173430786
 40
0.3873855994453464
 40
0.443317227997675
 40
0.4992525536820476
 40
0.5551930665616931
 40
0.6111402503513619
 40
0.6670955806164165
 40
0.7230519273146438
 40
0.7789999886478867
 40
0.8349412058863855
 40
0.8908770618836283
 40
0.9468090460533399
 40
0.9888337499513796
 40
0.9888337499513796
 40
0.9888337499513796
 40
0.9888337499513796
 10
59.27599999999999
 20
-6.3489250712762
 30
0.0
 10
57.81526975283067
 20
-6.210906758907941
 30
0.0
 10
56.41794729400591
 20
-5.934897399956778
 30
0.0
 10
54.32224927390198
 20
-5.256921491161303
 30
0.0
 10
52.22693119701893
 20
-4.414341342759604
 30
0.0
 10
50.13188453317353
 20
-3.417637398665429
 30
0.0
 10
48.02641811878113
 20
-2.302611787784858
 30
0.0
 10
45.91033970433316
 20
-1.10667046229139
 30
0.0
 10
43.78365081501121
 20
0.1263561455507514
 30
0.0
 10
41.65685643721248
 20
1.344618969647509
 30
0.0
 10
39.52989503407975
 20
2.502681170742651
 30
0.0
 10
37.40269553240811
 20
3.557371216673028
 30
0.0
 10
35.27519610384875
 20
4.469366482209137
 30
0.0
 10
33.14741825372666
 20
5.204558226118282
 30
0.0
 10
31.01961544643023
 20
5.735639920024274
 30
0.0
 10
28.89207830699765
 20
6.351074928723898
 30
0.0
 10
27.18921352884332
 20
6.351074928723898
 30
0.0
 10
24.63786428678723
 20
5.945259885250577
 30
0.0
 10
22.68728008298063
 20
5.590792460720698
 30
0.0
 10
21.44573653904775
 20
5.225601252540555
 30
0.0
 10
20.91310020319015
 20
5.063537037245398
 30
0.0
  0
SPLINE
  5
25D
330
1F
100
AcDbEntity
  8
외형선
  6
Continuous
 62
     1
370
    15
100
AcDbSpline
210
0.0
220
0.0
230
1.0
 70
     8
 71
     3
 72
    28
 73
    24
 74
     0
 42
0.000000001
 43
0.00000001
 40
0.0
 40
0.0
 40
0.0
 40
0.0
 40
0.0093092356731308
 40
0.059853602014931
 40
0.1103934913419883
 40
0.160931511194988
 40
0.2114702726147277
 40
0.2630244807683428
 40
0.3145822577029599
 40
0.3661449762564342
 40
0.4177140032198509
 40
0.4692906670557542
 40
0.5208663940143389
 40
0.5724346121191974
 40
0.6239966814437292
 40
0.6755539695728708
 40
0.7271078499431457
 40
0.7786597001674819
 40
0.8302109003491327
 40
0.880992221818881
 40
0.9317768280650734
 40
0.9825669806150817
 40
0.9896686946674245
 40
0.9896686946674245
 40
0.9896686946674245
 40
0.9896686946674245
 10
13.78735297837395
 20
6.333953756122353
 30
0.0
 10
13.91536830702152
 20
6.339335757098377
 30
0.0
 10
14.73844109212646
 20
6.373939257941379
 30
0.0
 10
16.25644899052325
 20
6.216091705821379
 30
0.0
 10
18.34137282154965
 20
5.852565699117944
 30
0.0
 10
20.4262037913451
 20
5.258973099119066
 30
0.0
 10
22.52496902322071
 20
4.477215315721539
 30
0.0
 10
24.63786437345214
 20
3.524405610550795
 30
0.0
 10
26.76484495691339
 20
2.434310075336912
 30
0.0
 10
28.89207831322005
 20
1.253337327432215
 30
0.0
 10
31.0196154447688
 20
0.0256248607158955
 30
0.0
 10
33.14741825414865
 20
-1.202965852075513
 30
0.0
 10
35.27519610382242
 20
-2.386670862839301
 30
0.0
 10
37.40269553209161
 20
-3.481348570076479
 30
0.0
 10
39.529895035372
 20
-4.446102508847657
 30
0.0
 10
41.65685643236076
 20
-5.245019289714813
 30
0.0
 10
43.7836508331244
 20
-5.84824821362621
 30
0.0
 10
45.91033963673481
 20
-6.233636566487462
 30
0.0
 10
48.02641836946666
 20
-6.384882351568541
 30
0.0
 10
50.13188361311726
 20
-6.304823730605701
 30
0.0
 10
52.22693463284457
 20
-5.984290563274766
 30
0.0
 10
53.72136241631311
 20
-5.635060098249923
 30
0.0
 10
54.51747215923752
 20
-5.367608237531591
 30
0.0
 10
54.61513283613646
 20
-5.334073280848603
 30
0.0
  0
LINE
  5
28F
330
1F
100
AcDbEntity
  8
0
100
AcDbLine
 10
60.79999999999999
 20
4.065074928724004
 30
0.0
 11
60.79999999999999
 21
6.351074928724008
 31
0.0
  0
LINE
  5
290
330
1F
100
AcDbEntity
  8
0
100
AcDbLine
 10
60.79999999999999
 20
6.351074928724008
 30
0.0
 11
58.51399999999997
 21
6.351074928724003
 31
0.0
  0
ARC
  5
291
330
1F
100
AcDbEntity
  8
외형선
  6
Continuous
 62
     1
370
    15
100
AcDbCircle
 10
59.27599999999999
 20
4.827074928724005
 30
0.0
 40
1.524
100
AcDbArc
 50
0.0
 51
90.0
  0
ARC
  5
292
102
{ACAD_REACTORS
102
}
330
1F
100
AcDbEntity
  8
외형선
  6
Continuous
 62
     1
370
    15
100
AcDbCircle
 10
59.27599999999999
 20
-4.8249250712762
 30
0.0
 40
1.524
100
AcDbArc
 50
270.0
 51
0.0
  0
DIMENSION
  5
294
102
{ACAD_REACTORS
102
}
102
{ACAD_XDICTIONARY
360
295
102
}
330
1F
100
AcDbEntity
  8
치수문자_일반주서
100
AcDbDimension
  2
*D16
 10
59.27599999999999
 20
-4.8249250712762
 30
0.0
 11
72.11097411383814
 21
-24.17726633944332
 31
0.0
 70
   164
  1
<>
 71
     5
 42
1.523999999999998
  3
SLDDIMSTYLE1
100
AcDbRadialDimension
 15
60.11833533430896
 25
-6.094983016637194
 35
0.0
 40
0.0
1001
ACAD
1000
DSTYLE
1002
{
1070
   285
1070
     4
1070
   171
1070
     3
1070
   273
1070
     2
1002
}
1001
ACAD_DSTYLE_DIMRADIAL_EXTENSION
1070
   387
1070
     1
1070
   388
1040
4.71238898038469
1070
   390
1040
0.0
  0
ENDSEC
  0
SECTION
  2
OBJECTS
  0
DICTIONARY
  5
C
330
0
100
AcDbDictionary
281
     1
  3
ACAD_GROUP
350
D
  3
ACAD_IMAGE_VARS
350
155
  3
ACAD_LAYOUT
350
1A
  3
ACAD_MLINESTYLE
350
17
  3
ACAD_PLOTSETTINGS
350
19
  3
ACAD_PLOTSTYLENAME
350
E
  3
ACAD_SCALELIST
350
47
  3
APPDATA
350
153
  3
DWGPROPS
350
2A1
  0
DICTIONARY
  5
295
330
294
100
AcDbDictionary
280
     1
281
     1
  0
DICTIONARY
  5
D
102
{ACAD_REACTORS
330
C
102
}
330
C
100
AcDbDictionary
281
     1
  0
RASTERVARIABLES
  5
155
102
{ACAD_REACTORS
330
C
102
}
330
C
100
AcDbRasterVariables
 90
        0
 70
     1
 71
     1
 72
     1
  0
DICTIONARY
  5
1A
102
{ACAD_REACTORS
330
C
102
}
330
C
100
AcDbDictionary
281
     1
  3
Layout1
350
1E
  3
Layout2
350
26
  3
Model
350
22
  0
DICTIONARY
  5
17
102
{ACAD_REACTORS
330
C
102
}
330
C
100
AcDbDictionary
281
     1
  3
Standard
350
18
  0
DICTIONARY
  5
19
102
{ACAD_REACTORS
330
C
102
}
330
C
100
AcDbDictionary
281
     1
  0
ACDBDICTIONARYWDFLT
  5
E
102
{ACAD_REACTORS
330
C
102
}
330
C
100
AcDbDictionary
281
     1
  3
Normal
350
F
100
AcDbDictionaryWithDefault
340
F
  0
DICTIONARY
  5
47
102
{ACAD_REACTORS
330
C
102
}
330
C
100
AcDbDictionary
281
     1
  3
A0
350
48
  3
A1
350
49
  3
A2
350
4A
  3
A3
350
4B
  3
A4
350
4C
  3
A5
350
4D
  3
A6
350
4E
  3
A7
350
4F
  3
A8
350
50
  3
A9
350
51
  3
B0
350
52
  3
B1
350
53
  3
B2
350
54
  3
B3
350
55
  3
B4
350
56
  3
B5
350
57
  3
B6
350
58
  3
B7
350
59
  3
B8
350
5A
  3
B9
350
5B
  3
C0
350
5C
  3
C1
350
5D
  3
C2
350
5E
  3
C3
350
5F
  3
C4
350
60
  3
C5
350
61
  3
C6
350
62
  3
C7
350
63
  3
C8
350
64
  3
C9
350
65
  3
D0
350
66
  3
D1
350
67
  3
D2
350
68
  0
DICTIONARY
  5
153
102
{ACAD_REACTORS
330
C
102
}
330
C
100
AcDbDictionary
281
     1
  0
XRECORD
  5
2A1
102
{ACAD_REACTORS
330
C
102
}
330
C
100
AcDbXrecord
280
     1
  1
DWGPROPS COOKIE
  2

  3

  4

  6

  7

  8
12016016
  9

300
=
301
=
302
=
303
=
304
=
305
=
306
=
307
=
308
=
309
=
 40
0.0
 41
2458304.075204803
 42
2458304.186013808
  1

 90
        0
  0
LAYOUT
  5
1E
102
{ACAD_REACTORS
330
1A
102
}
330
1A
100
AcDbPlotSettings
  1

  2
none_device
  4

  6

 40
0.0
 41
0.0
 42
0.0
 43
0.0
 44
0.0
 45
0.0
 46
0.0
 47
0.0
 48
0.0
 49
0.0
140
0.0
141
0.0
142
1.0
143
1.0
 70
   688
 72
     1
 73
     0
 74
     5
  7

 75
    16
147
1.0
148
0.0
149
0.0
100
AcDbLayout
  1
Layout1
 70
     1
 71
     1
 10
0.0
 20
0.0
 11
420.0
 21
297.0
 12
0.0
 22
0.0
 32
0.0
 14
1.000000000000000E+20
 24
1.000000000000000E+20
 34
1.000000000000000E+20
 15
-1.000000000000000E+20
 25
-1.000000000000000E+20
 35
-1.000000000000000E+20
146
0.0
 13
0.0
 23
0.0
 33
0.0
 16
1.0
 26
0.0
 36
0.0
 17
0.0
 27
1.0
 37
0.0
 76
     0
330
1B
  0
LAYOUT
  5
26
102
{ACAD_REACTORS
330
1A
102
}
330
1A
100
AcDbPlotSettings
  1

  2
none_device
  4

  6

 40
0.0
 41
0.0
 42
0.0
 43
0.0
 44
0.0
 45
0.0
 46
0.0
 47
0.0
 48
0.0
 49
0.0
140
0.0
141
0.0
142
1.0
143
1.0
 70
   688
 72
     1
 73
     0
 74
     5
  7

 75
    16
147
1.0
148
0.0
149
0.0
100
AcDbLayout
  1
Layout2
 70
     1
 71
     2
 10
0.0
 20
0.0
 11
0.0
 21
0.0
 12
0.0
 22
0.0
 32
0.0
 14
0.0
 24
0.0
 34
0.0
 15
0.0
 25
0.0
 35
0.0
146
0.0
 13
0.0
 23
0.0
 33
0.0
 16
1.0
 26
0.0
 36
0.0
 17
0.0
 27
1.0
 37
0.0
 76
     0
330
23
  0
LAYOUT
  5
22
102
{ACAD_REACTORS
330
1A
102
}
330
1A
100
AcDbPlotSettings
  1

  2
none_device
  4
ANSI_A_(11.00_x_8.50_Inches)
  6

 40
6.35
 41
19.05
 42
6.35000508
 43
19.05000254
 44
279.4
 45
215.9
 46
102.2917721862972
 47
100.1894326510655
 48
0.0
 49
0.0
140
0.0
141
0.0
142
0.0694642160134762
143
1.0
 70
  1696
 72
     0
 73
     0
 74
     0
  7

 75
     0
147
0.0235690232323232
148
0.0
149
0.0
100
AcDbLayout
  1
Model
 70
     1
 71
     0
 10
0.0
 20
0.0
 11
420.0
 21
297.0
 12
0.0
 22
0.0
 32
0.0
 14
1.000000000000000E+20
 24
1.000000000000000E+20
 34
1.000000000000000E+20
 15
-1.000000000000000E+20
 25
-1.000000000000000E+20
 35
-1.000000000000000E+20
146
0.0
 13
0.0
 23
0.0
 33
0.0
 16
1.0
 26
0.0
 36
0.0
 17
0.0
 27
1.0
 37
0.0
 76
     0
330
1F
331
29
  0
MLINESTYLE
  5
18
102
{ACAD_REACTORS
330
17
102
}
330
17
100
AcDbMlineStyle
  2
Standard
 70
     0
  3

 62
   256
 51
90.0
 52
90.0
 71
     2
 49
0.5
 62
   256
  6
BYLAYER
 49
-0.5
 62
   256
  6
BYLAYER
  0
ACDBPLACEHOLDER
  5
F
102
{ACAD_REACTORS
330
E
102
}
330
E
  0
SCALE
  5
48
102
{ACAD_REACTORS
330
47
102
}
330
47
100
AcDbScale
 70
     0
300
1:1
140
1.0
141
1.0
290
     1
  0
SCALE
  5
49
102
{ACAD_REACTORS
330
47
102
}
330
47
100
AcDbScale
 70
     0
300
1:2
140
1.0
141
2.0
290
     0
  0
SCALE
  5
4A
102
{ACAD_REACTORS
330
47
102
}
330
47
100
AcDbScale
 70
     0
300
1:4
140
1.0
141
4.0
290
     0
  0
SCALE
  5
4B
102
{ACAD_REACTORS
330
47
102
}
330
47
100
AcDbScale
 70
     0
300
1:5
140
1.0
141
5.0
290
     0
  0
SCALE
  5
4C
102
{ACAD_REACTORS
330
47
102
}
330
47
100
AcDbScale
 70
     0
300
1:8
140
1.0
141
8.0
290
     0
  0
SCALE
  5
4D
102
{ACAD_REACTORS
330
47
102
}
330
47
100
AcDbScale
 70
     0
300
1:10
140
1.0
141
10.0
290
     0
  0
SCALE
  5
4E
102
{ACAD_REACTORS
330
47
102
}
330
47
100
AcDbScale
 70
     0
300
1:16
140
1.0
141
16.0
290
     0
  0
SCALE
  5
4F
102
{ACAD_REACTORS
330
47
102
}
330
47
100
AcDbScale
 70
     0
300
1:20
140
1.0
141
20.0
290
     0
  0
SCALE
  5
50
102
{ACAD_REACTORS
330
47
102
}
330
47
100
AcDbScale
 70
     0
300
1:30
140
1.0
141
30.0
290
     0
  0
SCALE
  5
51
102
{ACAD_REACTORS
330
47
102
}
330
47
100
AcDbScale
 70
     0
300
1:40
140
1.0
141
40.0
290
     0
  0
SCALE
  5
52
102
{ACAD_REACTORS
330
47
102
}
330
47
100
AcDbScale
 70
     0
300
1:50
140
1.0
141
50.0
290
     0
  0
SCALE
  5
53
102
{ACAD_REACTORS
330
47
102
}
330
47
100
AcDbScale
 70
     0
300
1:100
140
1.0
141
100.0
290
     0
  0
SCALE
  5
54
102
{ACAD_REACTORS
330
47
102
}
330
47
100
AcDbScale
 70
     0
300
2:1
140
2.0
141
1.0
290
     0
  0
SCALE
  5
55
102
{ACAD_REACTORS
330
47
102
}
330
47
100
AcDbScale
 70
     0
300
4:1
140
4.0
141
1.0
290
     0
  0
SCALE
  5
56
102
{ACAD_REACTORS
330
47
102
}
330
47
100
AcDbScale
 70
     0
300
8:1
140
8.0
141
1.0
290
     0
  0
SCALE
  5
57
102
{ACAD_REACTORS
330
47
102
}
330
47
100
AcDbScale
 70
     0
300
10:1
140
10.0
141
1.0
290
     0
  0
SCALE
  5
58
102
{ACAD_REACTORS
330
47
102
}
330
47
100
AcDbScale
 70
     0
300
100:1
140
100.0
141
1.0
290
     0
  0
SCALE
  5
59
102
{ACAD_REACTORS
330
47
102
}
330
47
100
AcDbScale
 70
     0
300
1/128" = 1'-0"
140
0.0078125
141
12.0
290
     0
  0
SCALE
  5
5A
102
{ACAD_REACTORS
330
47
102
}
330
47
100
AcDbScale
 70
     0
300
1/64" = 1'-0"
140
0.015625
141
12.0
290
     0
  0
SCALE
  5
5B
102
{ACAD_REACTORS
330
47
102
}
330
47
100
AcDbScale
 70
     0
300
1/32" = 1'-0"
140
0.03125
141
12.0
290
     0
  0
SCALE
  5
5C
102
{ACAD_REACTORS
330
47
102
}
330
47
100
AcDbScale
 70
     0
300
1/16" = 1'-0"
140
0.0625
141
12.0
290
     0
  0
SCALE
  5
5D
102
{ACAD_REACTORS
330
47
102
}
330
47
100
AcDbScale
 70
     0
300
3/32" = 1'-0"
140
0.09375
141
12.0
290
     0
  0
SCALE
  5
5E
102
{ACAD_REACTORS
330
47
102
}
330
47
100
AcDbScale
 70
     0
300
1/8" = 1'-0"
140
0.125
141
12.0
290
     0
  0
SCALE
  5
5F
102
{ACAD_REACTORS
330
47
102
}
330
47
100
AcDbScale
 70
     0
300
3/16" = 1'-0"
140
0.1875
141
12.0
290
     0
  0
SCALE
  5
60
102
{ACAD_REACTORS
330
47
102
}
330
47
100
AcDbScale
 70
     0
300
1/4" = 1'-0"
140
0.25
141
12.0
290
     0
  0
SCALE
  5
61
102
{ACAD_REACTORS
330
47
102
}
330
47
100
AcDbScale
 70
     0
300
3/8" = 1'-0"
140
0.375
141
12.0
290
     0
  0
SCALE
  5
62
102
{ACAD_REACTORS
330
47
102
}
330
47
100
AcDbScale
 70
     0
300
1/2" = 1'-0"
140
0.5
141
12.0
290
     0
  0
SCALE
  5
63
102
{ACAD_REACTORS
330
47
102
}
330
47
100
AcDbScale
 70
     0
300
3/4" = 1'-0"
140
0.75
141
12.0
290
     0
  0
SCALE
  5
64
102
{ACAD_REACTORS
330
47
102
}
330
47
100
AcDbScale
 70
     0
300
1" = 1'-0"
140
1.0
141
12.0
290
     0
  0
SCALE
  5
65
102
{ACAD_REACTORS
330
47
102
}
330
47
100
AcDbScale
 70
     0
300
1-1/2" = 1'-0"
140
1.5
141
12.0
290
     0
  0
SCALE
  5
66
102
{ACAD_REACTORS
330
47
102
}
330
47
100
AcDbScale
 70
     0
300
3" = 1'-0"
140
3.0
141
12.0
290
     0
  0
SCALE
  5
67
102
{ACAD_REACTORS
330
47
102
}
330
47
100
AcDbScale
 70
     0
300
6" = 1'-0"
140
6.0
141
12.0
290
     0
  0
SCALE
  5
68
102
{ACAD_REACTORS
330
47
102
}
330
47
100
AcDbScale
 70
     0
300
1'-0" = 1'-0"
140
12.0
141
12.0
290
     0
  0
ENDSEC
  0
EOF
