  0
SECTION
  2
HEADER
  9
$ACADVER
  1
AC1015
  9
$ACADMAINTVER
 70
     6
  9
$DWGCODEPAGE
  3
ANSI_949
  9
$INSBASE
 10
0.0
 20
0.0
 30
0.0
  9
$EXTMIN
 10
-57.54000000000007
 20
-49.97073246008785
 30
0.0
  9
$EXTMAX
 10
92.81348381534559
 20
36.34057492872406
 30
0.0
  9
$LIMMIN
 10
0.0
 20
0.0
  9
$LIMMAX
 10
420.0
 20
297.0
  9
$ORTHOMODE
 70
     0
  9
$REGENMODE
 70
     1
  9
$FILLMODE
 70
     1
  9
$QTEXTMODE
 70
     0
  9
$MIRRTEXT
 70
     1
  9
$LTSCALE
 40
1.0
  9
$ATTMODE
 70
     1
  9
$TEXTSIZE
 40
3.5
  9
$TRACEWID
 40
1.0
  9
$TEXTSTYLE
  7
Standard
  9
$CLAYER
  8
0
  9
$CELTYPE
  6
ByLayer
  9
$CECOLOR
 62
   256
  9
$CELTSCALE
 40
1.0
  9
$DISPSILH
 70
     0
  9
$DIMSCALE
 40
1.0
  9
$DIMASZ
 40
3.302
  9
$DIMEXO
 40
1.0
  9
$DIMDLI
 40
3.75
  9
$DIMRND
 40
0.0
  9
$DIMDLE
 40
0.0
  9
$DIMEXE
 40
1.0
  9
$DIMTP
 40
0.0
  9
$DIMTM
 40
0.0
  9
$DIMTXT
 40
3.5
  9
$DIMCEN
 40
2.5
  9
$DIMTSZ
 40
0.0
  9
$DIMTOL
 70
     0
  9
$DIMLIM
 70
     0
  9
$DIMTIH
 70
     1
  9
$DIMTOH
 70
     1
  9
$DIMSE1
 70
     0
  9
$DIMSE2
 70
     0
  9
$DIMTAD
 70
     1
  9
$DIMZIN
 70
     0
  9
$DIMBLK
  1

  9
$DIMASO
 70
     1
  9
$DIMSHO
 70
     1
  9
$DIMPOST
  1

  9
$DIMAPOST
  1

  9
$DIMALT
 70
     0
  9
$DIMALTD
 70
     3
  9
$DIMALTF
 40
0.0393700787401575
  9
$DIMLFAC
 40
1.0
  9
$DIMTOFL
 70
     1
  9
$DIMTVP
 40
0.0
  9
$DIMTIX
 70
     0
  9
$DIMSOXD
 70
     0
  9
$DIMSAH
 70
     0
  9
$DIMBLK1
  1

  9
$DIMBLK2
  1

  9
$DIMSTYLE
  2
ISO-25
  9
$DIMCLRD
 70
     0
  9
$DIMCLRE
 70
     0
  9
$DIMCLRT
 70
     0
  9
$DIMTFAC
 40
1.0
  9
$DIMGAP
 40
1.524
  9
$DIMJUST
 70
     0
  9
$DIMSD1
 70
     0
  9
$DIMSD2
 70
     0
  9
$DIMTOLJ
 70
     0
  9
$DIMTZIN
 70
     0
  9
$DIMALTZ
 70
     0
  9
$DIMALTTZ
 70
     0
  9
$DIMUPT
 70
     0
  9
$DIMDEC
 70
     2
  9
$DIMTDEC
 70
     2
  9
$DIMALTU
 70
     2
  9
$DIMALTTD
 70
     3
  9
$DIMTXSTY
  7
Standard
  9
$DIMAUNIT
 70
     0
  9
$DIMADEC
 70
     2
  9
$DIMALTRND
 40
0.0
  9
$DIMAZIN
 70
     0
  9
$DIMDSEP
 70
    44
  9
$DIMATFIT
 70
     3
  9
$DIMFRAC
 70
     0
  9
$DIMLDRBLK
  1

  9
$DIMLUNIT
 70
     2
  9
$DIMLWD
 70
    -2
  9
$DIMLWE
 70
    -2
  9
$DIMTMOVE
 70
     0
  9
$LUNITS
 70
     2
  9
$LUPREC
 70
     2
  9
$SKETCHINC
 40
1.0
  9
$FILLETRAD
 40
10.0
  9
$AUNITS
 70
     0
  9
$AUPREC
 70
     2
  9
$MENU
  1
.
  9
$ELEVATION
 40
0.0
  9
$PELEVATION
 40
0.0
  9
$THICKNESS
 40
0.0
  9
$LIMCHECK
 70
     0
  9
$CHAMFERA
 40
0.0
  9
$CHAMFERB
 40
0.0
  9
$CHAMFERC
 40
0.0
  9
$CHAMFERD
 40
0.0
  9
$SKPOLY
 70
     0
  9
$TDCREATE
 40
2458304.450274305
  9
$TDUCREATE
 40
2458304.075274305
  9
$TDUPDATE
 40
2458304.561235937
  9
$TDUUPDATE
 40
2458304.186235937
  9
$TDINDWG
 40
0.0022687384
  9
$TDUSRTIMER
 40
2458304.186072836
  9
$USRTIMER
 70
     1
  9
$ANGBASE
 50
0.0
  9
$ANGDIR
 70
     0
  9
$PDMODE
 70
     0
  9
$PDSIZE
 40
-1.0
  9
$PLINEWID
 40
0.0
  9
$SPLFRAME
 70
     0
  9
$SPLINETYPE
 70
     6
  9
$SPLINESEGS
 70
     8
  9
$HANDSEED
  5
18D
  9
$SURFTAB1
 70
     6
  9
$SURFTAB2
 70
     6
  9
$SURFTYPE
 70
     6
  9
$SURFU
 70
     6
  9
$SURFV
 70
     6
  9
$UCSBASE
  2

  9
$UCSNAME
  2

  9
$UCSORG
 10
0.0
 20
0.0
 30
0.0
  9
$UCSXDIR
 10
1.0
 20
0.0
 30
0.0
  9
$UCSYDIR
 10
0.0
 20
1.0
 30
0.0
  9
$UCSORTHOREF
  2

  9
$UCSORTHOVIEW
 70
     0
  9
$UCSORGTOP
 10
0.0
 20
0.0
 30
0.0
  9
$UCSORGBOTTOM
 10
0.0
 20
0.0
 30
0.0
  9
$UCSORGLEFT
 10
0.0
 20
0.0
 30
0.0
  9
$UCSORGRIGHT
 10
0.0
 20
0.0
 30
0.0
  9
$UCSORGFRONT
 10
0.0
 20
0.0
 30
0.0
  9
$UCSORGBACK
 10
0.0
 20
0.0
 30
0.0
  9
$PUCSBASE
  2

  9
$PUCSNAME
  2

  9
$PUCSORG
 10
0.0
 20
0.0
 30
0.0
  9
$PUCSXDIR
 10
1.0
 20
0.0
 30
0.0
  9
$PUCSYDIR
 10
0.0
 20
1.0
 30
0.0
  9
$PUCSORTHOREF
  2

  9
$PUCSORTHOVIEW
 70
     0
  9
$PUCSORGTOP
 10
0.0
 20
0.0
 30
0.0
  9
$PUCSORGBOTTOM
 10
0.0
 20
0.0
 30
0.0
  9
$PUCSORGLEFT
 10
0.0
 20
0.0
 30
0.0
  9
$PUCSORGRIGHT
 10
0.0
 20
0.0
 30
0.0
  9
$PUCSORGFRONT
 10
0.0
 20
0.0
 30
0.0
  9
$PUCSORGBACK
 10
0.0
 20
0.0
 30
0.0
  9
$USERI1
 70
     0
  9
$USERI2
 70
     0
  9
$USERI3
 70
     0
  9
$USERI4
 70
     0
  9
$USERI5
 70
     0
  9
$USERR1
 40
0.0
  9
$USERR2
 40
0.0
  9
$USERR3
 40
0.0
  9
$USERR4
 40
0.0
  9
$USERR5
 40
0.0
  9
$WORLDVIEW
 70
     1
  9
$SHADEDGE
 70
     3
  9
$SHADEDIF
 70
    70
  9
$TILEMODE
 70
     1
  9
$MAXACTVP
 70
    64
  9
$PINSBASE
 10
0.0
 20
0.0
 30
0.0
  9
$PLIMCHECK
 70
     0
  9
$PEXTMIN
 10
1.000000000000000E+20
 20
1.000000000000000E+20
 30
1.000000000000000E+20
  9
$PEXTMAX
 10
-1.000000000000000E+20
 20
-1.000000000000000E+20
 30
-1.000000000000000E+20
  9
$PLIMMIN
 10
0.0
 20
0.0
  9
$PLIMMAX
 10
0.0
 20
0.0
  9
$UNITMODE
 70
     0
  9
$VISRETAIN
 70
     1
  9
$PLINEGEN
 70
     0
  9
$PSLTSCALE
 70
     1
  9
$TREEDEPTH
 70
  3020
  9
$CMLSTYLE
  2
Standard
  9
$CMLJUST
 70
     0
  9
$CMLSCALE
 40
20.0
  9
$PROXYGRAPHICS
 70
     1
  9
$MEASUREMENT
 70
     1
  9
$CELWEIGHT
370
    -1
  9
$ENDCAPS
280
     0
  9
$JOINSTYLE
280
     0
  9
$LWDISPLAY
290
     1
  9
$INSUNITS
 70
     4
  9
$HYPERLINKBASE
  1

  9
$STYLESHEET
  1

  9
$XEDIT
290
     1
  9
$CEPSNTYPE
380
     0
  9
$PSTYLEMODE
290
     1
  9
$FINGERPRINTGUID
  2
{CF9146C4-BB12-453B-9614-BA67D12C7257}
  9
$VERSIONGUID
  2
{FAEB1C32-E019-11D5-929B-00C0DF256EC4}
  9
$EXTNAMES
290
     1
  9
$PSVPSCALE
 40
0.0
  9
$OLESTARTUP
290
     0
  0
ENDSEC
  0
SECTION
  2
CLASSES
  0
CLASS
  1
ACDBDICTIONARYWDFLT
  2
AcDbDictionaryWithDefault
  3
ObjectDBX Classes
 90
        0
280
     0
281
     0
  0
CLASS
  1
VISUALSTYLE
  2
AcDbVisualStyle
  3
ObjectDBX Classes
 90
     4095
280
     0
281
     0
  0
CLASS
  1
MATERIAL
  2
AcDbMaterial
  3
ObjectDBX Classes
 90
     1153
280
     0
281
     0
  0
CLASS
  1
SCALE
  2
AcDbScale
  3
ObjectDBX Classes
 90
     1153
280
     0
281
     0
  0
CLASS
  1
SUN
  2
AcDbSun
  3
SCENEOE
 90
     1153
280
     0
281
     0
  0
CLASS
  1
ACDBPLACEHOLDER
  2
AcDbPlaceHolder
  3
ObjectDBX Classes
 90
        0
280
     0
281
     0
  0
CLASS
  1
LAYOUT
  2
AcDbLayout
  3
ObjectDBX Classes
 90
        0
280
     0
281
     0
  0
CLASS
  1
TABLESTYLE
  2
AcDbTableStyle
  3
ObjectDBX Classes
 90
     4095
280
     0
281
     0
  0
CLASS
  1
MLEADERSTYLE
  2
AcDbMLeaderStyle
  3
ACDB_MLEADERSTYLE_CLASS
 90
     4095
280
     0
281
     0
  0
CLASS
  1
RASTERVARIABLES
  2
AcDbRasterVariables
  3
ISM
 90
        0
280
     0
281
     0
  0
CLASS
  1
DIMASSOC
  2
AcDbDimAssoc
  3
"AcDbDimAssoc|Product Desc:     AcDim ARX App For Dimension|Company:          Autodesk, Inc.|WEB Address:      www.autodesk.com"
 90
        0
280
     0
281
     0
  0
ENDSEC
  0
SECTION
  2
TABLES
  0
TABLE
  2
VPORT
  5
8
330
0
100
AcDbSymbolTable
 70
     1
  0
VPORT
  5
29
330
8
100
AcDbSymbolTableRecord
100
AcDbViewportTableRecord
  2
*Active
 70
     0
 10
0.0
 20
0.0
 11
1.0
 21
1.0
 12
37.25489674971473
 22
3.999403260485355
 13
0.0
 23
0.0
 14
10.0
 24
10.0
 15
10.0
 25
10.0
 16
0.0
 26
0.0
 36
1.0
 17
0.0
 27
0.0
 37
0.0
 40
79.89644742262013
 41
1.280912364945978
 42
50.0
 43
0.0
 44
0.0
 50
0.0
 51
0.0
 71
    16
 72
  2000
 73
     1
 74
     3
 75
     0
 76
     0
 77
     0
 78
     0
281
     0
 65
     1
110
0.0
120
0.0
130
0.0
111
1.0
121
0.0
131
0.0
112
0.0
122
1.0
132
0.0
 79
     0
146
0.0
  0
ENDTAB
  0
TABLE
  2
LTYPE
  5
5
330
0
100
AcDbSymbolTable
 70
     6
  0
LTYPE
  5
14
330
5
100
AcDbSymbolTableRecord
100
AcDbLinetypeTableRecord
  2
ByBlock
 70
     0
  3

 72
    65
 73
     0
 40
0.0
  0
LTYPE
  5
15
330
5
100
AcDbSymbolTableRecord
100
AcDbLinetypeTableRecord
  2
ByLayer
 70
     0
  3

 72
    65
 73
     0
 40
0.0
  0
LTYPE
  5
16
330
5
100
AcDbSymbolTableRecord
100
AcDbLinetypeTableRecord
  2
Continuous
 70
     0
  3
Solid line
 72
    65
 73
     0
 40
0.0
  0
LTYPE
  5
6A
330
5
100
AcDbSymbolTableRecord
100
AcDbLinetypeTableRecord
  2
HIDDEN
 70
     0
  3
Hidden __ __ __ __ __ __ __ __ __ __ __ __ __ __
 72
    65
 73
     2
 40
1.905
 49
1.27
 74
     0
 49
-0.635
 74
     0
  0
LTYPE
  5
6B
330
5
100
AcDbSymbolTableRecord
100
AcDbLinetypeTableRecord
  2
PHANTOM
 70
     0
  3
Phantom ______  __  __  ______  __  __  ______
 72
    65
 73
     6
 40
12.7
 49
6.35
 74
     0
 49
-1.27
 74
     0
 49
1.27
 74
     0
 49
-1.27
 74
     0
 49
1.27
 74
     0
 49
-1.27
 74
     0
  0
LTYPE
  5
6C
330
5
100
AcDbSymbolTableRecord
100
AcDbLinetypeTableRecord
  2
CENTER
 70
     0
  3
Center ____ _ ____ _ ____ _ ____ _ ____ _ ____
 72
    65
 73
     4
 40
10.16
 49
6.35
 74
     0
 49
-1.27
 74
     0
 49
1.27
 74
     0
 49
-1.27
 74
     0
  0
LTYPE
  5
6D
330
5
100
AcDbSymbolTableRecord
100
AcDbLinetypeTableRecord
  2
CENTERX2
 70
     0
  3
Center (2x) ________  __  ________  __  _____
 72
    65
 73
     4
 40
20.32
 49
12.7
 74
     0
 49
-2.54
 74
     0
 49
2.54
 74
     0
 49
-2.54
 74
     0
  0
LTYPE
  5
6E
330
5
100
AcDbSymbolTableRecord
100
AcDbLinetypeTableRecord
  2
DOT2
 70
     0
  3
Dot (.5x) ........................................
 72
    65
 73
     2
 40
0.635
 49
0.0
 74
     0
 49
-0.635
 74
     0
  0
ENDTAB
  0
TABLE
  2
LAYER
  5
2
330
0
100
AcDbSymbolTable
 70
    18
  0
LAYER
  5
10
330
2
100
AcDbSymbolTableRecord
100
AcDbLayerTableRecord
  2
0
 70
     0
 62
     7
  6
Continuous
370
    -3
390
F
  0
LAYER
  5
6F
330
2
100
AcDbSymbolTableRecord
100
AcDbLayerTableRecord
  2
FORMAT
 70
     0
 62
     2
  6
Continuous
370
    -3
390
F
  0
LAYER
  5
70
330
2
100
AcDbSymbolTableRecord
100
AcDbLayerTableRecord
  2
외형선
 70
     0
 62
     4
  6
Continuous
370
    30
390
F
  0
LAYER
  5
71
330
2
100
AcDbSymbolTableRecord
100
AcDbLayerTableRecord
  2
숨은선
 70
     0
 62
     2
  6
HIDDEN
370
    15
390
F
  0
LAYER
  5
72
330
2
100
AcDbSymbolTableRecord
100
AcDbLayerTableRecord
  2
중심선
 70
     0
 62
     1
  6
CENTERX2
370
    -3
390
F
  0
LAYER
  5
73
330
2
100
AcDbSymbolTableRecord
100
AcDbLayerTableRecord
  2
파단선
 70
     0
 62
     4
  6
Continuous
370
    -3
390
F
  0
LAYER
  5
74
330
2
100
AcDbSymbolTableRecord
100
AcDbLayerTableRecord
  2
해칭선
 70
     0
 62
   100
  6
Continuous
370
    -3
390
F
  0
LAYER
  5
75
330
2
100
AcDbSymbolTableRecord
100
AcDbLayerTableRecord
  2
가는실선
 70
     0
 62
     4
  6
Continuous
370
    -3
390
F
  0
LAYER
  5
76
330
2
100
AcDbSymbolTableRecord
100
AcDbLayerTableRecord
  2
치수_보조선
 70
     0
 62
     4
  6
Continuous
370
    -3
390
F
  0
LAYER
  5
77
330
2
100
AcDbSymbolTableRecord
100
AcDbLayerTableRecord
  2
치수문자_일반주서
 70
     0
 62
     7
  6
Continuous
370
    15
390
F
  0
LAYER
  5
78
330
2
100
AcDbSymbolTableRecord
100
AcDbLayerTableRecord
  2
개별주서
 70
     0
 62
   100
  6
Continuous
370
    30
390
F
  0
LAYER
  5
79
330
2
100
AcDbSymbolTableRecord
100
AcDbLayerTableRecord
  2
중간선
 70
     0
 62
     2
  6
Continuous
370
    15
390
F
  0
LAYER
  5
7A
330
2
100
AcDbSymbolTableRecord
100
AcDbLayerTableRecord
  2
윤곽선
 70
     0
 62
     3
  6
Continuous
370
    40
390
F
  0
LAYER
  5
7B
330
2
100
AcDbSymbolTableRecord
100
AcDbLayerTableRecord
  2
중심마크
 70
     0
 62
   100
  6
Continuous
370
    30
390
F
  0
LAYER
  5
7C
330
2
100
AcDbSymbolTableRecord
100
AcDbLayerTableRecord
  2
가상선
 70
     0
 62
     4
  6
PHANTOM
370
    -3
390
F
  0
LAYER
  5
7D
330
2
100
AcDbSymbolTableRecord
100
AcDbLayerTableRecord
  2
특수지정선
 70
     0
 62
     5
  6
CENTERX2
370
    60
390
F
  0
LAYER
  5
7E
330
2
100
AcDbSymbolTableRecord
100
AcDbLayerTableRecord
  2
참조1
 70
     0
 62
    -4
  6
Continuous
370
    -3
390
F
  0
LAYER
  5
154
330
2
100
AcDbSymbolTableRecord
100
AcDbLayerTableRecord
  2
Defpoints
 70
     0
 62
     7
  6
Continuous
290
     0
370
    -3
390
F
  0
ENDTAB
  0
TABLE
  2
STYLE
  5
3
330
0
100
AcDbSymbolTable
 70
     2
  0
STYLE
  5
11
330
3
100
AcDbSymbolTableRecord
100
AcDbTextStyleTableRecord
  2
Standard
 70
     0
 40
0.0
 41
1.0
 50
0.0
 71
     0
 42
3.5
  3
txt
  4

  0
STYLE
  5
94
330
3
100
AcDbSymbolTableRecord
100
AcDbTextStyleTableRecord
  2
SLDTEXTSTYLE0
 70
     0
 40
0.0
 41
0.75
 50
0.0
 71
     0
 42
3.5
  3
TXT
  4

  0
ENDTAB
  0
TABLE
  2
VIEW
  5
6
330
0
100
AcDbSymbolTable
 70
     0
  0
ENDTAB
  0
TABLE
  2
UCS
  5
7
330
0
100
AcDbSymbolTable
 70
     0
  0
ENDTAB
  0
TABLE
  2
APPID
  5
9
330
0
100
AcDbSymbolTable
 70
     2
  0
APPID
  5
12
330
9
100
AcDbSymbolTableRecord
100
AcDbRegAppTableRecord
  2
ACAD
 70
     0
  0
APPID
  5
17E
330
9
100
AcDbSymbolTableRecord
100
AcDbRegAppTableRecord
  2
ACAD_DSTYLE_DIMRADIAL_EXTENSION
 70
     0
  0
ENDTAB
  0
TABLE
  2
DIMSTYLE
  5
A
330
0
100
AcDbSymbolTable
 70
     3
100
AcDbDimStyleTable
  0
DIMSTYLE
105
27
330
A
100
AcDbSymbolTableRecord
100
AcDbDimStyleTableRecord
  2
ISO-25
 70
     0
 41
2.5
 42
0.625
 43
3.75
 44
1.25
 73
     0
 74
     0
 77
     1
 78
     8
140
2.5
141
2.5
143
0.03937007874016
147
0.625
171
     3
172
     1
178
     0
271
     2
272
     2
274
     3
278
    44
283
     0
284
     8
340
11
  0
DIMSTYLE
105
D4
102
{ACAD_REACTORS
330
D3
102
}
330
A
100
AcDbSymbolTableRecord
100
AcDbDimStyleTableRecord
  2
SLDDIMSTYLE0
 70
     0
 41
3.302
 44
0.0
 45
0.000000001
 73
     0
 74
     0
 77
     1
 78
     4
 79
     1
140
3.5
143
0.0393700787401575
147
0.875
148
0.000000001
170
     1
172
     1
173
     1
178
     0
271
     2
272
     2
276
     2
284
    12
289
     0
340
94
  0
DIMSTYLE
105
E9
102
{ACAD_REACTORS
330
E8
330
FC
330
10F
330
17F
102
}
330
A
100
AcDbSymbolTableRecord
100
AcDbDimStyleTableRecord
  2
SLDDIMSTYLE1
 70
     0
 41
3.302
 44
0.0
 45
0.000000001
 73
     0
 74
     0
 77
     1
 78
     4
 79
     1
140
3.5
143
0.0393700787401575
147
0.875
148
0.000000001
170
     1
173
     1
178
     0
271
     2
272
     2
276
     2
284
    12
340
94
  0
ENDTAB
  0
TABLE
  2
BLOCK_RECORD
  5
1
330
0
100
AcDbSymbolTable
 70
     8
  0
BLOCK_RECORD
  5
1F
330
1
100
AcDbSymbolTableRecord
100
AcDbBlockTableRecord
  2
*Model_Space
340
22
  0
BLOCK_RECORD
  5
1B
330
1
100
AcDbSymbolTableRecord
100
AcDbBlockTableRecord
  2
*Paper_Space
340
1E
  0
BLOCK_RECORD
  5
23
330
1
100
AcDbSymbolTableRecord
100
AcDbBlockTableRecord
  2
*Paper_Space0
340
26
  0
BLOCK_RECORD
  5
7F
330
1
100
AcDbSymbolTableRecord
100
AcDbBlockTableRecord
  2
블럭10
340
0
102
{BLKREFS
331
CC
102
}
  0
BLOCK_RECORD
  5
D5
330
1
100
AcDbSymbolTableRecord
100
AcDbBlockTableRecord
  2
_D
340
0
  0
BLOCK_RECORD
  5
EA
330
1
100
AcDbSymbolTableRecord
100
AcDbBlockTableRecord
  2
_D_1
340
0
  0
BLOCK_RECORD
  5
FD
330
1
100
AcDbSymbolTableRecord
100
AcDbBlockTableRecord
  2
_D_2
340
0
  0
BLOCK_RECORD
  5
110
330
1
100
AcDbSymbolTableRecord
100
AcDbBlockTableRecord
  2
_D_3
340
0
  0
BLOCK_RECORD
  5
129
330
1
100
AcDbSymbolTableRecord
100
AcDbBlockTableRecord
  2
SW_DOWELSYMBOL_0
340
0
102
{BLKREFS
331
12F
102
}
  0
BLOCK_RECORD
  5
182
330
1
100
AcDbSymbolTableRecord
100
AcDbBlockTableRecord
  2
*D7
340
0
  0
ENDTAB
  0
ENDSEC
  0
SECTION
  2
BLOCKS
  0
BLOCK
  5
20
330
1F
100
AcDbEntity
  8
0
100
AcDbBlockBegin
  2
*Model_Space
 70
     0
 10
0.0
 20
0.0
 30
0.0
  3
*Model_Space
  1
*Model_Space
  0
ENDBLK
  5
21
330
1F
100
AcDbEntity
  8
0
100
AcDbBlockEnd
  0
BLOCK
  5
1C
330
1B
100
AcDbEntity
 67
     1
  8
0
100
AcDbBlockBegin
  2
*Paper_Space
 70
     0
 10
0.0
 20
0.0
 30
0.0
  3
*Paper_Space
  1
*Paper_Space
  0
ENDBLK
  5
1D
330
1B
100
AcDbEntity
 67
     1
  8
0
100
AcDbBlockEnd
  0
BLOCK
  5
24
330
23
100
AcDbEntity
  8
0
100
AcDbBlockBegin
  2
*Paper_Space0
 70
     0
 10
0.0
 20
0.0
 30
0.0
  3
*Paper_Space0
  1
*Paper_Space0
  0
ENDBLK
  5
25
330
23
100
AcDbEntity
  8
0
100
AcDbBlockEnd
  0
BLOCK
  5
80
330
7F
100
AcDbEntity
  8
0
100
AcDbBlockBegin
  2
블럭10
 70
     2
 10
0.0
 20
0.0
 30
0.0
  3
블럭10
  1
블럭10
  0
ELLIPSE
  5
82
330
7F
100
AcDbEntity
  8
중심선
100
AcDbEllipse
 10
20.54032771741204
 20
12.0471743016438
 30
0.0
 11
6.600054785286829
 21
-1.261213355974178E-13
 31
0.0
210
0.0
220
0.0
230
1.0
 40
0.636358354079598
 41
0.9219305317359503
 42
6.513795318482858
  0
ELLIPSE
  5
83
330
7F
100
AcDbEntity
  8
중심선
100
AcDbEllipse
 10
20.54032771746488
 20
12.04717430159265
 30
0.0
 11
3.960054785062283
 21
1.540847449632565E-10
 31
0.0
210
0.0
220
0.0
230
1.0
 40
0.3939339440162632
 41
1.131841032648279
 42
5.62031148352944
  0
LINE
  5
84
330
7F
100
AcDbEntity
  8
중심선
100
AcDbLine
 10
2.268634060543552
 20
16.24717430164393
 30
0.0
 11
5.714909304380834
 21
16.24717430164393
 31
0.0
  0
LINE
  5
85
330
7F
100
AcDbEntity
  8
중심선
100
AcDbLine
 10
5.245725140726316
 20
7.84717430164391
 30
0.0
 11
8.692000384563599
 21
7.84717430164391
 31
0.0
  0
LINE
  5
86
330
7F
100
AcDbEntity
  8
중심선
100
AcDbLine
 10
15.74043728645272
 20
16.24717430164393
 30
0.0
 11
8.692000384563599
 21
7.84717430164391
 31
0.0
  0
LINE
  5
87
330
7F
100
AcDbEntity
  8
중심선
100
AcDbLine
 10
0.1404042013395286
 20
13.71084872107135
 30
0.0
 11
3.58671253028996
 21
13.71088815037384
 31
0.0
  0
LINE
  5
88
330
7F
100
AcDbEntity
  8
중심선
100
AcDbLine
 10
2.750260043222114
 20
10.84717430164391
 30
0.0
 11
6.196535287059397
 21
10.84717430164391
 31
0.0
  0
LINE
  5
89
330
7F
100
AcDbEntity
  8
중심선
100
AcDbLine
 10
12.29416204261559
 20
16.24717430164393
 30
0.0
 11
5.245725140726316
 21
7.84717430164391
 31
0.0
  0
LINE
  5
8A
330
7F
100
AcDbEntity
  8
중심선
100
AcDbLine
 10
10.72767329541681
 20
16.24717430164393
 30
0.0
 11
6.196535287059397
 21
10.84717430164391
 31
0.0
  0
LINE
  5
8B
330
7F
100
AcDbEntity
  8
중심선
100
AcDbLine
 10
7.28139805157953
 20
16.24717430164393
 30
0.0
 11
2.750260043222114
 21
10.84717430164391
 31
0.0
  0
LINE
  5
8C
330
7F
100
AcDbEntity
  8
중심선
100
AcDbLine
 10
5.714909304380834
 20
16.24717430164393
 30
0.0
 11
3.58671253028996
 21
13.71088815037384
 31
0.0
  0
LINE
  5
8D
330
7F
100
AcDbEntity
  8
중심선
100
AcDbLine
 10
2.268634060543552
 20
16.24717430164393
 30
0.0
 11
0.1404042013395286
 21
13.71084872107135
 31
0.0
  0
LINE
  5
8E
330
7F
100
AcDbEntity
  8
중심선
100
AcDbLine
 10
7.28139805157953
 20
16.24717430164393
 30
0.0
 11
10.72767329541681
 21
16.24717430164393
 31
0.0
  0
LINE
  5
8F
330
7F
100
AcDbEntity
  8
중심선
100
AcDbLine
 10
12.29416204261559
 20
16.24717430164393
 30
0.0
 11
15.74043728645272
 21
16.24717430164393
 31
0.0
  0
LINE
  5
90
330
7F
100
AcDbEntity
  8
중심선
100
AcDbLine
 10
19.22036997980202
 20
11.08717430171403
 30
0.0
 11
23.66174974927406
 21
11.08717430171406
 31
0.0
  0
LINE
  5
91
330
7F
100
AcDbEntity
  8
중심선
100
AcDbLine
 10
19.22039502424796
 20
13.00717430171391
 30
0.0
 11
19.22036997980202
 21
11.08717430171403
 31
0.0
  0
LINE
  5
92
330
7F
100
AcDbEntity
  8
중심선
100
AcDbLine
 10
19.22039502424796
 20
13.00717430171391
 30
0.0
 11
26.96566020931264
 21
13.00717430171391
 31
0.0
  0
LINE
  5
93
330
7F
100
AcDbEntity
  8
중심선
100
AcDbLine
 10
22.22332737316547
 20
13.45928029700563
 30
0.0
 11
24.52862924686651
 21
15.39360700705356
 31
0.0
  0
ATTDEF
  5
95
330
7F
100
AcDbEntity
  8
FORMAT
 62
     2
100
AcDbText
 10
3.448148490846466
 20
2.075366912832191
 30
0.0
 40
4.233333333333333
  1
EM212910
 41
0.75
  7
SLDTEXTSTYLE0
 11
3.448148490846466
 21
-0.0412997538344756
 31
0.0
100
AcDbAttributeDefinition
  3

  2
AUTOATTR0
 70
     0
 74
     1
  0
ENDBLK
  5
81
330
7F
100
AcDbEntity
  8
0
100
AcDbBlockEnd
  0
BLOCK
  5
D6
330
D5
100
AcDbEntity
  8
0
100
AcDbBlockBegin
  2
_D
 70
     0
 10
0.0
 20
0.0
 30
0.0
  3
_D
  1
_D
  0
LINE
  5
D8
330
D5
100
AcDbEntity
  8
치수문자_일반주서
 62
     0
370
    -2
100
AcDbLine
 10
-39.59250000000001
 20
6.351074928723888
 30
0.0
 11
-53.16500000000005
 21
6.351074928723835
 31
0.0
  0
LINE
  5
D9
330
D5
100
AcDbEntity
  8
치수문자_일반주서
 62
     0
370
    -2
100
AcDbLine
 10
-39.59250000000001
 20
-6.348925071276101
 30
0.0
 11
-53.16500000000001
 21
-6.348925071276153
 31
0.0
  0
LINE
  5
DA
330
D5
100
AcDbEntity
  8
치수문자_일반주서
 62
     0
370
    -2
100
AcDbLine
 10
-53.16500000000003
 20
3.049074928723836
 30
0.0
 11
-53.16500000000002
 21
-3.046925071276154
 31
0.0
  0
SOLID
  5
DB
330
D5
100
AcDbEntity
  8
치수문자_일반주서
 62
     0
100
AcDbTrace
 10
-52.6146666666667
 20
3.049074928723837
 30
0.0
 11
-53.71533333333337
 21
3.049074928723834
 31
0.0
 12
-53.16500000000005
 22
6.351074928723835
 32
0.0
 13
-53.16500000000005
 23
6.351074928723835
 33
0.0
  0
SOLID
  5
DC
330
D5
100
AcDbEntity
  8
치수문자_일반주서
 62
     0
100
AcDbTrace
 10
-53.71533333333335
 20
-3.046925071276156
 30
0.0
 11
-52.61466666666669
 21
-3.046925071276152
 31
0.0
 12
-53.16500000000001
 22
-6.348925071276153
 32
0.0
 13
-53.16500000000001
 23
-6.348925071276153
 33
0.0
  0
MTEXT
  5
DD
330
D5
100
AcDbEntity
  8
치수문자_일반주서
 62
     0
100
AcDbMText
 10
-57.54000000000003
 20
0.0010749287238734
 30
0.0
 40
3.5
 41
0.0
 71
     2
 72
     1
  1
\A1;%%c12.70 [1/2]
  7
SLDTEXTSTYLE0
 11
-3.356894814614650E-15
 21
1.0
 31
0.0
 73
     1
 44
1.0
  0
POINT
  5
DE
330
D5
100
AcDbEntity
  8
Defpoints
 62
     0
100
AcDbPoint
 10
-39.53000000000001
 20
6.351074928723888
 30
0.0
  0
POINT
  5
DF
330
D5
100
AcDbEntity
  8
Defpoints
 62
     0
100
AcDbPoint
 10
-39.53000000000001
 20
-6.348925071276101
 30
0.0
  0
POINT
  5
E0
330
D5
100
AcDbEntity
  8
Defpoints
 62
     0
100
AcDbPoint
 10
-53.16500000000001
 20
-6.348925071276152
 30
0.0
  0
ENDBLK
  5
D7
330
D5
100
AcDbEntity
  8
0
100
AcDbBlockEnd
  0
BLOCK
  5
EB
330
EA
100
AcDbEntity
  8
0
100
AcDbBlockBegin
  2
_D_1
 70
     0
 10
0.0
 20
0.0
 30
0.0
  3
_D_1
  1
_D_1
  0
LINE
  5
ED
330
EA
100
AcDbEntity
  8
치수문자_일반주서
 62
     0
370
    -2
100
AcDbLine
 10
60.79999999999998
 20
4.112629940695006
 30
0.0
 11
60.79999999999998
 21
14.60091332137048
 31
0.0
  0
LINE
  5
EE
330
EA
100
AcDbEntity
  8
치수문자_일반주서
 62
     0
370
    -2
100
AcDbLine
 10
9.999999999999993
 20
6.413383455786288
 30
0.0
 11
9.999999999999993
 21
14.60091332137048
 31
0.0
  0
LINE
  5
EF
330
EA
100
AcDbEntity
  8
치수문자_일반주서
 62
     0
370
    -2
100
AcDbLine
 10
57.49799999999998
 20
14.60091332137048
 30
0.0
 11
13.30199999999999
 21
14.60091332137048
 31
0.0
  0
SOLID
  5
F0
330
EA
100
AcDbEntity
  8
치수문자_일반주서
 62
     0
100
AcDbTrace
 10
57.49799999999998
 20
14.05057998803714
 30
0.0
 11
57.49799999999998
 21
15.15124665470381
 31
0.0
 12
60.79999999999998
 22
14.60091332137048
 32
0.0
 13
60.79999999999998
 23
14.60091332137048
 33
0.0
  0
SOLID
  5
F1
330
EA
100
AcDbEntity
  8
치수문자_일반주서
 62
     0
100
AcDbTrace
 10
13.30199999999999
 20
15.15124665470381
 30
0.0
 11
13.30199999999999
 21
14.05057998803714
 31
0.0
 12
9.999999999999993
 22
14.60091332137048
 32
0.0
 13
9.999999999999993
 23
14.60091332137048
 33
0.0
  0
MTEXT
  5
F2
330
EA
100
AcDbEntity
  8
치수문자_일반주서
 62
     0
100
AcDbMText
 10
35.39999999999998
 20
18.97591332137048
 30
0.0
 40
3.5
 41
0.0
 71
     2
 72
     1
  1
\A1;50.80 [2]
  7
SLDTEXTSTYLE0
 73
     1
 44
1.0
  0
POINT
  5
F3
330
EA
100
AcDbEntity
  8
Defpoints
 62
     0
100
AcDbPoint
 10
60.79999999999998
 20
4.050129940695006
 30
0.0
  0
POINT
  5
F4
330
EA
100
AcDbEntity
  8
Defpoints
 62
     0
100
AcDbPoint
 10
9.999999999999993
 20
6.350883455786288
 30
0.0
  0
POINT
  5
F5
330
EA
100
AcDbEntity
  8
Defpoints
 62
     0
100
AcDbPoint
 10
9.999999999999993
 20
14.60091332137048
 30
0.0
  0
ENDBLK
  5
EC
330
EA
100
AcDbEntity
  8
0
100
AcDbBlockEnd
  0
BLOCK
  5
FE
330
FD
100
AcDbEntity
  8
0
100
AcDbBlockBegin
  2
_D_2
 70
     0
 10
0.0
 20
0.0
 30
0.0
  3
_D_2
  1
_D_2
  0
LINE
  5
100
330
FD
100
AcDbEntity
  8
치수문자_일반주서
 62
     0
370
    -2
100
AcDbLine
 10
60.79999999999998
 20
4.112629940695006
 30
0.0
 11
60.79999999999999
 21
26.38368937861915
 31
0.0
  0
LINE
  5
101
330
FD
100
AcDbEntity
  8
치수문자_일반주서
 62
     0
370
    -2
100
AcDbLine
 10
-40.8
 20
5.143574928723897
 30
0.0
 11
-40.8
 21
26.38368937861915
 31
0.0
  0
LINE
  5
102
330
FD
100
AcDbEntity
  8
치수문자_일반주서
 62
     0
370
    -2
100
AcDbLine
 10
57.49799999999999
 20
26.38368937861915
 30
0.0
 11
-37.498
 21
26.38368937861915
 31
0.0
  0
SOLID
  5
103
330
FD
100
AcDbEntity
  8
치수문자_일반주서
 62
     0
100
AcDbTrace
 10
57.49799999999999
 20
25.83335604528581
 30
0.0
 11
57.49799999999999
 21
26.93402271195248
 31
0.0
 12
60.79999999999999
 22
26.38368937861915
 32
0.0
 13
60.79999999999999
 23
26.38368937861915
 33
0.0
  0
SOLID
  5
104
330
FD
100
AcDbEntity
  8
치수문자_일반주서
 62
     0
100
AcDbTrace
 10
-37.498
 20
26.93402271195248
 30
0.0
 11
-37.498
 21
25.83335604528581
 31
0.0
 12
-40.8
 22
26.38368937861915
 32
0.0
 13
-40.8
 23
26.38368937861915
 33
0.0
  0
MTEXT
  5
105
330
FD
100
AcDbEntity
  8
치수문자_일반주서
 62
     0
100
AcDbMText
 10
9.999999999999993
 20
30.75868937861915
 30
0.0
 40
3.5
 41
0.0
 71
     2
 72
     1
  1
\A1;101.60 [4]
  7
SLDTEXTSTYLE0
 73
     1
 44
1.0
  0
POINT
  5
106
330
FD
100
AcDbEntity
  8
Defpoints
 62
     0
100
AcDbPoint
 10
60.79999999999998
 20
4.050129940695006
 30
0.0
  0
POINT
  5
107
330
FD
100
AcDbEntity
  8
Defpoints
 62
     0
100
AcDbPoint
 10
-40.8
 20
5.081074928723897
 30
0.0
  0
POINT
  5
108
330
FD
100
AcDbEntity
  8
Defpoints
 62
     0
100
AcDbPoint
 10
-40.8
 20
26.38368937861915
 30
0.0
  0
ENDBLK
  5
FF
330
FD
100
AcDbEntity
  8
0
100
AcDbBlockEnd
  0
BLOCK
  5
111
330
110
100
AcDbEntity
  8
0
100
AcDbBlockBegin
  2
_D_3
 70
     0
 10
0.0
 20
0.0
 30
0.0
  3
_D_3
  1
_D_3
  0
LINE
  5
113
330
110
100
AcDbEntity
  8
치수문자_일반주서
 62
     0
370
    -2
100
AcDbLine
 10
31.12434225732488
 20
6.351074928723899
 30
0.0
 11
73.6404745971157
 21
6.35107492872406
 31
0.0
  0
LINE
  5
114
330
110
100
AcDbEntity
  8
치수문자_일반주서
 62
     0
370
    -2
100
AcDbLine
 10
31.12434225732481
 20
-6.348925071276112
 30
0.0
 11
73.64047459711574
 21
-6.348925071275954
 31
0.0
  0
LINE
  5
115
330
110
100
AcDbEntity
  8
치수문자_일반주서
 62
     0
370
    -2
100
AcDbLine
 10
73.6404745971157
 20
6.35107492872406
 30
0.0
 11
73.6404745971156
 21
36.34057492872406
 31
0.0
  0
LINE
  5
116
330
110
100
AcDbEntity
  8
치수문자_일반주서
 62
     0
370
    -2
100
AcDbLine
 10
73.64047459711571
 20
3.04907492872406
 30
0.0
 11
73.64047459711573
 21
-3.046925071275954
 31
0.0
  0
SOLID
  5
117
330
110
100
AcDbEntity
  8
치수문자_일반주서
 62
     0
100
AcDbTrace
 10
74.19080793044904
 20
3.049074928724062
 30
0.0
 11
73.09014126378239
 21
3.049074928724059
 31
0.0
 12
73.6404745971157
 22
6.35107492872406
 32
0.0
 13
73.6404745971157
 23
6.35107492872406
 33
0.0
  0
SOLID
  5
118
330
110
100
AcDbEntity
  8
치수문자_일반주서
 62
     0
100
AcDbTrace
 10
73.0901412637824
 20
-3.046925071275956
 30
0.0
 11
74.19080793044905
 21
-3.046925071275952
 31
0.0
 12
73.64047459711574
 22
-6.348925071275954
 32
0.0
 13
73.64047459711574
 23
-6.348925071275954
 33
0.0
  0
MTEXT
  5
119
330
110
100
AcDbEntity
  8
치수문자_일반주서
 62
     0
100
AcDbMText
 10
69.26547459711564
 20
22.99682492872405
 30
0.0
 40
3.5
 41
0.0
 71
     2
 72
     1
  1
\A1;%%c12.70 [1/2]
  7
SLDTEXTSTYLE0
 11
-3.356894814614643E-15
 21
1.0
 31
0.0
 73
     1
 44
1.0
  0
POINT
  5
11A
330
110
100
AcDbEntity
  8
Defpoints
 62
     0
100
AcDbPoint
 10
31.06184225732488
 20
6.351074928723899
 30
0.0
  0
POINT
  5
11B
330
110
100
AcDbEntity
  8
Defpoints
 62
     0
100
AcDbPoint
 10
31.06184225732481
 20
-6.348925071276112
 30
0.0
  0
POINT
  5
11C
330
110
100
AcDbEntity
  8
Defpoints
 62
     0
100
AcDbPoint
 10
73.64047459711574
 20
-6.348925071275954
 30
0.0
  0
ENDBLK
  5
112
330
110
100
AcDbEntity
  8
0
100
AcDbBlockEnd
  0
BLOCK
  5
12A
330
129
100
AcDbEntity
  8
0
100
AcDbBlockBegin
  2
SW_DOWELSYMBOL_0
 70
     0
 10
0.0
 20
0.0
 30
0.0
  3
SW_DOWELSYMBOL_0
  1
SW_DOWELSYMBOL_0
  0
CIRCLE
  5
12C
330
129
100
AcDbEntity
  8
해칭선
 62
     0
100
AcDbCircle
 10
0.0
 20
0.0
 30
0.0
 40
3.000000000000001
  0
HATCH
  5
12D
330
129
100
AcDbEntity
  8
0
  6
Continuous
 62
     0
370
     0
100
AcDbHatch
 10
0.0
 20
0.0
 30
0.0
210
0.0
220
0.0
230
1.0
  2
SOLID
 70
     1
 71
     0
 91
        1
 92
        0
 93
        3
 72
     2
 10
0.0
 20
0.0
 40
3.000000000000001
 50
0.0
 51
90.0
 73
     1
 72
     1
 10
0.0
 20
3.000000000000001
 11
0.0
 21
0.0
 72
     1
 10
0.0
 20
0.0
 11
3.000000000000001
 21
0.0
 97
        0
 75
     0
 76
     1
 98
        1
 10
0.0
 20
0.0
  0
HATCH
  5
12E
330
129
100
AcDbEntity
  8
0
  6
Continuous
 62
     0
370
     0
100
AcDbHatch
 10
0.0
 20
0.0
 30
0.0
210
0.0
220
0.0
230
1.0
  2
SOLID
 70
     1
 71
     0
 91
        1
 92
        0
 93
        3
 72
     2
 10
0.0
 20
0.0
 40
3.000000000000001
 50
180.0
 51
270.0000000000007
 73
     1
 72
     1
 10
0.0
 20
-3.000000000000001
 11
0.0
 21
0.0
 72
     1
 10
0.0
 20
0.0
 11
-3.000000000000001
 21
0.0
 97
        0
 75
     0
 76
     1
 98
        1
 10
0.0
 20
0.0
  0
ENDBLK
  5
12B
330
129
100
AcDbEntity
  8
0
100
AcDbBlockEnd
  0
BLOCK
  5
183
330
182
100
AcDbEntity
  8
0
100
AcDbBlockBegin
  2
*D7
 70
     1
 10
0.0
 20
0.0
 30
0.0
  3
*D7
  1
*D7
  0
LINE
  5
185
330
182
100
AcDbEntity
  8
치수문자_일반주서
 62
     0
370
    -2
100
AcDbLine
 10
60.19116284909693
 20
-9.393297363865996
 30
0.0
 11
70.17692982504404
 21
-41.13014130690141
 31
0.0
  0
MTEXT
  5
186
330
182
100
AcDbEntity
  8
치수문자_일반주서
 62
     0
100
AcDbMText
 10
68.34768655987062
 20
-26.57040572115612
 30
0.0
 40
3.5
 41
0.0
 71
     5
 72
     1
  1
\A1;R2.29 [R.090]
  7
SLDTEXTSTYLE0
 11
0.3001365155864267
 21
-0.9538962585164272
 31
0.0
 73
     1
 44
1.0
  0
SOLID
  5
187
330
182
100
AcDbEntity
  8
치수문자_일반주서
 62
     0
100
AcDbTrace
 10
60.71612375670048
 20
-9.228122234788266
 30
0.0
 11
59.66620194149339
 21
-9.558472492943725
 31
0.0
 12
59.20011207463055
 22
-6.243531918244752
 32
0.0
 13
59.20011207463055
 23
-6.243531918244752
 33
0.0
  0
LINE
  5
188
330
182
100
AcDbEntity
  8
치수문자_일반주서
 62
     0
100
AcDbLine
 10
58.42399999999998
 20
-4.062925071276199
 30
0.0
 11
58.60399999999998
 21
-4.062925071276199
 31
0.0
  0
LINE
  5
189
330
182
100
AcDbEntity
  8
치수문자_일반주서
 62
     0
100
AcDbLine
 10
58.51399999999998
 20
-4.152925071276199
 30
0.0
 11
58.51399999999998
 21
-3.972925071276199
 31
0.0
  0
POINT
  5
18A
330
182
100
AcDbEntity
  8
Defpoints
 62
     0
100
AcDbPoint
 10
59.20011207463055
 20
-6.243531918244752
 30
0.0
  0
POINT
  5
18B
330
182
100
AcDbEntity
  8
Defpoints
 62
     0
100
AcDbPoint
 10
58.51399999999998
 20
-4.062925071276199
 30
0.0
  0
ENDBLK
  5
184
330
182
100
AcDbEntity
  8
0
100
AcDbBlockEnd
  0
ENDSEC
  0
SECTION
  2
ENTITIES
  0
LINE
  5
96
330
1F
100
AcDbEntity
  8
외형선
  6
Continuous
 62
     1
370
    15
100
AcDbLine
 10
44.46692419371179
 20
-6.348925071276112
 30
0.0
 11
48.33807300104845
 21
-6.348925071276112
 31
0.0
  0
LINE
  5
97
330
1F
100
AcDbEntity
  8
외형선
  6
Continuous
 62
     1
370
    15
100
AcDbLine
 10
13.78735297837396
 20
6.351074928723899
 30
0.0
 11
9.999999999999993
 21
6.351074928723899
 31
0.0
  0
LINE
  5
98
330
1F
100
AcDbEntity
  8
외형선
  6
Continuous
 62
     1
370
    15
100
AcDbLine
 10
27.18921352884335
 20
-6.348925071276112
 30
0.0
 11
31.06181383101946
 21
-6.348925071276112
 31
0.0
  0
LINE
  5
99
330
1F
100
AcDbEntity
  8
외형선
  6
Continuous
 62
     1
370
    15
100
AcDbLine
 10
31.06181383101955
 20
6.351074928723899
 30
0.0
 11
27.18921352884332
 21
6.351074928723899
 31
0.0
  0
LINE
  5
9A
330
1F
100
AcDbEntity
  8
외형선
  6
Continuous
 62
     1
370
    15
100
AcDbLine
 10
9.999999999999993
 20
-6.348925071276112
 30
0.0
 11
13.78735297837394
 21
-6.348925071276112
 31
0.0
  0
LINE
  5
9B
330
1F
100
AcDbEntity
  8
외형선
  6
Continuous
 62
     1
370
    15
100
AcDbLine
 10
48.33807300104851
 20
6.351074928723899
 30
0.0
 11
44.46692419371183
 21
6.351074928723899
 31
0.0
  0
LINE
  5
9C
330
1F
100
AcDbEntity
  8
외형선
  6
Continuous
370
    15
100
AcDbLine
 10
9.914723373643017
 20
-6.348925071276106
 30
0.0
 11
9.999999999999993
 21
-6.348925071276106
 31
0.0
  0
LINE
  5
9D
330
1F
100
AcDbEntity
  8
외형선
  6
Continuous
370
    15
100
AcDbLine
 10
-39.53
 20
-6.348925071276106
 30
0.0
 11
9.750156423440187
 21
-6.348925071276106
 31
0.0
  0
LINE
  5
9E
330
1F
100
AcDbEntity
  8
외형선
  6
Continuous
370
    15
100
AcDbLine
 10
9.750156423440187
 20
6.351074928723893
 30
0.0
 11
-39.53
 21
6.351074928723893
 31
0.0
  0
LINE
  5
9F
330
1F
100
AcDbEntity
  8
외형선
  6
Continuous
370
    15
100
AcDbLine
 10
9.999999999999993
 20
6.351074928723893
 30
0.0
 11
9.914723373642893
 21
6.351074928723893
 31
0.0
  0
LINE
  5
A0
330
1F
100
AcDbEntity
  8
외형선
  6
Continuous
370
    15
100
AcDbLine
 10
-39.53
 20
6.351074928723894
 30
0.0
 11
-40.8
 21
5.081074928723897
 31
0.0
  0
LINE
  5
A1
330
1F
100
AcDbEntity
  8
외형선
  6
Continuous
370
    15
100
AcDbLine
 10
-40.8
 20
-5.07892507127611
 30
0.0
 11
-39.53
 21
-6.348925071276107
 31
0.0
  0
SPLINE
  5
A2
330
1F
100
AcDbEntity
  8
외형선
  6
Continuous
 62
     1
370
    15
100
AcDbSpline
210
0.0
220
0.0
230
1.0
 70
     8
 71
     3
 72
    21
 73
    17
 74
     0
 42
0.000000001
 43
0.00000001
 40
0.0
 40
0.0
 40
0.0
 40
0.0
 40
0.075121151531085
 40
0.1502279475546658
 40
0.2253242301444098
 40
0.3004138610103588
 40
0.3755007143055857
 40
0.4505886693834543
 40
0.5271853242512513
 40
0.6037872814347369
 40
0.6803965806274909
 40
0.7570152525391058
 40
0.8336452709325519
 40
0.9102738973607017
 40
0.9868913675108694
 40
1.0
 40
1.0
 40
1.0
 40
1.0
 10
9.999999999999986
 20
2.1442009445044
 30
0.0
 10
10.69531866623312
 20
1.75895870082907
 30
0.0
 10
12.08582312464023
 20
0.9885478325298664
 30
0.0
 10
14.1713093217253
 20
-0.2231332056150837
 30
0.0
 10
16.25645302014926
 20
-1.421184320870694
 30
0.0
 10
18.34137174189073
 20
-2.569700182846133
 30
0.0
 10
20.42620408067371
 20
-3.625672087558438
 30
0.0
 10
22.52496894310757
 20
-4.557961847869024
 30
0.0
 10
24.6378643983563
 20
-5.329419031193608
 30
0.0
 10
26.76484493810738
 20
-5.907155178850847
 30
0.0
 10
28.89207836354448
 20
-6.264934356730098
 30
0.0
 10
31.01961526224441
 20
-6.387816945794412
 30
0.0
 10
33.14741893401583
 20
-6.277072916055233
 30
0.0
 10
35.27519356712661
 20
-5.914921324163648
 30
0.0
 10
36.81495760690702
 20
-5.53982032300316
 30
0.0
 10
37.64543056393571
 20
-5.236457797368721
 30
0.0
 10
37.76675941324074
 20
-5.192137719458922
 30
0.0
  0
SPLINE
  5
A3
330
1F
100
AcDbEntity
  8
외형선
  6
Continuous
 62
     1
370
    15
100
AcDbSpline
210
0.0
220
0.0
230
1.0
 70
     8
 71
     3
 72
    24
 73
    20
 74
     0
 42
0.000000001
 43
0.00000001
 40
0.0
 40
0.0
 40
0.0
 40
0.0
 40
0.0198239119658124
 40
0.0815300934949395
 40
0.1432403538593687
 40
0.2049563369610295
 40
0.2666796796979363
 40
0.3284120099773479
 40
0.3901454616296124
 40
0.4518697725103849
 40
0.5135865326910687
 40
0.5752973781194962
 40
0.6370039519810364
 40
0.6974951112114431
 40
0.7579853828413136
 40
0.8184778920933524
 40
0.878975760000888
 40
0.9394820975730936
 40
1.0
 40
1.0
 40
1.0
 40
1.0
 10
44.4669241937118
 20
-6.323060593768008
 30
0.0
 10
44.23917466148493
 20
-6.330304885942089
 30
0.0
 10
43.30250581994108
 20
-6.360098592616941
 30
0.0
 10
41.65685612689135
 20
-6.170571417840886
 30
0.0
 10
39.52989511723064
 20
-5.758192923349094
 30
0.0
 10
37.40269551016132
 20
-5.114250363936537
 30
0.0
 10
35.27519610967243
 20
-4.284013636992777
 30
0.0
 10
33.14741825268343
 20
-3.292780592493096
 30
0.0
 10
31.01961544477899
 20
-2.179054192235201
 30
0.0
 10
28.89207831464387
 20
-0.983895744027184
 30
0.0
 10
26.76484495120883
 20
0.2478988301640075
 30
0.0
 10
24.63786439484389
 20
1.470459591223522
 30
0.0
 10
22.52496894402807
 20
2.630516077286634
 30
0.0
 10
20.42620408042915
 20
3.686941513087001
 30
0.0
 10
18.34137174195625
 20
4.603947397591091
 30
0.0
 10
16.25645302013173
 20
5.357180861430417
 30
0.0
 10
14.17130932173001
 20
5.914099395871392
 30
0.0
 10
12.0858231246391
 20
6.275439381613466
 30
0.0
 10
10.69531866623277
 20
6.325733829046663
 30
0.0
 10
10.00000000000003
 20
6.350883455785897
 30
0.0
  0
SPLINE
  5
A4
330
1F
100
AcDbEntity
  8
외형선
  6
Continuous
370
    15
100
AcDbSpline
210
0.0
220
0.0
230
1.0
 70
    24
 71
     3
 72
    15
 73
    11
 74
     0
 42
0.000000001
 43
0.00000001
 40
0.0
 40
0.0
 40
0.0
 40
0.0
 40
0.1426723630552141
 40
0.2897903523198704
 40
0.4276838704458734
 40
0.5695763099391006
 40
0.7074698280651023
 40
0.8493622675583289
 40
0.9872557856843316
 40
1.0
 40
1.0
 40
1.0
 40
1.0
 10
9.999999999999993
 20
6.350883455786288
 30
0.0
 10
9.999999999999986
 20
6.139622556143303
 30
0.0
 10
9.999999999999957
 20
5.71051793330012
 30
0.0
 10
10.00000000000005
 20
5.051749443885289
 30
0.0
 10
9.999999999999924
 20
4.4009183816221
 30
0.0
 10
10.00000000000004
 20
3.785870291407507
 30
0.0
 10
9.999999999999972
 20
3.202643002465258
 30
0.0
 10
10.00000000000003
 20
2.689886370583804
 30
0.0
 10
9.999999999999972
 20
2.355966706566884
 30
0.0
 10
10.00000000000003
 20
2.225669542572747
 30
0.0
 10
10.00000000000002
 20
2.214646175745925
 30
0.0
  0
LINE
  5
A5
330
1F
100
AcDbEntity
  8
외형선
  6
Continuous
 62
     1
370
    15
100
AcDbLine
 10
60.79999999999998
 20
-3.679614074651463
 30
0.0
 11
60.79999999999998
 21
0.3492839320992962
 31
0.0
  0
SPLINE
  5
A6
330
1F
100
AcDbEntity
  8
외형선
  6
Continuous
 62
     1
370
    15
100
AcDbSpline
210
0.0
220
0.0
230
1.0
 70
     8
 71
     3
 72
    20
 73
    16
 74
     0
 42
0.000000001
 43
0.00000001
 40
0.0
 40
0.0
 40
0.0
 40
0.0
 40
0.2499999999999998
 40
0.2499999999999998
 40
0.3749999999999998
 40
0.3749999999999998
 40
0.4999999999999999
 40
0.4999999999999999
 40
0.6249999999999999
 40
0.6249999999999999
 40
0.7499999999999999
 40
0.7499999999999999
 40
0.875
 40
0.875
 40
1.0
 40
1.0
 40
1.0
 40
1.0
 10
58.51400000000001
 20
-5.070716048724695
 30
0.0
 10
58.80006263157113
 20
-5.170443331507637
 30
0.0
 10
59.07176141678293
 20
-5.228474533388299
 30
0.0
 10
59.4630847825231
 20
-5.24159832451978
 30
0.0
 10
59.58764772449434
 20
-5.23326250276086
 30
0.0
 10
59.82714927354748
 20
-5.188402454891779
 30
0.0
 10
59.94321349601
 20
-5.15138291177417
 30
0.0
 10
60.16097725967636
 20
-5.044236697282731
 30
0.0
 10
60.26154532343546
 20
-4.975137074882409
 30
0.0
 10
60.4455370612541
 20
-4.79888502625708
 30
0.0
 10
60.52706334341287
 20
-4.692847960478684
 30
0.0
 10
60.66129700200106
 20
-4.447164788322376
 30
0.0
 10
60.71402519393561
 20
-4.306344343675454
 30
0.0
 10
60.78296059582038
 20
-4.006636334605954
 30
0.0
 10
60.79999999999995
 20
-3.844225625658589
 30
0.0
 10
60.79999999999995
 20
-3.679614074651468
 30
0.0
  0
SPLINE
  5
A7
330
1F
100
AcDbEntity
  8
외형선
  6
Continuous
 62
     1
370
    15
100
AcDbSpline
210
0.0
220
0.0
230
1.0
 70
     8
 71
     3
 72
    20
 73
    16
 74
     0
 42
0.000000001
 43
0.00000001
 40
0.0
 40
0.0
 40
0.0
 40
0.0
 40
0.0759679562173084
 40
0.1534748678019681
 40
0.2309704952400695
 40
0.3084568824211499
 40
0.385936084522926
 40
0.4634101655167553
 40
0.5408811956502081
 40
0.6183512489132624
 40
0.6946643447319311
 40
0.7709823768431632
 40
0.8473087438224585
 40
0.9236468300529119
 40
1.0
 40
1.0
 40
1.0
 40
1.0
 10
31.06181383101955
 20
6.348767920122443
 30
0.0
 10
31.75701832327542
 20
6.327687300396117
 30
0.0
 10
33.16151072845602
 20
6.28509901071742
 30
0.0
 10
35.27519714671279
 20
5.924895460689588
 30
0.0
 10
37.40269525302693
 20
5.359223818864572
 30
0.0
 10
39.52989510892847
 20
4.588992872937287
 30
0.0
 10
41.65685641715901
 20
3.649004403876934
 30
0.0
 10
43.78365082038434
 20
2.572681428092805
 30
0.0
 10
45.91033970289278
 20
1.400606699298541
 30
0.0
 10
48.02641811916065
 20
0.1823716770838213
 30
0.0
 10
50.13188453307253
 20
-1.035957050303276
 30
0.0
 10
52.22693119704604
 20
-2.211601636056443
 30
0.0
 10
54.3222492738947
 20
-3.303701843529066
 30
0.0
 10
56.41794729400775
 20
-4.28945343611476
 30
0.0
 10
57.81526975283127
 20
-4.81027802784286
 30
0.0
 10
58.51400000000001
 20
-5.070716048724682
 30
0.0
  0
SPLINE
  5
A8
330
1F
100
AcDbEntity
  8
외형선
  6
Continuous
 62
     1
370
    15
100
AcDbSpline
210
0.0
220
0.0
230
1.0
 70
     8
 71
     3
 72
    17
 73
    13
 74
     0
 42
0.000000001
 43
0.00000001
 40
0.0
 40
0.0
 40
0.0
 40
0.0
 40
0.1010269085051462
 40
0.2020338589488061
 40
0.3030253030328072
 40
0.40400571881302
 40
0.5049796031240427
 40
0.6074843188852757
 40
0.7099903271952839
 40
0.8125003722596601
 40
0.9150171933322135
 40
0.9999999999999999
 40
0.9999999999999999
 40
0.9999999999999999
 40
0.9999999999999999
 10
58.514
 20
1.838928782163741
 30
0.0
 10
57.81526975285452
 20
2.218521465461744
 30
0.0
 10
56.41794729407748
 20
2.97763184278781
 30
0.0
 10
54.32224927361569
 20
3.990831362411204
 30
0.0
 10
52.22693119809231
 20
4.864359342298239
 30
0.0
 10
50.1318845291669
 20
5.56057253027626
 30
0.0
 10
48.02641813382932
 20
6.058573939764561
 30
0.0
 10
45.91033964722318
 20
6.335602026091971
 30
0.0
 10
43.78365102804845
 20
6.379364314734369
 30
0.0
 10
41.65685564211857
 20
6.179754232587284
 30
0.0
 10
39.65122441780934
 20
5.793856512284396
 30
0.0
 10
38.35449317121066
 20
5.381283303915278
 30
0.0
 10
37.7667594132408
 20
5.194287576906706
 30
0.0
  0
SPLINE
  5
A9
330
1F
100
AcDbEntity
  8
외형선
  6
Continuous
 62
     1
370
    15
100
AcDbSpline
210
0.0
220
0.0
230
1.0
 70
     8
 71
     3
 72
    20
 73
    16
 74
     0
 42
0.000000001
 43
0.00000001
 40
0.0
 40
0.0
 40
0.0
 40
0.0
 40
0.1249999999999979
 40
0.1249999999999979
 40
0.2499999999999959
 40
0.2499999999999959
 40
0.3749999999999938
 40
0.3749999999999938
 40
0.4999999999999918
 40
0.4999999999999918
 40
0.7499999999999958
 40
0.7499999999999958
 40
0.8749999999999978
 40
0.8749999999999978
 40
1.0
 40
1.0
 40
1.0
 40
1.0
 10
60.79999999999998
 20
0.3492839320992953
 30
0.0
 10
60.79999999999998
 20
0.4100075284130537
 30
0.0
 10
60.78486358340112
 20
0.4654458484116292
 30
0.0
 10
60.72405187845286
 20
0.5720124107356941
 30
0.0
 10
60.67762967815326
 20
0.6236757071567782
 30
0.0
 10
60.55610483899026
 20
0.7257665611958738
 30
0.0
 10
60.48159356305548
 20
0.7761092045574205
 30
0.0
 10
60.30607093348008
 20
0.8815935755855597
 30
0.0
 10
60.20420682643329
 20
0.9371037244675813
 30
0.0
 10
59.87441602466114
 20
1.110992158702174
 30
0.0
 10
59.61319030971084
 20
1.242999455669326
 30
0.0
 10
59.20780846350169
 20
1.458028353989179
 30
0.0
 10
59.06815859734316
 20
1.533434452993565
 30
0.0
 10
58.79021244163338
 20
1.685664641881415
 30
0.0
 10
58.65198038661156
 20
1.762408107450646
 30
0.0
 10
58.51400000000001
 20
1.838928782163724
 30
0.0
  0
SPLINE
  5
AA
330
1F
100
AcDbEntity
  8
외형선
  6
Continuous
 62
     1
370
    15
100
AcDbSpline
210
0.0
220
0.0
230
1.0
 70
     8
 71
     3
 72
    28
 73
    24
 74
     0
 42
0.000000001
 43
0.00000001
 40
0.0
 40
0.0
 40
0.0
 40
0.0
 40
0.0093092356731308
 40
0.059853602014931
 40
0.1103934913419883
 40
0.160931511194988
 40
0.2114702726147277
 40
0.2630244807683428
 40
0.3145822577029599
 40
0.3661449762564342
 40
0.4177140032198509
 40
0.4692906670557542
 40
0.5208663940143389
 40
0.5724346121191974
 40
0.6239966814437292
 40
0.6755539695728708
 40
0.7271078499431457
 40
0.7786597001674819
 40
0.8302109003491327
 40
0.880992221818881
 40
0.9317768280650734
 40
0.9825669806150817
 40
0.9896686946674245
 40
0.9896686946674245
 40
0.9896686946674245
 40
0.9896686946674245
 10
13.78735297837395
 20
6.333953756122354
 30
0.0
 10
13.91536830702152
 20
6.339335757098378
 30
0.0
 10
14.73844109212646
 20
6.373939257941379
 30
0.0
 10
16.25644899052324
 20
6.21609170582138
 30
0.0
 10
18.34137282154964
 20
5.852565699117945
 30
0.0
 10
20.42620379134509
 20
5.258973099119065
 30
0.0
 10
22.52496902322071
 20
4.47721531572154
 30
0.0
 10
24.63786437345214
 20
3.524405610550795
 30
0.0
 10
26.76484495691338
 20
2.434310075336912
 30
0.0
 10
28.89207831322005
 20
1.253337327432215
 30
0.0
 10
31.0196154447688
 20
0.025624860715895
 30
0.0
 10
33.14741825414865
 20
-1.202965852075512
 30
0.0
 10
35.27519610382242
 20
-2.386670862839301
 30
0.0
 10
37.40269553209161
 20
-3.481348570076478
 30
0.0
 10
39.52989503537199
 20
-4.446102508847657
 30
0.0
 10
41.65685643236076
 20
-5.245019289714813
 30
0.0
 10
43.78365083312441
 20
-5.84824821362621
 30
0.0
 10
45.91033963673481
 20
-6.233636566487462
 30
0.0
 10
48.02641836946667
 20
-6.384882351568541
 30
0.0
 10
50.13188361311727
 20
-6.304823730605701
 30
0.0
 10
52.22693463284457
 20
-5.984290563274766
 30
0.0
 10
53.7213624163131
 20
-5.635060098249923
 30
0.0
 10
54.51747215923752
 20
-5.367608237531591
 30
0.0
 10
54.61513283613646
 20
-5.334073280848603
 30
0.0
  0
SPLINE
  5
AB
330
1F
100
AcDbEntity
  8
외형선
  6
Continuous
 62
     1
370
    15
100
AcDbSpline
210
0.0
220
0.0
230
1.0
 70
     8
 71
     3
 72
    25
 73
    21
 74
     0
 42
0.000000001
 43
0.00000001
 40
0.0
 40
0.0
 40
0.0
 40
0.0
 40
0.055122398168407
 40
0.1102339068002729
 40
0.1653369548373925
 40
0.2204339856008808
 40
0.2755274526579209
 40
0.331456173430786
 40
0.3873855994453464
 40
0.443317227997675
 40
0.4992525536820476
 40
0.5551930665616931
 40
0.6111402503513619
 40
0.6670955806164165
 40
0.7230519273146438
 40
0.7789999886478867
 40
0.8349412058863855
 40
0.8908770618836283
 40
0.9468090460533399
 40
0.9888337499513796
 40
0.9888337499513796
 40
0.9888337499513796
 40
0.9888337499513796
 10
58.514
 20
-6.348925071276009
 30
0.0
 10
57.81526975283066
 20
-6.210906758907941
 30
0.0
 10
56.4179472940059
 20
-5.934897399956778
 30
0.0
 10
54.32224927390199
 20
-5.256921491161303
 30
0.0
 10
52.22693119701893
 20
-4.414341342759605
 30
0.0
 10
50.13188453317353
 20
-3.417637398665428
 30
0.0
 10
48.02641811878112
 20
-2.302611787784858
 30
0.0
 10
45.91033970433315
 20
-1.10667046229139
 30
0.0
 10
43.78365081501121
 20
0.1263561455507519
 30
0.0
 10
41.65685643721247
 20
1.34461896964751
 30
0.0
 10
39.52989503407975
 20
2.502681170742651
 30
0.0
 10
37.40269553240812
 20
3.557371216673027
 30
0.0
 10
35.27519610384874
 20
4.469366482209137
 30
0.0
 10
33.14741825372666
 20
5.204558226118284
 30
0.0
 10
31.01961544643023
 20
5.735639920024275
 30
0.0
 10
28.89207830699765
 20
6.351074928723899
 30
0.0
 10
27.18921352884332
 20
6.351074928723899
 30
0.0
 10
24.63786428678723
 20
5.945259885250577
 30
0.0
 10
22.68728008298062
 20
5.590792460720698
 30
0.0
 10
21.44573653904774
 20
5.225601252540556
 30
0.0
 10
20.91310020319015
 20
5.0635370372454
 30
0.0
  0
LINE
  5
AD
330
1F
100
AcDbEntity
  8
외형선
  6
Continuous
370
    15
100
AcDbLine
 10
9.999999999999993
 20
6.350883455786288
 30
0.0
 11
9.999999999999993
 21
6.351074928723899
 31
0.0
  0
SPLINE
  5
AE
330
1F
100
AcDbEntity
  8
외형선
  6
Continuous
 62
     1
370
    15
100
AcDbSpline
210
0.0
220
0.0
230
1.0
 70
     8
 71
     3
 72
     9
 73
     5
 74
     0
 42
0.000000001
 43
0.00000001
 40
0.0
 40
0.0
 40
0.0
 40
0.0
 40
0.6036144205427451
 40
0.9566543865034148
 40
0.9566543865034148
 40
0.9566543865034148
 40
0.9566543865034148
 10
58.51399999999998
 20
6.351074928724001
 30
0.0
 10
57.81526751400533
 20
6.218857856845622
 30
0.0
 10
56.70786272881447
 20
6.00931011000856
 30
0.0
 10
55.60052062800812
 20
5.645496666117516
 30
0.0
 10
54.60226965821995
 20
5.349325857234755
 30
0.0
  0
SPLINE
  5
AF
330
1F
100
AcDbEntity
  8
외형선
  6
Continuous
 62
     1
370
    15
100
AcDbSpline
210
0.0
220
0.0
230
1.0
 70
     8
 71
     3
 72
    16
 73
    12
 74
     0
 42
0.000000001
 43
0.00000001
 40
0.0
 40
0.0
 40
0.0
 40
0.0
 40
0.0246906866873504
 40
0.1484273147287705
 40
0.2721553778367593
 40
0.3934464088949588
 40
0.5147356602222757
 40
0.6360293982134851
 40
0.7573338808632284
 40
0.8786553460666812
 40
1.0
 40
1.0
 40
1.0
 40
1.0
 10
27.18921352884335
 20
-6.329988066910921
 30
0.0
 10
27.04773717284214
 20
-6.335886516765552
 30
0.0
 10
26.19725634641669
 20
-6.371344869304356
 30
0.0
 10
24.63786696392936
 20
-6.204459703122821
 30
0.0
 10
22.52496827074131
 20
-5.825058183962404
 30
0.0
 10
20.42620425931319
 20
-5.215620595808566
 30
0.0
 10
18.3413716940241
 20
-4.428644653474774
 30
0.0
 10
16.25645303297211
 20
-3.481472021481224
 30
0.0
 10
14.17130931830527
 20
-2.409804594871039
 30
0.0
 10
12.08582312549553
 20
-1.251672228900076
 30
0.0
 10
10.69531866651826
 20
-0.4494076531633723
 30
0.0
 10
10.00000000000004
 20
-0.0482370338283244
 30
0.0
  0
LINE
  5
B0
330
1F
100
AcDbEntity
  8
외형선
  6
Continuous
370
    15
100
AcDbLine
 10
9.999999999999993
 20
-0.0482370338284197
 30
0.0
 11
9.999999999999993
 21
2.144200944504401
 31
0.0
  0
LINE
  5
B1
330
1F
100
AcDbEntity
  8
외형선
  6
Continuous
 62
     1
370
    15
100
AcDbLine
 10
60.79999999999998
 20
1.724044591959915
 30
0.0
 11
60.79999999999998
 21
4.112629940695006
 31
0.0
  0
SPLINE
  5
B2
330
1F
100
AcDbEntity
  8
외형선
  6
Continuous
 62
     1
370
    15
100
AcDbSpline
210
0.0
220
0.0
230
1.0
 70
     8
 71
     3
 72
    20
 73
    16
 74
     0
 42
0.000000001
 43
0.00000001
 40
0.0
 40
0.0
 40
0.0
 40
0.0
 40
0.2499999999999998
 40
0.2499999999999998
 40
0.3749999999999998
 40
0.3749999999999998
 40
0.4999999999999999
 40
0.4999999999999999
 40
0.6249999999999999
 40
0.6249999999999999
 40
0.7499999999999999
 40
0.7499999999999999
 40
0.875
 40
0.875
 40
1.0
 40
1.0
 40
1.0
 40
1.0
 10
58.51400000000001
 20
3.821995796927112
 30
0.0
 10
58.80006263157113
 20
3.689620395689909
 30
0.0
 10
59.07176141678296
 20
3.51572425132827
 30
0.0
 10
59.46308478252312
 20
3.214221491113077
 30
0.0
 10
59.58764772449434
 20
3.109265371385123
 30
0.0
 10
59.82714927354748
 20
2.893360835126958
 30
0.0
 10
59.94321349600997
 20
2.781224227775208
 30
0.0
 10
60.16097725967636
 20
2.558852264306354
 30
0.0
 10
60.26154532343546
 20
2.449947659749286
 30
0.0
 10
60.4455370612541
 20
2.240739258974801
 30
0.0
 10
60.52706334341287
 20
2.142501580825412
 30
0.0
 10
60.66129700200106
 20
1.970636211004471
 30
0.0
 10
60.71402519393561
 20
1.896866179827761
 30
0.0
 10
60.78296059582038
 20
1.785287901999782
 30
0.0
 10
60.79999999999995
 20
1.746087977076989
 30
0.0
 10
60.79999999999995
 20
1.724044591959917
 30
0.0
  0
SPLINE
  5
B3
330
1F
100
AcDbEntity
  8
외형선
  6
Continuous
 62
     1
370
    15
100
AcDbSpline
210
0.0
220
0.0
230
1.0
 70
     8
 71
     3
 72
    13
 73
     9
 74
     0
 42
0.000000001
 43
0.00000001
 40
0.0
 40
0.0
 40
0.0
 40
0.0
 40
0.198866968020582
 40
0.3976959329462491
 40
0.5964970658343609
 40
0.7952805897253228
 40
0.9940567605997679
 40
1.0
 40
1.0
 40
1.0
 40
1.0
 10
9.999999999999986
 20
-5.97634181101284
 30
0.0
 10
10.69531865482721
 20
-6.091136765302172
 30
0.0
 10
12.08582309042473
 20
-6.320704736785971
 30
0.0
 10
14.1713094585488
 20
-6.379667679594857
 30
0.0
 10
16.25645250715726
 20
-6.230895007739734
 30
0.0
 10
18.34137365685191
 20
-5.833689313635643
 30
0.0
 10
19.75203540552841
 20
-5.477162054738355
 30
0.0
 10
20.46774726075391
 20
-5.210946744283468
 30
0.0
 10
20.48852519720596
 20
-5.203218208333126
 30
0.0
  0
SPLINE
  5
B4
330
1F
100
AcDbEntity
  8
외형선
  6
Continuous
 62
     1
370
    15
100
AcDbSpline
210
0.0
220
0.0
230
1.0
 70
     8
 71
     3
 72
    12
 73
     8
 74
     0
 42
0.000000001
 43
0.00000001
 40
0.0
 40
0.0
 40
0.0
 40
0.0
 40
0.176284132728751
 40
0.3821702548514587
 40
0.588078862271762
 40
0.7940190851715059
 40
1.0
 40
1.0
 40
1.0
 40
1.0
 10
48.33807300104851
 20
6.336922264489526
 30
0.0
 10
48.93599635722781
 20
6.326327295673891
 30
0.0
 10
50.23224757323651
 20
6.303358229373156
 30
0.0
 10
52.22693057741981
 20
5.991001774790814
 30
0.0
 10
54.32224943916328
 20
5.466439296604732
 30
0.0
 10
56.4179472526784
 20
4.747855749547536
 30
0.0
 10
57.81526973905393
 20
4.130636105297531
 30
0.0
 10
58.514
 20
3.821995796927119
 30
0.0
  0
SPLINE
  5
B6
330
1F
100
AcDbEntity
  8
외형선
  6
Continuous
370
    15
100
AcDbSpline
210
0.0
220
0.0
230
1.0
 70
    24
 71
     3
 72
    21
 73
    17
 74
     0
 42
0.000000001
 43
0.00000001
 40
0.0
 40
0.0
 40
0.0
 40
0.0
 40
0.0232292200335757
 40
0.0987139346395998
 40
0.1741986492456237
 40
0.2496833638516471
 40
0.3251680784576707
 40
0.4006527930636944
 40
0.4761375076697182
 40
0.551622222275742
 40
0.6271069368817659
 40
0.7025916514877899
 40
0.7780763660938139
 40
0.8535610806998374
 40
0.9290457953058608
 40
1.0
 40
1.0
 40
1.0
 40
1.0
 10
10.00000000000001
 20
0.1235577272814733
 30
0.0
 10
10.00000000000001
 20
0.1281059829291472
 30
0.0
 10
10.00000000000001
 20
0.147434062394567
 30
0.0
 10
10.0
 20
0.067760576658148
 30
0.0
 10
10.00000000000003
 20
-0.1090654906915129
 30
0.0
 10
9.999999999999972
 20
-0.3974099678138694
 30
0.0
 10
10.00000000000002
 20
-0.7746353092599553
 30
0.0
 10
9.999999999999979
 20
-1.236444545968484
 30
0.0
 10
9.999999999999957
 20
-1.765859690380852
 30
0.0
 10
9.999999999999986
 20
-2.350586309011733
 30
0.0
 10
10.00000000000001
 20
-2.972111447891533
 30
0.0
 10
10.00000000000001
 20
-3.613882915117537
 30
0.0
 10
10.0
 20
-4.257634241466906
 30
0.0
 10
9.999999999999986
 20
-4.88329098467185
 30
0.0
 10
9.999999999999993
 20
-5.467788459074897
 30
0.0
 10
9.999999999999986
 20
-5.810356806665411
 30
0.0
 10
9.999999999999993
 20
-5.976341811012841
 30
0.0
  0
LINE
  5
B7
330
1F
100
AcDbEntity
  8
외형선
  6
Continuous
 62
     1
370
    15
100
AcDbLine
 10
60.79999999999998
 20
0.3492839320992962
 30
0.0
 11
60.79999999999998
 21
1.724044591959915
 31
0.0
  0
LINE
  5
B8
330
1F
100
AcDbEntity
  8
외형선
  6
Continuous
370
    15
100
AcDbLine
 10
9.999999999999993
 20
-6.348925071276112
 30
0.0
 11
9.999999999999986
 21
-5.97634181101284
 31
0.0
  0
LINE
  5
B9
330
1F
100
AcDbEntity
  8
외형선
  6
Continuous
 62
     1
370
    15
100
AcDbLine
 10
60.79999999999998
 20
-4.062925071276199
 30
0.0
 11
60.79999999999998
 21
-3.679614074651463
 31
0.0
  0
LINE
  5
BA
330
1F
100
AcDbEntity
  8
외형선
  6
Continuous
370
    15
100
AcDbLine
 10
9.750156423440187
 20
-6.348925071276106
 30
0.0
 11
9.750156423440187
 21
-6.348211357538667
 31
0.0
  0
SPLINE
  5
BB
330
1F
100
AcDbEntity
  8
외형선
  6
Continuous
370
    15
100
AcDbSpline
210
0.0
220
0.0
230
1.0
 70
     8
 71
     3
 72
     8
 73
     4
 74
     0
 42
0.000000001
 43
0.00000001
 40
0.0
 40
0.0
 40
0.0
 40
0.0
 40
1.0
 40
1.0
 40
1.0
 40
1.0
 10
10.00000000000001
 20
6.350883455785892
 30
0.0
 10
9.916841125809544
 20
6.351257252725039
 30
0.0
 10
9.833549247357443
 20
6.351083886500196
 30
0.0
 10
9.75015642344018
 20
6.350361887260716
 30
0.0
  0
LINE
  5
BC
330
1F
100
AcDbEntity
  8
외형선
  6
Continuous
370
    15
100
AcDbLine
 10
9.75015642344018
 20
2.279586637536909
 30
0.0
 11
9.750156423440187
 21
6.351074928723893
 31
0.0
  0
SPLINE
  5
BD
330
1F
100
AcDbEntity
  8
외형선
  6
Continuous
370
    15
100
AcDbSpline
210
0.0
220
0.0
230
1.0
 70
     8
 71
     3
 72
     8
 73
     4
 74
     0
 42
0.000000001
 43
0.00000001
 40
0.0
 40
0.0
 40
0.0
 40
0.0
 40
1.0
 40
1.0
 40
1.0
 40
1.0
 10
10.00000000000001
 20
2.144200944504385
 30
0.0
 10
9.91684112580953
 20
2.189511249868032
 30
0.0
 10
9.833549247357443
 20
2.234660939110384
 30
0.0
 10
9.750156423440187
 20
2.279631980399253
 30
0.0
  0
SPLINE
  5
BE
330
1F
100
AcDbEntity
  8
외형선
  6
Continuous
370
    15
100
AcDbSpline
210
0.0
220
0.0
230
1.0
 70
     8
 71
     3
 72
     8
 73
     4
 74
     0
 42
0.000000001
 43
0.00000001
 40
0.0
 40
0.0
 40
0.0
 40
0.0
 40
1.0
 40
1.0
 40
1.0
 40
1.0
 10
10.00000000000001
 20
-0.0482370338283002
 30
0.0
 10
9.916841125809544
 20
-0.0001039061095639
 30
0.0
 10
9.833549247357443
 20
0.0480590995781882
 30
0.0
 10
9.75015642344018
 20
0.096233313295134
 30
0.0
  0
LINE
  5
BF
330
1F
100
AcDbEntity
  8
외형선
  6
Continuous
370
    15
100
AcDbLine
 10
9.75015642344018
 20
-5.926056282309154
 30
0.0
 11
9.750156423440187
 21
0.0962781591216334
 31
0.0
  0
SPLINE
  5
C0
330
1F
100
AcDbEntity
  8
외형선
  6
Continuous
370
    15
100
AcDbSpline
210
0.0
220
0.0
230
1.0
 70
     8
 71
     3
 72
     8
 73
     4
 74
     0
 42
0.000000001
 43
0.00000001
 40
0.0
 40
0.0
 40
0.0
 40
0.0
 40
1.0
 40
1.0
 40
1.0
 40
1.0
 10
10.00000000000001
 20
-5.976341811012841
 30
0.0
 10
9.91684112580953
 20
-5.960096382856186
 30
0.0
 10
9.833549247357443
 20
-5.943327043750379
 30
0.0
 10
9.750156423440187
 20
-5.926038851376892
 30
0.0
  0
LINE
  5
C1
330
1F
100
AcDbEntity
  8
외형선
  6
Continuous
370
    15
100
AcDbLine
 10
9.914723373643003
 20
-6.34855557653401
 30
0.0
 11
9.75015642344018
 21
-6.348212029812928
 31
0.0
  0
LINE
  5
C2
330
1F
100
AcDbEntity
  8
외형선
  6
Continuous
370
    15
100
AcDbLine
 10
-39.53
 20
0.0010749287238931
 30
0.0
 11
-39.53
 21
6.351074928723893
 31
0.0
  0
LINE
  5
C3
330
1F
100
AcDbEntity
  8
외형선
  6
Continuous
370
    15
100
AcDbLine
 10
-39.53
 20
-6.348925071276106
 30
0.0
 11
-39.53
 21
0.0010749287238931
 31
0.0
  0
SPLINE
  5
C4
330
1F
100
AcDbEntity
  8
외형선
  6
Continuous
370
    15
100
AcDbSpline
210
0.0
220
0.0
230
1.0
 70
    24
 71
     3
 72
    20
 73
    16
 74
     0
 42
0.000000001
 43
0.00000001
 40
0.0
 40
0.0
 40
0.0
 40
0.0
 40
0.0976436841389441
 40
0.1740407117117007
 40
0.2526532582595697
 40
0.3290502858323266
 40
0.4076628323801961
 40
0.4840598599529135
 40
0.5626724065008221
 40
0.6390694340735782
 40
0.717681980621447
 40
0.794079008194203
 40
0.8726915547420718
 40
0.9490885823148295
 40
1.0
 40
1.0
 40
1.0
 40
1.0
 10
10.00000000000001
 20
-5.976341811012842
 30
0.0
 10
10.00000000000001
 20
-5.751219538803692
 30
0.0
 10
9.999999999999972
 20
-5.34996019650273
 30
0.0
 10
9.999999999999986
 20
-4.688171040999645
 30
0.0
 10
9.999999999999993
 20
-4.058115541744328
 30
0.0
 10
10.00000000000006
 20
-3.409986728677844
 30
0.0
 10
10.0
 20
-2.775521974270602
 30
0.0
 10
9.999999999999979
 20
-2.160789758642149
 30
0.0
 10
10.00000000000007
 20
-1.594406571882997
 30
0.0
 10
10.00000000000001
 20
-1.082069578536458
 30
0.0
 10
9.999999999999952
 20
-0.6479095570127558
 30
0.0
 10
10.00000000000002
 20
-0.294906374270443
 30
0.0
 10
9.999999999999993
 20
-0.0449653902225561
 30
0.0
 10
9.999999999999993
 20
0.100553452823448
 30
0.0
 10
10.00000000000001
 20
0.1144416668023268
 30
0.0
 10
10.00000000000001
 20
0.1199956476191312
 30
0.0
  0
LINE
  5
C5
330
1F
100
AcDbEntity
  8
외형선
  6
Continuous
370
    15
100
AcDbLine
 10
-40.8
 20
0.0010749287238931
 30
0.0
 11
-40.8
 21
5.081074928723897
 31
0.0
  0
LINE
  5
C6
330
1F
100
AcDbEntity
  8
외형선
  6
Continuous
370
    15
100
AcDbLine
 10
-40.8
 20
-5.07892507127611
 30
0.0
 11
-40.8
 21
0.0010749287238931
 31
0.0
  0
SPLINE
  5
C7
330
1F
100
AcDbEntity
  8
외형선
  6
Continuous
370
    15
100
AcDbSpline
210
0.0
220
0.0
230
1.0
 70
    24
 71
     3
 72
    15
 73
    11
 74
     0
 42
0.000000001
 43
0.00000001
 40
0.0
 40
0.0
 40
0.0
 40
0.0
 40
0.0578654504227581
 40
0.1974140922804734
 40
0.3369627341381886
 40
0.476511375995904
 40
0.6160600178536217
 40
0.7556086597113396
 40
0.8778043298556696
 40
1.0
 40
1.0
 40
1.0
 40
1.0
 10
10.00000000000003
 20
2.214656175745926
 30
0.0
 10
10.00000000000003
 20
2.267670597591166
 30
0.0
 10
10.00000000000001
 20
2.448534893814393
 30
0.0
 10
9.999999999999945
 20
2.842840852846572
 30
0.0
 10
10.00000000000001
 20
3.381221107919743
 30
0.0
 10
9.999999999999972
 20
3.974715945144559
 30
0.0
 10
9.999999999999993
 20
4.601885162591299
 30
0.0
 10
10.00000000000002
 20
5.218294936883932
 30
0.0
 10
9.999999999999993
 20
5.808066421940641
 30
0.0
 10
9.999999999999993
 20
6.169944444504218
 30
0.0
 10
9.999999999999993
 20
6.350883455786007
 30
0.0
  0
LINE
  5
C8
330
1F
100
AcDbEntity
  8
중심선
 62
     1
100
AcDbLine
 10
-43.80000000000001
 20
0.0010749287238892
 30
0.0
 11
63.79999999999999
 21
0.001074928723902
 31
0.0
  0
LINE
  5
C9
330
1F
100
AcDbEntity
  8
참조1
100
AcDbLine
 10
9.999999999999986
 20
0.0010749287238892
 30
0.0
 11
9.999999999999991
 21
-39.99892507127611
 31
0.0
  0
LINE
  5
CA
330
1F
100
AcDbEntity
  8
참조1
100
AcDbLine
 10
9.999999999999991
 20
-39.99892507127611
 30
0.0
 11
-17.85885681430867
 21
-39.9989250712761
 31
0.0
  0
CIRCLE
  5
CB
330
1F
100
AcDbEntity
  8
해칭선
100
AcDbCircle
 10
0.0
 20
0.0
 30
0.0
 40
3.000000000000001
  0
INSERT
  5
CC
330
1F
100
AcDbEntity
  8
0
  6
Continuous
 62
     7
100
AcDbBlockReference
 66
     1
  2
블럭10
 10
-3.940272932125219
 20
-52.04609937292004
 30
0.0
  0
ATTRIB
  5
CD
330
CC
100
AcDbEntity
  8
FORMAT
 62
     2
100
AcDbText
 10
-14.08190894426185
 20
-49.97073246008785
 30
0.0
 40
4.233333333333333
  1
EM212910 [ 4 FLUTE ]
 41
0.75
  7
SLDTEXTSTYLE0
 11
-14.08190894426185
 21
-52.08739912675451
 31
0.0
100
AcDbAttribute
  2
AUTOATTR0
 70
     0
 74
     1
  0
SEQEND
  5
CE
330
CC
100
AcDbEntity
  8
0
  6
Continuous
 62
     7
  0
HATCH
  5
CF
330
1F
100
AcDbEntity
  8
중심선
100
AcDbHatch
 10
0.0
 20
0.0
 30
0.0
210
0.0
220
0.0
230
1.0
  2
SOLID
 70
     1
 71
     0
 91
        1
 92
        0
 93
        4
 72
     1
 10
1.77463637225563
 20
-35.7989250712761
 11
-1.671638871581652
 21
-35.7989250712761
 72
     1
 10
-1.671638871581652
 20
-35.7989250712761
 11
-3.799868730785675
 21
-38.3352506518487
 72
     1
 10
-3.799868730785675
 20
-38.3352506518487
 11
-0.3535604018352432
 21
-38.33521122254621
 72
     1
 10
-0.3535604018352432
 20
-38.33521122254621
 11
1.77463637225563
 21
-35.7989250712761
 97
        0
 75
     0
 76
     1
 98
        1
 10
-3.17500000000002
 20
0.0010749287238931
  0
HATCH
  5
D0
330
1F
100
AcDbEntity
  8
중심선
100
AcDbHatch
 10
0.0
 20
0.0
 30
0.0
210
0.0
220
0.0
230
1.0
  2
SOLID
 70
     1
 71
     0
 91
        1
 92
        0
 93
        4
 72
     1
 10
6.787400363291608
 20
-35.7989250712761
 11
3.341125119454326
 21
-35.7989250712761
 72
     1
 10
3.341125119454327
 20
-35.7989250712761
 11
-1.190012888903089
 21
-41.19892507127612
 72
     1
 10
-1.190012888903089
 20
-41.19892507127612
 11
2.256262354934193
 21
-41.19892507127612
 72
     1
 10
2.256262354934193
 20
-41.19892507127612
 11
6.787400363291608
 21
-35.7989250712761
 97
        0
 75
     0
 76
     1
 98
        1
 10
-3.17500000000002
 20
0.0010749287238931
  0
HATCH
  5
D1
330
1F
100
AcDbEntity
  8
중심선
100
AcDbHatch
 10
0.0
 20
0.0
 30
0.0
210
0.0
220
0.0
230
1.0
  2
SOLID
 70
     1
 71
     0
 91
        1
 92
        0
 93
        4
 72
     1
 10
11.80016435432753
 20
-35.79892507127607
 11
8.353889110490389
 21
-35.7989250712761
 72
     1
 10
8.353889110490389
 20
-35.7989250712761
 11
1.305452208601112
 21
-44.19892507127612
 72
     1
 10
1.305452208601113
 20
-44.19892507127612
 11
4.751727452438395
 21
-44.19892507127612
 72
     1
 10
4.751727452438395
 20
-44.19892507127612
 11
11.80016435432753
 21
-35.79892507127607
 97
        0
 75
     0
 76
     1
 98
        1
 10
-3.17500000000002
 20
0.0010749287238931
  0
HATCH
  5
D2
330
1F
100
AcDbEntity
  8
중심선
100
AcDbHatch
 10
0.0
 20
0.0
 30
0.0
210
0.0
220
0.0
230
1.0
  2
SOLID
 70
     1
 71
     0
 91
        1
 92
        0
 93
        6
 72
     3
 10
16.60005478533968
 20
-39.99892507132738
 11
3.960054785062283
 21
1.540882976769353E-10
 40
0.3939339440162628
 50
17.09539180608436
 51
320.0019657685082
 73
     0
 72
     1
 10
18.28305444104025
 20
-38.58681907591443
 11
20.58835631474131
 21
-36.65249236586649
 72
     3
 10
16.60005478528683
 20
-39.99892507127625
 11
6.600054785286829
 21
-1.278976924368180E-13
 40
0.636358354079598
 50
39.99873849337408
 51
368.4976242363724
 73
     1
 72
     1
 10
23.02538727718744
 20
-39.03892507120612
 11
15.28012209212275
 21
-39.03892507120612
 72
     1
 10
15.28012209212275
 20
-39.03892507120612
 11
15.28009704767682
 21
-40.95892507120602
 72
     1
 10
15.28009704767682
 20
-40.95892507120602
 11
19.72147681714885
 21
-40.95892507120599
 97
        0
 75
     0
 76
     1
 98
        1
 10
-3.17500000000002
 20
0.0010749287238931
  0
DIMENSION
  5
D3
330
1F
100
AcDbEntity
  8
치수문자_일반주서
100
AcDbDimension
  2
_D
 10
-53.16500000000001
 20
-6.348925071276153
 30
0.0
 11
-53.16500000000003
 21
0.001074928723888
 31
0.0
 70
   160
  1
%%c<>
 71
     2
 42
12.69999999999999
 52
-270.0
  3
SLDDIMSTYLE0
100
AcDbAlignedDimension
 13
-39.53000000000001
 23
6.351074928723888
 33
0.0
 14
-39.53000000000001
 24
-6.348925071276101
 34
0.0
 50
90.0000000000002
100
AcDbRotatedDimension
1001
ACAD
1000
DSTYLE
1002
{
1070
   273
1070
     7
1002
}
  0
DIMENSION
  5
E8
330
1F
100
AcDbEntity
  8
치수문자_일반주서
100
AcDbDimension
  2
_D_1
 10
9.999999999999993
 20
14.60091332137048
 30
0.0
 11
35.39999999999998
 21
14.60091332137048
 31
0.0
 70
   160
  1
<>
 71
     2
 42
50.79999999999999
  3
SLDDIMSTYLE1
100
AcDbAlignedDimension
 13
60.79999999999998
 23
4.050129940695006
 33
0.0
 14
9.999999999999993
 24
6.350883455786288
 34
0.0
 50
0.000000000000004
100
AcDbRotatedDimension
1001
ACAD
1000
DSTYLE
1002
{
1070
   273
1070
     7
1002
}
  0
DIMENSION
  5
FC
330
1F
100
AcDbEntity
  8
치수문자_일반주서
100
AcDbDimension
  2
_D_2
 10
-40.8
 20
26.38368937861915
 30
0.0
 11
9.999999999999993
 21
26.38368937861915
 31
0.0
 70
   160
  1
<>
 71
     2
 42
101.6
  3
SLDDIMSTYLE1
100
AcDbAlignedDimension
 13
60.79999999999998
 23
4.050129940695006
 33
0.0
 14
-40.8
 24
5.081074928723897
 34
0.0
 50
0.000000000000006
100
AcDbRotatedDimension
1001
ACAD
1000
DSTYLE
1002
{
1070
   273
1070
     7
1002
}
  0
DIMENSION
  5
10F
330
1F
100
AcDbEntity
  8
치수문자_일반주서
100
AcDbDimension
  2
_D_3
 10
73.64047459711574
 20
-6.348925071275954
 30
0.0
 11
73.64047459711564
 21
22.99682492872406
 31
0.0
 70
   160
  1
%%c<>
 71
     2
 42
12.70000000000001
 52
-270.0
  3
SLDDIMSTYLE1
100
AcDbAlignedDimension
 13
31.06184225732488
 23
6.351074928723899
 33
0.0
 14
31.06184225732481
 24
-6.348925071276112
 34
0.0
 50
90.0000000000002
100
AcDbRotatedDimension
1001
ACAD
1000
DSTYLE
1002
{
1070
   273
1070
     7
1002
}
  0
LINE
  5
122
330
1F
100
AcDbEntity
  8
참조1
100
AcDbLine
 10
80.11348381534559
 20
7.441074928723896
 30
0.0
 11
80.11348381534559
 21
-7.438925071276109
 31
0.0
  0
LINE
  5
123
330
1F
100
AcDbEntity
  8
참조1
100
AcDbLine
 10
92.81348381534559
 20
5.441074928723896
 30
0.0
 11
80.11348381534559
 21
5.441074928723896
 31
0.0
  0
SOLID
  5
124
330
1F
100
AcDbEntity
  8
참조1
100
AcDbTrace
 10
80.11348381534559
 20
5.441074928723896
 30
0.0
 11
86.46348381534558
 21
4.425074928723896
 31
0.0
 12
86.46348381534558
 22
6.457074928723896
 32
0.0
 13
86.46348381534558
 23
6.457074928723896
 33
0.0
  0
LINE
  5
125
330
1F
100
AcDbEntity
  8
참조1
100
AcDbLine
 10
92.81348381534559
 20
-5.438925071276109
 30
0.0
 11
80.11348381534559
 21
-5.438925071276109
 31
0.0
  0
SOLID
  5
126
330
1F
100
AcDbEntity
  8
참조1
100
AcDbTrace
 10
80.11348381534559
 20
-5.438925071276109
 30
0.0
 11
86.46348381534558
 21
-6.454925071276109
 31
0.0
 12
86.46348381534558
 22
-4.422925071276109
 32
0.0
 13
86.46348381534558
 23
-4.422925071276109
 33
0.0
  0
MTEXT
  5
127
330
1F
100
AcDbEntity
  8
참조1
100
AcDbMText
 10
89.71359862590816
 20
11.06679249473997
 30
0.0
 40
3.5
 41
0.0
 71
     1
 72
     1
  1
A
  7
SLDTEXTSTYLE0
 73
     1
 44
1.0
  0
MTEXT
  5
128
330
1F
100
AcDbEntity
  8
참조1
100
AcDbMText
 10
89.71359862590816
 20
0.1867924947399659
 30
0.0
 40
3.5
 41
0.0
 71
     1
 72
     1
  1
A
  7
SLDTEXTSTYLE0
 73
     1
 44
1.0
  0
INSERT
  5
12F
330
1F
100
AcDbEntity
  8
해칭선
100
AcDbBlockReference
  2
SW_DOWELSYMBOL_0
 10
0.0
 20
0.0
 30
0.0
  0
ARC
  5
157
330
1F
100
AcDbEntity
  8
0
 62
     1
100
AcDbCircle
 10
58.51399999999998
 20
4.065074928724002
 30
0.0
 40
2.286
100
AcDbArc
 50
0.0
 51
90.0000000000002
  0
ARC
  5
158
102
{ACAD_REACTORS
102
}
330
1F
100
AcDbEntity
  8
0
 62
     1
100
AcDbCircle
 10
58.51399999999998
 20
-4.062925071276199
 30
0.0
 40
2.286
100
AcDbArc
 50
269.9999999999998
 51
0.0
  0
DIMENSION
  5
17F
102
{ACAD_REACTORS
102
}
102
{ACAD_XDICTIONARY
360
180
102
}
330
1F
100
AcDbEntity
  8
치수문자_일반주서
100
AcDbDimension
  2
*D7
 10
58.51399999999998
 20
-4.062925071276199
 30
0.0
 11
65.843708881265
 21
-27.3582640745705
 31
0.0
 70
   164
  1
<>
 71
     5
 42
2.286
  3
SLDDIMSTYLE1
100
AcDbRadialDimension
 15
59.20011207463055
 25
-6.243531918244752
 35
0.0
 40
0.0
1001
ACAD
1000
DSTYLE
1002
{
1070
   285
1070
     4
1070
   171
1070
     3
1070
   273
1070
     2
1002
}
1001
ACAD_DSTYLE_DIMRADIAL_EXTENSION
1070
   387
1070
     1
1070
   388
1040
4.712388980384686
1070
   390
1040
0.0
  0
ENDSEC
  0
SECTION
  2
OBJECTS
  0
DICTIONARY
  5
C
330
0
100
AcDbDictionary
281
     1
  3
ACAD_GROUP
350
D
  3
ACAD_IMAGE_VARS
350
153
  3
ACAD_LAYOUT
350
1A
  3
ACAD_MLINESTYLE
350
17
  3
ACAD_PLOTSETTINGS
350
19
  3
ACAD_PLOTSTYLENAME
350
E
  3
ACAD_SCALELIST
350
47
  3
APPDATA
350
151
  3
DWGPROPS
350
18C
  0
DICTIONARY
  5
180
330
17F
100
AcDbDictionary
280
     1
281
     1
  0
DICTIONARY
  5
D
102
{ACAD_REACTORS
330
C
102
}
330
C
100
AcDbDictionary
281
     1
  0
RASTERVARIABLES
  5
153
102
{ACAD_REACTORS
330
C
102
}
330
C
100
AcDbRasterVariables
 90
        0
 70
     1
 71
     1
 72
     1
  0
DICTIONARY
  5
1A
102
{ACAD_REACTORS
330
C
102
}
330
C
100
AcDbDictionary
281
     1
  3
Layout1
350
1E
  3
Layout2
350
26
  3
Model
350
22
  0
DICTIONARY
  5
17
102
{ACAD_REACTORS
330
C
102
}
330
C
100
AcDbDictionary
281
     1
  3
Standard
350
18
  0
DICTIONARY
  5
19
102
{ACAD_REACTORS
330
C
102
}
330
C
100
AcDbDictionary
281
     1
  0
ACDBDICTIONARYWDFLT
  5
E
102
{ACAD_REACTORS
330
C
102
}
330
C
100
AcDbDictionary
281
     1
  3
Normal
350
F
100
AcDbDictionaryWithDefault
340
F
  0
DICTIONARY
  5
47
102
{ACAD_REACTORS
330
C
102
}
330
C
100
AcDbDictionary
281
     1
  3
A0
350
48
  3
A1
350
49
  3
A2
350
4A
  3
A3
350
4B
  3
A4
350
4C
  3
A5
350
4D
  3
A6
350
4E
  3
A7
350
4F
  3
A8
350
50
  3
A9
350
51
  3
B0
350
52
  3
B1
350
53
  3
B2
350
54
  3
B3
350
55
  3
B4
350
56
  3
B5
350
57
  3
B6
350
58
  3
B7
350
59
  3
B8
350
5A
  3
B9
350
5B
  3
C0
350
5C
  3
C1
350
5D
  3
C2
350
5E
  3
C3
350
5F
  3
C4
350
60
  3
C5
350
61
  3
C6
350
62
  3
C7
350
63
  3
C8
350
64
  3
C9
350
65
  3
D0
350
66
  3
D1
350
67
  3
D2
350
68
  0
DICTIONARY
  5
151
102
{ACAD_REACTORS
330
C
102
}
330
C
100
AcDbDictionary
281
     1
  0
XRECORD
  5
18C
102
{ACAD_REACTORS
330
C
102
}
330
C
100
AcDbXrecord
280
     1
  1
DWGPROPS COOKIE
  2

  3

  4

  6

  7

  8
12016016
  9

300
=
301
=
302
=
303
=
304
=
305
=
306
=
307
=
308
=
309
=
 40
0.0
 41
2458304.075274305
 42
2458304.186235937
  1

 90
        0
  0
LAYOUT
  5
1E
102
{ACAD_REACTORS
330
1A
102
}
330
1A
100
AcDbPlotSettings
  1

  2
none_device
  4

  6

 40
0.0
 41
0.0
 42
0.0
 43
0.0
 44
0.0
 45
0.0
 46
0.0
 47
0.0
 48
0.0
 49
0.0
140
0.0
141
0.0
142
1.0
143
1.0
 70
   688
 72
     1
 73
     0
 74
     5
  7

 75
    16
147
1.0
148
0.0
149
0.0
100
AcDbLayout
  1
Layout1
 70
     1
 71
     1
 10
0.0
 20
0.0
 11
420.0
 21
297.0
 12
0.0
 22
0.0
 32
0.0
 14
1.000000000000000E+20
 24
1.000000000000000E+20
 34
1.000000000000000E+20
 15
-1.000000000000000E+20
 25
-1.000000000000000E+20
 35
-1.000000000000000E+20
146
0.0
 13
0.0
 23
0.0
 33
0.0
 16
1.0
 26
0.0
 36
0.0
 17
0.0
 27
1.0
 37
0.0
 76
     0
330
1B
  0
LAYOUT
  5
26
102
{ACAD_REACTORS
330
1A
102
}
330
1A
100
AcDbPlotSettings
  1

  2
none_device
  4

  6

 40
0.0
 41
0.0
 42
0.0
 43
0.0
 44
0.0
 45
0.0
 46
0.0
 47
0.0
 48
0.0
 49
0.0
140
0.0
141
0.0
142
1.0
143
1.0
 70
   688
 72
     1
 73
     0
 74
     5
  7

 75
    16
147
1.0
148
0.0
149
0.0
100
AcDbLayout
  1
Layout2
 70
     1
 71
     2
 10
0.0
 20
0.0
 11
0.0
 21
0.0
 12
0.0
 22
0.0
 32
0.0
 14
0.0
 24
0.0
 34
0.0
 15
0.0
 25
0.0
 35
0.0
146
0.0
 13
0.0
 23
0.0
 33
0.0
 16
1.0
 26
0.0
 36
0.0
 17
0.0
 27
1.0
 37
0.0
 76
     0
330
23
  0
LAYOUT
  5
22
102
{ACAD_REACTORS
330
1A
102
}
330
1A
100
AcDbPlotSettings
  1

  2
none_device
  4
ANSI_A_(11.00_x_8.50_Inches)
  6

 40
6.35
 41
19.05
 42
6.35000508
 43
19.05000254
 44
279.4
 45
215.9
 46
102.2917721862972
 47
100.8451707207827
 48
0.0
 49
0.0
140
0.0
141
0.0
142
0.0694642160134762
143
1.0
 70
  1696
 72
     0
 73
     0
 74
     0
  7

 75
     0
147
0.0235690232323232
148
0.0
149
0.0
100
AcDbLayout
  1
Model
 70
     1
 71
     0
 10
0.0
 20
0.0
 11
420.0
 21
297.0
 12
0.0
 22
0.0
 32
0.0
 14
-57.54000000000007
 24
-49.97073246008785
 34
0.0
 15
92.81348381534559
 25
36.34057492872406
 35
0.0
146
0.0
 13
0.0
 23
0.0
 33
0.0
 16
1.0
 26
0.0
 36
0.0
 17
0.0
 27
1.0
 37
0.0
 76
     0
330
1F
331
29
  0
MLINESTYLE
  5
18
102
{ACAD_REACTORS
330
17
102
}
330
17
100
AcDbMlineStyle
  2
Standard
 70
     0
  3

 62
   256
 51
90.0
 52
90.0
 71
     2
 49
0.5
 62
   256
  6
BYLAYER
 49
-0.5
 62
   256
  6
BYLAYER
  0
ACDBPLACEHOLDER
  5
F
102
{ACAD_REACTORS
330
E
102
}
330
E
  0
SCALE
  5
48
102
{ACAD_REACTORS
330
47
102
}
330
47
100
AcDbScale
 70
     0
300
1:1
140
1.0
141
1.0
290
     1
  0
SCALE
  5
49
102
{ACAD_REACTORS
330
47
102
}
330
47
100
AcDbScale
 70
     0
300
1:2
140
1.0
141
2.0
290
     0
  0
SCALE
  5
4A
102
{ACAD_REACTORS
330
47
102
}
330
47
100
AcDbScale
 70
     0
300
1:4
140
1.0
141
4.0
290
     0
  0
SCALE
  5
4B
102
{ACAD_REACTORS
330
47
102
}
330
47
100
AcDbScale
 70
     0
300
1:5
140
1.0
141
5.0
290
     0
  0
SCALE
  5
4C
102
{ACAD_REACTORS
330
47
102
}
330
47
100
AcDbScale
 70
     0
300
1:8
140
1.0
141
8.0
290
     0
  0
SCALE
  5
4D
102
{ACAD_REACTORS
330
47
102
}
330
47
100
AcDbScale
 70
     0
300
1:10
140
1.0
141
10.0
290
     0
  0
SCALE
  5
4E
102
{ACAD_REACTORS
330
47
102
}
330
47
100
AcDbScale
 70
     0
300
1:16
140
1.0
141
16.0
290
     0
  0
SCALE
  5
4F
102
{ACAD_REACTORS
330
47
102
}
330
47
100
AcDbScale
 70
     0
300
1:20
140
1.0
141
20.0
290
     0
  0
SCALE
  5
50
102
{ACAD_REACTORS
330
47
102
}
330
47
100
AcDbScale
 70
     0
300
1:30
140
1.0
141
30.0
290
     0
  0
SCALE
  5
51
102
{ACAD_REACTORS
330
47
102
}
330
47
100
AcDbScale
 70
     0
300
1:40
140
1.0
141
40.0
290
     0
  0
SCALE
  5
52
102
{ACAD_REACTORS
330
47
102
}
330
47
100
AcDbScale
 70
     0
300
1:50
140
1.0
141
50.0
290
     0
  0
SCALE
  5
53
102
{ACAD_REACTORS
330
47
102
}
330
47
100
AcDbScale
 70
     0
300
1:100
140
1.0
141
100.0
290
     0
  0
SCALE
  5
54
102
{ACAD_REACTORS
330
47
102
}
330
47
100
AcDbScale
 70
     0
300
2:1
140
2.0
141
1.0
290
     0
  0
SCALE
  5
55
102
{ACAD_REACTORS
330
47
102
}
330
47
100
AcDbScale
 70
     0
300
4:1
140
4.0
141
1.0
290
     0
  0
SCALE
  5
56
102
{ACAD_REACTORS
330
47
102
}
330
47
100
AcDbScale
 70
     0
300
8:1
140
8.0
141
1.0
290
     0
  0
SCALE
  5
57
102
{ACAD_REACTORS
330
47
102
}
330
47
100
AcDbScale
 70
     0
300
10:1
140
10.0
141
1.0
290
     0
  0
SCALE
  5
58
102
{ACAD_REACTORS
330
47
102
}
330
47
100
AcDbScale
 70
     0
300
100:1
140
100.0
141
1.0
290
     0
  0
SCALE
  5
59
102
{ACAD_REACTORS
330
47
102
}
330
47
100
AcDbScale
 70
     0
300
1/128" = 1'-0"
140
0.0078125
141
12.0
290
     0
  0
SCALE
  5
5A
102
{ACAD_REACTORS
330
47
102
}
330
47
100
AcDbScale
 70
     0
300
1/64" = 1'-0"
140
0.015625
141
12.0
290
     0
  0
SCALE
  5
5B
102
{ACAD_REACTORS
330
47
102
}
330
47
100
AcDbScale
 70
     0
300
1/32" = 1'-0"
140
0.03125
141
12.0
290
     0
  0
SCALE
  5
5C
102
{ACAD_REACTORS
330
47
102
}
330
47
100
AcDbScale
 70
     0
300
1/16" = 1'-0"
140
0.0625
141
12.0
290
     0
  0
SCALE
  5
5D
102
{ACAD_REACTORS
330
47
102
}
330
47
100
AcDbScale
 70
     0
300
3/32" = 1'-0"
140
0.09375
141
12.0
290
     0
  0
SCALE
  5
5E
102
{ACAD_REACTORS
330
47
102
}
330
47
100
AcDbScale
 70
     0
300
1/8" = 1'-0"
140
0.125
141
12.0
290
     0
  0
SCALE
  5
5F
102
{ACAD_REACTORS
330
47
102
}
330
47
100
AcDbScale
 70
     0
300
3/16" = 1'-0"
140
0.1875
141
12.0
290
     0
  0
SCALE
  5
60
102
{ACAD_REACTORS
330
47
102
}
330
47
100
AcDbScale
 70
     0
300
1/4" = 1'-0"
140
0.25
141
12.0
290
     0
  0
SCALE
  5
61
102
{ACAD_REACTORS
330
47
102
}
330
47
100
AcDbScale
 70
     0
300
3/8" = 1'-0"
140
0.375
141
12.0
290
     0
  0
SCALE
  5
62
102
{ACAD_REACTORS
330
47
102
}
330
47
100
AcDbScale
 70
     0
300
1/2" = 1'-0"
140
0.5
141
12.0
290
     0
  0
SCALE
  5
63
102
{ACAD_REACTORS
330
47
102
}
330
47
100
AcDbScale
 70
     0
300
3/4" = 1'-0"
140
0.75
141
12.0
290
     0
  0
SCALE
  5
64
102
{ACAD_REACTORS
330
47
102
}
330
47
100
AcDbScale
 70
     0
300
1" = 1'-0"
140
1.0
141
12.0
290
     0
  0
SCALE
  5
65
102
{ACAD_REACTORS
330
47
102
}
330
47
100
AcDbScale
 70
     0
300
1-1/2" = 1'-0"
140
1.5
141
12.0
290
     0
  0
SCALE
  5
66
102
{ACAD_REACTORS
330
47
102
}
330
47
100
AcDbScale
 70
     0
300
3" = 1'-0"
140
3.0
141
12.0
290
     0
  0
SCALE
  5
67
102
{ACAD_REACTORS
330
47
102
}
330
47
100
AcDbScale
 70
     0
300
6" = 1'-0"
140
6.0
141
12.0
290
     0
  0
SCALE
  5
68
102
{ACAD_REACTORS
330
47
102
}
330
47
100
AcDbScale
 70
     0
300
1'-0" = 1'-0"
140
12.0
141
12.0
290
     0
  0
ENDSEC
  0
EOF
