  0
SECTION
  2
HEADER
  9
$ACADVER
  1
AC1015
  9
$ACADMAINTVER
 70
     6
  9
$DWGCODEPAGE
  3
ANSI_949
  9
$INSBASE
 10
0.0
 20
0.0
 30
0.0
  9
$EXTMIN
 10
-53.09532355922833
 20
-49.97180738881175
 30
0.0
  9
$EXTMAX
 10
110.2756602561173
 20
50.12845306231156
 30
0.0
  9
$LIMMIN
 10
0.0
 20
0.0
  9
$LIMMAX
 10
420.0
 20
297.0
  9
$ORTHOMODE
 70
     1
  9
$REGENMODE
 70
     1
  9
$FILLMODE
 70
     1
  9
$QTEXTMODE
 70
     0
  9
$MIRRTEXT
 70
     1
  9
$LTSCALE
 40
1.0
  9
$ATTMODE
 70
     1
  9
$TEXTSIZE
 40
3.5
  9
$TRACEWID
 40
1.0
  9
$TEXTSTYLE
  7
Standard
  9
$CLAYER
  8
0
  9
$CELTYPE
  6
ByLayer
  9
$CECOLOR
 62
   256
  9
$CELTSCALE
 40
1.0
  9
$DISPSILH
 70
     0
  9
$DIMSCALE
 40
1.0
  9
$DIMASZ
 40
3.302
  9
$DIMEXO
 40
1.0
  9
$DIMDLI
 40
3.75
  9
$DIMRND
 40
0.0
  9
$DIMDLE
 40
0.0
  9
$DIMEXE
 40
1.0
  9
$DIMTP
 40
0.0
  9
$DIMTM
 40
0.0
  9
$DIMTXT
 40
3.5
  9
$DIMCEN
 40
2.5
  9
$DIMTSZ
 40
0.0
  9
$DIMTOL
 70
     0
  9
$DIMLIM
 70
     0
  9
$DIMTIH
 70
     1
  9
$DIMTOH
 70
     1
  9
$DIMSE1
 70
     0
  9
$DIMSE2
 70
     0
  9
$DIMTAD
 70
     1
  9
$DIMZIN
 70
     0
  9
$DIMBLK
  1

  9
$DIMASO
 70
     1
  9
$DIMSHO
 70
     1
  9
$DIMPOST
  1

  9
$DIMAPOST
  1

  9
$DIMALT
 70
     0
  9
$DIMALTD
 70
     3
  9
$DIMALTF
 40
0.0393700787401575
  9
$DIMLFAC
 40
1.0
  9
$DIMTOFL
 70
     1
  9
$DIMTVP
 40
0.0
  9
$DIMTIX
 70
     0
  9
$DIMSOXD
 70
     0
  9
$DIMSAH
 70
     0
  9
$DIMBLK1
  1

  9
$DIMBLK2
  1

  9
$DIMSTYLE
  2
ISO-25
  9
$DIMCLRD
 70
     0
  9
$DIMCLRE
 70
     0
  9
$DIMCLRT
 70
     0
  9
$DIMTFAC
 40
1.0
  9
$DIMGAP
 40
1.524
  9
$DIMJUST
 70
     0
  9
$DIMSD1
 70
     0
  9
$DIMSD2
 70
     0
  9
$DIMTOLJ
 70
     0
  9
$DIMTZIN
 70
     0
  9
$DIMALTZ
 70
     0
  9
$DIMALTTZ
 70
     0
  9
$DIMUPT
 70
     0
  9
$DIMDEC
 70
     2
  9
$DIMTDEC
 70
     2
  9
$DIMALTU
 70
     2
  9
$DIMALTTD
 70
     3
  9
$DIMTXSTY
  7
Standard
  9
$DIMAUNIT
 70
     0
  9
$DIMADEC
 70
     2
  9
$DIMALTRND
 40
0.0
  9
$DIMAZIN
 70
     0
  9
$DIMDSEP
 70
    44
  9
$DIMATFIT
 70
     3
  9
$DIMFRAC
 70
     0
  9
$DIMLDRBLK
  1

  9
$DIMLUNIT
 70
     2
  9
$DIMLWD
 70
    -2
  9
$DIMLWE
 70
    -2
  9
$DIMTMOVE
 70
     0
  9
$LUNITS
 70
     2
  9
$LUPREC
 70
     2
  9
$SKETCHINC
 40
1.0
  9
$FILLETRAD
 40
10.0
  9
$AUNITS
 70
     0
  9
$AUPREC
 70
     2
  9
$MENU
  1
.
  9
$ELEVATION
 40
0.0
  9
$PELEVATION
 40
0.0
  9
$THICKNESS
 40
0.0
  9
$LIMCHECK
 70
     0
  9
$CHAMFERA
 40
0.0
  9
$CHAMFERB
 40
0.0
  9
$CHAMFERC
 40
0.0
  9
$CHAMFERD
 40
0.0
  9
$SKPOLY
 70
     0
  9
$TDCREATE
 40
2458292.64629971
  9
$TDUCREATE
 40
2458292.27129971
  9
$TDUPDATE
 40
2459697.393198947
  9
$TDUUPDATE
 40
2459697.018198947
  9
$TDINDWG
 40
0.0019446412
  9
$TDUSRTIMER
 40
0.0004849769
  9
$USRTIMER
 70
     1
  9
$ANGBASE
 50
0.0
  9
$ANGDIR
 70
     0
  9
$PDMODE
 70
     0
  9
$PDSIZE
 40
-1.0
  9
$PLINEWID
 40
0.0
  9
$SPLFRAME
 70
     0
  9
$SPLINETYPE
 70
     6
  9
$SPLINESEGS
 70
     8
  9
$HANDSEED
  5
1A2
  9
$SURFTAB1
 70
     6
  9
$SURFTAB2
 70
     6
  9
$SURFTYPE
 70
     6
  9
$SURFU
 70
     6
  9
$SURFV
 70
     6
  9
$UCSBASE
  2

  9
$UCSNAME
  2

  9
$UCSORG
 10
0.0
 20
0.0
 30
0.0
  9
$UCSXDIR
 10
1.0
 20
0.0
 30
0.0
  9
$UCSYDIR
 10
0.0
 20
1.0
 30
0.0
  9
$UCSORTHOREF
  2

  9
$UCSORTHOVIEW
 70
     0
  9
$UCSORGTOP
 10
0.0
 20
0.0
 30
0.0
  9
$UCSORGBOTTOM
 10
0.0
 20
0.0
 30
0.0
  9
$UCSORGLEFT
 10
0.0
 20
0.0
 30
0.0
  9
$UCSORGRIGHT
 10
0.0
 20
0.0
 30
0.0
  9
$UCSORGFRONT
 10
0.0
 20
0.0
 30
0.0
  9
$UCSORGBACK
 10
0.0
 20
0.0
 30
0.0
  9
$PUCSBASE
  2

  9
$PUCSNAME
  2

  9
$PUCSORG
 10
0.0
 20
0.0
 30
0.0
  9
$PUCSXDIR
 10
1.0
 20
0.0
 30
0.0
  9
$PUCSYDIR
 10
0.0
 20
1.0
 30
0.0
  9
$PUCSORTHOREF
  2

  9
$PUCSORTHOVIEW
 70
     0
  9
$PUCSORGTOP
 10
0.0
 20
0.0
 30
0.0
  9
$PUCSORGBOTTOM
 10
0.0
 20
0.0
 30
0.0
  9
$PUCSORGLEFT
 10
0.0
 20
0.0
 30
0.0
  9
$PUCSORGRIGHT
 10
0.0
 20
0.0
 30
0.0
  9
$PUCSORGFRONT
 10
0.0
 20
0.0
 30
0.0
  9
$PUCSORGBACK
 10
0.0
 20
0.0
 30
0.0
  9
$USERI1
 70
     0
  9
$USERI2
 70
     0
  9
$USERI3
 70
     0
  9
$USERI4
 70
     0
  9
$USERI5
 70
     0
  9
$USERR1
 40
0.0
  9
$USERR2
 40
0.0
  9
$USERR3
 40
0.0
  9
$USERR4
 40
0.0
  9
$USERR5
 40
0.0
  9
$WORLDVIEW
 70
     1
  9
$SHADEDGE
 70
     3
  9
$SHADEDIF
 70
    70
  9
$TILEMODE
 70
     1
  9
$MAXACTVP
 70
    64
  9
$PINSBASE
 10
0.0
 20
0.0
 30
0.0
  9
$PLIMCHECK
 70
     0
  9
$PEXTMIN
 10
1.000000000000000E+20
 20
1.000000000000000E+20
 30
1.000000000000000E+20
  9
$PEXTMAX
 10
-1.000000000000000E+20
 20
-1.000000000000000E+20
 30
-1.000000000000000E+20
  9
$PLIMMIN
 10
0.0
 20
0.0
  9
$PLIMMAX
 10
0.0
 20
0.0
  9
$UNITMODE
 70
     0
  9
$VISRETAIN
 70
     1
  9
$PLINEGEN
 70
     0
  9
$PSLTSCALE
 70
     1
  9
$TREEDEPTH
 70
  3020
  9
$CMLSTYLE
  2
Standard
  9
$CMLJUST
 70
     0
  9
$CMLSCALE
 40
20.0
  9
$PROXYGRAPHICS
 70
     1
  9
$MEASUREMENT
 70
     1
  9
$CELWEIGHT
370
    -1
  9
$ENDCAPS
280
     0
  9
$JOINSTYLE
280
     0
  9
$LWDISPLAY
290
     1
  9
$INSUNITS
 70
     4
  9
$HYPERLINKBASE
  1

  9
$STYLESHEET
  1

  9
$XEDIT
290
     1
  9
$CEPSNTYPE
380
     0
  9
$PSTYLEMODE
290
     1
  9
$FINGERPRINTGUID
  2
{D837157E-ACE9-4FC1-87E4-570AE9A81386}
  9
$VERSIONGUID
  2
{FAEB1C32-E019-11D5-929B-00C0DF256EC4}
  9
$EXTNAMES
290
     1
  9
$PSVPSCALE
 40
0.0
  9
$OLESTARTUP
290
     0
  0
ENDSEC
  0
SECTION
  2
CLASSES
  0
CLASS
  1
ACDBDICTIONARYWDFLT
  2
AcDbDictionaryWithDefault
  3
ObjectDBX Classes
 90
        0
280
     0
281
     0
  0
CLASS
  1
VISUALSTYLE
  2
AcDbVisualStyle
  3
ObjectDBX Classes
 90
     4095
280
     0
281
     0
  0
CLASS
  1
MATERIAL
  2
AcDbMaterial
  3
ObjectDBX Classes
 90
     1153
280
     0
281
     0
  0
CLASS
  1
SCALE
  2
AcDbScale
  3
ObjectDBX Classes
 90
     1153
280
     0
281
     0
  0
CLASS
  1
SUN
  2
AcDbSun
  3
SCENEOE
 90
     1153
280
     0
281
     0
  0
CLASS
  1
ACDBPLACEHOLDER
  2
AcDbPlaceHolder
  3
ObjectDBX Classes
 90
        0
280
     0
281
     0
  0
CLASS
  1
LAYOUT
  2
AcDbLayout
  3
ObjectDBX Classes
 90
        0
280
     0
281
     0
  0
CLASS
  1
TABLESTYLE
  2
AcDbTableStyle
  3
ObjectDBX Classes
 90
     4095
280
     0
281
     0
  0
CLASS
  1
MLEADERSTYLE
  2
AcDbMLeaderStyle
  3
ACDB_MLEADERSTYLE_CLASS
 90
     4095
280
     0
281
     0
  0
CLASS
  1
DICTIONARYVAR
  2
AcDbDictionaryVar
  3
ObjectDBX Classes
 90
        0
280
     0
281
     0
  0
ENDSEC
  0
SECTION
  2
TABLES
  0
TABLE
  2
VPORT
  5
8
330
0
100
AcDbSymbolTable
 70
     1
  0
VPORT
  5
29
330
8
100
AcDbSymbolTableRecord
100
AcDbViewportTableRecord
  2
*Active
 70
     0
 10
0.0
 20
0.0
 11
1.0
 21
1.0
 12
28.59016834844449
 22
0.0783228367499049
 13
0.0
 23
0.0
 14
10.0
 24
10.0
 15
10.0
 25
10.0
 16
0.0
 26
0.0
 36
1.0
 17
0.0
 27
0.0
 37
0.0
 40
102.1022656601458
 41
2.008253094910592
 42
50.0
 43
0.0
 44
0.0
 50
0.0
 51
0.0
 71
    16
 72
  2000
 73
     1
 74
     3
 75
     0
 76
     0
 77
     0
 78
     0
281
     0
 65
     1
110
0.0
120
0.0
130
0.0
111
1.0
121
0.0
131
0.0
112
0.0
122
1.0
132
0.0
 79
     0
146
0.0
  0
ENDTAB
  0
TABLE
  2
LTYPE
  5
5
330
0
100
AcDbSymbolTable
 70
     6
  0
LTYPE
  5
14
330
5
100
AcDbSymbolTableRecord
100
AcDbLinetypeTableRecord
  2
ByBlock
 70
     0
  3

 72
    65
 73
     0
 40
0.0
  0
LTYPE
  5
15
330
5
100
AcDbSymbolTableRecord
100
AcDbLinetypeTableRecord
  2
ByLayer
 70
     0
  3

 72
    65
 73
     0
 40
0.0
  0
LTYPE
  5
16
330
5
100
AcDbSymbolTableRecord
100
AcDbLinetypeTableRecord
  2
Continuous
 70
     0
  3
Solid line
 72
    65
 73
     0
 40
0.0
  0
LTYPE
  5
6A
330
5
100
AcDbSymbolTableRecord
100
AcDbLinetypeTableRecord
  2
HIDDEN
 70
     0
  3
Hidden __ __ __ __ __ __ __ __ __ __ __ __ __ __
 72
    65
 73
     2
 40
1.905
 49
1.27
 74
     0
 49
-0.635
 74
     0
  0
LTYPE
  5
6B
330
5
100
AcDbSymbolTableRecord
100
AcDbLinetypeTableRecord
  2
PHANTOM
 70
     0
  3
Phantom ______  __  __  ______  __  __  ______
 72
    65
 73
     6
 40
12.7
 49
6.35
 74
     0
 49
-1.27
 74
     0
 49
1.27
 74
     0
 49
-1.27
 74
     0
 49
1.27
 74
     0
 49
-1.27
 74
     0
  0
LTYPE
  5
6C
330
5
100
AcDbSymbolTableRecord
100
AcDbLinetypeTableRecord
  2
CENTER
 70
     0
  3
Center ____ _ ____ _ ____ _ ____ _ ____ _ ____
 72
    65
 73
     4
 40
10.16
 49
6.35
 74
     0
 49
-1.27
 74
     0
 49
1.27
 74
     0
 49
-1.27
 74
     0
  0
LTYPE
  5
6D
330
5
100
AcDbSymbolTableRecord
100
AcDbLinetypeTableRecord
  2
CENTERX2
 70
     0
  3
Center (2x) ________  __  ________  __  _____
 72
    65
 73
     4
 40
20.32
 49
12.7
 74
     0
 49
-2.54
 74
     0
 49
2.54
 74
     0
 49
-2.54
 74
     0
  0
LTYPE
  5
6E
330
5
100
AcDbSymbolTableRecord
100
AcDbLinetypeTableRecord
  2
DOT2
 70
     0
  3
Dot (.5x) ........................................
 72
    65
 73
     2
 40
0.635
 49
0.0
 74
     0
 49
-0.635
 74
     0
  0
ENDTAB
  0
TABLE
  2
LAYER
  5
2
330
0
100
AcDbSymbolTable
 70
    18
  0
LAYER
  5
10
330
2
100
AcDbSymbolTableRecord
100
AcDbLayerTableRecord
  2
0
 70
     0
 62
     7
  6
Continuous
370
    -3
390
F
  0
LAYER
  5
6F
330
2
100
AcDbSymbolTableRecord
100
AcDbLayerTableRecord
  2
FORMAT
 70
     0
 62
     2
  6
Continuous
370
    -3
390
F
  0
LAYER
  5
70
330
2
100
AcDbSymbolTableRecord
100
AcDbLayerTableRecord
  2
외형선
 70
     0
 62
     4
  6
Continuous
370
    30
390
F
  0
LAYER
  5
71
330
2
100
AcDbSymbolTableRecord
100
AcDbLayerTableRecord
  2
숨은선
 70
     0
 62
     2
  6
HIDDEN
370
    15
390
F
  0
LAYER
  5
72
330
2
100
AcDbSymbolTableRecord
100
AcDbLayerTableRecord
  2
중심선
 70
     0
 62
     1
  6
CENTERX2
370
    -3
390
F
  0
LAYER
  5
73
330
2
100
AcDbSymbolTableRecord
100
AcDbLayerTableRecord
  2
파단선
 70
     0
 62
     4
  6
Continuous
370
    -3
390
F
  0
LAYER
  5
74
330
2
100
AcDbSymbolTableRecord
100
AcDbLayerTableRecord
  2
해칭선
 70
     0
 62
   100
  6
Continuous
370
    -3
390
F
  0
LAYER
  5
75
330
2
100
AcDbSymbolTableRecord
100
AcDbLayerTableRecord
  2
가는실선
 70
     0
 62
     4
  6
Continuous
370
    -3
390
F
  0
LAYER
  5
76
330
2
100
AcDbSymbolTableRecord
100
AcDbLayerTableRecord
  2
치수_보조선
 70
     0
 62
     4
  6
Continuous
370
    -3
390
F
  0
LAYER
  5
77
330
2
100
AcDbSymbolTableRecord
100
AcDbLayerTableRecord
  2
치수문자_일반주서
 70
     0
 62
     7
  6
Continuous
370
    15
390
F
  0
LAYER
  5
78
330
2
100
AcDbSymbolTableRecord
100
AcDbLayerTableRecord
  2
개별주서
 70
     0
 62
   100
  6
Continuous
370
    30
390
F
  0
LAYER
  5
79
330
2
100
AcDbSymbolTableRecord
100
AcDbLayerTableRecord
  2
중간선
 70
     0
 62
     2
  6
Continuous
370
    15
390
F
  0
LAYER
  5
7A
330
2
100
AcDbSymbolTableRecord
100
AcDbLayerTableRecord
  2
윤곽선
 70
     0
 62
     3
  6
Continuous
370
    40
390
F
  0
LAYER
  5
7B
330
2
100
AcDbSymbolTableRecord
100
AcDbLayerTableRecord
  2
중심마크
 70
     0
 62
   100
  6
Continuous
370
    30
390
F
  0
LAYER
  5
7C
330
2
100
AcDbSymbolTableRecord
100
AcDbLayerTableRecord
  2
가상선
 70
     0
 62
     4
  6
PHANTOM
370
    -3
390
F
  0
LAYER
  5
7D
330
2
100
AcDbSymbolTableRecord
100
AcDbLayerTableRecord
  2
특수지정선
 70
     0
 62
     5
  6
CENTERX2
370
    60
390
F
  0
LAYER
  5
7E
330
2
100
AcDbSymbolTableRecord
100
AcDbLayerTableRecord
  2
참조1
 70
     0
 62
    -4
  6
Continuous
370
    -3
390
F
  0
LAYER
  5
16C
330
2
100
AcDbSymbolTableRecord
100
AcDbLayerTableRecord
  2
Defpoints
 70
     0
 62
     7
  6
Continuous
290
     0
370
    -3
390
F
  0
ENDTAB
  0
TABLE
  2
STYLE
  5
3
330
0
100
AcDbSymbolTable
 70
     2
  0
STYLE
  5
11
330
3
100
AcDbSymbolTableRecord
100
AcDbTextStyleTableRecord
  2
Standard
 70
     0
 40
0.0
 41
1.0
 50
0.0
 71
     0
 42
3.5
  3
txt
  4

  0
STYLE
  5
94
330
3
100
AcDbSymbolTableRecord
100
AcDbTextStyleTableRecord
  2
SLDTEXTSTYLE0
 70
     0
 40
0.0
 41
0.75
 50
0.0
 71
     0
 42
3.5
  3
TXT
  4

  0
ENDTAB
  0
TABLE
  2
VIEW
  5
6
330
0
100
AcDbSymbolTable
 70
     0
  0
ENDTAB
  0
TABLE
  2
UCS
  5
7
330
0
100
AcDbSymbolTable
 70
     0
  0
ENDTAB
  0
TABLE
  2
APPID
  5
9
330
0
100
AcDbSymbolTable
 70
     4
  0
APPID
  5
12
330
9
100
AcDbSymbolTableRecord
100
AcDbRegAppTableRecord
  2
ACAD
 70
     0
  0
APPID
  5
174
330
9
100
AcDbSymbolTableRecord
100
AcDbRegAppTableRecord
  2
PE_URL
 70
     0
  0
APPID
  5
17C
330
9
100
AcDbSymbolTableRecord
100
AcDbRegAppTableRecord
  2
ACAD_DSTYLE_DIMFLIPARROW_SYMBOL
 70
     0
  0
APPID
  5
17D
330
9
100
AcDbSymbolTableRecord
100
AcDbRegAppTableRecord
  2
ACAD_DSTYLE_DIMFLIPARROW_WHICH_SYMBOL
 70
     0
  0
ENDTAB
  0
TABLE
  2
DIMSTYLE
  5
A
330
0
100
AcDbSymbolTable
 70
     4
100
AcDbDimStyleTable
  0
DIMSTYLE
105
27
330
A
100
AcDbSymbolTableRecord
100
AcDbDimStyleTableRecord
  2
ISO-25
 70
     0
 41
2.5
 42
0.625
 43
3.75
 44
1.25
 73
     0
 74
     0
 77
     1
 78
     8
140
2.5
141
2.5
143
0.03937007874016
147
0.625
171
     3
172
     1
178
     0
271
     2
272
     2
274
     3
278
    44
283
     0
284
     8
340
11
  0
DIMSTYLE
105
EA
102
{ACAD_REACTORS
330
E9
330
FE
330
112
330
128
102
}
330
A
100
AcDbSymbolTableRecord
100
AcDbDimStyleTableRecord
  2
SLDDIMSTYLE0
 70
     0
 41
3.302
 44
0.0
 45
0.000000001
 73
     0
 74
     0
 77
     1
 78
    12
 79
     3
140
3.5
143
0.0393700787401575
147
0.875
148
0.000000001
170
     1
172
     1
173
     1
178
     0
271
     2
272
     2
276
     2
284
    12
289
     0
340
94
  0
DIMSTYLE
105
113
330
A
100
AcDbSymbolTableRecord
100
AcDbDimStyleTableRecord
  2
SLDDIMSTYLE1
 70
     0
 41
3.302
 44
0.0
 45
0.000000001
 73
     0
 74
     0
 77
     1
 78
     4
 79
     1
140
3.5
143
0.0393700787401575
147
0.875
148
0.000000001
170
     1
172
     1
173
     1
178
     0
271
     2
272
     2
276
     2
284
    12
289
     0
340
94
  0
DIMSTYLE
105
129
330
A
100
AcDbSymbolTableRecord
100
AcDbDimStyleTableRecord
  2
SLDDIMSTYLE2
 70
     0
 41
3.302
 44
0.0
 45
0.000000001
 73
     0
 74
     0
 77
     1
 78
    12
 79
     3
140
3.5
143
0.0393700787401575
147
0.875
148
0.000000001
170
     1
173
     1
178
     0
271
     2
272
     2
276
     2
284
    12
340
94
  0
ENDTAB
  0
TABLE
  2
BLOCK_RECORD
  5
1
330
0
100
AcDbSymbolTable
 70
     7
  0
BLOCK_RECORD
  5
1F
102
{ACAD_XDICTIONARY
360
19F
102
}
330
1
100
AcDbSymbolTableRecord
100
AcDbBlockTableRecord
  2
*Model_Space
340
22
  0
BLOCK_RECORD
  5
1B
330
1
100
AcDbSymbolTableRecord
100
AcDbBlockTableRecord
  2
*Paper_Space
340
1E
  0
BLOCK_RECORD
  5
23
330
1
100
AcDbSymbolTableRecord
100
AcDbBlockTableRecord
  2
*Paper_Space0
340
26
  0
BLOCK_RECORD
  5
7F
330
1
100
AcDbSymbolTableRecord
100
AcDbBlockTableRecord
  2
블럭10
340
0
102
{BLKREFS
331
E2
102
}
  0
BLOCK_RECORD
  5
EB
330
1
100
AcDbSymbolTableRecord
100
AcDbBlockTableRecord
  2
_D
340
0
  0
BLOCK_RECORD
  5
FF
330
1
100
AcDbSymbolTableRecord
100
AcDbBlockTableRecord
  2
_D_1
340
0
  0
BLOCK_RECORD
  5
114
330
1
100
AcDbSymbolTableRecord
100
AcDbBlockTableRecord
  2
_D_2
340
0
  0
BLOCK_RECORD
  5
12A
330
1
100
AcDbSymbolTableRecord
100
AcDbBlockTableRecord
  2
_D_3
340
0
  0
BLOCK_RECORD
  5
143
330
1
100
AcDbSymbolTableRecord
100
AcDbBlockTableRecord
  2
SW_DOWELSYMBOL_0
340
0
102
{BLKREFS
331
149
102
}
  0
ENDTAB
  0
ENDSEC
  0
SECTION
  2
BLOCKS
  0
BLOCK
  5
20
330
1F
100
AcDbEntity
  8
0
100
AcDbBlockBegin
  2
*Model_Space
 70
     0
 10
0.0
 20
0.0
 30
0.0
  3
*Model_Space
  1

  0
ENDBLK
  5
21
330
1F
100
AcDbEntity
  8
0
100
AcDbBlockEnd
  0
BLOCK
  5
1C
330
1B
100
AcDbEntity
 67
     1
  8
0
100
AcDbBlockBegin
  2
*Paper_Space
 70
     0
 10
0.0
 20
0.0
 30
0.0
  3
*Paper_Space
  1

  0
ENDBLK
  5
1D
330
1B
100
AcDbEntity
 67
     1
  8
0
100
AcDbBlockEnd
  0
BLOCK
  5
24
330
23
100
AcDbEntity
  8
0
100
AcDbBlockBegin
  2
*Paper_Space0
 70
     0
 10
0.0
 20
0.0
 30
0.0
  3
*Paper_Space0
  1

  0
ENDBLK
  5
25
330
23
100
AcDbEntity
  8
0
100
AcDbBlockEnd
  0
BLOCK
  5
80
330
7F
100
AcDbEntity
  8
0
100
AcDbBlockBegin
  2
블럭10
 70
     2
 10
0.0
 20
0.0
 30
0.0
  3
블럭10
  1

  0
ELLIPSE
  5
82
330
7F
100
AcDbEntity
  8
중심선
100
AcDbEllipse
 10
20.54032771741204
 20
12.0471743016438
 30
0.0
 11
6.600054785286829
 21
-1.261213355974178E-13
 31
0.0
210
0.0
220
0.0
230
1.0
 40
0.636358354079598
 41
0.9219305317359503
 42
6.513795318482858
  0
ELLIPSE
  5
83
330
7F
100
AcDbEntity
  8
중심선
100
AcDbEllipse
 10
20.54032771746488
 20
12.04717430159265
 30
0.0
 11
3.960054785062283
 21
1.540847449632565E-10
 31
0.0
210
0.0
220
0.0
230
1.0
 40
0.3939339440162632
 41
1.131841032648279
 42
5.62031148352944
  0
LINE
  5
84
330
7F
100
AcDbEntity
  8
중심선
100
AcDbLine
 10
2.268634060543552
 20
16.24717430164393
 30
0.0
 11
5.714909304380834
 21
16.24717430164393
 31
0.0
  0
LINE
  5
85
330
7F
100
AcDbEntity
  8
중심선
100
AcDbLine
 10
5.245725140726316
 20
7.84717430164391
 30
0.0
 11
8.692000384563599
 21
7.84717430164391
 31
0.0
  0
LINE
  5
86
330
7F
100
AcDbEntity
  8
중심선
100
AcDbLine
 10
15.74043728645272
 20
16.24717430164393
 30
0.0
 11
8.692000384563599
 21
7.84717430164391
 31
0.0
  0
LINE
  5
87
330
7F
100
AcDbEntity
  8
중심선
100
AcDbLine
 10
0.1404042013395286
 20
13.71084872107135
 30
0.0
 11
3.58671253028996
 21
13.71088815037384
 31
0.0
  0
LINE
  5
88
330
7F
100
AcDbEntity
  8
중심선
100
AcDbLine
 10
2.750260043222114
 20
10.84717430164391
 30
0.0
 11
6.196535287059397
 21
10.84717430164391
 31
0.0
  0
LINE
  5
89
330
7F
100
AcDbEntity
  8
중심선
100
AcDbLine
 10
12.29416204261559
 20
16.24717430164393
 30
0.0
 11
5.245725140726316
 21
7.84717430164391
 31
0.0
  0
LINE
  5
8A
330
7F
100
AcDbEntity
  8
중심선
100
AcDbLine
 10
10.72767329541681
 20
16.24717430164393
 30
0.0
 11
6.196535287059397
 21
10.84717430164391
 31
0.0
  0
LINE
  5
8B
330
7F
100
AcDbEntity
  8
중심선
100
AcDbLine
 10
7.28139805157953
 20
16.24717430164393
 30
0.0
 11
2.750260043222114
 21
10.84717430164391
 31
0.0
  0
LINE
  5
8C
330
7F
100
AcDbEntity
  8
중심선
100
AcDbLine
 10
5.714909304380834
 20
16.24717430164393
 30
0.0
 11
3.58671253028996
 21
13.71088815037384
 31
0.0
  0
LINE
  5
8D
330
7F
100
AcDbEntity
  8
중심선
100
AcDbLine
 10
2.268634060543552
 20
16.24717430164393
 30
0.0
 11
0.1404042013395286
 21
13.71084872107135
 31
0.0
  0
LINE
  5
8E
330
7F
100
AcDbEntity
  8
중심선
100
AcDbLine
 10
7.28139805157953
 20
16.24717430164393
 30
0.0
 11
10.72767329541681
 21
16.24717430164393
 31
0.0
  0
LINE
  5
8F
330
7F
100
AcDbEntity
  8
중심선
100
AcDbLine
 10
12.29416204261559
 20
16.24717430164393
 30
0.0
 11
15.74043728645272
 21
16.24717430164393
 31
0.0
  0
LINE
  5
90
330
7F
100
AcDbEntity
  8
중심선
100
AcDbLine
 10
19.22036997980202
 20
11.08717430171403
 30
0.0
 11
23.66174974927406
 21
11.08717430171406
 31
0.0
  0
LINE
  5
91
330
7F
100
AcDbEntity
  8
중심선
100
AcDbLine
 10
19.22039502424796
 20
13.00717430171391
 30
0.0
 11
19.22036997980202
 21
11.08717430171403
 31
0.0
  0
LINE
  5
92
330
7F
100
AcDbEntity
  8
중심선
100
AcDbLine
 10
19.22039502424796
 20
13.00717430171391
 30
0.0
 11
26.96566020931264
 21
13.00717430171391
 31
0.0
  0
LINE
  5
93
330
7F
100
AcDbEntity
  8
중심선
100
AcDbLine
 10
22.22332737316547
 20
13.45928029700563
 30
0.0
 11
24.52862924686651
 21
15.39360700705356
 31
0.0
  0
ATTDEF
  5
95
330
7F
100
AcDbEntity
  8
FORMAT
 62
     2
100
AcDbText
 10
3.448148490846466
 20
2.075366912832191
 30
0.0
 40
4.233333333333333
  1
EM218016
 41
0.75
  7
SLDTEXTSTYLE0
 11
3.448148490846466
 21
-0.0412997538344756
 31
0.0
100
AcDbAttributeDefinition
  3

  2
AUTOATTR0
 70
     0
 74
     1
  0
ENDBLK
  5
81
330
7F
100
AcDbEntity
  8
0
100
AcDbBlockEnd
  0
BLOCK
  5
EC
330
EB
100
AcDbEntity
  8
0
100
AcDbBlockBegin
  2
_D
 70
     0
 10
0.0
 20
0.0
 30
0.0
  3
_D
  1

  0
LINE
  5
EE
330
EB
100
AcDbEntity
  8
치수문자_일반주서
 62
     0
370
    -2
100
AcDbLine
 10
35.46217644077172
 20
3.175000000000008
 30
0.0
 11
47.10934096053403
 21
3.17500000000005
 31
0.0
  0
LINE
  5
EF
330
EB
100
AcDbEntity
  8
치수문자_일반주서
 62
     0
370
    -2
100
AcDbLine
 10
35.46217644077172
 20
-3.174999999999996
 30
0.0
 11
47.10934096053405
 21
-3.174999999999955
 31
0.0
  0
LINE
  5
F0
330
EB
100
AcDbEntity
  8
치수문자_일반주서
 62
     0
370
    -2
100
AcDbLine
 10
47.10934096053403
 20
3.17500000000005
 30
0.0
 11
47.10934096053392
 21
35.15400000000005
 31
0.0
  0
LINE
  5
F1
330
EB
100
AcDbEntity
  8
치수문자_일반주서
 62
     0
370
    -2
100
AcDbLine
 10
47.10934096053403
 20
3.17500000000005
 30
0.0
 11
47.10934096053405
 21
-3.174999999999955
 31
0.0
  0
LINE
  5
F2
330
EB
100
AcDbEntity
  8
치수문자_일반주서
 62
     0
370
    -2
100
AcDbLine
 10
47.10934096053401
 20
6.47700000000005
 30
0.0
 11
47.109340960534
 21
9.77900000000005
 31
0.0
  0
LINE
  5
F3
330
EB
100
AcDbEntity
  8
치수문자_일반주서
 62
     0
370
    -2
100
AcDbLine
 10
47.10934096053406
 20
-6.476999999999954
 30
0.0
 11
47.10934096053408
 21
-9.778999999999954
 31
0.0
  0
SOLID
  5
F4
330
EB
100
AcDbEntity
  8
치수문자_일반주서
 62
     0
100
AcDbTrace
 10
46.55900762720068
 20
6.477000000000048
 30
0.0
 11
47.65967429386735
 21
6.477000000000052
 31
0.0
 12
47.10934096053403
 22
3.17500000000005
 32
0.0
 13
47.10934096053403
 23
3.17500000000005
 33
0.0
  0
SOLID
  5
F5
330
EB
100
AcDbEntity
  8
치수문자_일반주서
 62
     0
100
AcDbTrace
 10
47.6596742938674
 20
-6.476999999999952
 30
0.0
 11
46.55900762720073
 21
-6.476999999999956
 31
0.0
 12
47.10934096053405
 22
-3.174999999999955
 32
0.0
 13
47.10934096053405
 23
-3.174999999999955
 33
0.0
  0
MTEXT
  5
F6
330
EB
100
AcDbEntity
  8
치수문자_일반주서
 62
     0
100
AcDbMText
 10
42.73434096053396
 20
22.46650000000004
 30
0.0
 40
3.5
 41
0.0
 71
     2
 72
     1
  1
\A1;%%c6.35 [1/4]
  7
SLDTEXTSTYLE0
 11
-3.356894814614645E-15
 21
1.0
 31
0.0
 73
     1
 44
1.0
  0
POINT
  5
175
330
EB
100
AcDbEntity
  8
Defpoints
 62
     0
100
AcDbPoint
 10
35.39967644077172
 20
3.175000000000007
 30
0.0
  0
POINT
  5
176
330
EB
100
AcDbEntity
  8
Defpoints
 62
     0
100
AcDbPoint
 10
35.39967644077172
 20
-3.174999999999996
 30
0.0
  0
POINT
  5
17A
330
EB
100
AcDbEntity
  8
Defpoints
 62
     0
100
AcDbPoint
 10
47.10934096053405
 20
-3.174999999999952
 30
0.0
  0
ENDBLK
  5
ED
330
EB
100
AcDbEntity
  8
0
100
AcDbBlockEnd
  0
BLOCK
  5
100
330
FF
100
AcDbEntity
  8
0
100
AcDbBlockBegin
  2
_D_1
 70
     0
 10
0.0
 20
0.0
 30
0.0
  3
_D_1
  1

  0
LINE
  5
102
330
FF
100
AcDbEntity
  8
치수문자_일반주서
 62
     0
370
    -2
100
AcDbLine
 10
-33.87782355922828
 20
3.175000000000017
 30
0.0
 11
-48.7203235592283
 21
3.174999999999962
 31
0.0
  0
LINE
  5
103
330
FF
100
AcDbEntity
  8
치수문자_일반주서
 62
     0
370
    -2
100
AcDbLine
 10
-33.87782355922828
 20
-3.175000000000005
 30
0.0
 11
-48.72032355922828
 21
-3.175000000000061
 31
0.0
  0
LINE
  5
104
330
FF
100
AcDbEntity
  8
치수문자_일반주서
 62
     0
370
    -2
100
AcDbLine
 10
-48.7203235592283
 20
3.174999999999962
 30
0.0
 11
-48.72032355922828
 21
-3.175000000000061
 31
0.0
  0
LINE
  5
105
330
FF
100
AcDbEntity
  8
치수문자_일반주서
 62
     0
370
    -2
100
AcDbLine
 10
-48.72032355922831
 20
6.476999999999961
 30
0.0
 11
-48.72032355922833
 21
9.77899999999996
 31
0.0
  0
LINE
  5
106
330
FF
100
AcDbEntity
  8
치수문자_일반주서
 62
     0
370
    -2
100
AcDbLine
 10
-48.72032355922826
 20
-6.477000000000061
 30
0.0
 11
-48.72032355922825
 21
-9.77900000000006
 31
0.0
  0
SOLID
  5
107
330
FF
100
AcDbEntity
  8
치수문자_일반주서
 62
     0
100
AcDbTrace
 10
-49.27065689256165
 20
6.476999999999959
 30
0.0
 11
-48.16999022589498
 21
6.476999999999963
 31
0.0
 12
-48.7203235592283
 22
3.174999999999962
 32
0.0
 13
-48.7203235592283
 23
3.174999999999962
 33
0.0
  0
SOLID
  5
108
330
FF
100
AcDbEntity
  8
치수문자_일반주서
 62
     0
100
AcDbTrace
 10
-48.16999022589493
 20
-6.477000000000059
 30
0.0
 11
-49.2706568925616
 21
-6.477000000000062
 31
0.0
 12
-48.72032355922828
 22
-3.175000000000061
 32
0.0
 13
-48.72032355922828
 23
-3.175000000000061
 33
0.0
  0
MTEXT
  5
109
330
FF
100
AcDbEntity
  8
치수문자_일반주서
 62
     0
100
AcDbMText
 10
-53.09532355922829
 20
0.0000000000000021
 30
0.0
 40
3.5
 41
0.0
 71
     2
 72
     1
  1
\A1;%%c6.35 [1/4]
  7
SLDTEXTSTYLE0
 11
-3.356894814614635E-15
 21
1.0
 31
0.0
 73
     1
 44
1.0
  0
POINT
  5
10A
330
FF
100
AcDbEntity
  8
Defpoints
 62
     0
100
AcDbPoint
 10
-33.81532355922828
 20
3.175000000000018
 30
0.0
  0
POINT
  5
178
330
FF
100
AcDbEntity
  8
Defpoints
 62
     0
100
AcDbPoint
 10
-33.81532355922828
 20
-3.175000000000005
 30
0.0
  0
POINT
  5
179
330
FF
100
AcDbEntity
  8
Defpoints
 62
     0
100
AcDbPoint
 10
-48.72032355922828
 20
-3.17500000000006
 30
0.0
  0
ENDBLK
  5
101
330
FF
100
AcDbEntity
  8
0
100
AcDbBlockEnd
  0
BLOCK
  5
115
330
114
100
AcDbEntity
  8
0
100
AcDbBlockBegin
  2
_D_2
 70
     0
 10
0.0
 20
0.0
 30
0.0
  3
_D_2
  1

  0
LINE
  5
117
330
114
100
AcDbEntity
  8
치수문자_일반주서
 62
     0
370
    -2
100
AcDbLine
 10
35.39967644077173
 20
3.21433059912128
 30
0.0
 11
35.39967644077173
 21
33.75345306231154
 31
0.0
  0
LINE
  5
118
330
114
100
AcDbEntity
  8
치수문자_일반주서
 62
     0
370
    -2
100
AcDbLine
 10
9.999676440771724
 20
3.13350350462973
 30
0.0
 11
9.999676440771724
 21
33.75345306231154
 31
0.0
  0
LINE
  5
119
330
114
100
AcDbEntity
  8
치수문자_일반주서
 62
     0
370
    -2
100
AcDbLine
 10
32.09767644077173
 20
33.75345306231154
 30
0.0
 11
13.30167644077172
 21
33.75345306231154
 31
0.0
  0
SOLID
  5
11A
330
114
100
AcDbEntity
  8
치수문자_일반주서
 62
     0
100
AcDbTrace
 10
32.09767644077173
 20
33.2031197289782
 30
0.0
 11
32.09767644077173
 21
34.30378639564487
 31
0.0
 12
35.39967644077173
 22
33.75345306231154
 32
0.0
 13
35.39967644077173
 23
33.75345306231154
 33
0.0
  0
SOLID
  5
11B
330
114
100
AcDbEntity
  8
치수문자_일반주서
 62
     0
100
AcDbTrace
 10
13.30167644077172
 20
34.30378639564487
 30
0.0
 11
13.30167644077172
 21
33.2031197289782
 31
0.0
 12
9.999676440771724
 22
33.75345306231154
 32
0.0
 13
9.999676440771724
 23
33.75345306231154
 33
0.0
  0
MTEXT
  5
11C
330
114
100
AcDbEntity
  8
치수문자_일반주서
 62
     0
100
AcDbMText
 10
22.69967644077173
 20
38.12845306231154
 30
0.0
 40
3.5
 41
0.0
 71
     2
 72
     1
  1
\A1;25.4 [1]
  7
SLDTEXTSTYLE0
 73
     1
 44
1.0
  0
POINT
  5
11D
330
114
100
AcDbEntity
  8
Defpoints
 62
     0
100
AcDbPoint
 10
35.39967644077173
 20
3.15183059912128
 30
0.0
  0
POINT
  5
11E
330
114
100
AcDbEntity
  8
Defpoints
 62
     0
100
AcDbPoint
 10
9.999676440771724
 20
3.07100350462973
 30
0.0
  0
POINT
  5
11F
330
114
100
AcDbEntity
  8
Defpoints
 62
     0
100
AcDbPoint
 10
9.999676440771724
 20
33.75345306231154
 30
0.0
  0
ENDBLK
  5
116
330
114
100
AcDbEntity
  8
0
100
AcDbBlockEnd
  0
BLOCK
  5
12B
330
12A
100
AcDbEntity
  8
0
100
AcDbBlockBegin
  2
_D_3
 70
     0
 10
0.0
 20
0.0
 30
0.0
  3
_D_3
  1

  0
LINE
  5
12D
330
12A
100
AcDbEntity
  8
치수문자_일반주서
 62
     0
370
    -2
100
AcDbLine
 10
35.39967644077173
 20
3.21433059912128
 30
0.0
 11
35.39967644077172
 21
45.75345306231156
 31
0.0
  0
LINE
  5
12E
330
12A
100
AcDbEntity
  8
치수문자_일반주서
 62
     0
370
    -2
100
AcDbLine
 10
-34.45032355922827
 20
2.602500000000008
 30
0.0
 11
-34.45032355922828
 21
45.75345306231156
 31
0.0
  0
LINE
  5
12F
330
12A
100
AcDbEntity
  8
치수문자_일반주서
 62
     0
370
    -2
100
AcDbLine
 10
32.09767644077172
 20
45.75345306231156
 30
0.0
 11
-31.14832355922828
 21
45.75345306231156
 31
0.0
  0
SOLID
  5
130
330
12A
100
AcDbEntity
  8
치수문자_일반주서
 62
     0
100
AcDbTrace
 10
32.09767644077172
 20
45.20311972897823
 30
0.0
 11
32.09767644077172
 21
46.3037863956449
 31
0.0
 12
35.39967644077172
 22
45.75345306231156
 32
0.0
 13
35.39967644077172
 23
45.75345306231156
 33
0.0
  0
SOLID
  5
131
330
12A
100
AcDbEntity
  8
치수문자_일반주서
 62
     0
100
AcDbTrace
 10
-31.14832355922828
 20
46.3037863956449
 30
0.0
 11
-31.14832355922828
 21
45.20311972897823
 31
0.0
 12
-34.45032355922828
 22
45.75345306231156
 32
0.0
 13
-34.45032355922828
 23
45.75345306231156
 33
0.0
  0
MTEXT
  5
132
330
12A
100
AcDbEntity
  8
치수문자_일반주서
 62
     0
100
AcDbMText
 10
0.4746764407717254
 20
50.12845306231156
 30
0.0
 40
3.5
 41
0.0
 71
     2
 72
     1
  1
\A1;69.85 [2 3/4]
  7
SLDTEXTSTYLE0
 73
     1
 44
1.0
  0
POINT
  5
133
330
12A
100
AcDbEntity
  8
Defpoints
 62
     0
100
AcDbPoint
 10
35.39967644077173
 20
3.15183059912128
 30
0.0
  0
POINT
  5
134
330
12A
100
AcDbEntity
  8
Defpoints
 62
     0
100
AcDbPoint
 10
-34.45032355922827
 20
2.540000000000008
 30
0.0
  0
POINT
  5
135
330
12A
100
AcDbEntity
  8
Defpoints
 62
     0
100
AcDbPoint
 10
-34.45032355922827
 20
45.75345306231156
 30
0.0
  0
ENDBLK
  5
12C
330
12A
100
AcDbEntity
  8
0
100
AcDbBlockEnd
  0
BLOCK
  5
144
330
143
100
AcDbEntity
  8
0
100
AcDbBlockBegin
  2
SW_DOWELSYMBOL_0
 70
     0
 10
0.0
 20
0.0
 30
0.0
  3
SW_DOWELSYMBOL_0
  1

  0
CIRCLE
  5
146
330
143
100
AcDbEntity
  8
해칭선
 62
     0
100
AcDbCircle
 10
0.0
 20
0.0
 30
0.0
 40
3.000000000000001
  0
HATCH
  5
147
330
143
100
AcDbEntity
  8
0
  6
Continuous
 62
     0
370
     0
100
AcDbHatch
 10
0.0
 20
0.0
 30
0.0
210
0.0
220
0.0
230
1.0
  2
SOLID
 70
     1
 71
     0
 91
        1
 92
        0
 93
        3
 72
     2
 10
0.0
 20
0.0
 40
3.000000000000001
 50
0.0
 51
90.0
 73
     1
 72
     1
 10
0.0
 20
3.000000000000001
 11
0.0
 21
0.0
 72
     1
 10
0.0
 20
0.0
 11
3.000000000000001
 21
0.0
 97
        0
 75
     0
 76
     1
 98
        1
 10
0.0
 20
0.0
  0
HATCH
  5
148
330
143
100
AcDbEntity
  8
0
  6
Continuous
 62
     0
370
     0
100
AcDbHatch
 10
0.0
 20
0.0
 30
0.0
210
0.0
220
0.0
230
1.0
  2
SOLID
 70
     1
 71
     0
 91
        1
 92
        0
 93
        3
 72
     2
 10
0.0
 20
0.0
 40
3.000000000000001
 50
180.0
 51
270.0000000000007
 73
     1
 72
     1
 10
0.0
 20
-3.000000000000001
 11
0.0
 21
0.0
 72
     1
 10
0.0
 20
0.0
 11
-3.000000000000001
 21
0.0
 97
        0
 75
     0
 76
     1
 98
        1
 10
0.0
 20
0.0
  0
ENDBLK
  5
145
330
143
100
AcDbEntity
  8
0
100
AcDbBlockEnd
  0
ENDSEC
  0
SECTION
  2
ENTITIES
  0
LINE
  5
96
330
1F
100
AcDbEntity
  8
외형선
  6
Continuous
 62
     1
370
    15
100
AcDbLine
 10
35.01543215879214
 20
-3.174999999999994
 30
0.0
 11
35.39967644077173
 21
-3.174999999999994
 31
0.0
  0
LINE
  5
97
330
1F
100
AcDbEntity
  8
외형선
  6
Continuous
 62
     1
370
    15
100
AcDbLine
 10
15.06635080012225
 20
-3.174999999999994
 30
0.0
 11
15.83401576674829
 21
-3.174999999999994
 31
0.0
  0
LINE
  5
98
330
1F
100
AcDbEntity
  8
외형선
  6
Continuous
 62
     1
370
    15
100
AcDbLine
 10
25.80898338049755
 20
3.175000000000007
 30
0.0
 11
25.04073162964813
 21
3.175000000000007
 31
0.0
  0
LINE
  5
99
330
1F
100
AcDbEntity
  8
외형선
  6
Continuous
 62
     1
370
    15
100
AcDbLine
 10
21.71601222900323
 20
-3.174999999999994
 30
0.0
 11
22.48431177755988
 21
-3.174999999999994
 31
0.0
  0
LINE
  5
9A
330
1F
100
AcDbEntity
  8
외형선
  6
Continuous
 62
     1
370
    15
100
AcDbLine
 10
12.5098413803116
 20
3.175000000000007
 30
0.0
 11
11.74143207342494
 21
3.175000000000007
 31
0.0
  0
LINE
  5
9B
330
1F
100
AcDbEntity
  8
외형선
  6
Continuous
 62
     1
370
    15
100
AcDbLine
 10
32.45868560198071
 20
3.175000000000007
 30
0.0
 11
31.69100468940639
 21
3.175000000000007
 31
0.0
  0
LINE
  5
9C
330
1F
100
AcDbEntity
  8
외형선
  6
Continuous
 62
     1
370
    15
100
AcDbLine
 10
25.04073162964812
 20
-3.174999999999994
 30
0.0
 11
25.80898338049752
 21
-3.174999999999994
 31
0.0
  0
LINE
  5
9D
330
1F
100
AcDbEntity
  8
외형선
  6
Continuous
 62
     1
370
    15
100
AcDbLine
 10
15.83401576674828
 20
3.175000000000007
 30
0.0
 11
15.06635080012225
 21
3.175000000000007
 31
0.0
  0
LINE
  5
9E
330
1F
100
AcDbEntity
  8
외형선
  6
Continuous
 62
     1
370
    15
100
AcDbLine
 10
35.39967644077173
 20
3.175000000000007
 30
0.0
 11
35.01543215879214
 21
3.175000000000007
 31
0.0
  0
LINE
  5
9F
330
1F
100
AcDbEntity
  8
외형선
  6
Continuous
 62
     1
370
    15
100
AcDbLine
 10
18.39195430374041
 20
-3.174999999999994
 30
0.0
 11
19.15873461246273
 21
-3.174999999999994
 31
0.0
  0
LINE
  5
A0
330
1F
100
AcDbEntity
  8
외형선
  6
Continuous
 62
     1
370
    15
100
AcDbLine
 10
29.13339670848773
 20
3.175000000000007
 30
0.0
 11
28.36632629722869
 21
3.175000000000007
 31
0.0
  0
LINE
  5
A1
330
1F
100
AcDbEntity
  8
외형선
  6
Continuous
 62
     1
370
    15
100
AcDbLine
 10
31.69100468940637
 20
-3.174999999999994
 30
0.0
 11
32.45868560198071
 21
-3.174999999999994
 31
0.0
  0
LINE
  5
A2
330
1F
100
AcDbEntity
  8
외형선
  6
Continuous
 62
     1
370
    15
100
AcDbLine
 10
11.74143207342491
 20
-3.174999999999994
 30
0.0
 11
12.5098413803116
 21
-3.174999999999994
 31
0.0
  0
LINE
  5
A3
330
1F
100
AcDbEntity
  8
외형선
  6
Continuous
 62
     1
370
    15
100
AcDbLine
 10
22.48431177755989
 20
3.175000000000007
 30
0.0
 11
21.71601222900321
 21
3.175000000000007
 31
0.0
  0
LINE
  5
A4
330
1F
100
AcDbEntity
  8
외형선
  6
Continuous
 62
     1
370
    15
100
AcDbLine
 10
28.36632629722868
 20
-3.174999999999994
 30
0.0
 11
29.13339670848773
 21
-3.174999999999994
 31
0.0
  0
LINE
  5
A5
330
1F
100
AcDbEntity
  8
외형선
  6
Continuous
 62
     1
370
    15
100
AcDbLine
 10
19.15873461246272
 20
3.175000000000007
 30
0.0
 11
18.39195430374039
 21
3.175000000000007
 31
0.0
  0
LINE
  5
A6
330
1F
100
AcDbEntity
  8
외형선
  6
Continuous
370
    15
100
AcDbLine
 10
-33.81532355922827
 20
-3.174999999999993
 30
0.0
 11
9.184591332326166
 21
-3.174999999999993
 31
0.0
  0
LINE
  5
A7
330
1F
100
AcDbEntity
  8
외형선
  6
Continuous
370
    15
100
AcDbLine
 10
9.184591332326187
 20
3.175000000000006
 30
0.0
 11
-33.81532355922827
 21
3.175000000000006
 31
0.0
  0
LINE
  5
A8
330
1F
100
AcDbEntity
  8
외형선
  6
Continuous
370
    15
100
AcDbLine
 10
-33.81532355922827
 20
3.175000000000006
 30
0.0
 11
-34.45032355922827
 21
2.540000000000008
 31
0.0
  0
LINE
  5
A9
330
1F
100
AcDbEntity
  8
외형선
  6
Continuous
370
    15
100
AcDbLine
 10
-34.45032355922827
 20
-2.539999999999996
 30
0.0
 11
-33.81532355922827
 21
-3.174999999999994
 31
0.0
  0
LINE
  5
AA
330
1F
100
AcDbEntity
  8
외형선
  6
Continuous
 62
     1
370
    15
100
AcDbLine
 10
35.39967644077173
 20
1.894551490597003
 30
0.0
 11
35.39967644077173
 21
3.15183059912128
 31
0.0
  0
SPLINE
  5
AB
330
1F
100
AcDbEntity
  8
외형선
  6
Continuous
 62
     1
370
    15
100
AcDbSpline
210
0.0
220
0.0
230
1.0
 70
     8
 71
     3
 72
    25
 73
    21
 74
     0
 42
0.000000001
 43
0.00000001
 40
0.0
 40
0.0
 40
0.0
 40
0.0
 40
0.0399864316735116
 40
0.0985675782676138
 40
0.1573527000027084
 40
0.2159292001302655
 40
0.274518074696236
 40
0.3333021309698183
 40
0.3918719922508558
 40
0.4504692552329301
 40
0.5092509521959508
 40
0.5678148367978392
 40
0.6264211478804059
 40
0.6851991919552204
 40
0.74375776258723
 40
0.8023737806353328
 40
0.8611468786644744
 40
0.9197007985177847
 40
0.9783271815177622
 40
1.0
 40
1.0
 40
1.0
 40
1.0
 10
12.50984138031161
 20
3.160171531971034
 30
0.0
 10
12.65977148208741
 20
3.159902760608197
 30
0.0
 10
13.02935302319923
 20
3.159240232314627
 30
0.0
 10
13.6187678324889
 20
3.00095889485362
 30
0.0
 10
14.28033946315938
 20
2.714987072395906
 30
0.0
 10
14.93951008000941
 20
2.30589845860609
 30
0.0
 10
15.59883476535941
 20
1.798664085505131
 30
0.0
 10
16.26035144124074
 20
1.2155953507327
 30
0.0
 10
16.91945860771232
 20
0.5781062397908268
 30
0.0
 10
17.57887495792984
 20
-0.0840684283551279
 30
0.0
 10
18.24036607653585
 20
-0.7405366374351647
 30
0.0
 10
18.89940556506287
 20
-1.36757121292391
 30
0.0
 10
19.55892418595576
 20
-1.935087998021534
 30
0.0
 10
20.22037437695811
 20
-2.417885041306742
 30
0.0
 10
20.8793541472774
 20
-2.79847161971677
 30
0.0
 10
21.53898160214114
 20
-3.057264803785624
 30
0.0
 10
22.20037943831058
 20
-3.186412248368144
 30
0.0
 10
22.85929577057581
 20
-3.170502521991659
 30
0.0
 10
23.37998224469332
 20
-3.074066002672176
 30
0.0
 10
23.68153494133245
 20
-2.941952745701589
 30
0.0
 10
23.76292425450686
 20
-2.906295272344835
 30
0.0
  0
SPLINE
  5
AC
330
1F
100
AcDbEntity
  8
외형선
  6
Continuous
 62
     1
370
    15
100
AcDbSpline
210
0.0
220
0.0
230
1.0
 70
     8
 71
     3
 72
    12
 73
     8
 74
     0
 42
0.000000001
 43
0.00000001
 40
0.0
 40
0.0
 40
0.0
 40
0.0
 40
0.1021518496012399
 40
0.3267148319118646
 40
0.5513859670701793
 40
0.7753823344082459
 40
1.0
 40
1.0
 40
1.0
 40
1.0
 10
32.45868560198071
 20
3.158029919336093
 30
0.0
 10
32.55871676112454
 20
3.161758473172855
 30
0.0
 10
32.87864893536518
 20
3.173683600762881
 30
0.0
 10
33.4195376557396
 20
3.047932115287193
 30
0.0
 10
34.08030395172556
 20
2.790756812873682
 30
0.0
 10
34.73907367077814
 20
2.410485184671396
 30
0.0
 10
35.17927230293145
 20
2.075309666098402
 30
0.0
 10
35.39967644077174
 20
1.907489809787422
 30
0.0
  0
SPLINE
  5
AD
330
1F
100
AcDbEntity
  8
외형선
  6
Continuous
 62
     1
370
    15
100
AcDbSpline
210
0.0
220
0.0
230
1.0
 70
     8
 71
     3
 72
    10
 73
     6
 74
     0
 42
0.000000001
 43
0.00000001
 40
0.0
 40
0.0
 40
0.0
 40
0.0
 40
0.3974107223257674
 40
0.7937221963483027
 40
1.0
 40
1.0
 40
1.0
 40
1.0
 10
35.39967644077173
 20
3.15183059912128
 30
0.0
 10
35.17926421058787
 20
3.164037208791215
 30
0.0
 10
34.73904941613109
 20
3.188416664334052
 30
0.0
 10
34.18613351568841
 20
3.091067470764798
 30
0.0
 10
33.8519414597946
 20
2.952630673250652
 30
0.0
 10
33.73754114461858
 20
2.905241116891452
 30
0.0
  0
SPLINE
  5
AE
330
1F
100
AcDbEntity
  8
외형선
  6
Continuous
 62
     1
370
    15
100
AcDbSpline
210
0.0
220
0.0
230
1.0
 70
     8
 71
     3
 72
    25
 73
    21
 74
     0
 42
0.000000001
 43
0.00000001
 40
0.0
 40
0.0
 40
0.0
 40
0.0
 40
0.0179207535640023
 40
0.0764750748238956
 40
0.1352463390505955
 40
0.1938771163531134
 40
0.2524354250775366
 40
0.311212928406147
 40
0.3698333399798908
 40
0.4283962998316081
 40
0.4871787495766216
 40
0.5457894534572505
 40
0.6043577276771518
 40
0.6631438305841689
 40
0.7217454856861111
 40
0.7803197370331396
 40
0.83910819942756
 40
0.89770146548465
 40
0.9562823561758075
 40
1.0
 40
1.0
 40
1.0
 40
1.0
 10
25.04073162964813
 20
-3.160464729480325
 30
0.0
 10
24.97350906720098
 20
-3.164612060642544
 30
0.0
 10
24.68664331266447
 20
-3.182310393461949
 30
0.0
 10
24.18042807370468
 20
-3.074412071727342
 30
0.0
 10
23.51903529858052
 20
-2.839507963823042
 30
0.0
 10
22.85930811843902
 20
-2.471951367125867
 30
0.0
 10
22.20037611734728
 20
-1.999761672523098
 30
0.0
 10
21.53898249079732
 20
-1.442770339805402
 30
0.0
 10
20.87935390960272
 20
-0.8224135175068693
 30
0.0
 10
20.22037444132475
 20
-0.165829705633687
 30
0.0
 10
19.55892416710301
 20
0.4953719469836352
 30
0.0
 10
18.89940557617775
 20
1.137214260614631
 30
0.0
 10
18.24036605085991
 20
1.730400087085755
 30
0.0
 10
17.57887504975352
 20
2.247060102371771
 30
0.0
 10
16.91945826746173
 20
2.668740775198719
 30
0.0
 10
16.26035271219097
 20
2.974996192101214
 30
0.0
 10
15.59883000945437
 20
3.15358984766194
 30
0.0
 10
14.93952775997722
 20
3.192770260130379
 30
0.0
 10
14.33674075426026
 20
3.117005045757602
 30
0.0
 10
13.95244541029153
 20
2.971248551995163
 30
0.0
 10
13.78821542351298
 20
2.908958994187143
 30
0.0
  0
SPLINE
  5
AF
330
1F
100
AcDbEntity
  8
외형선
  6
Continuous
 62
     1
370
    15
100
AcDbSpline
210
0.0
220
0.0
230
1.0
 70
     8
 71
     3
 72
    13
 73
     9
 74
     0
 42
0.000000001
 43
0.00000001
 40
0.0
 40
0.0
 40
0.0
 40
0.0
 40
0.2021159796624981
 40
0.4045061713557086
 40
0.6071621561256518
 40
0.7811993760810093
 40
0.9552287118550701
 40
1.0
 40
1.0
 40
1.0
 40
1.0
 10
9.999676440771724
 20
-2.233478726085477
 30
0.0
 10
10.25480202429901
 20
-2.402498908963997
 30
0.0
 10
10.76539932184986
 20
-2.740768585474474
 30
0.0
 10
11.53228405141129
 20
-3.053473216324834
 30
0.0
 10
12.26485364946424
 20
-3.194580881389785
 30
0.0
 10
12.9596139365995
 20
-3.159712856649049
 30
0.0
 10
13.45495977135582
 20
-3.060105062539438
 30
0.0
 10
13.73160740063292
 20
-2.934633217685321
 30
0.0
 10
13.78821542351298
 20
-2.908958994187131
 30
0.0
  0
SPLINE
  5
B0
330
1F
100
AcDbEntity
  8
외형선
  6
Continuous
 62
     1
370
    15
100
AcDbSpline
210
0.0
220
0.0
230
1.0
 70
     8
 71
     3
 72
    25
 73
    21
 74
     0
 42
0.000000001
 43
0.00000001
 40
0.0
 40
0.0
 40
0.0
 40
0.0
 40
0.0333385209698724
 40
0.091965448809776
 40
0.1507328543500528
 40
0.2092833311671301
 40
0.2679212811097539
 40
0.3266811560745115
 40
0.385228309669762
 40
0.4438779377726201
 40
0.5026289911443773
 40
0.5611734858002186
 40
0.6198354470649213
 40
0.6785763888401302
 40
0.7371188890802503
 40
0.7957938373937701
 40
0.8545233787307507
 40
0.9130645492598263
 40
0.9717531373359407
 40
1.0
 40
1.0
 40
1.0
 40
1.0
 10
22.48431177755989
 20
3.158223521521118
 30
0.0
 10
22.60926147811579
 20
3.160482464825892
 30
0.0
 10
22.9539394948957
 20
3.166713837088843
 30
0.0
 10
23.51902184691162
 20
3.025183959904125
 30
0.0
 10
24.1803821327146
 20
2.754159131171871
 30
0.0
 10
24.83925503838621
 20
2.357002518763401
 30
0.0
 10
25.49912727258739
 20
1.860454087580374
 30
0.0
 10
26.16036750994372
 20
1.284674642933344
 30
0.0
 10
26.81921268286854
 20
0.6514702376292217
 30
0.0
 10
27.47921416798045
 20
-0.0087147094809504
 30
0.0
 10
28.14035641583471
 20
-0.6673733863603352
 30
0.0
 10
28.79917165178008
 20
-1.299621507645921
 30
0.0
 10
29.45931241506789
 20
-1.874523837954571
 30
0.0
 10
30.1203413390625
 20
-2.368181651891186
 30
0.0
 10
30.77913511995786
 20
-2.761496250760378
 30
0.0
 10
31.43941976836602
 20
-3.034376850856858
 30
0.0
 10
32.10033096743058
 20
-3.178605480018439
 30
0.0
 10
32.75907357587027
 20
-3.179304529011061
 30
0.0
 10
33.30525213281641
 20
-3.087629810976871
 30
0.0
 10
33.63152826827786
 20
-2.949969411028297
 30
0.0
 10
33.73754114461856
 20
-2.905241116891439
 30
0.0
  0
SPLINE
  5
B1
330
1F
100
AcDbEntity
  8
외형선
  6
Continuous
370
    15
100
AcDbSpline
210
0.0
220
0.0
230
1.0
 70
    24
 71
     3
 72
    22
 73
    18
 74
     0
 42
0.000000001
 43
0.00000001
 40
0.0
 40
0.0
 40
0.0
 40
0.0
 40
0.0617549626564461
 40
0.1325765964156372
 40
0.2014022806688032
 40
0.2722239144278925
 40
0.3410495986810585
 40
0.411871232440148
 40
0.480696916693315
 40
0.551518550452406
 40
0.6203442347054692
 40
0.6911658684644484
 40
0.7599915527177051
 40
0.8308131864769264
 40
0.8996388707300911
 40
0.9704605044891804
 40
1.0
 40
1.0
 40
1.0
 40
1.0
 10
9.999676440771738
 20
0.0843317957225256
 30
0.0
 10
9.999676440771738
 20
0.0730287619091045
 30
0.0
 10
9.999676440771717
 20
0.0487632180937716
 30
0.0
 10
9.999676440771738
 20
-0.0307289580878897
 30
0.0
 10
9.999676440771745
 20
-0.1429937260090456
 30
0.0
 10
9.999676440771676
 20
-0.2841350641556351
 30
0.0
 10
9.999676440771752
 20
-0.4515994769964927
 30
0.0
 10
9.999676440771683
 20
-0.63792669515743
 30
0.0
 10
9.999676440771767
 20
-0.8411172498545735
 30
0.0
 10
9.999676440771717
 20
-1.051784524893896
 30
0.0
 10
9.999676440771704
 20
-1.267749143764568
 30
0.0
 10
9.999676440771731
 20
-1.479021834236811
 30
0.0
 10
9.999676440771767
 20
-1.683390822088985
 30
0.0
 10
9.999676440771697
 20
-1.871519358389405
 30
0.0
 10
9.999676440771712
 20
-2.040996976462297
 30
0.0
 10
9.999676440771752
 20
-2.158457470462782
 30
0.0
 10
9.999676440771731
 20
-2.216418838595149
 30
0.0
 10
9.999676440771731
 20
-2.233478726085478
 30
0.0
  0
SPLINE
  5
B2
330
1F
100
AcDbEntity
  8
외형선
  6
Continuous
 62
     1
370
    15
100
AcDbSpline
210
0.0
220
0.0
230
1.0
 70
     8
 71
     3
 72
    25
 73
    21
 74
     0
 42
0.000000001
 43
0.00000001
 40
0.0
 40
0.0
 40
0.0
 40
0.0
 40
0.0245745056503216
 40
0.0831182202931199
 40
0.1418382923259416
 40
0.2005300975188693
 40
0.259074477083808
 40
0.3178072377825254
 40
0.3764854024651679
 40
0.4350311118140418
 40
0.493775273575922
 40
0.5524404504978417
 40
0.6109881543717656
 40
0.6697424282844778
 40
0.728395271368489
 40
0.7869456343275756
 40
0.8457087303168593
 40
0.9043498946004767
 40
0.9629035809635582
 40
1.0
 40
1.0
 40
1.0
 40
1.0
 10
35.01543215879214
 20
-3.15830590183571
 30
0.0
 10
34.92318772636557
 20
-3.162328266535757
 30
0.0
 10
34.61118987117596
 20
-3.175933089354782
 30
0.0
 10
34.08034068027568
 20
-3.054591738941461
 30
0.0
 10
33.4195327178161
 20
-2.803640997910977
 30
0.0
 10
32.75910461087872
 20
-2.423934108686368
 30
0.0
 10
32.10032263040422
 20
-1.940739698470475
 30
0.0
 10
31.4394220031315
 20
-1.375063831093595
 30
0.0
 10
30.77913452296941
 20
-0.7499513620568666
 30
0.0
 10
30.1203414994446
 20
-0.0909246552528984
 30
0.0
 10
29.45931237223926
 20
0.5697118489155216
 30
0.0
 10
28.79917166268226
 20
1.206763360885952
 30
0.0
 10
28.14035641491878
 20
1.793010966426393
 30
0.0
 10
27.47921416067861
 20
2.300043804634501
 30
0.0
 10
26.8192127129
 20
2.709206367440075
 30
0.0
 10
26.16036739714063
 20
3.001668563688348
 30
0.0
 10
25.49912769513914
 20
3.165466551519748
 30
0.0
 10
24.83925346616338
 20
3.188284255386862
 30
0.0
 10
24.26154248172944
 20
3.104645962022054
 30
0.0
 10
23.90226463102405
 20
2.961724974415746
 30
0.0
 10
23.76292425450686
 20
2.906295272344848
 30
0.0
  0
SPLINE
  5
B3
330
1F
100
AcDbEntity
  8
외형선
  6
Continuous
 62
     1
370
    15
100
AcDbSpline
210
0.0
220
0.0
230
1.0
 70
     8
 71
     3
 72
    15
 73
    11
 74
     0
 42
0.000000001
 43
0.00000001
 40
0.0
 40
0.0
 40
0.0
 40
0.0
 40
0.0250539815486886
 40
0.1551701046879302
 40
0.2857496395147439
 40
0.4158760838614982
 40
0.5460084234239921
 40
0.6975397879862296
 40
0.8488724118714827
 40
1.0
 40
1.0
 40
1.0
 40
1.0
 10
15.06635080012225
 20
-3.164367644549109
 30
0.0
 10
15.02406119154083
 20
-3.16769398462571
 30
0.0
 10
14.76214342098472
 20
-3.188295442198868
 30
0.0
 10
14.28038422671399
 20
-3.092367309468107
 30
0.0
 10
13.61878059505412
 20
-2.873802878633794
 30
0.0
 10
12.95959535166612
 20
-2.518560454663514
 30
0.0
 10
12.26485954704153
 20
-2.033320752016904
 30
0.0
 10
11.53228238136482
 20
-1.417096076195859
 30
0.0
 10
10.76539973847358
 20
-0.6878866048895274
 30
0.0
 10
10.2548021631108
 20
-0.1758864505327225
 30
0.0
 10
9.999676440771724
 20
0.0799400859039104
 30
0.0
  0
LINE
  5
B4
330
1F
100
AcDbEntity
  8
외형선
  6
Continuous
 62
     1
370
    15
100
AcDbLine
 10
35.39967644077173
 20
-3.151830599121265
 30
0.0
 11
35.39967644077173
 21
-1.895279888290991
 31
0.0
  0
SPLINE
  5
B5
330
1F
100
AcDbEntity
  8
외형선
  6
Continuous
 62
     1
370
    15
100
AcDbSpline
210
0.0
220
0.0
230
1.0
 70
     8
 71
     3
 72
    18
 73
    14
 74
     0
 42
0.000000001
 43
0.00000001
 40
0.0
 40
0.0
 40
0.0
 40
0.0
 40
0.1076391776632038
 40
0.2154243900810095
 40
0.3233511536431424
 40
0.4160366665356229
 40
0.5087179806171399
 40
0.60172200405493
 40
0.6943959669552175
 40
0.7870895074718519
 40
0.8800918452414911
 40
0.9727553048134009
 40
1.0
 40
1.0
 40
1.0
 40
1.0
 10
9.999676440771738
 20
0.8375247785442613
 30
0.0
 10
10.25480219117721
 20
0.5864003678125609
 30
0.0
 10
10.76539982271085
 20
0.0838108442693789
 30
0.0
 10
11.53228204369779
 20
-0.6879443867020453
 30
0.0
 10
12.26486073947388
 20
-1.381697682201191
 30
0.0
 10
12.95959159397466
 20
-1.974201663091453
 30
0.0
 10
13.61879471064947
 20
-2.451362275661101
 30
0.0
 10
14.28033140228562
 20
-2.821818119725519
 30
0.0
 10
14.93951549471017
 20
-3.07143647156364
 30
0.0
 10
15.59882112894684
 20
-3.190778725335865
 30
0.0
 10
16.26040066419583
 20
-3.163618938538736
 30
0.0
 10
16.7643349245669
 20
-3.064838921805569
 30
0.0
 10
17.04853766422631
 20
-2.936983364458917
 30
0.0
 10
17.11311222989126
 20
-2.907932915848164
 30
0.0
  0
SPLINE
  5
B6
330
1F
100
AcDbEntity
  8
외형선
  6
Continuous
 62
     1
370
    15
100
AcDbSpline
210
0.0
220
0.0
230
1.0
 70
     8
 71
     3
 72
    22
 73
    18
 74
     0
 42
0.000000001
 43
0.00000001
 40
0.0
 40
0.0
 40
0.0
 40
0.0
 40
0.0366443834848525
 40
0.1053405051485831
 40
0.174156864959
 40
0.2430922317951083
 40
0.3117852336005039
 40
0.3806160644882412
 40
0.4495395669138009
 40
0.5182302285776759
 40
0.5870762977789914
 40
0.6559864235356022
 40
0.7246755249871341
 40
0.7935375983617207
 40
0.8624328367275123
 40
0.931121158037471
 40
1.0
 40
1.0
 40
1.0
 40
1.0
 10
25.80898338049755
 20
3.157901859247089
 30
0.0
 10
25.92628544799992
 20
3.160794930853893
 30
0.0
 10
26.26349016726558
 20
3.169111556636881
 30
0.0
 10
26.81919820311421
 20
3.032960199638227
 30
0.0
 10
27.47921805929791
 20
2.766240686008331
 30
0.0
 10
28.14035537393953
 20
2.374538804760919
 30
0.0
 10
28.79917194087044
 20
1.880798777194633
 30
0.0
 10
29.45931230102792
 20
1.306507688371041
 30
0.0
 10
30.1203415053535
 20
0.6770618123515848
 30
0.0
 10
30.77913457014348
 20
0.0161654655994976
 30
0.0
 10
31.43942180787488
 20
-0.6438515482356139
 30
0.0
 10
32.10032336382495
 20
-1.27567420388456
 30
0.0
 10
32.75910187935192
 20
-1.854345430780521
 30
0.0
 10
33.41954294410617
 20
-2.352312181463744
 30
0.0
 10
34.08030254606753
 20
-2.746464501312346
 30
0.0
 10
34.73907402288822
 20
-3.032977507334495
 30
0.0
 10
35.17927242040978
 20
-3.112176340291604
 30
0.0
 10
35.39967644077174
 20
-3.151830599121265
 30
0.0
  0
SPLINE
  5
B7
330
1F
100
AcDbEntity
  8
외형선
  6
Continuous
370
    15
100
AcDbSpline
210
0.0
220
0.0
230
1.0
 70
    24
 71
     3
 72
    14
 73
    10
 74
     0
 42
0.000000001
 43
0.00000001
 40
0.0
 40
0.0
 40
0.0
 40
0.0
 40
0.1332900943638036
 40
0.280120618343794
 40
0.4269511423235828
 40
0.5737816663033716
 40
0.7206121902831627
 40
0.8674427142627286
 40
1.0
 40
1.0
 40
1.0
 40
1.0
 10
9.999676440771717
 20
2.788729024201389
 30
0.0
 10
9.999676440771717
 20
2.682190835690185
 30
0.0
 10
9.999676440771731
 20
2.45829165259312
 30
0.0
 10
9.99967644077176
 20
2.042628190628569
 30
0.0
 10
9.999676440771676
 20
1.612350119000658
 30
0.0
 10
9.999676440771738
 20
1.219840444555782
 30
0.0
 10
9.999676440771712
 20
0.9158995811149498
 30
0.0
 10
9.999676440771745
 20
0.7243282429161283
 30
0.0
 10
9.999676440771724
 20
0.7129553344795124
 30
0.0
 10
9.999676440771712
 20
0.7075593872661238
 30
0.0
  0
SPLINE
  5
B8
330
1F
100
AcDbEntity
  8
외형선
  6
Continuous
 62
     1
370
    15
100
AcDbSpline
210
0.0
220
0.0
230
1.0
 70
     8
 71
     3
 72
    20
 73
    16
 74
     0
 42
0.000000001
 43
0.00000001
 40
0.0
 40
0.0
 40
0.0
 40
0.0
 40
0.0794742400762689
 40
0.1587286523556348
 40
0.2382218110381409
 40
0.3176767030715886
 40
0.3969320154990537
 40
0.4764423516491035
 40
0.5558787776417059
 40
0.6351358902836752
 40
0.7146616607901857
 40
0.7940805044112356
 40
0.8733403171707423
 40
0.9528797771497428
 40
1.0
 40
1.0
 40
1.0
 40
1.0
 10
35.39967644077173
 20
-1.907489809787393
 30
0.0
 10
35.1792724204296
 20
-1.72367652398267
 30
0.0
 10
34.73907402294763
 20
-1.35655838466048
 30
0.0
 10
34.08030254583023
 20
-0.7234614078967714
 30
0.0
 10
33.41954294499886
 20
-0.0670572688935981
 30
0.0
 10
32.75910187602501
 20
0.5941208723308941
 30
0.0
 10
32.10032337622354
 20
1.230945074435032
 30
0.0
 10
31.43942176145107
 20
1.812823084026624
 30
0.0
 10
30.77913474303758
 20
2.317313782635118
 30
0.0
 10
30.1203408607881
 20
2.722997213141201
 30
0.0
 10
29.45931471447185
 20
3.009767285559501
 30
0.0
 10
28.79916295582922
 20
3.169111665259237
 30
0.0
 10
28.1403888829525
 20
3.186241932829713
 30
0.0
 10
27.56871387455684
 20
3.10072566419467
 30
0.0
 10
27.21787657968301
 20
2.958645435875856
 30
0.0
 10
27.0873572924926
 20
2.905788426672519
 30
0.0
  0
SPLINE
  5
B9
330
1F
100
AcDbEntity
  8
외형선
  6
Continuous
 62
     1
370
    15
100
AcDbSpline
210
0.0
220
0.0
230
1.0
 70
     8
 71
     3
 72
    20
 73
    16
 74
     0
 42
0.000000001
 43
0.00000001
 40
0.0
 40
0.0
 40
0.0
 40
0.0
 40
0.0180299921543092
 40
0.096860322148004
 40
0.1754433133894825
 40
0.2539895570505624
 40
0.3328230510432538
 40
0.4113947928373066
 40
0.4899499396517294
 40
0.5687848625021613
 40
0.6473462405502844
 40
0.7259111777233398
 40
0.8173953712497485
 40
0.9087595788537224
 40
1.0
 40
1.0
 40
1.0
 40
1.0
 10
18.39195430374041
 20
-3.162905107134438
 30
0.0
 10
18.3415708914081
 20
-3.16659271590042
 30
0.0
 10
18.07090224620542
 20
-3.1864032055541
 30
0.0
 10
17.57880711493204
 20
-3.08699156132236
 30
0.0
 10
16.91947671652126
 20
-2.862336952119275
 30
0.0
 10
16.26034669669754
 20
-2.502587853845042
 30
0.0
 10
15.59883555826739
 20
-2.039780531644569
 30
0.0
 10
14.93951163516182
 20
-1.48679865063181
 30
0.0
 10
14.28033244054964
 20
-0.8696765029331536
 30
0.0
 10
13.61879443320747
 20
-0.2173642983466416
 30
0.0
 10
12.9595916678321
 20
0.4464799421458019
 30
0.0
 10
12.2648607160366
 20
1.125972453051433
 30
0.0
 10
11.53228205033466
 20
1.780021681672507
 30
0.0
 10
10.76539982105509
 20
2.375051780782596
 30
0.0
 10
10.25480219062554
 20
2.650898941377451
 30
0.0
 10
9.999676440771731
 20
2.788729024201378
 30
0.0
  0
SPLINE
  5
BA
330
1F
100
AcDbEntity
  8
외형선
  6
Continuous
 62
     1
370
    15
100
AcDbSpline
210
0.0
220
0.0
230
1.0
 70
     8
 71
     3
 72
    25
 73
    21
 74
     0
 42
0.000000001
 43
0.00000001
 40
0.0
 40
0.0
 40
0.0
 40
0.0
 40
0.0378767814257031
 40
0.0964462484329804
 40
0.1550431169568348
 40
0.2138244182200846
 40
0.2723879085884458
 40
0.3309938251518838
 40
0.3897714735515174
 40
0.4483296499857717
 40
0.5069452734494015
 40
0.5657179758366574
 40
0.6242715015235202
 40
0.682897489869251
 40
0.7416639536642058
 40
0.8002134922122349
 40
0.8588505024840571
 40
0.9176094358241698
 40
0.9761556512036267
 40
1.0
 40
1.0
 40
1.0
 40
1.0
 10
15.83401576674828
 20
3.159261097253887
 30
0.0
 10
15.97631277879499
 20
3.159977378209634
 30
0.0
 10
16.33864591425552
 20
3.161801255751639
 30
0.0
 10
16.91946570266833
 20
3.009511610172039
 30
0.0
 10
17.57887304978059
 20
2.727417287122195
 30
0.0
 10
18.24036658559204
 20
2.323694409126772
 30
0.0
 10
18.89940543168679
 20
1.819819608107098
 30
0.0
 10
19.55892421094502
 20
1.237342246473045
 30
0.0
 10
20.22037441097617
 20
0.6036071643635528
 30
0.0
 10
20.87935398697075
 20
-0.0585815050614744
 30
0.0
 10
21.53898221093536
 20
-0.717558501586703
 30
0.0
 10
22.20037716067751
 20
-1.34398243914484
 30
0.0
 10
22.85930423984578
 20
-1.914863851355992
 30
0.0
 10
23.5190498098417
 20
-2.402323879066519
 30
0.0
 10
24.1803738590228
 20
-2.785707124247913
 30
0.0
 10
24.83926024602225
 20
-3.049868798884111
 30
0.0
 10
25.49911467927937
 20
-3.184075903605277
 30
0.0
 10
26.16041269371362
 20
-3.173744522256441
 30
0.0
 10
26.68876511133709
 20
-3.078544875449166
 30
0.0
 10
26.9978935679121
 20
-2.944563485701655
 30
0.0
 10
27.08735729249259
 20
-2.905788426672508
 30
0.0
  0
SPLINE
  5
BB
330
1F
100
AcDbEntity
  8
외형선
  6
Continuous
 62
     1
370
    15
100
AcDbSpline
210
0.0
220
0.0
230
1.0
 70
     8
 71
     3
 72
    25
 73
    21
 74
     0
 42
0.000000001
 43
0.00000001
 40
0.0
 40
0.0
 40
0.0
 40
0.0
 40
0.0200654089526288
 40
0.0788183295868938
 40
0.137469821728699
 40
0.196018836105989
 40
0.2547805786136279
 40
0.3134203922240353
 40
0.3719727299287728
 40
0.4307420032512718
 40
0.4893707944086496
 40
0.5479271194428397
 40
0.6067026316558967
 40
0.6653210574356442
 40
0.7238820334395694
 40
0.7826624919014673
 40
0.8412712103169525
 40
0.8998375005090349
 40
0.9586216120091839
 40
1.0
 40
1.0
 40
1.0
 40
1.0
 10
28.36632629722866
 20
-3.159592689602885
 30
0.0
 10
28.29114956369503
 20
-3.163787249992676
 30
0.0
 10
27.9958500970902
 20
-3.180263776539189
 30
0.0
 10
27.47918177965933
 20
-3.068301347467611
 30
0.0
 10
26.81922130163521
 20
-2.827788718900076
 30
0.0
 10
26.16036532496885
 20
-2.455298729218334
 30
0.0
 10
25.49912736230445
 20
-1.981169875332319
 30
0.0
 10
24.83925685667463
 20
-1.420209790717462
 30
0.0
 10
24.18037477029985
 20
-0.7971824481753496
 30
0.0
 10
23.51904956645827
 20
-0.1422060710771669
 30
0.0
 10
22.85930430292087
 20
0.5204505097933823
 30
0.0
 10
22.2003771510885
 20
1.161470587779721
 30
0.0
 10
21.53898218587555
 20
1.750185336998538
 30
0.0
 10
20.87935409636373
 20
2.265185556444778
 30
0.0
 10
20.22037399813593
 20
2.682905655028806
 30
0.0
 10
19.55892575743687
 20
2.983525114284104
 30
0.0
 10
18.89939968101774
 20
3.157899989568184
 30
0.0
 10
18.24038806578081
 20
3.191356359714786
 30
0.0
 10
17.6435469418809
 20
3.11327749801977
 30
0.0
 10
17.26818073134691
 20
2.967963822422801
 30
0.0
 10
17.11311222989125
 20
2.907932915848177
 30
0.0
  0
LINE
  5
BC
330
1F
100
AcDbEntity
  8
외형선
  6
Continuous
 62
     1
370
    15
100
AcDbLine
 10
9.999676440771731
 20
-3.071003504629715
 30
0.0
 11
10.46255356461909
 21
-2.900692297947248
 31
0.0
  0
SPLINE
  5
BD
330
1F
100
AcDbEntity
  8
외형선
  6
Continuous
 62
     1
370
    15
100
AcDbSpline
210
0.0
220
0.0
230
1.0
 70
     8
 71
     3
 72
    25
 73
    21
 74
     0
 42
0.000000001
 43
0.00000001
 40
0.0
 40
0.0
 40
0.0
 40
0.0
 40
0.035545409073613
 40
0.0943217459194479
 40
0.1528786156971614
 40
0.2114929312223877
 40
0.2702643221662094
 40
0.3288165413003072
 40
0.3874412214763545
 40
0.4462063739670818
 40
0.5047546060513143
 40
0.5633903079075117
 40
0.6221479301114301
 40
0.6806928391012428
 40
0.7393402186699525
 40
0.7980890196190765
 40
0.8566312697714198
 40
0.91529098202914
 40
0.9740296717693782
 40
1.0
 40
1.0
 40
1.0
 40
1.0
 10
19.15873461246271
 20
3.158657432869901
 30
0.0
 10
19.29197091559235
 20
3.160183722347737
 30
0.0
 10
19.64552095365817
 20
3.164233817481821
 30
0.0
 10
20.22040513044258
 20
3.017806105325252
 30
0.0
 10
20.87934575931081
 20
2.740785750709422
 30
0.0
 10
21.53898442743071
 20
2.339807763732498
 30
0.0
 10
22.20037655311798
 20
1.841122941005363
 30
0.0
 10
22.85930446009931
 20
1.260744221646201
 30
0.0
 10
23.51904953544172
 20
0.6268110643945282
 30
0.0
 10
24.1803747365796
 20
-0.0325173629635375
 30
0.0
 10
24.83925702182175
 20
-0.6929259729157637
 30
0.0
 10
25.49912673360628
 20
-1.322410120582693
 30
0.0
 10
26.1603676759147
 20
-1.893860545961367
 30
0.0
 10
26.81921255654104
 20
-2.385711154340397
 30
0.0
 10
27.47921450829668
 20
-2.77390220287341
 30
0.0
 10
28.14035518078314
 20
-3.041890921728403
 30
0.0
 10
28.7991762371834
 20
-3.181550945447853
 30
0.0
 10
29.45929525472663
 20
-3.176515770904476
 30
0.0
 10
29.99802006204968
 20
-3.083339977485913
 30
0.0
 10
30.31539654131684
 20
-2.947202981801478
 30
0.0
 10
30.41269871216813
 20
-2.905465719973324
 30
0.0
  0
SPLINE
  5
BE
330
1F
100
AcDbEntity
  8
외형선
  6
Continuous
370
    15
100
AcDbSpline
210
0.0
220
0.0
230
1.0
 70
    24
 71
     3
 72
    10
 73
     6
 74
     0
 42
0.000000001
 43
0.00000001
 40
0.0
 40
0.0
 40
0.0
 40
0.0
 40
0.0397139485906328
 40
0.7173570513697505
 40
1.0
 40
1.0
 40
1.0
 40
1.0
 10
9.999676440771712
 20
-2.756876969039814
 30
0.0
 10
9.999676440771712
 20
-2.760807022971184
 30
0.0
 10
9.999676440771704
 20
-2.831795982769477
 30
0.0
 10
9.999676440771745
 20
-2.938974261241094
 30
0.0
 10
9.999676440771731
 20
-3.040979959716372
 30
0.0
 10
9.999676440771731
 20
-3.07100350462971
 30
0.0
  0
SPLINE
  5
BF
330
1F
100
AcDbEntity
  8
외형선
  6
Continuous
 62
     1
370
    15
100
AcDbSpline
210
0.0
220
0.0
230
1.0
 70
     8
 71
     3
 72
    25
 73
    21
 74
     0
 42
0.000000001
 43
0.00000001
 40
0.0
 40
0.0
 40
0.0
 40
0.0
 40
0.0223517892314
 40
0.0810306240408927
 40
0.1395770020039265
 40
0.1983218346463685
 40
0.2569876815468132
 40
0.3155360540576752
 40
0.3742909989664338
 40
0.4329445118881129
 40
0.4914955435145055
 40
0.550259310600587
 40
0.6089011445884959
 40
0.667455499656838
 40
0.7262267978172464
 40
0.7848576089723578
 40
0.843415951507532
 40
0.9021934887734534
 40
0.9608139341938056
 40
1.0
 40
1.0
 40
1.0
 40
1.0
 10
31.69100468940638
 20
-3.158823918735821
 30
0.0
 10
31.60710941063314
 20
-3.162994114569035
 30
0.0
 10
31.30296880145405
 20
-3.178112079723401
 30
0.0
 10
30.77910937902622
 20
-3.061793777284074
 30
0.0
 10
30.12034825613318
 20
-2.815329269740407
 30
0.0
 10
29.45931056147597
 20
-2.439913777383287
 30
0.0
 10
28.79917214769994
 20
-1.96150978640349
 30
0.0
 10
28.14035627994
 20
-1.396723598097455
 30
0.0
 10
27.4792142141055
 20
-0.7740995837863108
 30
0.0
 10
26.81921263435571
 20
-0.1170799869064326
 30
0.0
 10
26.16036765795415
 20
0.5461846189082379
 30
0.0
 10
25.49912672732523
 20
1.18352694404991
 30
0.0
 10
24.8392570647485
 20
1.771327558054106
 30
0.0
 10
24.18037457113965
 20
2.283469788520851
 30
0.0
 10
23.51905015624097
 20
2.695686292749351
 30
0.0
 10
22.85930215051545
 20
2.992630452167575
 30
0.0
 10
22.20038517507265
 20
3.161929337423953
 30
0.0
 10
21.53895215072725
 20
3.189927741687768
 30
0.0
 10
20.95208882657403
 20
3.108987217560485
 30
0.0
 10
20.5855167151367
 20
2.964824508096894
 30
0.0
 10
20.43865002189348
 20
2.907065884984836
 30
0.0
  0
SPLINE
  5
C0
330
1F
100
AcDbEntity
  8
외형선
  6
Continuous
 62
     1
370
    15
100
AcDbSpline
210
0.0
220
0.0
230
1.0
 70
     8
 71
     3
 72
    10
 73
     6
 74
     0
 42
0.000000001
 43
0.00000001
 40
0.0
 40
0.0
 40
0.0
 40
0.0
 40
0.1200512397741111
 40
0.5603238755794988
 40
1.0
 40
1.0
 40
1.0
 40
1.0
 10
11.74143207342491
 20
-3.156663092978072
 30
0.0
 10
11.67166709824695
 20
-3.161988082457862
 30
0.0
 10
11.34604795974433
 20
-3.186841792826452
 30
0.0
 10
10.76538962614007
 20
-3.054946413108607
 30
0.0
 10
10.25479879385666
 20
-2.824122605262158
 30
0.0
 10
9.999676440771724
 20
-2.708788938297439
 30
0.0
  0
LINE
  5
C1
330
1F
100
AcDbEntity
  8
외형선
  6
Continuous
 62
     1
370
    15
100
AcDbLine
 10
35.39967644077173
 20
-1.244340789333819
 30
0.0
 11
35.39967644077173
 21
1.244340789333891
 31
0.0
  0
SPLINE
  5
C2
330
1F
100
AcDbEntity
  8
외형선
  6
Continuous
 62
     1
370
    15
100
AcDbSpline
210
0.0
220
0.0
230
1.0
 70
     8
 71
     3
 72
    23
 73
    19
 74
     0
 42
0.000000001
 43
0.00000001
 40
0.0
 40
0.0
 40
0.0
 40
0.0
 40
0.0733495413384175
 40
0.1467985964644935
 40
0.220344110071001
 40
0.2835036399649526
 40
0.3466603086250575
 40
0.4100368840494293
 40
0.4731885433274191
 40
0.5363535435581244
 40
0.5997289703023556
 40
0.6628734722020028
 40
0.72604751603201
 40
0.7894203991900525
 40
0.85255845759778
 40
0.9157422562365959
 40
0.9791112011950039
 40
0.9999999999999999
 40
0.9999999999999999
 40
0.9999999999999999
 40
0.9999999999999999
 10
9.999676440771717
 20
3.071003504629738
 30
0.0
 10
10.25480219067615
 20
2.988853572473818
 30
0.0
 10
10.76539982120699
 20
2.824442254828317
 30
0.0
 10
11.53228204972583
 20
2.366078698654515
 30
0.0
 10
12.26486071818663
 20
1.810941399830017
 30
0.0
 10
12.95959166105678
 20
1.191630352325586
 30
0.0
 10
13.61879445865855
 20
0.5528281869437351
 30
0.0
 10
14.28033234530473
 20
-0.1075913453903959
 30
0.0
 10
14.93951198921649
 20
-0.7657188282901252
 30
0.0
 10
15.59883423459741
 20
-1.390629366579244
 30
0.0
 10
16.26035164739205
 20
-1.953796600440421
 30
0.0
 10
16.91945831360435
 20
-2.434843963876058
 30
0.0
 10
17.57887593056495
 20
-2.810658421692903
 30
0.0
 10
18.24036247384011
 20
-3.064086961826174
 30
0.0
 10
18.89941894866429
 20
-3.188785909101391
 30
0.0
 10
19.558874132108
 20
-3.166980914824002
 30
0.0
 10
20.07320139661467
 20
-3.069775755427285
 30
0.0
 10
20.36604865412103
 20
-2.939390426184536
 30
0.0
 10
20.43865002189351
 20
-2.907065884984823
 30
0.0
  0
SPLINE
  5
C3
330
1F
100
AcDbEntity
  8
외형선
  6
Continuous
 62
     1
370
    15
100
AcDbSpline
210
0.0
220
0.0
230
1.0
 70
     8
 71
     3
 72
    17
 73
    13
 74
     0
 42
0.000000001
 43
0.00000001
 40
0.0
 40
0.0
 40
0.0
 40
0.0
 40
0.0519837978330685
 40
0.1574766807822129
 40
0.2626131824919576
 40
0.3679875477544771
 40
0.4734599566516361
 40
0.578594070332736
 40
0.683992931250847
 40
0.789442553816467
 40
0.8945754734290597
 40
1.0
 40
1.0
 40
1.0
 40
1.0
 10
29.13339670848774
 20
3.15786511096284
 30
0.0
 10
29.24196282809737
 20
3.161229407113207
 30
0.0
 10
29.57084668949653
 20
3.171421009362617
 30
0.0
 10
30.12037873722152
 20
3.04073761447253
 30
0.0
 10
30.7791245833064
 20
2.778795613655424
 30
0.0
 10
31.43942448943991
 20
2.390500657727287
 30
0.0
 10
32.10032264764737
 20
1.901893812535915
 30
0.0
 10
32.75910207152134
 20
1.329121934324873
 30
0.0
 10
33.41954289254508
 20
0.7004509237207563
 30
0.0
 10
34.08030255977255
 20
0.0430082251055616
 30
0.0
 10
34.73907401945519
 20
-0.6221706656458298
 30
0.0
 10
35.17927241926438
 20
-1.036759356239355
 30
0.0
 10
35.39967644077174
 20
-1.244340789333819
 30
0.0
  0
SPLINE
  5
C4
330
1F
100
AcDbEntity
  8
외형선
  6
Continuous
 62
     1
370
    15
100
AcDbSpline
210
0.0
220
0.0
230
1.0
 70
     8
 71
     3
 72
    15
 73
    11
 74
     0
 42
0.000000001
 43
0.00000001
 40
0.0
 40
0.0
 40
0.0
 40
0.0
 40
0.1324626076335934
 40
0.2645588202795762
 40
0.3970529602425454
 40
0.5294833197891834
 40
0.6615810327447553
 40
0.7941038030178877
 40
0.9265033845423554
 40
1.0
 40
1.0
 40
1.0
 40
1.0
 10
35.39967644077173
 20
1.244340789333892
 30
0.0
 10
35.17927242658607
 20
1.441560368311626
 30
0.0
 10
34.73907404139999
 20
1.835454011827307
 30
0.0
 10
34.08030247216666
 20
2.334635701412287
 30
0.0
 10
33.41954322213593
 20
2.735710568277517
 30
0.0
 10
32.75910084312895
 20
3.018039126347368
 30
0.0
 10
32.10032722562345
 20
3.172616935455487
 30
0.0
 10
31.43940734824379
 20
3.184160882235968
 30
0.0
 10
30.87664254461789
 20
3.096401936527424
 30
0.0
 10
30.53474301656433
 20
2.95569308825268
 30
0.0
 10
30.41269871216814
 20
2.905465719973336
 30
0.0
  0
SPLINE
  5
C5
330
1F
100
AcDbEntity
  8
외형선
  6
Continuous
 62
     1
370
    15
100
AcDbSpline
210
0.0
220
0.0
230
1.0
 70
     8
 71
     3
 72
    25
 73
    21
 74
     0
 42
0.000000001
 43
0.00000001
 40
0.0
 40
0.0
 40
0.0
 40
0.0
 40
0.0157414496188684
 40
0.0743603382573417
 40
0.1329217766663618
 40
0.1917026992664167
 40
0.2503118804639772
 40
0.308878633103116
 40
0.3676632087702669
 40
0.4262633414242243
 40
0.484836071035207
 40
0.5436230061284626
 40
0.602214749955512
 40
0.660794118738136
 40
0.7195821193450836
 40
0.7781661348218034
 40
0.8367528043740409
 40
0.9049734942675323
 40
0.9731047094431463
 40
1.0
 40
1.0
 40
1.0
 40
1.0
 10
21.71601222900323
 20
-3.161539792296219
 30
0.0
 10
21.65689753996237
 20
-3.165524370826192
 30
0.0
 10
21.37764827261494
 20
-3.184346945269821
 30
0.0
 10
20.87935604281603
 20
-3.080966779880294
 30
0.0
 10
20.22037386713831
 20
-2.850468055102486
 30
0.0
 10
19.55892432215974
 20
-2.487881714040919
 30
0.0
 10
18.89940552929623
 20
-2.020044542942206
 30
0.0
 10
18.24036608372818
 20
-1.46379451313091
 30
0.0
 10
17.57887496510292
 20
-0.8470041411569025
 30
0.0
 10
16.9194585719919
 20
-0.1917525102776091
 30
0.0
 10
16.2603515771331
 20
0.4720906950305248
 30
0.0
 10
15.59883425618477
 20
1.113226508073715
 30
0.0
 10
14.93951197303085
 20
1.708608454635762
 30
0.0
 10
14.280332388567
 20
2.230250282843375
 30
0.0
 10
13.61879430143903
 20
2.65448577341634
 30
0.0
 10
12.9595922442526
 20
2.965310445265559
 30
0.0
 10
12.26485839038549
 20
3.160196286364463
 30
0.0
 10
11.53229233607177
 20
3.192419520333938
 30
0.0
 10
10.91974388419348
 20
3.10304222120117
 30
0.0
 10
10.56340728281364
 20
2.945329599444659
 30
0.0
 10
10.46255356461911
 20
2.90069229794726
 30
0.0
  0
LINE
  5
C6
330
1F
100
AcDbEntity
  8
외형선
  6
Continuous
 62
     1
370
    15
100
AcDbLine
 10
35.39967644077173
 20
-3.174999999999996
 30
0.0
 11
35.39967644077173
 21
-3.151830599121265
 31
0.0
  0
LINE
  5
C7
330
1F
100
AcDbEntity
  8
외형선
  6
Continuous
370
    15
100
AcDbLine
 10
9.999676440771717
 20
0.0799400859039074
 30
0.0
 11
9.999676440771731
 21
0.8375247785442554
 31
0.0
  0
LINE
  5
C8
330
1F
100
AcDbEntity
  8
외형선
  6
Continuous
 62
     1
370
    15
100
AcDbLine
 10
35.39967644077173
 20
1.244340789333891
 30
0.0
 11
35.39967644077173
 21
1.907489809787422
 31
0.0
  0
LINE
  5
C9
330
1F
100
AcDbEntity
  8
외형선
  6
Continuous
 62
     1
370
    15
100
AcDbLine
 10
35.39967644077173
 20
3.15183059912128
 30
0.0
 11
35.39967644077173
 21
3.175000000000008
 31
0.0
  0
LINE
  5
CA
330
1F
100
AcDbEntity
  8
외형선
  6
Continuous
 62
     1
370
    15
100
AcDbLine
 10
35.39967644077173
 20
-1.907489809787393
 30
0.0
 11
35.39967644077173
 21
-1.244340789333819
 31
0.0
  0
LINE
  5
CB
330
1F
100
AcDbEntity
  8
외형선
  6
Continuous
370
    15
100
AcDbLine
 10
9.999676440771717
 20
2.788729024201389
 30
0.0
 11
9.999676440771712
 21
3.071003504629733
 31
0.0
  0
LINE
  5
CC
330
1F
100
AcDbEntity
  8
외형선
  6
Continuous
370
    15
100
AcDbLine
 10
9.999676440771717
 20
-2.708788938297455
 30
0.0
 11
9.999676440771724
 21
-2.233478726085477
 31
0.0
  0
SPLINE
  5
CD
330
1F
100
AcDbEntity
  8
외형선
  6
Continuous
370
    15
100
AcDbSpline
210
0.0
220
0.0
230
1.0
 70
     8
 71
     3
 72
     9
 73
     5
 74
     0
 42
0.000000001
 43
0.00000001
 40
0.0
 40
0.0
 40
0.0
 40
0.0
 40
0.3860728834475168
 40
1.0
 40
1.0
 40
1.0
 40
1.0
 10
9.184591332326187
 20
3.165835170079324
 30
0.0
 10
9.289419799253297
 20
3.166859694907011
 30
0.0
 10
9.560944869833257
 20
3.169513403239329
 30
0.0
 10
9.83278587581106
 20
3.10847601338493
 30
0.0
 10
9.999676440771731
 20
3.071003504629729
 30
0.0
  0
SPLINE
  5
CE
330
1F
100
AcDbEntity
  8
외형선
  6
Continuous
370
    15
100
AcDbSpline
210
0.0
220
0.0
230
1.0
 70
     8
 71
     3
 72
     8
 73
     4
 74
     0
 42
0.000000001
 43
0.00000001
 40
0.0
 40
0.0
 40
0.0
 40
0.0
 40
1.0
 40
1.0
 40
1.0
 40
1.0
 10
9.999676440771731
 20
2.788729024201369
 30
0.0
 10
9.664333326975846
 20
2.948386613988787
 30
0.0
 10
9.335081223295795
 20
3.060771057350455
 30
0.0
 10
8.999733939786523
 20
3.121707418400763
 30
0.0
  0
LINE
  5
CF
330
1F
100
AcDbEntity
  8
외형선
  6
Continuous
370
    15
100
AcDbLine
 10
8.999733939786523
 20
1.744977652187501
 30
0.0
 11
8.999733939786523
 21
3.121707553949183
 31
0.0
  0
SPLINE
  5
D0
330
1F
100
AcDbEntity
  8
외형선
  6
Continuous
370
    15
100
AcDbSpline
210
0.0
220
0.0
230
1.0
 70
     8
 71
     3
 72
     8
 73
     4
 74
     0
 42
0.000000001
 43
0.00000001
 40
0.0
 40
0.0
 40
0.0
 40
0.0
 40
1.0
 40
1.0
 40
1.0
 40
1.0
 10
9.999676440771731
 20
0.8375247785442559
 30
0.0
 10
9.664333326975846
 20
1.15968131761461
 30
0.0
 10
9.335081223295816
 20
1.465958967684714
 30
0.0
 10
8.999733939786516
 20
1.744981299510911
 30
0.0
  0
SPLINE
  5
D1
330
1F
100
AcDbEntity
  8
외형선
  6
Continuous
370
    15
100
AcDbSpline
210
0.0
220
0.0
230
1.0
 70
     8
 71
     3
 72
     8
 73
     4
 74
     0
 42
0.000000001
 43
0.00000001
 40
0.0
 40
0.0
 40
0.0
 40
0.0
 40
1.0
 40
1.0
 40
1.0
 40
1.0
 10
9.999676440771731
 20
0.0799400859038973
 30
0.0
 10
9.664333326975846
 20
0.4138202429568364
 30
0.0
 10
9.335081223295795
 20
0.7443258309152154
 30
0.0
 10
8.999733939786523
 20
1.059180662858158
 30
0.0
  0
LINE
  5
D2
330
1F
100
AcDbEntity
  8
외형선
  6
Continuous
370
    15
100
AcDbLine
 10
8.999733939786523
 20
-1.424630782247263
 30
0.0
 11
8.999733939786523
 21
1.059181363229817
 31
0.0
  0
SPLINE
  5
D3
330
1F
100
AcDbEntity
  8
외형선
  6
Continuous
370
    15
100
AcDbSpline
210
0.0
220
0.0
230
1.0
 70
     8
 71
     3
 72
     8
 73
     4
 74
     0
 42
0.000000001
 43
0.00000001
 40
0.0
 40
0.0
 40
0.0
 40
0.0
 40
1.0
 40
1.0
 40
1.0
 40
1.0
 10
9.999676440771731
 20
-2.233478726085485
 30
0.0
 10
9.664333326975846
 20
-1.996102505410289
 30
0.0
 10
9.335081223295816
 20
-1.723105342945363
 30
0.0
 10
8.999733939786516
 20
-1.424626880600367
 30
0.0
  0
SPLINE
  5
D4
330
1F
100
AcDbEntity
  8
외형선
  6
Continuous
370
    15
100
AcDbSpline
210
0.0
220
0.0
230
1.0
 70
     8
 71
     3
 72
     8
 73
     4
 74
     0
 42
0.000000001
 43
0.00000001
 40
0.0
 40
0.0
 40
0.0
 40
0.0
 40
1.0
 40
1.0
 40
1.0
 40
1.0
 10
9.999676440771731
 20
-2.708788938297445
 30
0.0
 10
9.664333326975846
 20
-2.534566371031924
 30
0.0
 10
9.335081223295795
 20
-2.316445226435215
 30
0.0
 10
8.999733939786523
 20
-2.062526755542582
 30
0.0
  0
LINE
  5
D5
330
1F
100
AcDbEntity
  8
외형선
  6
Continuous
370
    15
100
AcDbLine
 10
8.999733939786523
 20
-3.169608434434732
 30
0.0
 11
8.999733939786523
 21
-2.062526190719343
 31
0.0
  0
SPLINE
  5
D6
330
1F
100
AcDbEntity
  8
외형선
  6
Continuous
370
    15
100
AcDbSpline
210
0.0
220
0.0
230
1.0
 70
     8
 71
     3
 72
     8
 73
     4
 74
     0
 42
0.000000001
 43
0.00000001
 40
0.0
 40
0.0
 40
0.0
 40
0.0
 40
1.0
 40
1.0
 40
1.0
 40
1.0
 10
9.999676440771731
 20
-3.071003504629711
 30
0.0
 10
9.664333326975846
 20
-3.155783823024868
 30
0.0
 10
9.335081223295816
 20
-3.189064310630045
 30
0.0
 10
8.999733939786516
 20
-3.169608180111247
 30
0.0
  0
LINE
  5
D7
330
1F
100
AcDbEntity
  8
외형선
  6
Continuous
370
    15
100
AcDbLine
 10
-33.81532355922827
 20
0.0000000000000062
 30
0.0
 11
-33.81532355922827
 21
3.175000000000006
 31
0.0
  0
LINE
  5
D8
330
1F
100
AcDbEntity
  8
외형선
  6
Continuous
370
    15
100
AcDbLine
 10
-33.81532355922827
 20
-3.174999999999993
 30
0.0
 11
-33.81532355922827
 21
0.0000000000000062
 31
0.0
  0
LINE
  5
D9
330
1F
100
AcDbEntity
  8
외형선
  6
Continuous
370
    15
100
AcDbLine
 10
-34.45032355922827
 20
0.0000000000000062
 30
0.0
 11
-34.45032355922827
 21
2.540000000000008
 31
0.0
  0
LINE
  5
DA
330
1F
100
AcDbEntity
  8
외형선
  6
Continuous
370
    15
100
AcDbLine
 10
-34.45032355922827
 20
-2.539999999999996
 30
0.0
 11
-34.45032355922827
 21
0.0000000000000062
 31
0.0
  0
SPLINE
  5
DB
330
1F
100
AcDbEntity
  8
외형선
  6
Continuous
370
    15
100
AcDbSpline
210
0.0
220
0.0
230
1.0
 70
    24
 71
     3
 72
    15
 73
    11
 74
     0
 42
0.000000001
 43
0.00000001
 40
0.0
 40
0.0
 40
0.0
 40
0.0
 40
0.0935356348319397
 40
0.23300345834974
 40
0.3724712818675213
 40
0.5119391053853368
 40
0.651406928903137
 40
0.790874752420935
 40
0.9303425759386958
 40
1.0
 40
1.0
 40
1.0
 40
1.0
 10
9.999676440771724
 20
-2.233478726085483
 30
0.0
 10
9.999676440771724
 20
-2.175884437033291
 30
0.0
 10
9.999676440771731
 20
-2.032413250308927
 30
0.0
 10
9.999676440771717
 20
-1.707430382151475
 30
0.0
 10
9.999676440771745
 20
-1.288902703526139
 30
0.0
 10
9.999676440771669
 20
-0.8556083007045197
 30
0.0
 10
9.999676440771738
 20
-0.456353685415165
 30
0.0
 10
9.999676440771717
 20
-0.1448121439670053
 30
0.0
 10
9.999676440771745
 20
0.0412318721581822
 30
0.0
 10
9.999676440771731
 20
0.0617295782849939
 30
0.0
 10
9.999676440771724
 20
0.0685571489608851
 30
0.0
  0
SPLINE
  5
DC
330
1F
100
AcDbEntity
  8
외형선
  6
Continuous
370
    15
100
AcDbSpline
210
0.0
220
0.0
230
1.0
 70
    24
 71
     3
 72
    15
 73
    11
 74
     0
 42
0.000000001
 43
0.00000001
 40
0.0
 40
0.0
 40
0.0
 40
0.0
 40
0.0482833462570451
 40
0.1958101655106868
 40
0.3433369847643644
 40
0.4908638040180258
 40
0.6383906232716848
 40
0.7859174425253048
 40
0.9334442617790009
 40
1.0
 40
1.0
 40
1.0
 40
1.0
 10
9.999676440771731
 20
0.7167961505865964
 30
0.0
 10
9.999676440771738
 20
0.7116539442187491
 30
0.0
 10
9.999676440771717
 20
0.690800039963275
 30
0.0
 10
9.999676440771738
 20
0.8017364336244727
 30
0.0
 10
9.999676440771676
 20
1.039431775608193
 30
0.0
 10
9.999676440771717
 20
1.391987211742955
 30
0.0
 10
9.999676440771717
 20
1.807482025789738
 30
0.0
 10
9.999676440771767
 20
2.240797113461203
 30
0.0
 10
9.999676440771697
 20
2.573789835673079
 30
0.0
 10
9.999676440771704
 20
2.737754383217988
 30
0.0
 10
9.999676440771717
 20
2.78872902418197
 30
0.0
  0
SPLINE
  5
DD
330
1F
100
AcDbEntity
  8
외형선
  6
Continuous
370
    15
100
AcDbSpline
210
0.0
220
0.0
230
1.0
 70
    24
 71
     3
 72
    11
 73
     7
 74
     0
 42
0.000000001
 43
0.00000001
 40
0.0
 40
0.0
 40
0.0
 40
0.0
 40
0.2218051703990161
 40
0.6687771939360392
 40
0.8941492102147337
 40
1.0
 40
1.0
 40
1.0
 40
1.0
 10
9.999676440771724
 20
-3.071003504629712
 30
0.0
 10
9.999676440771712
 20
-3.047365575565282
 30
0.0
 10
9.999676440771704
 20
-2.97609353153795
 30
0.0
 10
9.999676440771717
 20
-2.88189105517804
 30
0.0
 10
9.999676440771717
 20
-2.801017716956047
 30
0.0
 10
9.999676440771731
 20
-2.767567006308176
 30
0.0
 10
9.999676440771738
 20
-2.756876969039814
 30
0.0
  0
LINE
  5
DE
330
1F
100
AcDbEntity
  8
중심선
 62
     1
100
AcDbLine
 10
-37.45032355922826
 20
-0.0000000000000024
 30
0.0
 11
38.39967644077174
 21
0.0000000000000029
 31
0.0
  0
LINE
  5
DF
330
1F
100
AcDbEntity
  8
참조1
100
AcDbLine
 10
0.4746764407717396
 20
-0.0000000000000064
 30
0.0
 11
0.474676440771745
 21
-40.00000000000001
 31
0.0
  0
LINE
  5
E0
330
1F
100
AcDbEntity
  8
참조1
100
AcDbLine
 10
0.474676440771745
 20
-40.00000000000001
 30
0.0
 11
-0.3966803735369417
 21
-40.0
 31
0.0
  0
INSERT
  5
E2
330
1F
100
AcDbEntity
  8
0
  6
Continuous
 62
     7
100
AcDbBlockReference
 66
     1
  2
블럭10
 10
-13.46559649135347
 20
-52.04717430164393
 30
0.0
  0
ATTRIB
  5
E3
330
E2
100
AcDbEntity
  8
FORMAT
 62
     2
100
AcDbText
 10
-23.6072325034901
 20
-49.97180738881174
 30
0.0
 40
4.233333333333333
  1
EM218016 [ 6 FLUTE ]
 41
0.75
  7
SLDTEXTSTYLE0
 11
-23.6072325034901
 21
-52.08847405547841
 31
0.0
100
AcDbAttribute
  2
AUTOATTR0
 70
     0
 74
     1
  0
SEQEND
  5
E4
330
E2
100
AcDbEntity
  8
0
  6
Continuous
 62
     7
  0
HATCH
  5
E5
330
1F
100
AcDbEntity
  8
중심선
100
AcDbHatch
 10
0.0
 20
0.0
 30
0.0
210
0.0
220
0.0
230
1.0
  2
SOLID
 70
     1
 71
     0
 91
        1
 92
        0
 93
        4
 72
     1
 10
-7.750687186972616
 20
-35.8
 11
-11.1969624308099
 21
-35.8
 72
     1
 10
-11.1969624308099
 20
-35.8
 11
-13.32519229001392
 21
-38.3363255805726
 72
     1
 10
-13.32519229001392
 20
-38.3363255805726
 11
-9.87888396106349
 21
-38.33628615127011
 72
     1
 10
-9.87888396106349
 20
-38.33628615127011
 11
-7.750687186972616
 21
-35.8
 97
        0
 75
     0
 76
     1
 98
        1
 10
12.69967644077174
 20
-0.0010749287238956
  0
HATCH
  5
E6
330
1F
100
AcDbEntity
  8
중심선
100
AcDbHatch
 10
0.0
 20
0.0
 30
0.0
210
0.0
220
0.0
230
1.0
  2
SOLID
 70
     1
 71
     0
 91
        1
 92
        0
 93
        4
 72
     1
 10
-2.737923195936609
 20
-35.79999999999998
 11
-6.184198439773947
 21
-35.80000000000003
 72
     1
 10
-6.184198439773947
 20
-35.80000000000003
 11
-10.71533644813134
 21
-41.20000000000002
 72
     1
 10
-10.71533644813134
 20
-41.20000000000002
 11
-7.269061204294054
 21
-41.20000000000002
 72
     1
 10
-7.269061204294054
 20
-41.20000000000002
 11
-2.737923195936609
 21
-35.79999999999998
 97
        0
 75
     0
 76
     1
 98
        1
 10
12.69967644077174
 20
-0.0010749287238956
  0
HATCH
  5
E7
330
1F
100
AcDbEntity
  8
중심선
100
AcDbHatch
 10
0.0
 20
0.0
 30
0.0
210
0.0
220
0.0
230
1.0
  2
SOLID
 70
     1
 71
     0
 91
        1
 92
        0
 93
        4
 72
     1
 10
2.27484079509923
 20
-35.80000000000003
 11
-1.171434448737912
 21
-35.80000000000003
 72
     1
 10
-1.171434448737912
 20
-35.80000000000003
 11
-8.219871350627134
 21
-44.20000000000002
 72
     1
 10
-8.219871350627134
 20
-44.20000000000002
 11
-4.773596106789853
 21
-44.20000000000002
 72
     1
 10
-4.773596106789853
 20
-44.20000000000002
 11
2.27484079509923
 21
-35.80000000000003
 97
        0
 75
     0
 76
     1
 98
        1
 10
12.69967644077174
 20
-0.0010749287238956
  0
HATCH
  5
E8
330
1F
100
AcDbEntity
  8
중심선
100
AcDbHatch
 10
0.0
 20
0.0
 30
0.0
210
0.0
220
0.0
230
1.0
  2
SOLID
 70
     1
 71
     0
 91
        1
 92
        0
 93
        6
 72
     3
 10
7.07473122611143
 20
-40.00000000005127
 11
3.960054785062283
 21
1.540882976769353E-10
 40
0.3939339440162628
 50
17.09539180608436
 51
320.0019657685081
 73
     0
 72
     1
 10
8.757730881812025
 20
-38.5878940046383
 11
11.06303275551309
 21
-36.65356729459035
 72
     3
 10
7.074731226058583
 20
-40.00000000000015
 11
6.600054785286829
 21
-1.278976924368180E-13
 40
0.636358354079598
 50
39.99873849337413
 51
368.4976242363724
 73
     1
 72
     1
 10
13.50006371795919
 20
-39.03999999993002
 11
5.754798532894534
 21
-39.03999999993002
 72
     1
 10
5.754798532894533
 20
-39.03999999993002
 11
5.754773488448572
 21
-40.95999999992991
 72
     1
 10
5.754773488448572
 20
-40.95999999992991
 11
10.19615325792061
 21
-40.95999999992988
 97
        0
 75
     0
 76
     1
 98
        1
 10
12.69967644077174
 20
-0.0010749287238956
  0
DIMENSION
  5
E9
330
1F
100
AcDbEntity
  8
치수문자_일반주서
100
AcDbDimension
  2
_D
 10
47.10934096053405
 20
-3.174999999999955
 30
0.0
 11
47.10934096053396
 21
22.46650000000005
 31
0.0
 70
   160
  1
%%c<>
 71
     2
 42
6.350000000000003
 52
-270.0
  3
SLDDIMSTYLE0
100
AcDbAlignedDimension
 13
35.39967644077172
 23
3.175000000000007
 33
0.0
 14
35.39967644077172
 24
-3.174999999999996
 34
0.0
 50
90.0000000000002
100
AcDbRotatedDimension
1001
PE_URL
1000

1001
ACAD
1000
DSTYLE
1002
{
1070
   171
1070
     6
1070
   273
1070
     7
1002
}
  0
DIMENSION
  5
FE
330
1F
100
AcDbEntity
  8
치수문자_일반주서
100
AcDbDimension
  2
_D_1
 10
-48.72032355922828
 20
-3.175000000000061
 30
0.0
 11
-48.72032355922829
 21
0.0000000000000166
 31
0.0
 70
   160
  1
%%c<>
 71
     2
 42
6.350000000000023
 52
-270.0
  3
SLDDIMSTYLE0
100
AcDbAlignedDimension
 13
-33.81532355922828
 23
3.175000000000018
 33
0.0
 14
-33.81532355922828
 24
-3.175000000000005
 34
0.0
 50
90.0000000000002
100
AcDbRotatedDimension
1001
ACAD
1000
DSTYLE
1002
{
1070
   171
1070
     6
1070
   273
1070
     7
1002
}
1001
ACAD_DSTYLE_DIMFLIPARROW_SYMBOL
1070
   385
1070
     0
1001
ACAD_DSTYLE_DIMFLIPARROW_WHICH_SYMBOL
1070
   386
1070
     3
  0
DIMENSION
  5
112
330
1F
100
AcDbEntity
  8
치수문자_일반주서
100
AcDbDimension
  2
_D_2
 10
9.999676440771724
 20
33.75345306231154
 30
0.0
 11
22.69967644077173
 21
33.75345306231154
 31
0.0
 70
   160
  1
<>
 71
     2
 42
25.40000000000001
  3
SLDDIMSTYLE0
100
AcDbAlignedDimension
 13
35.39967644077173
 23
3.15183059912128
 33
0.0
 14
9.999676440771724
 24
3.07100350462973
 34
0.0
100
AcDbRotatedDimension
1001
PE_URL
1000

1001
ACAD
1000
DSTYLE
1002
{
1070
   171
1070
     6
1070
   273
1070
     7
1002
}
  0
DIMENSION
  5
128
330
1F
100
AcDbEntity
  8
치수문자_일반주서
100
AcDbDimension
  2
_D_3
 10
-34.45032355922828
 20
45.75345306231156
 30
0.0
 11
0.4746764407717254
 21
45.75345306231156
 31
0.0
 70
   160
  1
<>
 71
     2
 42
69.85
  3
SLDDIMSTYLE0
100
AcDbAlignedDimension
 13
35.39967644077173
 23
3.15183059912128
 33
0.0
 14
-34.45032355922827
 24
2.540000000000008
 34
0.0
100
AcDbRotatedDimension
1001
PE_URL
1000

1001
ACAD
1000
DSTYLE
1002
{
1070
   171
1070
     6
1070
   273
1070
     7
1002
}
  0
LINE
  5
13C
330
1F
100
AcDbEntity
  8
참조1
100
AcDbLine
 10
97.57566025611733
 20
7.44
 30
0.0
 11
97.57566025611733
 21
-7.440000000000005
 31
0.0
  0
LINE
  5
13D
330
1F
100
AcDbEntity
  8
참조1
100
AcDbLine
 10
110.2756602561173
 20
5.44
 30
0.0
 11
97.57566025611733
 21
5.44
 31
0.0
  0
SOLID
  5
13E
330
1F
100
AcDbEntity
  8
참조1
100
AcDbTrace
 10
97.57566025611733
 20
5.44
 30
0.0
 11
103.9256602561173
 21
4.423999999999999
 31
0.0
 12
103.9256602561173
 22
6.456
 32
0.0
 13
103.9256602561173
 23
6.456
 33
0.0
  0
LINE
  5
13F
330
1F
100
AcDbEntity
  8
참조1
100
AcDbLine
 10
110.2756602561173
 20
-5.440000000000005
 30
0.0
 11
97.57566025611733
 21
-5.440000000000005
 31
0.0
  0
SOLID
  5
140
330
1F
100
AcDbEntity
  8
참조1
100
AcDbTrace
 10
97.57566025611733
 20
-5.440000000000005
 30
0.0
 11
103.9256602561173
 21
-6.456000000000005
 31
0.0
 12
103.9256602561173
 22
-4.424000000000005
 32
0.0
 13
103.9256602561173
 23
-4.424000000000005
 33
0.0
  0
MTEXT
  5
141
330
1F
100
AcDbEntity
  8
참조1
100
AcDbMText
 10
106.9731503485876
 20
10.98821664464993
 30
0.0
 40
3.5
 41
0.0
 71
     1
 72
     1
  1
A
  7
SLDTEXTSTYLE0
 73
     1
 44
1.0
  0
MTEXT
  5
142
330
1F
100
AcDbEntity
  8
참조1
100
AcDbMText
 10
106.9731503485876
 20
0.1082166446499303
 30
0.0
 40
3.5
 41
0.0
 71
     1
 72
     1
  1
A
  7
SLDTEXTSTYLE0
 73
     1
 44
1.0
  0
INSERT
  5
149
330
1F
100
AcDbEntity
  8
해칭선
100
AcDbBlockReference
  2
SW_DOWELSYMBOL_0
 10
0.0
 20
0.0
 30
0.0
  0
ENDSEC
  0
SECTION
  2
OBJECTS
  0
DICTIONARY
  5
C
330
0
100
AcDbDictionary
281
     1
  3
ACAD_DETAILVIEWSTYLE
350
172
  3
ACAD_GROUP
350
D
  3
ACAD_LAYOUT
350
1A
  3
ACAD_MLINESTYLE
350
17
  3
ACAD_PLOTSETTINGS
350
19
  3
ACAD_PLOTSTYLENAME
350
E
  3
ACAD_SCALELIST
350
47
  3
ACAD_SECTIONVIEWSTYLE
350
173
  3
AcDbVariableDictionary
350
16D
  3
APPDATA
350
16B
  3
DWGPROPS
350
1A1
  0
DICTIONARY
  5
19F
330
1F
100
AcDbDictionary
280
     1
281
     1
  3
DIM_BOUNDING_BOXES_V1
360
1A0
  0
DICTIONARY
  5
172
102
{ACAD_REACTORS
330
C
102
}
330
C
100
AcDbDictionary
281
     1
  0
DICTIONARY
  5
D
102
{ACAD_REACTORS
330
C
102
}
330
C
100
AcDbDictionary
281
     1
  0
DICTIONARY
  5
1A
102
{ACAD_REACTORS
330
C
102
}
330
C
100
AcDbDictionary
281
     1
  3
Layout1
350
1E
  3
Layout2
350
26
  3
Model
350
22
  0
DICTIONARY
  5
17
102
{ACAD_REACTORS
330
C
102
}
330
C
100
AcDbDictionary
281
     1
  3
Standard
350
18
  0
DICTIONARY
  5
19
102
{ACAD_REACTORS
330
C
102
}
330
C
100
AcDbDictionary
281
     1
  0
ACDBDICTIONARYWDFLT
  5
E
102
{ACAD_REACTORS
330
C
102
}
330
C
100
AcDbDictionary
281
     1
  3
Normal
350
F
100
AcDbDictionaryWithDefault
340
F
  0
DICTIONARY
  5
47
102
{ACAD_REACTORS
330
C
102
}
330
C
100
AcDbDictionary
281
     1
  3
A0
350
48
  3
A1
350
49
  3
A2
350
4A
  3
A3
350
4B
  3
A4
350
4C
  3
A5
350
4D
  3
A6
350
4E
  3
A7
350
4F
  3
A8
350
50
  3
A9
350
51
  3
B0
350
52
  3
B1
350
53
  3
B2
350
54
  3
B3
350
55
  3
B4
350
56
  3
B5
350
57
  3
B6
350
58
  3
B7
350
59
  3
B8
350
5A
  3
B9
350
5B
  3
C0
350
5C
  3
C1
350
5D
  3
C2
350
5E
  3
C3
350
5F
  3
C4
350
60
  3
C5
350
61
  3
C6
350
62
  3
C7
350
63
  3
C8
350
64
  3
C9
350
65
  3
D0
350
66
  3
D1
350
67
  3
D2
350
68
  0
DICTIONARY
  5
173
102
{ACAD_REACTORS
330
C
102
}
330
C
100
AcDbDictionary
281
     1
  0
DICTIONARY
  5
16D
102
{ACAD_REACTORS
330
C
102
}
330
C
100
AcDbDictionary
281
     1
  0
DICTIONARY
  5
16B
102
{ACAD_REACTORS
330
C
102
}
330
C
100
AcDbDictionary
281
     1
  0
XRECORD
  5
1A1
102
{ACAD_REACTORS
330
C
102
}
330
C
100
AcDbXrecord
280
     1
  1
DWGPROPS COOKIE
  2

  3

  4

  6

  7

  8
12017165
  9

300
=
301
=
302
=
303
=
304
=
305
=
306
=
307
=
308
=
309
=
 40
0.0
 41
2458292.27129971
 42
2459697.018198947
  1

 90
        0
  0
DICTIONARY
  5
1A0
102
{ACAD_REACTORS
330
19F
102
}
330
19F
100
AcDbDictionary
281
     1
  0
LAYOUT
  5
1E
102
{ACAD_REACTORS
330
1A
102
}
330
1A
100
AcDbPlotSettings
  1

  2
none_device
  4

  6

 40
0.0
 41
0.0
 42
0.0
 43
0.0
 44
0.0
 45
0.0
 46
0.0
 47
0.0
 48
0.0
 49
0.0
140
0.0
141
0.0
142
1.0
143
1.0
 70
   688
 72
     1
 73
     0
 74
     5
  7

 75
    16
147
1.0
148
0.0
149
0.0
100
AcDbLayout
  1
Layout1
 70
     1
 71
     1
 10
0.0
 20
0.0
 11
420.0
 21
297.0
 12
0.0
 22
0.0
 32
0.0
 14
1.000000000000000E+20
 24
1.000000000000000E+20
 34
1.000000000000000E+20
 15
-1.000000000000000E+20
 25
-1.000000000000000E+20
 35
-1.000000000000000E+20
146
0.0
 13
0.0
 23
0.0
 33
0.0
 16
1.0
 26
0.0
 36
0.0
 17
0.0
 27
1.0
 37
0.0
 76
     0
330
1B
  0
LAYOUT
  5
26
102
{ACAD_REACTORS
330
1A
102
}
330
1A
100
AcDbPlotSettings
  1

  2
none_device
  4

  6

 40
0.0
 41
0.0
 42
0.0
 43
0.0
 44
0.0
 45
0.0
 46
0.0
 47
0.0
 48
0.0
 49
0.0
140
0.0
141
0.0
142
1.0
143
1.0
 70
   688
 72
     1
 73
     0
 74
     5
  7

 75
    16
147
1.0
148
0.0
149
0.0
100
AcDbLayout
  1
Layout2
 70
     1
 71
     2
 10
0.0
 20
0.0
 11
0.0
 21
0.0
 12
0.0
 22
0.0
 32
0.0
 14
0.0
 24
0.0
 34
0.0
 15
0.0
 25
0.0
 35
0.0
146
0.0
 13
0.0
 23
0.0
 33
0.0
 16
1.0
 26
0.0
 36
0.0
 17
0.0
 27
1.0
 37
0.0
 76
     0
330
23
  0
LAYOUT
  5
22
102
{ACAD_REACTORS
330
1A
102
}
330
1A
100
AcDbPlotSettings
  1

  2
none_device
  4
ANSI_A_(11.00_x_8.50_Inches)
  6

 40
6.35
 41
19.05
 42
6.35000508
 43
19.05000254
 44
279.4
 45
215.9
 46
111.3053522526709
 47
84.20484304644356
 48
0.0
 49
0.0
140
0.0
141
0.0
142
0.0633834362183025
143
1.0
 70
  1696
 72
     0
 73
     0
 74
     0
  7

 75
     0
147
0.0235690232323232
148
0.0
149
0.0
100
AcDbLayout
  1
Model
 70
     1
 71
     0
 10
0.0
 20
0.0
 11
420.0
 21
297.0
 12
0.0
 22
0.0
 32
0.0
 14
-53.09532355922833
 24
-49.97180738881175
 34
0.0
 15
110.2756602561173
 25
50.12845306231156
 35
0.0
146
0.0
 13
0.0
 23
0.0
 33
0.0
 16
1.0
 26
0.0
 36
0.0
 17
0.0
 27
1.0
 37
0.0
 76
     0
330
1F
331
29
  0
MLINESTYLE
  5
18
102
{ACAD_REACTORS
330
17
102
}
330
17
100
AcDbMlineStyle
  2
Standard
 70
     0
  3

 62
   256
 51
90.0
 52
90.0
 71
     2
 49
0.5
 62
   256
  6
BYLAYER
 49
-0.5
 62
   256
  6
BYLAYER
  0
ACDBPLACEHOLDER
  5
F
102
{ACAD_REACTORS
330
E
102
}
330
E
  0
SCALE
  5
48
102
{ACAD_REACTORS
330
47
102
}
330
47
100
AcDbScale
 70
     0
300
1:1
140
1.0
141
1.0
290
     1
  0
SCALE
  5
49
102
{ACAD_REACTORS
330
47
102
}
330
47
100
AcDbScale
 70
     0
300
1:2
140
1.0
141
2.0
290
     0
  0
SCALE
  5
4A
102
{ACAD_REACTORS
330
47
102
}
330
47
100
AcDbScale
 70
     0
300
1:4
140
1.0
141
4.0
290
     0
  0
SCALE
  5
4B
102
{ACAD_REACTORS
330
47
102
}
330
47
100
AcDbScale
 70
     0
300
1:5
140
1.0
141
5.0
290
     0
  0
SCALE
  5
4C
102
{ACAD_REACTORS
330
47
102
}
330
47
100
AcDbScale
 70
     0
300
1:8
140
1.0
141
8.0
290
     0
  0
SCALE
  5
4D
102
{ACAD_REACTORS
330
47
102
}
330
47
100
AcDbScale
 70
     0
300
1:10
140
1.0
141
10.0
290
     0
  0
SCALE
  5
4E
102
{ACAD_REACTORS
330
47
102
}
330
47
100
AcDbScale
 70
     0
300
1:16
140
1.0
141
16.0
290
     0
  0
SCALE
  5
4F
102
{ACAD_REACTORS
330
47
102
}
330
47
100
AcDbScale
 70
     0
300
1:20
140
1.0
141
20.0
290
     0
  0
SCALE
  5
50
102
{ACAD_REACTORS
330
47
102
}
330
47
100
AcDbScale
 70
     0
300
1:30
140
1.0
141
30.0
290
     0
  0
SCALE
  5
51
102
{ACAD_REACTORS
330
47
102
}
330
47
100
AcDbScale
 70
     0
300
1:40
140
1.0
141
40.0
290
     0
  0
SCALE
  5
52
102
{ACAD_REACTORS
330
47
102
}
330
47
100
AcDbScale
 70
     0
300
1:50
140
1.0
141
50.0
290
     0
  0
SCALE
  5
53
102
{ACAD_REACTORS
330
47
102
}
330
47
100
AcDbScale
 70
     0
300
1:100
140
1.0
141
100.0
290
     0
  0
SCALE
  5
54
102
{ACAD_REACTORS
330
47
102
}
330
47
100
AcDbScale
 70
     0
300
2:1
140
2.0
141
1.0
290
     0
  0
SCALE
  5
55
102
{ACAD_REACTORS
330
47
102
}
330
47
100
AcDbScale
 70
     0
300
4:1
140
4.0
141
1.0
290
     0
  0
SCALE
  5
56
102
{ACAD_REACTORS
330
47
102
}
330
47
100
AcDbScale
 70
     0
300
8:1
140
8.0
141
1.0
290
     0
  0
SCALE
  5
57
102
{ACAD_REACTORS
330
47
102
}
330
47
100
AcDbScale
 70
     0
300
10:1
140
10.0
141
1.0
290
     0
  0
SCALE
  5
58
102
{ACAD_REACTORS
330
47
102
}
330
47
100
AcDbScale
 70
     0
300
100:1
140
100.0
141
1.0
290
     0
  0
SCALE
  5
59
102
{ACAD_REACTORS
330
47
102
}
330
47
100
AcDbScale
 70
     0
300
1/128" = 1'-0"
140
0.0078125
141
12.0
290
     0
  0
SCALE
  5
5A
102
{ACAD_REACTORS
330
47
102
}
330
47
100
AcDbScale
 70
     0
300
1/64" = 1'-0"
140
0.015625
141
12.0
290
     0
  0
SCALE
  5
5B
102
{ACAD_REACTORS
330
47
102
}
330
47
100
AcDbScale
 70
     0
300
1/32" = 1'-0"
140
0.03125
141
12.0
290
     0
  0
SCALE
  5
5C
102
{ACAD_REACTORS
330
47
102
}
330
47
100
AcDbScale
 70
     0
300
1/16" = 1'-0"
140
0.0625
141
12.0
290
     0
  0
SCALE
  5
5D
102
{ACAD_REACTORS
330
47
102
}
330
47
100
AcDbScale
 70
     0
300
3/32" = 1'-0"
140
0.09375
141
12.0
290
     0
  0
SCALE
  5
5E
102
{ACAD_REACTORS
330
47
102
}
330
47
100
AcDbScale
 70
     0
300
1/8" = 1'-0"
140
0.125
141
12.0
290
     0
  0
SCALE
  5
5F
102
{ACAD_REACTORS
330
47
102
}
330
47
100
AcDbScale
 70
     0
300
3/16" = 1'-0"
140
0.1875
141
12.0
290
     0
  0
SCALE
  5
60
102
{ACAD_REACTORS
330
47
102
}
330
47
100
AcDbScale
 70
     0
300
1/4" = 1'-0"
140
0.25
141
12.0
290
     0
  0
SCALE
  5
61
102
{ACAD_REACTORS
330
47
102
}
330
47
100
AcDbScale
 70
     0
300
3/8" = 1'-0"
140
0.375
141
12.0
290
     0
  0
SCALE
  5
62
102
{ACAD_REACTORS
330
47
102
}
330
47
100
AcDbScale
 70
     0
300
1/2" = 1'-0"
140
0.5
141
12.0
290
     0
  0
SCALE
  5
63
102
{ACAD_REACTORS
330
47
102
}
330
47
100
AcDbScale
 70
     0
300
3/4" = 1'-0"
140
0.75
141
12.0
290
     0
  0
SCALE
  5
64
102
{ACAD_REACTORS
330
47
102
}
330
47
100
AcDbScale
 70
     0
300
1" = 1'-0"
140
1.0
141
12.0
290
     0
  0
SCALE
  5
65
102
{ACAD_REACTORS
330
47
102
}
330
47
100
AcDbScale
 70
     0
300
1-1/2" = 1'-0"
140
1.5
141
12.0
290
     0
  0
SCALE
  5
66
102
{ACAD_REACTORS
330
47
102
}
330
47
100
AcDbScale
 70
     0
300
3" = 1'-0"
140
3.0
141
12.0
290
     0
  0
SCALE
  5
67
102
{ACAD_REACTORS
330
47
102
}
330
47
100
AcDbScale
 70
     0
300
6" = 1'-0"
140
6.0
141
12.0
290
     0
  0
SCALE
  5
68
102
{ACAD_REACTORS
330
47
102
}
330
47
100
AcDbScale
 70
     0
300
1'-0" = 1'-0"
140
12.0
141
12.0
290
     0
  0
ENDSEC
  0
EOF
