  0
SECTION
  2
HEADER
  9
$ACADVER
  1
AC1015
  9
$ACADMAINTVER
 70
     6
  9
$DWGCODEPAGE
  3
ANSI_949
  9
$INSBASE
 10
0.0
 20
0.0
 30
0.0
  9
$EXTMIN
 10
-61.46125702760081
 20
-49.97180738881175
 30
0.0
  9
$EXTMAX
 10
101.7509767877449
 20
50.91641071209187
 30
0.0
  9
$LIMMIN
 10
0.0
 20
0.0
  9
$LIMMAX
 10
420.0
 20
297.0
  9
$ORTHOMODE
 70
     1
  9
$REGENMODE
 70
     1
  9
$FILLMODE
 70
     1
  9
$QTEXTMODE
 70
     0
  9
$MIRRTEXT
 70
     1
  9
$LTSCALE
 40
1.0
  9
$ATTMODE
 70
     1
  9
$TEXTSIZE
 40
3.5
  9
$TRACEWID
 40
1.0
  9
$TEXTSTYLE
  7
Standard
  9
$CLAYER
  8
0
  9
$CELTYPE
  6
ByLayer
  9
$CECOLOR
 62
   256
  9
$CELTSCALE
 40
1.0
  9
$DISPSILH
 70
     0
  9
$DIMSCALE
 40
1.0
  9
$DIMASZ
 40
3.302
  9
$DIMEXO
 40
1.0
  9
$DIMDLI
 40
3.75
  9
$DIMRND
 40
0.0
  9
$DIMDLE
 40
0.0
  9
$DIMEXE
 40
1.0
  9
$DIMTP
 40
0.0
  9
$DIMTM
 40
0.0
  9
$DIMTXT
 40
3.5
  9
$DIMCEN
 40
2.5
  9
$DIMTSZ
 40
0.0
  9
$DIMTOL
 70
     0
  9
$DIMLIM
 70
     0
  9
$DIMTIH
 70
     1
  9
$DIMTOH
 70
     1
  9
$DIMSE1
 70
     0
  9
$DIMSE2
 70
     0
  9
$DIMTAD
 70
     1
  9
$DIMZIN
 70
     0
  9
$DIMBLK
  1

  9
$DIMASO
 70
     1
  9
$DIMSHO
 70
     1
  9
$DIMPOST
  1

  9
$DIMAPOST
  1

  9
$DIMALT
 70
     0
  9
$DIMALTD
 70
     3
  9
$DIMALTF
 40
0.0393700787401575
  9
$DIMLFAC
 40
1.0
  9
$DIMTOFL
 70
     1
  9
$DIMTVP
 40
0.0
  9
$DIMTIX
 70
     0
  9
$DIMSOXD
 70
     0
  9
$DIMSAH
 70
     0
  9
$DIMBLK1
  1

  9
$DIMBLK2
  1

  9
$DIMSTYLE
  2
ISO-25
  9
$DIMCLRD
 70
     0
  9
$DIMCLRE
 70
     0
  9
$DIMCLRT
 70
     0
  9
$DIMTFAC
 40
1.0
  9
$DIMGAP
 40
1.524
  9
$DIMJUST
 70
     0
  9
$DIMSD1
 70
     0
  9
$DIMSD2
 70
     0
  9
$DIMTOLJ
 70
     0
  9
$DIMTZIN
 70
     0
  9
$DIMALTZ
 70
     0
  9
$DIMALTTZ
 70
     0
  9
$DIMUPT
 70
     0
  9
$DIMDEC
 70
     2
  9
$DIMTDEC
 70
     2
  9
$DIMALTU
 70
     2
  9
$DIMALTTD
 70
     3
  9
$DIMTXSTY
  7
Standard
  9
$DIMAUNIT
 70
     0
  9
$DIMADEC
 70
     2
  9
$DIMALTRND
 40
0.0
  9
$DIMAZIN
 70
     0
  9
$DIMDSEP
 70
    44
  9
$DIMATFIT
 70
     3
  9
$DIMFRAC
 70
     0
  9
$DIMLDRBLK
  1

  9
$DIMLUNIT
 70
     2
  9
$DIMLWD
 70
    -2
  9
$DIMLWE
 70
    -2
  9
$DIMTMOVE
 70
     0
  9
$LUNITS
 70
     2
  9
$LUPREC
 70
     2
  9
$SKETCHINC
 40
1.0
  9
$FILLETRAD
 40
10.0
  9
$AUNITS
 70
     0
  9
$AUPREC
 70
     2
  9
$MENU
  1
.
  9
$ELEVATION
 40
0.0
  9
$PELEVATION
 40
0.0
  9
$THICKNESS
 40
0.0
  9
$LIMCHECK
 70
     0
  9
$CHAMFERA
 40
0.0
  9
$CHAMFERB
 40
0.0
  9
$CHAMFERC
 40
0.0
  9
$CHAMFERD
 40
0.0
  9
$SKPOLY
 70
     0
  9
$TDCREATE
 40
2458292.646488773
  9
$TDUCREATE
 40
2458292.271488773
  9
$TDUPDATE
 40
2459697.393731076
  9
$TDUUPDATE
 40
2459697.018731076
  9
$TDINDWG
 40
0.001925081
  9
$TDUSRTIMER
 40
0.0005295139
  9
$USRTIMER
 70
     1
  9
$ANGBASE
 50
0.0
  9
$ANGDIR
 70
     0
  9
$PDMODE
 70
     0
  9
$PDSIZE
 40
-1.0
  9
$PLINEWID
 40
0.0
  9
$SPLFRAME
 70
     0
  9
$SPLINETYPE
 70
     6
  9
$SPLINESEGS
 70
     8
  9
$HANDSEED
  5
1A8
  9
$SURFTAB1
 70
     6
  9
$SURFTAB2
 70
     6
  9
$SURFTYPE
 70
     6
  9
$SURFU
 70
     6
  9
$SURFV
 70
     6
  9
$UCSBASE
  2

  9
$UCSNAME
  2

  9
$UCSORG
 10
0.0
 20
0.0
 30
0.0
  9
$UCSXDIR
 10
1.0
 20
0.0
 30
0.0
  9
$UCSYDIR
 10
0.0
 20
1.0
 30
0.0
  9
$UCSORTHOREF
  2

  9
$UCSORTHOVIEW
 70
     0
  9
$UCSORGTOP
 10
0.0
 20
0.0
 30
0.0
  9
$UCSORGBOTTOM
 10
0.0
 20
0.0
 30
0.0
  9
$UCSORGLEFT
 10
0.0
 20
0.0
 30
0.0
  9
$UCSORGRIGHT
 10
0.0
 20
0.0
 30
0.0
  9
$UCSORGFRONT
 10
0.0
 20
0.0
 30
0.0
  9
$UCSORGBACK
 10
0.0
 20
0.0
 30
0.0
  9
$PUCSBASE
  2

  9
$PUCSNAME
  2

  9
$PUCSORG
 10
0.0
 20
0.0
 30
0.0
  9
$PUCSXDIR
 10
1.0
 20
0.0
 30
0.0
  9
$PUCSYDIR
 10
0.0
 20
1.0
 30
0.0
  9
$PUCSORTHOREF
  2

  9
$PUCSORTHOVIEW
 70
     0
  9
$PUCSORGTOP
 10
0.0
 20
0.0
 30
0.0
  9
$PUCSORGBOTTOM
 10
0.0
 20
0.0
 30
0.0
  9
$PUCSORGLEFT
 10
0.0
 20
0.0
 30
0.0
  9
$PUCSORGRIGHT
 10
0.0
 20
0.0
 30
0.0
  9
$PUCSORGFRONT
 10
0.0
 20
0.0
 30
0.0
  9
$PUCSORGBACK
 10
0.0
 20
0.0
 30
0.0
  9
$USERI1
 70
     0
  9
$USERI2
 70
     0
  9
$USERI3
 70
     0
  9
$USERI4
 70
     0
  9
$USERI5
 70
     0
  9
$USERR1
 40
0.0
  9
$USERR2
 40
0.0
  9
$USERR3
 40
0.0
  9
$USERR4
 40
0.0
  9
$USERR5
 40
0.0
  9
$WORLDVIEW
 70
     1
  9
$SHADEDGE
 70
     3
  9
$SHADEDIF
 70
    70
  9
$TILEMODE
 70
     1
  9
$MAXACTVP
 70
    64
  9
$PINSBASE
 10
0.0
 20
0.0
 30
0.0
  9
$PLIMCHECK
 70
     0
  9
$PEXTMIN
 10
1.000000000000000E+20
 20
1.000000000000000E+20
 30
1.000000000000000E+20
  9
$PEXTMAX
 10
-1.000000000000000E+20
 20
-1.000000000000000E+20
 30
-1.000000000000000E+20
  9
$PLIMMIN
 10
0.0
 20
0.0
  9
$PLIMMAX
 10
0.0
 20
0.0
  9
$UNITMODE
 70
     0
  9
$VISRETAIN
 70
     1
  9
$PLINEGEN
 70
     0
  9
$PSLTSCALE
 70
     1
  9
$TREEDEPTH
 70
  3020
  9
$CMLSTYLE
  2
Standard
  9
$CMLJUST
 70
     0
  9
$CMLSCALE
 40
20.0
  9
$PROXYGRAPHICS
 70
     1
  9
$MEASUREMENT
 70
     1
  9
$CELWEIGHT
370
    -1
  9
$ENDCAPS
280
     0
  9
$JOINSTYLE
280
     0
  9
$LWDISPLAY
290
     1
  9
$INSUNITS
 70
     4
  9
$HYPERLINKBASE
  1

  9
$STYLESHEET
  1

  9
$XEDIT
290
     1
  9
$CEPSNTYPE
380
     0
  9
$PSTYLEMODE
290
     1
  9
$FINGERPRINTGUID
  2
{22BEEEB4-1FAC-44E5-92E2-0EEFAAB191D8}
  9
$VERSIONGUID
  2
{FAEB1C32-E019-11D5-929B-00C0DF256EC4}
  9
$EXTNAMES
290
     1
  9
$PSVPSCALE
 40
0.0
  9
$OLESTARTUP
290
     0
  0
ENDSEC
  0
SECTION
  2
CLASSES
  0
CLASS
  1
ACDBDICTIONARYWDFLT
  2
AcDbDictionaryWithDefault
  3
ObjectDBX Classes
 90
        0
280
     0
281
     0
  0
CLASS
  1
VISUALSTYLE
  2
AcDbVisualStyle
  3
ObjectDBX Classes
 90
     4095
280
     0
281
     0
  0
CLASS
  1
MATERIAL
  2
AcDbMaterial
  3
ObjectDBX Classes
 90
     1153
280
     0
281
     0
  0
CLASS
  1
SCALE
  2
AcDbScale
  3
ObjectDBX Classes
 90
     1153
280
     0
281
     0
  0
CLASS
  1
SUN
  2
AcDbSun
  3
SCENEOE
 90
     1153
280
     0
281
     0
  0
CLASS
  1
ACDBPLACEHOLDER
  2
AcDbPlaceHolder
  3
ObjectDBX Classes
 90
        0
280
     0
281
     0
  0
CLASS
  1
LAYOUT
  2
AcDbLayout
  3
ObjectDBX Classes
 90
        0
280
     0
281
     0
  0
CLASS
  1
TABLESTYLE
  2
AcDbTableStyle
  3
ObjectDBX Classes
 90
     4095
280
     0
281
     0
  0
CLASS
  1
MLEADERSTYLE
  2
AcDbMLeaderStyle
  3
ACDB_MLEADERSTYLE_CLASS
 90
     4095
280
     0
281
     0
  0
ENDSEC
  0
SECTION
  2
TABLES
  0
TABLE
  2
VPORT
  5
8
330
0
100
AcDbSymbolTable
 70
     1
  0
VPORT
  5
29
330
8
100
AcDbSymbolTableRecord
100
AcDbViewportTableRecord
  2
*Active
 70
     0
 10
0.0
 20
0.0
 11
1.0
 21
1.0
 12
20.14485988007205
 22
0.4723016616400741
 13
0.0
 23
0.0
 14
10.0
 24
10.0
 15
10.0
 25
10.0
 16
0.0
 26
0.0
 36
1.0
 17
0.0
 27
0.0
 37
0.0
 40
102.9059824629217
 41
2.008253094910592
 42
50.0
 43
0.0
 44
0.0
 50
0.0
 51
0.0
 71
    16
 72
  2000
 73
     1
 74
     3
 75
     0
 76
     0
 77
     0
 78
     0
281
     0
 65
     1
110
0.0
120
0.0
130
0.0
111
1.0
121
0.0
131
0.0
112
0.0
122
1.0
132
0.0
 79
     0
146
0.0
  0
ENDTAB
  0
TABLE
  2
LTYPE
  5
5
330
0
100
AcDbSymbolTable
 70
     6
  0
LTYPE
  5
14
330
5
100
AcDbSymbolTableRecord
100
AcDbLinetypeTableRecord
  2
ByBlock
 70
     0
  3

 72
    65
 73
     0
 40
0.0
  0
LTYPE
  5
15
330
5
100
AcDbSymbolTableRecord
100
AcDbLinetypeTableRecord
  2
ByLayer
 70
     0
  3

 72
    65
 73
     0
 40
0.0
  0
LTYPE
  5
16
330
5
100
AcDbSymbolTableRecord
100
AcDbLinetypeTableRecord
  2
Continuous
 70
     0
  3
Solid line
 72
    65
 73
     0
 40
0.0
  0
LTYPE
  5
6A
330
5
100
AcDbSymbolTableRecord
100
AcDbLinetypeTableRecord
  2
HIDDEN
 70
     0
  3
Hidden __ __ __ __ __ __ __ __ __ __ __ __ __ __
 72
    65
 73
     2
 40
1.905
 49
1.27
 74
     0
 49
-0.635
 74
     0
  0
LTYPE
  5
6B
330
5
100
AcDbSymbolTableRecord
100
AcDbLinetypeTableRecord
  2
PHANTOM
 70
     0
  3
Phantom ______  __  __  ______  __  __  ______
 72
    65
 73
     6
 40
12.7
 49
6.35
 74
     0
 49
-1.27
 74
     0
 49
1.27
 74
     0
 49
-1.27
 74
     0
 49
1.27
 74
     0
 49
-1.27
 74
     0
  0
LTYPE
  5
6C
330
5
100
AcDbSymbolTableRecord
100
AcDbLinetypeTableRecord
  2
CENTER
 70
     0
  3
Center ____ _ ____ _ ____ _ ____ _ ____ _ ____
 72
    65
 73
     4
 40
10.16
 49
6.35
 74
     0
 49
-1.27
 74
     0
 49
1.27
 74
     0
 49
-1.27
 74
     0
  0
LTYPE
  5
6D
330
5
100
AcDbSymbolTableRecord
100
AcDbLinetypeTableRecord
  2
CENTERX2
 70
     0
  3
Center (2x) ________  __  ________  __  _____
 72
    65
 73
     4
 40
20.32
 49
12.7
 74
     0
 49
-2.54
 74
     0
 49
2.54
 74
     0
 49
-2.54
 74
     0
  0
LTYPE
  5
6E
330
5
100
AcDbSymbolTableRecord
100
AcDbLinetypeTableRecord
  2
DOT2
 70
     0
  3
Dot (.5x) ........................................
 72
    65
 73
     2
 40
0.635
 49
0.0
 74
     0
 49
-0.635
 74
     0
  0
ENDTAB
  0
TABLE
  2
LAYER
  5
2
330
0
100
AcDbSymbolTable
 70
    18
  0
LAYER
  5
10
330
2
100
AcDbSymbolTableRecord
100
AcDbLayerTableRecord
  2
0
 70
     0
 62
     7
  6
Continuous
370
    -3
390
F
  0
LAYER
  5
6F
330
2
100
AcDbSymbolTableRecord
100
AcDbLayerTableRecord
  2
FORMAT
 70
     0
 62
     2
  6
Continuous
370
    -3
390
F
  0
LAYER
  5
70
330
2
100
AcDbSymbolTableRecord
100
AcDbLayerTableRecord
  2
외형선
 70
     0
 62
     4
  6
Continuous
370
    30
390
F
  0
LAYER
  5
71
330
2
100
AcDbSymbolTableRecord
100
AcDbLayerTableRecord
  2
숨은선
 70
     0
 62
     2
  6
HIDDEN
370
    15
390
F
  0
LAYER
  5
72
330
2
100
AcDbSymbolTableRecord
100
AcDbLayerTableRecord
  2
중심선
 70
     0
 62
     1
  6
CENTERX2
370
    -3
390
F
  0
LAYER
  5
73
330
2
100
AcDbSymbolTableRecord
100
AcDbLayerTableRecord
  2
파단선
 70
     0
 62
     4
  6
Continuous
370
    -3
390
F
  0
LAYER
  5
74
330
2
100
AcDbSymbolTableRecord
100
AcDbLayerTableRecord
  2
해칭선
 70
     0
 62
   100
  6
Continuous
370
    -3
390
F
  0
LAYER
  5
75
330
2
100
AcDbSymbolTableRecord
100
AcDbLayerTableRecord
  2
가는실선
 70
     0
 62
     4
  6
Continuous
370
    -3
390
F
  0
LAYER
  5
76
330
2
100
AcDbSymbolTableRecord
100
AcDbLayerTableRecord
  2
치수_보조선
 70
     0
 62
     4
  6
Continuous
370
    -3
390
F
  0
LAYER
  5
77
330
2
100
AcDbSymbolTableRecord
100
AcDbLayerTableRecord
  2
치수문자_일반주서
 70
     0
 62
     7
  6
Continuous
370
    15
390
F
  0
LAYER
  5
78
330
2
100
AcDbSymbolTableRecord
100
AcDbLayerTableRecord
  2
개별주서
 70
     0
 62
   100
  6
Continuous
370
    30
390
F
  0
LAYER
  5
79
330
2
100
AcDbSymbolTableRecord
100
AcDbLayerTableRecord
  2
중간선
 70
     0
 62
     2
  6
Continuous
370
    15
390
F
  0
LAYER
  5
7A
330
2
100
AcDbSymbolTableRecord
100
AcDbLayerTableRecord
  2
윤곽선
 70
     0
 62
     3
  6
Continuous
370
    40
390
F
  0
LAYER
  5
7B
330
2
100
AcDbSymbolTableRecord
100
AcDbLayerTableRecord
  2
중심마크
 70
     0
 62
   100
  6
Continuous
370
    30
390
F
  0
LAYER
  5
7C
330
2
100
AcDbSymbolTableRecord
100
AcDbLayerTableRecord
  2
가상선
 70
     0
 62
     4
  6
PHANTOM
370
    -3
390
F
  0
LAYER
  5
7D
330
2
100
AcDbSymbolTableRecord
100
AcDbLayerTableRecord
  2
특수지정선
 70
     0
 62
     5
  6
CENTERX2
370
    60
390
F
  0
LAYER
  5
7E
330
2
100
AcDbSymbolTableRecord
100
AcDbLayerTableRecord
  2
참조1
 70
     0
 62
    -4
  6
Continuous
370
    -3
390
F
  0
LAYER
  5
179
330
2
100
AcDbSymbolTableRecord
100
AcDbLayerTableRecord
  2
Defpoints
 70
     0
 62
     7
  6
Continuous
290
     0
370
    -3
390
F
  0
ENDTAB
  0
TABLE
  2
STYLE
  5
3
330
0
100
AcDbSymbolTable
 70
     2
  0
STYLE
  5
11
330
3
100
AcDbSymbolTableRecord
100
AcDbTextStyleTableRecord
  2
Standard
 70
     0
 40
0.0
 41
1.0
 50
0.0
 71
     0
 42
3.5
  3
txt
  4

  0
STYLE
  5
94
330
3
100
AcDbSymbolTableRecord
100
AcDbTextStyleTableRecord
  2
SLDTEXTSTYLE0
 70
     0
 40
0.0
 41
0.75
 50
0.0
 71
     0
 42
3.5
  3
TXT
  4

  0
ENDTAB
  0
TABLE
  2
VIEW
  5
6
330
0
100
AcDbSymbolTable
 70
     0
  0
ENDTAB
  0
TABLE
  2
UCS
  5
7
330
0
100
AcDbSymbolTable
 70
     0
  0
ENDTAB
  0
TABLE
  2
APPID
  5
9
330
0
100
AcDbSymbolTable
 70
     4
  0
APPID
  5
12
330
9
100
AcDbSymbolTableRecord
100
AcDbRegAppTableRecord
  2
ACAD
 70
     0
  0
APPID
  5
17C
330
9
100
AcDbSymbolTableRecord
100
AcDbRegAppTableRecord
  2
PE_URL
 70
     0
  0
APPID
  5
182
330
9
100
AcDbSymbolTableRecord
100
AcDbRegAppTableRecord
  2
ACAD_DSTYLE_DIMFLIPARROW_SYMBOL
 70
     0
  0
APPID
  5
183
330
9
100
AcDbSymbolTableRecord
100
AcDbRegAppTableRecord
  2
ACAD_DSTYLE_DIMFLIPARROW_WHICH_SYMBOL
 70
     0
  0
ENDTAB
  0
TABLE
  2
DIMSTYLE
  5
A
330
0
100
AcDbSymbolTable
 70
     4
100
AcDbDimStyleTable
  0
DIMSTYLE
105
27
330
A
100
AcDbSymbolTableRecord
100
AcDbDimStyleTableRecord
  2
ISO-25
 70
     0
 41
2.5
 42
0.625
 43
3.75
 44
1.25
 73
     0
 74
     0
 77
     1
 78
     8
140
2.5
141
2.5
143
0.03937007874016
147
0.625
171
     3
172
     1
178
     0
271
     2
272
     2
274
     3
278
    44
283
     0
284
     8
340
11
  0
DIMSTYLE
105
F9
102
{ACAD_REACTORS
330
F8
330
10D
330
121
330
135
102
}
330
A
100
AcDbSymbolTableRecord
100
AcDbDimStyleTableRecord
  2
SLDDIMSTYLE0
 70
     0
 41
3.302
 44
0.0
 45
0.000000001
 73
     0
 74
     0
 77
     1
 78
    12
 79
     3
140
3.5
143
0.0393700787401575
147
0.875
148
0.000000001
170
     1
172
     1
173
     1
178
     0
271
     2
272
     2
276
     2
284
    12
289
     0
340
94
  0
DIMSTYLE
105
122
330
A
100
AcDbSymbolTableRecord
100
AcDbDimStyleTableRecord
  2
SLDDIMSTYLE1
 70
     0
 41
3.302
 44
0.0
 45
0.000000001
 73
     0
 74
     0
 77
     1
 78
     4
 79
     1
140
3.5
143
0.0393700787401575
147
0.875
148
0.000000001
170
     1
173
     1
178
     0
271
     2
272
     2
276
     2
284
    12
340
94
  0
DIMSTYLE
105
136
330
A
100
AcDbSymbolTableRecord
100
AcDbDimStyleTableRecord
  2
SLDDIMSTYLE2
 70
     0
 41
3.302
 44
0.0
 45
0.000000001
 73
     0
 74
     0
 77
     1
 78
    12
 79
     3
140
3.5
143
0.0393700787401575
147
0.875
148
0.000000001
170
     1
173
     1
178
     0
271
     2
272
     2
276
     2
284
    12
340
94
  0
ENDTAB
  0
TABLE
  2
BLOCK_RECORD
  5
1
330
0
100
AcDbSymbolTable
 70
     7
  0
BLOCK_RECORD
  5
1F
102
{ACAD_XDICTIONARY
360
1A5
102
}
330
1
100
AcDbSymbolTableRecord
100
AcDbBlockTableRecord
  2
*Model_Space
340
22
  0
BLOCK_RECORD
  5
1B
330
1
100
AcDbSymbolTableRecord
100
AcDbBlockTableRecord
  2
*Paper_Space
340
1E
  0
BLOCK_RECORD
  5
23
330
1
100
AcDbSymbolTableRecord
100
AcDbBlockTableRecord
  2
*Paper_Space0
340
26
  0
BLOCK_RECORD
  5
7F
330
1
100
AcDbSymbolTableRecord
100
AcDbBlockTableRecord
  2
블럭10
340
0
102
{BLKREFS
331
F1
102
}
  0
BLOCK_RECORD
  5
FA
330
1
100
AcDbSymbolTableRecord
100
AcDbBlockTableRecord
  2
_D
340
0
  0
BLOCK_RECORD
  5
10E
330
1
100
AcDbSymbolTableRecord
100
AcDbBlockTableRecord
  2
_D_1
340
0
  0
BLOCK_RECORD
  5
123
330
1
100
AcDbSymbolTableRecord
100
AcDbBlockTableRecord
  2
_D_2
340
0
  0
BLOCK_RECORD
  5
137
330
1
100
AcDbSymbolTableRecord
100
AcDbBlockTableRecord
  2
_D_3
340
0
  0
BLOCK_RECORD
  5
150
330
1
100
AcDbSymbolTableRecord
100
AcDbBlockTableRecord
  2
SW_DOWELSYMBOL_0
340
0
102
{BLKREFS
331
156
102
}
  0
ENDTAB
  0
ENDSEC
  0
SECTION
  2
BLOCKS
  0
BLOCK
  5
20
330
1F
100
AcDbEntity
  8
0
100
AcDbBlockBegin
  2
*Model_Space
 70
     0
 10
0.0
 20
0.0
 30
0.0
  3
*Model_Space
  1

  0
ENDBLK
  5
21
330
1F
100
AcDbEntity
  8
0
100
AcDbBlockEnd
  0
BLOCK
  5
1C
330
1B
100
AcDbEntity
 67
     1
  8
0
100
AcDbBlockBegin
  2
*Paper_Space
 70
     0
 10
0.0
 20
0.0
 30
0.0
  3
*Paper_Space
  1

  0
ENDBLK
  5
1D
330
1B
100
AcDbEntity
 67
     1
  8
0
100
AcDbBlockEnd
  0
BLOCK
  5
24
330
23
100
AcDbEntity
  8
0
100
AcDbBlockBegin
  2
*Paper_Space0
 70
     0
 10
0.0
 20
0.0
 30
0.0
  3
*Paper_Space0
  1

  0
ENDBLK
  5
25
330
23
100
AcDbEntity
  8
0
100
AcDbBlockEnd
  0
BLOCK
  5
80
330
7F
100
AcDbEntity
  8
0
100
AcDbBlockBegin
  2
블럭10
 70
     2
 10
0.0
 20
0.0
 30
0.0
  3
블럭10
  1

  0
ELLIPSE
  5
82
330
7F
100
AcDbEntity
  8
중심선
100
AcDbEllipse
 10
20.54032771741204
 20
12.0471743016438
 30
0.0
 11
6.600054785286829
 21
-1.261213355974178E-13
 31
0.0
210
0.0
220
0.0
230
1.0
 40
0.636358354079598
 41
0.9219305317359503
 42
6.513795318482858
  0
ELLIPSE
  5
83
330
7F
100
AcDbEntity
  8
중심선
100
AcDbEllipse
 10
20.54032771746488
 20
12.04717430159265
 30
0.0
 11
3.960054785062283
 21
1.540847449632565E-10
 31
0.0
210
0.0
220
0.0
230
1.0
 40
0.3939339440162632
 41
1.131841032648279
 42
5.62031148352944
  0
LINE
  5
84
330
7F
100
AcDbEntity
  8
중심선
100
AcDbLine
 10
2.268634060543552
 20
16.24717430164393
 30
0.0
 11
5.714909304380834
 21
16.24717430164393
 31
0.0
  0
LINE
  5
85
330
7F
100
AcDbEntity
  8
중심선
100
AcDbLine
 10
5.245725140726316
 20
7.84717430164391
 30
0.0
 11
8.692000384563599
 21
7.84717430164391
 31
0.0
  0
LINE
  5
86
330
7F
100
AcDbEntity
  8
중심선
100
AcDbLine
 10
15.74043728645272
 20
16.24717430164393
 30
0.0
 11
8.692000384563599
 21
7.84717430164391
 31
0.0
  0
LINE
  5
87
330
7F
100
AcDbEntity
  8
중심선
100
AcDbLine
 10
0.1404042013395286
 20
13.71084872107135
 30
0.0
 11
3.58671253028996
 21
13.71088815037384
 31
0.0
  0
LINE
  5
88
330
7F
100
AcDbEntity
  8
중심선
100
AcDbLine
 10
2.750260043222114
 20
10.84717430164391
 30
0.0
 11
6.196535287059397
 21
10.84717430164391
 31
0.0
  0
LINE
  5
89
330
7F
100
AcDbEntity
  8
중심선
100
AcDbLine
 10
12.29416204261559
 20
16.24717430164393
 30
0.0
 11
5.245725140726316
 21
7.84717430164391
 31
0.0
  0
LINE
  5
8A
330
7F
100
AcDbEntity
  8
중심선
100
AcDbLine
 10
10.72767329541681
 20
16.24717430164393
 30
0.0
 11
6.196535287059397
 21
10.84717430164391
 31
0.0
  0
LINE
  5
8B
330
7F
100
AcDbEntity
  8
중심선
100
AcDbLine
 10
7.28139805157953
 20
16.24717430164393
 30
0.0
 11
2.750260043222114
 21
10.84717430164391
 31
0.0
  0
LINE
  5
8C
330
7F
100
AcDbEntity
  8
중심선
100
AcDbLine
 10
5.714909304380834
 20
16.24717430164393
 30
0.0
 11
3.58671253028996
 21
13.71088815037384
 31
0.0
  0
LINE
  5
8D
330
7F
100
AcDbEntity
  8
중심선
100
AcDbLine
 10
2.268634060543552
 20
16.24717430164393
 30
0.0
 11
0.1404042013395286
 21
13.71084872107135
 31
0.0
  0
LINE
  5
8E
330
7F
100
AcDbEntity
  8
중심선
100
AcDbLine
 10
7.28139805157953
 20
16.24717430164393
 30
0.0
 11
10.72767329541681
 21
16.24717430164393
 31
0.0
  0
LINE
  5
8F
330
7F
100
AcDbEntity
  8
중심선
100
AcDbLine
 10
12.29416204261559
 20
16.24717430164393
 30
0.0
 11
15.74043728645272
 21
16.24717430164393
 31
0.0
  0
LINE
  5
90
330
7F
100
AcDbEntity
  8
중심선
100
AcDbLine
 10
19.22036997980202
 20
11.08717430171403
 30
0.0
 11
23.66174974927406
 21
11.08717430171406
 31
0.0
  0
LINE
  5
91
330
7F
100
AcDbEntity
  8
중심선
100
AcDbLine
 10
19.22039502424796
 20
13.00717430171391
 30
0.0
 11
19.22036997980202
 21
11.08717430171403
 31
0.0
  0
LINE
  5
92
330
7F
100
AcDbEntity
  8
중심선
100
AcDbLine
 10
19.22039502424796
 20
13.00717430171391
 30
0.0
 11
26.96566020931264
 21
13.00717430171391
 31
0.0
  0
LINE
  5
93
330
7F
100
AcDbEntity
  8
중심선
100
AcDbLine
 10
22.22332737316547
 20
13.45928029700563
 30
0.0
 11
24.52862924686651
 21
15.39360700705356
 31
0.0
  0
ATTDEF
  5
95
330
7F
100
AcDbEntity
  8
FORMAT
 62
     2
100
AcDbText
 10
3.448148490846466
 20
2.075366912832191
 30
0.0
 40
4.233333333333333
  1
EM218020
 41
0.75
  7
SLDTEXTSTYLE0
 11
3.448148490846466
 21
-0.0412997538344756
 31
0.0
100
AcDbAttributeDefinition
  3

  2
AUTOATTR0
 70
     0
 74
     1
  0
ENDBLK
  5
81
330
7F
100
AcDbEntity
  8
0
100
AcDbBlockEnd
  0
BLOCK
  5
FB
330
FA
100
AcDbEntity
  8
0
100
AcDbBlockBegin
  2
_D
 70
     0
 10
0.0
 20
0.0
 30
0.0
  3
_D
  1

  0
LINE
  5
FD
330
FA
100
AcDbEntity
  8
치수문자_일반주서
 62
     0
370
    -2
100
AcDbLine
 10
49.16249297239925
 20
3.968750000000008
 30
0.0
 11
66.22573724905196
 21
3.968750000000071
 31
0.0
  0
LINE
  5
FE
330
FA
100
AcDbEntity
  8
치수문자_일반주서
 62
     0
370
    -2
100
AcDbLine
 10
49.16249297239925
 20
-3.968749999999998
 30
0.0
 11
66.22573724905199
 21
-3.968749999999936
 31
0.0
  0
LINE
  5
FF
330
FA
100
AcDbEntity
  8
치수문자_일반주서
 62
     0
370
    -2
100
AcDbLine
 10
66.22573724905196
 20
3.968750000000071
 30
0.0
 11
66.22573724905183
 21
38.57275000000007
 31
0.0
  0
LINE
  5
100
330
FA
100
AcDbEntity
  8
치수문자_일반주서
 62
     0
370
    -2
100
AcDbLine
 10
66.22573724905196
 20
3.968750000000071
 30
0.0
 11
66.22573724905199
 21
-3.968749999999936
 31
0.0
  0
LINE
  5
101
330
FA
100
AcDbEntity
  8
치수문자_일반주서
 62
     0
370
    -2
100
AcDbLine
 10
66.22573724905195
 20
7.270750000000071
 30
0.0
 11
66.22573724905193
 21
10.57275000000007
 31
0.0
  0
LINE
  5
102
330
FA
100
AcDbEntity
  8
치수문자_일반주서
 62
     0
370
    -2
100
AcDbLine
 10
66.225737249052
 20
-7.270749999999936
 30
0.0
 11
66.22573724905202
 21
-10.57274999999994
 31
0.0
  0
SOLID
  5
103
330
FA
100
AcDbEntity
  8
치수문자_일반주서
 62
     0
100
AcDbTrace
 10
65.67540391571862
 20
7.270750000000069
 30
0.0
 11
66.77607058238527
 21
7.270750000000072
 31
0.0
 12
66.22573724905196
 22
3.968750000000071
 32
0.0
 13
66.22573724905196
 23
3.968750000000071
 33
0.0
  0
SOLID
  5
104
330
FA
100
AcDbEntity
  8
치수문자_일반주서
 62
     0
100
AcDbTrace
 10
66.77607058238533
 20
-7.270749999999934
 30
0.0
 11
65.67540391571868
 21
-7.270749999999937
 31
0.0
 12
66.22573724905199
 22
-3.968749999999936
 32
0.0
 13
66.22573724905199
 23
-3.968749999999936
 33
0.0
  0
MTEXT
  5
105
330
FA
100
AcDbEntity
  8
치수문자_일반주서
 62
     0
100
AcDbMText
 10
61.85073724905189
 20
24.57275000000005
 30
0.0
 40
3.5
 41
0.0
 71
     2
 72
     1
  1
\A1;%%c7.94 [5/16]
  7
SLDTEXTSTYLE0
 11
-3.580687802255621E-15
 21
1.0
 31
0.0
 73
     1
 44
1.0
  0
POINT
  5
17A
330
FA
100
AcDbEntity
  8
Defpoints
 62
     0
100
AcDbPoint
 10
49.09999297239925
 20
3.968750000000007
 30
0.0
  0
POINT
  5
17B
330
FA
100
AcDbEntity
  8
Defpoints
 62
     0
100
AcDbPoint
 10
49.09999297239925
 20
-3.968749999999998
 30
0.0
  0
POINT
  5
17F
330
FA
100
AcDbEntity
  8
Defpoints
 62
     0
100
AcDbPoint
 10
66.22573724905199
 20
-3.968749999999934
 30
0.0
  0
ENDBLK
  5
FC
330
FA
100
AcDbEntity
  8
0
100
AcDbBlockEnd
  0
BLOCK
  5
10F
330
10E
100
AcDbEntity
  8
0
100
AcDbBlockBegin
  2
_D_1
 70
     0
 10
0.0
 20
0.0
 30
0.0
  3
_D_1
  1

  0
LINE
  5
111
330
10E
100
AcDbEntity
  8
치수문자_일반주서
 62
     0
370
    -2
100
AcDbLine
 10
-42.24375702760074
 20
3.968749999999998
 30
0.0
 11
-57.08625702760077
 21
3.968749999999942
 31
0.0
  0
LINE
  5
112
330
10E
100
AcDbEntity
  8
치수문자_일반주서
 62
     0
370
    -2
100
AcDbLine
 10
-42.24375702760074
 20
-3.968749999999988
 30
0.0
 11
-57.08625702760074
 21
-3.968750000000044
 31
0.0
  0
LINE
  5
113
330
10E
100
AcDbEntity
  8
치수문자_일반주서
 62
     0
370
    -2
100
AcDbLine
 10
-57.08625702760077
 20
3.968749999999942
 30
0.0
 11
-57.08625702760074
 21
-3.968750000000044
 31
0.0
  0
LINE
  5
114
330
10E
100
AcDbEntity
  8
치수문자_일반주서
 62
     0
370
    -2
100
AcDbLine
 10
-57.08625702760079
 20
7.270749999999942
 30
0.0
 11
-57.0862570276008
 21
10.57274999999994
 31
0.0
  0
LINE
  5
115
330
10E
100
AcDbEntity
  8
치수문자_일반주서
 62
     0
370
    -2
100
AcDbLine
 10
-57.08625702760073
 20
-7.270750000000044
 30
0.0
 11
-57.08625702760072
 21
-10.57275000000004
 31
0.0
  0
SOLID
  5
116
330
10E
100
AcDbEntity
  8
치수문자_일반주서
 62
     0
100
AcDbTrace
 10
-57.63659036093412
 20
7.27074999999994
 30
0.0
 11
-56.53592369426745
 21
7.270749999999944
 31
0.0
 12
-57.08625702760077
 22
3.968749999999942
 32
0.0
 13
-57.08625702760077
 23
3.968749999999942
 33
0.0
  0
SOLID
  5
117
330
10E
100
AcDbEntity
  8
치수문자_일반주서
 62
     0
100
AcDbTrace
 10
-56.5359236942674
 20
-7.270750000000042
 30
0.0
 11
-57.63659036093406
 21
-7.270750000000046
 31
0.0
 12
-57.08625702760074
 22
-3.968750000000044
 32
0.0
 13
-57.08625702760074
 23
-3.968750000000044
 33
0.0
  0
MTEXT
  5
118
330
10E
100
AcDbEntity
  8
치수문자_일반주서
 62
     0
100
AcDbMText
 10
-61.46125702760076
 20
-0.0000000000000193
 30
0.0
 40
3.5
 41
0.0
 71
     2
 72
     1
  1
\A1;%%c7.94 [5/16]
  7
SLDTEXTSTYLE0
 11
-3.580687802255629E-15
 21
1.0
 31
0.0
 73
     1
 44
1.0
  0
POINT
  5
119
330
10E
100
AcDbEntity
  8
Defpoints
 62
     0
100
AcDbPoint
 10
-42.18125702760074
 20
3.968749999999998
 30
0.0
  0
POINT
  5
17D
330
10E
100
AcDbEntity
  8
Defpoints
 62
     0
100
AcDbPoint
 10
-42.18125702760074
 20
-3.968749999999988
 30
0.0
  0
POINT
  5
17E
330
10E
100
AcDbEntity
  8
Defpoints
 62
     0
100
AcDbPoint
 10
-57.08625702760074
 20
-3.968750000000044
 30
0.0
  0
ENDBLK
  5
110
330
10E
100
AcDbEntity
  8
0
100
AcDbBlockEnd
  0
BLOCK
  5
124
330
123
100
AcDbEntity
  8
0
100
AcDbBlockBegin
  2
_D_2
 70
     0
 10
0.0
 20
0.0
 30
0.0
  3
_D_2
  1

  0
LINE
  5
126
330
123
100
AcDbEntity
  8
치수문자_일반주서
 62
     0
370
    -2
100
AcDbLine
 10
49.09999297239925
 20
4.002288248901598
 30
0.0
 11
49.09999297239925
 21
26.24059948049674
 31
0.0
  0
LINE
  5
127
330
123
100
AcDbEntity
  8
치수문자_일반주서
 62
     0
370
    -2
100
AcDbLine
 10
10.99999297239927
 20
4.02541459505526
 30
0.0
 11
10.99999297239927
 21
26.24059948049674
 31
0.0
  0
LINE
  5
128
330
123
100
AcDbEntity
  8
치수문자_일반주서
 62
     0
370
    -2
100
AcDbLine
 10
45.79799297239925
 20
26.24059948049674
 30
0.0
 11
14.30199297239927
 21
26.24059948049674
 31
0.0
  0
SOLID
  5
129
330
123
100
AcDbEntity
  8
치수문자_일반주서
 62
     0
100
AcDbTrace
 10
45.79799297239925
 20
25.69026614716341
 30
0.0
 11
45.79799297239925
 21
26.79093281383008
 31
0.0
 12
49.09999297239925
 22
26.24059948049674
 32
0.0
 13
49.09999297239925
 23
26.24059948049674
 33
0.0
  0
SOLID
  5
12A
330
123
100
AcDbEntity
  8
치수문자_일반주서
 62
     0
100
AcDbTrace
 10
14.30199297239927
 20
26.79093281383008
 30
0.0
 11
14.30199297239927
 21
25.69026614716341
 31
0.0
 12
10.99999297239927
 22
26.24059948049674
 32
0.0
 13
10.99999297239927
 23
26.24059948049674
 33
0.0
  0
MTEXT
  5
12B
330
123
100
AcDbEntity
  8
치수문자_일반주서
 62
     0
100
AcDbMText
 10
30.04999297239926
 20
30.61559948049674
 30
0.0
 40
3.5
 41
0.0
 71
     2
 72
     1
  1
\A1;38.1 [1 1/2]
  7
SLDTEXTSTYLE0
 73
     1
 44
1.0
  0
POINT
  5
12C
330
123
100
AcDbEntity
  8
Defpoints
 62
     0
100
AcDbPoint
 10
49.09999297239925
 20
3.939788248901598
 30
0.0
  0
POINT
  5
12D
330
123
100
AcDbEntity
  8
Defpoints
 62
     0
100
AcDbPoint
 10
10.99999297239927
 20
3.96291459505526
 30
0.0
  0
POINT
  5
12E
330
123
100
AcDbEntity
  8
Defpoints
 62
     0
100
AcDbPoint
 10
10.99999297239927
 20
26.24059948049674
 30
0.0
  0
ENDBLK
  5
125
330
123
100
AcDbEntity
  8
0
100
AcDbBlockEnd
  0
BLOCK
  5
138
330
137
100
AcDbEntity
  8
0
100
AcDbBlockBegin
  2
_D_3
 70
     0
 10
0.0
 20
0.0
 30
0.0
  3
_D_3
  1

  0
LINE
  5
13A
330
137
100
AcDbEntity
  8
치수문자_일반주서
 62
     0
370
    -2
100
AcDbLine
 10
49.09999297239925
 20
4.002288248901598
 30
0.0
 11
49.09999297239925
 21
46.54141071209188
 31
0.0
  0
LINE
  5
13B
330
137
100
AcDbEntity
  8
치수문자_일반주서
 62
     0
370
    -2
100
AcDbLine
 10
-42.97500702760075
 20
3.237500000000009
 30
0.0
 11
-42.97500702760075
 21
46.54141071209188
 31
0.0
  0
LINE
  5
13C
330
137
100
AcDbEntity
  8
치수문자_일반주서
 62
     0
370
    -2
100
AcDbLine
 10
45.79799297239925
 20
46.54141071209188
 30
0.0
 11
-39.67300702760075
 21
46.54141071209188
 31
0.0
  0
SOLID
  5
13D
330
137
100
AcDbEntity
  8
치수문자_일반주서
 62
     0
100
AcDbTrace
 10
45.79799297239925
 20
45.99107737875855
 30
0.0
 11
45.79799297239925
 21
47.09174404542522
 31
0.0
 12
49.09999297239925
 22
46.54141071209188
 32
0.0
 13
49.09999297239925
 23
46.54141071209188
 33
0.0
  0
SOLID
  5
13E
330
137
100
AcDbEntity
  8
치수문자_일반주서
 62
     0
100
AcDbTrace
 10
-39.67300702760075
 20
47.09174404542522
 30
0.0
 11
-39.67300702760075
 21
45.99107737875855
 31
0.0
 12
-42.97500702760075
 22
46.54141071209188
 32
0.0
 13
-42.97500702760075
 23
46.54141071209188
 33
0.0
  0
MTEXT
  5
13F
330
137
100
AcDbEntity
  8
치수문자_일반주서
 62
     0
100
AcDbMText
 10
3.06249297239925
 20
50.91641071209188
 30
0.0
 40
3.5
 41
0.0
 71
     2
 72
     1
  1
\A1;92.08 [3 5/8]
  7
SLDTEXTSTYLE0
 73
     1
 44
1.0
  0
POINT
  5
140
330
137
100
AcDbEntity
  8
Defpoints
 62
     0
100
AcDbPoint
 10
49.09999297239925
 20
3.939788248901598
 30
0.0
  0
POINT
  5
141
330
137
100
AcDbEntity
  8
Defpoints
 62
     0
100
AcDbPoint
 10
-42.97500702760075
 20
3.175000000000009
 30
0.0
  0
POINT
  5
142
330
137
100
AcDbEntity
  8
Defpoints
 62
     0
100
AcDbPoint
 10
-42.97500702760075
 20
46.54141071209188
 30
0.0
  0
ENDBLK
  5
139
330
137
100
AcDbEntity
  8
0
100
AcDbBlockEnd
  0
BLOCK
  5
151
330
150
100
AcDbEntity
  8
0
100
AcDbBlockBegin
  2
SW_DOWELSYMBOL_0
 70
     0
 10
0.0
 20
0.0
 30
0.0
  3
SW_DOWELSYMBOL_0
  1

  0
CIRCLE
  5
153
330
150
100
AcDbEntity
  8
해칭선
 62
     0
100
AcDbCircle
 10
0.0
 20
0.0
 30
0.0
 40
3.000000000000002
  0
HATCH
  5
154
330
150
100
AcDbEntity
  8
0
  6
Continuous
 62
     0
370
     0
100
AcDbHatch
 10
0.0
 20
0.0
 30
0.0
210
0.0
220
0.0
230
1.0
  2
SOLID
 70
     1
 71
     0
 91
        1
 92
        0
 93
        3
 72
     2
 10
0.0
 20
0.0
 40
3.000000000000002
 50
0.0
 51
90.0
 73
     1
 72
     1
 10
0.0
 20
3.000000000000002
 11
0.0
 21
0.0
 72
     1
 10
0.0
 20
0.0
 11
3.000000000000002
 21
0.0
 97
        0
 75
     0
 76
     1
 98
        1
 10
0.0
 20
0.0
  0
HATCH
  5
155
330
150
100
AcDbEntity
  8
0
  6
Continuous
 62
     0
370
     0
100
AcDbHatch
 10
0.0
 20
0.0
 30
0.0
210
0.0
220
0.0
230
1.0
  2
SOLID
 70
     1
 71
     0
 91
        1
 92
        0
 93
        3
 72
     2
 10
0.0
 20
0.0
 40
3.000000000000002
 50
180.0
 51
270.0000000000007
 73
     1
 72
     1
 10
0.0
 20
-3.000000000000002
 11
0.0
 21
0.0
 72
     1
 10
0.0
 20
0.0
 11
-3.000000000000003
 21
0.0
 97
        0
 75
     0
 76
     1
 98
        1
 10
0.0
 20
0.0
  0
ENDBLK
  5
152
330
150
100
AcDbEntity
  8
0
100
AcDbBlockEnd
  0
ENDSEC
  0
SECTION
  2
ENTITIES
  0
LINE
  5
96
330
1F
100
AcDbEntity
  8
외형선
  6
Continuous
370
    15
100
AcDbLine
 10
12.54367846986953
 20
0.7466939292136828
 30
0.0
 11
12.49521649875439
 21
0.7937369643656328
 31
0.0
  0
LINE
  5
97
330
1F
100
AcDbEntity
  8
외형선
  6
Continuous
 62
     1
370
    15
100
AcDbLine
 10
35.7848003314936
 20
-0.7480735318361059
 30
0.0
 11
35.83185867572459
 21
-0.7936123532412562
 31
0.0
  0
LINE
  5
98
330
1F
100
AcDbEntity
  8
외형선
  6
Continuous
 62
     1
370
    15
100
AcDbLine
 10
48.19735227019099
 20
-0.6937124364353823
 30
0.0
 11
48.30018586119379
 21
-0.7937408250645936
 31
0.0
  0
LINE
  5
99
330
1F
100
AcDbEntity
  8
외형선
  6
Continuous
 62
     1
370
    15
100
AcDbLine
 10
23.31574013069076
 20
-0.74717787478552
 30
0.0
 11
23.36352161238045
 21
-0.7934742181226726
 31
0.0
  0
LINE
  5
9A
330
1F
100
AcDbEntity
  8
외형선
  6
Continuous
 62
     1
370
    15
100
AcDbLine
 10
16.76355081043657
 20
0.6847401912329459
 30
0.0
 11
16.65013446626494
 21
0.793762451565203
 31
0.0
  0
LINE
  5
9B
330
1F
100
AcDbEntity
  8
외형선
  6
Continuous
 62
     1
370
    15
100
AcDbLine
 10
41.64029847769331
 20
0.7423212215880493
 30
0.0
 11
41.58636951285455
 21
0.7939155091207669
 31
0.0
  0
LINE
  5
9C
330
1F
100
AcDbEntity
  8
외형선
  6
Continuous
 62
     1
370
    15
100
AcDbLine
 10
39.94244318534566
 20
-0.7486453047880818
 30
0.0
 11
39.98900060791004
 21
-0.793764369448051
 31
0.0
  0
LINE
  5
9D
330
1F
100
AcDbEntity
  8
외형선
  6
Continuous
 62
     1
370
    15
100
AcDbLine
 10
36.15317962320077
 20
-3.968749999999998
 30
0.0
 11
37.11259164449805
 21
-3.968749999999998
 31
0.0
  0
LINE
  5
9E
330
1F
100
AcDbEntity
  8
외형선
  6
Continuous
370
    15
100
AcDbLine
 10
11.21470046665834
 20
-3.968749999999998
 30
0.0
 11
12.17399769566836
 21
-3.968749999999998
 31
0.0
  0
LINE
  5
9F
330
1F
100
AcDbEntity
  8
외형선
  6
Continuous
 62
     1
370
    15
100
AcDbLine
 10
24.64322793626393
 20
3.968750000000008
 30
0.0
 11
23.68414748269297
 21
3.968750000000008
 31
0.0
  0
LINE
  5
A0
330
1F
100
AcDbEntity
  8
외형선
  6
Continuous
 62
     1
370
    15
100
AcDbLine
 10
49.09999297239925
 20
3.968750000000008
 30
0.0
 11
48.61993664346213
 21
3.968750000000008
 31
0.0
  0
LINE
  5
A1
330
1F
100
AcDbEntity
  8
외형선
  6
Continuous
 62
     1
370
    15
100
AcDbLine
 10
27.83945069278337
 20
-3.968749999999998
 30
0.0
 11
28.79956896443228
 21
-3.968749999999998
 31
0.0
  0
LINE
  5
A2
330
1F
100
AcDbEntity
  8
외형선
  6
Continuous
 62
     1
370
    15
100
AcDbLine
 10
16.3315577099751
 20
3.968750000000008
 30
0.0
 11
15.37237211245126
 21
3.968750000000008
 31
0.0
  0
LINE
  5
A3
330
1F
100
AcDbEntity
  8
외형선
  6
Continuous
 62
     1
370
    15
100
AcDbLine
 10
41.26711555288216
 20
3.968750000000008
 30
0.0
 11
40.30734597845164
 21
3.968750000000008
 31
0.0
  0
LINE
  5
A4
330
1F
100
AcDbEntity
  8
외형선
  6
Continuous
 62
     1
370
    15
100
AcDbLine
 10
48.61993664346213
 20
-3.968749999999998
 30
0.0
 11
49.09999297239925
 21
-3.968749999999998
 31
0.0
  0
LINE
  5
A5
330
1F
100
AcDbEntity
  8
외형선
  6
Continuous
 62
     1
370
    15
100
AcDbLine
 10
23.68414748269297
 20
-3.968749999999998
 30
0.0
 11
24.64322793626396
 21
-3.968749999999998
 31
0.0
  0
LINE
  5
A6
330
1F
100
AcDbEntity
  8
외형선
  6
Continuous
 62
     1
370
    15
100
AcDbLine
 10
12.1739976956684
 20
3.968750000000008
 30
0.0
 11
11.21470046665834
 21
3.968750000000008
 31
0.0
1001
PE_URL
1000

  0
LINE
  5
A7
330
1F
100
AcDbEntity
  8
외형선
  6
Continuous
 62
     1
370
    15
100
AcDbLine
 10
37.1125916444981
 20
3.968750000000008
 30
0.0
 11
36.15317962320077
 21
3.968750000000008
 31
0.0
  0
LINE
  5
A8
330
1F
100
AcDbEntity
  8
외형선
  6
Continuous
 62
     1
370
    15
100
AcDbLine
 10
44.46422796451656
 20
-3.968749999999998
 30
0.0
 11
45.42328133712063
 21
-3.968749999999998
 31
0.0
  0
LINE
  5
A9
330
1F
100
AcDbEntity
  8
외형선
  6
Continuous
 62
     1
370
    15
100
AcDbLine
 10
19.52758709764582
 20
-3.968749999999998
 30
0.0
 11
20.48761626266456
 21
-3.968749999999998
 31
0.0
  0
LINE
  5
AA
330
1F
100
AcDbEntity
  8
외형선
  6
Continuous
 62
     1
370
    15
100
AcDbLine
 10
32.95480061335955
 20
3.968750000000008
 30
0.0
 11
31.9956595230684
 21
3.968750000000008
 31
0.0
  0
LINE
  5
AB
330
1F
100
AcDbEntity
  8
외형선
  6
Continuous
 62
     1
370
    15
100
AcDbLine
 10
40.30734597845161
 20
-3.968749999999998
 30
0.0
 11
41.26711555288213
 21
-3.968749999999998
 31
0.0
  0
LINE
  5
AC
330
1F
100
AcDbEntity
  8
외형선
  6
Continuous
 62
     1
370
    15
100
AcDbLine
 10
15.37237211245123
 20
-3.968749999999998
 30
0.0
 11
16.33155770997508
 21
-3.968749999999998
 31
0.0
  0
LINE
  5
AD
330
1F
100
AcDbEntity
  8
외형선
  6
Continuous
 62
     1
370
    15
100
AcDbLine
 10
28.79956896443225
 20
3.968750000000008
 30
0.0
 11
27.83945069278334
 21
3.968750000000008
 31
0.0
  0
LINE
  5
AE
330
1F
100
AcDbEntity
  8
외형선
  6
Continuous
 62
     1
370
    15
100
AcDbLine
 10
31.99565952306844
 20
-3.968749999999998
 30
0.0
 11
32.95480061335955
 21
-3.968749999999998
 31
0.0
  0
LINE
  5
AF
330
1F
100
AcDbEntity
  8
외형선
  6
Continuous
 62
     1
370
    15
100
AcDbLine
 10
20.48761626266456
 20
3.968750000000008
 30
0.0
 11
19.52758709764586
 21
3.968750000000008
 31
0.0
  0
LINE
  5
B0
330
1F
100
AcDbEntity
  8
외형선
  6
Continuous
 62
     1
370
    15
100
AcDbLine
 10
45.42328133712063
 20
3.968750000000008
 30
0.0
 11
44.46422796451659
 21
3.968750000000008
 31
0.0
  0
LINE
  5
B1
330
1F
100
AcDbEntity
  8
외형선
  6
Continuous
370
    15
100
AcDbLine
 10
-42.18125702760075
 20
-3.968749999999995
 30
0.0
 11
10.0
 21
-3.968749999999995
 31
0.0
  0
LINE
  5
B2
330
1F
100
AcDbEntity
  8
외형선
  6
Continuous
370
    15
100
AcDbLine
 10
10.0
 20
3.968750000000005
 30
0.0
 11
-42.18125702760075
 21
3.968750000000005
 31
0.0
  0
LINE
  5
B3
330
1F
100
AcDbEntity
  8
외형선
  6
Continuous
370
    15
100
AcDbLine
 10
-42.18125702760075
 20
3.968750000000006
 30
0.0
 11
-42.97500702760075
 21
3.175000000000009
 31
0.0
  0
LINE
  5
B4
330
1F
100
AcDbEntity
  8
외형선
  6
Continuous
370
    15
100
AcDbLine
 10
-42.97500702760075
 20
-3.174999999999999
 30
0.0
 11
-42.18125702760075
 21
-3.968749999999996
 31
0.0
  0
SPLINE
  5
B5
330
1F
100
AcDbEntity
  8
외형선
  6
Continuous
 62
     1
370
    15
100
AcDbSpline
210
0.0
220
0.0
230
1.0
 70
     8
 71
     3
 72
    15
 73
    11
 74
     0
 42
0.000000001
 43
0.00000001
 40
0.0
 40
0.0
 40
0.0
 40
0.0
 40
0.1401768713900742
 40
0.2804234240174514
 40
0.4207667625306822
 40
0.5610544552334074
 40
0.7020905785909016
 40
0.8430813597170785
 40
0.9840617177247326
 40
1.0
 40
1.0
 40
1.0
 40
1.0
 10
10.99999297239926
 20
-0.895502284535585
 30
0.0
 10
11.32372818906564
 20
-1.2058248105536
 30
0.0
 10
11.97135954959153
 20
-1.826624122399837
 30
0.0
 10
12.94334037967627
 20
-2.634480707400078
 30
0.0
 10
13.91610904585397
 20
-3.289223866006467
 30
0.0
 10
14.89035363681598
 20
-3.746216177674463
 30
0.0
 10
15.86579964646906
 20
-3.985114014415126
 30
0.0
 10
16.84270492924659
 20
-3.962247483754269
 30
0.0
 10
17.5306447419764
 20
-3.834619345835292
 30
0.0
 10
17.89306067459188
 20
-3.658117231590976
 30
0.0
 10
17.92987139016185
 20
-3.64018984887892
 30
0.0
  0
SPLINE
  5
B6
330
1F
100
AcDbEntity
  8
외형선
  6
Continuous
 62
     1
370
    15
100
AcDbSpline
210
0.0
220
0.0
230
1.0
 70
     8
 71
     3
 72
    22
 73
    18
 74
     0
 42
0.000000001
 43
0.00000001
 40
0.0
 40
0.0
 40
0.0
 40
0.0
 40
0.0534219588208912
 40
0.1228923311598449
 40
0.1923483647391635
 40
0.2618072935810949
 40
0.3312863320742042
 40
0.4008025584718899
 40
0.4703551689237067
 40
0.5398683019651196
 40
0.6093454124084546
 40
0.678803591541534
 40
0.7482600588361202
 40
0.8177320453727575
 40
0.8872366770973663
 40
0.9567864513500046
 40
1.0
 40
1.0
 40
1.0
 40
1.0
 10
28.79956896443227
 20
3.947390101513613
 30
0.0
 10
29.05008204203488
 20
3.942236202160636
 30
0.0
 10
29.62636446918859
 20
3.930380127991322
 30
0.0
 10
30.52805718201208
 20
3.630144203831771
 30
0.0
 10
31.50486344090335
 20
3.114308107176916
 30
0.0
 10
32.48171993615325
 20
2.40291266264055
 30
0.0
 10
33.4590075064838
 20
1.548444305142666
 30
0.0
 10
34.43697999534523
 20
0.599764761340305
 30
0.0
 10
35.41555100679692
 20
-0.3847067815911425
 30
0.0
 10
36.39347040724552
 20
-1.346277353534364
 30
0.0
 10
37.37071867053059
 20
-2.226310360171275
 30
0.0
 10
38.34756165793743
 20
-2.972071372564442
 30
0.0
 10
39.32436646405863
 20
-3.537825013591549
 30
0.0
 10
40.30151282612371
 20
-3.892650213788504
 30
0.0
 10
41.27927246536297
 20
-4.003209114320282
 30
0.0
 10
42.13439167184225
 20
-3.919086038149877
 30
0.0
 10
42.66321431666613
 20
-3.706639743237714
 30
0.0
 10
42.86587155042863
 20
-3.62522534301979
 30
0.0
  0
SPLINE
  5
B7
330
1F
100
AcDbEntity
  8
외형선
  6
Continuous
370
    15
100
AcDbSpline
210
0.0
220
0.0
230
1.0
 70
    24
 71
     3
 72
    24
 73
    20
 74
     0
 42
0.000000001
 43
0.00000001
 40
0.0
 40
0.0
 40
0.0
 40
0.0
 40
0.1249999999999994
 40
0.1249999999999994
 40
0.1874999999999994
 40
0.1874999999999994
 40
0.2499999999999993
 40
0.2499999999999993
 40
0.3749999999999994
 40
0.3749999999999994
 40
0.4999999999999996
 40
0.4999999999999996
 40
0.6249999999999997
 40
0.6249999999999997
 40
0.7499999999999998
 40
0.7499999999999998
 40
0.8749999999999999
 40
0.8749999999999999
 40
1.0
 40
1.0
 40
1.0
 40
1.0
 10
10.99999297239926
 20
2.167772503828075
 30
0.0
 10
10.99999297239924
 20
2.112388461895796
 30
0.0
 10
10.99999297239926
 20
2.043271780766678
 30
0.0
 10
10.99999297239926
 20
1.935069379990344
 30
0.0
 10
10.99999297239924
 20
1.899543295514259
 30
0.0
 10
10.99999297239924
 20
1.818479919013403
 30
0.0
 10
10.99999297239926
 20
1.773268199265924
 30
0.0
 10
10.99999297239927
 20
1.621343389740937
 30
0.0
 10
10.99999297239924
 20
1.497949711880364
 30
0.0
 10
10.99999297239925
 20
1.200019933110281
 30
0.0
 10
10.99999297239923
 20
1.024868022327487
 30
0.0
 10
10.99999297239924
 20
0.635892248390754
 30
0.0
 10
10.99999297239925
 20
0.4220277418536736
 30
0.0
 10
10.99999297239924
 20
0.0022846628309716
 30
0.0
 10
10.99999297239925
 20
-0.2021119086293664
 30
0.0
 10
10.99999297239924
 20
-0.54180230153045
 30
0.0
 10
10.99999297239926
 20
-0.675827288278507
 30
0.0
 10
10.99999297239926
 20
-0.849825102271271
 30
0.0
 10
10.99999297239926
 20
-0.8905098764634015
 30
0.0
 10
10.99999297239926
 20
-0.8955022845355822
 30
0.0
  0
SPLINE
  5
B8
330
1F
100
AcDbEntity
  8
외형선
  6
Continuous
 62
     1
370
    15
100
AcDbSpline
210
0.0
220
0.0
230
1.0
 70
     8
 71
     3
 72
    23
 73
    19
 74
     0
 42
0.000000001
 43
0.00000001
 40
0.0
 40
0.0
 40
0.0
 40
0.0
 40
0.0178331731058825
 40
0.0873155696885996
 40
0.1568385169221582
 40
0.2263856162344348
 40
0.2958875747548989
 40
0.3653568893429541
 40
0.4348106852858367
 40
0.5042661930013774
 40
0.5737406312990583
 40
0.6432510908093589
 40
0.7128010262117315
 40
0.7823145789593309
 40
0.8517909452326331
 40
0.9212472026281895
 40
0.9907005648724879
 40
1.0
 40
1.0
 40
1.0
 40
1.0
 10
44.46422796451656
 20
-3.945838032608159
 30
0.0
 10
44.38062839885661
 20
-3.952679311577461
 30
0.0
 10
43.97130451364684
 20
-3.986175883783456
 30
0.0
 10
43.23593154994032
 20
-3.806498625856825
 30
0.0
 10
42.2578072502077
 20
-3.408349764214917
 30
0.0
 10
41.27928018425551
 20
-2.785656543561248
 30
0.0
 10
40.3015107595557
 20
-1.999693869280828
 30
0.0
 10
39.32436701728671
 20
-1.091868519151417
 30
0.0
 10
38.34756151067706
 20
-0.1186193282902291
 30
0.0
 10
37.37071870639799
 20
0.86188801212017
 30
0.0
 10
36.39347041108029
 20
1.790516655944033
 30
0.0
 10
35.41555095552447
 20
2.611135565655543
 30
0.0
 10
34.43698019667765
 20
3.274325793489423
 30
0.0
 10
33.4590067530735
 20
3.73851192136271
 30
0.0
 10
32.48172274665531
 20
3.982522294605782
 30
0.0
 10
31.5048529551422
 20
3.965291708289724
 30
0.0
 10
30.81013158171877
 20
3.83832480358998
 30
0.0
 10
30.4409182167186
 20
3.659564175362659
 30
0.0
 10
30.39732007353368
 20
3.638455428485964
 30
0.0
  0
SPLINE
  5
B9
330
1F
100
AcDbEntity
  8
외형선
  6
Continuous
 62
     1
370
    15
100
AcDbSpline
210
0.0
220
0.0
230
1.0
 70
     8
 71
     3
 72
    16
 73
    12
 74
     0
 42
0.000000001
 43
0.00000001
 40
0.0
 40
0.0
 40
0.0
 40
0.0
 40
0.0857365590999203
 40
0.2003214581289415
 40
0.3148863935322677
 40
0.4294597990793599
 40
0.5440700511054595
 40
0.6580721055724851
 40
0.7721193795209773
 40
0.8860880023089993
 40
1.0
 40
1.0
 40
1.0
 40
1.0
 10
19.52758709764585
 20
-3.946102510041243
 30
0.0
 10
19.28385438657826
 20
-3.942173175644126
 30
0.0
 10
18.71437862749315
 20
-3.932992378045413
 30
0.0
 10
17.81948818065935
 20
-3.638535952989269
 30
0.0
 10
16.84269516208708
 20
-3.127238059537766
 30
0.0
 10
15.86580226504761
 20
-2.419230898626983
 30
0.0
 10
14.89035293924429
 20
-1.569059144816269
 30
0.0
 10
13.91610923237006
 20
-0.6252682450180415
 30
0.0
 10
12.94334032996779
 20
0.3510918617033024
 30
0.0
 10
11.97135956200791
 20
1.316096711647119
 30
0.0
 10
11.32372819320376
 20
1.88392760573799
 30
0.0
 10
10.99999297239929
 20
2.167772503828008
 30
0.0
  0
LINE
  5
BA
330
1F
100
AcDbEntity
  8
외형선
  6
Continuous
 62
     1
370
    15
100
AcDbLine
 10
49.09999297239925
 20
-1.555425986667277
 30
0.0
 11
49.09999297239925
 21
1.555425986667361
 31
0.0
  0
SPLINE
  5
BB
330
1F
100
AcDbEntity
  8
외형선
  6
Continuous
 62
     1
370
    15
100
AcDbSpline
210
0.0
220
0.0
230
1.0
 70
     8
 71
     3
 72
    22
 73
    18
 74
     0
 42
0.000000001
 43
0.00000001
 40
0.0
 40
0.0
 40
0.0
 40
0.0
 40
0.036348866948374
 40
0.1058073306966236
 40
0.1752778979979069
 40
0.2447777256577898
 40
0.3143234818897444
 40
0.3838621913614914
 40
0.4533569931757057
 40
0.5228248803413212
 40
0.5922830278150419
 40
0.661748676576692
 40
0.7312390167480839
 40
0.8007710714488174
 40
0.8703219178099787
 40
0.9398267965788023
 40
1.0
 40
1.0
 40
1.0
 40
1.0
 10
16.3315577099751
 20
3.938772307557229
 30
0.0
 10
16.50194499415857
 20
3.944016654121496
 30
0.0
 10
16.99792259229681
 20
3.959282337973522
 30
0.0
 10
17.81947751430014
 20
3.722792634840741
 30
0.0
 10
18.79653041255155
 20
3.261727033120629
 30
0.0
 10
19.77415683209745
 20
2.591636180779606
 30
0.0
 10
20.75256834430382
 20
1.768406016680186
 30
0.0
 10
21.73086541781947
 20
0.837508179245218
 30
0.0
 10
22.70839869195477
 20
-0.1437470284313349
 30
0.0
 10
23.68538848454292
 20
-1.116182061411381
 30
0.0
 10
24.66216546211089
 20
-2.021160723854646
 30
0.0
 10
25.63910580966856
 20
-2.804344495452609
 30
0.0
 10
26.6165538887185
 20
-3.417993684075494
 30
0.0
 10
27.59474255470182
 20
-3.826873789810655
 30
0.0
 10
28.57323339501297
 20
-3.998886315912289
 30
0.0
 10
29.50735728649305
 20
-3.95331718797895
 30
0.0
 10
30.11524712549183
 20
-3.738250595226762
 30
0.0
 10
30.39732007353372
 20
-3.638455428485955
 30
0.0
  0
SPLINE
  5
BC
330
1F
100
AcDbEntity
  8
외형선
  6
Continuous
 62
     1
370
    15
100
AcDbSpline
210
0.0
220
0.0
230
1.0
 70
     8
 71
     3
 72
    16
 73
    12
 74
     0
 42
0.000000001
 43
0.00000001
 40
0.0
 40
0.0
 40
0.0
 40
0.0
 40
0.001536678258748
 40
0.1264391529789467
 40
0.2512982519950376
 40
0.3760845244419157
 40
0.5008285675002119
 40
0.6255612640430445
 40
0.7503135738772699
 40
0.8751163238698669
 40
1.0
 40
1.0
 40
1.0
 40
1.0
 10
41.26711555288217
 20
3.967293112855492
 30
0.0
 10
41.27112796456237
 20
3.967778051144921
 30
0.0
 10
41.60127250286086
 20
4.007679173070382
 30
0.0
 10
42.2578358264935
 20
3.866915912753068
 30
0.0
 10
43.23592914694821
 20
3.531312057056911
 30
0.0
 10
44.21334443767652
 20
2.953677611709627
 30
0.0
 10
45.19025853163067
 20
2.205757187280347
 30
0.0
 10
46.16703862878975
 20
1.32222810203858
 30
0.0
 10
47.14405705523912
 20
0.3612083143346286
 30
0.0
 10
48.12163696431077
 20
-0.6287248908662657
 30
0.0
 10
48.77380384486548
 20
-1.246458883256214
 30
0.0
 10
49.09999297239926
 20
-1.555425986667277
 30
0.0
  0
SPLINE
  5
BD
330
1F
100
AcDbEntity
  8
외형선
  6
Continuous
 62
     1
370
    15
100
AcDbSpline
210
0.0
220
0.0
230
1.0
 70
     8
 71
     3
 72
    14
 73
    10
 74
     0
 42
0.000000001
 43
0.00000001
 40
0.0
 40
0.0
 40
0.0
 40
0.0
 40
0.1568979386394234
 40
0.313694205510722
 40
0.4704271017549041
 40
0.6271353567882824
 40
0.7838578670465421
 40
0.9406334323094534
 40
1.0
 40
1.0
 40
1.0
 40
1.0
 10
49.09999297239929
 20
1.555425986667361
 30
0.0
 10
48.7738038216425
 20
1.846125030486781
 30
0.0
 10
48.12163689465676
 20
2.427334741617723
 30
0.0
 10
47.14405733359771
 20
3.127860925685261
 30
0.0
 10
46.16703758546277
 20
3.645178726777369
 30
0.0
 10
45.19026242624434
 20
3.944475653632468
 30
0.0
 10
44.21332989877824
 20
3.992229177481276
 30
0.0
 10
43.43857448002218
 20
3.880510428830151
 30
0.0
 10
42.98927747973983
 20
3.680234129645127
 30
0.0
 10
42.86587155042866
 20
3.6252253430198
 30
0.0
  0
SPLINE
  5
BE
330
1F
100
AcDbEntity
  8
외형선
  6
Continuous
 62
     1
370
    15
100
AcDbSpline
210
0.0
220
0.0
230
1.0
 70
     8
 71
     3
 72
    22
 73
    18
 74
     0
 42
0.000000001
 43
0.00000001
 40
0.0
 40
0.0
 40
0.0
 40
0.0
 40
0.0349021964109973
 40
0.1043611419101387
 40
0.1738344267700625
 40
0.2433391885790918
 40
0.3128899179031053
 40
0.3824218555983147
 40
0.4519120788343762
 40
0.5213776107022469
 40
0.5908356412948106
 40
0.6603034115628793
 40
0.729798096434255
 40
0.7993366888892779
 40
0.8688823280926516
 40
0.9383820388012396
 40
1.0
 40
1.0
 40
1.0
 40
1.0
 10
31.99565952306846
 20
-3.93870837937415
 30
0.0
 10
31.83205566606129
 20
-3.94443050785311
 30
0.0
 10
31.34286337749831
 20
-3.961540258058766
 30
0.0
 10
30.5280678541578
 20
-3.729970943480811
 30
0.0
 10
29.55095463091233
 20
-3.273675156659918
 30
0.0
 10
28.57323566367734
 20
-2.607171931166446
 30
0.0
 10
27.59474194686302
 20
-1.7867726873948
 30
0.0
 10
26.61655405128536
 20
-0.8574775692422465
 30
0.0
 10
25.63910576679952
 20
0.1232854922859982
 30
0.0
 10
24.6621654711231
 20
1.096491072325893
 30
0.0
 10
23.68538849135057
 20
2.003442977290544
 30
0.0
 10
22.70839865569902
 20
2.78967639325657
 30
0.0
 10
21.73086555612894
 20
3.407284866775662
 30
0.0
 10
20.7525678269678
 20
3.82065885919489
 30
0.0
 10
19.77415876266705
 20
3.997829224107836
 30
0.0
 10
18.83333995691167
 20
3.956013107461225
 30
0.0
 10
18.21871206893579
 20
3.74115916617313
 30
0.0
 10
17.92987139016187
 20
3.640189848878925
 30
0.0
  0
LINE
  5
BF
330
1F
100
AcDbEntity
  8
외형선
  6
Continuous
 62
     1
370
    15
100
AcDbLine
 10
49.09999297239925
 20
2.371956196080387
 30
0.0
 11
49.09999297239925
 21
3.939788248901598
 31
0.0
  0
SPLINE
  5
C0
330
1F
100
AcDbEntity
  8
외형선
  6
Continuous
 62
     1
370
    15
100
AcDbSpline
210
0.0
220
0.0
230
1.0
 70
     8
 71
     3
 72
    23
 73
    19
 74
     0
 42
0.000000001
 43
0.00000001
 40
0.0
 40
0.0
 40
0.0
 40
0.0
 40
0.0188297976356351
 40
0.0883635424819094
 40
0.1578533828053811
 40
0.2273163104017903
 40
0.2967694990016572
 40
0.3662301883539088
 40
0.4357155673530911
 40
0.5052426579034609
 40
0.5747885387726523
 40
0.6442884553313023
 40
0.7137568971351383
 40
0.7832110005778037
 40
0.8526679992026245
 40
0.9221451069197893
 40
0.9916594015081038
 40
1.0
 40
1.0
 40
1.0
 40
1.0
 10
20.48761626266456
 20
3.945012156174191
 30
0.0
 10
20.57593936471516
 20
3.952013994745708
 30
0.0
 10
20.99041764702089
 20
3.984871876282089
 30
0.0
 10
21.73087195953809
 20
3.802545015018298
 30
0.0
 10
22.70839694103009
 20
3.400954120220334
 30
0.0
 10
23.68538895090977
 20
2.775756657430822
 30
0.0
 10
24.66216534699351
 20
1.988059632928153
 30
0.0
 10
25.63910580375182
 20
1.07904064534588
 30
0.0
 10
26.61655402764107
 20
0.1050689123378382
 30
0.0
 10
27.59474200450256
 20
-0.8753949426249179
 30
0.0
 10
28.57323545678013
 20
-1.802863036757584
 30
0.0
 10
29.55095540014126
 20
-2.621579491312624
 30
0.0
 10
30.52806498558157
 20
-3.282259253569914
 30
0.0
 10
31.50486180755865
 20
-3.743299306847466
 30
0.0
 10
32.48171866620577
 20
-3.984208816612255
 30
0.0
 10
33.45901422386792
 20
-3.963322755332995
 30
0.0
 10
34.14991497287815
 20
-3.835919122863282
 30
0.0
 10
34.51513259210419
 20
-3.658589239271781
 30
0.0
 10
34.55425837345993
 20
-3.639591880195999
 30
0.0
  0
SPLINE
  5
C1
330
1F
100
AcDbEntity
  8
외형선
  6
Continuous
 62
     1
370
    15
100
AcDbSpline
210
0.0
220
0.0
230
1.0
 70
     8
 71
     3
 72
    11
 73
     7
 74
     0
 42
0.000000001
 43
0.00000001
 40
0.0
 40
0.0
 40
0.0
 40
0.0
 40
0.2023305962907969
 40
0.4680912963489551
 40
0.7339594494219526
 40
1.0
 40
1.0
 40
1.0
 40
1.0
 10
45.42328133712063
 20
3.946945323031335
 30
0.0
 10
45.67118540297567
 20
3.942316129480484
 30
0.0
 10
46.24471079994273
 20
3.931606502513568
 30
0.0
 10
47.14405699032618
 20
3.631367201975905
 30
0.0
 10
48.12163698055399
 20
3.125057790276084
 30
0.0
 10
48.7738038502811
 20
2.631314114180446
 30
0.0
 10
49.09999297239926
 20
2.384362262234275
 30
0.0
  0
SPLINE
  5
C2
330
1F
100
AcDbEntity
  8
외형선
  6
Continuous
 62
     1
370
    15
100
AcDbSpline
210
0.0
220
0.0
230
1.0
 70
     8
 71
     3
 72
    10
 73
     6
 74
     0
 42
0.000000001
 43
0.00000001
 40
0.0
 40
0.0
 40
0.0
 40
0.0
 40
0.4704583071044202
 40
0.9406117515170359
 40
1.0
 40
1.0
 40
1.0
 40
1.0
 10
49.09999297239929
 20
3.939788248901598
 30
0.0
 10
48.77380646536074
 20
3.952041406682486
 30
0.0
 10
48.1216448240983
 20
3.976539782049332
 30
0.0
 10
47.42858060930906
 20
3.83679579072882
 30
0.0
 10
47.06164945747279
 20
3.659008284874648
 30
0.0
 10
47.02049802650193
 20
3.639069366529807
 30
0.0
  0
SPLINE
  5
C3
330
1F
100
AcDbEntity
  8
외형선
  6
Continuous
 62
     1
370
    15
100
AcDbSpline
210
0.0
220
0.0
230
1.0
 70
     8
 71
     3
 72
    22
 73
    18
 74
     0
 42
0.000000001
 43
0.00000001
 40
0.0
 40
0.0
 40
0.0
 40
0.0
 40
0.0524238477200772
 40
0.1219766094547338
 40
0.1914929870561189
 40
0.2609721766720432
 40
0.3304312565930479
 40
0.3998874412451432
 40
0.4693579646880616
 40
0.538859963828943
 40
0.6084079286576963
 40
0.6779371026045734
 40
0.7474245637503645
 40
0.8168873345093949
 40
0.8863426042912783
 40
0.955807613361535
 40
1.0
 40
1.0
 40
1.0
 40
1.0
 10
36.15317962320077
 20
-3.946474364544359
 30
0.0
 10
35.90735838149392
 20
-3.942170572947417
 30
0.0
 10
35.33539651872753
 20
-3.932156773319468
 30
0.0
 10
34.43697371478332
 20
-3.635827536015038
 30
0.0
 10
33.45900904614099
 20
-3.12283065230688
 30
0.0
 10
32.48172005286803
 20
-2.413551386246935
 30
0.0
 10
31.50486143586754
 20
-1.560844571018145
 30
0.0
 10
30.5280650859486
 20
-0.613411546217755
 30
0.0
 10
29.55095537042056
 20
0.3709732130566209
 30
0.0
 10
28.5732354752543
 20
1.333264155032221
 30
0.0
 10
27.59474196032846
 20
2.21481015698101
 30
0.0
 10
26.61655418576511
 20
2.962974163830091
 30
0.0
 10
25.63910521588076
 20
3.531556164986657
 30
0.0
 10
24.66216753955915
 20
3.88934106832769
 30
0.0
 10
23.68538076866089
 20
4.003360056015394
 30
0.0
 10
22.82702162208185
 20
3.921073608742892
 30
0.0
 10
22.29409005833734
 20
3.708357562925971
 30
0.0
 10
22.0868750542456
 20
3.625649089074977
 30
0.0
  0
LINE
  5
C4
330
1F
100
AcDbEntity
  8
외형선
  6
Continuous
370
    15
100
AcDbLine
 10
11.21470046665834
 20
-3.948321848222522
 30
0.0
 11
10.99999297239929
 21
-3.962914595055217
 31
0.0
  0
SPLINE
  5
C5
330
1F
100
AcDbEntity
  8
외형선
  6
Continuous
 62
     1
370
    15
100
AcDbSpline
210
0.0
220
0.0
230
1.0
 70
     8
 71
     3
 72
    10
 73
     6
 74
     0
 42
0.000000001
 43
0.00000001
 40
0.0
 40
0.0
 40
0.0
 40
0.0
 40
0.3503761768054942
 40
0.7009265238951387
 40
1.0
 40
1.0
 40
1.0
 40
1.0
 10
10.99999297239924
 20
-3.796152128659457
 30
0.0
 10
11.32372742019347
 20
-3.867471121506559
 30
0.0
 10
11.97135724259293
 20
-4.01014455952336
 30
0.0
 10
12.89555141142235
 20
-3.947859310068813
 30
0.0
 10
13.49620245068873
 20
-3.73535645147716
 30
0.0
 10
13.77272986213128
 20
-3.637524496533295
 30
0.0
  0
SPLINE
  5
C6
330
1F
100
AcDbEntity
  8
외형선
  6
Continuous
 62
     1
370
    15
100
AcDbSpline
210
0.0
220
0.0
230
1.0
 70
     8
 71
     3
 72
    23
 73
    19
 74
     0
 42
0.000000001
 43
0.00000001
 40
0.0
 40
0.0
 40
0.0
 40
0.0
 40
0.0013447836337195
 40
0.0708040369427339
 40
0.1402879793882407
 40
0.2098136325225825
 40
0.2793580755872714
 40
0.3488565552916937
 40
0.418323560892017
 40
0.4877762284276034
 40
0.5572317910854898
 40
0.6267074624199812
 40
0.696220319856814
 40
0.7657695595844993
 40
0.8352793238149723
 40
0.9047530671931284
 40
0.974207880178496
 40
1.0
 40
1.0
 40
1.0
 40
1.0
 10
24.64322793626393
 20
3.966476331372
 30
0.0
 10
24.64953195171043
 20
3.967232418249041
 30
0.0
 10
24.98144389008482
 20
4.007041054993021
 30
0.0
 10
25.63910672164562
 20
3.865481480987365
 30
0.0
 10
26.61655378212422
 20
3.528108279450773
 30
0.0
 10
27.59474206796758
 20
2.949212789576441
 30
0.0
 10
28.57323544858938
 20
2.20003865465789
 30
0.0
 10
29.55095536950879
 20
1.315827183927976
 30
0.0
 10
30.52806511622262
 20
0.3529644260253864
 30
0.0
 10
31.5048613157051
 20
-0.631244010918668
 30
0.0
 10
32.48172050332953
 20
-1.577363339092997
 30
0.0
 10
33.45900736355723
 20
-2.428363711373665
 30
0.0
 10
34.43697999948073
 20
-3.133177255224332
 30
0.0
 10
35.41555113334906
 20
-3.647668963476837
 30
0.0
 10
36.39346989737339
 20
-3.94588906546912
 30
0.0
 10
37.37072058228727
 20
-3.991632099600431
 30
0.0
 10
38.14288426031054
 20
-3.879307150038993
 30
0.0
 10
38.58938377005677
 20
-3.67954261937565
 30
0.0
 10
38.71029232339539
 20
-3.625447956596296
 30
0.0
  0
SPLINE
  5
C7
330
1F
100
AcDbEntity
  8
외형선
  6
Continuous
370
    15
100
AcDbSpline
210
0.0
220
0.0
230
1.0
 70
    24
 71
     3
 72
    15
 73
    11
 74
     0
 42
0.000000001
 43
0.00000001
 40
0.0
 40
0.0
 40
0.0
 40
0.0
 40
0.0615391528836456
 40
0.1856822592695887
 40
0.3134255241507737
 40
0.4375686305367829
 40
0.5653118954180394
 40
0.6894550018036288
 40
0.8171982666852301
 40
1.0
 40
1.0
 40
1.0
 40
1.0
 10
10.99999297239925
 20
-1.858486967508121
 30
0.0
 10
10.99999297239925
 20
-1.886630033398168
 30
0.0
 10
10.99999297239924
 20
-1.971546185349711
 30
0.0
 10
10.9999929723992
 20
-2.149771026573164
 30
0.0
 10
10.9999929723993
 20
-2.382032123991257
 30
0.0
 10
10.99999297239926
 20
-2.636960796527664
 30
0.0
 10
10.99999297239927
 20
-2.900578061821007
 30
0.0
 10
10.9999929723992
 20
-3.170213609668617
 30
0.0
 10
10.99999297239926
 20
-3.476734114983842
 30
0.0
 10
10.99999297239926
 20
-3.677796897293046
 30
0.0
 10
10.99999297239924
 20
-3.796152128659454
 30
0.0
  0
SPLINE
  5
C8
330
1F
100
AcDbEntity
  8
외형선
  6
Continuous
 62
     1
370
    15
100
AcDbSpline
210
0.0
220
0.0
230
1.0
 70
     8
 71
     3
 72
    23
 73
    19
 74
     0
 42
0.000000001
 43
0.00000001
 40
0.0
 40
0.0
 40
0.0
 40
0.0
 40
0.0004234299282404
 40
0.0698923388428895
 40
0.1393457292029889
 40
0.2088008313257503
 40
0.2782748639201048
 40
0.3477849175167292
 40
0.4173344467749021
 40
0.486847593590762
 40
0.5563235541494792
 40
0.6257794059478783
 40
0.6952323626119262
 40
0.7646996574003994
 40
0.834198426423997
 40
0.9037431589992035
 40
0.9732691015658431
 40
1.0
 40
1.0
 40
1.0
 40
1.0
 10
40.30734597845162
 20
-3.968024555338155
 30
0.0
 10
40.30536034064466
 20
-3.968266211645785
 30
0.0
 10
39.97760629878746
 20
-4.008154569576909
 30
0.0
 10
39.32438953526446
 20
-3.86834088417109
 30
0.0
 10
38.34755547669577
 20
-3.534640348292982
 30
0.0
 10
37.37072032656623
 20
-2.958511321631065
 30
0.0
 10
36.39346996587199
 20
-2.211575681780629
 30
0.0
 10
35.41555111523283
 20
-1.328849795535605
 30
0.0
 10
34.43698000338559
 20
-0.3667225295282187
 30
0.0
 10
33.45900736604598
 20
0.6179517810907255
 30
0.0
 10
32.4817204894828
 20
1.565108087116216
 30
0.0
 10
31.50486136858846
 20
2.417625082631838
 30
0.0
 10
30.52806491852122
 20
3.124515959101728
 30
0.0
 10
29.55095610774094
 20
3.641934750170559
 30
0.0
 10
28.57323269130422
 20
3.94333182796922
 30
0.0
 10
27.59475236454224
 20
3.992710656661492
 30
0.0
 10
26.81705197703989
 20
3.881659879316812
 30
0.0
 10
26.36573742590226
 20
3.680842947888362
 30
0.0
 10
26.2404056229583
 20
3.625075306419341
 30
0.0
  0
SPLINE
  5
C9
330
1F
100
AcDbEntity
  8
외형선
  6
Continuous
 62
     1
370
    15
100
AcDbSpline
210
0.0
220
0.0
230
1.0
 70
     8
 71
     3
 72
    12
 73
     8
 74
     0
 42
0.000000001
 43
0.00000001
 40
0.0
 40
0.0
 40
0.0
 40
0.0
 40
0.1106679213273852
 40
0.3330391086510756
 40
0.5554985006113485
 40
0.7778044764597809
 40
1.0
 40
1.0
 40
1.0
 40
1.0
 10
15.37237211245123
 20
-3.938700285607103
 30
0.0
 10
15.21111285353702
 20
-3.94457671824315
 30
0.0
 10
14.72582642901258
 20
-3.962260992635256
 30
0.0
 10
13.91610188841936
 20
-3.734358050397153
 30
0.0
 10
12.9433422872067
 20
-3.282565436894093
 30
0.0
 10
11.97135907312239
 20
-2.630049609583361
 30
0.0
 10
11.32372803026892
 20
-2.073398490714099
 30
0.0
 10
10.99999297239929
 20
-1.795142091227222
 30
0.0
  0
LINE
  5
CA
330
1F
100
AcDbEntity
  8
외형선
  6
Continuous
 62
     1
370
    15
100
AcDbLine
 10
49.09999297239925
 20
-3.939788248901586
 30
0.0
 11
49.09999297239925
 21
-2.365962758246317
 31
0.0
  0
SPLINE
  5
CB
330
1F
100
AcDbEntity
  8
외형선
  6
Continuous
 62
     1
370
    15
100
AcDbSpline
210
0.0
220
0.0
230
1.0
 70
     8
 71
     3
 72
    22
 73
    18
 74
     0
 42
0.000000001
 43
0.00000001
 40
0.0
 40
0.0
 40
0.0
 40
0.0
 40
0.0546799421720909
 40
0.1238210328385326
 40
0.1929347092217589
 40
0.2624171050063271
 40
0.3318771626353424
 40
0.4013320852448373
 40
0.4707991107903012
 40
0.5402953952026103
 40
0.6098376058454554
 40
0.6793727700873519
 40
0.7488640289102204
 40
0.8183283744566556
 40
0.887782980807746
 40
0.9572450880643344
 40
1.0
 40
1.0
 40
1.0
 40
1.0
 10
12.17399769566841
 20
3.949157002965478
 30
0.0
 10
12.43037701817529
 20
3.9426478566369
 30
0.0
 10
13.01094004092568
 20
3.927908096694119
 30
0.0
 10
13.91611528034604
 20
3.624705365329503
 30
0.0
 10
14.89035144417788
 20
3.108472986079184
 30
0.0
 10
15.86580215988204
 20
2.397196773750848
 30
0.0
 10
16.84269707894834
 20
1.541945928419806
 30
0.0
 10
17.8194806182558
 20
0.5931626156302212
 30
0.0
 10
18.79652958282322
 20
-0.3913452164403471
 30
0.0
 10
19.77415704563585
 20
-1.352519573351736
 30
0.0
 10
20.75256832065462
 20
-2.231854960450074
 30
0.0
 10
21.73086529888496
 20
-2.976704975760097
 30
0.0
 10
22.70839919088024
 20
-3.541183571230617
 30
0.0
 10
23.68538660855075
 20
-3.894347990829988
 30
0.0
 10
24.66217246671626
 20
-4.0031001997959
 30
0.0
 10
25.51377192833279
 20
-3.91798665847237
 30
0.0
 10
26.03993603212927
 20
-3.70588606337923
 30
0.0
 10
26.24040562295835
 20
-3.625075306419332
 30
0.0
  0
SPLINE
  5
CC
330
1F
100
AcDbEntity
  8
외형선
  6
Continuous
 62
     1
370
    15
100
AcDbSpline
210
0.0
220
0.0
230
1.0
 70
     8
 71
     3
 72
    20
 73
    16
 74
     0
 42
0.000000001
 43
0.00000001
 40
0.0
 40
0.0
 40
0.0
 40
0.0
 40
0.0215404594645435
 40
0.1030425670455553
 40
0.1845426659582321
 40
0.2660609751227613
 40
0.3476175900945442
 40
0.4292271752308471
 40
0.5108084192696245
 40
0.5923420794145384
 40
0.6738481474489642
 40
0.7553468018238783
 40
0.8368582712577199
 40
0.9184026976078127
 40
1.0
 40
1.0
 40
1.0
 40
1.0
 10
37.11259164449811
 20
3.94540151819189
 30
0.0
 10
37.1986570997262
 20
3.952329365796633
 30
0.0
 10
37.61036630468746
 20
3.985469940280116
 30
0.0
 10
38.34755292967741
 20
3.804508026349107
 30
0.0
 10
39.32436934408795
 20
3.40476566403062
 30
0.0
 10
40.30151003483091
 20
2.780874359908907
 30
0.0
 10
41.27928075544361
 20
1.993926399150809
 30
0.0
 10
42.25780568999741
 20
1.085469867681187
 30
0.0
 10
43.23593721566157
 20
0.1116796362587646
 30
0.0
 10
44.21334227701701
 20
-0.8689355748862262
 30
0.0
 10
45.19025911041828
 20
-1.796583944417145
 30
0.0
 10
46.1670384737385
 20
-2.617023171965343
 30
0.0
 10
47.14405709660665
 20
-3.275037403761378
 30
0.0
 10
48.12163695395934
 20
-3.752561923853226
 30
0.0
 10
48.77380384141429
 20
-3.877365990425147
 30
0.0
 10
49.09999297239926
 20
-3.939788248901586
 30
0.0
  0
SPLINE
  5
CD
330
1F
100
AcDbEntity
  8
외형선
  6
Continuous
 62
     1
370
    15
100
AcDbSpline
210
0.0
220
0.0
230
1.0
 70
     8
 71
     3
 72
    18
 73
    14
 74
     0
 42
0.000000001
 43
0.00000001
 40
0.0
 40
0.0
 40
0.0
 40
0.0
 40
0.0941480317772481
 40
0.1882350544874603
 40
0.2822840510778441
 40
0.37631826148609
 40
0.4703610258713785
 40
0.5644356263936305
 40
0.6585651298332611
 40
0.7527273336008727
 40
0.8468284197017679
 40
0.9408853080626326
 40
1.0
 40
1.0
 40
1.0
 40
1.0
 10
49.09999297239929
 20
-2.384362262234245
 30
0.0
 10
48.77380384142872
 20
-2.109830109291882
 30
0.0
 10
48.1216369540026
 20
-1.560943703573587
 30
0.0
 10
47.14405709643367
 20
-0.6046481950469299
 30
0.0
 10
46.16703847438684
 20
0.3775898153791973
 30
0.0
 10
45.19025910799805
 20
1.339751813761026
 30
0.0
 10
44.21334228605186
 20
2.22032631862489
 30
0.0
 10
43.23593718192208
 20
2.967424184601556
 30
0.0
 10
42.25780581601382
 20
3.534718613962981
 30
0.0
 10
41.27928028510096
 20
3.891032787500306
 30
0.0
 10
40.30151178853419
 20
4.0032926175654
 30
0.0
 10
39.44528393759125
 20
3.920005322576035
 30
0.0
 10
38.91496313131987
 20
3.70747242178852
 30
0.0
 10
38.71029232339541
 20
3.625447956596304
 30
0.0
  0
SPLINE
  5
CE
330
1F
100
AcDbEntity
  8
외형선
  6
Continuous
 62
     1
370
    15
100
AcDbSpline
210
0.0
220
0.0
230
1.0
 70
     8
 71
     3
 72
    23
 73
    19
 74
     0
 42
0.000000001
 43
0.00000001
 40
0.0
 40
0.0
 40
0.0
 40
0.0
 40
0.0173926675915316
 40
0.0869193522878397
 40
0.1564043256764437
 40
0.2258646095622404
 40
0.2953173927394367
 40
0.3647799148563248
 40
0.4342693495431755
 40
0.5038026884965432
 40
0.573343073665894
 40
0.6428375338102649
 40
0.7123027358558331
 40
0.7817558352831313
 40
0.8512140695951572
 40
0.920694641476362
 40
0.9898065036350581
 40
1.0
 40
1.0
 40
1.0
 40
1.0
 10
27.83945069278337
 20
-3.946205239653663
 30
0.0
 10
27.7578643319122
 20
-3.95297467143516
 30
0.0
 10
27.35013885764979
 20
-3.986804710600106
 30
0.0
 10
26.61655118339176
 20
-3.808377070884057
 30
0.0
 10
25.63910653416694
 20
-3.411883026222087
 30
0.0
 10
24.66216526775042
 20
-2.790468304919972
 30
0.0
 10
23.68538853769147
 20
-2.00583229718581
 30
0.0
 10
22.70839867373175
 20
-1.098742124125136
 30
0.0
 10
21.73086543755255
 20
-0.1254938326471384
 30
0.0
 10
20.75256828356549
 20
0.8553936216096252
 30
0.0
 10
19.77415705526235
 20
1.784585778097292
 30
0.0
 10
18.79652958138213
 20
2.606063992158493
 30
0.0
 10
17.8194806144028
 20
3.270439910757394
 30
0.0
 10
16.84269709579858
 20
3.73597302841884
 30
0.0
 10
15.86580209631909
 20
3.981555484451901
 30
0.0
 10
14.89035168112764
 20
3.966520101590135
 30
0.0
 10
14.19256317154659
 20
3.839567213072857
 30
0.0
 10
13.82054689083781
 20
3.660536206562145
 30
0.0
 10
13.77272986213131
 20
3.637524496533309
 30
0.0
  0
SPLINE
  5
CF
330
1F
100
AcDbEntity
  8
외형선
  6
Continuous
 62
     1
370
    15
100
AcDbSpline
210
0.0
220
0.0
230
1.0
 70
     8
 71
     3
 72
    19
 73
    15
 74
     0
 42
0.000000001
 43
0.00000001
 40
0.0
 40
0.0
 40
0.0
 40
0.0
 40
0.0876223457278833
 40
0.1752882480953545
 40
0.2630146497896239
 40
0.3507062681676577
 40
0.4388657187132609
 40
0.5269968265470517
 40
0.6151214190542719
 40
0.7032613677991831
 40
0.7914384402729976
 40
0.8796737840715698
 40
0.9679001873776767
 40
1.0
 40
1.0
 40
1.0
 40
1.0
 10
10.99999297239924
 20
2.900649844123874
 30
0.0
 10
11.32372819236832
 20
2.662797886706897
 30
0.0
 10
11.97135955950128
 20
2.186975736828005
 30
0.0
 10
12.94334034000273
 20
1.296324093456797
 30
0.0
 10
13.91610919471694
 20
0.3410130973420756
 30
0.0
 10
14.89035308006724
 20
-0.6401313736256621
 30
0.0
 10
15.86580173641962
 20
-1.583905355737687
 30
0.0
 10
16.84269713384162
 20
-2.433944916465049
 30
0.0
 10
17.81948082204834
 20
-3.137313443717273
 30
0.0
 10
18.79652871241724
 20
-3.650412174143812
 30
0.0
 10
19.77416032582942
 20
-3.947110942406074
 30
0.0
 10
20.75255606262077
 20
-3.991096487449003
 30
0.0
 10
21.52361510440871
 20
-3.878241249927952
 30
0.0
 10
21.96825660686275
 20
-3.678843160391657
 30
0.0
 10
22.0868750542456
 20
-3.625649089074968
 30
0.0
  0
SPLINE
  5
D0
330
1F
100
AcDbEntity
  8
외형선
  6
Continuous
 62
     1
370
    15
100
AcDbSpline
210
0.0
220
0.0
230
1.0
 70
     8
 71
     3
 72
    22
 73
    18
 74
     0
 42
0.000000001
 43
0.00000001
 40
0.0
 40
0.0
 40
0.0
 40
0.0
 40
0.0358404572396065
 40
0.1053598613314479
 40
0.1749156511405917
 40
0.2444319617347581
 40
0.313912248084198
 40
0.3833736022580029
 40
0.4528332445150637
 40
0.5223084067235841
 40
0.5918162156123382
 40
0.6613691690926565
 40
0.730897968461243
 40
0.8003862137656129
 40
0.8698509432933249
 40
0.9393093544221104
 40
1.0
 40
1.0
 40
1.0
 40
1.0
 10
32.95480061335955
 20
3.938729180302742
 30
0.0
 10
33.12281940551357
 20
3.944151014168409
 30
0.0
 10
33.61674269795589
 20
3.960089529138517
 30
0.0
 10
34.43698625101852
 20
3.725148628730969
 30
0.0
 10
35.4155493340499
 20
3.265643529451487
 30
0.0
 10
36.39347084466591
 20
2.596679288308064
 30
0.0
 10
37.37071859227991
 20
1.774366209895234
 30
0.0
 10
38.34756153378765
 20
0.8442253022993779
 30
0.0
 10
39.32436703894579
 20
-0.1366079282438001
 30
0.0
 10
40.30151064975351
 20
-1.109371576033622
 30
0.0
 10
41.27928060212639
 20
-2.015354019488887
 30
0.0
 10
42.25780568773822
 20
-2.799581092546601
 30
0.0
 10
43.23593737788848
 20
-3.414545976492059
 30
0.0
 10
44.21334163087914
 20
-3.82483660478635
 30
0.0
 10
45.19026153191464
 20
-3.998532161064712
 30
0.0
 10
46.12588236217479
 20
-3.954213229575315
 30
0.0
 10
46.73599327428247
 20
-3.73929109329409
 30
0.0
 10
47.02049802650193
 20
-3.639069366529797
 30
0.0
  0
SPLINE
  5
D1
330
1F
100
AcDbEntity
  8
외형선
  6
Continuous
370
    15
100
AcDbSpline
210
0.0
220
0.0
230
1.0
 70
    24
 71
     3
 72
    11
 73
     7
 74
     0
 42
0.000000001
 43
0.00000001
 40
0.0
 40
0.0
 40
0.0
 40
0.0
 40
0.4647494587527893
 40
0.7202643452963087
 40
0.9757792318394936
 40
1.0
 40
1.0
 40
1.0
 40
1.0
 10
10.99999297239927
 20
3.96291459505526
 30
0.0
 10
10.99999297239927
 20
3.801775524179763
 30
0.0
 10
10.99999297239929
 20
3.552043705885103
 30
0.0
 10
10.9999929723992
 20
3.226353137180738
 30
0.0
 10
10.99999297239925
 20
3.051428713125002
 30
0.0
 10
10.99999297239924
 20
2.970961898288579
 30
0.0
 10
10.99999297239924
 20
2.963994720404758
 30
0.0
  0
SPLINE
  5
D2
330
1F
100
AcDbEntity
  8
외형선
  6
Continuous
 62
     1
370
    15
100
AcDbSpline
210
0.0
220
0.0
230
1.0
 70
     8
 71
     3
 72
    22
 73
    18
 74
     0
 42
0.000000001
 43
0.00000001
 40
0.0
 40
0.0
 40
0.0
 40
0.0
 40
0.0354244899830294
 40
0.1049219451346082
 40
0.1743913122621297
 40
0.2438497575642986
 40
0.3133145212685037
 40
0.3828028007609345
 40
0.4523316343375343
 40
0.5218846220377511
 40
0.5913924651241919
 40
0.6608676615143392
 40
0.7303273379453871
 40
0.7997887262940249
 40
0.8692690468276103
 40
0.938785391623646
 40
1.0
 40
1.0
 40
1.0
 40
1.0
 10
48.61993664346215
 20
-3.938683595715897
 30
0.0
 10
48.45378189025931
 20
-3.944262457938868
 30
0.0
 10
47.96165681216341
 20
-3.960786198332942
 30
0.0
 10
47.1440639916887
 20
-3.727492509331687
 30
0.0
 10
46.16703662707193
 20
-3.269518162865751
 30
0.0
 10
45.19025960442545
 20
-2.602021944613631
 30
0.0
 10
44.21334214764413
 20
-1.78078347555946
 30
0.0
 10
43.23593723897071
 20
-0.8510326422866352
 30
0.0
 10
42.25780572626525
 20
0.1299599470869864
 30
0.0
 10
41.27928058703247
 20
1.102978251108232
 30
0.0
 10
40.30151067160283
 20
2.009595788842606
 30
0.0
 10
39.32436696667299
 20
2.794795105852217
 30
0.0
 10
38.34756180098306
 20
3.410874908934841
 30
0.0
 10
37.37071759560452
 20
3.822662996399841
 30
0.0
 10
36.3934745660749
 20
3.998183186408861
 30
0.0
 10
35.45464885479457
 20
3.955160163388254
 30
0.0
 10
34.84140776235942
 20
3.74023181537214
 30
0.0
 10
34.55425837345992
 20
3.63959188019601
 30
0.0
  0
SPLINE
  5
D3
330
1F
100
AcDbEntity
  8
외형선
  6
Continuous
 62
     1
370
    15
100
AcDbSpline
210
0.0
220
0.0
230
1.0
 70
     8
 71
     3
 72
    20
 73
    16
 74
     0
 42
0.000000001
 43
0.00000001
 40
0.0
 40
0.0
 40
0.0
 40
0.0
 40
0.0769357492460695
 40
0.1540018048643985
 40
0.2311165517501198
 40
0.3082391131198025
 40
0.3853107421348717
 40
0.4623499229615252
 40
0.5393756815887186
 40
0.6164071349710042
 40
0.6934633614480268
 40
0.7701106767846733
 40
0.8467883946598664
 40
0.9234132327836697
 40
1.0
 40
1.0
 40
1.0
 40
1.0
 10
23.68414748269299
 20
-3.968594072851041
 30
0.0
 10
23.35894105320894
 20
-3.945440856310586
 30
0.0
 10
22.70797739086953
 20
-3.899095208538415
 30
0.0
 10
21.73086451518091
 20
-3.530106053996013
 30
0.0
 10
20.75256853129756
 20
-2.965108975705345
 30
0.0
 10
19.77415698712254
 20
-2.216541614051585
 30
0.0
 10
18.79652960635714
 20
-1.335288659408845
 30
0.0
 10
17.8194805826075
 20
-0.3733213799431062
 30
0.0
 10
16.84269719800029
 20
0.6109816887784516
 30
0.0
 10
15.86580171921864
 20
1.558562092060934
 30
0.0
 10
14.89035308464944
 20
2.410238711525705
 30
0.0
 10
13.91610919349175
 20
3.116918148385797
 30
0.0
 10
12.94334034032929
 20
3.631570964145247
 30
0.0
 10
11.97135955941975
 20
3.946667452657951
 30
0.0
 10
11.32372819234118
 20
3.957499778149136
 30
0.0
 10
10.99999297239929
 20
3.962914595055226
 30
0.0
1001
PE_URL
1000

  0
LINE
  5
D4
330
1F
100
AcDbEntity
  8
외형선
  6
Continuous
 62
     1
370
    15
100
AcDbLine
 10
49.09999297239925
 20
3.939788248901598
 30
0.0
 11
49.09999297239925
 21
3.968750000000008
 31
0.0
  0
LINE
  5
D5
330
1F
100
AcDbEntity
  8
외형선
  6
Continuous
370
    15
100
AcDbLine
 10
10.99999297239927
 20
-3.96291459505525
 30
0.0
 11
10.99999297239924
 21
-3.796152128659454
 31
0.0
  0
LINE
  5
D6
330
1F
100
AcDbEntity
  8
외형선
  6
Continuous
 62
     1
370
    15
100
AcDbLine
 10
49.09999297239925
 20
-2.384362262234245
 30
0.0
 11
49.09999297239925
 21
-1.555425986667277
 31
0.0
  0
LINE
  5
D7
330
1F
100
AcDbEntity
  8
외형선
  6
Continuous
 62
     1
370
    15
100
AcDbLine
 10
49.09999297239925
 20
-3.968749999999998
 30
0.0
 11
49.09999297239925
 21
-3.939788248901586
 31
0.0
  0
LINE
  5
D8
330
1F
100
AcDbEntity
  8
외형선
  6
Continuous
370
    15
100
AcDbLine
 10
10.99999297239927
 20
2.16777250382803
 30
0.0
 11
10.99999297239924
 21
2.90064984412387
 31
0.0
  0
LINE
  5
D9
330
1F
100
AcDbEntity
  8
외형선
  6
Continuous
370
    15
100
AcDbLine
 10
10.99999297239927
 20
-1.795142091227233
 30
0.0
 11
10.99999297239926
 21
-0.8955022845355792
 31
0.0
  0
LINE
  5
DA
330
1F
100
AcDbEntity
  8
외형선
  6
Continuous
 62
     1
370
    15
100
AcDbLine
 10
49.09999297239925
 20
1.555425986667361
 30
0.0
 11
49.09999297239925
 21
2.384362262234276
 31
0.0
  0
SPLINE
  5
DB
330
1F
100
AcDbEntity
  8
외형선
  6
Continuous
370
    15
100
AcDbSpline
210
0.0
220
0.0
230
1.0
 70
     8
 71
     3
 72
     8
 73
     4
 74
     0
 42
0.000000001
 43
0.00000001
 40
0.0
 40
0.0
 40
0.0
 40
0.0
 40
1.0
 40
1.0
 40
1.0
 40
1.0
 10
10.99999297239937
 20
3.962914595055228
 30
0.0
 10
10.66500304216772
 20
3.94480763639891
 30
0.0
 10
10.33525211120832
 20
3.884765241162141
 30
0.0
 10
10.00000000000001
 20
3.784015665633338
 30
0.0
  0
LINE
  5
DC
330
1F
100
AcDbEntity
  8
외형선
  6
Continuous
370
    15
100
AcDbLine
 10
9.999999999999993
 20
3.484576317471759
 30
0.0
 11
10.0
 21
3.968750000000005
 31
0.0
  0
SPLINE
  5
DD
330
1F
100
AcDbEntity
  8
외형선
  6
Continuous
370
    15
100
AcDbSpline
210
0.0
220
0.0
230
1.0
 70
     8
 71
     3
 72
     8
 73
     4
 74
     0
 42
0.000000001
 43
0.00000001
 40
0.0
 40
0.0
 40
0.0
 40
0.0
 40
1.0
 40
1.0
 40
1.0
 40
1.0
 10
10.99999297239924
 20
2.900649844123859
 30
0.0
 10
10.66500304216764
 20
3.12862799517325
 30
0.0
 10
10.33525211120827
 20
3.324650277557708
 30
0.0
 10
10.00000000000001
 20
3.484575539352434
 30
0.0
  0
SPLINE
  5
DE
330
1F
100
AcDbEntity
  8
외형선
  6
Continuous
370
    15
100
AcDbSpline
210
0.0
220
0.0
230
1.0
 70
     8
 71
     3
 72
     8
 73
     4
 74
     0
 42
0.000000001
 43
0.00000001
 40
0.0
 40
0.0
 40
0.0
 40
0.0
 40
1.0
 40
1.0
 40
1.0
 40
1.0
 10
10.99999297239937
 20
2.167772503827923
 30
0.0
 10
10.66500304216772
 20
2.447569565027591
 30
0.0
 10
10.33525211120832
 20
2.702912614264462
 30
0.0
 10
10.00000000000001
 20
2.928420638389901
 30
0.0
  0
SPLINE
  5
DF
330
1F
100
AcDbEntity
  8
외형선
  6
Continuous
370
    15
100
AcDbSpline
210
0.0
220
0.0
230
1.0
 70
     8
 71
     3
 72
     8
 73
     4
 74
     0
 42
0.000000001
 43
0.00000001
 40
0.0
 40
0.0
 40
0.0
 40
0.0
 40
1.0
 40
1.0
 40
1.0
 40
1.0
 10
10.99999297239924
 20
-0.8955022845355846
 30
0.0
 10
10.66500304216764
 20
-0.5700894563005782
 30
0.0
 10
10.33525211120827
 20
-0.2368804858046678
 30
0.0
 10
10.00000000000001
 20
0.0971335505268456
 30
0.0
  0
SPLINE
  5
E0
330
1F
100
AcDbEntity
  8
외형선
  6
Continuous
370
    15
100
AcDbSpline
210
0.0
220
0.0
230
1.0
 70
     8
 71
     3
 72
     8
 73
     4
 74
     0
 42
0.000000001
 43
0.00000001
 40
0.0
 40
0.0
 40
0.0
 40
0.0
 40
1.0
 40
1.0
 40
1.0
 40
1.0
 10
10.99999297239937
 20
-1.795142091227309
 30
0.0
 10
10.66500304216772
 20
-1.49723807137132
 30
0.0
 10
10.33525211120832
 20
-1.181852626897679
 30
0.0
 10
10.00000000000001
 20
-0.8555950272434365
 30
0.0
  0
LINE
  5
E1
330
1F
100
AcDbEntity
  8
외형선
  6
Continuous
370
    15
100
AcDbLine
 10
9.999999999999993
 20
-3.387441141792836
 30
0.0
 11
10.00000000000001
 21
-0.8555919763401371
 31
0.0
  0
SPLINE
  5
E2
330
1F
100
AcDbEntity
  8
외형선
  6
Continuous
370
    15
100
AcDbSpline
210
0.0
220
0.0
230
1.0
 70
     8
 71
     3
 72
     8
 73
     4
 74
     0
 42
0.000000001
 43
0.00000001
 40
0.0
 40
0.0
 40
0.0
 40
0.0
 40
1.0
 40
1.0
 40
1.0
 40
1.0
 10
10.99999297239924
 20
-3.796152128659454
 30
0.0
 10
10.66500304216764
 20
-3.698717451473838
 30
0.0
 10
10.33525211120827
 20
-3.561530763362385
 30
0.0
 10
10.00000000000001
 20
-3.387441988825596
 30
0.0
  0
SPLINE
  5
E3
330
1F
100
AcDbEntity
  8
외형선
  6
Continuous
370
    15
100
AcDbSpline
210
0.0
220
0.0
230
1.0
 70
     8
 71
     3
 72
     8
 73
     4
 74
     0
 42
0.000000001
 43
0.00000001
 40
0.0
 40
0.0
 40
0.0
 40
0.0
 40
1.0
 40
1.0
 40
1.0
 40
1.0
 10
10.99999297239937
 20
-3.962914595055218
 30
0.0
 10
10.66500304216772
 20
-3.9448076363989
 30
0.0
 10
10.33525211120832
 20
-3.884765241162131
 30
0.0
 10
10.00000000000001
 20
-3.784015665633329
 30
0.0
  0
LINE
  5
E4
330
1F
100
AcDbEntity
  8
외형선
  6
Continuous
370
    15
100
AcDbLine
 10
10.0
 20
-3.968749999999995
 30
0.0
 11
10.00000000000001
 21
-3.784014723501807
 31
0.0
  0
LINE
  5
E5
330
1F
100
AcDbEntity
  8
외형선
  6
Continuous
370
    15
100
AcDbLine
 10
-42.18125702760075
 20
0.0000000000000049
 30
0.0
 11
-42.18125702760075
 21
3.968750000000005
 31
0.0
  0
LINE
  5
E6
330
1F
100
AcDbEntity
  8
외형선
  6
Continuous
370
    15
100
AcDbLine
 10
-42.18125702760075
 20
-3.968749999999995
 30
0.0
 11
-42.18125702760075
 21
0.0000000000000049
 31
0.0
  0
LINE
  5
E7
330
1F
100
AcDbEntity
  8
외형선
  6
Continuous
370
    15
100
AcDbLine
 10
9.999999999999993
 20
0.0971351756789322
 30
0.0
 11
10.00000000000001
 21
2.928422747161679
 31
0.0
  0
SPLINE
  5
E8
330
1F
100
AcDbEntity
  8
외형선
  6
Continuous
370
    15
100
AcDbSpline
210
0.0
220
0.0
230
1.0
 70
    24
 71
     3
 72
    24
 73
    20
 74
     0
 42
0.000000001
 43
0.00000001
 40
0.0
 40
0.0
 40
0.0
 40
0.0
 40
0.1249999999999999
 40
0.1249999999999999
 40
0.2499999999999999
 40
0.2499999999999999
 40
0.3749999999999998
 40
0.3749999999999998
 40
0.4999999999999998
 40
0.4999999999999998
 40
0.6249999999999998
 40
0.6249999999999998
 40
0.7499999999999997
 40
0.7499999999999997
 40
0.8124999999999997
 40
0.8124999999999997
 40
0.8749999999999996
 40
0.8749999999999996
 40
1.0
 40
1.0
 40
1.0
 40
1.0
 10
10.99999297239924
 20
-0.8955022845355821
 30
0.0
 10
10.99999297239924
 20
-0.8905098764634222
 30
0.0
 10
10.99999297239926
 20
-0.8498251022716367
 30
0.0
 10
10.99999297239924
 20
-0.6758272882804154
 30
0.0
 10
10.99999297239925
 20
-0.5418023015335653
 30
0.0
 10
10.99999297239925
 20
-0.2021119086351448
 30
0.0
 10
10.99999297239924
 20
0.0022846628237783
 30
0.0
 10
10.99999297239924
 20
0.4220277418443759
 30
0.0
 10
10.99999297239925
 20
0.635892248380784
 30
0.0
 10
10.99999297239925
 20
1.024868022317077
 30
0.0
 10
10.99999297239926
 20
1.200019933100081
 30
0.0
 10
10.99999297239926
 20
1.497949711871048
 30
0.0
 10
10.99999297239925
 20
1.62134338973228
 30
0.0
 10
10.99999297239924
 20
1.773268199258308
 30
0.0
 10
10.99999297239926
 20
1.818479919006145
 30
0.0
 10
10.99999297239926
 20
1.89954329550771
 30
0.0
 10
10.99999297239924
 20
1.935069379983777
 30
0.0
 10
10.99999297239925
 20
2.043271780759964
 30
0.0
 10
10.99999297239924
 20
2.112388461889235
 30
0.0
 10
10.99999297239925
 20
2.167772503822269
 30
0.0
  0
LINE
  5
E9
330
1F
100
AcDbEntity
  8
외형선
  6
Continuous
370
    15
100
AcDbLine
 10
-42.97500702760075
 20
0.0000000000000049
 30
0.0
 11
-42.97500702760075
 21
3.17500000000001
 31
0.0
  0
LINE
  5
EA
330
1F
100
AcDbEntity
  8
외형선
  6
Continuous
370
    15
100
AcDbLine
 10
-42.97500702760075
 20
-3.175000000000001
 30
0.0
 11
-42.97500702760075
 21
0.0000000000000049
 31
0.0
  0
SPLINE
  5
EB
330
1F
100
AcDbEntity
  8
외형선
  6
Continuous
370
    15
100
AcDbSpline
210
0.0
220
0.0
230
1.0
 70
    24
 71
     3
 72
    12
 73
     8
 74
     0
 42
0.000000001
 43
0.00000001
 40
0.0
 40
0.0
 40
0.0
 40
0.0
 40
0.2092663234328371
 40
0.4601393477924304
 40
0.7110123721514495
 40
0.9618853965116286
 40
1.0
 40
1.0
 40
1.0
 40
1.0
 10
10.99999297239924
 20
-3.796152128659454
 30
0.0
 10
10.99999297239925
 20
-3.659802306652175
 30
0.0
 10
10.99999297239927
 20
-3.359993349621498
 30
0.0
 10
10.99999297239923
 20
-2.840150005439801
 30
0.0
 10
10.99999297239919
 20
-2.331575835110602
 30
0.0
 10
10.9999929723993
 20
-1.986988915490178
 30
0.0
 10
10.99999297239929
 20
-1.873469105197139
 30
0.0
 10
10.99999297239929
 20
-1.858496967498352
 30
0.0
  0
SPLINE
  5
EC
330
1F
100
AcDbEntity
  8
외형선
  6
Continuous
370
    15
100
AcDbSpline
210
0.0
220
0.0
230
1.0
 70
    24
 71
     3
 72
    12
 73
     8
 74
     0
 42
0.000000001
 43
0.00000001
 40
0.0
 40
0.0
 40
0.0
 40
0.0
 40
0.0730623053536683
 40
0.3352775509694272
 40
0.5901028457730487
 40
0.8523180913890747
 40
1.0
 40
1.0
 40
1.0
 40
1.0
 10
10.99999297239927
 20
2.963994720404758
 30
0.0
 10
10.99999297239926
 20
2.985403592660279
 30
0.0
 10
10.9999929723993
 20
3.083647334410596
 30
0.0
 10
10.99999297239925
 20
3.278019646604869
 30
0.0
 10
10.99999297239923
 20
3.540993998702922
 30
0.0
 10
10.99999297239924
 20
3.77187876045942
 30
0.0
 10
10.99999297239926
 20
3.912316323791327
 30
0.0
 10
10.99999297239927
 20
3.962914595039729
 30
0.0
  0
LINE
  5
ED
330
1F
100
AcDbEntity
  8
중심선
 62
     1
100
AcDbLine
 10
-45.97500702760074
 20
-0.0000000000000038
 30
0.0
 11
52.09999297239927
 21
0.0000000000000043
 31
0.0
  0
LINE
  5
EE
330
1F
100
AcDbEntity
  8
참조1
100
AcDbLine
 10
3.062492972399264
 20
-0.0000000000000077
 30
0.0
 11
3.062492972399269
 21
-40.00000000000001
 31
0.0
  0
LINE
  5
EF
330
1F
100
AcDbEntity
  8
참조1
100
AcDbLine
 10
3.062492972399269
 20
-40.00000000000001
 30
0.0
 11
-8.921363841909422
 21
-40.0
 31
0.0
  0
INSERT
  5
F1
330
1F
100
AcDbEntity
  8
0
  6
Continuous
 62
     7
100
AcDbBlockReference
 66
     1
  2
블럭10
 10
-10.87777995972594
 20
-52.04717430164393
 30
0.0
  0
ATTRIB
  5
F2
330
F1
100
AcDbEntity
  8
FORMAT
 62
     2
100
AcDbText
 10
-21.01941597186257
 20
-49.97180738881174
 30
0.0
 40
4.233333333333333
  1
EM218020 [ 6 FLUTE ]
 41
0.75
  7
SLDTEXTSTYLE0
 11
-21.01941597186257
 21
-52.08847405547841
 31
0.0
100
AcDbAttribute
  2
AUTOATTR0
 70
     0
 74
     1
  0
SEQEND
  5
F3
330
F1
100
AcDbEntity
  8
0
  6
Continuous
 62
     7
  0
HATCH
  5
F4
330
1F
100
AcDbEntity
  8
중심선
100
AcDbHatch
 10
0.0
 20
0.0
 30
0.0
210
0.0
220
0.0
230
1.0
  2
SOLID
 70
     1
 71
     0
 91
        1
 92
        0
 93
        4
 72
     1
 10
-5.162870655345099
 20
-35.8
 11
-8.609145899182382
 21
-35.8
 72
     1
 10
-8.609145899182382
 20
-35.8
 11
-10.7373757583864
 21
-38.3363255805726
 72
     1
 10
-10.7373757583864
 20
-38.3363255805726
 11
-7.291067429435945
 21
-38.33628615127011
 72
     1
 10
-7.291067429435945
 20
-38.33628615127011
 11
-5.162870655345099
 21
-35.8
 97
        0
 75
     0
 76
     1
 98
        1
 10
4.174992972399259
 20
-0.0010749287238969
  0
HATCH
  5
F5
330
1F
100
AcDbEntity
  8
중심선
100
AcDbHatch
 10
0.0
 20
0.0
 30
0.0
210
0.0
220
0.0
230
1.0
  2
SOLID
 70
     1
 71
     0
 91
        1
 92
        0
 93
        4
 72
     1
 10
-0.1501066643091198
 20
-35.8
 11
-3.59638190814643
 21
-35.8
 72
     1
 10
-3.59638190814643
 20
-35.8
 11
-8.127519916503818
 21
-41.20000000000002
 72
     1
 10
-8.127519916503818
 20
-41.20000000000002
 11
-4.681244672666535
 21
-41.20000000000002
 72
     1
 10
-4.681244672666535
 20
-41.20000000000002
 11
-0.1501066643091198
 21
-35.8
 97
        0
 75
     0
 76
     1
 98
        1
 10
4.174992972399259
 20
-0.0010749287238969
  0
HATCH
  5
F6
330
1F
100
AcDbEntity
  8
중심선
100
AcDbHatch
 10
0.0
 20
0.0
 30
0.0
210
0.0
220
0.0
230
1.0
  2
SOLID
 70
     1
 71
     0
 91
        1
 92
        0
 93
        4
 72
     1
 10
4.86265732672672
 20
-35.8
 11
1.41638208288966
 21
-35.8
 72
     1
 10
1.41638208288966
 20
-35.8
 11
-5.632054818999617
 21
-44.20000000000002
 72
     1
 10
-5.632054818999617
 20
-44.20000000000002
 11
-2.185779575162335
 21
-44.20000000000002
 72
     1
 10
-2.185779575162335
 20
-44.20000000000002
 11
4.86265732672672
 21
-35.8
 97
        0
 75
     0
 76
     1
 98
        1
 10
4.174992972399259
 20
-0.0010749287238969
  0
HATCH
  5
F7
330
1F
100
AcDbEntity
  8
중심선
100
AcDbHatch
 10
0.0
 20
0.0
 30
0.0
210
0.0
220
0.0
230
1.0
  2
SOLID
 70
     1
 71
     0
 91
        1
 92
        0
 93
        6
 72
     3
 10
9.662547757738947
 20
-40.00000000005127
 11
3.960054785062283
 21
1.540882976769353E-10
 40
0.3939339440162628
 50
17.09539180608436
 51
320.0019657685077
 73
     0
 72
     1
 10
11.34554741343952
 20
-38.5878940046383
 11
13.65084928714058
 21
-36.65356729459035
 72
     3
 10
9.6625477576861
 20
-40.00000000000015
 11
6.600054785286828
 21
-1.278976924368180E-13
 40
0.6363583540795982
 50
39.9987384933743
 51
368.4976242363724
 73
     1
 72
     1
 10
16.08788024958671
 20
-39.03999999993002
 11
8.342615064522022
 21
-39.03999999993002
 72
     1
 10
8.342615064522022
 20
-39.03999999993002
 11
8.342590020076088
 21
-40.95999999992991
 72
     1
 10
8.34259002007609
 20
-40.95999999992991
 11
12.78396978954813
 21
-40.95999999992988
 97
        0
 75
     0
 76
     1
 98
        1
 10
4.174992972399259
 20
-0.0010749287238969
  0
DIMENSION
  5
F8
330
1F
100
AcDbEntity
  8
치수문자_일반주서
100
AcDbDimension
  2
_D
 10
66.22573724905199
 20
-3.968749999999936
 30
0.0
 11
66.22573724905189
 21
24.57275000000007
 31
0.0
 70
   160
  1
%%c<>
 71
     2
 42
7.937500000000005
 52
-270.0
  3
SLDDIMSTYLE0
100
AcDbAlignedDimension
 13
49.09999297239925
 23
3.968750000000007
 33
0.0
 14
49.09999297239925
 24
-3.968749999999998
 34
0.0
 50
90.0000000000002
100
AcDbRotatedDimension
1001
PE_URL
1000

1001
ACAD
1000
DSTYLE
1002
{
1070
   171
1070
     6
1070
   273
1070
     7
1002
}
  0
DIMENSION
  5
10D
330
1F
100
AcDbEntity
  8
치수문자_일반주서
100
AcDbDimension
  2
_D_1
 10
-57.08625702760074
 20
-3.968750000000044
 30
0.0
 11
-57.08625702760076
 21
-0.0000000000000038
 31
0.0
 70
   160
  1
%%c<>
 71
     2
 42
7.937499999999986
 52
-270.0
  3
SLDDIMSTYLE0
100
AcDbAlignedDimension
 13
-42.18125702760074
 23
3.968749999999998
 33
0.0
 14
-42.18125702760074
 24
-3.968749999999988
 34
0.0
 50
90.0000000000002
100
AcDbRotatedDimension
1001
ACAD
1000
DSTYLE
1002
{
1070
   171
1070
     6
1070
   273
1070
     7
1002
}
1001
ACAD_DSTYLE_DIMFLIPARROW_SYMBOL
1070
   385
1070
     0
1001
ACAD_DSTYLE_DIMFLIPARROW_WHICH_SYMBOL
1070
   386
1070
     3
  0
DIMENSION
  5
121
330
1F
100
AcDbEntity
  8
치수문자_일반주서
100
AcDbDimension
  2
_D_2
 10
10.99999297239927
 20
26.24059948049674
 30
0.0
 11
30.04999297239926
 21
26.24059948049674
 31
0.0
 70
   160
  1
<>
 71
     2
 42
38.09999999999998
  3
SLDDIMSTYLE0
100
AcDbAlignedDimension
 13
49.09999297239925
 23
3.939788248901598
 33
0.0
 14
10.99999297239927
 24
3.96291459505526
 34
0.0
100
AcDbRotatedDimension
1001
PE_URL
1000

1001
ACAD
1000
DSTYLE
1002
{
1070
   171
1070
     6
1070
   273
1070
     7
1002
}
  0
DIMENSION
  5
135
330
1F
100
AcDbEntity
  8
치수문자_일반주서
100
AcDbDimension
  2
_D_3
 10
-42.97500702760075
 20
46.54141071209188
 30
0.0
 11
3.06249297239925
 21
46.54141071209188
 31
0.0
 70
   160
  1
<>
 71
     2
 42
92.075
  3
SLDDIMSTYLE0
100
AcDbAlignedDimension
 13
49.09999297239925
 23
3.939788248901598
 33
0.0
 14
-42.97500702760075
 24
3.175000000000009
 34
0.0
100
AcDbRotatedDimension
1001
PE_URL
1000

1001
ACAD
1000
DSTYLE
1002
{
1070
   171
1070
     6
1070
   273
1070
     7
1002
}
  0
LINE
  5
149
330
1F
100
AcDbEntity
  8
참조1
100
AcDbLine
 10
89.05097678774484
 20
7.439999999999999
 30
0.0
 11
89.05097678774484
 21
-7.440000000000006
 31
0.0
  0
LINE
  5
14A
330
1F
100
AcDbEntity
  8
참조1
100
AcDbLine
 10
101.7509767877449
 20
5.439999999999999
 30
0.0
 11
89.05097678774484
 21
5.439999999999999
 31
0.0
  0
SOLID
  5
14B
330
1F
100
AcDbEntity
  8
참조1
100
AcDbTrace
 10
89.05097678774484
 20
5.439999999999999
 30
0.0
 11
95.40097678774484
 21
4.423999999999999
 31
0.0
 12
95.40097678774484
 22
6.455999999999999
 32
0.0
 13
95.40097678774484
 23
6.455999999999999
 33
0.0
  0
LINE
  5
14C
330
1F
100
AcDbEntity
  8
참조1
100
AcDbLine
 10
101.7509767877449
 20
-5.440000000000006
 30
0.0
 11
89.05097678774484
 21
-5.440000000000006
 31
0.0
  0
SOLID
  5
14D
330
1F
100
AcDbEntity
  8
참조1
100
AcDbTrace
 10
89.05097678774484
 20
-5.440000000000006
 30
0.0
 11
95.40097678774484
 21
-6.456000000000006
 31
0.0
 12
95.40097678774484
 22
-4.424000000000006
 32
0.0
 13
95.40097678774484
 23
-4.424000000000006
 33
0.0
  0
MTEXT
  5
14E
330
1F
100
AcDbEntity
  8
참조1
100
AcDbMText
 10
98.44846688021511
 20
10.98821664464993
 30
0.0
 40
3.5
 41
0.0
 71
     1
 72
     1
  1
A
  7
SLDTEXTSTYLE0
 73
     1
 44
1.0
  0
MTEXT
  5
14F
330
1F
100
AcDbEntity
  8
참조1
100
AcDbMText
 10
98.44846688021511
 20
0.108216644649929
 30
0.0
 40
3.5
 41
0.0
 71
     1
 72
     1
  1
A
  7
SLDTEXTSTYLE0
 73
     1
 44
1.0
  0
INSERT
  5
156
330
1F
100
AcDbEntity
  8
해칭선
100
AcDbBlockReference
  2
SW_DOWELSYMBOL_0
 10
0.0
 20
0.0
 30
0.0
  0
ENDSEC
  0
SECTION
  2
OBJECTS
  0
DICTIONARY
  5
C
330
0
100
AcDbDictionary
281
     1
  3
ACAD_GROUP
350
D
  3
ACAD_LAYOUT
350
1A
  3
ACAD_MLINESTYLE
350
17
  3
ACAD_PLOTSETTINGS
350
19
  3
ACAD_PLOTSTYLENAME
350
E
  3
ACAD_SCALELIST
350
47
  3
APPDATA
350
178
  3
DWGPROPS
350
1A7
  0
DICTIONARY
  5
1A5
330
1F
100
AcDbDictionary
280
     1
281
     1
  3
DIM_BOUNDING_BOXES_V1
360
1A6
  0
DICTIONARY
  5
D
102
{ACAD_REACTORS
330
C
102
}
330
C
100
AcDbDictionary
281
     1
  0
DICTIONARY
  5
1A
102
{ACAD_REACTORS
330
C
102
}
330
C
100
AcDbDictionary
281
     1
  3
Layout1
350
1E
  3
Layout2
350
26
  3
Model
350
22
  0
DICTIONARY
  5
17
102
{ACAD_REACTORS
330
C
102
}
330
C
100
AcDbDictionary
281
     1
  3
Standard
350
18
  0
DICTIONARY
  5
19
102
{ACAD_REACTORS
330
C
102
}
330
C
100
AcDbDictionary
281
     1
  0
ACDBDICTIONARYWDFLT
  5
E
102
{ACAD_REACTORS
330
C
102
}
330
C
100
AcDbDictionary
281
     1
  3
Normal
350
F
100
AcDbDictionaryWithDefault
340
F
  0
DICTIONARY
  5
47
102
{ACAD_REACTORS
330
C
102
}
330
C
100
AcDbDictionary
281
     1
  3
A0
350
48
  3
A1
350
49
  3
A2
350
4A
  3
A3
350
4B
  3
A4
350
4C
  3
A5
350
4D
  3
A6
350
4E
  3
A7
350
4F
  3
A8
350
50
  3
A9
350
51
  3
B0
350
52
  3
B1
350
53
  3
B2
350
54
  3
B3
350
55
  3
B4
350
56
  3
B5
350
57
  3
B6
350
58
  3
B7
350
59
  3
B8
350
5A
  3
B9
350
5B
  3
C0
350
5C
  3
C1
350
5D
  3
C2
350
5E
  3
C3
350
5F
  3
C4
350
60
  3
C5
350
61
  3
C6
350
62
  3
C7
350
63
  3
C8
350
64
  3
C9
350
65
  3
D0
350
66
  3
D1
350
67
  3
D2
350
68
  0
DICTIONARY
  5
178
102
{ACAD_REACTORS
330
C
102
}
330
C
100
AcDbDictionary
281
     1
  0
XRECORD
  5
1A7
102
{ACAD_REACTORS
330
C
102
}
330
C
100
AcDbXrecord
280
     1
  1
DWGPROPS COOKIE
  2

  3

  4

  6

  7

  8
12017165
  9

300
=
301
=
302
=
303
=
304
=
305
=
306
=
307
=
308
=
309
=
 40
0.0
 41
2458292.271488773
 42
2459697.018731076
  1

 90
        0
  0
DICTIONARY
  5
1A6
102
{ACAD_REACTORS
330
1A5
102
}
330
1A5
100
AcDbDictionary
281
     1
  0
LAYOUT
  5
1E
102
{ACAD_REACTORS
330
1A
102
}
330
1A
100
AcDbPlotSettings
  1

  2
none_device
  4

  6

 40
0.0
 41
0.0
 42
0.0
 43
0.0
 44
0.0
 45
0.0
 46
0.0
 47
0.0
 48
0.0
 49
0.0
140
0.0
141
0.0
142
1.0
143
1.0
 70
   688
 72
     1
 73
     0
 74
     5
  7

 75
    16
147
1.0
148
0.0
149
0.0
100
AcDbLayout
  1
Layout1
 70
     1
 71
     1
 10
0.0
 20
0.0
 11
420.0
 21
297.0
 12
0.0
 22
0.0
 32
0.0
 14
1.000000000000000E+20
 24
1.000000000000000E+20
 34
1.000000000000000E+20
 15
-1.000000000000000E+20
 25
-1.000000000000000E+20
 35
-1.000000000000000E+20
146
0.0
 13
0.0
 23
0.0
 33
0.0
 16
1.0
 26
0.0
 36
0.0
 17
0.0
 27
1.0
 37
0.0
 76
     0
330
1B
  0
LAYOUT
  5
26
102
{ACAD_REACTORS
330
1A
102
}
330
1A
100
AcDbPlotSettings
  1

  2
none_device
  4

  6

 40
0.0
 41
0.0
 42
0.0
 43
0.0
 44
0.0
 45
0.0
 46
0.0
 47
0.0
 48
0.0
 49
0.0
140
0.0
141
0.0
142
1.0
143
1.0
 70
   688
 72
     1
 73
     0
 74
     5
  7

 75
    16
147
1.0
148
0.0
149
0.0
100
AcDbLayout
  1
Layout2
 70
     1
 71
     2
 10
0.0
 20
0.0
 11
0.0
 21
0.0
 12
0.0
 22
0.0
 32
0.0
 14
0.0
 24
0.0
 34
0.0
 15
0.0
 25
0.0
 35
0.0
146
0.0
 13
0.0
 23
0.0
 33
0.0
 16
1.0
 26
0.0
 36
0.0
 17
0.0
 27
1.0
 37
0.0
 76
     0
330
23
  0
LAYOUT
  5
22
102
{ACAD_REACTORS
330
1A
102
}
330
1A
100
AcDbPlotSettings
  1

  2
none_device
  4
ANSI_A_(11.00_x_8.50_Inches)
  6

 40
6.35
 41
19.05
 42
6.35000508
 43
19.05000254
 44
279.4
 45
215.9
 46
111.157057533916
 47
83.56563222345136
 48
0.0
 49
0.0
140
0.0
141
0.0
142
0.063442055282122
143
1.0
 70
  1696
 72
     0
 73
     0
 74
     0
  7

 75
     0
147
0.0235690232323232
148
0.0
149
0.0
100
AcDbLayout
  1
Model
 70
     1
 71
     0
 10
0.0
 20
0.0
 11
420.0
 21
297.0
 12
0.0
 22
0.0
 32
0.0
 14
-61.46125702760081
 24
-49.97180738881175
 34
0.0
 15
101.7509767877449
 25
50.91641071209187
 35
0.0
146
0.0
 13
0.0
 23
0.0
 33
0.0
 16
1.0
 26
0.0
 36
0.0
 17
0.0
 27
1.0
 37
0.0
 76
     0
330
1F
331
29
  0
MLINESTYLE
  5
18
102
{ACAD_REACTORS
330
17
102
}
330
17
100
AcDbMlineStyle
  2
Standard
 70
     0
  3

 62
   256
 51
90.0
 52
90.0
 71
     2
 49
0.5
 62
   256
  6
BYLAYER
 49
-0.5
 62
   256
  6
BYLAYER
  0
ACDBPLACEHOLDER
  5
F
102
{ACAD_REACTORS
330
E
102
}
330
E
  0
SCALE
  5
48
102
{ACAD_REACTORS
330
47
102
}
330
47
100
AcDbScale
 70
     0
300
1:1
140
1.0
141
1.0
290
     1
  0
SCALE
  5
49
102
{ACAD_REACTORS
330
47
102
}
330
47
100
AcDbScale
 70
     0
300
1:2
140
1.0
141
2.0
290
     0
  0
SCALE
  5
4A
102
{ACAD_REACTORS
330
47
102
}
330
47
100
AcDbScale
 70
     0
300
1:4
140
1.0
141
4.0
290
     0
  0
SCALE
  5
4B
102
{ACAD_REACTORS
330
47
102
}
330
47
100
AcDbScale
 70
     0
300
1:5
140
1.0
141
5.0
290
     0
  0
SCALE
  5
4C
102
{ACAD_REACTORS
330
47
102
}
330
47
100
AcDbScale
 70
     0
300
1:8
140
1.0
141
8.0
290
     0
  0
SCALE
  5
4D
102
{ACAD_REACTORS
330
47
102
}
330
47
100
AcDbScale
 70
     0
300
1:10
140
1.0
141
10.0
290
     0
  0
SCALE
  5
4E
102
{ACAD_REACTORS
330
47
102
}
330
47
100
AcDbScale
 70
     0
300
1:16
140
1.0
141
16.0
290
     0
  0
SCALE
  5
4F
102
{ACAD_REACTORS
330
47
102
}
330
47
100
AcDbScale
 70
     0
300
1:20
140
1.0
141
20.0
290
     0
  0
SCALE
  5
50
102
{ACAD_REACTORS
330
47
102
}
330
47
100
AcDbScale
 70
     0
300
1:30
140
1.0
141
30.0
290
     0
  0
SCALE
  5
51
102
{ACAD_REACTORS
330
47
102
}
330
47
100
AcDbScale
 70
     0
300
1:40
140
1.0
141
40.0
290
     0
  0
SCALE
  5
52
102
{ACAD_REACTORS
330
47
102
}
330
47
100
AcDbScale
 70
     0
300
1:50
140
1.0
141
50.0
290
     0
  0
SCALE
  5
53
102
{ACAD_REACTORS
330
47
102
}
330
47
100
AcDbScale
 70
     0
300
1:100
140
1.0
141
100.0
290
     0
  0
SCALE
  5
54
102
{ACAD_REACTORS
330
47
102
}
330
47
100
AcDbScale
 70
     0
300
2:1
140
2.0
141
1.0
290
     0
  0
SCALE
  5
55
102
{ACAD_REACTORS
330
47
102
}
330
47
100
AcDbScale
 70
     0
300
4:1
140
4.0
141
1.0
290
     0
  0
SCALE
  5
56
102
{ACAD_REACTORS
330
47
102
}
330
47
100
AcDbScale
 70
     0
300
8:1
140
8.0
141
1.0
290
     0
  0
SCALE
  5
57
102
{ACAD_REACTORS
330
47
102
}
330
47
100
AcDbScale
 70
     0
300
10:1
140
10.0
141
1.0
290
     0
  0
SCALE
  5
58
102
{ACAD_REACTORS
330
47
102
}
330
47
100
AcDbScale
 70
     0
300
100:1
140
100.0
141
1.0
290
     0
  0
SCALE
  5
59
102
{ACAD_REACTORS
330
47
102
}
330
47
100
AcDbScale
 70
     0
300
1/128" = 1'-0"
140
0.0078125
141
12.0
290
     0
  0
SCALE
  5
5A
102
{ACAD_REACTORS
330
47
102
}
330
47
100
AcDbScale
 70
     0
300
1/64" = 1'-0"
140
0.015625
141
12.0
290
     0
  0
SCALE
  5
5B
102
{ACAD_REACTORS
330
47
102
}
330
47
100
AcDbScale
 70
     0
300
1/32" = 1'-0"
140
0.03125
141
12.0
290
     0
  0
SCALE
  5
5C
102
{ACAD_REACTORS
330
47
102
}
330
47
100
AcDbScale
 70
     0
300
1/16" = 1'-0"
140
0.0625
141
12.0
290
     0
  0
SCALE
  5
5D
102
{ACAD_REACTORS
330
47
102
}
330
47
100
AcDbScale
 70
     0
300
3/32" = 1'-0"
140
0.09375
141
12.0
290
     0
  0
SCALE
  5
5E
102
{ACAD_REACTORS
330
47
102
}
330
47
100
AcDbScale
 70
     0
300
1/8" = 1'-0"
140
0.125
141
12.0
290
     0
  0
SCALE
  5
5F
102
{ACAD_REACTORS
330
47
102
}
330
47
100
AcDbScale
 70
     0
300
3/16" = 1'-0"
140
0.1875
141
12.0
290
     0
  0
SCALE
  5
60
102
{ACAD_REACTORS
330
47
102
}
330
47
100
AcDbScale
 70
     0
300
1/4" = 1'-0"
140
0.25
141
12.0
290
     0
  0
SCALE
  5
61
102
{ACAD_REACTORS
330
47
102
}
330
47
100
AcDbScale
 70
     0
300
3/8" = 1'-0"
140
0.375
141
12.0
290
     0
  0
SCALE
  5
62
102
{ACAD_REACTORS
330
47
102
}
330
47
100
AcDbScale
 70
     0
300
1/2" = 1'-0"
140
0.5
141
12.0
290
     0
  0
SCALE
  5
63
102
{ACAD_REACTORS
330
47
102
}
330
47
100
AcDbScale
 70
     0
300
3/4" = 1'-0"
140
0.75
141
12.0
290
     0
  0
SCALE
  5
64
102
{ACAD_REACTORS
330
47
102
}
330
47
100
AcDbScale
 70
     0
300
1" = 1'-0"
140
1.0
141
12.0
290
     0
  0
SCALE
  5
65
102
{ACAD_REACTORS
330
47
102
}
330
47
100
AcDbScale
 70
     0
300
1-1/2" = 1'-0"
140
1.5
141
12.0
290
     0
  0
SCALE
  5
66
102
{ACAD_REACTORS
330
47
102
}
330
47
100
AcDbScale
 70
     0
300
3" = 1'-0"
140
3.0
141
12.0
290
     0
  0
SCALE
  5
67
102
{ACAD_REACTORS
330
47
102
}
330
47
100
AcDbScale
 70
     0
300
6" = 1'-0"
140
6.0
141
12.0
290
     0
  0
SCALE
  5
68
102
{ACAD_REACTORS
330
47
102
}
330
47
100
AcDbScale
 70
     0
300
1'-0" = 1'-0"
140
12.0
141
12.0
290
     0
  0
ENDSEC
  0
EOF
