  0
SECTION
  2
HEADER
  9
$ACADVER
  1
AC1015
  9
$ACADMAINTVER
 70
     6
  9
$DWGCODEPAGE
  3
ANSI_949
  9
$INSBASE
 10
0.0
 20
0.0
 30
0.0
  9
$EXTMIN
 10
-65.47750000000008
 20
-49.97073246008785
 30
0.0
  9
$EXTMAX
 10
97.5759838153456
 20
51.70544329059609
 30
0.0
  9
$LIMMIN
 10
0.0
 20
0.0
  9
$LIMMAX
 10
420.0
 20
297.0
  9
$ORTHOMODE
 70
     0
  9
$REGENMODE
 70
     1
  9
$FILLMODE
 70
     1
  9
$QTEXTMODE
 70
     0
  9
$MIRRTEXT
 70
     1
  9
$LTSCALE
 40
1.0
  9
$ATTMODE
 70
     1
  9
$TEXTSIZE
 40
3.5
  9
$TRACEWID
 40
1.0
  9
$TEXTSTYLE
  7
Standard
  9
$CLAYER
  8
0
  9
$CELTYPE
  6
ByLayer
  9
$CECOLOR
 62
   256
  9
$CELTSCALE
 40
1.0
  9
$DISPSILH
 70
     0
  9
$DIMSCALE
 40
1.0
  9
$DIMASZ
 40
3.302
  9
$DIMEXO
 40
1.0
  9
$DIMDLI
 40
3.75
  9
$DIMRND
 40
0.0
  9
$DIMDLE
 40
0.0
  9
$DIMEXE
 40
1.0
  9
$DIMTP
 40
0.0
  9
$DIMTM
 40
0.0
  9
$DIMTXT
 40
3.5
  9
$DIMCEN
 40
2.5
  9
$DIMTSZ
 40
0.0
  9
$DIMTOL
 70
     0
  9
$DIMLIM
 70
     0
  9
$DIMTIH
 70
     1
  9
$DIMTOH
 70
     1
  9
$DIMSE1
 70
     0
  9
$DIMSE2
 70
     0
  9
$DIMTAD
 70
     1
  9
$DIMZIN
 70
     0
  9
$DIMBLK
  1

  9
$DIMASO
 70
     1
  9
$DIMSHO
 70
     1
  9
$DIMPOST
  1

  9
$DIMAPOST
  1

  9
$DIMALT
 70
     0
  9
$DIMALTD
 70
     3
  9
$DIMALTF
 40
0.0393700787401575
  9
$DIMLFAC
 40
1.0
  9
$DIMTOFL
 70
     1
  9
$DIMTVP
 40
0.0
  9
$DIMTIX
 70
     0
  9
$DIMSOXD
 70
     0
  9
$DIMSAH
 70
     0
  9
$DIMBLK1
  1

  9
$DIMBLK2
  1

  9
$DIMSTYLE
  2
ISO-25
  9
$DIMCLRD
 70
     0
  9
$DIMCLRE
 70
     0
  9
$DIMCLRT
 70
     0
  9
$DIMTFAC
 40
1.0
  9
$DIMGAP
 40
1.524
  9
$DIMJUST
 70
     0
  9
$DIMSD1
 70
     0
  9
$DIMSD2
 70
     0
  9
$DIMTOLJ
 70
     0
  9
$DIMTZIN
 70
     0
  9
$DIMALTZ
 70
     0
  9
$DIMALTTZ
 70
     0
  9
$DIMUPT
 70
     0
  9
$DIMDEC
 70
     2
  9
$DIMTDEC
 70
     2
  9
$DIMALTU
 70
     2
  9
$DIMALTTD
 70
     3
  9
$DIMTXSTY
  7
Standard
  9
$DIMAUNIT
 70
     0
  9
$DIMADEC
 70
     2
  9
$DIMALTRND
 40
0.0
  9
$DIMAZIN
 70
     0
  9
$DIMDSEP
 70
    44
  9
$DIMATFIT
 70
     3
  9
$DIMFRAC
 70
     0
  9
$DIMLDRBLK
  1

  9
$DIMLUNIT
 70
     2
  9
$DIMLWD
 70
    -2
  9
$DIMLWE
 70
    -2
  9
$DIMTMOVE
 70
     0
  9
$LUNITS
 70
     2
  9
$LUPREC
 70
     2
  9
$SKETCHINC
 40
1.0
  9
$FILLETRAD
 40
10.0
  9
$AUNITS
 70
     0
  9
$AUPREC
 70
     2
  9
$MENU
  1
.
  9
$ELEVATION
 40
0.0
  9
$PELEVATION
 40
0.0
  9
$THICKNESS
 40
0.0
  9
$LIMCHECK
 70
     0
  9
$CHAMFERA
 40
0.0
  9
$CHAMFERB
 40
0.0
  9
$CHAMFERC
 40
0.0
  9
$CHAMFERD
 40
0.0
  9
$SKPOLY
 70
     0
  9
$TDCREATE
 40
2458292.64667816
  9
$TDUCREATE
 40
2458292.27167816
  9
$TDUPDATE
 40
2459697.394025359
  9
$TDUUPDATE
 40
2459697.019025359
  9
$TDINDWG
 40
0.0012650231
  9
$TDUSRTIMER
 40
0.0002916551
  9
$USRTIMER
 70
     1
  9
$ANGBASE
 50
0.0
  9
$ANGDIR
 70
     0
  9
$PDMODE
 70
     0
  9
$PDSIZE
 40
-1.0
  9
$PLINEWID
 40
0.0
  9
$SPLFRAME
 70
     0
  9
$SPLINETYPE
 70
     6
  9
$SPLINESEGS
 70
     8
  9
$HANDSEED
  5
1A4
  9
$SURFTAB1
 70
     6
  9
$SURFTAB2
 70
     6
  9
$SURFTYPE
 70
     6
  9
$SURFU
 70
     6
  9
$SURFV
 70
     6
  9
$UCSBASE
  2

  9
$UCSNAME
  2

  9
$UCSORG
 10
0.0
 20
0.0
 30
0.0
  9
$UCSXDIR
 10
1.0
 20
0.0
 30
0.0
  9
$UCSYDIR
 10
0.0
 20
1.0
 30
0.0
  9
$UCSORTHOREF
  2

  9
$UCSORTHOVIEW
 70
     0
  9
$UCSORGTOP
 10
0.0
 20
0.0
 30
0.0
  9
$UCSORGBOTTOM
 10
0.0
 20
0.0
 30
0.0
  9
$UCSORGLEFT
 10
0.0
 20
0.0
 30
0.0
  9
$UCSORGRIGHT
 10
0.0
 20
0.0
 30
0.0
  9
$UCSORGFRONT
 10
0.0
 20
0.0
 30
0.0
  9
$UCSORGBACK
 10
0.0
 20
0.0
 30
0.0
  9
$PUCSBASE
  2

  9
$PUCSNAME
  2

  9
$PUCSORG
 10
0.0
 20
0.0
 30
0.0
  9
$PUCSXDIR
 10
1.0
 20
0.0
 30
0.0
  9
$PUCSYDIR
 10
0.0
 20
1.0
 30
0.0
  9
$PUCSORTHOREF
  2

  9
$PUCSORTHOVIEW
 70
     0
  9
$PUCSORGTOP
 10
0.0
 20
0.0
 30
0.0
  9
$PUCSORGBOTTOM
 10
0.0
 20
0.0
 30
0.0
  9
$PUCSORGLEFT
 10
0.0
 20
0.0
 30
0.0
  9
$PUCSORGRIGHT
 10
0.0
 20
0.0
 30
0.0
  9
$PUCSORGFRONT
 10
0.0
 20
0.0
 30
0.0
  9
$PUCSORGBACK
 10
0.0
 20
0.0
 30
0.0
  9
$USERI1
 70
     0
  9
$USERI2
 70
     0
  9
$USERI3
 70
     0
  9
$USERI4
 70
     0
  9
$USERI5
 70
     0
  9
$USERR1
 40
0.0
  9
$USERR2
 40
0.0
  9
$USERR3
 40
0.0
  9
$USERR4
 40
0.0
  9
$USERR5
 40
0.0
  9
$WORLDVIEW
 70
     1
  9
$SHADEDGE
 70
     3
  9
$SHADEDIF
 70
    70
  9
$TILEMODE
 70
     1
  9
$MAXACTVP
 70
    64
  9
$PINSBASE
 10
0.0
 20
0.0
 30
0.0
  9
$PLIMCHECK
 70
     0
  9
$PEXTMIN
 10
1.000000000000000E+20
 20
1.000000000000000E+20
 30
1.000000000000000E+20
  9
$PEXTMAX
 10
-1.000000000000000E+20
 20
-1.000000000000000E+20
 30
-1.000000000000000E+20
  9
$PLIMMIN
 10
0.0
 20
0.0
  9
$PLIMMAX
 10
0.0
 20
0.0
  9
$UNITMODE
 70
     0
  9
$VISRETAIN
 70
     1
  9
$PLINEGEN
 70
     0
  9
$PSLTSCALE
 70
     1
  9
$TREEDEPTH
 70
  3020
  9
$CMLSTYLE
  2
Standard
  9
$CMLJUST
 70
     0
  9
$CMLSCALE
 40
20.0
  9
$PROXYGRAPHICS
 70
     1
  9
$MEASUREMENT
 70
     1
  9
$CELWEIGHT
370
    -1
  9
$ENDCAPS
280
     0
  9
$JOINSTYLE
280
     0
  9
$LWDISPLAY
290
     1
  9
$INSUNITS
 70
     4
  9
$HYPERLINKBASE
  1

  9
$STYLESHEET
  1

  9
$XEDIT
290
     1
  9
$CEPSNTYPE
380
     0
  9
$PSTYLEMODE
290
     1
  9
$FINGERPRINTGUID
  2
{E5E101D6-CE52-439E-93F1-053495F360BA}
  9
$VERSIONGUID
  2
{FAEB1C32-E019-11D5-929B-00C0DF256EC4}
  9
$EXTNAMES
290
     1
  9
$PSVPSCALE
 40
0.0
  9
$OLESTARTUP
290
     0
  0
ENDSEC
  0
SECTION
  2
CLASSES
  0
CLASS
  1
ACDBDICTIONARYWDFLT
  2
AcDbDictionaryWithDefault
  3
ObjectDBX Classes
 90
        0
280
     0
281
     0
  0
CLASS
  1
VISUALSTYLE
  2
AcDbVisualStyle
  3
ObjectDBX Classes
 90
     4095
280
     0
281
     0
  0
CLASS
  1
MATERIAL
  2
AcDbMaterial
  3
ObjectDBX Classes
 90
     1153
280
     0
281
     0
  0
CLASS
  1
SCALE
  2
AcDbScale
  3
ObjectDBX Classes
 90
     1153
280
     0
281
     0
  0
CLASS
  1
SUN
  2
AcDbSun
  3
SCENEOE
 90
     1153
280
     0
281
     0
  0
CLASS
  1
ACDBPLACEHOLDER
  2
AcDbPlaceHolder
  3
ObjectDBX Classes
 90
        0
280
     0
281
     0
  0
CLASS
  1
LAYOUT
  2
AcDbLayout
  3
ObjectDBX Classes
 90
        0
280
     0
281
     0
  0
CLASS
  1
TABLESTYLE
  2
AcDbTableStyle
  3
ObjectDBX Classes
 90
     4095
280
     0
281
     0
  0
CLASS
  1
MLEADERSTYLE
  2
AcDbMLeaderStyle
  3
ACDB_MLEADERSTYLE_CLASS
 90
     4095
280
     0
281
     0
  0
ENDSEC
  0
SECTION
  2
TABLES
  0
TABLE
  2
VPORT
  5
8
330
0
100
AcDbSymbolTable
 70
     1
  0
VPORT
  5
29
330
8
100
AcDbSymbolTableRecord
100
AcDbViewportTableRecord
  2
*Active
 70
     0
 10
0.0
 20
0.0
 11
1.0
 21
1.0
 12
16.04924190767275
 22
0.8673554152541172
 13
0.0
 23
0.0
 14
10.0
 24
10.0
 15
10.0
 25
10.0
 16
0.0
 26
0.0
 36
1.0
 17
0.0
 27
0.0
 37
0.0
 40
103.7096992656976
 41
2.400311526479751
 42
50.0
 43
0.0
 44
0.0
 50
0.0
 51
0.0
 71
    16
 72
  2000
 73
     1
 74
     3
 75
     0
 76
     0
 77
     0
 78
     0
281
     0
 65
     1
110
0.0
120
0.0
130
0.0
111
1.0
121
0.0
131
0.0
112
0.0
122
1.0
132
0.0
 79
     0
146
0.0
  0
ENDTAB
  0
TABLE
  2
LTYPE
  5
5
330
0
100
AcDbSymbolTable
 70
     6
  0
LTYPE
  5
14
330
5
100
AcDbSymbolTableRecord
100
AcDbLinetypeTableRecord
  2
ByBlock
 70
     0
  3

 72
    65
 73
     0
 40
0.0
  0
LTYPE
  5
15
330
5
100
AcDbSymbolTableRecord
100
AcDbLinetypeTableRecord
  2
ByLayer
 70
     0
  3

 72
    65
 73
     0
 40
0.0
  0
LTYPE
  5
16
330
5
100
AcDbSymbolTableRecord
100
AcDbLinetypeTableRecord
  2
Continuous
 70
     0
  3
Solid line
 72
    65
 73
     0
 40
0.0
  0
LTYPE
  5
6A
330
5
100
AcDbSymbolTableRecord
100
AcDbLinetypeTableRecord
  2
HIDDEN
 70
     0
  3
Hidden __ __ __ __ __ __ __ __ __ __ __ __ __ __
 72
    65
 73
     2
 40
1.905
 49
1.27
 74
     0
 49
-0.635
 74
     0
  0
LTYPE
  5
6B
330
5
100
AcDbSymbolTableRecord
100
AcDbLinetypeTableRecord
  2
PHANTOM
 70
     0
  3
Phantom ______  __  __  ______  __  __  ______
 72
    65
 73
     6
 40
12.7
 49
6.35
 74
     0
 49
-1.27
 74
     0
 49
1.27
 74
     0
 49
-1.27
 74
     0
 49
1.27
 74
     0
 49
-1.27
 74
     0
  0
LTYPE
  5
6C
330
5
100
AcDbSymbolTableRecord
100
AcDbLinetypeTableRecord
  2
CENTER
 70
     0
  3
Center ____ _ ____ _ ____ _ ____ _ ____ _ ____
 72
    65
 73
     4
 40
10.16
 49
6.35
 74
     0
 49
-1.27
 74
     0
 49
1.27
 74
     0
 49
-1.27
 74
     0
  0
LTYPE
  5
6D
330
5
100
AcDbSymbolTableRecord
100
AcDbLinetypeTableRecord
  2
CENTERX2
 70
     0
  3
Center (2x) ________  __  ________  __  _____
 72
    65
 73
     4
 40
20.32
 49
12.7
 74
     0
 49
-2.54
 74
     0
 49
2.54
 74
     0
 49
-2.54
 74
     0
  0
LTYPE
  5
6E
330
5
100
AcDbSymbolTableRecord
100
AcDbLinetypeTableRecord
  2
DOT2
 70
     0
  3
Dot (.5x) ........................................
 72
    65
 73
     2
 40
0.635
 49
0.0
 74
     0
 49
-0.635
 74
     0
  0
ENDTAB
  0
TABLE
  2
LAYER
  5
2
330
0
100
AcDbSymbolTable
 70
    18
  0
LAYER
  5
10
330
2
100
AcDbSymbolTableRecord
100
AcDbLayerTableRecord
  2
0
 70
     0
 62
     7
  6
Continuous
370
    -3
390
F
  0
LAYER
  5
6F
330
2
100
AcDbSymbolTableRecord
100
AcDbLayerTableRecord
  2
FORMAT
 70
     0
 62
     2
  6
Continuous
370
    -3
390
F
  0
LAYER
  5
70
330
2
100
AcDbSymbolTableRecord
100
AcDbLayerTableRecord
  2
외형선
 70
     0
 62
     4
  6
Continuous
370
    30
390
F
  0
LAYER
  5
71
330
2
100
AcDbSymbolTableRecord
100
AcDbLayerTableRecord
  2
숨은선
 70
     0
 62
     2
  6
HIDDEN
370
    15
390
F
  0
LAYER
  5
72
330
2
100
AcDbSymbolTableRecord
100
AcDbLayerTableRecord
  2
중심선
 70
     0
 62
     1
  6
CENTERX2
370
    -3
390
F
  0
LAYER
  5
73
330
2
100
AcDbSymbolTableRecord
100
AcDbLayerTableRecord
  2
파단선
 70
     0
 62
     4
  6
Continuous
370
    -3
390
F
  0
LAYER
  5
74
330
2
100
AcDbSymbolTableRecord
100
AcDbLayerTableRecord
  2
해칭선
 70
     0
 62
   100
  6
Continuous
370
    -3
390
F
  0
LAYER
  5
75
330
2
100
AcDbSymbolTableRecord
100
AcDbLayerTableRecord
  2
가는실선
 70
     0
 62
     4
  6
Continuous
370
    -3
390
F
  0
LAYER
  5
76
330
2
100
AcDbSymbolTableRecord
100
AcDbLayerTableRecord
  2
치수_보조선
 70
     0
 62
     4
  6
Continuous
370
    -3
390
F
  0
LAYER
  5
77
330
2
100
AcDbSymbolTableRecord
100
AcDbLayerTableRecord
  2
치수문자_일반주서
 70
     0
 62
     7
  6
Continuous
370
    15
390
F
  0
LAYER
  5
78
330
2
100
AcDbSymbolTableRecord
100
AcDbLayerTableRecord
  2
개별주서
 70
     0
 62
   100
  6
Continuous
370
    30
390
F
  0
LAYER
  5
79
330
2
100
AcDbSymbolTableRecord
100
AcDbLayerTableRecord
  2
중간선
 70
     0
 62
     2
  6
Continuous
370
    15
390
F
  0
LAYER
  5
7A
330
2
100
AcDbSymbolTableRecord
100
AcDbLayerTableRecord
  2
윤곽선
 70
     0
 62
     3
  6
Continuous
370
    40
390
F
  0
LAYER
  5
7B
330
2
100
AcDbSymbolTableRecord
100
AcDbLayerTableRecord
  2
중심마크
 70
     0
 62
   100
  6
Continuous
370
    30
390
F
  0
LAYER
  5
7C
330
2
100
AcDbSymbolTableRecord
100
AcDbLayerTableRecord
  2
가상선
 70
     0
 62
     4
  6
PHANTOM
370
    -3
390
F
  0
LAYER
  5
7D
330
2
100
AcDbSymbolTableRecord
100
AcDbLayerTableRecord
  2
특수지정선
 70
     0
 62
     5
  6
CENTERX2
370
    60
390
F
  0
LAYER
  5
7E
330
2
100
AcDbSymbolTableRecord
100
AcDbLayerTableRecord
  2
참조1
 70
     0
 62
    -4
  6
Continuous
370
    -3
390
F
  0
LAYER
  5
176
330
2
100
AcDbSymbolTableRecord
100
AcDbLayerTableRecord
  2
Defpoints
 70
     0
 62
     7
  6
Continuous
290
     0
370
    -3
390
F
  0
ENDTAB
  0
TABLE
  2
STYLE
  5
3
330
0
100
AcDbSymbolTable
 70
     2
  0
STYLE
  5
11
330
3
100
AcDbSymbolTableRecord
100
AcDbTextStyleTableRecord
  2
Standard
 70
     0
 40
0.0
 41
1.0
 50
0.0
 71
     0
 42
3.5
  3
txt
  4

  0
STYLE
  5
94
330
3
100
AcDbSymbolTableRecord
100
AcDbTextStyleTableRecord
  2
SLDTEXTSTYLE0
 70
     0
 40
0.0
 41
0.75
 50
0.0
 71
     0
 42
3.5
  3
TXT
  4

  0
ENDTAB
  0
TABLE
  2
VIEW
  5
6
330
0
100
AcDbSymbolTable
 70
     0
  0
ENDTAB
  0
TABLE
  2
UCS
  5
7
330
0
100
AcDbSymbolTable
 70
     0
  0
ENDTAB
  0
TABLE
  2
APPID
  5
9
330
0
100
AcDbSymbolTable
 70
     4
  0
APPID
  5
12
330
9
100
AcDbSymbolTableRecord
100
AcDbRegAppTableRecord
  2
ACAD
 70
     0
  0
APPID
  5
179
330
9
100
AcDbSymbolTableRecord
100
AcDbRegAppTableRecord
  2
PE_URL
 70
     0
  0
APPID
  5
17E
330
9
100
AcDbSymbolTableRecord
100
AcDbRegAppTableRecord
  2
ACAD_DSTYLE_DIMFLIPARROW_SYMBOL
 70
     0
  0
APPID
  5
17F
330
9
100
AcDbSymbolTableRecord
100
AcDbRegAppTableRecord
  2
ACAD_DSTYLE_DIMFLIPARROW_WHICH_SYMBOL
 70
     0
  0
ENDTAB
  0
TABLE
  2
DIMSTYLE
  5
A
330
0
100
AcDbSymbolTable
 70
     4
100
AcDbDimStyleTable
  0
DIMSTYLE
105
27
330
A
100
AcDbSymbolTableRecord
100
AcDbDimStyleTableRecord
  2
ISO-25
 70
     0
 41
2.5
 42
0.625
 43
3.75
 44
1.25
 73
     0
 74
     0
 77
     1
 78
     8
140
2.5
141
2.5
143
0.03937007874016
147
0.625
171
     3
172
     1
178
     0
271
     2
272
     2
274
     3
278
    44
283
     0
284
     8
340
11
  0
DIMSTYLE
105
F6
102
{ACAD_REACTORS
330
F5
330
10A
330
11E
330
132
102
}
330
A
100
AcDbSymbolTableRecord
100
AcDbDimStyleTableRecord
  2
SLDDIMSTYLE0
 70
     0
 41
3.302
 44
0.0
 45
0.000000001
 73
     0
 74
     0
 77
     1
 78
    12
 79
     3
140
3.5
143
0.0393700787401575
147
0.875
148
0.000000001
170
     1
172
     1
173
     1
178
     0
271
     2
272
     2
276
     2
284
    12
289
     0
340
94
  0
DIMSTYLE
105
11F
330
A
100
AcDbSymbolTableRecord
100
AcDbDimStyleTableRecord
  2
SLDDIMSTYLE1
 70
     0
 41
3.302
 44
0.0
 45
0.000000001
 73
     0
 74
     0
 77
     1
 78
    12
 79
     3
140
3.5
143
0.0393700787401575
147
0.875
148
0.000000001
170
     1
173
     1
178
     0
271
     2
272
     2
276
     2
284
    12
340
94
  0
DIMSTYLE
105
133
330
A
100
AcDbSymbolTableRecord
100
AcDbDimStyleTableRecord
  2
SLDDIMSTYLE2
 70
     0
 41
3.302
 44
0.0
 45
0.000000001
 73
     0
 74
     0
 77
     1
 78
     4
 79
     1
140
3.5
143
0.0393700787401575
147
0.875
148
0.000000001
170
     1
173
     1
178
     0
271
     2
272
     2
276
     2
284
    12
340
94
  0
ENDTAB
  0
TABLE
  2
BLOCK_RECORD
  5
1
330
0
100
AcDbSymbolTable
 70
     7
  0
BLOCK_RECORD
  5
1F
102
{ACAD_XDICTIONARY
360
1A1
102
}
330
1
100
AcDbSymbolTableRecord
100
AcDbBlockTableRecord
  2
*Model_Space
340
22
  0
BLOCK_RECORD
  5
1B
330
1
100
AcDbSymbolTableRecord
100
AcDbBlockTableRecord
  2
*Paper_Space
340
1E
  0
BLOCK_RECORD
  5
23
330
1
100
AcDbSymbolTableRecord
100
AcDbBlockTableRecord
  2
*Paper_Space0
340
26
  0
BLOCK_RECORD
  5
7F
330
1
100
AcDbSymbolTableRecord
100
AcDbBlockTableRecord
  2
블럭10
340
0
102
{BLKREFS
331
EE
102
}
  0
BLOCK_RECORD
  5
F7
330
1
100
AcDbSymbolTableRecord
100
AcDbBlockTableRecord
  2
_D
340
0
  0
BLOCK_RECORD
  5
10B
330
1
100
AcDbSymbolTableRecord
100
AcDbBlockTableRecord
  2
_D_1
340
0
  0
BLOCK_RECORD
  5
120
330
1
100
AcDbSymbolTableRecord
100
AcDbBlockTableRecord
  2
_D_2
340
0
  0
BLOCK_RECORD
  5
134
330
1
100
AcDbSymbolTableRecord
100
AcDbBlockTableRecord
  2
_D_3
340
0
  0
BLOCK_RECORD
  5
14D
330
1
100
AcDbSymbolTableRecord
100
AcDbBlockTableRecord
  2
SW_DOWELSYMBOL_0
340
0
102
{BLKREFS
331
153
102
}
  0
ENDTAB
  0
ENDSEC
  0
SECTION
  2
BLOCKS
  0
BLOCK
  5
20
330
1F
100
AcDbEntity
  8
0
100
AcDbBlockBegin
  2
*Model_Space
 70
     0
 10
0.0
 20
0.0
 30
0.0
  3
*Model_Space
  1

  0
ENDBLK
  5
21
330
1F
100
AcDbEntity
  8
0
100
AcDbBlockEnd
  0
BLOCK
  5
1C
330
1B
100
AcDbEntity
 67
     1
  8
0
100
AcDbBlockBegin
  2
*Paper_Space
 70
     0
 10
0.0
 20
0.0
 30
0.0
  3
*Paper_Space
  1

  0
ENDBLK
  5
1D
330
1B
100
AcDbEntity
 67
     1
  8
0
100
AcDbBlockEnd
  0
BLOCK
  5
24
330
23
100
AcDbEntity
  8
0
100
AcDbBlockBegin
  2
*Paper_Space0
 70
     0
 10
0.0
 20
0.0
 30
0.0
  3
*Paper_Space0
  1

  0
ENDBLK
  5
25
330
23
100
AcDbEntity
  8
0
100
AcDbBlockEnd
  0
BLOCK
  5
80
330
7F
100
AcDbEntity
  8
0
100
AcDbBlockBegin
  2
블럭10
 70
     2
 10
0.0
 20
0.0
 30
0.0
  3
블럭10
  1

  0
ELLIPSE
  5
82
330
7F
100
AcDbEntity
  8
중심선
100
AcDbEllipse
 10
20.54032771741204
 20
12.0471743016438
 30
0.0
 11
6.600054785286829
 21
-1.261213355974178E-13
 31
0.0
210
0.0
220
0.0
230
1.0
 40
0.636358354079598
 41
0.9219305317359503
 42
6.513795318482858
  0
ELLIPSE
  5
83
330
7F
100
AcDbEntity
  8
중심선
100
AcDbEllipse
 10
20.54032771746488
 20
12.04717430159265
 30
0.0
 11
3.960054785062283
 21
1.540847449632565E-10
 31
0.0
210
0.0
220
0.0
230
1.0
 40
0.3939339440162632
 41
1.131841032648279
 42
5.62031148352944
  0
LINE
  5
84
330
7F
100
AcDbEntity
  8
중심선
100
AcDbLine
 10
2.268634060543552
 20
16.24717430164393
 30
0.0
 11
5.714909304380834
 21
16.24717430164393
 31
0.0
  0
LINE
  5
85
330
7F
100
AcDbEntity
  8
중심선
100
AcDbLine
 10
5.245725140726316
 20
7.84717430164391
 30
0.0
 11
8.692000384563599
 21
7.84717430164391
 31
0.0
  0
LINE
  5
86
330
7F
100
AcDbEntity
  8
중심선
100
AcDbLine
 10
15.74043728645272
 20
16.24717430164393
 30
0.0
 11
8.692000384563599
 21
7.84717430164391
 31
0.0
  0
LINE
  5
87
330
7F
100
AcDbEntity
  8
중심선
100
AcDbLine
 10
0.1404042013395286
 20
13.71084872107135
 30
0.0
 11
3.58671253028996
 21
13.71088815037384
 31
0.0
  0
LINE
  5
88
330
7F
100
AcDbEntity
  8
중심선
100
AcDbLine
 10
2.750260043222114
 20
10.84717430164391
 30
0.0
 11
6.196535287059397
 21
10.84717430164391
 31
0.0
  0
LINE
  5
89
330
7F
100
AcDbEntity
  8
중심선
100
AcDbLine
 10
12.29416204261559
 20
16.24717430164393
 30
0.0
 11
5.245725140726316
 21
7.84717430164391
 31
0.0
  0
LINE
  5
8A
330
7F
100
AcDbEntity
  8
중심선
100
AcDbLine
 10
10.72767329541681
 20
16.24717430164393
 30
0.0
 11
6.196535287059397
 21
10.84717430164391
 31
0.0
  0
LINE
  5
8B
330
7F
100
AcDbEntity
  8
중심선
100
AcDbLine
 10
7.28139805157953
 20
16.24717430164393
 30
0.0
 11
2.750260043222114
 21
10.84717430164391
 31
0.0
  0
LINE
  5
8C
330
7F
100
AcDbEntity
  8
중심선
100
AcDbLine
 10
5.714909304380834
 20
16.24717430164393
 30
0.0
 11
3.58671253028996
 21
13.71088815037384
 31
0.0
  0
LINE
  5
8D
330
7F
100
AcDbEntity
  8
중심선
100
AcDbLine
 10
2.268634060543552
 20
16.24717430164393
 30
0.0
 11
0.1404042013395286
 21
13.71084872107135
 31
0.0
  0
LINE
  5
8E
330
7F
100
AcDbEntity
  8
중심선
100
AcDbLine
 10
7.28139805157953
 20
16.24717430164393
 30
0.0
 11
10.72767329541681
 21
16.24717430164393
 31
0.0
  0
LINE
  5
8F
330
7F
100
AcDbEntity
  8
중심선
100
AcDbLine
 10
12.29416204261559
 20
16.24717430164393
 30
0.0
 11
15.74043728645272
 21
16.24717430164393
 31
0.0
  0
LINE
  5
90
330
7F
100
AcDbEntity
  8
중심선
100
AcDbLine
 10
19.22036997980202
 20
11.08717430171403
 30
0.0
 11
23.66174974927406
 21
11.08717430171406
 31
0.0
  0
LINE
  5
91
330
7F
100
AcDbEntity
  8
중심선
100
AcDbLine
 10
19.22039502424796
 20
13.00717430171391
 30
0.0
 11
19.22036997980202
 21
11.08717430171403
 31
0.0
  0
LINE
  5
92
330
7F
100
AcDbEntity
  8
중심선
100
AcDbLine
 10
19.22039502424796
 20
13.00717430171391
 30
0.0
 11
26.96566020931264
 21
13.00717430171391
 31
0.0
  0
LINE
  5
93
330
7F
100
AcDbEntity
  8
중심선
100
AcDbLine
 10
22.22332737316547
 20
13.45928029700563
 30
0.0
 11
24.52862924686651
 21
15.39360700705356
 31
0.0
  0
ATTDEF
  5
95
330
7F
100
AcDbEntity
  8
FORMAT
 62
     2
100
AcDbText
 10
3.448148490846466
 20
2.075366912832191
 30
0.0
 40
4.233333333333333
  1
EM218024
 41
0.75
  7
SLDTEXTSTYLE0
 11
3.448148490846466
 21
-0.0412997538344756
 31
0.0
100
AcDbAttributeDefinition
  3

  2
AUTOATTR0
 70
     0
 74
     1
  0
ENDBLK
  5
81
330
7F
100
AcDbEntity
  8
0
100
AcDbBlockEnd
  0
BLOCK
  5
F8
330
F7
100
AcDbEntity
  8
0
100
AcDbBlockBegin
  2
_D
 70
     0
 10
0.0
 20
0.0
 30
0.0
  3
_D
  1

  0
LINE
  5
FA
330
F7
100
AcDbEntity
  8
치수문자_일반주서
 62
     0
370
    -2
100
AcDbLine
 10
54.51249999999998
 20
4.763574928723904
 30
0.0
 11
68.6097789956966
 21
4.763574928723955
 31
0.0
  0
LINE
  5
FB
330
F7
100
AcDbEntity
  8
치수문자_일반주서
 62
     0
370
    -2
100
AcDbLine
 10
54.51249999999998
 20
-4.761425071276101
 30
0.0
 11
68.60977899569663
 21
-4.761425071276051
 31
0.0
  0
LINE
  5
FC
330
F7
100
AcDbEntity
  8
치수문자_일반주서
 62
     0
370
    -2
100
AcDbLine
 10
68.6097789956966
 20
4.763574928723955
 30
0.0
 11
68.6097789956965
 21
37.61757492872395
 31
0.0
  0
LINE
  5
FD
330
F7
100
AcDbEntity
  8
치수문자_일반주서
 62
     0
370
    -2
100
AcDbLine
 10
68.6097789956966
 20
4.763574928723955
 30
0.0
 11
68.60977899569663
 21
-4.761425071276051
 31
0.0
  0
LINE
  5
FE
330
F7
100
AcDbEntity
  8
치수문자_일반주서
 62
     0
370
    -2
100
AcDbLine
 10
68.60977899569659
 20
8.065574928723954
 30
0.0
 11
68.60977899569657
 21
11.36757492872395
 31
0.0
  0
LINE
  5
FF
330
F7
100
AcDbEntity
  8
치수문자_일반주서
 62
     0
370
    -2
100
AcDbLine
 10
68.60977899569664
 20
-8.06342507127605
 30
0.0
 11
68.60977899569666
 21
-11.36542507127605
 31
0.0
  0
SOLID
  5
100
330
F7
100
AcDbEntity
  8
치수문자_일반주서
 62
     0
100
AcDbTrace
 10
68.05944566236326
 20
8.065574928723953
 30
0.0
 11
69.16011232902991
 21
8.065574928723956
 31
0.0
 12
68.6097789956966
 22
4.763574928723955
 32
0.0
 13
68.6097789956966
 23
4.763574928723955
 33
0.0
  0
SOLID
  5
101
330
F7
100
AcDbEntity
  8
치수문자_일반주서
 62
     0
100
AcDbTrace
 10
69.16011232902997
 20
-8.063425071276049
 30
0.0
 11
68.05944566236332
 21
-8.063425071276052
 31
0.0
 12
68.60977899569663
 22
-4.761425071276051
 32
0.0
 13
68.60977899569663
 23
-4.761425071276051
 33
0.0
  0
MTEXT
  5
102
330
F7
100
AcDbEntity
  8
치수문자_일반주서
 62
     0
100
AcDbMText
 10
64.23477899569654
 20
24.49257492872394
 30
0.0
 40
3.5
 41
0.0
 71
     2
 72
     1
  1
\A1;%%c9.53 [3/8]
  7
SLDTEXTSTYLE0
 11
-2.983906501879684E-15
 21
1.0
 31
0.0
 73
     1
 44
1.0
  0
POINT
  5
17A
330
F7
100
AcDbEntity
  8
Defpoints
 62
     0
100
AcDbPoint
 10
54.44999999999998
 20
4.763574928723904
 30
0.0
  0
POINT
  5
17B
330
F7
100
AcDbEntity
  8
Defpoints
 62
     0
100
AcDbPoint
 10
54.44999999999998
 20
-4.761425071276101
 30
0.0
  0
POINT
  5
17C
330
F7
100
AcDbEntity
  8
Defpoints
 62
     0
100
AcDbPoint
 10
68.60977899569663
 20
-4.761425071276051
 30
0.0
  0
ENDBLK
  5
F9
330
F7
100
AcDbEntity
  8
0
100
AcDbBlockEnd
  0
BLOCK
  5
10C
330
10B
100
AcDbEntity
  8
0
100
AcDbBlockBegin
  2
_D_1
 70
     0
 10
0.0
 20
0.0
 30
0.0
  3
_D_1
  1

  0
LINE
  5
10E
330
10B
100
AcDbEntity
  8
치수문자_일반주서
 62
     0
370
    -2
100
AcDbLine
 10
-46.26000000000002
 20
4.763574928723905
 30
0.0
 11
-61.10250000000005
 21
4.763574928723854
 31
0.0
  0
LINE
  5
10F
330
10B
100
AcDbEntity
  8
치수문자_일반주서
 62
     0
370
    -2
100
AcDbLine
 10
-46.26000000000002
 20
-4.761425071276101
 30
0.0
 11
-61.10250000000001
 21
-4.761425071276151
 31
0.0
  0
LINE
  5
110
330
10B
100
AcDbEntity
  8
치수문자_일반주서
 62
     0
370
    -2
100
AcDbLine
 10
-61.10250000000005
 20
4.763574928723854
 30
0.0
 11
-61.10250000000001
 21
-4.761425071276151
 31
0.0
  0
LINE
  5
111
330
10B
100
AcDbEntity
  8
치수문자_일반주서
 62
     0
370
    -2
100
AcDbLine
 10
-61.10250000000006
 20
8.065574928723855
 30
0.0
 11
-61.10250000000008
 21
11.36757492872385
 31
0.0
  0
LINE
  5
112
330
10B
100
AcDbEntity
  8
치수문자_일반주서
 62
     0
370
    -2
100
AcDbLine
 10
-61.1025
 20
-8.06342507127615
 30
0.0
 11
-61.10249999999998
 21
-11.36542507127615
 31
0.0
  0
SOLID
  5
113
330
10B
100
AcDbEntity
  8
치수문자_일반주서
 62
     0
100
AcDbTrace
 10
-61.6528333333334
 20
8.065574928723853
 30
0.0
 11
-60.55216666666673
 21
8.065574928723857
 31
0.0
 12
-61.10250000000005
 22
4.763574928723854
 32
0.0
 13
-61.10250000000005
 23
4.763574928723854
 33
0.0
  0
SOLID
  5
114
330
10B
100
AcDbEntity
  8
치수문자_일반주서
 62
     0
100
AcDbTrace
 10
-60.55216666666666
 20
-8.063425071276148
 30
0.0
 11
-61.65283333333333
 21
-8.063425071276152
 31
0.0
 12
-61.10250000000001
 22
-4.761425071276151
 32
0.0
 13
-61.10250000000001
 23
-4.761425071276151
 33
0.0
  0
MTEXT
  5
115
330
10B
100
AcDbEntity
  8
치수문자_일반주서
 62
     0
100
AcDbMText
 10
-65.47750000000003
 20
0.0010749287238881
 30
0.0
 40
3.5
 41
0.0
 71
     2
 72
     1
  1
\A1;%%c9.53 [3/8]
  7
SLDTEXTSTYLE0
 11
-3.729883127349604E-15
 21
1.0
 31
0.0
 73
     1
 44
1.0
  0
POINT
  5
116
330
10B
100
AcDbEntity
  8
Defpoints
 62
     0
100
AcDbPoint
 10
-46.19750000000002
 20
4.763574928723905
 30
0.0
  0
POINT
  5
177
330
10B
100
AcDbEntity
  8
Defpoints
 62
     0
100
AcDbPoint
 10
-46.19750000000002
 20
-4.761425071276101
 30
0.0
  0
POINT
  5
178
330
10B
100
AcDbEntity
  8
Defpoints
 62
     0
100
AcDbPoint
 10
-61.10250000000001
 20
-4.761425071276153
 30
0.0
  0
ENDBLK
  5
10D
330
10B
100
AcDbEntity
  8
0
100
AcDbBlockEnd
  0
BLOCK
  5
121
330
120
100
AcDbEntity
  8
0
100
AcDbBlockBegin
  2
_D_2
 70
     0
 10
0.0
 20
0.0
 30
0.0
  3
_D_2
  1

  0
LINE
  5
123
330
120
100
AcDbEntity
  8
치수문자_일반주서
 62
     0
370
    -2
100
AcDbLine
 10
54.44999999999998
 20
4.791320827405812
 30
0.0
 11
54.44999999999998
 21
26.06088205900095
 31
0.0
  0
LINE
  5
124
330
120
100
AcDbEntity
  8
치수문자_일반주서
 62
     0
370
    -2
100
AcDbLine
 10
9.999999999999988
 20
4.826074928723902
 30
0.0
 11
9.999999999999986
 21
26.06088205900095
 31
0.0
  0
LINE
  5
125
330
120
100
AcDbEntity
  8
치수문자_일반주서
 62
     0
370
    -2
100
AcDbLine
 10
51.14799999999998
 20
26.06088205900095
 30
0.0
 11
13.30199999999999
 21
26.06088205900095
 31
0.0
  0
SOLID
  5
126
330
120
100
AcDbEntity
  8
치수문자_일반주서
 62
     0
100
AcDbTrace
 10
51.14799999999998
 20
25.51054872566762
 30
0.0
 11
51.14799999999998
 21
26.61121539233429
 31
0.0
 12
54.44999999999998
 22
26.06088205900095
 32
0.0
 13
54.44999999999998
 23
26.06088205900095
 33
0.0
  0
SOLID
  5
127
330
120
100
AcDbEntity
  8
치수문자_일반주서
 62
     0
100
AcDbTrace
 10
13.30199999999999
 20
26.61121539233429
 30
0.0
 11
13.30199999999999
 21
25.51054872566762
 31
0.0
 12
9.999999999999986
 22
26.06088205900095
 32
0.0
 13
9.999999999999986
 23
26.06088205900095
 33
0.0
  0
MTEXT
  5
128
330
120
100
AcDbEntity
  8
치수문자_일반주서
 62
     0
100
AcDbMText
 10
32.22499999999999
 20
30.43588205900095
 30
0.0
 40
3.5
 41
0.0
 71
     2
 72
     1
  1
\A1;44.45 [1 3/4]
  7
SLDTEXTSTYLE0
 73
     1
 44
1.0
  0
POINT
  5
129
330
120
100
AcDbEntity
  8
Defpoints
 62
     0
100
AcDbPoint
 10
54.44999999999998
 20
4.728820827405812
 30
0.0
  0
POINT
  5
12A
330
120
100
AcDbEntity
  8
Defpoints
 62
     0
100
AcDbPoint
 10
9.999999999999988
 20
4.763574928723902
 30
0.0
  0
POINT
  5
12B
330
120
100
AcDbEntity
  8
Defpoints
 62
     0
100
AcDbPoint
 10
9.999999999999988
 20
26.06088205900095
 30
0.0
  0
ENDBLK
  5
122
330
120
100
AcDbEntity
  8
0
100
AcDbBlockEnd
  0
BLOCK
  5
135
330
134
100
AcDbEntity
  8
0
100
AcDbBlockBegin
  2
_D_3
 70
     0
 10
0.0
 20
0.0
 30
0.0
  3
_D_3
  1

  0
LINE
  5
137
330
134
100
AcDbEntity
  8
치수문자_일반주서
 62
     0
370
    -2
100
AcDbLine
 10
54.44999999999998
 20
4.791320827405812
 30
0.0
 11
54.44999999999998
 21
47.33044329059609
 31
0.0
  0
LINE
  5
138
330
134
100
AcDbEntity
  8
치수문자_일반주서
 62
     0
370
    -2
100
AcDbLine
 10
-47.15000000000001
 20
3.873574928723905
 30
0.0
 11
-47.15000000000001
 21
47.33044329059609
 31
0.0
  0
LINE
  5
139
330
134
100
AcDbEntity
  8
치수문자_일반주서
 62
     0
370
    -2
100
AcDbLine
 10
51.14799999999998
 20
47.33044329059609
 30
0.0
 11
-43.84800000000001
 21
47.33044329059609
 31
0.0
  0
SOLID
  5
13A
330
134
100
AcDbEntity
  8
치수문자_일반주서
 62
     0
100
AcDbTrace
 10
51.14799999999998
 20
46.78010995726276
 30
0.0
 11
51.14799999999998
 21
47.88077662392943
 31
0.0
 12
54.44999999999998
 22
47.33044329059609
 32
0.0
 13
54.44999999999998
 23
47.33044329059609
 33
0.0
  0
SOLID
  5
13B
330
134
100
AcDbEntity
  8
치수문자_일반주서
 62
     0
100
AcDbTrace
 10
-43.84800000000001
 20
47.88077662392943
 30
0.0
 11
-43.84800000000001
 21
46.78010995726276
 31
0.0
 12
-47.15000000000001
 22
47.33044329059609
 32
0.0
 13
-47.15000000000001
 23
47.33044329059609
 33
0.0
  0
MTEXT
  5
13C
330
134
100
AcDbEntity
  8
치수문자_일반주서
 62
     0
100
AcDbMText
 10
3.649999999999987
 20
51.70544329059609
 30
0.0
 40
3.5
 41
0.0
 71
     2
 72
     1
  1
\A1;101.6 [4]
  7
SLDTEXTSTYLE0
 73
     1
 44
1.0
  0
POINT
  5
13D
330
134
100
AcDbEntity
  8
Defpoints
 62
     0
100
AcDbPoint
 10
54.44999999999998
 20
4.728820827405812
 30
0.0
  0
POINT
  5
13E
330
134
100
AcDbEntity
  8
Defpoints
 62
     0
100
AcDbPoint
 10
-47.15000000000001
 20
3.811074928723905
 30
0.0
  0
POINT
  5
13F
330
134
100
AcDbEntity
  8
Defpoints
 62
     0
100
AcDbPoint
 10
-47.15000000000001
 20
47.33044329059609
 30
0.0
  0
ENDBLK
  5
136
330
134
100
AcDbEntity
  8
0
100
AcDbBlockEnd
  0
BLOCK
  5
14E
330
14D
100
AcDbEntity
  8
0
100
AcDbBlockBegin
  2
SW_DOWELSYMBOL_0
 70
     0
 10
0.0
 20
0.0
 30
0.0
  3
SW_DOWELSYMBOL_0
  1

  0
CIRCLE
  5
150
330
14D
100
AcDbEntity
  8
해칭선
 62
     0
100
AcDbCircle
 10
0.0
 20
0.0
 30
0.0
 40
3.000000000000002
  0
HATCH
  5
151
330
14D
100
AcDbEntity
  8
0
  6
Continuous
 62
     0
370
     0
100
AcDbHatch
 10
0.0
 20
0.0
 30
0.0
210
0.0
220
0.0
230
1.0
  2
SOLID
 70
     1
 71
     0
 91
        1
 92
        0
 93
        3
 72
     2
 10
-0.0000000000000052
 20
0.0
 40
3.000000000000002
 50
0.0
 51
90.0
 73
     1
 72
     1
 10
-0.0000000000000052
 20
3.000000000000002
 11
-0.0000000000000052
 21
0.0
 72
     1
 10
-0.0000000000000052
 20
0.0
 11
2.999999999999997
 21
0.0
 97
        0
 75
     0
 76
     1
 98
        1
 10
0.0
 20
0.0
  0
HATCH
  5
152
330
14D
100
AcDbEntity
  8
0
  6
Continuous
 62
     0
370
     0
100
AcDbHatch
 10
0.0
 20
0.0
 30
0.0
210
0.0
220
0.0
230
1.0
  2
SOLID
 70
     1
 71
     0
 91
        1
 92
        0
 93
        3
 72
     2
 10
-0.0000000000000052
 20
0.0
 40
3.000000000000002
 50
180.0
 51
270.0000000000007
 73
     1
 72
     1
 10
-0.0000000000000052
 20
-3.000000000000002
 11
-0.0000000000000052
 21
0.0
 72
     1
 10
-0.0000000000000052
 20
0.0
 11
-3.000000000000008
 21
0.0
 97
        0
 75
     0
 76
     1
 98
        1
 10
0.0
 20
0.0
  0
ENDBLK
  5
14F
330
14D
100
AcDbEntity
  8
0
100
AcDbBlockEnd
  0
ENDSEC
  0
SECTION
  2
ENTITIES
  0
LINE
  5
96
330
1F
100
AcDbEntity
  8
외형선
  6
Continuous
370
    15
100
AcDbLine
 10
10.7549993603577
 20
0.7316395869737103
 30
0.0
 11
10.52452395428211
 21
0.9533091499085973
 31
0.0
  0
LINE
  5
97
330
1F
100
AcDbEntity
  8
외형선
  6
Continuous
 62
     1
370
    15
100
AcDbLine
 10
40.50149297059613
 20
0.901998188671682
 30
0.0
 11
40.44799715005124
 21
0.9535016798882098
 31
0.0
  0
LINE
  5
98
330
1F
100
AcDbEntity
  8
외형선
  6
Continuous
 62
     1
370
    15
100
AcDbLine
 10
38.42754213979785
 20
-0.8538152770096813
 30
0.0
 11
38.52841012340977
 21
-0.9514274321985556
 31
0.0
  0
LINE
  5
99
330
1F
100
AcDbEntity
  8
외형선
  6
Continuous
 62
     1
370
    15
100
AcDbLine
 10
23.36066117054973
 20
-0.7520308785962562
 30
0.0
 11
23.56662100162732
 21
-0.9514723201704423
 31
0.0
  0
LINE
  5
9A
330
1F
100
AcDbEntity
  8
외형선
  6
Continuous
 62
     1
370
    15
100
AcDbLine
 10
35.49808447773663
 20
0.915207171029328
 30
0.0
 11
35.45917321637701
 21
0.9539345588910482
 31
0.0
  0
LINE
  5
9B
330
1F
100
AcDbEntity
  8
외형선
  6
Continuous
 62
     1
370
    15
100
AcDbLine
 10
33.48444307509449
 20
-0.895582332228099
 30
0.0
 11
33.54241004546247
 21
-0.951361734596324
 31
0.0
  0
LINE
  5
9C
330
1F
100
AcDbEntity
  8
외형선
  6
Continuous
 62
     1
370
    15
100
AcDbLine
 10
38.91126844722213
 20
-4.761425071276101
 30
0.0
 11
40.06453567823635
 21
-4.761425071276101
 31
0.0
  0
LINE
  5
9D
330
1F
100
AcDbEntity
  8
외형선
  6
Continuous
370
    15
100
AcDbLine
 10
9.999999999999988
 20
-4.761425071276101
 30
0.0
 11
10.13930291965144
 21
-4.761425071276101
 31
0.0
  0
LINE
  5
9E
330
1F
100
AcDbEntity
  8
외형선
  6
Continuous
 62
     1
370
    15
100
AcDbLine
 10
25.10164979556079
 20
4.763574928723904
 30
0.0
 11
23.951531952781
 21
4.763574928723904
 31
0.0
  0
LINE
  5
9F
330
1F
100
AcDbEntity
  8
외형선
  6
Continuous
 62
     1
370
    15
100
AcDbLine
 10
54.44999999999998
 20
4.763574928723904
 30
0.0
 11
53.87366653964895
 21
4.763574928723904
 31
0.0
  0
LINE
  5
A0
330
1F
100
AcDbEntity
  8
외형선
  6
Continuous
 62
     1
370
    15
100
AcDbLine
 10
33.92527275839825
 20
-4.761425071276101
 30
0.0
 11
35.07768479346855
 21
-4.761425071276101
 31
0.0
  0
LINE
  5
A1
330
1F
100
AcDbEntity
  8
외형선
  6
Continuous
 62
     1
370
    15
100
AcDbLine
 10
20.11516151033803
 20
4.763574928723904
 30
0.0
 11
18.96302513280514
 21
4.763574928723904
 31
0.0
  0
LINE
  5
A2
330
1F
100
AcDbEntity
  8
외형선
  6
Continuous
 62
     1
370
    15
100
AcDbLine
 10
50.03795892159594
 20
4.763574928723904
 30
0.0
 11
48.88753545506381
 21
4.763574928723904
 31
0.0
  0
LINE
  5
A3
330
1F
100
AcDbEntity
  8
외형선
  6
Continuous
 62
     1
370
    15
100
AcDbLine
 10
28.93695219190798
 20
-4.761425071276101
 30
0.0
 11
30.08963317173545
 21
-4.761425071276101
 31
0.0
  0
LINE
  5
A4
330
1F
100
AcDbEntity
  8
외형선
  6
Continuous
 62
     1
370
    15
100
AcDbLine
 10
15.12780749120519
 20
4.763574928723904
 30
0.0
 11
13.97559687049332
 21
4.763574928723904
 31
0.0
  0
LINE
  5
A5
330
1F
100
AcDbEntity
  8
외형선
  6
Continuous
 62
     1
370
    15
100
AcDbLine
 10
45.05073620853462
 20
4.763574928723904
 30
0.0
 11
43.89953234317333
 21
4.763574928723904
 31
0.0
  0
LINE
  5
A6
330
1F
100
AcDbEntity
  8
외형선
  6
Continuous
 62
     1
370
    15
100
AcDbLine
 10
53.87366653964895
 20
-4.761425071276101
 30
0.0
 11
54.44999999999998
 21
-4.761425071276101
 31
0.0
  0
LINE
  5
A7
330
1F
100
AcDbEntity
  8
외형선
  6
Continuous
 62
     1
370
    15
100
AcDbLine
 10
23.951531952781
 20
-4.761425071276101
 30
0.0
 11
25.10164979556083
 21
-4.761425071276101
 31
0.0
  0
LINE
  5
A8
330
1F
100
AcDbEntity
  8
외형선
  6
Continuous
370
    15
100
AcDbLine
 10
10.13930291965149
 20
4.763574928723904
 30
0.0
 11
9.999999999999988
 21
4.763574928723904
 31
0.0
  0
LINE
  5
A9
330
1F
100
AcDbEntity
  8
외형선
  6
Continuous
 62
     1
370
    15
100
AcDbLine
 10
40.06453567823641
 20
4.763574928723904
 30
0.0
 11
38.91126844722213
 21
4.763574928723904
 31
0.0
  0
LINE
  5
AA
330
1F
100
AcDbEntity
  8
외형선
  6
Continuous
 62
     1
370
    15
100
AcDbLine
 10
48.88753545506379
 20
-4.761425071276101
 30
0.0
 11
50.03795892159594
 21
-4.761425071276101
 31
0.0
  0
LINE
  5
AB
330
1F
100
AcDbEntity
  8
외형선
  6
Continuous
 62
     1
370
    15
100
AcDbLine
 10
18.96302513280509
 20
-4.761425071276101
 30
0.0
 11
20.11516151033802
 21
-4.761425071276101
 31
0.0
  0
LINE
  5
AC
330
1F
100
AcDbEntity
  8
외형선
  6
Continuous
 62
     1
370
    15
100
AcDbLine
 10
35.07768479346854
 20
4.763574928723904
 30
0.0
 11
33.92527275839822
 21
4.763574928723904
 31
0.0
  0
LINE
  5
AD
330
1F
100
AcDbEntity
  8
외형선
  6
Continuous
 62
     1
370
    15
100
AcDbLine
 10
43.89953234317333
 20
-4.761425071276101
 30
0.0
 11
45.05073620853457
 21
-4.761425071276101
 31
0.0
  0
LINE
  5
AE
330
1F
100
AcDbEntity
  8
외형선
  6
Continuous
 62
     1
370
    15
100
AcDbLine
 10
13.97559687049329
 20
-4.761425071276101
 30
0.0
 11
15.12780749120515
 21
-4.761425071276101
 31
0.0
  0
LINE
  5
AF
330
1F
100
AcDbEntity
  8
외형선
  6
Continuous
 62
     1
370
    15
100
AcDbLine
 10
30.08963317173542
 20
4.763574928723904
 30
0.0
 11
28.93695219190793
 21
4.763574928723904
 31
0.0
  0
LINE
  5
B0
330
1F
100
AcDbEntity
  8
외형선
  6
Continuous
370
    15
100
AcDbLine
 10
-46.19750000000001
 20
-4.761425071276098
 30
0.0
 11
9.999999999999988
 21
-4.761425071276098
 31
0.0
  0
LINE
  5
B1
330
1F
100
AcDbEntity
  8
외형선
  6
Continuous
370
    15
100
AcDbLine
 10
9.999999999999988
 20
4.763574928723902
 30
0.0
 11
-46.19750000000001
 21
4.763574928723902
 31
0.0
  0
LINE
  5
B2
330
1F
100
AcDbEntity
  8
외형선
  6
Continuous
370
    15
100
AcDbLine
 10
-46.19750000000001
 20
4.763574928723902
 30
0.0
 11
-47.15000000000001
 21
3.811074928723905
 31
0.0
  0
LINE
  5
B3
330
1F
100
AcDbEntity
  8
외형선
  6
Continuous
370
    15
100
AcDbLine
 10
-47.15000000000001
 20
-3.808925071276102
 30
0.0
 11
-46.19750000000001
 21
-4.761425071276098
 31
0.0
  0
SPLINE
  5
B4
330
1F
100
AcDbEntity
  8
외형선
  6
Continuous
 62
     1
370
    15
100
AcDbSpline
210
0.0
220
0.0
230
1.0
 70
     8
 71
     3
 72
    15
 73
    11
 74
     0
 42
0.000000001
 43
0.00000001
 40
0.0
 40
0.0
 40
0.0
 40
0.0
 40
0.1329455820660369
 40
0.2659212624419902
 40
0.3985948057042225
 40
0.5314446151232627
 40
0.6645002532392738
 40
0.7987500626355517
 40
0.9330615769028542
 40
1.0
 40
1.0
 40
1.0
 40
1.0
 10
10.00000000000002
 20
-2.258381385421945
 30
0.0
 10
10.31227082936985
 20
-2.52470788810892
 30
0.0
 10
10.93688318488675
 20
-3.057421188661484
 30
0.0
 10
11.87379692153526
 20
-3.714404684581748
 30
0.0
 10
12.80844480104994
 20
-4.235889837637227
 30
0.0
 10
13.74438117463101
 20
-4.591246297676767
 30
0.0
 10
14.68539787411537
 20
-4.773263272190044
 30
0.0
 10
15.62757015242826
 20
-4.760826960951873
 30
0.0
 10
16.4149325396158
 20
-4.622218595126787
 30
0.0
 10
16.88804794968814
 20
-4.424514741928815
 30
0.0
 10
17.04541246819652
 20
-4.358755793893287
 30
0.0
  0
SPLINE
  5
B5
330
1F
100
AcDbEntity
  8
외형선
  6
Continuous
 62
     1
370
    15
100
AcDbSpline
210
0.0
220
0.0
230
1.0
 70
     8
 71
     3
 72
    25
 73
    21
 74
     0
 42
0.000000001
 43
0.00000001
 40
0.0
 40
0.0
 40
0.0
 40
0.0
 40
0.040823029930708
 40
0.0968521830350439
 40
0.1641516403480187
 40
0.2315128466931161
 40
0.29884526507082
 40
0.3661244585497774
 40
0.4333796796944173
 40
0.4894392006037682
 40
0.5456389103160989
 40
0.6017090360267265
 40
0.6577439827059581
 40
0.7139203243242619
 40
0.7700353976321723
 40
0.8260614636425038
 40
0.8821835247526073
 40
0.9383541965112184
 40
0.9943870990854893
 40
1.0
 40
1.0
 40
1.0
 40
1.0
 10
30.08963317173542
 20
4.744958408725993
 30
0.0
 10
30.31931317627341
 20
4.742757038416994
 30
0.0
 10
30.86422642442675
 20
4.737534311920283
 30
0.0
 10
31.78667422919171
 20
4.494905607140776
 30
0.0
 10
32.86020594151562
 20
4.018832541190919
 30
0.0
 10
33.99765435823884
 20
3.278773889978438
 30
0.0
 10
35.13472514074977
 20
2.355090735459554
 30
0.0
 10
36.27051705007138
 20
1.297453568140802
 30
0.0
 10
37.34316226927176
 20
0.2295714153202888
 30
0.0
 10
38.35205047787183
 20
-0.784043262151463
 30
0.0
 10
39.30069575759116
 20
-1.701324778722443
 30
0.0
 10
40.24701922983194
 20
-2.553427984517955
 30
0.0
 10
41.19277174464752
 20
-3.304979729120968
 30
0.0
 10
42.14093088512485
 20
-3.924864161152258
 30
0.0
 10
43.08802687089182
 20
-4.391176185004313
 30
0.0
 10
44.03361936686312
 20
-4.68336711830859
 30
0.0
 10
44.98081253401635
 20
-4.795293344693998
 30
0.0
 10
45.92896214135497
 20
-4.701069814630406
 30
0.0
 10
46.59085073120123
 20
-4.550705981901917
 30
0.0
 10
46.93759976680479
 20
-4.387506349127068
 30
0.0
 10
46.96917155059051
 20
-4.372646888852266
 30
0.0
  0
SPLINE
  5
B6
330
1F
100
AcDbEntity
  8
외형선
  6
Continuous
370
    15
100
AcDbSpline
210
0.0
220
0.0
230
1.0
 70
    24
 71
     3
 72
    24
 73
    20
 74
     0
 42
0.000000001
 43
0.00000001
 40
0.0
 40
0.0
 40
0.0
 40
0.0
 40
0.125
 40
0.125
 40
0.1874999999999999
 40
0.1874999999999999
 40
0.2499999999999999
 40
0.2499999999999999
 40
0.375
 40
0.375
 40
0.5
 40
0.5
 40
0.625
 40
0.625
 40
0.7500000000000001
 40
0.7500000000000001
 40
0.875
 40
0.875
 40
1.0
 40
1.0
 40
1.0
 40
1.0
 10
9.999999999999995
 20
1.458992011593039
 30
0.0
 10
9.999999999999968
 20
1.439189786420469
 30
0.0
 10
10.0
 20
1.396330679819398
 30
0.0
 10
9.999999999999995
 20
1.317694653974395
 30
0.0
 10
10.0
 20
1.290185422682522
 30
0.0
 10
10.00000000000001
 20
1.224178714994973
 30
0.0
 10
9.99999999999998
 20
1.185794622483336
 30
0.0
 10
9.99999999999998
 20
1.050981808132355
 30
0.0
 10
9.999999999999988
 20
0.9345894617273047
 30
0.0
 10
9.99999999999998
 20
0.6325945428039471
 30
0.0
 10
9.999999999999995
 20
0.4461669714078648
 30
0.0
 10
10.00000000000001
 20
0.0067078685592499
 30
0.0
 10
9.999999999999995
 20
-0.2467419052483817
 30
0.0
 10
10.00000000000002
 20
-0.7746671369728102
 30
0.0
 10
10.00000000000001
 20
-1.047650223522735
 30
0.0
 10
10.0
 20
-1.537793629317668
 30
0.0
 10
9.999999999999973
 20
-1.75307075345011
 30
0.0
 10
10.0
 20
-2.080205526862961
 30
0.0
 10
9.999999999999988
 20
-2.19244242251564
 30
0.0
 10
9.999999999999995
 20
-2.258381385421906
 30
0.0
  0
SPLINE
  5
B7
330
1F
100
AcDbEntity
  8
외형선
  6
Continuous
 62
     1
370
    15
100
AcDbSpline
210
0.0
220
0.0
230
1.0
 70
     8
 71
     3
 72
    25
 73
    21
 74
     0
 42
0.000000001
 43
0.00000001
 40
0.0
 40
0.0
 40
0.0
 40
0.0
 40
0.0069639294631811
 40
0.0631427806972728
 40
0.119198071613876
 40
0.1752111878736006
 40
0.23136202466867
 40
0.2874642679806038
 40
0.3434705500905121
 40
0.4107289547442881
 40
0.4780427330023688
 40
0.545376683466723
 40
0.6126485931766339
 40
0.679885574153975
 40
0.7359065630667072
 40
0.792073981337681
 40
0.8481538946802081
 40
0.9041612187410331
 40
0.9602808579617959
 40
1.0
 40
1.0
 40
1.0
 40
1.0
 10
48.88753545506378
 20
-4.751211796413202
 30
0.0
 10
48.84836255972226
 20
-4.754514429251955
 30
0.0
 10
48.49317723613393
 20
-4.784459795896387
 30
0.0
 10
47.82093888426213
 20
-4.661973389031164
 30
0.0
 10
46.87462877986093
 20
-4.374603040020272
 30
0.0
 10
45.92888515857846
 20
-3.895751156934688
 30
0.0
 10
44.98083645289443
 20
-3.269435913212862
 30
0.0
 10
44.03360072204965
 20
-2.512512288321152
 30
0.0
 10
43.02532617890803
 20
-1.599353426027206
 30
0.0
 10
41.95215657956938
 20
-0.5480087755182234
 30
0.0
 10
40.8151623249961
 20
0.5964654794251942
 30
0.0
 10
39.67759841662577
 20
1.706954842195737
 30
0.0
 10
38.5414584969599
 20
2.721159735021809
 30
0.0
 10
37.4686835040844
 20
3.53306467561821
 30
0.0
 10
36.46015393580009
 20
4.132758768851337
 30
0.0
 10
35.51173762997481
 20
4.530840330470765
 30
0.0
 10
34.56490987054239
 20
4.752831536853033
 30
0.0
 10
33.61932971716249
 20
4.78117721914728
 30
0.0
 10
32.76415233539213
 20
4.65789993120494
 30
0.0
 10
32.22453696479484
 20
4.448826252529046
 30
0.0
 10
32.00090036101917
 20
4.362178373343908
 30
0.0
  0
SPLINE
  5
B8
330
1F
100
AcDbEntity
  8
외형선
  6
Continuous
 62
     1
370
    15
100
AcDbSpline
210
0.0
220
0.0
230
1.0
 70
     8
 71
     3
 72
    17
 73
    13
 74
     0
 42
0.000000001
 43
0.00000001
 40
0.0
 40
0.0
 40
0.0
 40
0.0
 40
0.0551788314774572
 40
0.1607548095488898
 40
0.2665844274039155
 40
0.3721574770086127
 40
0.4776820246554129
 40
0.5822679163389088
 40
0.6866920202311318
 40
0.7909775734129573
 40
0.8955006158128013
 40
0.9999999999999999
 40
0.9999999999999999
 40
0.9999999999999999
 40
0.9999999999999999
 10
18.96302513280511
 20
-4.737988352919565
 30
0.0
 10
18.79826095269656
 20
-4.742099425107138
 30
0.0
 10
18.31824653983874
 20
-4.754076384547188
 30
0.0
 10
17.52241318383596
 20
-4.568744749845824
 30
0.0
 10
16.57380594111588
 20
-4.204347533659945
 30
0.0
 10
15.6275717913739
 20
-3.664067295559507
 30
0.0
 10
14.68539743936932
 20
-2.984002130189123
 30
0.0
 10
13.74438129048237
 20
-2.191749554341216
 30
0.0
 10
12.80844477008674
 20
-1.317003460222341
 30
0.0
 10
11.87379692980853
 20
-0.3915983988632775
 30
0.0
 10
10.93688318281698
 20
0.551168073892913
 30
0.0
 10
10.31227082867996
 20
1.15640686701957
 30
0.0
 10
9.99999999999998
 20
1.458992011593046
 30
0.0
  0
LINE
  5
B9
330
1F
100
AcDbEntity
  8
외형선
  6
Continuous
 62
     1
370
    15
100
AcDbLine
 10
54.44999999999998
 20
-1.865436255276836
 30
0.0
 11
54.44999999999998
 21
1.867586112724728
 31
0.0
  0
SPLINE
  5
BA
330
1F
100
AcDbEntity
  8
외형선
  6
Continuous
 62
     1
370
    15
100
AcDbSpline
210
0.0
220
0.0
230
1.0
 70
     8
 71
     3
 72
    26
 73
    22
 74
     0
 42
0.000000001
 43
0.00000001
 40
0.0
 40
0.0
 40
0.0
 40
0.0
 40
0.029629856924444
 40
0.08570830551342
 40
0.1419230384049681
 40
0.1980030425412355
 40
0.2540548724298839
 40
0.3102508899201342
 40
0.3663738294113258
 40
0.4224147320857642
 40
0.4785586401214508
 40
0.5347376439286545
 40
0.5907833399998494
 40
0.6468782470426826
 40
0.70308993834433
 40
0.7591561356451958
 40
0.8152176185220225
 40
0.8714261780648666
 40
0.9275285298117512
 40
0.9835722542934408
 40
0.9999999999999999
 40
0.9999999999999999
 40
0.9999999999999999
 40
0.9999999999999999
 10
15.12780749120519
 20
4.740165501809257
 30
0.0
 10
15.29437194717888
 20
4.744166384072015
 30
0.0
 10
15.7761818093281
 20
4.755739468618929
 30
0.0
 10
16.57378247509551
 20
4.569332465005621
 30
0.0
 10
17.52239164747839
 20
4.203874472914679
 30
0.0
 10
18.4686478040238
 20
3.662726807513569
 30
0.0
 10
19.41443763376105
 20
2.979336273113256
 30
0.0
 10
20.36268502655204
 20
2.179518167481318
 30
0.0
 10
21.3096683323377
 20
1.293174432090027
 30
0.0
 10
22.25525956316567
 20
0.3550416334293021
 30
0.0
 10
23.20260098477951
 20
-0.5959249933993941
 30
0.0
 10
24.15055337225792
 20
-1.522866905651774
 30
0.0
 10
25.09623267290498
 20
-2.391376773981908
 30
0.0
 10
26.04274819432866
 20
-3.165069647809172
 30
0.0
 10
26.99126652823469
 20
-3.812791445229773
 30
0.0
 10
27.93729925313429
 20
-4.311955412948844
 30
0.0
 10
28.88325568928952
 20
-4.639693629735159
 30
0.0
 10
29.83170821515763
 20
-4.788462577494518
 30
0.0
 10
30.77839158022547
 20
-4.733045823786418
 30
0.0
 10
31.50062916147814
 20
-4.593020327535936
 30
0.0
 10
31.90845491065549
 20
-4.403083228975447
 30
0.0
 10
32.0009003610192
 20
-4.360028515896102
 30
0.0
  0
SPLINE
  5
BB
330
1F
100
AcDbEntity
  8
외형선
  6
Continuous
 62
     1
370
    15
100
AcDbSpline
210
0.0
220
0.0
230
1.0
 70
     8
 71
     3
 72
    17
 73
    13
 74
     0
 42
0.000000001
 43
0.00000001
 40
0.0
 40
0.0
 40
0.0
 40
0.0
 40
0.0934175174004672
 40
0.1940352659092098
 40
0.2947287737990159
 40
0.3956442361484356
 40
0.4963024515702788
 40
0.5969396065704872
 40
0.6978410786915009
 40
0.7985678437957385
 40
0.8991767847586996
 40
1.0
 40
1.0
 40
1.0
 40
1.0
 10
45.05073620853463
 20
4.757146759090039
 30
0.0
 10
45.34369055526498
 20
4.74419751720642
 30
0.0
 10
45.95217894319119
 20
4.717300960092408
 30
0.0
 10
46.87460983215887
 20
4.445096587476287
 30
0.0
 10
47.82103035157235
 20
4.006757786570423
 30
0.0
 10
48.76957837993346
 20
3.407521734356615
 30
0.0
 10
49.71567611921871
 20
2.673881453260667
 30
0.0
 10
50.66157477151888
 20
1.834401754390492
 30
0.0
 10
51.60998686076923
 20
0.9243471769943898
 30
0.0
 10
52.55672320345403
 20
-0.0220920764482008
 30
0.0
 10
53.50234564459556
 20
-0.9734966243120292
 30
0.0
 10
54.13389127844996
 20
-1.567912274263955
 30
0.0
 10
54.45000000000001
 20
-1.865436255276836
 30
0.0
  0
SPLINE
  5
BC
330
1F
100
AcDbEntity
  8
외형선
  6
Continuous
 62
     1
370
    15
100
AcDbSpline
210
0.0
220
0.0
230
1.0
 70
     8
 71
     3
 72
    15
 73
    11
 74
     0
 42
0.000000001
 43
0.00000001
 40
0.0
 40
0.0
 40
0.0
 40
0.0
 40
0.1266805209020414
 40
0.2530918143535327
 40
0.3796511493404556
 40
0.506429997024307
 40
0.6328767403364919
 40
0.7593499452644553
 40
0.886146371136204
 40
0.9999999999999999
 40
0.9999999999999999
 40
0.9999999999999999
 40
0.9999999999999999
 10
54.45
 20
1.867586112724728
 30
0.0
 10
54.13389127345499
 20
2.150878458786327
 30
0.0
 10
53.50234562962136
 20
2.716861084581193
 30
0.0
 10
52.55672326323156
 20
3.440575408052239
 30
0.0
 10
51.60998663612987
 20
4.033479627279327
 30
0.0
 10
50.66157561083357
 20
4.465218956792484
 30
0.0
 10
49.71567299582125
 20
4.723462667630507
 30
0.0
 10
48.7695900529116
 20
4.790879980391985
 30
0.0
 10
47.85261767349647
 20
4.689191366607779
 30
0.0
 10
47.25290216229322
 20
4.47576880970391
 30
0.0
 10
46.96917155059057
 20
4.374796746300068
 30
0.0
  0
SPLINE
  5
BD
330
1F
100
AcDbEntity
  8
외형선
  6
Continuous
 62
     1
370
    15
100
AcDbSpline
210
0.0
220
0.0
230
1.0
 70
     8
 71
     3
 72
    26
 73
    22
 74
     0
 42
0.000000001
 43
0.00000001
 40
0.0
 40
0.0
 40
0.0
 40
0.0
 40
0.0181167324079585
 40
0.0742504500888604
 40
0.1303997178686588
 40
0.1864231367794258
 40
0.2425051617137551
 40
0.2986933559631973
 40
0.3547345268349393
 40
0.4107804104226047
 40
0.4669717352961631
 40
0.5230463182237812
 40
0.5790717080097121
 40
0.6352303572320481
 40
0.691353923398647
 40
0.747374521524549
 40
0.8034771267439034
 40
0.8596527834849484
 40
0.9156843048659482
 40
0.9717439902865705
 40
1.0
 40
1.0
 40
1.0
 40
1.0
 10
33.92527275839825
 20
-4.740879181070052
 30
0.0
 10
33.82341800282843
 20
-4.746615892821541
 30
0.0
 10
33.40597178380558
 20
-4.770127496348399
 30
0.0
 10
32.67176676134735
 20
-4.619452356028879
 30
0.0
 10
31.72400666957205
 20
-4.292767333258893
 30
0.0
 10
30.77835525947989
 20
-3.78292861241056
 30
0.0
 10
29.8317179729382
 20
-3.127641633228643
 30
0.0
 10
28.88325308025227
 20
-2.349518379202112
 30
0.0
 10
27.93729995146291
 20
-1.477302941591022
 30
0.0
 10
26.99126634053926
 20
-0.5466847243080956
 30
0.0
 10
26.04274824462953
 20
0.4034081571506153
 30
0.0
 10
25.09623265919926
 20
1.339417774838667
 30
0.0
 10
24.15055337688547
 20
2.223043474310202
 30
0.0
 10
23.20260097999631
 20
3.017632936655261
 30
0.0
 10
22.2552595776445
 20
3.693929115202928
 30
0.0
 10
21.30966827927215
 20
4.225507751252966
 30
0.0
 10
20.36268522479882
 20
4.589424499385778
 30
0.0
 10
19.41443689372226
 20
4.774913038813072
 30
0.0
 10
18.46865055843808
 20
4.763600222663424
 30
0.0
 10
17.67947863089044
 20
4.625340401362315
 30
0.0
 10
17.20456595775514
 20
4.42727997582424
 30
0.0
 10
17.04541246819657
 20
4.360905651341091
 30
0.0
  0
LINE
  5
BE
330
1F
100
AcDbEntity
  8
외형선
  6
Continuous
 62
     1
370
    15
100
AcDbLine
 10
54.44999999999998
 20
2.841334212470231
 30
0.0
 11
54.44999999999998
 21
4.728820827405812
 31
0.0
  0
SPLINE
  5
BF
330
1F
100
AcDbEntity
  8
외형선
  6
Continuous
 62
     1
370
    15
100
AcDbSpline
210
0.0
220
0.0
230
1.0
 70
     8
 71
     3
 72
    25
 73
    21
 74
     0
 42
0.000000001
 43
0.00000001
 40
0.0
 40
0.0
 40
0.0
 40
0.0
 40
0.0146767622475541
 40
0.0708202565427416
 40
0.1268816839755173
 40
0.1830461544948461
 40
0.2392457336393792
 40
0.2953119562244739
 40
0.35142740780453
 40
0.4076596864151719
 40
0.4637464177384316
 40
0.5198284329110129
 40
0.5760575786158573
 40
0.6321804776265583
 40
0.6882447279000607
 40
0.7555863422028752
 40
0.8229897442179653
 40
0.8903643402326183
 40
0.957685678007966
 40
1.0
 40
1.0
 40
1.0
 40
1.0
 10
20.11516151033803
 20
4.745415274216161
 30
0.0
 10
20.19774341693045
 20
4.750821789872629
 30
0.0
 10
20.59622856726659
 20
4.776910025093393
 30
0.0
 10
21.30967704641104
 20
4.635994871154027
 30
0.0
 10
22.2552572253024
 20
4.320917574744784
 30
0.0
 10
23.20260161082541
 20
3.82127922875951
 30
0.0
 10
24.15055320996276
 20
3.175633937904762
 30
0.0
 10
25.09623269759501
 20
2.402583956560134
 30
0.0
 10
26.04274825797394
 20
1.535428455842079
 30
0.0
 10
26.99126624853325
 20
0.609480918719954
 30
0.0
 10
27.93730030502692
 20
-0.3424592273366979
 30
0.0
 10
28.88325175627228
 20
-1.280885100378827
 30
0.0
 10
29.83172292542771
 20
-2.166837000930854
 30
0.0
 10
30.77833682493701
 20
-2.968933857596777
 30
0.0
 10
31.78671055984977
 20
-3.699595678491004
 30
0.0
 10
32.86019393465065
 20
-4.295468959380263
 30
0.0
 10
33.99766316265876
 20
-4.685634833665897
 30
0.0
 10
35.13470195031115
 20
-4.79996534021025
 30
0.0
 10
36.13011013780239
 20
-4.695695438362589
 30
0.0
 10
36.74654911687407
 20
-4.449932634484258
 30
0.0
 10
36.98446620976357
 20
-4.355079496016012
 30
0.0
  0
SPLINE
  5
C0
330
1F
100
AcDbEntity
  8
외형선
  6
Continuous
 62
     1
370
    15
100
AcDbSpline
210
0.0
220
0.0
230
1.0
 70
     8
 71
     3
 72
    12
 73
     8
 74
     0
 42
0.000000001
 43
0.00000001
 40
0.0
 40
0.0
 40
0.0
 40
0.0
 40
0.1413203363147586
 40
0.3562807828349642
 40
0.5708690336126601
 40
0.7852062718977998
 40
1.0
 40
1.0
 40
1.0
 40
1.0
 10
50.03795892159594
 20
4.742471156215921
 30
0.0
 10
50.24561601378201
 20
4.742893964716407
 30
0.0
 10
50.76913749196831
 20
4.743959901491472
 30
0.0
 10
51.61000750829073
 20
4.532489891309604
 30
0.0
 10
52.55671770905423
 20
4.140607992929832
 30
0.0
 10
53.50234702093761
 20
3.585788971319786
 30
0.0
 10
54.13389173755584
 20
3.103640381886604
 30
0.0
 10
54.45000000000001
 20
2.862309643405026
 30
0.0
  0
SPLINE
  5
C1
330
1F
100
AcDbEntity
  8
외형선
  6
Continuous
 62
     1
370
    15
100
AcDbSpline
210
0.0
220
0.0
230
1.0
 70
     8
 71
     3
 72
    10
 73
     6
 74
     0
 42
0.000000001
 43
0.00000001
 40
0.0
 40
0.0
 40
0.0
 40
0.0
 40
0.3801299583102297
 40
0.7594520464062791
 40
1.0
 40
1.0
 40
1.0
 40
1.0
 10
54.45
 20
4.728820827405812
 30
0.0
 10
54.13388102975365
 20
4.747505996260975
 30
0.0
 10
53.50231492028777
 20
4.784836623364354
 30
0.0
 10
52.67238705426266
 20
4.64589567347454
 30
0.0
 10
52.15722623939202
 20
4.441721573215758
 30
0.0
 10
51.95731194856583
 20
4.362489381480526
 30
0.0
  0
SPLINE
  5
C2
330
1F
100
AcDbEntity
  8
외형선
  6
Continuous
 62
     1
370
    15
100
AcDbSpline
210
0.0
220
0.0
230
1.0
 70
     8
 71
     3
 72
    26
 73
    22
 74
     0
 42
0.000000001
 43
0.00000001
 40
0.0
 40
0.0
 40
0.0
 40
0.0
 40
0.0219165226220592
 40
0.0891722718351164
 40
0.1452088982007753
 40
0.2013919947983241
 40
0.2574875620416844
 40
0.3135105197410893
 40
0.3696458239515928
 40
0.4257966787004914
 40
0.4818216810234419
 40
0.53790529102636
 40
0.5940950733450967
 40
0.6501378281307529
 40
0.70618529576553
 40
0.7623782087968649
 40
0.8184543765827355
 40
0.8744813498365536
 40
0.9306415862931412
 40
0.9867667387024253
 40
1.0
 40
1.0
 40
1.0
 40
1.0
 10
38.91126844722213
 20
-4.73170526751912
 30
0.0
 10
38.78791506137213
 20
-4.739997322014694
 30
0.0
 10
38.28602423478042
 20
-4.773735399459814
 30
0.0
 10
37.46869171327153
 20
-4.570972505987831
 30
0.0
 10
36.4601523258065
 20
-4.172854579246908
 30
0.0
 10
35.5117364475816
 20
-3.621790809306484
 30
0.0
 10
34.5649161928002
 20
-2.931192199644523
 30
0.0
 10
33.61930562093907
 20
-2.123319102990712
 30
0.0
 10
32.67178961097007
 20
-1.233129197964433
 30
0.0
 10
31.72400056168563
 20
-0.2945468968785296
 30
0.0
 10
30.77835689688695
 20
0.6572085330351459
 30
0.0
 10
29.83171753100206
 20
1.582526007200695
 30
0.0
 10
28.88325320602969
 20
2.444102572520942
 30
0.0
 10
27.93729988948197
 20
3.211310971807037
 30
0.0
 10
26.99126646300871
 20
3.85165084246139
 30
0.0
 10
26.04274781601257
 20
4.33945105600993
 30
0.0
 10
25.09623424657248
 20
4.656292578210181
 30
0.0
 10
24.15054745428741
 20
4.793230421298611
 30
0.0
 10
23.20262313630169
 20
4.727334687498276
 30
0.0
 10
22.49604673134617
 20
4.578321501051582
 30
0.0
 10
22.10610251959608
 20
4.400855157430657
 30
0.0
 10
22.03170298578645
 20
4.366995408178221
 30
0.0
  0
SPLINE
  5
C3
330
1F
100
AcDbEntity
  8
외형선
  6
Continuous
 62
     1
370
    15
100
AcDbSpline
210
0.0
220
0.0
230
1.0
 70
     8
 71
     3
 72
    10
 73
     6
 74
     0
 42
0.000000001
 43
0.00000001
 40
0.0
 40
0.0
 40
0.0
 40
0.0
 40
0.4549687472843695
 40
0.910040497542914
 40
0.9999999999999999
 40
0.9999999999999999
 40
0.9999999999999999
 40
0.9999999999999999
 10
9.99999999999998
 20
-4.759382846600686
 30
0.0
 10
10.31225677647463
 20
-4.748052039751371
 30
0.0
 10
10.9368410230196
 20
-4.725387860806638
 30
0.0
 10
11.62384297318412
 20
-4.566541771541972
 30
0.0
 10
11.99754956108581
 20
-4.39528889081651
 30
0.0
 10
12.05923126932744
 20
-4.367022944840668
 30
0.0
  0
SPLINE
  5
C4
330
1F
100
AcDbEntity
  8
외형선
  6
Continuous
 62
     1
370
    15
100
AcDbSpline
210
0.0
220
0.0
230
1.0
 70
     8
 71
     3
 72
    24
 73
    20
 74
     0
 42
0.000000001
 43
0.00000001
 40
0.0
 40
0.0
 40
0.0
 40
0.0
 40
0.0557964831473333
 40
0.1120410686415722
 40
0.1681400749942417
 40
0.2242343641640657
 40
0.2804758160668456
 40
0.336610998022544
 40
0.392687518405299
 40
0.4600438709586154
 40
0.527462024746942
 40
0.5948513662304082
 40
0.6621874378185777
 40
0.7294995168061189
 40
0.7856064306669572
 40
0.8418536518469709
 40
0.8979711794744291
 40
0.9540534983299921
 40
0.9999999999999999
 40
0.9999999999999999
 40
0.9999999999999999
 40
0.9999999999999999
 10
25.1016497955608
 20
4.763024673478791
 30
0.0
 10
25.41512170425536
 20
4.745255685430614
 30
0.0
 10
26.04458301898579
 20
4.709575006339425
 30
0.0
 10
26.99127435114196
 20
4.421102709098051
 30
0.0
 10
27.93729813514201
 20
3.970996194780264
 30
0.0
 10
28.88325234522862
 20
3.360425241366894
 30
0.0
 10
29.831722745988
 20
2.62010102853611
 30
0.0
 10
30.77833695397529
 20
1.775015426971431
 30
0.0
 10
31.78671019191615
 20
0.7992795572688347
 30
0.0
 10
32.86019556099102
 20
-0.2796096859479669
 30
0.0
 10
33.99765713826482
 20
-1.405801549558949
 30
0.0
 10
35.13472440131299
 20
-2.452582579865108
 30
0.0
 10
36.2705172305814
 20
-3.360225366752087
 30
0.0
 10
37.34316229519248
 20
-4.037602502571677
 30
0.0
 10
38.35205027577523
 20
-4.486897430398266
 30
0.0
 10
39.30069655579801
 20
-4.732065633721568
 30
0.0
 10
40.24701624822123
 20
-4.786258857465053
 30
0.0
 10
41.13507153356232
 20
-4.677338692012551
 30
0.0
 10
41.70915268507559
 20
-4.467380049051009
 30
0.0
 10
41.96767787874982
 20
-4.372829655448768
 30
0.0
  0
SPLINE
  5
C5
330
1F
100
AcDbEntity
  8
외형선
  6
Continuous
370
    15
100
AcDbSpline
210
0.0
220
0.0
230
1.0
 70
    24
 71
     3
 72
    13
 73
     9
 74
     0
 42
0.000000001
 43
0.00000001
 40
0.0
 40
0.0
 40
0.0
 40
0.0
 40
0.0103712508263173
 40
0.2132484410870302
 40
0.4220090836092032
 40
0.6248862738699213
 40
0.8336469163920784
 40
1.0
 40
1.0
 40
1.0
 40
1.0
 10
9.999999999999995
 20
-3.266586992079186
 30
0.0
 10
10.0
 20
-3.270814682354937
 30
0.0
 10
9.999999999999897
 20
-3.357742322598192
 30
0.0
 10
10.00000000000002
 20
-3.558858793585272
 30
0.0
 10
10.0
 20
-3.859784931768846
 30
0.0
 10
9.999999999999954
 20
-4.180220927753454
 30
0.0
 10
9.999999999999947
 20
-4.482583011593328
 30
0.0
 10
9.999999999999988
 20
-4.674342535232535
 30
0.0
 10
9.999999999999988
 20
-4.759382846600683
 30
0.0
  0
SPLINE
  5
C6
330
1F
100
AcDbEntity
  8
외형선
  6
Continuous
 62
     1
370
    15
100
AcDbSpline
210
0.0
220
0.0
230
1.0
 70
     8
 71
     3
 72
    24
 73
    20
 74
     0
 42
0.000000001
 43
0.00000001
 40
0.0
 40
0.0
 40
0.0
 40
0.0
 40
0.0480978087909361
 40
0.1153832431464559
 40
0.1827240733597374
 40
0.2500850838860668
 40
0.3173840287251124
 40
0.384648030794484
 40
0.4406915333340188
 40
0.4968815240785951
 40
0.5529839747283816
 40
0.6090138069244001
 40
0.6651559994173959
 40
0.7213137443569712
 40
0.777345621427428
 40
0.8334361133695165
 40
0.889632790655676
 40
0.9456824223672176
 40
1.0
 40
1.0
 40
1.0
 40
1.0
 10
43.89953234317333
 20
-4.75002610072488
 30
0.0
 10
43.6291817246147
 20
-4.741021519296444
 30
0.0
 10
42.98062970238985
 20
-4.719420165003874
 30
0.0
 10
41.95217308740823
 20
-4.405904464600566
 30
0.0
 10
40.81515790134851
 20
-3.834048298119128
 30
0.0
 10
39.67759959055413
 20
-3.038566743459847
 30
0.0
 10
38.54145822124552
 20
-2.072292977682334
 30
0.0
 10
37.46868342276861
 20
-1.0487351188668
 30
0.0
 10
36.46015437936386
 20
-0.0388231874552859
 30
0.0
 10
35.51173590023968
 20
0.9076081033199265
 30
0.0
 10
34.56491632953882
 20
1.819686541489189
 30
0.0
 10
33.61930562005401
 20
2.660658175243405
 30
0.0
 10
32.67178947718684
 20
3.395710314070923
 30
0.0
 10
31.72400109728791
 20
3.997113343752664
 30
0.0
 10
30.77835489234023
 20
4.441648467819087
 30
0.0
 10
29.83172502996509
 20
4.711680252658573
 30
0.0
 10
28.88322519167401
 20
4.792505251604581
 30
0.0
 10
27.94716447115665
 20
4.698963606674674
 30
0.0
 10
27.32647498974321
 20
4.485192919739811
 30
0.0
 10
27.02100066188061
 20
4.379984987490912
 30
0.0
  0
SPLINE
  5
C7
330
1F
100
AcDbEntity
  8
외형선
  6
Continuous
 62
     1
370
    15
100
AcDbSpline
210
0.0
220
0.0
230
1.0
 70
     8
 71
     3
 72
    12
 73
     8
 74
     0
 42
0.000000001
 43
0.00000001
 40
0.0
 40
0.0
 40
0.0
 40
0.0
 40
0.0581827401502432
 40
0.2936169508244478
 40
0.5287387855631646
 40
0.7643960626423351
 40
1.0
 40
1.0
 40
1.0
 40
1.0
 10
13.9755968704933
 20
-4.744329537090691
 30
0.0
 10
13.89843573013898
 20
-4.749476967809877
 30
0.0
 10
13.50904501573683
 20
-4.7754532781116
 30
0.0
 10
12.80844112543024
 20
-4.640280378056222
 30
0.0
 10
11.87379790364995
 20
-4.333075171480732
 30
0.0
 10
10.93688293919029
 20
-3.853969715107429
 30
0.0
 10
10.31227074747718
 20
-3.415576185926236
 30
0.0
 10
9.99999999999998
 20
-3.196404231131186
 30
0.0
  0
LINE
  5
C8
330
1F
100
AcDbEntity
  8
외형선
  6
Continuous
 62
     1
370
    15
100
AcDbLine
 10
54.44999999999998
 20
-4.726670969958006
 30
0.0
 11
54.44999999999998
 21
-2.843942097201028
 31
0.0
  0
SPLINE
  5
C9
330
1F
100
AcDbEntity
  8
외형선
  6
Continuous
 62
     1
370
    15
100
AcDbSpline
210
0.0
220
0.0
230
1.0
 70
     8
 71
     3
 72
    26
 73
    22
 74
     0
 42
0.000000001
 43
0.00000001
 40
0.0
 40
0.0
 40
0.0
 40
0.0
 40
0.0472342236439247
 40
0.1027303694562371
 40
0.158100421194273
 40
0.2135440359500905
 40
0.2690735513709565
 40
0.3251014429107268
 40
0.3811550863963419
 40
0.4373449539020801
 40
0.4934001522469234
 40
0.549427188806424
 40
0.6055983491892224
 40
0.6616964638974532
 40
0.7177125780761635
 40
0.7738316520539017
 40
0.8299858062792926
 40
0.886006711734503
 40
0.9420768063939298
 40
0.9982636336551495
 40
0.9999999999999999
 40
0.9999999999999999
 40
0.9999999999999999
 40
0.9999999999999999
 10
10.13930291965148
 20
4.75194893210288
 30
0.0
 10
10.40514735123191
 20
4.743774851829158
 30
0.0
 10
10.98333610013608
 20
4.725996931039889
 30
0.0
 10
11.87379950328663
 20
4.477677010505751
 30
0.0
 10
12.8084441178337
 20
4.061914085273449
 30
0.0
 10
13.74438132488401
 20
3.485070805962243
 30
0.0
 10
14.6853979578769
 20
2.773791615763163
 30
0.0
 10
15.6275696603291
 20
1.949417654115207
 30
0.0
 10
16.5738139511256
 20
1.045298852093449
 30
0.0
 10
17.52238322802232
 20
0.1020013635481736
 30
0.0
 10
18.46865005351551
 20
-0.8472361091877243
 30
0.0
 10
19.41443703969327
 20
-1.763247732696395
 30
0.0
 10
20.36268514710811
 20
-2.607952725934099
 30
0.0
 10
21.30966844372624
 20
-3.35098446155855
 30
0.0
 10
22.25525899781565
 20
-3.962263006760531
 30
0.0
 10
23.20260314006132
 20
-4.417030948944882
 30
0.0
 10
24.15054532076615
 20
-4.696362035316221
 30
0.0
 10
25.09626265537017
 20
-4.79623375289165
 30
0.0
 10
26.04263608084477
 20
-4.687069317994448
 30
0.0
 10
26.68545448677031
 20
-4.538222412336065
 30
0.0
 10
27.01123473189247
 20
-4.382503134288268
 30
0.0
 10
27.02100066188065
 20
-4.377835130043104
 30
0.0
  0
SPLINE
  5
CA
330
1F
100
AcDbEntity
  8
외형선
  6
Continuous
 62
     1
370
    15
100
AcDbSpline
210
0.0
220
0.0
230
1.0
 70
     8
 71
     3
 72
    23
 73
    19
 74
     0
 42
0.000000001
 43
0.00000001
 40
0.0
 40
0.0
 40
0.0
 40
0.0
 40
0.0126973492362191
 40
0.0784403543101937
 40
0.1443492510062316
 40
0.2101862646528556
 40
0.2759188504814277
 40
0.3417640625674588
 40
0.4076663071002196
 40
0.4734069139279073
 40
0.5391970196537299
 40
0.6051321437394281
 40
0.6708991904294971
 40
0.7366524768742927
 40
0.8025784601660584
 40
0.8683902951542679
 40
0.9341251473967762
 40
1.0
 40
1.0
 40
1.0
 40
1.0
 10
40.06453567823641
 20
4.748947120617809
 30
0.0
 10
40.12540877768775
 20
4.7535222601918
 30
0.0
 10
40.50146423620062
 20
4.781786078294782
 30
0.0
 10
41.19271081387254
 20
4.650253556635229
 30
0.0
 10
42.14094687767751
 20
4.349374859529159
 30
0.0
 10
43.08802383241371
 20
3.860471659364512
 30
0.0
 10
44.0336155713316
 20
3.223256020789391
 30
0.0
 10
44.98083080391013
 20
2.458531176253513
 30
0.0
 10
45.92889287538747
 20
1.598094905017662
 30
0.0
 10
46.874603613232
 20
0.6729665864066233
 30
0.0
 10
47.82103202269155
 20
-0.2782713098860814
 30
0.0
 10
48.76957793301294
 20
-1.216669367776355
 30
0.0
 10
49.71567623880349
 20
-2.109204786866794
 30
0.0
 10
50.66157473938425
 20
-2.918256571703585
 30
0.0
 10
51.60998686937
 20
-3.611697247844847
 30
0.0
 10
52.55672320116535
 20
-4.160393219591691
 30
0.0
 10
53.50234564516887
 20
-4.558519261988722
 30
0.0
 10
54.13389127864118
 20
-4.670580665376495
 30
0.0
 10
54.45000000000001
 20
-4.726670969958005
 30
0.0
  0
SPLINE
  5
CB
330
1F
100
AcDbEntity
  8
외형선
  6
Continuous
 62
     1
370
    15
100
AcDbSpline
210
0.0
220
0.0
230
1.0
 70
     8
 71
     3
 72
    20
 73
    16
 74
     0
 42
0.000000001
 43
0.00000001
 40
0.0
 40
0.0
 40
0.0
 40
0.0
 40
0.0759193553343314
 40
0.1516773632544073
 40
0.2275240921384692
 40
0.3035023744951554
 40
0.379281627438155
 40
0.4550767387688273
 40
0.5310655556945506
 40
0.6068872420695658
 40
0.6826518820256874
 40
0.7586028059715549
 40
0.8344880012452859
 40
0.9102433971718871
 40
1.0
 40
1.0
 40
1.0
 40
1.0
 10
54.45
 20
-2.860159785957197
 30
0.0
 10
54.13389127863216
 20
-2.596908451472061
 30
0.0
 10
53.50234564514187
 20
-2.070965256721915
 30
0.0
 10
52.55672320127318
 20
-1.168676010576347
 30
0.0
 10
51.60998686896482
 20
-0.2289004730715906
 30
0.0
 10
50.66157474089781
 20
0.7206123866642993
 30
0.0
 10
49.71567623317094
 20
1.643248950121573
 30
0.0
 10
48.76957795406319
 20
2.501097577918242
 30
0.0
 10
47.82103194398057
 20
3.258722006879345
 30
0.0
 10
46.87460390614812
 20
3.889595544436719
 30
0.0
 10
45.92889178191673
 20
4.366927746850084
 30
0.0
 10
44.98083489459559
 20
4.672541733862236
 30
0.0
 10
44.03360033163163
 20
4.790799516434579
 30
0.0
 10
43.03039413208139
 20
4.730721861496774
 30
0.0
 10
42.34134624249617
 20
4.50006432354097
 30
0.0
 10
41.96767787874986
 20
4.374979512896571
 30
0.0
  0
SPLINE
  5
CC
330
1F
100
AcDbEntity
  8
외형선
  6
Continuous
 62
     1
370
    15
100
AcDbSpline
210
0.0
220
0.0
230
1.0
 70
     8
 71
     3
 72
    26
 73
    22
 74
     0
 42
0.000000001
 43
0.00000001
 40
0.0
 40
0.0
 40
0.0
 40
0.0
 40
0.0032051200031767
 40
0.0592504709367164
 40
0.1153005349376969
 40
0.1714960510729084
 40
0.2275748165545002
 40
0.2836043852251315
 40
0.3397672232718724
 40
0.3958949756460618
 40
0.4519197522992585
 40
0.5080265421627447
 40
0.5642063889967706
 40
0.620242089719821
 40
0.676305956583225
 40
0.7325045134331051
 40
0.7885668251968344
 40
0.8446033810323702
 40
0.9001414836788519
 40
0.9555936723763866
 40
1.0
 40
1.0
 40
1.0
 40
1.0
 10
28.93695219190798
 20
-4.756367978042063
 30
0.0
 10
28.91890425993411
 20
-4.758038376068352
 30
0.0
 10
28.58526668386044
 20
-4.788917678438083
 30
0.0
 10
27.93736349375617
 20
-4.674414694955763
 30
0.0
 10
26.9912492634253
 20
-4.40082964429227
 30
0.0
 10
26.04275281494384
 20
-3.933856326036056
 30
0.0
 10
25.09623143699687
 20
-3.316679339516549
 30
0.0
 10
24.15055370496526
 20
-2.566703146182144
 30
0.0
 10
23.20260089266201
 20
-1.717403336377086
 30
0.0
 10
22.25525959873059
 20
-0.7998783947340458
 30
0.0
 10
21.3096682820377
 20
0.1502931461706656
 30
0.0
 10
20.36268519255567
 20
1.093784928856876
 30
0.0
 10
19.41443701996401
 20
1.993188811617648
 30
0.0
 10
18.46865008700103
 20
2.81592487507762
 30
0.0
 10
17.52238311358997
 20
3.527280824038468
 30
0.0
 10
16.57381437600304
 20
4.098630238541814
 30
0.0
 10
15.62756808014726
 20
4.509392170913426
 30
0.0
 10
14.68540383025624
 20
4.742719536292813
 30
0.0
 10
13.7443596395584
 20
4.785500599544235
 30
0.0
 10
12.87024463752721
 20
4.671148121049532
 30
0.0
 10
12.30887022744535
 20
4.462124172646472
 30
0.0
 10
12.05923126932748
 20
4.36917280228847
 30
0.0
  0
SPLINE
  5
CD
330
1F
100
AcDbEntity
  8
외형선
  6
Continuous
 62
     1
370
    15
100
AcDbSpline
210
0.0
220
0.0
230
1.0
 70
     8
 71
     3
 72
    20
 73
    16
 74
     0
 42
0.000000001
 43
0.00000001
 40
0.0
 40
0.0
 40
0.0
 40
0.0
 40
0.0778465561079706
 40
0.1557107363425571
 40
0.2333979995753912
 40
0.3111884758150244
 40
0.3890994754670081
 40
0.4677097245421546
 40
0.5463561050300918
 40
0.6251936153974088
 40
0.7038421774393517
 40
0.782451226929611
 40
0.8612624901626282
 40
0.9399712662501575
 40
1.0
 40
1.0
 40
1.0
 40
1.0
 10
9.99999999999998
 20
2.502076389902653
 30
0.0
 10
10.31227082958996
 20
2.227113941201524
 30
0.0
 10
10.93688318554722
 20
1.6771267934795
 30
0.0
 10
11.87379691889512
 20
0.7630609201325049
 30
0.0
 10
12.80844481093077
 20
-0.1751825235561753
 30
0.0
 10
13.74438113766108
 20
-1.107587784378494
 30
0.0
 10
14.68539801284933
 20
-1.999057009364715
 30
0.0
 10
15.62756962941619
 20
-2.818160650385359
 30
0.0
 10
16.57381401963688
 20
-3.528798188870934
 30
0.0
 10
17.52238298455355
 20
-4.099298774398655
 30
0.0
 10
18.46865095609645
 20
-4.509055759712432
 30
0.0
 10
19.41443367009343
 20
-4.742335263920216
 30
0.0
 10
20.36269775174607
 20
-4.782914275356786
 30
0.0
 10
21.23516743266583
 20
-4.666120977155503
 30
0.0
 10
21.79114392617138
 20
-4.45583274267937
 30
0.0
 10
22.03170298578645
 20
-4.364845550730418
 30
0.0
  0
SPLINE
  5
CE
330
1F
100
AcDbEntity
  8
외형선
  6
Continuous
 62
     1
370
    15
100
AcDbSpline
210
0.0
220
0.0
230
1.0
 70
     8
 71
     3
 72
    26
 73
    22
 74
     0
 42
0.000000001
 43
0.00000001
 40
0.0
 40
0.0
 40
0.0
 40
0.0
 40
0.0033882904045385
 40
0.070663616044562
 40
0.1379149707284228
 40
0.1939712688108286
 40
0.2501677476368474
 40
0.3062346499108666
 40
0.3622663751759103
 40
0.4184394872513192
 40
0.474551334538612
 40
0.5305741796452996
 40
0.5866930143330611
 40
0.642860456874734
 40
0.6988901381523313
 40
0.7549620065593137
 40
0.8111574718248483
 40
0.8672096873797169
 40
0.9232501752947878
 40
0.97943785000597
 40
1.0
 40
1.0
 40
1.0
 40
1.0
 10
35.07768479346855
 20
4.757119779137215
 30
0.0
 10
35.0967604016362
 20
4.75925466289548
 30
0.0
 10
35.49458682453358
 20
4.803778180121683
 30
0.0
 10
36.27047880510302
 20
4.639610064332704
 30
0.0
 10
37.3431706351164
 20
4.272366998892529
 30
0.0
 10
38.35204840310057
 20
3.703115488229915
 30
0.0
 10
39.3006963190755
 20
3.03124668048459
 30
0.0
 10
40.24701905589833
 20
2.236984770403752
 30
0.0
 10
41.19277188003542
 20
1.35460172525996
 30
0.0
 10
42.14093051705621
 20
0.4205962604430619
 30
0.0
 10
43.0880282049276
 20
-0.5308253418649262
 30
0.0
 10
44.03361440309079
 20
-1.462168884540232
 30
0.0
 10
44.98083109956663
 20
-2.334853561011496
 30
0.0
 10
45.92889286325789
 20
-3.114997528843502
 30
0.0
 10
46.87460336749735
 20
-3.773703768062314
 30
0.0
 10
47.82103301974885
 20
-4.283366957193559
 30
0.0
 10
48.76957418587646
 20
-4.622807665985013
 30
0.0
 10
49.71569018695155
 20
-4.783825451273519
 30
0.0
 10
50.66152263288797
 20
-4.744627489308776
 30
0.0
 10
51.40994128285153
 20
-4.599786951159505
 30
0.0
 10
51.84165179712472
 20
-4.410935084625164
 30
0.0
 10
51.95731194856585
 20
-4.360339524032724
 30
0.0
  0
SPLINE
  5
CF
330
1F
100
AcDbEntity
  8
외형선
  6
Continuous
370
    15
100
AcDbSpline
210
0.0
220
0.0
230
1.0
 70
    24
 71
     3
 72
    14
 73
    10
 74
     0
 42
0.000000001
 43
0.00000001
 40
0.0
 40
0.0
 40
0.0
 40
0.0
 40
0.2038010703734263
 40
0.3445774612081451
 40
0.4894363769139464
 40
0.6302127677485659
 40
0.7750716834542596
 40
0.9158480742888825
 40
1.0
 40
1.0
 40
1.0
 40
1.0
 10
9.999999999999995
 20
4.65647117144812
 30
0.0
 10
10.0
 20
4.512100282738089
 30
0.0
 10
10.00000000000003
 20
4.268004634894266
 30
0.0
 10
10.00000000000003
 20
3.899616574132112
 30
0.0
 10
9.999999999999947
 20
3.580061488332904
 30
0.0
 10
10.00000000000004
 20
3.265529025747742
 30
0.0
 10
9.999999999999932
 20
2.973327748185759
 30
0.0
 10
10.00000000000005
 20
2.737003866123463
 30
0.0
 10
10.0
 20
2.617120751264999
 30
0.0
 10
9.999999999999988
 20
2.572269150850627
 30
0.0
  0
SPLINE
  5
D0
330
1F
100
AcDbEntity
  8
외형선
  6
Continuous
 62
     1
370
    15
100
AcDbSpline
210
0.0
220
0.0
230
1.0
 70
     8
 71
     3
 72
    25
 73
    21
 74
     0
 42
0.000000001
 43
0.00000001
 40
0.0
 40
0.0
 40
0.0
 40
0.0
 40
0.0220016079816636
 40
0.0779978430784256
 40
0.1340596559285336
 40
0.1902187060131349
 40
0.2462306442854546
 40
0.3022543042229651
 40
0.3584211408930461
 40
0.4144644436705889
 40
0.4704655808108414
 40
0.5266044090331454
 40
0.58269465416465
 40
0.6386889586166564
 40
0.7059329792025809
 40
0.7732323615504586
 40
0.8405519117905259
 40
0.9078094345443569
 40
0.9750320360355731
 40
0.9999999999999999
 40
0.9999999999999999
 40
0.9999999999999999
 40
0.9999999999999999
 10
53.87366653964895
 20
-4.738991791525948
 30
0.0
 10
53.74974329336772
 20
-4.744670790817266
 30
0.0
 10
53.3104233161521
 20
-4.764803396394814
 30
0.0
 10
52.55676054084399
 20
-4.603038461629997
 30
0.0
 10
51.60997683873432
 20
-4.262637899974727
 30
0.0
 10
50.66157742250042
 20
-3.743352639979572
 30
0.0
 10
49.71567551562902
 20
-3.078527111683631
 30
0.0
 10
48.76957814576785
 20
-2.291337005970018
 30
0.0
 10
47.8210318969422
 20
-1.415961960889335
 30
0.0
 10
46.8746039028836
 20
-0.4830121776305841
 30
0.0
 10
45.92889184193895
 20
0.4694328448025559
 30
0.0
 10
44.98083465717105
 20
1.401626810058311
 30
0.0
 10
44.03360121958519
 20
2.279493146688512
 30
0.0
 10
43.02532593407084
 20
3.120551527543571
 30
0.0
 10
41.95215703082503
 20
3.863210628872395
 30
0.0
 10
40.81516080452815
 20
4.429927799185327
 30
0.0
 10
39.67760404631468
 20
4.748996621829709
 30
0.0
 10
38.541437524926
 20
4.786597061767558
 30
0.0
 10
37.64355436231069
 20
4.63887225121015
 30
0.0
 10
37.12492622854013
 20
4.417251016048483
 30
0.0
 10
36.98446620976357
 20
4.357229353463816
 30
0.0
  0
SPLINE
  5
D1
330
1F
100
AcDbEntity
  8
외형선
  6
Continuous
 62
     1
370
    15
100
AcDbSpline
210
0.0
220
0.0
230
1.0
 70
     8
 71
     3
 72
    22
 73
    18
 74
     0
 42
0.000000001
 43
0.00000001
 40
0.0
 40
0.0
 40
0.0
 40
0.0
 40
0.0536603757259141
 40
0.1215660050680412
 40
0.1893470502099254
 40
0.2572273182571194
 40
0.3251959735878315
 40
0.3929902351121116
 40
0.4608185731743956
 40
0.5288098646404922
 40
0.5966363212801706
 40
0.6644316173541881
 40
0.7316238645607815
 40
0.7987121695903637
 40
0.8657114613368556
 40
0.932863330395537
 40
1.0
 40
1.0
 40
1.0
 40
1.0
 10
23.951531952781
 20
-4.745802342370639
 30
0.0
 10
23.70185303893055
 20
-4.740743420610331
 30
0.0
 10
23.13621279329448
 20
-4.729282581955497
 30
0.0
 10
22.25523596049209
 20
-4.489166832223871
 30
0.0
 10
21.3096746215851
 20
-4.074995466429491
 30
0.0
 10
20.36268348820959
 20
-3.494710551488417
 30
0.0
 10
19.41443748309322
 20
-2.77920739337955
 30
0.0
 10
18.46864993502012
 20
-1.952206235433306
 30
0.0
 10
17.52238325896306
 20
-1.04844164970645
 30
0.0
 10
16.57381394623038
 20
-0.1052690231203607
 30
0.0
 10
15.62756964906106
 20
0.8440500030587618
 30
0.0
 10
14.68539800763836
 20
1.756923192311099
 30
0.0
 10
13.7443811390497
 20
2.595717386204909
 30
0.0
 10
12.8084448105596
 20
3.333564283837993
 30
0.0
 10
11.87379691899429
 20
3.940090165334307
 30
0.0
 10
10.9368831855224
 20
4.406828522231433
 30
0.0
 10
10.31227082958169
 20
4.573263234349321
 30
0.0
 10
9.99999999999998
 20
4.656471171448121
 30
0.0
  0
LINE
  5
D2
330
1F
100
AcDbEntity
  8
외형선
  6
Continuous
 62
     1
370
    15
100
AcDbLine
 10
54.44999999999998
 20
4.728820827405812
 30
0.0
 11
54.44999999999998
 21
4.763574928723904
 31
0.0
  0
LINE
  5
D3
330
1F
100
AcDbEntity
  8
외형선
  6
Continuous
370
    15
100
AcDbLine
 10
9.999999999999988
 20
-4.761425071276101
 30
0.0
 11
9.999999999999988
 21
-4.759382846600683
 31
0.0
  0
LINE
  5
D4
330
1F
100
AcDbEntity
  8
외형선
  6
Continuous
 62
     1
370
    15
100
AcDbLine
 10
54.44999999999998
 20
1.867586112724728
 30
0.0
 11
54.44999999999998
 21
2.862309643405026
 31
0.0
  0
LINE
  5
D5
330
1F
100
AcDbEntity
  8
외형선
  6
Continuous
 62
     1
370
    15
100
AcDbLine
 10
54.44999999999998
 20
-2.860159785957197
 30
0.0
 11
54.44999999999998
 21
-1.865436255276836
 31
0.0
  0
LINE
  5
D6
330
1F
100
AcDbEntity
  8
외형선
  6
Continuous
 62
     1
370
    15
100
AcDbLine
 10
54.44999999999998
 20
-4.761425071276101
 30
0.0
 11
54.44999999999998
 21
-4.726670969958006
 31
0.0
  0
LINE
  5
D7
330
1F
100
AcDbEntity
  8
외형선
  6
Continuous
370
    15
100
AcDbLine
 10
9.999999999999988
 20
4.656471171448119
 30
0.0
 11
9.999999999999988
 21
4.763574928723904
 31
0.0
  0
LINE
  5
D8
330
1F
100
AcDbEntity
  8
외형선
  6
Continuous
370
    15
100
AcDbLine
 10
9.999999999999988
 20
1.458992011593046
 30
0.0
 11
9.99999999999998
 21
2.502076389902653
 31
0.0
  0
LINE
  5
D9
330
1F
100
AcDbEntity
  8
외형선
  6
Continuous
370
    15
100
AcDbLine
 10
9.999999999999988
 20
-3.196404231131184
 30
0.0
 11
10.00000000000001
 21
-2.25838138542195
 31
0.0
  0
SPLINE
  5
DA
330
1F
100
AcDbEntity
  8
외형선
  6
Continuous
370
    15
100
AcDbSpline
210
0.0
220
0.0
230
1.0
 70
     8
 71
     3
 72
     8
 73
     4
 74
     0
 42
0.000000001
 43
0.00000001
 40
0.0
 40
0.0
 40
0.0
 40
0.0
 40
1.0
 40
1.0
 40
1.0
 40
1.0
 10
10.0000000000094
 20
4.656471171446137
 30
0.0
 10
9.665120749655483
 20
4.726944551399116
 30
0.0
 10
9.335555472389395
 20
4.762790492752578
 30
0.0
 10
9.000164540872158
 20
4.763562241858369
 30
0.0
  0
LINE
  5
DB
330
1F
100
AcDbEntity
  8
외형선
  6
Continuous
370
    15
100
AcDbLine
 10
9.000164540872143
 20
3.292602498693889
 30
0.0
 11
9.000164540872143
 21
4.763562234464692
 31
0.0
  0
SPLINE
  5
DC
330
1F
100
AcDbEntity
  8
외형선
  6
Continuous
370
    15
100
AcDbSpline
210
0.0
220
0.0
230
1.0
 70
     8
 71
     3
 72
     8
 73
     4
 74
     0
 42
0.000000001
 43
0.00000001
 40
0.0
 40
0.0
 40
0.0
 40
0.0
 40
1.0
 40
1.0
 40
1.0
 40
1.0
 10
9.999999999999988
 20
2.502076389902632
 30
0.0
 10
9.665120749649258
 20
2.78646812239688
 30
0.0
 10
9.335555472386236
 20
3.050954881416079
 30
0.0
 10
9.000164540872143
 20
3.292598884745055
 30
0.0
  0
SPLINE
  5
DD
330
1F
100
AcDbEntity
  8
외형선
  6
Continuous
370
    15
100
AcDbSpline
210
0.0
220
0.0
230
1.0
 70
     8
 71
     3
 72
     8
 73
     4
 74
     0
 42
0.000000001
 43
0.00000001
 40
0.0
 40
0.0
 40
0.0
 40
0.0
 40
1.0
 40
1.0
 40
1.0
 40
1.0
 10
10.0000000000094
 20
1.458992011584105
 30
0.0
 10
9.665120749655483
 20
1.777128788239718
 30
0.0
 10
9.335555472389395
 20
2.082857538181413
 30
0.0
 10
9.000164540872158
 20
2.372798518330973
 30
0.0
  0
SPLINE
  5
DE
330
1F
100
AcDbEntity
  8
외형선
  6
Continuous
370
    15
100
AcDbSpline
210
0.0
220
0.0
230
1.0
 70
     8
 71
     3
 72
     8
 73
     4
 74
     0
 42
0.000000001
 43
0.00000001
 40
0.0
 40
0.0
 40
0.0
 40
0.0
 40
1.0
 40
1.0
 40
1.0
 40
1.0
 10
9.999999999999988
 20
-2.258381385421932
 30
0.0
 10
9.665120749649258
 20
-1.964204142454942
 30
0.0
 10
9.335555472386236
 20
-1.654955308402255
 30
0.0
 10
9.000164540872143
 20
-1.334011499794106
 30
0.0
  0
SPLINE
  5
DF
330
1F
100
AcDbEntity
  8
외형선
  6
Continuous
370
    15
100
AcDbSpline
210
0.0
220
0.0
230
1.0
 70
     8
 71
     3
 72
     8
 73
     4
 74
     0
 42
0.000000001
 43
0.00000001
 40
0.0
 40
0.0
 40
0.0
 40
0.0
 40
1.0
 40
1.0
 40
1.0
 40
1.0
 10
10.0000000000094
 20
-3.196404231138143
 30
0.0
 10
9.665120749655483
 20
-2.948740834435508
 30
0.0
 10
9.335555472389395
 20
-2.678858025847274
 30
0.0
 10
9.000164540872158
 20
-2.389688794803504
 30
0.0
  0
LINE
  5
E0
330
1F
100
AcDbEntity
  8
외형선
  6
Continuous
370
    15
100
AcDbLine
 10
9.000164540872143
 20
-4.625534269830131
 30
0.0
 11
9.000164540872143
 21
-2.389691564760686
 31
0.0
  0
SPLINE
  5
E1
330
1F
100
AcDbEntity
  8
외형선
  6
Continuous
370
    15
100
AcDbSpline
210
0.0
220
0.0
230
1.0
 70
     8
 71
     3
 72
     8
 73
     4
 74
     0
 42
0.000000001
 43
0.00000001
 40
0.0
 40
0.0
 40
0.0
 40
0.0
 40
1.0
 40
1.0
 40
1.0
 40
1.0
 10
9.999999999999988
 20
-4.759382846600681
 30
0.0
 10
9.665120749649258
 20
-4.749597336127938
 30
0.0
 10
9.335555472386236
 20
-4.704835261094451
 30
0.0
 10
9.000164540872143
 20
-4.625535455815278
 30
0.0
  0
LINE
  5
E2
330
1F
100
AcDbEntity
  8
외형선
  6
Continuous
370
    15
100
AcDbLine
 10
-46.19750000000001
 20
0.0010749287239018
 30
0.0
 11
-46.19750000000001
 21
4.763574928723902
 31
0.0
  0
LINE
  5
E3
330
1F
100
AcDbEntity
  8
외형선
  6
Continuous
370
    15
100
AcDbLine
 10
-46.19750000000001
 20
-4.761425071276098
 30
0.0
 11
-46.19750000000001
 21
0.0010749287239018
 31
0.0
  0
LINE
  5
E4
330
1F
100
AcDbEntity
  8
외형선
  6
Continuous
370
    15
100
AcDbLine
 10
9.000164540872143
 20
-1.334006699860126
 30
0.0
 11
9.000164540872143
 21
2.372795740980115
 31
0.0
  0
LINE
  5
E5
330
1F
100
AcDbEntity
  8
외형선
  6
Continuous
370
    15
100
AcDbLine
 10
-47.15000000000001
 20
0.0010749287239018
 30
0.0
 11
-47.15000000000001
 21
3.811074928723905
 31
0.0
  0
LINE
  5
E6
330
1F
100
AcDbEntity
  8
외형선
  6
Continuous
370
    15
100
AcDbLine
 10
-47.15000000000001
 20
-3.808925071276102
 30
0.0
 11
-47.15000000000001
 21
0.0010749287239018
 31
0.0
  0
SPLINE
  5
E7
330
1F
100
AcDbEntity
  8
외형선
  6
Continuous
370
    15
100
AcDbSpline
210
0.0
220
0.0
230
1.0
 70
    24
 71
     3
 72
    24
 73
    20
 74
     0
 42
0.000000001
 43
0.00000001
 40
0.0
 40
0.0
 40
0.0
 40
0.0
 40
0.125
 40
0.125
 40
0.2499999999999999
 40
0.2499999999999999
 40
0.3749999999999999
 40
0.3749999999999999
 40
0.4999999999999999
 40
0.4999999999999999
 40
0.6249999999999999
 40
0.6249999999999999
 40
0.7499999999999999
 40
0.7499999999999999
 40
0.8124999999999998
 40
0.8124999999999998
 40
0.8749999999999997
 40
0.8749999999999997
 40
1.0
 40
1.0
 40
1.0
 40
1.0
 10
9.999999999999973
 20
-2.258381385421901
 30
0.0
 10
9.99999999999998
 20
-2.192442422515636
 30
0.0
 10
9.999999999999988
 20
-2.080205526862953
 30
0.0
 10
9.99999999999998
 20
-1.753070753450094
 30
0.0
 10
9.999999999999968
 20
-1.537793629317647
 30
0.0
 10
9.999999999999961
 20
-1.047650223522705
 30
0.0
 10
9.999999999999973
 20
-0.7746671369727725
 30
0.0
 10
9.999999999999988
 20
-0.2467419052483384
 30
0.0
 10
9.999999999999988
 20
0.0067078685592937
 30
0.0
 10
9.999999999999995
 20
0.4461669714079077
 30
0.0
 10
9.99999999999998
 20
0.6325945428039891
 30
0.0
 10
9.999999999999988
 20
0.9345894617273408
 30
0.0
 10
9.999999999999988
 20
1.050981808132387
 30
0.0
 10
9.999999999999973
 20
1.185794622483363
 30
0.0
 10
9.99999999999998
 20
1.224178714994999
 30
0.0
 10
9.999999999999995
 20
1.290185422682545
 30
0.0
 10
9.999999999999968
 20
1.317694653974417
 30
0.0
 10
9.999999999999968
 20
1.396330679819418
 30
0.0
 10
9.999999999999988
 20
1.439189786420486
 30
0.0
 10
9.99999999999998
 20
1.458992011593052
 30
0.0
  0
SPLINE
  5
E8
330
1F
100
AcDbEntity
  8
외형선
  6
Continuous
370
    15
100
AcDbSpline
210
0.0
220
0.0
230
1.0
 70
    24
 71
     3
 72
    10
 73
     6
 74
     0
 42
0.000000001
 43
0.00000001
 40
0.0
 40
0.0
 40
0.0
 40
0.0
 40
0.2303363384036523
 40
0.6401656520922621
 40
0.9999999999999999
 40
0.9999999999999999
 40
0.9999999999999999
 40
0.9999999999999999
 10
9.999999999999995
 20
-4.759382846600682
 30
0.0
 10
10.00000000000002
 20
-4.641300781966087
 30
0.0
 10
10.00000000000009
 20
-4.313119469234027
 30
0.0
 10
9.999999999999968
 20
-3.777224160498053
 30
0.0
 10
9.999999999999973
 20
-3.429265271252189
 30
0.0
 10
9.999999999999973
 20
-3.266586992079186
 30
0.0
  0
SPLINE
  5
E9
330
1F
100
AcDbEntity
  8
외형선
  6
Continuous
370
    15
100
AcDbSpline
210
0.0
220
0.0
230
1.0
 70
    24
 71
     3
 72
    11
 73
     7
 74
     0
 42
0.000000001
 43
0.00000001
 40
0.0
 40
0.0
 40
0.0
 40
0.0
 40
0.268902959279339
 40
0.5544914649598296
 40
0.8400799706404228
 40
1.0
 40
1.0
 40
1.0
 40
1.0
 10
9.999999999999988
 20
2.572269150850628
 30
0.0
 10
9.999999999999968
 20
2.729032791633718
 30
0.0
 10
9.999999999999925
 20
3.052287325772016
 30
0.0
 10
10.00000000000002
 20
3.674904082416761
 30
0.0
 10
9.999999999999968
 20
4.231721447017491
 30
0.0
 10
9.999999999999973
 20
4.544276286047002
 30
0.0
 10
9.999999999999995
 20
4.656471171448178
 30
0.0
  0
LINE
  5
EA
330
1F
100
AcDbEntity
  8
중심선
 62
     1
100
AcDbLine
 10
-50.15
 20
0.0010749287238931
 30
0.0
 11
57.45
 21
0.0010749287239024
 31
0.0
  0
LINE
  5
EB
330
1F
100
AcDbEntity
  8
참조1
100
AcDbLine
 10
3.65
 20
0.0010749287238892
 30
0.0
 11
3.650000000000005
 21
-39.99892507127611
 31
0.0
  0
LINE
  5
EC
330
1F
100
AcDbEntity
  8
참조1
100
AcDbLine
 10
3.650000000000005
 20
-39.99892507127611
 30
0.0
 11
-13.09635681430868
 21
-39.9989250712761
 31
0.0
  0
CIRCLE
  5
ED
330
1F
100
AcDbEntity
  8
해칭선
100
AcDbCircle
 10
-0.0000000000000052
 20
0.0
 30
0.0
 40
3.000000000000002
  0
INSERT
  5
EE
330
1F
100
AcDbEntity
  8
0
  6
Continuous
 62
     7
100
AcDbBlockReference
 66
     1
  2
블럭10
 10
-10.29027293212521
 20
-52.04609937292004
 30
0.0
  0
ATTRIB
  5
EF
330
EE
100
AcDbEntity
  8
FORMAT
 62
     2
100
AcDbText
 10
-20.43190894426183
 20
-49.97073246008785
 30
0.0
 40
4.233333333333333
  1
EM218024 [ 6 FLUTE ]
 41
0.75
  7
SLDTEXTSTYLE0
 11
-20.43190894426183
 21
-52.08739912675452
 31
0.0
100
AcDbAttribute
  2
AUTOATTR0
 70
     0
 74
     1
  0
SEQEND
  5
F0
330
EE
100
AcDbEntity
  8
0
  6
Continuous
 62
     7
  0
HATCH
  5
F1
330
1F
100
AcDbEntity
  8
중심선
100
AcDbHatch
 10
0.0
 20
0.0
 30
0.0
210
0.0
220
0.0
230
1.0
  2
SOLID
 70
     1
 71
     0
 91
        1
 92
        0
 93
        4
 72
     1
 10
-4.575363627744355
 20
-35.7989250712761
 11
-8.021638871581638
 21
-35.7989250712761
 72
     1
 10
-8.021638871581638
 20
-35.7989250712761
 11
-10.14986873078566
 21
-38.3352506518487
 72
     1
 10
-10.14986873078566
 20
-38.3352506518487
 11
-6.703560401835229
 21
-38.33521122254621
 72
     1
 10
-6.703560401835229
 20
-38.33521122254621
 11
-4.575363627744355
 21
-35.7989250712761
 97
        0
 75
     0
 76
     1
 98
        1
 10
0.0
 20
0.0
  0
HATCH
  5
F2
330
1F
100
AcDbEntity
  8
중심선
100
AcDbHatch
 10
0.0
 20
0.0
 30
0.0
210
0.0
220
0.0
230
1.0
  2
SOLID
 70
     1
 71
     0
 91
        1
 92
        0
 93
        4
 72
     1
 10
0.4374003632916235
 20
-35.7989250712761
 11
-3.008874880545659
 21
-35.7989250712761
 72
     1
 10
-3.008874880545659
 20
-35.7989250712761
 11
-7.540012888903075
 21
-41.19892507127612
 72
     1
 10
-7.540012888903075
 20
-41.19892507127612
 11
-4.093737645065793
 21
-41.19892507127612
 72
     1
 10
-4.093737645065793
 20
-41.19892507127612
 11
0.4374003632916237
 21
-35.7989250712761
 97
        0
 75
     0
 76
     1
 98
        1
 10
0.0
 20
0.0
  0
HATCH
  5
F3
330
1F
100
AcDbEntity
  8
중심선
100
AcDbHatch
 10
0.0
 20
0.0
 30
0.0
210
0.0
220
0.0
230
1.0
  2
SOLID
 70
     1
 71
     0
 91
        1
 92
        0
 93
        4
 72
     1
 10
5.450164354327463
 20
-35.79892507127613
 11
2.003889110490376
 21
-35.79892507127608
 72
     1
 10
2.003889110490376
 20
-35.79892507127608
 11
-5.044547791398873
 21
-44.19892507127612
 72
     1
 10
-5.044547791398873
 20
-44.19892507127612
 11
-1.598272547561591
 21
-44.19892507127612
 72
     1
 10
-1.598272547561591
 20
-44.19892507127612
 11
5.450164354327463
 21
-35.79892507127613
 97
        0
 75
     0
 76
     1
 98
        1
 10
0.0
 20
0.0
  0
HATCH
  5
F4
330
1F
100
AcDbEntity
  8
중심선
100
AcDbHatch
 10
0.0
 20
0.0
 30
0.0
210
0.0
220
0.0
230
1.0
  2
SOLID
 70
     1
 71
     0
 91
        1
 92
        0
 93
        6
 72
     3
 10
10.25005478533969
 20
-39.99892507132738
 11
3.960054785062284
 21
1.540850780301639E-10
 40
0.3939339440162633
 50
17.09539180608434
 51
320.0019657685079
 73
     0
 72
     1
 10
11.93305444104029
 20
-38.58681907591441
 11
14.23835631474135
 21
-36.65249236586646
 72
     3
 10
10.25005478528684
 20
-39.99892507127625
 11
6.600054785286829
 21
-1.249000902703301E-13
 40
0.6363583540795982
 50
39.99873849337411
 51
368.4976242363724
 73
     1
 72
     1
 10
16.67538727718745
 20
-39.03892507120613
 11
8.930122092122794
 21
-39.03892507120613
 72
     1
 10
8.930122092122794
 20
-39.03892507120613
 11
8.930097047676833
 21
-40.95892507120602
 72
     1
 10
8.930097047676833
 20
-40.95892507120602
 11
13.37147681714887
 21
-40.95892507120599
 97
        0
 75
     0
 76
     1
 98
        1
 10
0.0
 20
0.0
  0
DIMENSION
  5
F5
330
1F
100
AcDbEntity
  8
치수문자_일반주서
100
AcDbDimension
  2
_D
 10
68.60977899569663
 20
-4.761425071276051
 30
0.0
 11
68.60977899569654
 21
24.49257492872395
 31
0.0
 70
   160
  1
%%c<>
 71
     2
 42
9.525000000000006
  3
SLDDIMSTYLE0
100
AcDbAlignedDimension
 13
54.44999999999998
 23
4.763574928723904
 33
0.0
 14
54.44999999999998
 24
-4.761425071276101
 34
0.0
 50
90.0000000000002
100
AcDbRotatedDimension
1001
PE_URL
1000

1001
ACAD
1000
DSTYLE
1002
{
1070
   171
1070
     6
1070
   273
1070
     7
1002
}
  0
DIMENSION
  5
10A
330
1F
100
AcDbEntity
  8
치수문자_일반주서
100
AcDbDimension
  2
_D_1
 10
-61.10250000000001
 20
-4.761425071276151
 30
0.0
 11
-61.10250000000003
 21
0.0010749287239044
 31
0.0
 70
   160
  1
%%c<>
 71
     2
 42
9.525000000000006
  3
SLDDIMSTYLE0
100
AcDbAlignedDimension
 13
-46.19750000000002
 23
4.763574928723905
 33
0.0
 14
-46.19750000000002
 24
-4.761425071276101
 34
0.0
 50
90.0000000000002
100
AcDbRotatedDimension
1001
ACAD
1000
DSTYLE
1002
{
1070
   171
1070
     6
1070
   273
1070
     7
1002
}
1001
ACAD_DSTYLE_DIMFLIPARROW_SYMBOL
1070
   385
1070
     0
1001
ACAD_DSTYLE_DIMFLIPARROW_WHICH_SYMBOL
1070
   386
1070
     3
  0
DIMENSION
  5
11E
330
1F
100
AcDbEntity
  8
치수문자_일반주서
100
AcDbDimension
  2
_D_2
 10
9.999999999999986
 20
26.06088205900095
 30
0.0
 11
32.22499999999999
 21
26.06088205900095
 31
0.0
 70
   160
  1
<>
 71
     2
 42
44.45
  3
SLDDIMSTYLE0
100
AcDbAlignedDimension
 13
54.44999999999998
 23
4.728820827405812
 33
0.0
 14
9.999999999999988
 24
4.763574928723902
 34
0.0
100
AcDbRotatedDimension
1001
PE_URL
1000

1001
ACAD
1000
DSTYLE
1002
{
1070
   171
1070
     6
1070
   273
1070
     7
1002
}
  0
DIMENSION
  5
132
330
1F
100
AcDbEntity
  8
치수문자_일반주서
100
AcDbDimension
  2
_D_3
 10
-47.15000000000001
 20
47.33044329059609
 30
0.0
 11
3.649999999999987
 21
47.33044329059609
 31
0.0
 70
   160
  1
<>
 71
     2
 42
101.6
  3
SLDDIMSTYLE0
100
AcDbAlignedDimension
 13
54.44999999999998
 23
4.728820827405812
 33
0.0
 14
-47.15000000000001
 24
3.811074928723905
 34
0.0
100
AcDbRotatedDimension
1001
PE_URL
1000

1001
ACAD
1000
DSTYLE
1002
{
1070
   171
1070
     6
1070
   273
1070
     7
1002
}
  0
LINE
  5
146
330
1F
100
AcDbEntity
  8
참조1
100
AcDbLine
 10
84.87598381534559
 20
7.441074928723896
 30
0.0
 11
84.87598381534559
 21
-7.438925071276109
 31
0.0
  0
LINE
  5
147
330
1F
100
AcDbEntity
  8
참조1
100
AcDbLine
 10
97.5759838153456
 20
5.441074928723896
 30
0.0
 11
84.87598381534559
 21
5.441074928723896
 31
0.0
  0
SOLID
  5
148
330
1F
100
AcDbEntity
  8
참조1
100
AcDbTrace
 10
84.87598381534559
 20
5.441074928723896
 30
0.0
 11
91.22598381534559
 21
4.425074928723896
 31
0.0
 12
91.22598381534559
 22
6.457074928723896
 32
0.0
 13
91.22598381534559
 23
6.457074928723896
 33
0.0
  0
LINE
  5
149
330
1F
100
AcDbEntity
  8
참조1
100
AcDbLine
 10
97.5759838153456
 20
-5.438925071276109
 30
0.0
 11
84.87598381534559
 21
-5.438925071276109
 31
0.0
  0
SOLID
  5
14A
330
1F
100
AcDbEntity
  8
참조1
100
AcDbTrace
 10
84.87598381534559
 20
-5.438925071276109
 30
0.0
 11
91.22598381534559
 21
-6.454925071276109
 31
0.0
 12
91.22598381534559
 22
-4.422925071276109
 32
0.0
 13
91.22598381534559
 23
-4.422925071276109
 33
0.0
  0
MTEXT
  5
14B
330
1F
100
AcDbEntity
  8
참조1
100
AcDbMText
 10
94.27347390781586
 20
10.98929157337383
 30
0.0
 40
3.5
 41
0.0
 71
     1
 72
     1
  1
A
  7
SLDTEXTSTYLE0
 73
     1
 44
1.0
  0
MTEXT
  5
14C
330
1F
100
AcDbEntity
  8
참조1
100
AcDbMText
 10
94.27347390781586
 20
0.1092915733738259
 30
0.0
 40
3.5
 41
0.0
 71
     1
 72
     1
  1
A
  7
SLDTEXTSTYLE0
 73
     1
 44
1.0
  0
INSERT
  5
153
330
1F
100
AcDbEntity
  8
해칭선
100
AcDbBlockReference
  2
SW_DOWELSYMBOL_0
 10
-0.0000000000000052
 20
0.0
 30
0.0
  0
ENDSEC
  0
SECTION
  2
OBJECTS
  0
DICTIONARY
  5
C
330
0
100
AcDbDictionary
281
     1
  3
ACAD_GROUP
350
D
  3
ACAD_LAYOUT
350
1A
  3
ACAD_MLINESTYLE
350
17
  3
ACAD_PLOTSETTINGS
350
19
  3
ACAD_PLOTSTYLENAME
350
E
  3
ACAD_SCALELIST
350
47
  3
APPDATA
350
175
  3
DWGPROPS
350
1A3
  0
DICTIONARY
  5
1A1
330
1F
100
AcDbDictionary
280
     1
281
     1
  3
DIM_BOUNDING_BOXES_V1
360
1A2
  0
DICTIONARY
  5
D
102
{ACAD_REACTORS
330
C
102
}
330
C
100
AcDbDictionary
281
     1
  0
DICTIONARY
  5
1A
102
{ACAD_REACTORS
330
C
102
}
330
C
100
AcDbDictionary
281
     1
  3
Layout1
350
1E
  3
Layout2
350
26
  3
Model
350
22
  0
DICTIONARY
  5
17
102
{ACAD_REACTORS
330
C
102
}
330
C
100
AcDbDictionary
281
     1
  3
Standard
350
18
  0
DICTIONARY
  5
19
102
{ACAD_REACTORS
330
C
102
}
330
C
100
AcDbDictionary
281
     1
  0
ACDBDICTIONARYWDFLT
  5
E
102
{ACAD_REACTORS
330
C
102
}
330
C
100
AcDbDictionary
281
     1
  3
Normal
350
F
100
AcDbDictionaryWithDefault
340
F
  0
DICTIONARY
  5
47
102
{ACAD_REACTORS
330
C
102
}
330
C
100
AcDbDictionary
281
     1
  3
A0
350
48
  3
A1
350
49
  3
A2
350
4A
  3
A3
350
4B
  3
A4
350
4C
  3
A5
350
4D
  3
A6
350
4E
  3
A7
350
4F
  3
A8
350
50
  3
A9
350
51
  3
B0
350
52
  3
B1
350
53
  3
B2
350
54
  3
B3
350
55
  3
B4
350
56
  3
B5
350
57
  3
B6
350
58
  3
B7
350
59
  3
B8
350
5A
  3
B9
350
5B
  3
C0
350
5C
  3
C1
350
5D
  3
C2
350
5E
  3
C3
350
5F
  3
C4
350
60
  3
C5
350
61
  3
C6
350
62
  3
C7
350
63
  3
C8
350
64
  3
C9
350
65
  3
D0
350
66
  3
D1
350
67
  3
D2
350
68
  0
DICTIONARY
  5
175
102
{ACAD_REACTORS
330
C
102
}
330
C
100
AcDbDictionary
281
     1
  0
XRECORD
  5
1A3
102
{ACAD_REACTORS
330
C
102
}
330
C
100
AcDbXrecord
280
     1
  1
DWGPROPS COOKIE
  2

  3

  4

  6

  7

  8
12017165
  9

300
=
301
=
302
=
303
=
304
=
305
=
306
=
307
=
308
=
309
=
 40
0.0
 41
2458292.27167816
 42
2459697.019025359
  1

 90
        0
  0
DICTIONARY
  5
1A2
102
{ACAD_REACTORS
330
1A1
102
}
330
1A1
100
AcDbDictionary
281
     1
  0
LAYOUT
  5
1E
102
{ACAD_REACTORS
330
1A
102
}
330
1A
100
AcDbPlotSettings
  1

  2
none_device
  4

  6

 40
0.0
 41
0.0
 42
0.0
 43
0.0
 44
0.0
 45
0.0
 46
0.0
 47
0.0
 48
0.0
 49
0.0
140
0.0
141
0.0
142
1.0
143
1.0
 70
   688
 72
     1
 73
     0
 74
     5
  7

 75
    16
147
1.0
148
0.0
149
0.0
100
AcDbLayout
  1
Layout1
 70
     1
 71
     1
 10
0.0
 20
0.0
 11
420.0
 21
297.0
 12
0.0
 22
0.0
 32
0.0
 14
1.000000000000000E+20
 24
1.000000000000000E+20
 34
1.000000000000000E+20
 15
-1.000000000000000E+20
 25
-1.000000000000000E+20
 35
-1.000000000000000E+20
146
0.0
 13
0.0
 23
0.0
 33
0.0
 16
1.0
 26
0.0
 36
0.0
 17
0.0
 27
1.0
 37
0.0
 76
     0
330
1B
  0
LAYOUT
  5
26
102
{ACAD_REACTORS
330
1A
102
}
330
1A
100
AcDbPlotSettings
  1

  2
none_device
  4

  6

 40
0.0
 41
0.0
 42
0.0
 43
0.0
 44
0.0
 45
0.0
 46
0.0
 47
0.0
 48
0.0
 49
0.0
140
0.0
141
0.0
142
1.0
143
1.0
 70
   688
 72
     1
 73
     0
 74
     5
  7

 75
    16
147
1.0
148
0.0
149
0.0
100
AcDbLayout
  1
Layout2
 70
     1
 71
     2
 10
0.0
 20
0.0
 11
0.0
 21
0.0
 12
0.0
 22
0.0
 32
0.0
 14
0.0
 24
0.0
 34
0.0
 15
0.0
 25
0.0
 35
0.0
146
0.0
 13
0.0
 23
0.0
 33
0.0
 16
1.0
 26
0.0
 36
0.0
 17
0.0
 27
1.0
 37
0.0
 76
     0
330
23
  0
LAYOUT
  5
22
102
{ACAD_REACTORS
330
1A
102
}
330
1A
100
AcDbPlotSettings
  1

  2
none_device
  4
ANSI_A_(11.00_x_8.50_Inches)
  6

 40
6.35
 41
19.05
 42
6.35000508
 43
19.05000254
 44
279.4
 45
215.9
 46
111.0084882656882
 47
82.92523798006536
 48
0.0
 49
0.0
140
0.0
141
0.0
142
0.0635007828719443
143
1.0
 70
  1696
 72
     0
 73
     0
 74
     0
  7

 75
     0
147
0.0235690232323232
148
0.0
149
0.0
100
AcDbLayout
  1
Model
 70
     1
 71
     0
 10
0.0
 20
0.0
 11
420.0
 21
297.0
 12
0.0
 22
0.0
 32
0.0
 14
-65.47750000000008
 24
-49.97073246008785
 34
0.0
 15
97.5759838153456
 25
51.70544329059609
 35
0.0
146
0.0
 13
0.0
 23
0.0
 33
0.0
 16
1.0
 26
0.0
 36
0.0
 17
0.0
 27
1.0
 37
0.0
 76
     0
330
1F
331
29
  0
MLINESTYLE
  5
18
102
{ACAD_REACTORS
330
17
102
}
330
17
100
AcDbMlineStyle
  2
Standard
 70
     0
  3

 62
   256
 51
90.0
 52
90.0
 71
     2
 49
0.5
 62
   256
  6
BYLAYER
 49
-0.5
 62
   256
  6
BYLAYER
  0
ACDBPLACEHOLDER
  5
F
102
{ACAD_REACTORS
330
E
102
}
330
E
  0
SCALE
  5
48
102
{ACAD_REACTORS
330
47
102
}
330
47
100
AcDbScale
 70
     0
300
1:1
140
1.0
141
1.0
290
     1
  0
SCALE
  5
49
102
{ACAD_REACTORS
330
47
102
}
330
47
100
AcDbScale
 70
     0
300
1:2
140
1.0
141
2.0
290
     0
  0
SCALE
  5
4A
102
{ACAD_REACTORS
330
47
102
}
330
47
100
AcDbScale
 70
     0
300
1:4
140
1.0
141
4.0
290
     0
  0
SCALE
  5
4B
102
{ACAD_REACTORS
330
47
102
}
330
47
100
AcDbScale
 70
     0
300
1:5
140
1.0
141
5.0
290
     0
  0
SCALE
  5
4C
102
{ACAD_REACTORS
330
47
102
}
330
47
100
AcDbScale
 70
     0
300
1:8
140
1.0
141
8.0
290
     0
  0
SCALE
  5
4D
102
{ACAD_REACTORS
330
47
102
}
330
47
100
AcDbScale
 70
     0
300
1:10
140
1.0
141
10.0
290
     0
  0
SCALE
  5
4E
102
{ACAD_REACTORS
330
47
102
}
330
47
100
AcDbScale
 70
     0
300
1:16
140
1.0
141
16.0
290
     0
  0
SCALE
  5
4F
102
{ACAD_REACTORS
330
47
102
}
330
47
100
AcDbScale
 70
     0
300
1:20
140
1.0
141
20.0
290
     0
  0
SCALE
  5
50
102
{ACAD_REACTORS
330
47
102
}
330
47
100
AcDbScale
 70
     0
300
1:30
140
1.0
141
30.0
290
     0
  0
SCALE
  5
51
102
{ACAD_REACTORS
330
47
102
}
330
47
100
AcDbScale
 70
     0
300
1:40
140
1.0
141
40.0
290
     0
  0
SCALE
  5
52
102
{ACAD_REACTORS
330
47
102
}
330
47
100
AcDbScale
 70
     0
300
1:50
140
1.0
141
50.0
290
     0
  0
SCALE
  5
53
102
{ACAD_REACTORS
330
47
102
}
330
47
100
AcDbScale
 70
     0
300
1:100
140
1.0
141
100.0
290
     0
  0
SCALE
  5
54
102
{ACAD_REACTORS
330
47
102
}
330
47
100
AcDbScale
 70
     0
300
2:1
140
2.0
141
1.0
290
     0
  0
SCALE
  5
55
102
{ACAD_REACTORS
330
47
102
}
330
47
100
AcDbScale
 70
     0
300
4:1
140
4.0
141
1.0
290
     0
  0
SCALE
  5
56
102
{ACAD_REACTORS
330
47
102
}
330
47
100
AcDbScale
 70
     0
300
8:1
140
8.0
141
1.0
290
     0
  0
SCALE
  5
57
102
{ACAD_REACTORS
330
47
102
}
330
47
100
AcDbScale
 70
     0
300
10:1
140
10.0
141
1.0
290
     0
  0
SCALE
  5
58
102
{ACAD_REACTORS
330
47
102
}
330
47
100
AcDbScale
 70
     0
300
100:1
140
100.0
141
1.0
290
     0
  0
SCALE
  5
59
102
{ACAD_REACTORS
330
47
102
}
330
47
100
AcDbScale
 70
     0
300
1/128" = 1'-0"
140
0.0078125
141
12.0
290
     0
  0
SCALE
  5
5A
102
{ACAD_REACTORS
330
47
102
}
330
47
100
AcDbScale
 70
     0
300
1/64" = 1'-0"
140
0.015625
141
12.0
290
     0
  0
SCALE
  5
5B
102
{ACAD_REACTORS
330
47
102
}
330
47
100
AcDbScale
 70
     0
300
1/32" = 1'-0"
140
0.03125
141
12.0
290
     0
  0
SCALE
  5
5C
102
{ACAD_REACTORS
330
47
102
}
330
47
100
AcDbScale
 70
     0
300
1/16" = 1'-0"
140
0.0625
141
12.0
290
     0
  0
SCALE
  5
5D
102
{ACAD_REACTORS
330
47
102
}
330
47
100
AcDbScale
 70
     0
300
3/32" = 1'-0"
140
0.09375
141
12.0
290
     0
  0
SCALE
  5
5E
102
{ACAD_REACTORS
330
47
102
}
330
47
100
AcDbScale
 70
     0
300
1/8" = 1'-0"
140
0.125
141
12.0
290
     0
  0
SCALE
  5
5F
102
{ACAD_REACTORS
330
47
102
}
330
47
100
AcDbScale
 70
     0
300
3/16" = 1'-0"
140
0.1875
141
12.0
290
     0
  0
SCALE
  5
60
102
{ACAD_REACTORS
330
47
102
}
330
47
100
AcDbScale
 70
     0
300
1/4" = 1'-0"
140
0.25
141
12.0
290
     0
  0
SCALE
  5
61
102
{ACAD_REACTORS
330
47
102
}
330
47
100
AcDbScale
 70
     0
300
3/8" = 1'-0"
140
0.375
141
12.0
290
     0
  0
SCALE
  5
62
102
{ACAD_REACTORS
330
47
102
}
330
47
100
AcDbScale
 70
     0
300
1/2" = 1'-0"
140
0.5
141
12.0
290
     0
  0
SCALE
  5
63
102
{ACAD_REACTORS
330
47
102
}
330
47
100
AcDbScale
 70
     0
300
3/4" = 1'-0"
140
0.75
141
12.0
290
     0
  0
SCALE
  5
64
102
{ACAD_REACTORS
330
47
102
}
330
47
100
AcDbScale
 70
     0
300
1" = 1'-0"
140
1.0
141
12.0
290
     0
  0
SCALE
  5
65
102
{ACAD_REACTORS
330
47
102
}
330
47
100
AcDbScale
 70
     0
300
1-1/2" = 1'-0"
140
1.5
141
12.0
290
     0
  0
SCALE
  5
66
102
{ACAD_REACTORS
330
47
102
}
330
47
100
AcDbScale
 70
     0
300
3" = 1'-0"
140
3.0
141
12.0
290
     0
  0
SCALE
  5
67
102
{ACAD_REACTORS
330
47
102
}
330
47
100
AcDbScale
 70
     0
300
6" = 1'-0"
140
6.0
141
12.0
290
     0
  0
SCALE
  5
68
102
{ACAD_REACTORS
330
47
102
}
330
47
100
AcDbScale
 70
     0
300
1'-0" = 1'-0"
140
12.0
141
12.0
290
     0
  0
ENDSEC
  0
EOF
