  0
SECTION
  2
HEADER
  9
$ACADVER
  1
AC1015
  9
$ACADMAINTVER
 70
     6
  9
$DWGCODEPAGE
  3
ANSI_949
  9
$INSBASE
 10
0.0
 20
0.0
 30
0.0
  9
$EXTMIN
 10
-63.57250000000008
 20
-49.97073246008785
 30
0.0
  9
$EXTMAX
 10
99.16348381534559
 20
53.28135859015672
 30
0.0
  9
$LIMMIN
 10
0.0
 20
0.0
  9
$LIMMAX
 10
420.0
 20
297.0
  9
$ORTHOMODE
 70
     0
  9
$REGENMODE
 70
     1
  9
$FILLMODE
 70
     1
  9
$QTEXTMODE
 70
     0
  9
$MIRRTEXT
 70
     1
  9
$LTSCALE
 40
1.0
  9
$ATTMODE
 70
     1
  9
$TEXTSIZE
 40
3.5
  9
$TRACEWID
 40
1.0
  9
$TEXTSTYLE
  7
Standard
  9
$CLAYER
  8
0
  9
$CELTYPE
  6
ByLayer
  9
$CECOLOR
 62
   256
  9
$CELTSCALE
 40
1.0
  9
$DISPSILH
 70
     0
  9
$DIMSCALE
 40
1.0
  9
$DIMASZ
 40
3.302
  9
$DIMEXO
 40
1.0
  9
$DIMDLI
 40
3.75
  9
$DIMRND
 40
0.0
  9
$DIMDLE
 40
0.0
  9
$DIMEXE
 40
1.0
  9
$DIMTP
 40
0.0
  9
$DIMTM
 40
0.0
  9
$DIMTXT
 40
3.5
  9
$DIMCEN
 40
2.5
  9
$DIMTSZ
 40
0.0
  9
$DIMTOL
 70
     0
  9
$DIMLIM
 70
     0
  9
$DIMTIH
 70
     1
  9
$DIMTOH
 70
     1
  9
$DIMSE1
 70
     0
  9
$DIMSE2
 70
     0
  9
$DIMTAD
 70
     1
  9
$DIMZIN
 70
     0
  9
$DIMBLK
  1

  9
$DIMASO
 70
     1
  9
$DIMSHO
 70
     1
  9
$DIMPOST
  1

  9
$DIMAPOST
  1

  9
$DIMALT
 70
     0
  9
$DIMALTD
 70
     3
  9
$DIMALTF
 40
0.0393700787401575
  9
$DIMLFAC
 40
1.0
  9
$DIMTOFL
 70
     1
  9
$DIMTVP
 40
0.0
  9
$DIMTIX
 70
     0
  9
$DIMSOXD
 70
     0
  9
$DIMSAH
 70
     0
  9
$DIMBLK1
  1

  9
$DIMBLK2
  1

  9
$DIMSTYLE
  2
ISO-25
  9
$DIMCLRD
 70
     0
  9
$DIMCLRE
 70
     0
  9
$DIMCLRT
 70
     0
  9
$DIMTFAC
 40
1.0
  9
$DIMGAP
 40
1.524
  9
$DIMJUST
 70
     0
  9
$DIMSD1
 70
     0
  9
$DIMSD2
 70
     0
  9
$DIMTOLJ
 70
     0
  9
$DIMTZIN
 70
     0
  9
$DIMALTZ
 70
     0
  9
$DIMALTTZ
 70
     0
  9
$DIMUPT
 70
     0
  9
$DIMDEC
 70
     2
  9
$DIMTDEC
 70
     2
  9
$DIMALTU
 70
     2
  9
$DIMALTTD
 70
     3
  9
$DIMTXSTY
  7
Standard
  9
$DIMAUNIT
 70
     0
  9
$DIMADEC
 70
     2
  9
$DIMALTRND
 40
0.0
  9
$DIMAZIN
 70
     0
  9
$DIMDSEP
 70
    44
  9
$DIMATFIT
 70
     3
  9
$DIMFRAC
 70
     0
  9
$DIMLDRBLK
  1

  9
$DIMLUNIT
 70
     2
  9
$DIMLWD
 70
    -2
  9
$DIMLWE
 70
    -2
  9
$DIMTMOVE
 70
     0
  9
$LUNITS
 70
     2
  9
$LUPREC
 70
     2
  9
$SKETCHINC
 40
1.0
  9
$FILLETRAD
 40
10.0
  9
$AUNITS
 70
     0
  9
$AUPREC
 70
     2
  9
$MENU
  1
.
  9
$ELEVATION
 40
0.0
  9
$PELEVATION
 40
0.0
  9
$THICKNESS
 40
0.0
  9
$LIMCHECK
 70
     0
  9
$CHAMFERA
 40
0.0
  9
$CHAMFERB
 40
0.0
  9
$CHAMFERC
 40
0.0
  9
$CHAMFERD
 40
0.0
  9
$SKPOLY
 70
     0
  9
$TDCREATE
 40
2458292.646866667
  9
$TDUCREATE
 40
2458292.271866667
  9
$TDUPDATE
 40
2459697.394325972
  9
$TDUUPDATE
 40
2459697.019325972
  9
$TDINDWG
 40
0.0012383912
  9
$TDUSRTIMER
 40
0.0002980671
  9
$USRTIMER
 70
     1
  9
$ANGBASE
 50
0.0
  9
$ANGDIR
 70
     0
  9
$PDMODE
 70
     0
  9
$PDSIZE
 40
-1.0
  9
$PLINEWID
 40
0.0
  9
$SPLFRAME
 70
     0
  9
$SPLINETYPE
 70
     6
  9
$SPLINESEGS
 70
     8
  9
$HANDSEED
  5
1A0
  9
$SURFTAB1
 70
     6
  9
$SURFTAB2
 70
     6
  9
$SURFTYPE
 70
     6
  9
$SURFU
 70
     6
  9
$SURFV
 70
     6
  9
$UCSBASE
  2

  9
$UCSNAME
  2

  9
$UCSORG
 10
0.0
 20
0.0
 30
0.0
  9
$UCSXDIR
 10
1.0
 20
0.0
 30
0.0
  9
$UCSYDIR
 10
0.0
 20
1.0
 30
0.0
  9
$UCSORTHOREF
  2

  9
$UCSORTHOVIEW
 70
     0
  9
$UCSORGTOP
 10
0.0
 20
0.0
 30
0.0
  9
$UCSORGBOTTOM
 10
0.0
 20
0.0
 30
0.0
  9
$UCSORGLEFT
 10
0.0
 20
0.0
 30
0.0
  9
$UCSORGRIGHT
 10
0.0
 20
0.0
 30
0.0
  9
$UCSORGFRONT
 10
0.0
 20
0.0
 30
0.0
  9
$UCSORGBACK
 10
0.0
 20
0.0
 30
0.0
  9
$PUCSBASE
  2

  9
$PUCSNAME
  2

  9
$PUCSORG
 10
0.0
 20
0.0
 30
0.0
  9
$PUCSXDIR
 10
1.0
 20
0.0
 30
0.0
  9
$PUCSYDIR
 10
0.0
 20
1.0
 30
0.0
  9
$PUCSORTHOREF
  2

  9
$PUCSORTHOVIEW
 70
     0
  9
$PUCSORGTOP
 10
0.0
 20
0.0
 30
0.0
  9
$PUCSORGBOTTOM
 10
0.0
 20
0.0
 30
0.0
  9
$PUCSORGLEFT
 10
0.0
 20
0.0
 30
0.0
  9
$PUCSORGRIGHT
 10
0.0
 20
0.0
 30
0.0
  9
$PUCSORGFRONT
 10
0.0
 20
0.0
 30
0.0
  9
$PUCSORGBACK
 10
0.0
 20
0.0
 30
0.0
  9
$USERI1
 70
     0
  9
$USERI2
 70
     0
  9
$USERI3
 70
     0
  9
$USERI4
 70
     0
  9
$USERI5
 70
     0
  9
$USERR1
 40
0.0
  9
$USERR2
 40
0.0
  9
$USERR3
 40
0.0
  9
$USERR4
 40
0.0
  9
$USERR5
 40
0.0
  9
$WORLDVIEW
 70
     1
  9
$SHADEDGE
 70
     3
  9
$SHADEDIF
 70
    70
  9
$TILEMODE
 70
     1
  9
$MAXACTVP
 70
    64
  9
$PINSBASE
 10
0.0
 20
0.0
 30
0.0
  9
$PLIMCHECK
 70
     0
  9
$PEXTMIN
 10
1.000000000000000E+20
 20
1.000000000000000E+20
 30
1.000000000000000E+20
  9
$PEXTMAX
 10
-1.000000000000000E+20
 20
-1.000000000000000E+20
 30
-1.000000000000000E+20
  9
$PLIMMIN
 10
0.0
 20
0.0
  9
$PLIMMAX
 10
0.0
 20
0.0
  9
$UNITMODE
 70
     0
  9
$VISRETAIN
 70
     1
  9
$PLINEGEN
 70
     0
  9
$PSLTSCALE
 70
     1
  9
$TREEDEPTH
 70
  3020
  9
$CMLSTYLE
  2
Standard
  9
$CMLJUST
 70
     0
  9
$CMLSCALE
 40
20.0
  9
$PROXYGRAPHICS
 70
     1
  9
$MEASUREMENT
 70
     1
  9
$CELWEIGHT
370
    -1
  9
$ENDCAPS
280
     0
  9
$JOINSTYLE
280
     0
  9
$LWDISPLAY
290
     1
  9
$INSUNITS
 70
     4
  9
$HYPERLINKBASE
  1

  9
$STYLESHEET
  1

  9
$XEDIT
290
     1
  9
$CEPSNTYPE
380
     0
  9
$PSTYLEMODE
290
     1
  9
$FINGERPRINTGUID
  2
{92AA977F-829C-44EB-9A8B-127B18F318C8}
  9
$VERSIONGUID
  2
{FAEB1C32-E019-11D5-929B-00C0DF256EC4}
  9
$EXTNAMES
290
     1
  9
$PSVPSCALE
 40
0.0
  9
$OLESTARTUP
290
     0
  0
ENDSEC
  0
SECTION
  2
CLASSES
  0
CLASS
  1
ACDBDICTIONARYWDFLT
  2
AcDbDictionaryWithDefault
  3
ObjectDBX Classes
 90
        0
280
     0
281
     0
  0
CLASS
  1
VISUALSTYLE
  2
AcDbVisualStyle
  3
ObjectDBX Classes
 90
     4095
280
     0
281
     0
  0
CLASS
  1
MATERIAL
  2
AcDbMaterial
  3
ObjectDBX Classes
 90
     1153
280
     0
281
     0
  0
CLASS
  1
SCALE
  2
AcDbScale
  3
ObjectDBX Classes
 90
     1153
280
     0
281
     0
  0
CLASS
  1
SUN
  2
AcDbSun
  3
SCENEOE
 90
     1153
280
     0
281
     0
  0
CLASS
  1
ACDBPLACEHOLDER
  2
AcDbPlaceHolder
  3
ObjectDBX Classes
 90
        0
280
     0
281
     0
  0
CLASS
  1
LAYOUT
  2
AcDbLayout
  3
ObjectDBX Classes
 90
        0
280
     0
281
     0
  0
CLASS
  1
TABLESTYLE
  2
AcDbTableStyle
  3
ObjectDBX Classes
 90
     4095
280
     0
281
     0
  0
CLASS
  1
MLEADERSTYLE
  2
AcDbMLeaderStyle
  3
ACDB_MLEADERSTYLE_CLASS
 90
     4095
280
     0
281
     0
  0
ENDSEC
  0
SECTION
  2
TABLES
  0
TABLE
  2
VPORT
  5
8
330
0
100
AcDbSymbolTable
 70
     1
  0
VPORT
  5
29
330
8
100
AcDbSymbolTableRecord
100
AcDbViewportTableRecord
  2
*Active
 70
     0
 10
0.0
 20
0.0
 11
1.0
 21
1.0
 12
17.79549190767275
 22
1.655313065034441
 13
0.0
 23
0.0
 14
10.0
 24
10.0
 15
10.0
 25
10.0
 16
0.0
 26
0.0
 36
1.0
 17
0.0
 27
0.0
 37
0.0
 40
105.3171328712495
 41
2.008253094910592
 42
50.0
 43
0.0
 44
0.0
 50
0.0
 51
0.0
 71
    16
 72
  2000
 73
     1
 74
     3
 75
     0
 76
     0
 77
     0
 78
     0
281
     0
 65
     1
110
0.0
120
0.0
130
0.0
111
1.0
121
0.0
131
0.0
112
0.0
122
1.0
132
0.0
 79
     0
146
0.0
  0
ENDTAB
  0
TABLE
  2
LTYPE
  5
5
330
0
100
AcDbSymbolTable
 70
     6
  0
LTYPE
  5
14
330
5
100
AcDbSymbolTableRecord
100
AcDbLinetypeTableRecord
  2
ByBlock
 70
     0
  3

 72
    65
 73
     0
 40
0.0
  0
LTYPE
  5
15
330
5
100
AcDbSymbolTableRecord
100
AcDbLinetypeTableRecord
  2
ByLayer
 70
     0
  3

 72
    65
 73
     0
 40
0.0
  0
LTYPE
  5
16
330
5
100
AcDbSymbolTableRecord
100
AcDbLinetypeTableRecord
  2
Continuous
 70
     0
  3
Solid line
 72
    65
 73
     0
 40
0.0
  0
LTYPE
  5
6A
330
5
100
AcDbSymbolTableRecord
100
AcDbLinetypeTableRecord
  2
HIDDEN
 70
     0
  3
Hidden __ __ __ __ __ __ __ __ __ __ __ __ __ __
 72
    65
 73
     2
 40
1.905
 49
1.27
 74
     0
 49
-0.635
 74
     0
  0
LTYPE
  5
6B
330
5
100
AcDbSymbolTableRecord
100
AcDbLinetypeTableRecord
  2
PHANTOM
 70
     0
  3
Phantom ______  __  __  ______  __  __  ______
 72
    65
 73
     6
 40
12.7
 49
6.35
 74
     0
 49
-1.27
 74
     0
 49
1.27
 74
     0
 49
-1.27
 74
     0
 49
1.27
 74
     0
 49
-1.27
 74
     0
  0
LTYPE
  5
6C
330
5
100
AcDbSymbolTableRecord
100
AcDbLinetypeTableRecord
  2
CENTER
 70
     0
  3
Center ____ _ ____ _ ____ _ ____ _ ____ _ ____
 72
    65
 73
     4
 40
10.16
 49
6.35
 74
     0
 49
-1.27
 74
     0
 49
1.27
 74
     0
 49
-1.27
 74
     0
  0
LTYPE
  5
6D
330
5
100
AcDbSymbolTableRecord
100
AcDbLinetypeTableRecord
  2
CENTERX2
 70
     0
  3
Center (2x) ________  __  ________  __  _____
 72
    65
 73
     4
 40
20.32
 49
12.7
 74
     0
 49
-2.54
 74
     0
 49
2.54
 74
     0
 49
-2.54
 74
     0
  0
LTYPE
  5
6E
330
5
100
AcDbSymbolTableRecord
100
AcDbLinetypeTableRecord
  2
DOT2
 70
     0
  3
Dot (.5x) ........................................
 72
    65
 73
     2
 40
0.635
 49
0.0
 74
     0
 49
-0.635
 74
     0
  0
ENDTAB
  0
TABLE
  2
LAYER
  5
2
330
0
100
AcDbSymbolTable
 70
    18
  0
LAYER
  5
10
330
2
100
AcDbSymbolTableRecord
100
AcDbLayerTableRecord
  2
0
 70
     0
 62
     7
  6
Continuous
370
    -3
390
F
  0
LAYER
  5
6F
330
2
100
AcDbSymbolTableRecord
100
AcDbLayerTableRecord
  2
FORMAT
 70
     0
 62
     2
  6
Continuous
370
    -3
390
F
  0
LAYER
  5
70
330
2
100
AcDbSymbolTableRecord
100
AcDbLayerTableRecord
  2
외형선
 70
     0
 62
     4
  6
Continuous
370
    30
390
F
  0
LAYER
  5
71
330
2
100
AcDbSymbolTableRecord
100
AcDbLayerTableRecord
  2
숨은선
 70
     0
 62
     2
  6
HIDDEN
370
    15
390
F
  0
LAYER
  5
72
330
2
100
AcDbSymbolTableRecord
100
AcDbLayerTableRecord
  2
중심선
 70
     0
 62
     1
  6
CENTERX2
370
    -3
390
F
  0
LAYER
  5
73
330
2
100
AcDbSymbolTableRecord
100
AcDbLayerTableRecord
  2
파단선
 70
     0
 62
     4
  6
Continuous
370
    -3
390
F
  0
LAYER
  5
74
330
2
100
AcDbSymbolTableRecord
100
AcDbLayerTableRecord
  2
해칭선
 70
     0
 62
   100
  6
Continuous
370
    -3
390
F
  0
LAYER
  5
75
330
2
100
AcDbSymbolTableRecord
100
AcDbLayerTableRecord
  2
가는실선
 70
     0
 62
     4
  6
Continuous
370
    -3
390
F
  0
LAYER
  5
76
330
2
100
AcDbSymbolTableRecord
100
AcDbLayerTableRecord
  2
치수_보조선
 70
     0
 62
     4
  6
Continuous
370
    -3
390
F
  0
LAYER
  5
77
330
2
100
AcDbSymbolTableRecord
100
AcDbLayerTableRecord
  2
치수문자_일반주서
 70
     0
 62
     7
  6
Continuous
370
    15
390
F
  0
LAYER
  5
78
330
2
100
AcDbSymbolTableRecord
100
AcDbLayerTableRecord
  2
개별주서
 70
     0
 62
   100
  6
Continuous
370
    30
390
F
  0
LAYER
  5
79
330
2
100
AcDbSymbolTableRecord
100
AcDbLayerTableRecord
  2
중간선
 70
     0
 62
     2
  6
Continuous
370
    15
390
F
  0
LAYER
  5
7A
330
2
100
AcDbSymbolTableRecord
100
AcDbLayerTableRecord
  2
윤곽선
 70
     0
 62
     3
  6
Continuous
370
    40
390
F
  0
LAYER
  5
7B
330
2
100
AcDbSymbolTableRecord
100
AcDbLayerTableRecord
  2
중심마크
 70
     0
 62
   100
  6
Continuous
370
    30
390
F
  0
LAYER
  5
7C
330
2
100
AcDbSymbolTableRecord
100
AcDbLayerTableRecord
  2
가상선
 70
     0
 62
     4
  6
PHANTOM
370
    -3
390
F
  0
LAYER
  5
7D
330
2
100
AcDbSymbolTableRecord
100
AcDbLayerTableRecord
  2
특수지정선
 70
     0
 62
     5
  6
CENTERX2
370
    60
390
F
  0
LAYER
  5
7E
330
2
100
AcDbSymbolTableRecord
100
AcDbLayerTableRecord
  2
참조1
 70
     0
 62
    -4
  6
Continuous
370
    -3
390
F
  0
LAYER
  5
173
330
2
100
AcDbSymbolTableRecord
100
AcDbLayerTableRecord
  2
Defpoints
 70
     0
 62
     7
  6
Continuous
290
     0
370
    -3
390
F
  0
ENDTAB
  0
TABLE
  2
STYLE
  5
3
330
0
100
AcDbSymbolTable
 70
     2
  0
STYLE
  5
11
330
3
100
AcDbSymbolTableRecord
100
AcDbTextStyleTableRecord
  2
Standard
 70
     0
 40
0.0
 41
1.0
 50
0.0
 71
     0
 42
3.5
  3
txt
  4

  0
STYLE
  5
94
330
3
100
AcDbSymbolTableRecord
100
AcDbTextStyleTableRecord
  2
SLDTEXTSTYLE0
 70
     0
 40
0.0
 41
0.75
 50
0.0
 71
     0
 42
3.5
  3
TXT
  4

  0
ENDTAB
  0
TABLE
  2
VIEW
  5
6
330
0
100
AcDbSymbolTable
 70
     0
  0
ENDTAB
  0
TABLE
  2
UCS
  5
7
330
0
100
AcDbSymbolTable
 70
     0
  0
ENDTAB
  0
TABLE
  2
APPID
  5
9
330
0
100
AcDbSymbolTable
 70
     4
  0
APPID
  5
12
330
9
100
AcDbSymbolTableRecord
100
AcDbRegAppTableRecord
  2
ACAD
 70
     0
  0
APPID
  5
176
330
9
100
AcDbSymbolTableRecord
100
AcDbRegAppTableRecord
  2
PE_URL
 70
     0
  0
APPID
  5
17A
330
9
100
AcDbSymbolTableRecord
100
AcDbRegAppTableRecord
  2
ACAD_DSTYLE_DIMFLIPARROW_SYMBOL
 70
     0
  0
APPID
  5
17B
330
9
100
AcDbSymbolTableRecord
100
AcDbRegAppTableRecord
  2
ACAD_DSTYLE_DIMFLIPARROW_WHICH_SYMBOL
 70
     0
  0
ENDTAB
  0
TABLE
  2
DIMSTYLE
  5
A
330
0
100
AcDbSymbolTable
 70
     4
100
AcDbDimStyleTable
  0
DIMSTYLE
105
27
330
A
100
AcDbSymbolTableRecord
100
AcDbDimStyleTableRecord
  2
ISO-25
 70
     0
 41
2.5
 42
0.625
 43
3.75
 44
1.25
 73
     0
 74
     0
 77
     1
 78
     8
140
2.5
141
2.5
143
0.03937007874016
147
0.625
171
     3
172
     1
178
     0
271
     2
272
     2
274
     3
278
    44
283
     0
284
     8
340
11
  0
DIMSTYLE
105
F3
330
A
100
AcDbSymbolTableRecord
100
AcDbDimStyleTableRecord
  2
SLDDIMSTYLE0
 70
     0
 41
3.302
 44
0.0
 45
0.000000001
 73
     0
 74
     0
 77
     1
 78
    12
 79
     3
140
3.5
143
0.0393700787401575
147
0.875
148
0.000000001
170
     1
172
     1
173
     1
178
     0
271
     2
272
     2
276
     2
284
    12
289
     0
340
94
  0
DIMSTYLE
105
108
102
{ACAD_REACTORS
330
107
330
11C
330
130
330
F2
102
}
330
A
100
AcDbSymbolTableRecord
100
AcDbDimStyleTableRecord
  2
SLDDIMSTYLE1
 70
     0
 41
3.302
 44
0.0
 45
0.000000001
 73
     0
 74
     0
 77
     1
 78
     4
 79
     1
140
3.5
143
0.0393700787401575
147
0.875
148
0.000000001
170
     1
172
     1
173
     1
178
     0
271
     2
272
     2
276
     2
284
    12
289
     0
340
94
  0
DIMSTYLE
105
11D
330
A
100
AcDbSymbolTableRecord
100
AcDbDimStyleTableRecord
  2
SLDDIMSTYLE2
 70
     0
 41
3.302
 44
0.0
 45
0.000000001
 73
     0
 74
     0
 77
     1
 78
    12
 79
     3
140
3.5
143
0.0393700787401575
147
0.875
148
0.000000001
170
     1
173
     1
178
     0
271
     2
272
     2
276
     2
284
    12
340
94
  0
ENDTAB
  0
TABLE
  2
BLOCK_RECORD
  5
1
330
0
100
AcDbSymbolTable
 70
     7
  0
BLOCK_RECORD
  5
1F
102
{ACAD_XDICTIONARY
360
19D
102
}
330
1
100
AcDbSymbolTableRecord
100
AcDbBlockTableRecord
  2
*Model_Space
340
22
  0
BLOCK_RECORD
  5
1B
330
1
100
AcDbSymbolTableRecord
100
AcDbBlockTableRecord
  2
*Paper_Space
340
1E
  0
BLOCK_RECORD
  5
23
330
1
100
AcDbSymbolTableRecord
100
AcDbBlockTableRecord
  2
*Paper_Space0
340
26
  0
BLOCK_RECORD
  5
7F
330
1
100
AcDbSymbolTableRecord
100
AcDbBlockTableRecord
  2
블럭10
340
0
102
{BLKREFS
331
EB
102
}
  0
BLOCK_RECORD
  5
F4
330
1
100
AcDbSymbolTableRecord
100
AcDbBlockTableRecord
  2
_D
340
0
  0
BLOCK_RECORD
  5
109
330
1
100
AcDbSymbolTableRecord
100
AcDbBlockTableRecord
  2
_D_1
340
0
  0
BLOCK_RECORD
  5
11E
330
1
100
AcDbSymbolTableRecord
100
AcDbBlockTableRecord
  2
_D_2
340
0
  0
BLOCK_RECORD
  5
131
330
1
100
AcDbSymbolTableRecord
100
AcDbBlockTableRecord
  2
_D_3
340
0
  0
BLOCK_RECORD
  5
14A
330
1
100
AcDbSymbolTableRecord
100
AcDbBlockTableRecord
  2
SW_DOWELSYMBOL_0
340
0
102
{BLKREFS
331
150
102
}
  0
ENDTAB
  0
ENDSEC
  0
SECTION
  2
BLOCKS
  0
BLOCK
  5
20
330
1F
100
AcDbEntity
  8
0
100
AcDbBlockBegin
  2
*Model_Space
 70
     0
 10
0.0
 20
0.0
 30
0.0
  3
*Model_Space
  1

  0
ENDBLK
  5
21
330
1F
100
AcDbEntity
  8
0
100
AcDbBlockEnd
  0
BLOCK
  5
1C
330
1B
100
AcDbEntity
 67
     1
  8
0
100
AcDbBlockBegin
  2
*Paper_Space
 70
     0
 10
0.0
 20
0.0
 30
0.0
  3
*Paper_Space
  1

  0
ENDBLK
  5
1D
330
1B
100
AcDbEntity
 67
     1
  8
0
100
AcDbBlockEnd
  0
BLOCK
  5
24
330
23
100
AcDbEntity
  8
0
100
AcDbBlockBegin
  2
*Paper_Space0
 70
     0
 10
0.0
 20
0.0
 30
0.0
  3
*Paper_Space0
  1

  0
ENDBLK
  5
25
330
23
100
AcDbEntity
  8
0
100
AcDbBlockEnd
  0
BLOCK
  5
80
330
7F
100
AcDbEntity
  8
0
100
AcDbBlockBegin
  2
블럭10
 70
     2
 10
0.0
 20
0.0
 30
0.0
  3
블럭10
  1

  0
ELLIPSE
  5
82
330
7F
100
AcDbEntity
  8
중심선
100
AcDbEllipse
 10
20.54032771741204
 20
12.0471743016438
 30
0.0
 11
6.600054785286829
 21
-1.261213355974178E-13
 31
0.0
210
0.0
220
0.0
230
1.0
 40
0.636358354079598
 41
0.9219305317359503
 42
6.513795318482858
  0
ELLIPSE
  5
83
330
7F
100
AcDbEntity
  8
중심선
100
AcDbEllipse
 10
20.54032771746488
 20
12.04717430159265
 30
0.0
 11
3.960054785062283
 21
1.540847449632565E-10
 31
0.0
210
0.0
220
0.0
230
1.0
 40
0.3939339440162632
 41
1.131841032648279
 42
5.62031148352944
  0
LINE
  5
84
330
7F
100
AcDbEntity
  8
중심선
100
AcDbLine
 10
2.268634060543552
 20
16.24717430164393
 30
0.0
 11
5.714909304380834
 21
16.24717430164393
 31
0.0
  0
LINE
  5
85
330
7F
100
AcDbEntity
  8
중심선
100
AcDbLine
 10
5.245725140726316
 20
7.84717430164391
 30
0.0
 11
8.692000384563599
 21
7.84717430164391
 31
0.0
  0
LINE
  5
86
330
7F
100
AcDbEntity
  8
중심선
100
AcDbLine
 10
15.74043728645272
 20
16.24717430164393
 30
0.0
 11
8.692000384563599
 21
7.84717430164391
 31
0.0
  0
LINE
  5
87
330
7F
100
AcDbEntity
  8
중심선
100
AcDbLine
 10
0.1404042013395286
 20
13.71084872107135
 30
0.0
 11
3.58671253028996
 21
13.71088815037384
 31
0.0
  0
LINE
  5
88
330
7F
100
AcDbEntity
  8
중심선
100
AcDbLine
 10
2.750260043222114
 20
10.84717430164391
 30
0.0
 11
6.196535287059397
 21
10.84717430164391
 31
0.0
  0
LINE
  5
89
330
7F
100
AcDbEntity
  8
중심선
100
AcDbLine
 10
12.29416204261559
 20
16.24717430164393
 30
0.0
 11
5.245725140726316
 21
7.84717430164391
 31
0.0
  0
LINE
  5
8A
330
7F
100
AcDbEntity
  8
중심선
100
AcDbLine
 10
10.72767329541681
 20
16.24717430164393
 30
0.0
 11
6.196535287059397
 21
10.84717430164391
 31
0.0
  0
LINE
  5
8B
330
7F
100
AcDbEntity
  8
중심선
100
AcDbLine
 10
7.28139805157953
 20
16.24717430164393
 30
0.0
 11
2.750260043222114
 21
10.84717430164391
 31
0.0
  0
LINE
  5
8C
330
7F
100
AcDbEntity
  8
중심선
100
AcDbLine
 10
5.714909304380834
 20
16.24717430164393
 30
0.0
 11
3.58671253028996
 21
13.71088815037384
 31
0.0
  0
LINE
  5
8D
330
7F
100
AcDbEntity
  8
중심선
100
AcDbLine
 10
2.268634060543552
 20
16.24717430164393
 30
0.0
 11
0.1404042013395286
 21
13.71084872107135
 31
0.0
  0
LINE
  5
8E
330
7F
100
AcDbEntity
  8
중심선
100
AcDbLine
 10
7.28139805157953
 20
16.24717430164393
 30
0.0
 11
10.72767329541681
 21
16.24717430164393
 31
0.0
  0
LINE
  5
8F
330
7F
100
AcDbEntity
  8
중심선
100
AcDbLine
 10
12.29416204261559
 20
16.24717430164393
 30
0.0
 11
15.74043728645272
 21
16.24717430164393
 31
0.0
  0
LINE
  5
90
330
7F
100
AcDbEntity
  8
중심선
100
AcDbLine
 10
19.22036997980202
 20
11.08717430171403
 30
0.0
 11
23.66174974927406
 21
11.08717430171406
 31
0.0
  0
LINE
  5
91
330
7F
100
AcDbEntity
  8
중심선
100
AcDbLine
 10
19.22039502424796
 20
13.00717430171391
 30
0.0
 11
19.22036997980202
 21
11.08717430171403
 31
0.0
  0
LINE
  5
92
330
7F
100
AcDbEntity
  8
중심선
100
AcDbLine
 10
19.22039502424796
 20
13.00717430171391
 30
0.0
 11
26.96566020931264
 21
13.00717430171391
 31
0.0
  0
LINE
  5
93
330
7F
100
AcDbEntity
  8
중심선
100
AcDbLine
 10
22.22332737316547
 20
13.45928029700563
 30
0.0
 11
24.52862924686651
 21
15.39360700705356
 31
0.0
  0
ATTDEF
  5
95
330
7F
100
AcDbEntity
  8
FORMAT
 62
     2
100
AcDbText
 10
3.448148490846466
 20
2.075366912832191
 30
0.0
 40
4.233333333333333
  1
EM218032
 41
0.75
  7
SLDTEXTSTYLE0
 11
3.448148490846466
 21
-0.0412997538344756
 31
0.0
100
AcDbAttributeDefinition
  3

  2
AUTOATTR0
 70
     0
 74
     1
  0
ENDBLK
  5
81
330
7F
100
AcDbEntity
  8
0
100
AcDbBlockEnd
  0
BLOCK
  5
F5
330
F4
100
AcDbEntity
  8
0
100
AcDbBlockBegin
  2
_D
 70
     0
 10
0.0
 20
0.0
 30
0.0
  3
_D
  1

  0
LINE
  5
F7
330
F4
100
AcDbEntity
  8
치수문자_일반주서
 62
     0
370
    -2
100
AcDbLine
 10
65.62499999999999
 20
6.351074928723905
 30
0.0
 11
84.80845140193797
 21
6.351074928723975
 31
0.0
  0
LINE
  5
F8
330
F4
100
AcDbEntity
  8
치수문자_일반주서
 62
     0
370
    -2
100
AcDbLine
 10
65.62499999999999
 20
-6.348925071276101
 30
0.0
 11
84.80845140193802
 21
-6.348925071276028
 31
0.0
  0
LINE
  5
F9
330
F4
100
AcDbEntity
  8
치수문자_일반주서
 62
     0
370
    -2
100
AcDbLine
 10
84.80845140193797
 20
6.351074928723975
 30
0.0
 11
84.80845140193786
 21
39.64257492872397
 31
0.0
  0
LINE
  5
FA
330
F4
100
AcDbEntity
  8
치수문자_일반주서
 62
     0
370
    -2
100
AcDbLine
 10
84.80845140193799
 20
3.049074928723975
 30
0.0
 11
84.808451401938
 21
-3.046925071276029
 31
0.0
  0
LINE
  5
FB
330
F4
100
AcDbEntity
  8
치수문자_일반주서
 62
     0
370
    -2
100
AcDbLine
 10
84.80845140193799
 20
3.049074928723975
 30
0.0
 11
84.808451401938
 21
-0.2529250712760245
 31
0.0
  0
SOLID
  5
FC
330
F4
100
AcDbEntity
  8
치수문자_일반주서
 62
     0
100
AcDbTrace
 10
85.35878473527131
 20
3.049074928723977
 30
0.0
 11
84.25811806860466
 21
3.049074928723973
 31
0.0
 12
84.80845140193797
 22
6.351074928723975
 32
0.0
 13
84.80845140193797
 23
6.351074928723975
 33
0.0
  0
SOLID
  5
FD
330
F4
100
AcDbEntity
  8
치수문자_일반주서
 62
     0
100
AcDbTrace
 10
84.25811806860467
 20
-3.04692507127603
 30
0.0
 11
85.35878473527133
 21
-3.046925071276027
 31
0.0
 12
84.80845140193802
 22
-6.348925071276028
 32
0.0
 13
84.80845140193802
 23
-6.348925071276028
 33
0.0
  0
MTEXT
  5
FE
330
F4
100
AcDbEntity
  8
치수문자_일반주서
 62
     0
100
AcDbMText
 10
80.4334514019379
 20
26.29882492872396
 30
0.0
 40
3.5
 41
0.0
 71
     2
 72
     1
  1
\A1;%%c12.70 [1/2]
  7
SLDTEXTSTYLE0
 11
-3.356894814614645E-15
 21
1.0
 31
0.0
 73
     1
 44
1.0
  0
POINT
  5
FF
330
F4
100
AcDbEntity
  8
Defpoints
 62
     0
100
AcDbPoint
 10
65.56249999999999
 20
6.351074928723905
 30
0.0
  0
POINT
  5
174
330
F4
100
AcDbEntity
  8
Defpoints
 62
     0
100
AcDbPoint
 10
65.56249999999999
 20
-6.348925071276101
 30
0.0
  0
POINT
  5
175
330
F4
100
AcDbEntity
  8
Defpoints
 62
     0
100
AcDbPoint
 10
84.80845140193802
 20
-6.348925071276029
 30
0.0
  0
ENDBLK
  5
F6
330
F4
100
AcDbEntity
  8
0
100
AcDbBlockEnd
  0
BLOCK
  5
10A
330
109
100
AcDbEntity
  8
0
100
AcDbBlockBegin
  2
_D_1
 70
     0
 10
0.0
 20
0.0
 30
0.0
  3
_D_1
  1

  0
LINE
  5
10C
330
109
100
AcDbEntity
  8
치수문자_일반주서
 62
     0
370
    -2
100
AcDbLine
 10
-44.35500000000002
 20
6.351074928723897
 30
0.0
 11
-59.19750000000005
 21
6.351074928723841
 31
0.0
  0
LINE
  5
10D
330
109
100
AcDbEntity
  8
치수문자_일반주서
 62
     0
370
    -2
100
AcDbLine
 10
-44.35500000000002
 20
-6.348925071276093
 30
0.0
 11
-59.19750000000001
 21
-6.348925071276148
 31
0.0
  0
LINE
  5
10E
330
109
100
AcDbEntity
  8
치수문자_일반주서
 62
     0
370
    -2
100
AcDbLine
 10
-59.19750000000005
 20
6.351074928723841
 30
0.0
 11
-59.19750000000001
 21
-6.348925071276148
 31
0.0
  0
LINE
  5
10F
330
109
100
AcDbEntity
  8
치수문자_일반주서
 62
     0
370
    -2
100
AcDbLine
 10
-59.19750000000007
 20
9.653074928723841
 30
0.0
 11
-59.19750000000008
 21
12.95507492872384
 31
0.0
  0
LINE
  5
110
330
109
100
AcDbEntity
  8
치수문자_일반주서
 62
     0
370
    -2
100
AcDbLine
 10
-59.1975
 20
-9.650925071276149
 30
0.0
 11
-59.19749999999998
 21
-12.95292507127615
 31
0.0
  0
SOLID
  5
111
330
109
100
AcDbEntity
  8
치수문자_일반주서
 62
     0
100
AcDbTrace
 10
-59.7478333333334
 20
9.65307492872384
 30
0.0
 11
-58.64716666666673
 21
9.653074928723843
 31
0.0
 12
-59.19750000000005
 22
6.351074928723841
 32
0.0
 13
-59.19750000000005
 23
6.351074928723841
 33
0.0
  0
SOLID
  5
112
330
109
100
AcDbEntity
  8
치수문자_일반주서
 62
     0
100
AcDbTrace
 10
-58.64716666666666
 20
-9.650925071276147
 30
0.0
 11
-59.74783333333333
 21
-9.65092507127615
 31
0.0
 12
-59.19750000000001
 22
-6.348925071276148
 32
0.0
 13
-59.19750000000001
 23
-6.348925071276148
 33
0.0
  0
MTEXT
  5
113
330
109
100
AcDbEntity
  8
치수문자_일반주서
 62
     0
100
AcDbMText
 10
-63.57250000000003
 20
0.001074928723882
 30
0.0
 40
3.5
 41
0.0
 71
     2
 72
     1
  1
\A1;%%c12.70 [1/2]
  7
SLDTEXTSTYLE0
 11
-3.356894814614649E-15
 21
1.0
 31
0.0
 73
     1
 44
1.0
  0
POINT
  5
114
330
109
100
AcDbEntity
  8
Defpoints
 62
     0
100
AcDbPoint
 10
-44.29250000000002
 20
6.351074928723897
 30
0.0
  0
POINT
  5
177
330
109
100
AcDbEntity
  8
Defpoints
 62
     0
100
AcDbPoint
 10
-44.29250000000002
 20
-6.348925071276093
 30
0.0
  0
POINT
  5
178
330
109
100
AcDbEntity
  8
Defpoints
 62
     0
100
AcDbPoint
 10
-59.19750000000001
 20
-6.348925071276149
 30
0.0
  0
ENDBLK
  5
10B
330
109
100
AcDbEntity
  8
0
100
AcDbBlockEnd
  0
BLOCK
  5
11F
330
11E
100
AcDbEntity
  8
0
100
AcDbBlockBegin
  2
_D_2
 70
     0
 10
0.0
 20
0.0
 30
0.0
  3
_D_2
  1

  0
LINE
  5
121
330
11E
100
AcDbEntity
  8
치수문자_일반주서
 62
     0
370
    -2
100
AcDbLine
 10
65.56249999999999
 20
6.367236126966447
 30
0.0
 11
65.56249999999999
 21
28.60554735856159
 31
0.0
  0
LINE
  5
122
330
11E
100
AcDbEntity
  8
치수문자_일반주서
 62
     0
370
    -2
100
AcDbLine
 10
9.99999999999996
 20
6.213658148949068
 30
0.0
 11
9.999999999999957
 21
28.60554735856159
 31
0.0
  0
LINE
  5
123
330
11E
100
AcDbEntity
  8
치수문자_일반주서
 62
     0
370
    -2
100
AcDbLine
 10
62.26049999999999
 20
28.60554735856159
 30
0.0
 11
13.30199999999996
 21
28.60554735856159
 31
0.0
  0
SOLID
  5
124
330
11E
100
AcDbEntity
  8
치수문자_일반주서
 62
     0
100
AcDbTrace
 10
62.26049999999999
 20
28.05521402522826
 30
0.0
 11
62.26049999999999
 21
29.15588069189493
 31
0.0
 12
65.56249999999999
 22
28.60554735856159
 32
0.0
 13
65.56249999999999
 23
28.60554735856159
 33
0.0
  0
SOLID
  5
125
330
11E
100
AcDbEntity
  8
치수문자_일반주서
 62
     0
100
AcDbTrace
 10
13.30199999999996
 20
29.15588069189493
 30
0.0
 11
13.30199999999996
 21
28.05521402522826
 31
0.0
 12
9.999999999999957
 22
28.60554735856159
 32
0.0
 13
9.999999999999957
 23
28.60554735856159
 33
0.0
  0
MTEXT
  5
126
330
11E
100
AcDbEntity
  8
치수문자_일반주서
 62
     0
100
AcDbMText
 10
37.78124999999998
 20
32.98054735856159
 30
0.0
 40
3.5
 41
0.0
 71
     2
 72
     1
  1
\A1;55.56 [2 3/16]
  7
SLDTEXTSTYLE0
 73
     1
 44
1.0
  0
POINT
  5
127
330
11E
100
AcDbEntity
  8
Defpoints
 62
     0
100
AcDbPoint
 10
65.56249999999999
 20
6.304736126966447
 30
0.0
  0
POINT
  5
128
330
11E
100
AcDbEntity
  8
Defpoints
 62
     0
100
AcDbPoint
 10
9.99999999999996
 20
6.151158148949068
 30
0.0
  0
POINT
  5
129
330
11E
100
AcDbEntity
  8
Defpoints
 62
     0
100
AcDbPoint
 10
9.99999999999996
 20
28.60554735856159
 30
0.0
  0
ENDBLK
  5
120
330
11E
100
AcDbEntity
  8
0
100
AcDbBlockEnd
  0
BLOCK
  5
132
330
131
100
AcDbEntity
  8
0
100
AcDbBlockBegin
  2
_D_3
 70
     0
 10
0.0
 20
0.0
 30
0.0
  3
_D_3
  1

  0
LINE
  5
134
330
131
100
AcDbEntity
  8
치수문자_일반주서
 62
     0
370
    -2
100
AcDbLine
 10
65.56249999999999
 20
6.367236126966447
 30
0.0
 11
65.56249999999999
 21
48.90635859015673
 31
0.0
  0
LINE
  5
135
330
131
100
AcDbEntity
  8
치수문자_일반주서
 62
     0
370
    -2
100
AcDbLine
 10
-45.56250000000001
 20
5.143574928723907
 30
0.0
 11
-45.56250000000001
 21
48.90635859015673
 31
0.0
  0
LINE
  5
136
330
131
100
AcDbEntity
  8
치수문자_일반주서
 62
     0
370
    -2
100
AcDbLine
 10
62.26049999999999
 20
48.90635859015673
 30
0.0
 11
-42.26050000000001
 21
48.90635859015673
 31
0.0
  0
SOLID
  5
137
330
131
100
AcDbEntity
  8
치수문자_일반주서
 62
     0
100
AcDbTrace
 10
62.26049999999999
 20
48.35602525682339
 30
0.0
 11
62.26049999999999
 21
49.45669192349006
 31
0.0
 12
65.56249999999999
 22
48.90635859015673
 32
0.0
 13
65.56249999999999
 23
48.90635859015673
 33
0.0
  0
SOLID
  5
138
330
131
100
AcDbEntity
  8
치수문자_일반주서
 62
     0
100
AcDbTrace
 10
-42.26050000000001
 20
49.45669192349006
 30
0.0
 11
-42.26050000000001
 21
48.35602525682339
 31
0.0
 12
-45.56250000000001
 22
48.90635859015673
 32
0.0
 13
-45.56250000000001
 23
48.90635859015673
 33
0.0
  0
MTEXT
  5
139
330
131
100
AcDbEntity
  8
치수문자_일반주서
 62
     0
100
AcDbMText
 10
9.999999999999986
 20
53.28135859015673
 30
0.0
 40
3.5
 41
0.0
 71
     2
 72
     1
  1
\A1;111.13 [4 3/8]
  7
SLDTEXTSTYLE0
 73
     1
 44
1.0
  0
POINT
  5
13A
330
131
100
AcDbEntity
  8
Defpoints
 62
     0
100
AcDbPoint
 10
65.56249999999999
 20
6.304736126966447
 30
0.0
  0
POINT
  5
13B
330
131
100
AcDbEntity
  8
Defpoints
 62
     0
100
AcDbPoint
 10
-45.56250000000001
 20
5.081074928723907
 30
0.0
  0
POINT
  5
13C
330
131
100
AcDbEntity
  8
Defpoints
 62
     0
100
AcDbPoint
 10
-45.56250000000001
 20
48.90635859015673
 30
0.0
  0
ENDBLK
  5
133
330
131
100
AcDbEntity
  8
0
100
AcDbBlockEnd
  0
BLOCK
  5
14B
330
14A
100
AcDbEntity
  8
0
100
AcDbBlockBegin
  2
SW_DOWELSYMBOL_0
 70
     0
 10
0.0
 20
0.0
 30
0.0
  3
SW_DOWELSYMBOL_0
  1

  0
CIRCLE
  5
14D
330
14A
100
AcDbEntity
  8
해칭선
 62
     0
100
AcDbCircle
 10
0.0
 20
0.0
 30
0.0
 40
3.000000000000002
  0
HATCH
  5
14E
330
14A
100
AcDbEntity
  8
0
  6
Continuous
 62
     0
370
     0
100
AcDbHatch
 10
0.0
 20
0.0
 30
0.0
210
0.0
220
0.0
230
1.0
  2
SOLID
 70
     1
 71
     0
 91
        1
 92
        0
 93
        3
 72
     2
 10
0.0
 20
0.0
 40
3.000000000000002
 50
0.0
 51
90.0
 73
     1
 72
     1
 10
0.0
 20
3.000000000000002
 11
0.0
 21
0.0
 72
     1
 10
0.0
 20
0.0
 11
3.000000000000002
 21
0.0
 97
        0
 75
     0
 76
     1
 98
        1
 10
0.0
 20
0.0
  0
HATCH
  5
14F
330
14A
100
AcDbEntity
  8
0
  6
Continuous
 62
     0
370
     0
100
AcDbHatch
 10
0.0
 20
0.0
 30
0.0
210
0.0
220
0.0
230
1.0
  2
SOLID
 70
     1
 71
     0
 91
        1
 92
        0
 93
        3
 72
     2
 10
0.0
 20
0.0
 40
3.000000000000002
 50
180.0
 51
270.0000000000007
 73
     1
 72
     1
 10
0.0
 20
-3.000000000000002
 11
0.0
 21
0.0
 72
     1
 10
0.0
 20
0.0
 11
-3.000000000000003
 21
0.0
 97
        0
 75
     0
 76
     1
 98
        1
 10
0.0
 20
0.0
  0
ENDBLK
  5
14C
330
14A
100
AcDbEntity
  8
0
100
AcDbBlockEnd
  0
ENDSEC
  0
SECTION
  2
ENTITIES
  0
LINE
  5
96
330
1F
100
AcDbEntity
  8
외형선
  6
Continuous
 62
     1
370
    15
100
AcDbLine
 10
33.67978803173754
 20
1.187409572135805
 30
0.0
 11
33.59394858559756
 21
1.270645029317574
 31
0.0
  0
LINE
  5
97
330
1F
100
AcDbEntity
  8
외형선
  6
Continuous
 62
     1
370
    15
100
AcDbLine
 10
30.97842651072636
 20
-1.214917937991444
 30
0.0
 11
31.03411778110732
 21
-1.268603760846686
 31
0.0
  0
LINE
  5
98
330
1F
100
AcDbEntity
  8
외형선
  6
Continuous
 62
     1
370
    15
100
AcDbLine
 10
53.62776309828377
 20
1.184234301209681
 30
0.0
 11
53.54309477702454
 21
1.270612863083927
 31
0.0
  0
LINE
  5
99
330
1F
100
AcDbEntity
  8
외형선
  6
Continuous
 62
     1
370
    15
100
AcDbLine
 10
50.9269322549871
 20
-1.214400468873446
 30
0.0
 11
50.9832453918922
 21
-1.268617728196495
 31
0.0
  0
LINE
  5
9A
330
1F
100
AcDbEntity
  8
외형선
  6
Continuous
 62
     1
370
    15
100
AcDbLine
 10
38.19703990392306
 20
-6.348925071276101
 30
0.0
 11
39.73062260955724
 21
-6.348925071276101
 31
0.0
  0
LINE
  5
9B
330
1F
100
AcDbEntity
  8
외형선
  6
Continuous
 62
     1
370
    15
100
AcDbLine
 10
19.78126204803889
 20
6.351074928723905
 30
0.0
 11
18.24788108945287
 21
6.351074928723905
 31
0.0
  0
LINE
  5
9C
330
1F
100
AcDbEntity
  8
외형선
  6
Continuous
 62
     1
370
    15
100
AcDbLine
 10
59.68015984248349
 20
6.351074928723905
 30
0.0
 11
58.14601044595099
 21
6.351074928723905
 31
0.0
  0
LINE
  5
9D
330
1F
100
AcDbEntity
  8
외형선
  6
Continuous
 62
     1
370
    15
100
AcDbLine
 10
31.54574107190332
 20
-6.348925071276101
 30
0.0
 11
33.08135426115303
 21
-6.348925071276101
 31
0.0
  0
LINE
  5
9E
330
1F
100
AcDbEntity
  8
외형선
  6
Continuous
 62
     1
370
    15
100
AcDbLine
 10
13.133009618308
 20
6.351074928723905
 30
0.0
 11
11.59632866374449
 21
6.351074928723905
 31
0.0
  0
LINE
  5
9F
330
1F
100
AcDbEntity
  8
외형선
  6
Continuous
 62
     1
370
    15
100
AcDbLine
 10
53.03013605864804
 20
6.351074928723905
 30
0.0
 11
51.49522700147862
 21
6.351074928723905
 31
0.0
  0
LINE
  5
A0
330
1F
100
AcDbEntity
  8
외형선
  6
Continuous
 62
     1
370
    15
100
AcDbLine
 10
44.8452947455809
 20
-6.348925071276101
 30
0.0
 11
46.3818986982159
 21
-6.348925071276101
 31
0.0
  0
LINE
  5
A1
330
1F
100
AcDbEntity
  8
외형선
  6
Continuous
 62
     1
370
    15
100
AcDbLine
 10
26.43273738630341
 20
6.351074928723905
 30
0.0
 11
24.89652408723849
 21
6.351074928723905
 31
0.0
  0
LINE
  5
A2
330
1F
100
AcDbEntity
  8
외형선
  6
Continuous
 62
     1
370
    15
100
AcDbLine
 10
65.56249999999999
 20
6.351074928723905
 30
0.0
 11
64.79412615007854
 21
6.351074928723905
 31
0.0
  0
LINE
  5
A3
330
1F
100
AcDbEntity
  8
외형선
  6
Continuous
 62
     1
370
    15
100
AcDbLine
 10
58.14601044595096
 20
-6.348925071276101
 30
0.0
 11
59.68015984248348
 21
-6.348925071276101
 31
0.0
  0
LINE
  5
A4
330
1F
100
AcDbEntity
  8
외형선
  6
Continuous
 62
     1
370
    15
100
AcDbLine
 10
18.24788108945282
 20
-6.348925071276101
 30
0.0
 11
19.78126204803889
 21
-6.348925071276101
 31
0.0
  0
LINE
  5
A5
330
1F
100
AcDbEntity
  8
외형선
  6
Continuous
 62
     1
370
    15
100
AcDbLine
 10
39.73062260955724
 20
6.351074928723905
 30
0.0
 11
38.197039903923
 21
6.351074928723905
 31
0.0
  0
LINE
  5
A6
330
1F
100
AcDbEntity
  8
외형선
  6
Continuous
 62
     1
370
    15
100
AcDbLine
 10
51.49522700147859
 20
-6.348925071276101
 30
0.0
 11
53.030136058648
 21
-6.348925071276101
 31
0.0
  0
LINE
  5
A7
330
1F
100
AcDbEntity
  8
외형선
  6
Continuous
 62
     1
370
    15
100
AcDbLine
 10
11.59632866374443
 20
-6.348925071276101
 30
0.0
 11
13.13300961830797
 21
-6.348925071276101
 31
0.0
  0
LINE
  5
A8
330
1F
100
AcDbEntity
  8
외형선
  6
Continuous
 62
     1
370
    15
100
AcDbLine
 10
33.08135426115296
 20
6.351074928723905
 30
0.0
 11
31.54574107190328
 21
6.351074928723905
 31
0.0
  0
LINE
  5
A9
330
1F
100
AcDbEntity
  8
외형선
  6
Continuous
 62
     1
370
    15
100
AcDbLine
 10
64.79412615007853
 20
-6.348925071276101
 30
0.0
 11
65.56249999999999
 21
-6.348925071276101
 31
0.0
  0
LINE
  5
AA
330
1F
100
AcDbEntity
  8
외형선
  6
Continuous
 62
     1
370
    15
100
AcDbLine
 10
24.8965240872385
 20
-6.348925071276101
 30
0.0
 11
26.43273738630344
 21
-6.348925071276101
 31
0.0
  0
LINE
  5
AB
330
1F
100
AcDbEntity
  8
외형선
  6
Continuous
 62
     1
370
    15
100
AcDbLine
 10
46.38189869821593
 20
6.351074928723905
 30
0.0
 11
44.8452947455809
 21
6.351074928723905
 31
0.0
  0
LINE
  5
AC
330
1F
100
AcDbEntity
  8
외형선
  6
Continuous
370
    15
100
AcDbLine
 10
-44.29250000000001
 20
-6.348925071276098
 30
0.0
 11
9.000092299947205
 21
-6.348925071276098
 31
0.0
  0
LINE
  5
AD
330
1F
100
AcDbEntity
  8
외형선
  6
Continuous
370
    15
100
AcDbLine
 10
9.000092299947205
 20
6.351074928723902
 30
0.0
 11
-44.29250000000001
 21
6.351074928723902
 31
0.0
  0
LINE
  5
AE
330
1F
100
AcDbEntity
  8
외형선
  6
Continuous
370
    15
100
AcDbLine
 10
-44.29250000000001
 20
6.351074928723903
 30
0.0
 11
-45.56250000000001
 21
5.081074928723907
 31
0.0
  0
LINE
  5
AF
330
1F
100
AcDbEntity
  8
외형선
  6
Continuous
370
    15
100
AcDbLine
 10
-45.56250000000001
 20
-5.078925071276103
 30
0.0
 11
-44.29250000000001
 21
-6.348925071276099
 31
0.0
  0
LINE
  5
B0
330
1F
100
AcDbEntity
  8
외형선
  6
Continuous
 62
     1
370
    15
100
AcDbLine
 10
65.56249999999999
 20
3.799321867356676
 30
0.0
 11
65.56249999999999
 21
6.304736126966447
 31
0.0
  0
SPLINE
  5
B1
330
1F
100
AcDbEntity
  8
외형선
  6
Continuous
 62
     1
370
    15
100
AcDbSpline
210
0.0
220
0.0
230
1.0
 70
     8
 71
     3
 72
    27
 73
    23
 74
     0
 42
0.000000001
 43
0.00000001
 40
0.0
 40
0.0
 40
0.0
 40
0.0
 40
0.0445002441864751
 40
0.0969171788216245
 40
0.1492272518748033
 40
0.2015451473660919
 40
0.2539703238257561
 40
0.3063160657468684
 40
0.3586151422022758
 40
0.4109928625864455
 40
0.4633960512829199
 40
0.5157000059456311
 40
0.5680282125694917
 40
0.6204569525995893
 40
0.672789460267754
 40
0.7250917164412207
 40
0.7774885848223214
 40
0.8298731890504977
 40
0.8821731773858686
 40
0.9345138370677745
 40
0.986940920413205
 40
1.0
 40
1.0
 40
1.0
 40
1.0
 10
19.78126204803889
 20
6.337148490380582
 30
0.0
 10
20.11508519886991
 20
6.327526838338625
 30
0.0
 10
20.84211936677951
 20
6.306571821381816
 30
0.0
 10
21.96300409728018
 20
6.011513649514218
 30
0.0
 10
23.14035951206251
 20
5.516107022431145
 30
0.0
 10
24.31792105381875
 20
4.825127781564524
 30
0.0
 10
25.49795302008934
 20
3.971453633959231
 30
0.0
 10
26.67612931726632
 20
2.979934673413513
 30
0.0
 10
27.85324723510865
 20
1.885819394185727
 30
0.0
 10
29.0321601438641
 20
0.7278194603953636
 30
0.0
 10
30.21167463435214
 20
-0.4545851392523427
 30
0.0
 10
31.38891069766816
 20
-1.622864483010017
 30
0.0
 10
32.56669687803158
 20
-2.735134254328556
 30
0.0
 10
33.7468135396963
 20
-3.75182502042821
 30
0.0
 10
34.92469523073684
 20
-4.641256701795058
 30
0.0
 10
36.10189042596627
 20
-5.371117958094564
 30
0.0
 10
37.28125704218797
 20
-5.916071653619555
 30
0.0
 10
38.46032544580066
 20
-6.257006919479867
 30
0.0
 10
39.63748958271889
 20
-6.387475581353653
 30
0.0
 10
40.81546286593932
 20
-6.282398171849599
 30
0.0
 10
41.70084492558263
 20
-6.086684392114199
 30
0.0
 10
42.19194486591352
 20
-5.866107071388171
 30
0.0
 10
42.28987873344654
 20
-5.822120118153723
 30
0.0
  0
SPLINE
  5
B2
330
1F
100
AcDbEntity
  8
외형선
  6
Continuous
 62
     1
370
    15
100
AcDbSpline
210
0.0
220
0.0
230
1.0
 70
     8
 71
     3
 72
    12
 73
     8
 74
     0
 42
0.000000001
 43
0.00000001
 40
0.0
 40
0.0
 40
0.0
 40
0.0
 40
0.1985293005954608
 40
0.3991420773394875
 40
0.599403975881538
 40
0.7995301808990504
 40
1.0
 40
1.0
 40
1.0
 40
1.0
 10
59.68015984248349
 20
6.350164192169913
 30
0.0
 10
60.06919196434814
 20
6.329726988236229
 30
0.0
 10
60.85133892606674
 20
6.288638101061213
 30
0.0
 10
62.02814752237768
 20
5.95430926097992
 30
0.0
 10
63.20611191047624
 20
5.427693543267559
 30
0.0
 10
64.38327871659592
 20
4.719473485646621
 30
0.0
 10
65.16920152857497
 20
4.117366347971889
 30
0.0
 10
65.56250000000001
 20
3.816054548298733
 30
0.0
  0
SPLINE
  5
B3
330
1F
100
AcDbEntity
  8
외형선
  6
Continuous
 62
     1
370
    15
100
AcDbSpline
210
0.0
220
0.0
230
1.0
 70
     8
 71
     3
 72
    10
 73
     6
 74
     0
 42
0.000000001
 43
0.00000001
 40
0.0
 40
0.0
 40
0.0
 40
0.0
 40
0.3547715653501589
 40
0.7089350366400312
 40
1.0
 40
1.0
 40
1.0
 40
1.0
 10
65.5625
 20
6.304736126966448
 30
0.0
 10
65.16919266443968
 20
6.330056816990861
 30
0.0
 10
64.38325213938366
 20
6.380654796263779
 30
0.0
 10
63.2763290454588
 20
6.210207888903114
 30
0.0
 10
62.56147276417631
 20
5.947050340045867
 30
0.0
 10
62.2389984184323
 20
5.828338984186912
 30
0.0
  0
SPLINE
  5
B4
330
1F
100
AcDbEntity
  8
외형선
  6
Continuous
 62
     1
370
    15
100
AcDbSpline
210
0.0
220
0.0
230
1.0
 70
     8
 71
     3
 72
    27
 73
    23
 74
     0
 42
0.000000001
 43
0.00000001
 40
0.0
 40
0.0
 40
0.0
 40
0.0
 40
0.0219902262787414
 40
0.074304165395625
 40
0.1266319310700635
 40
0.1790653793745438
 40
0.231412393523153
 40
0.2837187313874848
 40
0.3361096954174944
 40
0.3885129250893683
 40
0.4408215310671255
 40
0.493160392212291
 40
0.5455954974025705
 40
0.5979300569812592
 40
0.6502403616544674
 40
0.7026499124090396
 40
0.755033991759302
 40
0.8073394176329621
 40
0.8596915146377937
 40
0.912123055825
 40
0.9644473030192846
 40
1.0
 40
1.0
 40
1.0
 40
1.0
 10
44.84529474558092
 20
-6.322289788171291
 30
0.0
 10
44.68021257851358
 20
-6.328689706653964
 30
0.0
 10
44.12240601071586
 20
-6.350314795701583
 30
0.0
 10
43.17326988080104
 20
-6.157005041424342
 30
0.0
 10
41.99560459640558
 20
-5.754357038575831
 30
0.0
 10
40.8155345915114
 20
-5.141956470696821
 30
0.0
 10
39.63747039496667
 20
-4.355644193638377
 30
0.0
 10
38.46033059468984
 20
-3.418397074594917
 30
0.0
 10
37.28125566117892
 20
-2.364872405288044
 30
0.0
 10
36.10189079523545
 20
-1.230357096147219
 30
0.0
 10
34.92469513201455
 20
-0.0522246431414004
 30
0.0
 10
33.74681356544288
 20
1.127534024586812
 30
0.0
 10
32.56669687401374
 20
2.2668538025058
 30
0.0
 10
31.38891068805457
 20
3.330188440553559
 30
0.0
 10
30.21167467683559
 20
4.279191167911645
 30
0.0
 10
29.03215998323496
 20
5.080143279708125
 30
0.0
 10
27.85324783431675
 20
5.707333908149509
 30
0.0
 10
26.67612708373427
 20
6.138377511722465
 30
0.0
 10
25.49796136983637
 20
6.360396903998196
 30
0.0
 10
24.31788986729656
 20
6.35647096733929
 30
0.0
 10
23.2661366199916
 20
6.183445407726746
 30
0.0
 10
22.60715081008961
 20
5.925549012476828
 30
0.0
 10
22.34054250874289
 20
5.821210923814117
 30
0.0
  0
SPLINE
  5
B5
330
1F
100
AcDbEntity
  8
외형선
  6
Continuous
 62
     1
370
    15
100
AcDbSpline
210
0.0
220
0.0
230
1.0
 70
     8
 71
     3
 72
    12
 73
     8
 74
     0
 42
0.000000001
 43
0.00000001
 40
0.0
 40
0.0
 40
0.0
 40
0.0
 40
0.2132175221246628
 40
0.4267161691388873
 40
0.6403495459434604
 40
0.85360626041718
 40
1.0
 40
1.0
 40
1.0
 40
1.0
 10
9.999999999999986
 20
-5.591668817735313
 30
0.0
 10
10.40408535904665
 20
-5.76342921975788
 30
0.0
 10
11.21278885911209
 20
-6.107176487948959
 30
0.0
 10
12.42736401545449
 20
-6.34731686741002
 30
0.0
 10
13.64282767198883
 20
-6.362878441529528
 30
0.0
 10
14.72917189010436
 20
-6.192247665423621
 30
0.0
 10
15.41097167263627
 20
-5.926254243177296
 30
0.0
 10
15.68849452485517
 20
-5.817983083366804
 30
0.0
  0
SPLINE
  5
B6
330
1F
100
AcDbEntity
  8
외형선
  6
Continuous
 62
     1
370
    15
100
AcDbSpline
210
0.0
220
0.0
230
1.0
 70
     8
 71
     3
 72
    27
 73
    23
 74
     0
 42
0.000000001
 43
0.00000001
 40
0.0
 40
0.0
 40
0.0
 40
0.0
 40
0.0295636516509112
 40
0.0818999155100787
 40
0.1342059257032329
 40
0.1866065548948578
 40
0.2389949190532926
 40
0.2912986612455758
 40
0.3436430777035992
 40
0.3960739240282475
 40
0.448399092967294
 40
0.5007104360349208
 40
0.553126715358174
 40
0.6054969072594408
 40
0.6577988367167905
 40
0.7101578440056908
 40
0.76258181376005
 40
0.8148980326965094
 40
0.8672168593360944
 40
0.9196435766105201
 40
0.9719977223833289
 40
1.0
 40
1.0
 40
1.0
 40
1.0
 10
33.08135426115296
 20
6.324167951520961
 30
0.0
 10
33.30333543221325
 20
6.327942755926435
 30
0.0
 10
33.91828785315695
 20
6.338400062267545
 30
0.0
 10
34.92470038373329
 20
6.114271513178173
 30
0.0
 10
36.10188937720408
 20
5.679768702720236
 30
0.0
 10
37.28125607251239
 20
5.040699411613195
 30
0.0
 10
38.46033036850698
 20
4.231343070910643
 30
0.0
 10
39.63747088844458
 20
3.275145661967017
 30
0.0
 10
40.81553284077891
 20
2.20683119416979
 30
0.0
 10
41.99561111130328
 20
1.064360929618797
 30
0.0
 10
43.17324563222112
 20
-0.116475115117234
 30
0.0
 10
44.35056648791083
 20
-1.293368351626297
 30
0.0
 10
45.53030157485345
 20
-2.424143919531303
 30
0.0
 10
46.70895111355757
 20
-3.47258373873413
 30
0.0
 10
47.88604704758242
 20
-4.402268069307741
 30
0.0
 10
49.06443887540179
 20
-5.180210392738487
 30
0.0
 10
50.24435530624986
 20
-5.779850952226739
 30
0.0
 10
51.42178861751105
 20
-6.1811725203457
 30
0.0
 10
52.59927764521786
 20
-6.372495996435394
 30
0.0
 10
53.77926916395182
 20
-6.335079219400278
 30
0.0
 10
54.77524377602261
 20
-6.150750942391745
 30
0.0
 10
55.37773648931768
 20
-5.902468460616612
 30
0.0
 10
55.58769068473945
 20
-5.815947997301247
 30
0.0
  0
SPLINE
  5
B7
330
1F
100
AcDbEntity
  8
외형선
  6
Continuous
370
    15
100
AcDbSpline
210
0.0
220
0.0
230
1.0
 70
    24
 71
     3
 72
    21
 73
    17
 74
     0
 42
0.000000001
 43
0.00000001
 40
0.0
 40
0.0
 40
0.0
 40
0.0
 40
0.0432483812562303
 40
0.1166903133823477
 40
0.1922620665154321
 40
0.2657039986415493
 40
0.3412757517746337
 40
0.4147176839007543
 40
0.4902894370338354
 40
0.5637313691599531
 40
0.6393031222930383
 40
0.7127450544191524
 40
0.7883168075522391
 40
0.8617587396783585
 40
0.9373304928114455
 40
1.0
 40
1.0
 40
1.0
 40
1.0
 10
9.999999999999986
 20
-1.434739859277843
 30
0.0
 10
9.999999999999972
 20
-1.433657204521727
 30
0.0
 10
9.999999999999952
 20
-1.430736047264358
 30
0.0
 10
10.00000000000001
 20
-1.506335553364021
 30
0.0
 10
9.999999999999966
 20
-1.650941773649343
 30
0.0
 10
10.00000000000004
 20
-1.86626442007998
 30
0.0
 10
9.999999999999979
 20
-2.13807921569031
 30
0.0
 10
9.999999999999986
 20
-2.46472634577283
 30
0.0
 10
9.999999999999952
 20
-2.83077708651227
 30
0.0
 10
10.00000000000006
 20
-3.232535236651013
 30
0.0
 10
9.999999999999938
 20
-3.65139636495677
 30
0.0
 10
10.00000000000006
 20
-4.082973935296016
 30
0.0
 10
9.99999999999996
 20
-4.507563641026584
 30
0.0
 10
10.00000000000007
 20
-4.919740195731165
 30
0.0
 10
9.999999999999938
 20
-5.285704445445184
 30
0.0
 10
9.99999999999996
 20
-5.49623024733761
 30
0.0
 10
9.999999999999972
 20
-5.59166881773531
 30
0.0
  0
SPLINE
  5
B8
330
1F
100
AcDbEntity
  8
외형선
  6
Continuous
 62
     1
370
    15
100
AcDbSpline
210
0.0
220
0.0
230
1.0
 70
     8
 71
     3
 72
    27
 73
    23
 74
     0
 42
0.000000001
 43
0.00000001
 40
0.0
 40
0.0
 40
0.0
 40
0.0
 40
0.0369787333836471
 40
0.0893518828377728
 40
0.1416515783563742
 40
0.1940031457349944
 40
0.2464272810411493
 40
0.2987435310259792
 40
0.3510571734361132
 40
0.403478561357515
 40
0.4558349900128
 40
0.5081343436475653
 40
0.5605019563643858
 40
0.6129156542334284
 40
0.6652244210148601
 40
0.7175470129868
 40
0.7699752771398265
 40
0.8223171156828196
 40
0.8746182819632436
 40
0.9270040660422652
 40
0.9794021145504339
 40
1.0
 40
1.0
 40
1.0
 40
1.0
 10
58.14601044595096
 20
-6.326212430423635
 30
0.0
 10
57.8684272303278
 20
-6.324736340117581
 30
0.0
 10
57.19770163508446
 20
-6.321169656350557
 30
0.0
 10
56.13462470237244
 20
-6.06345511996174
 30
0.0
 10
54.95754792315741
 20
-5.598487961213128
 30
0.0
 10
53.77925957870531
 20
-4.93337828960501
 30
0.0
 10
52.59928020918505
 20
-4.102015093638382
 30
0.0
 10
51.42178793118316
 20
-3.127825077805123
 30
0.0
 10
50.2443554905625
 20
-2.046151512465575
 30
0.0
 10
49.06443882609191
 20
-0.8959379226835817
 30
0.0
 10
47.88604706057389
 20
0.2863130686547505
 30
0.0
 10
46.70895111080944
 20
1.459256320515266
 30
0.0
 10
45.53030157283766
 20
2.581420105857005
 30
0.0
 10
44.35056649872769
 20
3.614216535936343
 30
0.0
 10
43.1732455910603
 20
4.524423049609235
 30
0.0
 10
41.99561126533988
 20
5.278923162822863
 30
0.0
 10
40.81553226495424
 20
5.851485869502662
 30
0.0
 10
39.63747303267596
 20
6.223113421389596
 30
0.0
 10
38.46032236717654
 20
6.384254385478424
 30
0.0
 10
37.28128599151854
 20
6.313558008321107
 30
0.0
 10
36.33984262014477
 20
6.121735837097321
 30
0.0
 10
35.7925397987698
 20
5.885706897043114
 30
0.0
 10
35.63810269234916
 20
5.819104597347436
 30
0.0
  0
SPLINE
  5
B9
330
1F
100
AcDbEntity
  8
외형선
  6
Continuous
 62
     1
370
    15
100
AcDbSpline
210
0.0
220
0.0
230
1.0
 70
     8
 71
     3
 72
    14
 73
    10
 74
     0
 42
0.000000001
 43
0.00000001
 40
0.0
 40
0.0
 40
0.0
 40
0.0
 40
0.1210774544039684
 40
0.264125414918182
 40
0.4112216266383533
 40
0.5583163086699973
 40
0.705670795069007
 40
0.852932351049759
 40
1.0
 40
1.0
 40
1.0
 40
1.0
 10
18.24788108945282
 20
-6.334801890674586
 30
0.0
 10
17.91505989887162
 20
-6.32534631257974
 30
0.0
 10
17.18902435832806
 20
-6.304719363492586
 30
0.0
 10
16.05727234098499
 20
-6.007302899927099
 30
0.0
 10
14.85598936159857
 20
-5.499236038903114
 30
0.0
 10
13.64279780775638
 20
-4.779581887163179
 30
0.0
 10
12.42737197992072
 20
-3.887083330669406
 30
0.0
 10
11.21278687157669
 20
-2.85646847973156
 30
0.0
 10
10.40408469682587
 20
-2.088614633326729
 30
0.0
 10
9.999999999999952
 20
-1.704940645029733
 30
0.0
  0
SPLINE
  5
BA
330
1F
100
AcDbEntity
  8
외형선
  6
Continuous
 62
     1
370
    15
100
AcDbSpline
210
0.0
220
0.0
230
1.0
 70
     8
 71
     3
 72
    18
 73
    14
 74
     0
 42
0.000000001
 43
0.00000001
 40
0.0
 40
0.0
 40
0.0
 40
0.0
 40
0.0982919550609093
 40
0.1967135069520226
 40
0.2951971684407258
 40
0.3935071909314309
 40
0.4918182357820992
 40
0.587423651431163
 40
0.6829282317921564
 40
0.7783177933393784
 40
0.8738209408697287
 40
0.9694273417212378
 40
1.0
 40
1.0
 40
1.0
 40
1.0
 10
9.999999999999979
 20
-0.1909183161509671
 30
0.0
 10
10.40408472635586
 20
-0.5946288967710236
 30
0.0
 10
11.21278696020554
 20
-1.402582345842177
 30
0.0
 10
12.42737162476659
 20
-2.560992680593932
 30
0.0
 10
13.64279913947214
 20
-3.625969899652457
 30
0.0
 10
14.85598439971739
 20
-4.559761068618997
 30
0.0
 10
16.05729064529162
 20
-5.319640857002883
 30
0.0
 10
17.24900951405544
 20
-5.883812738607364
 30
0.0
 10
18.42754476439471
 20
-6.23987327706887
 30
0.0
 10
19.60465185021871
 20
-6.385391753711792
 30
0.0
 10
20.78309446223702
 20
-6.29726499784157
 30
0.0
 10
21.69613229652428
 20
-6.102987599613964
 30
0.0
 10
22.21485754952746
 20
-5.87443774115325
 30
0.0
 10
22.34054250874291
 20
-5.819061066366313
 30
0.0
  0
SPLINE
  5
BB
330
1F
100
AcDbEntity
  8
외형선
  6
Continuous
 62
     1
370
    15
100
AcDbSpline
210
0.0
220
0.0
230
1.0
 70
     8
 71
     3
 72
    27
 73
    23
 74
     0
 42
0.000000001
 43
0.00000001
 40
0.0
 40
0.0
 40
0.0
 40
0.0
 40
0.0481927717892839
 40
0.100620241656554
 40
0.1529420409436662
 40
0.2052500152497215
 40
0.2576629190536867
 40
0.3100297384036171
 40
0.3623282997056157
 40
0.4146839351634496
 40
0.46710452890327
 40
0.5194173787641602
 40
0.5717328361602443
 40
0.6241561772431957
 40
0.6765069514980115
 40
0.7288058546786659
 40
0.781178210682021
 40
0.8335867124452698
 40
0.885892761400137
 40
0.9382178493163087
 40
0.9906464103982674
 40
1.0
 40
1.0
 40
1.0
 40
1.0
 10
39.73062260955724
 20
6.3431160356451
 30
0.0
 10
40.09204714665448
 20
6.328449546687644
 30
0.0
 10
40.84665458908054
 20
6.297827824625158
 30
0.0
 10
41.9956223223319
 20
5.983255328966118
 30
0.0
 10
43.17324263192649
 20
5.473156320753159
 30
0.0
 10
44.35056729337066
 20
4.769735197993906
 30
0.0
 10
45.53030135979211
 20
3.905126140177359
 30
0.0
 10
46.70895116831475
 20
2.905497581904128
 30
0.0
 10
47.88604704319419
 20
1.805552310098294
 30
0.0
 10
49.06443883809239
 20
0.6440378965516788
 30
0.0
 10
50.24435545996135
 20
-0.5382422229641505
 30
0.0
 10
51.4217880413363
 20
-1.703866877565583
 30
0.0
 10
52.59927979869735
 20
-2.81083338161928
 30
0.0
 10
53.77926111301625
 20
-3.819593147068507
 30
0.0
 10
54.95754220871206
 20
-4.698457594615379
 30
0.0
 10
56.13464601895326
 20
-5.415980809935001
 30
0.0
 10
57.31342632212225
 20
-5.947314975154187
 30
0.0
 10
58.49305008546165
 20
-6.273053392048872
 30
0.0
 10
59.67035332171034
 20
-6.388493583121947
 30
0.0
 10
60.84796027464642
 20
-6.266317213789748
 30
0.0
 10
61.70543726788744
 20
-6.070122659054048
 30
0.0
 10
62.16884082943975
 20
-5.858263779258645
 30
0.0
 10
62.2389984184323
 20
-5.826189126739108
 30
0.0
  0
SPLINE
  5
BC
330
1F
100
AcDbEntity
  8
외형선
  6
Continuous
370
    15
100
AcDbSpline
210
0.0
220
0.0
230
1.0
 70
    24
 71
     3
 72
    22
 73
    18
 74
     0
 42
0.000000001
 43
0.00000001
 40
0.0
 40
0.0
 40
0.0
 40
0.0
 40
0.0948168520093653
 40
0.1618489843902265
 40
0.2308250531512139
 40
0.2978571855320323
 40
0.366833254292973
 40
0.433865386673791
 40
0.502841455434732
 40
0.5698735878155533
 40
0.6388496565764911
 40
0.70588178895731
 40
0.7748578577182513
 40
0.8418899900990661
 40
0.9108660588600094
 40
0.9778981912408292
 40
1.0
 40
1.0
 40
1.0
 40
1.0
 10
9.99999999999996
 20
4.445142575195395
 30
0.0
 10
9.999999999999986
 20
4.325705682728232
 30
0.0
 10
10.00000000000003
 20
4.121831167440322
 30
0.0
 10
10.00000000000001
 20
3.738737728909289
 30
0.0
 10
9.99999999999993
 20
3.36617312501972
 30
0.0
 10
10.00000000000001
 20
2.95881717215087
 30
0.0
 10
9.999999999999938
 20
2.537209232447864
 30
0.0
 10
10.00000000000004
 20
2.105243749668512
 30
0.0
 10
9.999999999999979
 20
1.683044907577094
 30
0.0
 10
9.999999999999979
 20
1.274922779510613
 30
0.0
 10
9.999999999999952
 20
0.8998171638244031
 30
0.0
 10
10.00000000000004
 20
0.5614653356147123
 30
0.0
 10
9.999999999999938
 20
0.2760058982249931
 30
0.0
 10
10.00000000000008
 20
0.0446185041117806
 30
0.0
 10
9.999999999999972
 20
-0.115418188351627
 30
0.0
 10
10.00000000000004
 20
-0.2014882678322205
 30
0.0
 10
10.00000000000001
 20
-0.2085788460162934
 30
0.0
 10
10.0
 20
-0.2103370382493754
 30
0.0
  0
SPLINE
  5
BD
330
1F
100
AcDbEntity
  8
외형선
  6
Continuous
 62
     1
370
    15
100
AcDbSpline
210
0.0
220
0.0
230
1.0
 70
     8
 71
     3
 72
    27
 73
    23
 74
     0
 42
0.000000001
 43
0.00000001
 40
0.0
 40
0.0
 40
0.0
 40
0.0
 40
0.0182673178050236
 40
0.0705755067764103
 40
0.1229191627798317
 40
0.1753545299276942
 40
0.2276864104772969
 40
0.2799992495940327
 40
0.3324145548191655
 40
0.3847937095921056
 40
0.4370994020069934
 40
0.4894569722297392
 40
0.5418871187009541
 40
0.5942093674802731
 40
0.646529008385901
 40
0.6989564071573364
 40
0.7513188392141608
 40
0.8036241897060108
 40
0.8559978071067806
 40
0.9084175149440842
 40
0.9607322796619503
 40
1.0
 40
1.0
 40
1.0
 40
1.0
 10
64.79412615007853
 20
-6.324101192843441
 30
0.0
 10
64.65702679999576
 20
-6.330821164223153
 30
0.0
 10
64.12734552910067
 20
-6.356783672277599
 30
0.0
 10
63.20615240702791
 20
-6.177263419203683
 30
0.0
 10
62.02813309566346
 20
-5.790645252639115
 30
0.0
 10
60.84804289942927
 20
-5.191292680440013
 30
0.0
 10
59.67033121131708
 20
-4.416638786510314
 30
0.0
 10
58.49305602208145
 20
-3.488894951566743
 30
0.0
 10
57.31342473126168
 20
-2.442990182335396
 30
0.0
 10
56.1346464443605
 20
-1.312494292903985
 30
0.0
 10
54.95754209488569
 20
-0.1361001122469354
 30
0.0
 10
53.7792611427753
 20
1.044597927802096
 30
0.0
 10
52.59927979373454
 20
2.188087106956297
 30
0.0
 10
51.42178803150754
 20
3.258304595930596
 30
0.0
 10
50.2443555042768
 20
4.21651373709884
 30
0.0
 10
49.06443867036729
 20
5.028619040427266
 30
0.0
 10
47.88604766850393
 20
5.6691844058321
 30
0.0
 10
46.70894883594227
 20
6.114697039737986
 30
0.0
 10
45.53031008059515
 20
6.35173593903231
 30
0.0
 10
44.35053474388558
 20
6.364151224070152
 30
0.0
 10
43.27125368210184
 20
6.197977339043865
 30
0.0
 10
42.58438615828808
 20
5.936418337858514
 30
0.0
 10
42.28987873344652
 20
5.824269975601527
 30
0.0
  0
SPLINE
  5
BE
330
1F
100
AcDbEntity
  8
외형선
  6
Continuous
 62
     1
370
    15
100
AcDbSpline
210
0.0
220
0.0
230
1.0
 70
     8
 71
     3
 72
    20
 73
    16
 74
     0
 42
0.000000001
 43
0.00000001
 40
0.0
 40
0.0
 40
0.0
 40
0.0
 40
0.0388447162758168
 40
0.1178947638422989
 40
0.1969329920475691
 40
0.2761326834206235
 40
0.3552468404455972
 40
0.4342669036156839
 40
0.5133822475878076
 40
0.5925811228258636
 40
0.6740213228688342
 40
0.7554606759957746
 40
0.8370438704861526
 40
0.9185756138088594
 40
0.9999999999999999
 40
0.9999999999999999
 40
0.9999999999999999
 40
0.9999999999999999
 10
24.8965240872385
 20
-6.321583184001134
 30
0.0
 10
24.70347818677545
 20
-6.327030477242732
 30
0.0
 10
24.11757866097597
 20
-6.343563159467464
 30
0.0
 10
23.1403731309868
 20
-6.135565256868265
 30
0.0
 10
21.96298385347488
 20
-5.717146760279522
 30
0.0
 10
20.78314770669505
 20
-5.091665925671998
 30
0.0
 10
19.60463760948263
 20
-4.293918125659495
 30
0.0
 10
18.42754858300007
 20
-3.347308221705949
 30
0.0
 10
17.24900849009166
 20
-2.286386127846965
 30
0.0
 10
16.05729092844345
 20
-1.136372887828504
 30
0.0
 10
14.85598432296137
 20
0.0674785158510889
 30
0.0
 10
13.64279916007261
 20
1.281514490655912
 30
0.0
 10
12.42737161927266
 20
2.444497334114064
 30
0.0
 10
11.21278696157656
 20
3.530766687322591
 30
0.0
 10
10.40408472681264
 20
4.140484508641933
 30
0.0
 10
9.999999999999952
 20
4.44514257519541
 30
0.0
  0
SPLINE
  5
BF
330
1F
100
AcDbEntity
  8
외형선
  6
Continuous
 62
     1
370
    15
100
AcDbSpline
210
0.0
220
0.0
230
1.0
 70
     8
 71
     3
 72
    27
 73
    23
 74
     0
 42
0.000000001
 43
0.00000001
 40
0.0
 40
0.0
 40
0.0
 40
0.0
 40
0.0108262682785854
 40
0.0631322795618217
 40
0.1155169452019606
 40
0.1679270825314881
 40
0.2202379726688758
 40
0.2725731179832089
 40
0.3250088100344519
 40
0.3773482569634053
 40
0.4296574483863298
 40
0.4820612645624133
 40
0.5344528149593525
 40
0.5867597382434672
 40
0.6391073382671141
 40
0.6915413734140143
 40
0.7438697247480581
 40
0.7961842493697985
 40
0.8486037166293449
 40
0.9009770936638869
 40
0.9532822041028183
 40
1.0
 40
1.0
 40
1.0
 40
1.0
 10
26.43273738630341
 20
6.333169029377804
 30
0.0
 10
26.51395046711977
 20
6.338722211388045
 30
0.0
 10
26.98753626697634
 20
6.371105026048363
 30
0.0
 10
27.85318835378983
 20
6.21628038764997
 30
0.0
 10
29.032175940729
 20
5.862574518028351
 30
0.0
 10
30.21167040927013
 20
5.2892167551457
 30
0.0
 10
31.38891183110734
 20
4.538484069335967
 30
0.0
 10
32.56669656716237
 20
3.630482812074363
 30
0.0
 10
33.74681364695387
 20
2.599864653941687
 30
0.0
 10
34.92469511247445
 20
1.478327680629378
 30
0.0
 10
36.10189079201383
 20
0.3058135647562433
 30
0.0
 10
37.28125569370947
 20
-0.8757966913834232
 30
0.0
 10
38.46033046793021
 20
-2.027576441303409
 30
0.0
 10
39.63747086880965
 20
-3.110707504371931
 30
0.0
 10
40.81553281984969
 20
-4.086610763840643
 30
0.0
 10
41.9956112148081
 20
-4.920973031149362
 30
0.0
 10
43.17324524011789
 20
-5.587768000045505
 30
0.0
 10
44.35056795397411
 20
-6.062033241039754
 30
0.0
 10
45.53029609268849
 20
-6.328968514239227
 30
0.0
 10
46.70897154077701
 20
-6.373913613797538
 30
0.0
 10
47.84366687736701
 20
-6.223925097587365
 30
0.0
 10
48.58663585884287
 20
-5.957137390562057
 30
0.0
 10
48.93715953582637
 20
-5.831270213907196
 30
0.0
  0
SPLINE
  5
C0
330
1F
100
AcDbEntity
  8
외형선
  6
Continuous
 62
     1
370
    15
100
AcDbSpline
210
0.0
220
0.0
230
1.0
 70
     8
 71
     3
 72
    28
 73
    24
 74
     0
 42
0.000000001
 43
0.00000001
 40
0.0
 40
0.0
 40
0.0
 40
0.0
 40
0.0032648227755853
 40
0.0555806976077184
 40
0.1080043225490299
 40
0.1603629854521658
 40
0.2126645708991739
 40
0.2650344183411117
 40
0.3174503529019004
 40
0.3697613518972695
 40
0.4220861766731204
 40
0.4745166781394916
 40
0.5268607503077202
 40
0.5791641484777393
 40
0.6315521680573194
 40
0.6839524525894164
 40
0.7362581187453896
 40
0.7885940383683855
 40
0.8410261966274364
 40
0.89335781492571
 40
0.945665179681665
 40
0.998071784941206
 40
1.0
 40
1.0
 40
1.0
 40
1.0
 10
51.49522700147859
 20
-6.34254768012036
 30
0.0
 10
51.47074270014596
 20
-6.344651490542879
 30
0.0
 10
51.0539192943913
 20
-6.380466987724664
 30
0.0
 10
50.24441025107366
 20
-6.246472512093711
 30
0.0
 10
49.06442416001637
 20
-5.927550896108036
 30
0.0
 10
47.88605098353312
 20
-5.380633644004536
 30
0.0
 10
46.70895005789435
 20
-4.654955333828902
 30
0.0
 10
45.53030185820204
 20
-3.768044285602534
 30
0.0
 10
44.35056641200782
 20
-2.753056014862106
 30
0.0
 10
43.17324565300116
 20
-1.641852583763433
 30
0.0
 10
41.99561110402382
 20
-0.4742699435720636
 30
0.0
 10
40.81553284907622
 20
0.7077148197962705
 30
0.0
 10
39.63747086258987
 20
1.867114578359427
 30
0.0
 10
38.46033046363383
 20
2.96263984192197
 30
0.0
 10
37.28125571717256
 20
3.955475538560014
 30
0.0
 10
36.10189070251757
 20
4.812500758153653
 30
0.0
 10
34.92469544641375
 20
5.505100220723205
 30
0.0
 10
33.74681239868719
 20
6.008764539911971
 30
0.0
 10
32.5667012314789
 20
6.304070191233441
 30
0.0
 10
31.38889446526807
 20
6.389501011875589
 30
0.0
 10
30.21173524182476
 20
6.232568360025812
 30
0.0
 10
29.4108405626061
 20
6.03850384926466
 30
0.0
 10
29.00312499891467
 20
5.846335493038686
 30
0.0
 10
28.98865613189702
 20
5.839515889769037
 30
0.0
  0
SPLINE
  5
C1
330
1F
100
AcDbEntity
  8
외형선
  6
Continuous
 62
     1
370
    15
100
AcDbSpline
210
0.0
220
0.0
230
1.0
 70
     8
 71
     3
 72
     9
 73
     5
 74
     0
 42
0.000000001
 43
0.00000001
 40
0.0
 40
0.0
 40
0.0
 40
0.0
 40
0.2403729075041661
 40
1.0
 40
1.0
 40
1.0
 40
1.0
 10
11.59632866374444
 20
-6.323853369470481
 30
0.0
 10
11.46834968120965
 20
-6.331266896885154
 30
0.0
 10
10.93593118253755
 20
-6.362108673072199
 30
0.0
 10
10.40403940471202
 20
-6.241003251088344
 30
0.0
 10
9.99999999999996
 20
-6.149008291501269
 30
0.0
  0
LINE
  5
C2
330
1F
100
AcDbEntity
  8
외형선
  6
Continuous
 62
     1
370
    15
100
AcDbLine
 10
65.56249999999999
 20
-6.302586269518641
 30
0.0
 11
65.56249999999999
 21
-3.813688750562403
 31
0.0
  0
SPLINE
  5
C3
330
1F
100
AcDbEntity
  8
외형선
  6
Continuous
 62
     1
370
    15
100
AcDbSpline
210
0.0
220
0.0
230
1.0
 70
     8
 71
     3
 72
    23
 73
    19
 74
     0
 42
0.000000001
 43
0.00000001
 40
0.0
 40
0.0
 40
0.0
 40
0.0
 40
0.0638768754471006
 40
0.1278379718314706
 40
0.19183943130585
 40
0.2557280482119744
 40
0.3196173295179471
 40
0.3817483068059578
 40
0.4438137543857361
 40
0.5058044548263737
 40
0.567868971254213
 40
0.6300005887945603
 40
0.6920055395813676
 40
0.7540197625764079
 40
0.8161611494382952
 40
0.8782083797760906
 40
0.9402002959127083
 40
1.0
 40
1.0
 40
1.0
 40
1.0
 10
9.999999999999979
 20
5.40182543030829
 30
0.0
 10
10.4040847268071
 20
5.169986122670069
 30
0.0
 10
11.21278696155989
 20
4.706001829890646
 30
0.0
 10
12.42737161933943
 20
3.786065681026713
 30
0.0
 10
13.64279915982238
 20
2.742983428795721
 30
0.0
 10
14.85598432389366
 20
1.595030435548054
 30
0.0
 10
16.05729092500425
 20
0.401589092148639
 30
0.0
 10
17.24900850252869
 20
-0.7922445777801189
 30
0.0
 10
18.42754853661963
 20
-1.947912584273369
 30
0.0
 10
19.60463778244941
 20
-3.03719562784157
 30
0.0
 10
20.78314705999241
 20
-4.02155977727567
 30
0.0
 10
21.96298626773736
 20
-4.867034657321911
 30
0.0
 10
23.14036414106173
 20
-5.54667173575217
 30
0.0
 10
24.317920351427
 20
-6.035165840427263
 30
0.0
 10
25.49795118550711
 20
-6.317032480136067
 30
0.0
 10
26.6761373388372
 20
-6.378161963097734
 30
0.0
 10
27.83876355584704
 20
-6.237479808823694
 30
0.0
 10
28.60998586204363
 20
-5.969127202778321
 30
0.0
 10
28.98865613189705
 20
-5.837366032321238
 30
0.0
  0
SPLINE
  5
C4
330
1F
100
AcDbEntity
  8
외형선
  6
Continuous
 62
     1
370
    15
100
AcDbSpline
210
0.0
220
0.0
230
1.0
 70
     8
 71
     3
 72
    24
 73
    20
 74
     0
 42
0.000000001
 43
0.00000001
 40
0.0
 40
0.0
 40
0.0
 40
0.0
 40
0.0170658947382606
 40
0.0784355322319708
 40
0.1398721432746025
 40
0.2013849794775153
 40
0.2627713838508042
 40
0.3241608480308185
 40
0.3856769080977884
 40
0.4471078147718948
 40
0.5084778534423994
 40
0.569934085174239
 40
0.6314327320725075
 40
0.6928111559368325
 40
0.7542119210305229
 40
0.8157341064944219
 40
0.8771486876762429
 40
0.9385216555455003
 40
0.9999999999999999
 40
0.9999999999999999
 40
0.9999999999999999
 40
0.9999999999999999
 10
46.38189869821593
 20
6.329162401297949
 30
0.0
 10
46.49103415709323
 20
6.335591476742782
 30
0.0
 10
46.99262507475147
 20
6.365139763662914
 30
0.0
 10
47.88599554596387
 20
6.198465080774776
 30
0.0
 10
49.06445266324457
 20
5.828152904288342
 30
0.0
 10
50.24435176155675
 20
5.241816342618342
 30
0.0
 10
51.42178903341455
 20
4.479023885132223
 30
0.0
 10
52.59927952490038
 20
3.561028903507514
 30
0.0
 10
53.77926121378692
 20
2.522761901131092
 30
0.0
 10
54.95754207952606
 20
1.396589909313935
 30
0.0
 10
56.13464643492317
 20
0.2220697543037795
 30
0.0
 10
57.31342478449521
 20
-0.959247429419862
 30
0.0
 10
58.49305581862533
 20
-2.106875201822082
 30
0.0
 10
59.67033197035287
 20
-3.183755902133176
 30
0.0
 10
60.84804006262844
 20
-4.150690706393179
 30
0.0
 10
62.02814369822516
 20
-4.974840267126528
 30
0.0
 10
63.20611292866715
 20
-5.625224217287119
 30
0.0
 10
64.38327846161026
 20
-6.097779286347398
 30
0.0
 10
65.16920144353115
 20
-6.234278247477262
 30
0.0
 10
65.56250000000001
 20
-6.302586269518641
 30
0.0
  0
SPLINE
  5
C5
330
1F
100
AcDbEntity
  8
외형선
  6
Continuous
370
    15
100
AcDbSpline
210
0.0
220
0.0
230
1.0
 70
    24
 71
     3
 72
     9
 73
     5
 74
     0
 42
0.000000001
 43
0.00000001
 40
0.0
 40
0.0
 40
0.0
 40
0.0
 40
0.8692344236981926
 40
1.0
 40
1.0
 40
1.0
 40
1.0
 10
9.99999999999996
 20
6.151158148949058
 30
0.0
 10
10.00000000000003
 20
5.950465938214307
 30
0.0
 10
10.00000000000008
 20
5.719582064700764
 30
0.0
 10
9.999999999999993
 20
5.506949584088535
 30
0.0
 10
10.00000000000001
 20
5.479144575220796
 30
0.0
  0
SPLINE
  5
C6
330
1F
100
AcDbEntity
  8
외형선
  6
Continuous
 62
     1
370
    15
100
AcDbSpline
210
0.0
220
0.0
230
1.0
 70
     8
 71
     3
 72
    22
 73
    18
 74
     0
 42
0.000000001
 43
0.00000001
 40
0.0
 40
0.0
 40
0.0
 40
0.0
 40
0.0709296957815475
 40
0.1417378149461525
 40
0.2125939448310695
 40
0.2835742215039369
 40
0.3544144112893473
 40
0.4252288252244744
 40
0.496181944638732
 40
0.5670861282060972
 40
0.6378908678526277
 40
0.7087658330235557
 40
0.7797390426137836
 40
0.8505661941435895
 40
0.9213898154683795
 40
0.9923593055749617
 40
1.0
 40
1.0
 40
1.0
 40
1.0
 10
65.56249999999999
 20
-3.813904690850896
 30
0.0
 10
65.16920144353459
 20
-3.487192461491041
 30
0.0
 10
64.38327846162066
 20
-2.834328001896123
 30
0.0
 10
63.20611292862543
 20
-1.721214087438307
 30
0.0
 10
62.0281436983817
 20
-0.558503959854984
 30
0.0
 10
60.84804006204309
 20
0.6241725434879267
 30
0.0
 10
59.67033197253215
 20
1.786693625372449
 30
0.0
 10
58.49305581048804
 20
2.888114418207651
 30
0.0
 10
57.3134248149216
 20
3.888915383392396
 30
0.0
 10
56.13464632153198
 20
4.756976240987218
 30
0.0
 10
54.95754250223207
 20
5.462078216233387
 30
0.0
 10
53.77925963348313
 20
5.979647755645619
 30
0.0
 10
52.59928542646284
 20
6.290177627746729
 30
0.0
 10
51.42176706045868
 20
6.390598456389069
 30
0.0
 10
50.24443383792232
 20
6.251150954485104
 30
0.0
 10
49.4151157882173
 20
6.055482663667297
 30
0.0
 10
48.97950017881151
 20
5.853091898837974
 30
0.0
 10
48.93715953582642
 20
5.833420071355002
 30
0.0
  0
SPLINE
  5
C7
330
1F
100
AcDbEntity
  8
외형선
  6
Continuous
 62
     1
370
    15
100
AcDbSpline
210
0.0
220
0.0
230
1.0
 70
     8
 71
     3
 72
    26
 73
    22
 74
     0
 42
0.000000001
 43
0.00000001
 40
0.0
 40
0.0
 40
0.0
 40
0.0
 40
0.0072864114478864
 40
0.0619260085582568
 40
0.1166692710159118
 40
0.1713859278692212
 40
0.2260204289350675
 40
0.2807036793213358
 40
0.3354699114096766
 40
0.3901240718788171
 40
0.4447700605974753
 40
0.4995276828211545
 40
0.5542261677244964
 40
0.6088595973773676
 40
0.6635589029203169
 40
0.7183159608790205
 40
0.7746226412519074
 40
0.830928736078219
 40
0.887334280926402
 40
0.9437042531157342
 40
1.0
 40
1.0
 40
1.0
 40
1.0
 10
31.54574107190332
 20
-6.336323578662567
 30
0.0
 10
31.49342187016816
 20
-6.340385731648227
 30
0.0
 10
31.04876960785972
 20
-6.374909299573826
 30
0.0
 10
30.21173582368001
 20
-6.231256265429567
 30
0.0
 10
29.03214373704424
 20
-5.895099828411286
 30
0.0
 10
27.8532516458315
 20
-5.335165039665396
 30
0.0
 10
26.67612804962175
 20
-4.597124419401158
 30
0.0
 10
25.49795367985983
 20
-3.699733010117535
 30
0.0
 10
24.31791968416198
 20
-2.677059820500582
 30
0.0
 10
23.14036431965861
 20
-1.560634929479929
 30
0.0
 10
21.96298621977481
 20
-0.3904720274589678
 30
0.0
 10
20.78314707283997
 20
0.7913375259962709
 30
0.0
 10
19.6046377790132
 20
1.947158253677333
 30
0.0
 10
18.42754853754105
 20
3.036664609441707
 30
0.0
 10
17.24900850228157
 20
4.021307815251167
 30
0.0
 10
16.05729092507261
 20
4.875843503430387
 30
0.0
 10
14.85598432387511
 20
5.566748936470004
 30
0.0
 10
13.64279915982739
 20
6.062450578210243
 30
0.0
 10
12.42737161933805
 20
6.332581114788749
 30
0.0
 10
11.21278696156024
 20
6.388328681968967
 30
0.0
 10
10.4040847268072
 20
6.230180263367886
 30
0.0
 10
9.999999999999952
 20
6.151158148949058
 30
0.0
  0
LINE
  5
C8
330
1F
100
AcDbEntity
  8
외형선
  6
Continuous
 62
     1
370
    15
100
AcDbLine
 10
65.56249999999999
 20
-2.487606649943748
 30
0.0
 11
65.56249999999999
 21
2.48975650739167
 31
0.0
  0
SPLINE
  5
C9
330
1F
100
AcDbEntity
  8
외형선
  6
Continuous
 62
     1
370
    15
100
AcDbSpline
210
0.0
220
0.0
230
1.0
 70
     8
 71
     3
 72
    27
 73
    23
 74
     0
 42
0.000000001
 43
0.00000001
 40
0.0
 40
0.0
 40
0.0
 40
0.0
 40
0.0226579819552225
 40
0.0765634353871868
 40
0.1304694494006259
 40
0.1828919100058146
 40
0.2352590805013312
 40
0.287563183761662
 40
0.3399295686059951
 40
0.3923525694184098
 40
0.4446686962818336
 40
0.4969926464886528
 40
0.5494238900794033
 40
0.6017756899386951
 40
0.6540808189317184
 40
0.706464600954914
 40
0.7588738542378455
 40
0.8111838620027244
 40
0.863518124535416
 40
0.9159529321090096
 40
0.9682914961837624
 40
1.0
 40
1.0
 40
1.0
 40
1.0
 10
13.13300961830802
 20
6.322802176055786
 30
0.0
 10
13.30310076319459
 20
6.329593153242895
 30
0.0
 10
13.8778546140535
 20
6.35254049886743
 30
0.0
 10
14.85596160534178
 20
6.147329389303136
 30
0.0
 10
16.0572968265091
 20
5.724566340286678
 30
0.0
 10
17.24900694149441
 20
5.091886863292249
 30
0.0
 10
18.42754895487926
 20
4.29382842326312
 30
0.0
 10
19.60463766750637
 20
3.346856590034045
 30
0.0
 10
20.78314710125172
 20
2.285661782401543
 30
0.0
 10
21.96298621784919
 20
1.147086821155232
 30
0.0
 10
23.14036429905417
 20
-0.0325786277707188
 30
0.0
 10
24.31791976860502
 20
-1.211036592658804
 30
0.0
 10
25.4979533621913
 20
-2.346016833855442
 30
0.0
 10
26.6761292331857
 20
-3.401920256069412
 30
0.0
 10
27.85324722994512
 20
-4.341152901559469
 30
0.0
 10
29.03216024892469
 20
-5.130497182284762
 30
0.0
 10
30.21167421942437
 20
-5.743675680281735
 30
0.0
 10
31.38891224933587
 20
-6.15965647301983
 30
0.0
 10
32.56669107742957
 20
-6.36606469438369
 30
0.0
 10
33.7468352175139
 20
-6.3451354075665
 30
0.0
 10
34.77015968850409
 20
-6.165906241155538
 30
0.0
 10
35.4003502140555
 20
-5.912541758701975
 30
0.0
 10
35.63810269234921
 20
-5.816954739899634
 30
0.0
  0
SPLINE
  5
CA
330
1F
100
AcDbEntity
  8
외형선
  6
Continuous
 62
     1
370
    15
100
AcDbSpline
210
0.0
220
0.0
230
1.0
 70
     8
 71
     3
 72
    18
 73
    14
 74
     0
 42
0.000000001
 43
0.00000001
 40
0.0
 40
0.0
 40
0.0
 40
0.0
 40
0.0597594874592479
 40
0.1537813921189854
 40
0.2477101364146437
 40
0.3417708018593446
 40
0.4358963850295035
 40
0.5298379631239223
 40
0.6238137351616034
 40
0.7179753448352498
 40
0.8119722628235823
 40
0.9059054903486242
 40
0.9999999999999999
 40
0.9999999999999999
 40
0.9999999999999999
 40
0.9999999999999999
 10
53.03013605864804
 20
6.32571337949118
 30
0.0
 10
53.27996584529537
 20
6.327199617941205
 30
0.0
 10
53.92286246333639
 20
6.331024212622036
 30
0.0
 10
54.95755776815014
 20
6.090493721751788
 30
0.0
 10
56.13464222643708
 20
5.640688300652745
 30
0.0
 10
57.31342591376369
 20
4.988525288356263
 30
0.0
 10
58.49305551661411
 20
4.168156512961423
 30
0.0
 10
59.67033205123725
 20
3.202821524302708
 30
0.0
 10
60.84804004090368
 20
2.127778508437362
 30
0.0
 10
62.02814370403791
 20
0.9810791251759611
 30
0.0
 10
63.20611292711946
 20
-0.1993205071883246
 30
0.0
 10
64.38327846199786
 20
-1.379201695825337
 30
0.0
 10
65.16920144366043
 20
-2.117927116246468
 30
0.0
 10
65.56250000000001
 20
-2.487606649943749
 30
0.0
  0
SPLINE
  5
CB
330
1F
100
AcDbEntity
  8
외형선
  6
Continuous
 62
     1
370
    15
100
AcDbSpline
210
0.0
220
0.0
230
1.0
 70
     8
 71
     3
 72
    16
 73
    12
 74
     0
 42
0.000000001
 43
0.00000001
 40
0.0
 40
0.0
 40
0.0
 40
0.0
 40
0.118219608589317
 40
0.2362365835720719
 40
0.3543335787565328
 40
0.4726374912908765
 40
0.5907079188677399
 40
0.7087353854407814
 40
0.8269940345569216
 40
0.9451711215487376
 40
0.9999999999999999
 40
0.9999999999999999
 40
0.9999999999999999
 40
0.9999999999999999
 10
65.56249999999999
 20
2.489756507391671
 30
0.0
 10
65.16920144455888
 20
2.842904435884146
 30
0.0
 10
64.38327846469176
 20
3.548594981793765
 30
0.0
 10
63.20611291636207
 20
4.463773499057912
 30
0.0
 10
62.02814374444098
 20
5.231397101701923
 30
0.0
 10
60.8480398898999
 20
5.817151533648053
 30
0.0
 10
59.67033261344693
 20
6.203779762548757
 30
0.0
 10
58.49305341739978
 20
6.379985148176136
 30
0.0
 10
57.31343376306553
 20
6.325991905006349
 30
0.0
 10
56.34474533637706
 20
6.137456324133873
 30
0.0
 10
55.76987729310064
 20
5.894952063705789
 30
0.0
 10
55.58769068473951
 20
5.818097854749051
 30
0.0
  0
SPLINE
  5
CC
330
1F
100
AcDbEntity
  8
외형선
  6
Continuous
 62
     1
370
    15
100
AcDbSpline
210
0.0
220
0.0
230
1.0
 70
     8
 71
     3
 72
    27
 73
    23
 74
     0
 42
0.000000001
 43
0.00000001
 40
0.0
 40
0.0
 40
0.0
 40
0.0
 40
0.0406734302670836
 40
0.0930704414871592
 40
0.1453728402416794
 40
0.1977054905733654
 40
0.2501343735293244
 40
0.3024627228049808
 40
0.3547668200533756
 40
0.4071701516060554
 40
0.4595480147770004
 40
0.5118472338047919
 40
0.564193118425505
 40
0.6166184378013146
 40
0.6689364759162908
 40
0.7212466915718323
 40
0.7736637691006597
 40
0.8260242370584523
 40
0.8783224304694495
 40
0.9306836839896565
 40
0.9831002213722947
 40
1.0
 40
1.0
 40
1.0
 40
1.0
 10
38.19703990392304
 20
-6.329960846445348
 30
0.0
 10
37.89181984872509
 20
-6.324840341066784
 30
0.0
 10
37.19340407455821
 20
-6.313123412027582
 30
0.0
 10
36.10186856636157
 20
-6.037470541200339
 30
0.0
 10
34.92470108697173
 20
-5.557473049481946
 30
0.0
 10
33.7468119667932
 20
-4.879573588577091
 30
0.0
 10
32.56669729903794
 20
-4.037244650890333
 30
0.0
 10
31.38891058458224
 20
-3.054415934643586
 30
0.0
 10
30.21167466633302
 20
-1.966493363357724
 30
0.0
 10
29.0321601292295
 20
-0.8124294921837111
 30
0.0
 10
27.85324726161898
 20
0.3700453942075334
 30
0.0
 10
26.67612922595239
 20
1.540776862224139
 30
0.0
 10
25.49795335943669
 20
2.658240595964825
 30
0.0
 10
24.31791978688879
 20
3.683133646602385
 30
0.0
 10
23.14036422885008
 20
4.58326511298139
 30
0.0
 10
21.96298648062611
 20
5.325756247893172
 30
0.0
 10
20.78314611860963
 20
5.884776026638412
 30
0.0
 10
19.60464132832146
 20
6.241355051048878
 30
0.0
 10
18.42753530323065
 20
6.387534512641599
 30
0.0
 10
17.24905798344685
 20
6.299600957667109
 30
0.0
 10
16.33504126498009
 20
6.106606456576267
 30
0.0
 10
15.81522836528775
 20
5.876286481744494
 30
0.0
 10
15.68849452485522
 20
5.820132940814609
 30
0.0
  0
LINE
  5
CD
330
1F
100
AcDbEntity
  8
외형선
  6
Continuous
 62
     1
370
    15
100
AcDbLine
 10
65.56249999999999
 20
2.48975650739167
 30
0.0
 11
65.56249999999999
 21
3.816054548298734
 31
0.0
  0
LINE
  5
CE
330
1F
100
AcDbEntity
  8
외형선
  6
Continuous
 62
     1
370
    15
100
AcDbLine
 10
65.56249999999999
 20
-3.813904690850896
 30
0.0
 11
65.56249999999999
 21
-2.487606649943748
 31
0.0
  0
LINE
  5
CF
330
1F
100
AcDbEntity
  8
외형선
  6
Continuous
 62
     1
370
    15
100
AcDbLine
 10
65.56249999999999
 20
6.304736126966447
 30
0.0
 11
65.56249999999999
 21
6.351074928723903
 31
0.0
  0
LINE
  5
D0
330
1F
100
AcDbEntity
  8
외형선
  6
Continuous
370
    15
100
AcDbLine
 10
9.99999999999996
 20
-1.704940645029749
 30
0.0
 11
9.999999999999979
 21
-0.1909183161509671
 31
0.0
  0
LINE
  5
D1
330
1F
100
AcDbEntity
  8
외형선
  6
Continuous
370
    15
100
AcDbLine
 10
9.99999999999996
 20
-6.149008291501267
 30
0.0
 11
9.999999999999972
 21
-5.59166881773531
 31
0.0
  0
LINE
  5
D2
330
1F
100
AcDbEntity
  8
외형선
  6
Continuous
 62
     1
370
    15
100
AcDbLine
 10
65.56249999999999
 20
-6.3489250712761
 30
0.0
 11
65.56249999999999
 21
-6.302586269518641
 31
0.0
  0
LINE
  5
D3
330
1F
100
AcDbEntity
  8
외형선
  6
Continuous
370
    15
100
AcDbLine
 10
9.99999999999996
 20
4.445142575195395
 30
0.0
 11
9.999999999999979
 21
5.40182543030829
 31
0.0
  0
SPLINE
  5
D4
330
1F
100
AcDbEntity
  8
외형선
  6
Continuous
370
    15
100
AcDbSpline
210
0.0
220
0.0
230
1.0
 70
    24
 71
     3
 72
    16
 73
    12
 74
     0
 42
0.000000001
 43
0.00000001
 40
0.0
 40
0.0
 40
0.0
 40
0.0
 40
0.0171969466879173
 40
0.1534464871701964
 40
0.2896960276524734
 40
0.4259455681347505
 40
0.562195108617029
 40
0.6984446490993018
 40
0.8346941895814912
 40
0.9709437300638618
 40
1.0
 40
1.0
 40
1.0
 40
1.0
 10
9.999999999999986
 20
-0.2030887425891537
 30
0.0
 10
9.999999999999993
 20
-0.2043173995707381
 30
0.0
 10
9.999999999999938
 20
-0.2152805723468515
 30
0.0
 10
9.999999999999986
 20
0.0222775402192479
 30
0.0
 10
9.999999999999979
 20
0.5215048957235777
 30
0.0
 10
10.00000000000004
 20
1.247847320498021
 30
0.0
 10
9.999999999999986
 20
2.087259129659687
 30
0.0
 10
10.00000000000004
 20
2.954371275429778
 30
0.0
 10
9.999999999999902
 20
3.746506462912648
 30
0.0
 10
10.00000000000007
 20
4.217377522282284
 30
0.0
 10
9.999999999999972
 20
4.411092708846033
 30
0.0
 10
9.999999999999966
 20
4.445142575195408
 30
0.0
  0
SPLINE
  5
D5
330
1F
100
AcDbEntity
  8
외형선
  6
Continuous
370
    15
100
AcDbSpline
210
0.0
220
0.0
230
1.0
 70
     8
 71
     3
 72
     8
 73
     4
 74
     0
 42
0.000000001
 43
0.00000001
 40
0.0
 40
0.0
 40
0.0
 40
0.0
 40
1.0
 40
1.0
 40
1.0
 40
1.0
 10
9.999999999999986
 20
-0.1909183161509944
 30
0.0
 10
9.665441182491877
 20
0.1426015684347184
 30
0.0
 10
9.330873368271337
 20
0.4769103205141557
 30
0.0
 10
9.000092299947198
 20
0.8066380561598632
 30
0.0
  0
SPLINE
  5
D6
330
1F
100
AcDbEntity
  8
외형선
  6
Continuous
370
    15
100
AcDbSpline
210
0.0
220
0.0
230
1.0
 70
     8
 71
     3
 72
     8
 73
     4
 74
     0
 42
0.000000001
 43
0.00000001
 40
0.0
 40
0.0
 40
0.0
 40
0.0
 40
1.0
 40
1.0
 40
1.0
 40
1.0
 10
9.999999999999993
 20
4.445142575195383
 30
0.0
 10
9.665441182491877
 20
4.683480368798002
 30
0.0
 10
9.33087336827118
 20
4.903320865281213
 30
0.0
 10
9.000092299947191
 20
5.10134613971408
 30
0.0
  0
LINE
  5
D7
330
1F
100
AcDbEntity
  8
외형선
  6
Continuous
370
    15
100
AcDbLine
 10
9.999999999999993
 20
6.151158148949063
 30
0.0
 11
9.053712314692019
 21
5.844600150198074
 31
0.0
  0
LINE
  5
D8
330
1F
100
AcDbEntity
  8
외형선
  6
Continuous
370
    15
100
AcDbLine
 10
9.000092299947205
 20
5.858681292315016
 30
0.0
 11
9.000092299947205
 21
6.351074928723902
 31
0.0
  0
SPLINE
  5
D9
330
1F
100
AcDbEntity
  8
외형선
  6
Continuous
370
    15
100
AcDbSpline
210
0.0
220
0.0
230
1.0
 70
     8
 71
     3
 72
     8
 73
     4
 74
     0
 42
0.000000001
 43
0.00000001
 40
0.0
 40
0.0
 40
0.0
 40
0.0
 40
1.0
 40
1.0
 40
1.0
 40
1.0
 10
9.999999999999986
 20
5.401825430308271
 30
0.0
 10
9.665441182491877
 20
5.577322389707853
 30
0.0
 10
9.330873368271337
 20
5.730343508640391
 30
0.0
 10
9.000092299947198
 20
5.858687015545872
 30
0.0
  0
LINE
  5
DA
330
1F
100
AcDbEntity
  8
외형선
  6
Continuous
370
    15
100
AcDbLine
 10
9.000092299947205
 20
0.8066233526270123
 30
0.0
 11
9.000092299947205
 21
5.10135164259366
 31
0.0
  0
SPLINE
  5
DB
330
1F
100
AcDbEntity
  8
외형선
  6
Continuous
370
    15
100
AcDbSpline
210
0.0
220
0.0
230
1.0
 70
     8
 71
     3
 72
     8
 73
     4
 74
     0
 42
0.000000001
 43
0.00000001
 40
0.0
 40
0.0
 40
0.0
 40
0.0
 40
1.0
 40
1.0
 40
1.0
 40
1.0
 10
9.999999999999993
 20
-1.704940645029766
 30
0.0
 10
9.665441182491877
 20
-1.383536012924454
 30
0.0
 10
9.33087336827118
 20
-1.055042842472316
 30
0.0
 10
9.000092299947191
 20
-0.7248084188333859
 30
0.0
  0
SPLINE
  5
DC
330
1F
100
AcDbEntity
  8
외형선
  6
Continuous
370
    15
100
AcDbSpline
210
0.0
220
0.0
230
1.0
 70
     8
 71
     3
 72
     8
 73
     4
 74
     0
 42
0.000000001
 43
0.00000001
 40
0.0
 40
0.0
 40
0.0
 40
0.0
 40
1.0
 40
1.0
 40
1.0
 40
1.0
 10
9.999999999999986
 20
-5.591668817735322
 30
0.0
 10
9.665441182491877
 20
-5.433645892549191
 30
0.0
 10
9.330873368271337
 20
-5.252358259402306
 30
0.0
 10
9.000092299947198
 20
-5.050974030662067
 30
0.0
  0
SPLINE
  5
DD
330
1F
100
AcDbEntity
  8
외형선
  6
Continuous
370
    15
100
AcDbSpline
210
0.0
220
0.0
230
1.0
 70
     8
 71
     3
 72
     8
 73
     4
 74
     0
 42
0.000000001
 43
0.00000001
 40
0.0
 40
0.0
 40
0.0
 40
0.0
 40
1.0
 40
1.0
 40
1.0
 40
1.0
 10
9.999999999999993
 20
-6.14900829150127
 30
0.0
 10
9.665441182491877
 20
-6.065941452998578
 30
0.0
 10
9.33087336827118
 20
-5.957288779029663
 30
0.0
 10
9.000092299947191
 20
-5.825079629823587
 30
0.0
  0
LINE
  5
DE
330
1F
100
AcDbEntity
  8
외형선
  6
Continuous
370
    15
100
AcDbLine
 10
9.000092299947205
 20
-6.348925071276098
 30
0.0
 11
9.000092299947205
 21
-5.825075955883663
 31
0.0
  0
LINE
  5
DF
330
1F
100
AcDbEntity
  8
외형선
  6
Continuous
370
    15
100
AcDbLine
 10
9.000092299947198
 20
-5.856537158098051
 30
0.0
 11
9.040377927067318
 21
-5.838130503696431
 31
0.0
  0
LINE
  5
E0
330
1F
100
AcDbEntity
  8
외형선
  6
Continuous
370
    15
100
AcDbLine
 10
-44.29250000000001
 20
0.0010749287239018
 30
0.0
 11
-44.29250000000001
 21
6.351074928723908
 31
0.0
  0
LINE
  5
E1
330
1F
100
AcDbEntity
  8
외형선
  6
Continuous
370
    15
100
AcDbLine
 10
-44.29250000000001
 20
-6.348925071276112
 30
0.0
 11
-44.29250000000001
 21
0.0010749287239018
 31
0.0
  0
LINE
  5
E2
330
1F
100
AcDbEntity
  8
외형선
  6
Continuous
370
    15
100
AcDbLine
 10
9.000092299947205
 20
-5.050983010964061
 30
0.0
 11
9.000092299947205
 21
-0.7247992420138816
 31
0.0
  0
LINE
  5
E3
330
1F
100
AcDbEntity
  8
외형선
  6
Continuous
370
    15
100
AcDbLine
 10
-45.56250000000001
 20
0.0010749287239018
 30
0.0
 11
-45.56250000000001
 21
5.081074928723907
 31
0.0
  0
LINE
  5
E4
330
1F
100
AcDbEntity
  8
외형선
  6
Continuous
370
    15
100
AcDbLine
 10
-45.56250000000001
 20
-5.078925071276103
 30
0.0
 11
-45.56250000000001
 21
0.0010749287239018
 31
0.0
  0
SPLINE
  5
E5
330
1F
100
AcDbEntity
  8
외형선
  6
Continuous
370
    15
100
AcDbSpline
210
0.0
220
0.0
230
1.0
 70
    24
 71
     3
 72
    14
 73
    10
 74
     0
 42
0.000000001
 43
0.00000001
 40
0.0
 40
0.0
 40
0.0
 40
0.0
 40
0.135087983546209
 40
0.2840571126249692
 40
0.4330262417037271
 40
0.581995370782485
 40
0.7309644998612446
 40
0.8799336289399978
 40
1.0
 40
1.0
 40
1.0
 40
1.0
 10
9.999999999999986
 20
-5.591668817735322
 30
0.0
 10
9.999999999999993
 20
-5.378086483291985
 30
0.0
 10
9.999999999999972
 20
-4.92897487738129
 30
0.0
 10
9.999999999999979
 20
-4.097081662880885
 30
0.0
 10
9.999999999999986
 20
-3.237068099453385
 30
0.0
 10
10.00000000000003
 20
-2.453516953397815
 30
0.0
 10
9.999999999999972
 20
-1.849795798151352
 30
0.0
 10
10.00000000000003
 20
-1.478569890851624
 30
0.0
 10
9.999999999999986
 20
-1.457524448854372
 30
0.0
 10
9.999999999999972
 20
-1.448132194498867
 30
0.0
  0
SPLINE
  5
E6
330
1F
100
AcDbEntity
  8
외형선
  6
Continuous
370
    15
100
AcDbSpline
210
0.0
220
0.0
230
1.0
 70
    24
 71
     3
 72
    10
 73
     6
 74
     0
 42
0.000000001
 43
0.00000001
 40
0.0
 40
0.0
 40
0.0
 40
0.0
 40
0.1033639796934697
 40
0.7352379570961595
 40
1.0
 40
1.0
 40
1.0
 40
1.0
 10
9.999999999999972
 20
5.479144575220796
 30
0.0
 10
9.999999999999979
 20
5.501076244906002
 30
0.0
 10
9.999999999999966
 20
5.657078326703516
 30
0.0
 10
10.00000000000004
 20
5.8863434752427
 30
0.0
 10
9.999999999999986
 20
6.090788774983002
 30
0.0
 10
9.99999999999996
 20
6.151158148949068
 30
0.0
  0
LINE
  5
E7
330
1F
100
AcDbEntity
  8
중심선
 62
     1
100
AcDbLine
 10
-48.5625
 20
0.0010749287238931
 30
0.0
 11
68.5625
 21
0.0010749287239031
 31
0.0
  0
LINE
  5
E8
330
1F
100
AcDbEntity
  8
참조1
100
AcDbLine
 10
10.0
 20
0.0010749287238892
 30
0.0
 11
10.00000000000001
 21
-39.99892507127611
 31
0.0
  0
LINE
  5
E9
330
1F
100
AcDbEntity
  8
참조1
100
AcDbLine
 10
10.00000000000001
 20
-39.99892507127611
 30
0.0
 11
-11.50885681430868
 21
-39.9989250712761
 31
0.0
  0
CIRCLE
  5
EA
330
1F
100
AcDbEntity
  8
해칭선
100
AcDbCircle
 10
0.0
 20
0.0
 30
0.0
 40
3.000000000000002
  0
INSERT
  5
EB
330
1F
100
AcDbEntity
  8
0
  6
Continuous
 62
     7
100
AcDbBlockReference
 66
     1
  2
블럭10
 10
-3.940272932125205
 20
-52.04609937292004
 30
0.0
  0
ATTRIB
  5
EC
330
EB
100
AcDbEntity
  8
FORMAT
 62
     2
100
AcDbText
 10
-14.08190894426184
 20
-49.97073246008785
 30
0.0
 40
4.233333333333333
  1
EM218032 [ 6 FLUTE ]
 41
0.75
  7
SLDTEXTSTYLE0
 11
-14.08190894426184
 21
-52.08739912675452
 31
0.0
100
AcDbAttribute
  2
AUTOATTR0
 70
     0
 74
     1
  0
SEQEND
  5
ED
330
EB
100
AcDbEntity
  8
0
  6
Continuous
 62
     7
  0
HATCH
  5
EE
330
1F
100
AcDbEntity
  8
중심선
100
AcDbHatch
 10
0.0
 20
0.0
 30
0.0
210
0.0
220
0.0
230
1.0
  2
SOLID
 70
     1
 71
     0
 91
        1
 92
        0
 93
        4
 72
     1
 10
1.774636372255644
 20
-35.7989250712761
 11
-1.671638871581638
 21
-35.7989250712761
 72
     1
 10
-1.671638871581638
 20
-35.7989250712761
 11
-3.79986873078566
 21
-38.3352506518487
 72
     1
 10
-3.799868730785661
 20
-38.3352506518487
 11
-0.3535604018352294
 21
-38.33521122254621
 72
     1
 10
-0.3535604018352294
 20
-38.33521122254621
 11
1.774636372255644
 21
-35.7989250712761
 97
        0
 75
     0
 76
     1
 98
        1
 10
1.587499999999997
 20
0.0
  0
HATCH
  5
EF
330
1F
100
AcDbEntity
  8
중심선
100
AcDbHatch
 10
0.0
 20
0.0
 30
0.0
210
0.0
220
0.0
230
1.0
  2
SOLID
 70
     1
 71
     0
 91
        1
 92
        0
 93
        4
 72
     1
 10
6.787400363291596
 20
-35.7989250712761
 11
3.341125119454313
 21
-35.7989250712761
 72
     1
 10
3.341125119454313
 20
-35.7989250712761
 11
-1.190012888903075
 21
-41.19892507127612
 72
     1
 10
-1.190012888903075
 20
-41.19892507127612
 11
2.256262354934207
 21
-41.19892507127612
 72
     1
 10
2.256262354934207
 20
-41.19892507127612
 11
6.787400363291596
 21
-35.7989250712761
 97
        0
 75
     0
 76
     1
 98
        1
 10
1.587499999999997
 20
0.0
  0
HATCH
  5
F0
330
1F
100
AcDbEntity
  8
중심선
100
AcDbHatch
 10
0.0
 20
0.0
 30
0.0
210
0.0
220
0.0
230
1.0
  2
SOLID
 70
     1
 71
     0
 91
        1
 92
        0
 93
        4
 72
     1
 10
11.80016435432749
 20
-35.7989250712761
 11
8.353889110490375
 21
-35.79892507127613
 72
     1
 10
8.353889110490375
 20
-35.79892507127613
 11
1.305452208601126
 21
-44.19892507127612
 72
     1
 10
1.305452208601126
 20
-44.19892507127612
 11
4.751727452438408
 21
-44.19892507127612
 72
     1
 10
4.751727452438408
 20
-44.19892507127612
 11
11.80016435432749
 21
-35.7989250712761
 97
        0
 75
     0
 76
     1
 98
        1
 10
1.587499999999997
 20
0.0
  0
HATCH
  5
F1
330
1F
100
AcDbEntity
  8
중심선
100
AcDbHatch
 10
0.0
 20
0.0
 30
0.0
210
0.0
220
0.0
230
1.0
  2
SOLID
 70
     1
 71
     0
 91
        1
 92
        0
 93
        6
 72
     3
 10
16.60005478533969
 20
-39.99892507132738
 11
3.960054785062287
 21
1.540882976769353E-10
 40
0.3939339440162625
 50
17.09539180608438
 51
320.0019657685082
 73
     0
 72
     1
 10
18.28305444104026
 20
-38.58681907591443
 11
20.58835631474132
 21
-36.65249236586649
 72
     3
 10
16.60005478528684
 20
-39.99892507127625
 11
6.600054785286829
 21
-1.278976924368180E-13
 40
0.636358354079598
 50
39.99873849337408
 51
368.4976242363724
 73
     1
 72
     1
 10
23.02538727718746
 20
-39.03892507120613
 11
15.28012209212277
 21
-39.03892507120613
 72
     1
 10
15.28012209212277
 20
-39.03892507120613
 11
15.28009704767683
 21
-40.95892507120602
 72
     1
 10
15.28009704767683
 20
-40.95892507120602
 11
19.72147681714887
 21
-40.95892507120599
 97
        0
 75
     0
 76
     1
 98
        1
 10
1.587499999999997
 20
0.0
  0
DIMENSION
  5
F2
330
1F
100
AcDbEntity
  8
치수문자_일반주서
100
AcDbDimension
  2
_D
 10
84.80845140193802
 20
-6.348925071276028
 30
0.0
 11
84.8084514019379
 21
26.29882492872397
 31
0.0
 70
   160
  1
%%c<>
 71
     2
 42
12.70000000000001
 52
-270.0
  3
SLDDIMSTYLE1
100
AcDbAlignedDimension
 13
65.56249999999999
 23
6.351074928723905
 33
0.0
 14
65.56249999999999
 24
-6.348925071276101
 34
0.0
 50
90.0000000000002
100
AcDbRotatedDimension
1001
PE_URL
1000

1001
ACAD
1000
DSTYLE
1002
{
1070
   171
1070
     6
1070
   273
1070
     7
1002
}
1001
ACAD_DSTYLE_DIMFLIPARROW_SYMBOL
1070
   385
1070
     0
1001
ACAD_DSTYLE_DIMFLIPARROW_WHICH_SYMBOL
1070
   386
1070
     3
  0
DIMENSION
  5
107
330
1F
100
AcDbEntity
  8
치수문자_일반주서
100
AcDbDimension
  2
_D_1
 10
-59.19750000000001
 20
-6.348925071276148
 30
0.0
 11
-59.19750000000003
 21
0.0010749287238966
 31
0.0
 70
   160
  1
%%c<>
 71
     2
 42
12.69999999999999
 52
-270.0
  3
SLDDIMSTYLE1
100
AcDbAlignedDimension
 13
-44.29250000000002
 23
6.351074928723897
 33
0.0
 14
-44.29250000000002
 24
-6.348925071276093
 34
0.0
 50
90.0000000000002
100
AcDbRotatedDimension
1001
ACAD
1000
DSTYLE
1002
{
1070
   171
1070
     6
1070
   273
1070
     7
1002
}
1001
ACAD_DSTYLE_DIMFLIPARROW_SYMBOL
1070
   385
1070
     0
1001
ACAD_DSTYLE_DIMFLIPARROW_WHICH_SYMBOL
1070
   386
1070
     3
  0
DIMENSION
  5
11C
330
1F
100
AcDbEntity
  8
치수문자_일반주서
100
AcDbDimension
  2
_D_2
 10
9.999999999999957
 20
28.60554735856159
 30
0.0
 11
37.78124999999998
 21
28.60554735856159
 31
0.0
 70
   160
  1
<>
 71
     2
 42
55.56250000000003
  3
SLDDIMSTYLE1
100
AcDbAlignedDimension
 13
65.56249999999999
 23
6.304736126966447
 33
0.0
 14
9.99999999999996
 24
6.151158148949068
 34
0.0
100
AcDbRotatedDimension
1001
PE_URL
1000

1001
ACAD
1000
DSTYLE
1002
{
1070
   171
1070
     6
1070
   273
1070
     7
1002
}
  0
DIMENSION
  5
130
330
1F
100
AcDbEntity
  8
치수문자_일반주서
100
AcDbDimension
  2
_D_3
 10
-45.56250000000001
 20
48.90635859015673
 30
0.0
 11
9.999999999999986
 21
48.90635859015673
 31
0.0
 70
   160
  1
<>
 71
     2
 42
111.125
  3
SLDDIMSTYLE1
100
AcDbAlignedDimension
 13
65.56249999999999
 23
6.304736126966447
 33
0.0
 14
-45.56250000000001
 24
5.081074928723907
 34
0.0
100
AcDbRotatedDimension
1001
PE_URL
1000

1001
ACAD
1000
DSTYLE
1002
{
1070
   171
1070
     6
1070
   273
1070
     7
1002
}
  0
LINE
  5
143
330
1F
100
AcDbEntity
  8
참조1
100
AcDbLine
 10
86.46348381534558
 20
7.441074928723896
 30
0.0
 11
86.46348381534558
 21
-7.438925071276109
 31
0.0
  0
LINE
  5
144
330
1F
100
AcDbEntity
  8
참조1
100
AcDbLine
 10
99.16348381534559
 20
5.441074928723896
 30
0.0
 11
86.46348381534558
 21
5.441074928723896
 31
0.0
  0
SOLID
  5
145
330
1F
100
AcDbEntity
  8
참조1
100
AcDbTrace
 10
86.46348381534558
 20
5.441074928723896
 30
0.0
 11
92.81348381534558
 21
4.425074928723896
 31
0.0
 12
92.81348381534558
 22
6.457074928723896
 32
0.0
 13
92.81348381534558
 23
6.457074928723896
 33
0.0
  0
LINE
  5
146
330
1F
100
AcDbEntity
  8
참조1
100
AcDbLine
 10
99.16348381534559
 20
-5.438925071276109
 30
0.0
 11
86.46348381534558
 21
-5.438925071276109
 31
0.0
  0
SOLID
  5
147
330
1F
100
AcDbEntity
  8
참조1
100
AcDbTrace
 10
86.46348381534558
 20
-5.438925071276109
 30
0.0
 11
92.81348381534558
 21
-6.454925071276109
 31
0.0
 12
92.81348381534558
 22
-4.422925071276109
 32
0.0
 13
92.81348381534558
 23
-4.422925071276109
 33
0.0
  0
MTEXT
  5
148
330
1F
100
AcDbEntity
  8
참조1
100
AcDbMText
 10
95.86097390781585
 20
10.98929157337383
 30
0.0
 40
3.5
 41
0.0
 71
     1
 72
     1
  1
A
  7
SLDTEXTSTYLE0
 73
     1
 44
1.0
  0
MTEXT
  5
149
330
1F
100
AcDbEntity
  8
참조1
100
AcDbMText
 10
95.86097390781585
 20
0.1092915733738259
 30
0.0
 40
3.5
 41
0.0
 71
     1
 72
     1
  1
A
  7
SLDTEXTSTYLE0
 73
     1
 44
1.0
  0
INSERT
  5
150
330
1F
100
AcDbEntity
  8
해칭선
100
AcDbBlockReference
  2
SW_DOWELSYMBOL_0
 10
0.0
 20
0.0
 30
0.0
  0
ENDSEC
  0
SECTION
  2
OBJECTS
  0
DICTIONARY
  5
C
330
0
100
AcDbDictionary
281
     1
  3
ACAD_GROUP
350
D
  3
ACAD_LAYOUT
350
1A
  3
ACAD_MLINESTYLE
350
17
  3
ACAD_PLOTSETTINGS
350
19
  3
ACAD_PLOTSTYLENAME
350
E
  3
ACAD_SCALELIST
350
47
  3
APPDATA
350
172
  3
DWGPROPS
350
19F
  0
DICTIONARY
  5
19D
330
1F
100
AcDbDictionary
280
     1
281
     1
  3
DIM_BOUNDING_BOXES_V1
360
19E
  0
DICTIONARY
  5
D
102
{ACAD_REACTORS
330
C
102
}
330
C
100
AcDbDictionary
281
     1
  0
DICTIONARY
  5
1A
102
{ACAD_REACTORS
330
C
102
}
330
C
100
AcDbDictionary
281
     1
  3
Layout1
350
1E
  3
Layout2
350
26
  3
Model
350
22
  0
DICTIONARY
  5
17
102
{ACAD_REACTORS
330
C
102
}
330
C
100
AcDbDictionary
281
     1
  3
Standard
350
18
  0
DICTIONARY
  5
19
102
{ACAD_REACTORS
330
C
102
}
330
C
100
AcDbDictionary
281
     1
  0
ACDBDICTIONARYWDFLT
  5
E
102
{ACAD_REACTORS
330
C
102
}
330
C
100
AcDbDictionary
281
     1
  3
Normal
350
F
100
AcDbDictionaryWithDefault
340
F
  0
DICTIONARY
  5
47
102
{ACAD_REACTORS
330
C
102
}
330
C
100
AcDbDictionary
281
     1
  3
A0
350
48
  3
A1
350
49
  3
A2
350
4A
  3
A3
350
4B
  3
A4
350
4C
  3
A5
350
4D
  3
A6
350
4E
  3
A7
350
4F
  3
A8
350
50
  3
A9
350
51
  3
B0
350
52
  3
B1
350
53
  3
B2
350
54
  3
B3
350
55
  3
B4
350
56
  3
B5
350
57
  3
B6
350
58
  3
B7
350
59
  3
B8
350
5A
  3
B9
350
5B
  3
C0
350
5C
  3
C1
350
5D
  3
C2
350
5E
  3
C3
350
5F
  3
C4
350
60
  3
C5
350
61
  3
C6
350
62
  3
C7
350
63
  3
C8
350
64
  3
C9
350
65
  3
D0
350
66
  3
D1
350
67
  3
D2
350
68
  0
DICTIONARY
  5
172
102
{ACAD_REACTORS
330
C
102
}
330
C
100
AcDbDictionary
281
     1
  0
XRECORD
  5
19F
102
{ACAD_REACTORS
330
C
102
}
330
C
100
AcDbXrecord
280
     1
  1
DWGPROPS COOKIE
  2

  3

  4

  6

  7

  8
12017165
  9

300
=
301
=
302
=
303
=
304
=
305
=
306
=
307
=
308
=
309
=
 40
0.0
 41
2458292.271866667
 42
2459697.019325972
  1

 90
        0
  0
DICTIONARY
  5
19E
102
{ACAD_REACTORS
330
19D
102
}
330
19D
100
AcDbDictionary
281
     1
  0
LAYOUT
  5
1E
102
{ACAD_REACTORS
330
1A
102
}
330
1A
100
AcDbPlotSettings
  1

  2
none_device
  4

  6

 40
0.0
 41
0.0
 42
0.0
 43
0.0
 44
0.0
 45
0.0
 46
0.0
 47
0.0
 48
0.0
 49
0.0
140
0.0
141
0.0
142
1.0
143
1.0
 70
   688
 72
     1
 73
     0
 74
     5
  7

 75
    16
147
1.0
148
0.0
149
0.0
100
AcDbLayout
  1
Layout1
 70
     1
 71
     1
 10
0.0
 20
0.0
 11
420.0
 21
297.0
 12
0.0
 22
0.0
 32
0.0
 14
1.000000000000000E+20
 24
1.000000000000000E+20
 34
1.000000000000000E+20
 15
-1.000000000000000E+20
 25
-1.000000000000000E+20
 35
-1.000000000000000E+20
146
0.0
 13
0.0
 23
0.0
 33
0.0
 16
1.0
 26
0.0
 36
0.0
 17
0.0
 27
1.0
 37
0.0
 76
     0
330
1B
  0
LAYOUT
  5
26
102
{ACAD_REACTORS
330
1A
102
}
330
1A
100
AcDbPlotSettings
  1

  2
none_device
  4

  6

 40
0.0
 41
0.0
 42
0.0
 43
0.0
 44
0.0
 45
0.0
 46
0.0
 47
0.0
 48
0.0
 49
0.0
140
0.0
141
0.0
142
1.0
143
1.0
 70
   688
 72
     1
 73
     0
 74
     5
  7

 75
    16
147
1.0
148
0.0
149
0.0
100
AcDbLayout
  1
Layout2
 70
     1
 71
     2
 10
0.0
 20
0.0
 11
0.0
 21
0.0
 12
0.0
 22
0.0
 32
0.0
 14
0.0
 24
0.0
 34
0.0
 15
0.0
 25
0.0
 35
0.0
146
0.0
 13
0.0
 23
0.0
 33
0.0
 16
1.0
 26
0.0
 36
0.0
 17
0.0
 27
1.0
 37
0.0
 76
     0
330
23
  0
LAYOUT
  5
22
102
{ACAD_REACTORS
330
1A
102
}
330
1A
100
AcDbPlotSettings
  1

  2
none_device
  4
ANSI_A_(11.00_x_8.50_Inches)
  6

 40
6.35
 41
19.05
 42
6.35000508
 43
19.05000254
 44
279.4
 45
215.9
 46
110.7105230253895
 47
81.64088606198332
 48
0.0
 49
0.0
140
0.0
141
0.0
142
0.063618564837369
143
1.0
 70
  1696
 72
     0
 73
     0
 74
     0
  7

 75
     0
147
0.0235690232323232
148
0.0
149
0.0
100
AcDbLayout
  1
Model
 70
     1
 71
     0
 10
0.0
 20
0.0
 11
420.0
 21
297.0
 12
0.0
 22
0.0
 32
0.0
 14
-63.57250000000008
 24
-49.97073246008785
 34
0.0
 15
99.16348381534559
 25
53.28135859015672
 35
0.0
146
0.0
 13
0.0
 23
0.0
 33
0.0
 16
1.0
 26
0.0
 36
0.0
 17
0.0
 27
1.0
 37
0.0
 76
     0
330
1F
331
29
  0
MLINESTYLE
  5
18
102
{ACAD_REACTORS
330
17
102
}
330
17
100
AcDbMlineStyle
  2
Standard
 70
     0
  3

 62
   256
 51
90.0
 52
90.0
 71
     2
 49
0.5
 62
   256
  6
BYLAYER
 49
-0.5
 62
   256
  6
BYLAYER
  0
ACDBPLACEHOLDER
  5
F
102
{ACAD_REACTORS
330
E
102
}
330
E
  0
SCALE
  5
48
102
{ACAD_REACTORS
330
47
102
}
330
47
100
AcDbScale
 70
     0
300
1:1
140
1.0
141
1.0
290
     1
  0
SCALE
  5
49
102
{ACAD_REACTORS
330
47
102
}
330
47
100
AcDbScale
 70
     0
300
1:2
140
1.0
141
2.0
290
     0
  0
SCALE
  5
4A
102
{ACAD_REACTORS
330
47
102
}
330
47
100
AcDbScale
 70
     0
300
1:4
140
1.0
141
4.0
290
     0
  0
SCALE
  5
4B
102
{ACAD_REACTORS
330
47
102
}
330
47
100
AcDbScale
 70
     0
300
1:5
140
1.0
141
5.0
290
     0
  0
SCALE
  5
4C
102
{ACAD_REACTORS
330
47
102
}
330
47
100
AcDbScale
 70
     0
300
1:8
140
1.0
141
8.0
290
     0
  0
SCALE
  5
4D
102
{ACAD_REACTORS
330
47
102
}
330
47
100
AcDbScale
 70
     0
300
1:10
140
1.0
141
10.0
290
     0
  0
SCALE
  5
4E
102
{ACAD_REACTORS
330
47
102
}
330
47
100
AcDbScale
 70
     0
300
1:16
140
1.0
141
16.0
290
     0
  0
SCALE
  5
4F
102
{ACAD_REACTORS
330
47
102
}
330
47
100
AcDbScale
 70
     0
300
1:20
140
1.0
141
20.0
290
     0
  0
SCALE
  5
50
102
{ACAD_REACTORS
330
47
102
}
330
47
100
AcDbScale
 70
     0
300
1:30
140
1.0
141
30.0
290
     0
  0
SCALE
  5
51
102
{ACAD_REACTORS
330
47
102
}
330
47
100
AcDbScale
 70
     0
300
1:40
140
1.0
141
40.0
290
     0
  0
SCALE
  5
52
102
{ACAD_REACTORS
330
47
102
}
330
47
100
AcDbScale
 70
     0
300
1:50
140
1.0
141
50.0
290
     0
  0
SCALE
  5
53
102
{ACAD_REACTORS
330
47
102
}
330
47
100
AcDbScale
 70
     0
300
1:100
140
1.0
141
100.0
290
     0
  0
SCALE
  5
54
102
{ACAD_REACTORS
330
47
102
}
330
47
100
AcDbScale
 70
     0
300
2:1
140
2.0
141
1.0
290
     0
  0
SCALE
  5
55
102
{ACAD_REACTORS
330
47
102
}
330
47
100
AcDbScale
 70
     0
300
4:1
140
4.0
141
1.0
290
     0
  0
SCALE
  5
56
102
{ACAD_REACTORS
330
47
102
}
330
47
100
AcDbScale
 70
     0
300
8:1
140
8.0
141
1.0
290
     0
  0
SCALE
  5
57
102
{ACAD_REACTORS
330
47
102
}
330
47
100
AcDbScale
 70
     0
300
10:1
140
10.0
141
1.0
290
     0
  0
SCALE
  5
58
102
{ACAD_REACTORS
330
47
102
}
330
47
100
AcDbScale
 70
     0
300
100:1
140
100.0
141
1.0
290
     0
  0
SCALE
  5
59
102
{ACAD_REACTORS
330
47
102
}
330
47
100
AcDbScale
 70
     0
300
1/128" = 1'-0"
140
0.0078125
141
12.0
290
     0
  0
SCALE
  5
5A
102
{ACAD_REACTORS
330
47
102
}
330
47
100
AcDbScale
 70
     0
300
1/64" = 1'-0"
140
0.015625
141
12.0
290
     0
  0
SCALE
  5
5B
102
{ACAD_REACTORS
330
47
102
}
330
47
100
AcDbScale
 70
     0
300
1/32" = 1'-0"
140
0.03125
141
12.0
290
     0
  0
SCALE
  5
5C
102
{ACAD_REACTORS
330
47
102
}
330
47
100
AcDbScale
 70
     0
300
1/16" = 1'-0"
140
0.0625
141
12.0
290
     0
  0
SCALE
  5
5D
102
{ACAD_REACTORS
330
47
102
}
330
47
100
AcDbScale
 70
     0
300
3/32" = 1'-0"
140
0.09375
141
12.0
290
     0
  0
SCALE
  5
5E
102
{ACAD_REACTORS
330
47
102
}
330
47
100
AcDbScale
 70
     0
300
1/8" = 1'-0"
140
0.125
141
12.0
290
     0
  0
SCALE
  5
5F
102
{ACAD_REACTORS
330
47
102
}
330
47
100
AcDbScale
 70
     0
300
3/16" = 1'-0"
140
0.1875
141
12.0
290
     0
  0
SCALE
  5
60
102
{ACAD_REACTORS
330
47
102
}
330
47
100
AcDbScale
 70
     0
300
1/4" = 1'-0"
140
0.25
141
12.0
290
     0
  0
SCALE
  5
61
102
{ACAD_REACTORS
330
47
102
}
330
47
100
AcDbScale
 70
     0
300
3/8" = 1'-0"
140
0.375
141
12.0
290
     0
  0
SCALE
  5
62
102
{ACAD_REACTORS
330
47
102
}
330
47
100
AcDbScale
 70
     0
300
1/2" = 1'-0"
140
0.5
141
12.0
290
     0
  0
SCALE
  5
63
102
{ACAD_REACTORS
330
47
102
}
330
47
100
AcDbScale
 70
     0
300
3/4" = 1'-0"
140
0.75
141
12.0
290
     0
  0
SCALE
  5
64
102
{ACAD_REACTORS
330
47
102
}
330
47
100
AcDbScale
 70
     0
300
1" = 1'-0"
140
1.0
141
12.0
290
     0
  0
SCALE
  5
65
102
{ACAD_REACTORS
330
47
102
}
330
47
100
AcDbScale
 70
     0
300
1-1/2" = 1'-0"
140
1.5
141
12.0
290
     0
  0
SCALE
  5
66
102
{ACAD_REACTORS
330
47
102
}
330
47
100
AcDbScale
 70
     0
300
3" = 1'-0"
140
3.0
141
12.0
290
     0
  0
SCALE
  5
67
102
{ACAD_REACTORS
330
47
102
}
330
47
100
AcDbScale
 70
     0
300
6" = 1'-0"
140
6.0
141
12.0
290
     0
  0
SCALE
  5
68
102
{ACAD_REACTORS
330
47
102
}
330
47
100
AcDbScale
 70
     0
300
1'-0" = 1'-0"
140
12.0
141
12.0
290
     0
  0
ENDSEC
  0
EOF
