  0
SECTION
  2
HEADER
  9
$ACADVER
  1
AC1015
  9
$ACADMAINTVER
 70
     6
  9
$DWGCODEPAGE
  3
ANSI_949
  9
$INSBASE
 10
0.0
 20
0.0
 30
0.0
  9
$EXTMIN
 10
-69.19250000000011
 20
-49.97180738881175
 30
0.0
  9
$EXTMAX
 10
94.79890031333687
 20
54.85619896099346
 30
0.0
  9
$LIMMIN
 10
0.0
 20
0.0
  9
$LIMMAX
 10
420.0
 20
297.0
  9
$ORTHOMODE
 70
     1
  9
$REGENMODE
 70
     1
  9
$FILLMODE
 70
     1
  9
$QTEXTMODE
 70
     0
  9
$MIRRTEXT
 70
     1
  9
$LTSCALE
 40
1.0
  9
$ATTMODE
 70
     1
  9
$TEXTSIZE
 40
3.5
  9
$TRACEWID
 40
1.0
  9
$TEXTSTYLE
  7
Standard
  9
$CLAYER
  8
0
  9
$CELTYPE
  6
ByLayer
  9
$CECOLOR
 62
   256
  9
$CELTSCALE
 40
1.0
  9
$DISPSILH
 70
     0
  9
$DIMSCALE
 40
1.0
  9
$DIMASZ
 40
3.302
  9
$DIMEXO
 40
1.0
  9
$DIMDLI
 40
3.75
  9
$DIMRND
 40
0.0
  9
$DIMDLE
 40
0.0
  9
$DIMEXE
 40
1.0
  9
$DIMTP
 40
0.0
  9
$DIMTM
 40
0.0
  9
$DIMTXT
 40
3.5
  9
$DIMCEN
 40
2.5
  9
$DIMTSZ
 40
0.0
  9
$DIMTOL
 70
     0
  9
$DIMLIM
 70
     0
  9
$DIMTIH
 70
     1
  9
$DIMTOH
 70
     1
  9
$DIMSE1
 70
     0
  9
$DIMSE2
 70
     0
  9
$DIMTAD
 70
     1
  9
$DIMZIN
 70
     0
  9
$DIMBLK
  1

  9
$DIMASO
 70
     1
  9
$DIMSHO
 70
     1
  9
$DIMPOST
  1

  9
$DIMAPOST
  1

  9
$DIMALT
 70
     0
  9
$DIMALTD
 70
     3
  9
$DIMALTF
 40
0.0393700787401575
  9
$DIMLFAC
 40
1.0
  9
$DIMTOFL
 70
     1
  9
$DIMTVP
 40
0.0
  9
$DIMTIX
 70
     0
  9
$DIMSOXD
 70
     0
  9
$DIMSAH
 70
     0
  9
$DIMBLK1
  1

  9
$DIMBLK2
  1

  9
$DIMSTYLE
  2
ISO-25
  9
$DIMCLRD
 70
     0
  9
$DIMCLRE
 70
     0
  9
$DIMCLRT
 70
     0
  9
$DIMTFAC
 40
1.0
  9
$DIMGAP
 40
1.524
  9
$DIMJUST
 70
     0
  9
$DIMSD1
 70
     0
  9
$DIMSD2
 70
     0
  9
$DIMTOLJ
 70
     0
  9
$DIMTZIN
 70
     0
  9
$DIMALTZ
 70
     0
  9
$DIMALTTZ
 70
     0
  9
$DIMUPT
 70
     0
  9
$DIMDEC
 70
     2
  9
$DIMTDEC
 70
     2
  9
$DIMALTU
 70
     2
  9
$DIMALTTD
 70
     3
  9
$DIMTXSTY
  7
Standard
  9
$DIMAUNIT
 70
     0
  9
$DIMADEC
 70
     2
  9
$DIMALTRND
 40
0.0
  9
$DIMAZIN
 70
     0
  9
$DIMDSEP
 70
    44
  9
$DIMATFIT
 70
     3
  9
$DIMFRAC
 70
     0
  9
$DIMLDRBLK
  1

  9
$DIMLUNIT
 70
     2
  9
$DIMLWD
 70
    -2
  9
$DIMLWE
 70
    -2
  9
$DIMTMOVE
 70
     0
  9
$LUNITS
 70
     2
  9
$LUPREC
 70
     2
  9
$SKETCHINC
 40
1.0
  9
$FILLETRAD
 40
10.0
  9
$AUNITS
 70
     0
  9
$AUPREC
 70
     2
  9
$MENU
  1
.
  9
$ELEVATION
 40
0.0
  9
$PELEVATION
 40
0.0
  9
$THICKNESS
 40
0.0
  9
$LIMCHECK
 70
     0
  9
$CHAMFERA
 40
0.0
  9
$CHAMFERB
 40
0.0
  9
$CHAMFERC
 40
0.0
  9
$CHAMFERD
 40
0.0
  9
$SKPOLY
 70
     0
  9
$TDCREATE
 40
2458292.64705588
  9
$TDUCREATE
 40
2458292.27205588
  9
$TDUPDATE
 40
2459697.394544387
  9
$TDUUPDATE
 40
2459697.019544387
  9
$TDINDWG
 40
0.0014939583
  9
$TDUSRTIMER
 40
0.0002160417
  9
$USRTIMER
 70
     1
  9
$ANGBASE
 50
0.0
  9
$ANGDIR
 70
     0
  9
$PDMODE
 70
     0
  9
$PDSIZE
 40
-1.0
  9
$PLINEWID
 40
0.0
  9
$SPLFRAME
 70
     0
  9
$SPLINETYPE
 70
     6
  9
$SPLINESEGS
 70
     8
  9
$HANDSEED
  5
19F
  9
$SURFTAB1
 70
     6
  9
$SURFTAB2
 70
     6
  9
$SURFTYPE
 70
     6
  9
$SURFU
 70
     6
  9
$SURFV
 70
     6
  9
$UCSBASE
  2

  9
$UCSNAME
  2

  9
$UCSORG
 10
0.0
 20
0.0
 30
0.0
  9
$UCSXDIR
 10
1.0
 20
0.0
 30
0.0
  9
$UCSYDIR
 10
0.0
 20
1.0
 30
0.0
  9
$UCSORTHOREF
  2

  9
$UCSORTHOVIEW
 70
     0
  9
$UCSORGTOP
 10
0.0
 20
0.0
 30
0.0
  9
$UCSORGBOTTOM
 10
0.0
 20
0.0
 30
0.0
  9
$UCSORGLEFT
 10
0.0
 20
0.0
 30
0.0
  9
$UCSORGRIGHT
 10
0.0
 20
0.0
 30
0.0
  9
$UCSORGFRONT
 10
0.0
 20
0.0
 30
0.0
  9
$UCSORGBACK
 10
0.0
 20
0.0
 30
0.0
  9
$PUCSBASE
  2

  9
$PUCSNAME
  2

  9
$PUCSORG
 10
0.0
 20
0.0
 30
0.0
  9
$PUCSXDIR
 10
1.0
 20
0.0
 30
0.0
  9
$PUCSYDIR
 10
0.0
 20
1.0
 30
0.0
  9
$PUCSORTHOREF
  2

  9
$PUCSORTHOVIEW
 70
     0
  9
$PUCSORGTOP
 10
0.0
 20
0.0
 30
0.0
  9
$PUCSORGBOTTOM
 10
0.0
 20
0.0
 30
0.0
  9
$PUCSORGLEFT
 10
0.0
 20
0.0
 30
0.0
  9
$PUCSORGRIGHT
 10
0.0
 20
0.0
 30
0.0
  9
$PUCSORGFRONT
 10
0.0
 20
0.0
 30
0.0
  9
$PUCSORGBACK
 10
0.0
 20
0.0
 30
0.0
  9
$USERI1
 70
     0
  9
$USERI2
 70
     0
  9
$USERI3
 70
     0
  9
$USERI4
 70
     0
  9
$USERI5
 70
     0
  9
$USERR1
 40
0.0
  9
$USERR2
 40
0.0
  9
$USERR3
 40
0.0
  9
$USERR4
 40
0.0
  9
$USERR5
 40
0.0
  9
$WORLDVIEW
 70
     1
  9
$SHADEDGE
 70
     3
  9
$SHADEDIF
 70
    70
  9
$TILEMODE
 70
     1
  9
$MAXACTVP
 70
    64
  9
$PINSBASE
 10
0.0
 20
0.0
 30
0.0
  9
$PLIMCHECK
 70
     0
  9
$PEXTMIN
 10
1.000000000000000E+20
 20
1.000000000000000E+20
 30
1.000000000000000E+20
  9
$PEXTMAX
 10
-1.000000000000000E+20
 20
-1.000000000000000E+20
 30
-1.000000000000000E+20
  9
$PLIMMIN
 10
0.0
 20
0.0
  9
$PLIMMAX
 10
0.0
 20
0.0
  9
$UNITMODE
 70
     0
  9
$VISRETAIN
 70
     1
  9
$PLINEGEN
 70
     0
  9
$PSLTSCALE
 70
     1
  9
$TREEDEPTH
 70
  3020
  9
$CMLSTYLE
  2
Standard
  9
$CMLJUST
 70
     0
  9
$CMLSCALE
 40
20.0
  9
$PROXYGRAPHICS
 70
     1
  9
$MEASUREMENT
 70
     1
  9
$CELWEIGHT
370
    -1
  9
$ENDCAPS
280
     0
  9
$JOINSTYLE
280
     0
  9
$LWDISPLAY
290
     1
  9
$INSUNITS
 70
     4
  9
$HYPERLINKBASE
  1

  9
$STYLESHEET
  1

  9
$XEDIT
290
     1
  9
$CEPSNTYPE
380
     0
  9
$PSTYLEMODE
290
     1
  9
$FINGERPRINTGUID
  2
{36E9F85B-9938-45A2-A99C-D3A50DC23448}
  9
$VERSIONGUID
  2
{FAEB1C32-E019-11D5-929B-00C0DF256EC4}
  9
$EXTNAMES
290
     1
  9
$PSVPSCALE
 40
0.0
  9
$OLESTARTUP
290
     0
  0
ENDSEC
  0
SECTION
  2
CLASSES
  0
CLASS
  1
ACDBDICTIONARYWDFLT
  2
AcDbDictionaryWithDefault
  3
ObjectDBX Classes
 90
        0
280
     0
281
     0
  0
CLASS
  1
VISUALSTYLE
  2
AcDbVisualStyle
  3
ObjectDBX Classes
 90
     4095
280
     0
281
     0
  0
CLASS
  1
MATERIAL
  2
AcDbMaterial
  3
ObjectDBX Classes
 90
     1153
280
     0
281
     0
  0
CLASS
  1
SCALE
  2
AcDbScale
  3
ObjectDBX Classes
 90
     1153
280
     0
281
     0
  0
CLASS
  1
SUN
  2
AcDbSun
  3
SCENEOE
 90
     1153
280
     0
281
     0
  0
CLASS
  1
ACDBPLACEHOLDER
  2
AcDbPlaceHolder
  3
ObjectDBX Classes
 90
        0
280
     0
281
     0
  0
CLASS
  1
LAYOUT
  2
AcDbLayout
  3
ObjectDBX Classes
 90
        0
280
     0
281
     0
  0
CLASS
  1
TABLESTYLE
  2
AcDbTableStyle
  3
ObjectDBX Classes
 90
     4095
280
     0
281
     0
  0
CLASS
  1
MLEADERSTYLE
  2
AcDbMLeaderStyle
  3
ACDB_MLEADERSTYLE_CLASS
 90
     4095
280
     0
281
     0
  0
ENDSEC
  0
SECTION
  2
TABLES
  0
TABLE
  2
VPORT
  5
8
330
0
100
AcDbSymbolTable
 70
     1
  0
VPORT
  5
29
330
8
100
AcDbSymbolTableRecord
100
AcDbViewportTableRecord
  2
*Active
 70
     0
 10
0.0
 20
0.0
 11
1.0
 21
1.0
 12
12.80320015666838
 22
2.442195786090863
 13
0.0
 23
0.0
 14
10.0
 24
10.0
 15
10.0
 25
10.0
 16
0.0
 26
0.0
 36
1.0
 17
0.0
 27
0.0
 37
0.0
 40
106.9245664768013
 41
2.008253094910592
 42
50.0
 43
0.0
 44
0.0
 50
0.0
 51
0.0
 71
    16
 72
  2000
 73
     1
 74
     3
 75
     0
 76
     0
 77
     0
 78
     0
281
     0
 65
     1
110
0.0
120
0.0
130
0.0
111
1.0
121
0.0
131
0.0
112
0.0
122
1.0
132
0.0
 79
     0
146
0.0
  0
ENDTAB
  0
TABLE
  2
LTYPE
  5
5
330
0
100
AcDbSymbolTable
 70
     6
  0
LTYPE
  5
14
330
5
100
AcDbSymbolTableRecord
100
AcDbLinetypeTableRecord
  2
ByBlock
 70
     0
  3

 72
    65
 73
     0
 40
0.0
  0
LTYPE
  5
15
330
5
100
AcDbSymbolTableRecord
100
AcDbLinetypeTableRecord
  2
ByLayer
 70
     0
  3

 72
    65
 73
     0
 40
0.0
  0
LTYPE
  5
16
330
5
100
AcDbSymbolTableRecord
100
AcDbLinetypeTableRecord
  2
Continuous
 70
     0
  3
Solid line
 72
    65
 73
     0
 40
0.0
  0
LTYPE
  5
6A
330
5
100
AcDbSymbolTableRecord
100
AcDbLinetypeTableRecord
  2
HIDDEN
 70
     0
  3
Hidden __ __ __ __ __ __ __ __ __ __ __ __ __ __
 72
    65
 73
     2
 40
1.905
 49
1.27
 74
     0
 49
-0.635
 74
     0
  0
LTYPE
  5
6B
330
5
100
AcDbSymbolTableRecord
100
AcDbLinetypeTableRecord
  2
PHANTOM
 70
     0
  3
Phantom ______  __  __  ______  __  __  ______
 72
    65
 73
     6
 40
12.7
 49
6.35
 74
     0
 49
-1.27
 74
     0
 49
1.27
 74
     0
 49
-1.27
 74
     0
 49
1.27
 74
     0
 49
-1.27
 74
     0
  0
LTYPE
  5
6C
330
5
100
AcDbSymbolTableRecord
100
AcDbLinetypeTableRecord
  2
CENTER
 70
     0
  3
Center ____ _ ____ _ ____ _ ____ _ ____ _ ____
 72
    65
 73
     4
 40
10.16
 49
6.35
 74
     0
 49
-1.27
 74
     0
 49
1.27
 74
     0
 49
-1.27
 74
     0
  0
LTYPE
  5
6D
330
5
100
AcDbSymbolTableRecord
100
AcDbLinetypeTableRecord
  2
CENTERX2
 70
     0
  3
Center (2x) ________  __  ________  __  _____
 72
    65
 73
     4
 40
20.32
 49
12.7
 74
     0
 49
-2.54
 74
     0
 49
2.54
 74
     0
 49
-2.54
 74
     0
  0
LTYPE
  5
6E
330
5
100
AcDbSymbolTableRecord
100
AcDbLinetypeTableRecord
  2
DOT2
 70
     0
  3
Dot (.5x) ........................................
 72
    65
 73
     2
 40
0.635
 49
0.0
 74
     0
 49
-0.635
 74
     0
  0
ENDTAB
  0
TABLE
  2
LAYER
  5
2
330
0
100
AcDbSymbolTable
 70
    18
  0
LAYER
  5
10
330
2
100
AcDbSymbolTableRecord
100
AcDbLayerTableRecord
  2
0
 70
     0
 62
     7
  6
Continuous
370
    -3
390
F
  0
LAYER
  5
6F
330
2
100
AcDbSymbolTableRecord
100
AcDbLayerTableRecord
  2
FORMAT
 70
     0
 62
     2
  6
Continuous
370
    -3
390
F
  0
LAYER
  5
70
330
2
100
AcDbSymbolTableRecord
100
AcDbLayerTableRecord
  2
외형선
 70
     0
 62
     4
  6
Continuous
370
    30
390
F
  0
LAYER
  5
71
330
2
100
AcDbSymbolTableRecord
100
AcDbLayerTableRecord
  2
숨은선
 70
     0
 62
     2
  6
HIDDEN
370
    15
390
F
  0
LAYER
  5
72
330
2
100
AcDbSymbolTableRecord
100
AcDbLayerTableRecord
  2
중심선
 70
     0
 62
     1
  6
CENTERX2
370
    -3
390
F
  0
LAYER
  5
73
330
2
100
AcDbSymbolTableRecord
100
AcDbLayerTableRecord
  2
파단선
 70
     0
 62
     4
  6
Continuous
370
    -3
390
F
  0
LAYER
  5
74
330
2
100
AcDbSymbolTableRecord
100
AcDbLayerTableRecord
  2
해칭선
 70
     0
 62
   100
  6
Continuous
370
    -3
390
F
  0
LAYER
  5
75
330
2
100
AcDbSymbolTableRecord
100
AcDbLayerTableRecord
  2
가는실선
 70
     0
 62
     4
  6
Continuous
370
    -3
390
F
  0
LAYER
  5
76
330
2
100
AcDbSymbolTableRecord
100
AcDbLayerTableRecord
  2
치수_보조선
 70
     0
 62
     4
  6
Continuous
370
    -3
390
F
  0
LAYER
  5
77
330
2
100
AcDbSymbolTableRecord
100
AcDbLayerTableRecord
  2
치수문자_일반주서
 70
     0
 62
     7
  6
Continuous
370
    15
390
F
  0
LAYER
  5
78
330
2
100
AcDbSymbolTableRecord
100
AcDbLayerTableRecord
  2
개별주서
 70
     0
 62
   100
  6
Continuous
370
    30
390
F
  0
LAYER
  5
79
330
2
100
AcDbSymbolTableRecord
100
AcDbLayerTableRecord
  2
중간선
 70
     0
 62
     2
  6
Continuous
370
    15
390
F
  0
LAYER
  5
7A
330
2
100
AcDbSymbolTableRecord
100
AcDbLayerTableRecord
  2
윤곽선
 70
     0
 62
     3
  6
Continuous
370
    40
390
F
  0
LAYER
  5
7B
330
2
100
AcDbSymbolTableRecord
100
AcDbLayerTableRecord
  2
중심마크
 70
     0
 62
   100
  6
Continuous
370
    30
390
F
  0
LAYER
  5
7C
330
2
100
AcDbSymbolTableRecord
100
AcDbLayerTableRecord
  2
가상선
 70
     0
 62
     4
  6
PHANTOM
370
    -3
390
F
  0
LAYER
  5
7D
330
2
100
AcDbSymbolTableRecord
100
AcDbLayerTableRecord
  2
특수지정선
 70
     0
 62
     5
  6
CENTERX2
370
    60
390
F
  0
LAYER
  5
7E
330
2
100
AcDbSymbolTableRecord
100
AcDbLayerTableRecord
  2
참조1
 70
     0
 62
    -4
  6
Continuous
370
    -3
390
F
  0
LAYER
  5
171
330
2
100
AcDbSymbolTableRecord
100
AcDbLayerTableRecord
  2
Defpoints
 70
     0
 62
     7
  6
Continuous
290
     0
370
    -3
390
F
  0
ENDTAB
  0
TABLE
  2
STYLE
  5
3
330
0
100
AcDbSymbolTable
 70
     2
  0
STYLE
  5
11
330
3
100
AcDbSymbolTableRecord
100
AcDbTextStyleTableRecord
  2
Standard
 70
     0
 40
0.0
 41
1.0
 50
0.0
 71
     0
 42
3.5
  3
txt
  4

  0
STYLE
  5
94
330
3
100
AcDbSymbolTableRecord
100
AcDbTextStyleTableRecord
  2
SLDTEXTSTYLE0
 70
     0
 40
0.0
 41
0.75
 50
0.0
 71
     0
 42
3.5
  3
TXT
  4

  0
ENDTAB
  0
TABLE
  2
VIEW
  5
6
330
0
100
AcDbSymbolTable
 70
     0
  0
ENDTAB
  0
TABLE
  2
UCS
  5
7
330
0
100
AcDbSymbolTable
 70
     0
  0
ENDTAB
  0
TABLE
  2
APPID
  5
9
330
0
100
AcDbSymbolTable
 70
     4
  0
APPID
  5
12
330
9
100
AcDbSymbolTableRecord
100
AcDbRegAppTableRecord
  2
ACAD
 70
     0
  0
APPID
  5
173
330
9
100
AcDbSymbolTableRecord
100
AcDbRegAppTableRecord
  2
PE_URL
 70
     0
  0
APPID
  5
179
330
9
100
AcDbSymbolTableRecord
100
AcDbRegAppTableRecord
  2
ACAD_DSTYLE_DIMFLIPARROW_SYMBOL
 70
     0
  0
APPID
  5
17A
330
9
100
AcDbSymbolTableRecord
100
AcDbRegAppTableRecord
  2
ACAD_DSTYLE_DIMFLIPARROW_WHICH_SYMBOL
 70
     0
  0
ENDTAB
  0
TABLE
  2
DIMSTYLE
  5
A
330
0
100
AcDbSymbolTable
 70
     3
100
AcDbDimStyleTable
  0
DIMSTYLE
105
27
330
A
100
AcDbSymbolTableRecord
100
AcDbDimStyleTableRecord
  2
ISO-25
 70
     0
 41
2.5
 42
0.625
 43
3.75
 44
1.25
 73
     0
 74
     0
 77
     1
 78
     8
140
2.5
141
2.5
143
0.03937007874016
147
0.625
171
     3
172
     1
178
     0
271
     2
272
     2
274
     3
278
    44
283
     0
284
     8
340
11
  0
DIMSTYLE
105
F2
102
{ACAD_REACTORS
330
F1
330
106
330
11A
330
12E
102
}
330
A
100
AcDbSymbolTableRecord
100
AcDbDimStyleTableRecord
  2
SLDDIMSTYLE0
 70
     0
 41
3.302
 44
0.0
 45
0.000000001
 73
     0
 74
     0
 77
     1
 78
    12
 79
     3
140
3.5
143
0.0393700787401575
147
0.875
148
0.000000001
170
     1
172
     1
173
     1
178
     0
271
     2
272
     2
276
     2
284
    12
289
     0
340
94
  0
DIMSTYLE
105
11B
330
A
100
AcDbSymbolTableRecord
100
AcDbDimStyleTableRecord
  2
SLDDIMSTYLE1
 70
     0
 41
3.302
 44
0.0
 45
0.000000001
 73
     0
 74
     0
 77
     1
 78
    12
 79
     3
140
3.5
143
0.0393700787401575
147
0.875
148
0.000000001
170
     1
173
     1
178
     0
271
     2
272
     2
276
     2
284
    12
340
94
  0
ENDTAB
  0
TABLE
  2
BLOCK_RECORD
  5
1
330
0
100
AcDbSymbolTable
 70
     7
  0
BLOCK_RECORD
  5
1F
102
{ACAD_XDICTIONARY
360
19C
102
}
330
1
100
AcDbSymbolTableRecord
100
AcDbBlockTableRecord
  2
*Model_Space
340
22
  0
BLOCK_RECORD
  5
1B
330
1
100
AcDbSymbolTableRecord
100
AcDbBlockTableRecord
  2
*Paper_Space
340
1E
  0
BLOCK_RECORD
  5
23
330
1
100
AcDbSymbolTableRecord
100
AcDbBlockTableRecord
  2
*Paper_Space0
340
26
  0
BLOCK_RECORD
  5
7F
330
1
100
AcDbSymbolTableRecord
100
AcDbBlockTableRecord
  2
블럭10
340
0
102
{BLKREFS
331
EA
102
}
  0
BLOCK_RECORD
  5
F3
330
1
100
AcDbSymbolTableRecord
100
AcDbBlockTableRecord
  2
_D
340
0
  0
BLOCK_RECORD
  5
107
330
1
100
AcDbSymbolTableRecord
100
AcDbBlockTableRecord
  2
_D_1
340
0
  0
BLOCK_RECORD
  5
11C
330
1
100
AcDbSymbolTableRecord
100
AcDbBlockTableRecord
  2
_D_2
340
0
  0
BLOCK_RECORD
  5
12F
330
1
100
AcDbSymbolTableRecord
100
AcDbBlockTableRecord
  2
_D_3
340
0
  0
BLOCK_RECORD
  5
148
330
1
100
AcDbSymbolTableRecord
100
AcDbBlockTableRecord
  2
SW_DOWELSYMBOL_0
340
0
102
{BLKREFS
331
14E
102
}
  0
ENDTAB
  0
ENDSEC
  0
SECTION
  2
BLOCKS
  0
BLOCK
  5
20
330
1F
100
AcDbEntity
  8
0
100
AcDbBlockBegin
  2
*Model_Space
 70
     0
 10
0.0
 20
0.0
 30
0.0
  3
*Model_Space
  1

  0
ENDBLK
  5
21
330
1F
100
AcDbEntity
  8
0
100
AcDbBlockEnd
  0
BLOCK
  5
1C
330
1B
100
AcDbEntity
 67
     1
  8
0
100
AcDbBlockBegin
  2
*Paper_Space
 70
     0
 10
0.0
 20
0.0
 30
0.0
  3
*Paper_Space
  1

  0
ENDBLK
  5
1D
330
1B
100
AcDbEntity
 67
     1
  8
0
100
AcDbBlockEnd
  0
BLOCK
  5
24
330
23
100
AcDbEntity
  8
0
100
AcDbBlockBegin
  2
*Paper_Space0
 70
     0
 10
0.0
 20
0.0
 30
0.0
  3
*Paper_Space0
  1

  0
ENDBLK
  5
25
330
23
100
AcDbEntity
  8
0
100
AcDbBlockEnd
  0
BLOCK
  5
80
330
7F
100
AcDbEntity
  8
0
100
AcDbBlockBegin
  2
블럭10
 70
     2
 10
0.0
 20
0.0
 30
0.0
  3
블럭10
  1

  0
ELLIPSE
  5
82
330
7F
100
AcDbEntity
  8
중심선
100
AcDbEllipse
 10
20.54032771741204
 20
12.0471743016438
 30
0.0
 11
6.600054785286829
 21
-1.261213355974178E-13
 31
0.0
210
0.0
220
0.0
230
1.0
 40
0.636358354079598
 41
0.9219305317359503
 42
6.513795318482858
  0
ELLIPSE
  5
83
330
7F
100
AcDbEntity
  8
중심선
100
AcDbEllipse
 10
20.54032771746488
 20
12.04717430159265
 30
0.0
 11
3.960054785062283
 21
1.540847449632565E-10
 31
0.0
210
0.0
220
0.0
230
1.0
 40
0.3939339440162632
 41
1.131841032648279
 42
5.62031148352944
  0
LINE
  5
84
330
7F
100
AcDbEntity
  8
중심선
100
AcDbLine
 10
2.268634060543552
 20
16.24717430164393
 30
0.0
 11
5.714909304380834
 21
16.24717430164393
 31
0.0
  0
LINE
  5
85
330
7F
100
AcDbEntity
  8
중심선
100
AcDbLine
 10
5.245725140726316
 20
7.84717430164391
 30
0.0
 11
8.692000384563599
 21
7.84717430164391
 31
0.0
  0
LINE
  5
86
330
7F
100
AcDbEntity
  8
중심선
100
AcDbLine
 10
15.74043728645272
 20
16.24717430164393
 30
0.0
 11
8.692000384563599
 21
7.84717430164391
 31
0.0
  0
LINE
  5
87
330
7F
100
AcDbEntity
  8
중심선
100
AcDbLine
 10
0.1404042013395286
 20
13.71084872107135
 30
0.0
 11
3.58671253028996
 21
13.71088815037384
 31
0.0
  0
LINE
  5
88
330
7F
100
AcDbEntity
  8
중심선
100
AcDbLine
 10
2.750260043222114
 20
10.84717430164391
 30
0.0
 11
6.196535287059397
 21
10.84717430164391
 31
0.0
  0
LINE
  5
89
330
7F
100
AcDbEntity
  8
중심선
100
AcDbLine
 10
12.29416204261559
 20
16.24717430164393
 30
0.0
 11
5.245725140726316
 21
7.84717430164391
 31
0.0
  0
LINE
  5
8A
330
7F
100
AcDbEntity
  8
중심선
100
AcDbLine
 10
10.72767329541681
 20
16.24717430164393
 30
0.0
 11
6.196535287059397
 21
10.84717430164391
 31
0.0
  0
LINE
  5
8B
330
7F
100
AcDbEntity
  8
중심선
100
AcDbLine
 10
7.28139805157953
 20
16.24717430164393
 30
0.0
 11
2.750260043222114
 21
10.84717430164391
 31
0.0
  0
LINE
  5
8C
330
7F
100
AcDbEntity
  8
중심선
100
AcDbLine
 10
5.714909304380834
 20
16.24717430164393
 30
0.0
 11
3.58671253028996
 21
13.71088815037384
 31
0.0
  0
LINE
  5
8D
330
7F
100
AcDbEntity
  8
중심선
100
AcDbLine
 10
2.268634060543552
 20
16.24717430164393
 30
0.0
 11
0.1404042013395286
 21
13.71084872107135
 31
0.0
  0
LINE
  5
8E
330
7F
100
AcDbEntity
  8
중심선
100
AcDbLine
 10
7.28139805157953
 20
16.24717430164393
 30
0.0
 11
10.72767329541681
 21
16.24717430164393
 31
0.0
  0
LINE
  5
8F
330
7F
100
AcDbEntity
  8
중심선
100
AcDbLine
 10
12.29416204261559
 20
16.24717430164393
 30
0.0
 11
15.74043728645272
 21
16.24717430164393
 31
0.0
  0
LINE
  5
90
330
7F
100
AcDbEntity
  8
중심선
100
AcDbLine
 10
19.22036997980202
 20
11.08717430171403
 30
0.0
 11
23.66174974927406
 21
11.08717430171406
 31
0.0
  0
LINE
  5
91
330
7F
100
AcDbEntity
  8
중심선
100
AcDbLine
 10
19.22039502424796
 20
13.00717430171391
 30
0.0
 11
19.22036997980202
 21
11.08717430171403
 31
0.0
  0
LINE
  5
92
330
7F
100
AcDbEntity
  8
중심선
100
AcDbLine
 10
19.22039502424796
 20
13.00717430171391
 30
0.0
 11
26.96566020931264
 21
13.00717430171391
 31
0.0
  0
LINE
  5
93
330
7F
100
AcDbEntity
  8
중심선
100
AcDbLine
 10
22.22332737316547
 20
13.45928029700563
 30
0.0
 11
24.52862924686651
 21
15.39360700705356
 31
0.0
  0
ATTDEF
  5
95
330
7F
100
AcDbEntity
  8
FORMAT
 62
     2
100
AcDbText
 10
3.448148490846466
 20
2.075366912832191
 30
0.0
 40
4.233333333333333
  1
EM218040
 41
0.75
  7
SLDTEXTSTYLE0
 11
3.448148490846466
 21
-0.0412997538344756
 31
0.0
100
AcDbAttributeDefinition
  3

  2
AUTOATTR0
 70
     0
 74
     1
  0
ENDBLK
  5
81
330
7F
100
AcDbEntity
  8
0
100
AcDbBlockEnd
  0
BLOCK
  5
F4
330
F3
100
AcDbEntity
  8
0
100
AcDbBlockBegin
  2
_D
 70
     0
 10
0.0
 20
0.0
 30
0.0
  3
_D
  1

  0
LINE
  5
F6
330
F3
100
AcDbEntity
  8
치수문자_일반주서
 62
     0
370
    -2
100
AcDbLine
 10
78.73749999999998
 20
7.942076497803185
 30
0.0
 11
94.2485669800035
 21
7.942076497803242
 31
0.0
  0
LINE
  5
F7
330
F3
100
AcDbEntity
  8
치수문자_일반주서
 62
     0
370
    -2
100
AcDbLine
 10
78.73749999999998
 20
-7.9375
 30
0.0
 11
94.24856698000356
 21
-7.937499999999943
 31
0.0
  0
LINE
  5
F8
330
F3
100
AcDbEntity
  8
치수문자_일반주서
 62
     0
370
    -2
100
AcDbLine
 10
94.2485669800035
 20
7.942076497803242
 30
0.0
 11
94.24856698000337
 21
42.54607649780324
 31
0.0
  0
LINE
  5
F9
330
F3
100
AcDbEntity
  8
치수문자_일반주서
 62
     0
370
    -2
100
AcDbLine
 10
94.24856698000352
 20
4.640076497803243
 30
0.0
 11
94.24856698000355
 21
-4.635499999999944
 31
0.0
  0
LINE
  5
FA
330
F3
100
AcDbEntity
  8
치수문자_일반주서
 62
     0
370
    -2
100
AcDbLine
 10
94.24856698000352
 20
4.640076497803243
 30
0.0
 11
94.24856698000353
 21
1.338076497803243
 31
0.0
  0
SOLID
  5
FB
330
F3
100
AcDbEntity
  8
치수문자_일반주서
 62
     0
100
AcDbTrace
 10
94.79890031333684
 20
4.640076497803244
 30
0.0
 11
93.69823364667019
 21
4.640076497803241
 31
0.0
 12
94.2485669800035
 22
7.942076497803242
 32
0.0
 13
94.2485669800035
 23
7.942076497803242
 33
0.0
  0
SOLID
  5
FC
330
F3
100
AcDbEntity
  8
치수문자_일반주서
 62
     0
100
AcDbTrace
 10
93.69823364667022
 20
-4.635499999999945
 30
0.0
 11
94.79890031333687
 21
-4.635499999999942
 31
0.0
 12
94.24856698000356
 22
-7.937499999999943
 32
0.0
 13
94.24856698000356
 23
-7.937499999999943
 33
0.0
  0
MTEXT
  5
FD
330
F3
100
AcDbEntity
  8
치수문자_일반주서
 62
     0
100
AcDbMText
 10
89.87356698000343
 20
28.54607649780322
 30
0.0
 40
3.5
 41
0.0
 71
     2
 72
     1
  1
\A1;%%c15.88 [5/8]
  7
SLDTEXTSTYLE0
 11
-3.579655847161406E-15
 21
1.0
 31
0.0
 73
     1
 44
1.0
  0
POINT
  5
FE
330
F3
100
AcDbEntity
  8
Defpoints
 62
     0
100
AcDbPoint
 10
78.67499999999998
 20
7.942076497803185
 30
0.0
  0
POINT
  5
174
330
F3
100
AcDbEntity
  8
Defpoints
 62
     0
100
AcDbPoint
 10
78.67499999999998
 20
-7.9375
 30
0.0
  0
POINT
  5
175
330
F3
100
AcDbEntity
  8
Defpoints
 62
     0
100
AcDbPoint
 10
94.24856698000356
 20
-7.937499999999941
 30
0.0
  0
ENDBLK
  5
F5
330
F3
100
AcDbEntity
  8
0
100
AcDbBlockEnd
  0
BLOCK
  5
108
330
107
100
AcDbEntity
  8
0
100
AcDbBlockBegin
  2
_D_1
 70
     0
 10
0.0
 20
0.0
 30
0.0
  3
_D_1
  1

  0
LINE
  5
10A
330
107
100
AcDbEntity
  8
치수문자_일반주서
 62
     0
370
    -2
100
AcDbLine
 10
-49.97500000000004
 20
7.937500000000018
 30
0.0
 11
-64.81750000000008
 21
7.937499999999963
 31
0.0
  0
LINE
  5
10B
330
107
100
AcDbEntity
  8
치수문자_일반주서
 62
     0
370
    -2
100
AcDbLine
 10
-49.97500000000004
 20
-7.93750000000001
 30
0.0
 11
-64.81750000000002
 21
-7.937500000000065
 31
0.0
  0
LINE
  5
10C
330
107
100
AcDbEntity
  8
치수문자_일반주서
 62
     0
370
    -2
100
AcDbLine
 10
-64.81750000000008
 20
7.937499999999963
 30
0.0
 11
-64.81750000000002
 21
-7.937500000000065
 31
0.0
  0
LINE
  5
10D
330
107
100
AcDbEntity
  8
치수문자_일반주서
 62
     0
370
    -2
100
AcDbLine
 10
-64.8175000000001
 20
11.23949999999996
 30
0.0
 11
-64.81750000000011
 21
14.54149999999996
 31
0.0
  0
LINE
  5
10E
330
107
100
AcDbEntity
  8
치수문자_일반주서
 62
     0
370
    -2
100
AcDbLine
 10
-64.81750000000001
 20
-11.23950000000006
 30
0.0
 11
-64.8175
 21
-14.54150000000006
 31
0.0
  0
SOLID
  5
10F
330
107
100
AcDbEntity
  8
치수문자_일반주서
 62
     0
100
AcDbTrace
 10
-65.36783333333342
 20
11.23949999999996
 30
0.0
 11
-64.26716666666677
 21
11.23949999999996
 31
0.0
 12
-64.81750000000008
 22
7.937499999999963
 32
0.0
 13
-64.81750000000008
 23
7.937499999999963
 33
0.0
  0
SOLID
  5
110
330
107
100
AcDbEntity
  8
치수문자_일반주서
 62
     0
100
AcDbTrace
 10
-64.26716666666668
 20
-11.23950000000006
 30
0.0
 11
-65.36783333333334
 21
-11.23950000000007
 31
0.0
 12
-64.81750000000002
 22
-7.937500000000065
 32
0.0
 13
-64.81750000000002
 23
-7.937500000000065
 33
0.0
  0
MTEXT
  5
111
330
107
100
AcDbEntity
  8
치수문자_일반주서
 62
     0
100
AcDbMText
 10
-69.19250000000005
 20
-0.000000000000002
 30
0.0
 40
3.5
 41
0.0
 71
     2
 72
     1
  1
\A1;%%c15.88 [5/8]
  7
SLDTEXTSTYLE0
 11
-3.580687802255617E-15
 21
1.0
 31
0.0
 73
     1
 44
1.0
  0
POINT
  5
112
330
107
100
AcDbEntity
  8
Defpoints
 62
     0
100
AcDbPoint
 10
-49.91250000000004
 20
7.937500000000018
 30
0.0
  0
POINT
  5
176
330
107
100
AcDbEntity
  8
Defpoints
 62
     0
100
AcDbPoint
 10
-49.91250000000004
 20
-7.93750000000001
 30
0.0
  0
POINT
  5
177
330
107
100
AcDbEntity
  8
Defpoints
 62
     0
100
AcDbPoint
 10
-64.81750000000002
 20
-7.937500000000066
 30
0.0
  0
ENDBLK
  5
109
330
107
100
AcDbEntity
  8
0
100
AcDbBlockEnd
  0
BLOCK
  5
11D
330
11C
100
AcDbEntity
  8
0
100
AcDbBlockBegin
  2
_D_2
 70
     0
 10
0.0
 20
0.0
 30
0.0
  3
_D_2
  1

  0
LINE
  5
11F
330
11C
100
AcDbEntity
  8
치수문자_일반주서
 62
     0
370
    -2
100
AcDbLine
 10
78.67499999999998
 20
7.942076497803185
 30
0.0
 11
78.67499999999998
 21
29.21163772939833
 31
0.0
  0
LINE
  5
120
330
11C
100
AcDbEntity
  8
치수문자_일반주서
 62
     0
370
    -2
100
AcDbLine
 10
11.99999999999999
 20
7.961466794743217
 30
0.0
 11
11.99999999999999
 21
29.21163772939833
 31
0.0
  0
LINE
  5
121
330
11C
100
AcDbEntity
  8
치수문자_일반주서
 62
     0
370
    -2
100
AcDbLine
 10
75.37299999999999
 20
29.21163772939833
 30
0.0
 11
15.30199999999999
 21
29.21163772939833
 31
0.0
  0
SOLID
  5
122
330
11C
100
AcDbEntity
  8
치수문자_일반주서
 62
     0
100
AcDbTrace
 10
75.37299999999999
 20
28.66130439606499
 30
0.0
 11
75.37299999999999
 21
29.76197106273166
 31
0.0
 12
78.67499999999998
 22
29.21163772939833
 32
0.0
 13
78.67499999999998
 23
29.21163772939833
 33
0.0
  0
SOLID
  5
123
330
11C
100
AcDbEntity
  8
치수문자_일반주서
 62
     0
100
AcDbTrace
 10
15.30199999999999
 20
29.76197106273166
 30
0.0
 11
15.30199999999999
 21
28.66130439606499
 31
0.0
 12
11.99999999999999
 22
29.21163772939833
 32
0.0
 13
11.99999999999999
 23
29.21163772939833
 33
0.0
  0
MTEXT
  5
124
330
11C
100
AcDbEntity
  8
치수문자_일반주서
 62
     0
100
AcDbMText
 10
45.33749999999999
 20
33.58663772939833
 30
0.0
 40
3.5
 41
0.0
 71
     2
 72
     1
  1
\A1;66.68 [2 5/8]
  7
SLDTEXTSTYLE0
 73
     1
 44
1.0
  0
POINT
  5
125
330
11C
100
AcDbEntity
  8
Defpoints
 62
     0
100
AcDbPoint
 10
78.67499999999998
 20
7.879576497803185
 30
0.0
  0
POINT
  5
126
330
11C
100
AcDbEntity
  8
Defpoints
 62
     0
100
AcDbPoint
 10
11.99999999999999
 20
7.898966794743217
 30
0.0
  0
POINT
  5
127
330
11C
100
AcDbEntity
  8
Defpoints
 62
     0
100
AcDbPoint
 10
11.99999999999999
 20
29.21163772939833
 30
0.0
  0
ENDBLK
  5
11E
330
11C
100
AcDbEntity
  8
0
100
AcDbBlockEnd
  0
BLOCK
  5
130
330
12F
100
AcDbEntity
  8
0
100
AcDbBlockBegin
  2
_D_3
 70
     0
 10
0.0
 20
0.0
 30
0.0
  3
_D_3
  1

  0
LINE
  5
132
330
12F
100
AcDbEntity
  8
치수문자_일반주서
 62
     0
370
    -2
100
AcDbLine
 10
78.67499999999998
 20
7.942076497803185
 30
0.0
 11
78.67499999999998
 21
50.48119896099347
 31
0.0
  0
LINE
  5
133
330
12F
100
AcDbEntity
  8
치수문자_일반주서
 62
     0
370
    -2
100
AcDbLine
 10
-51.50000000000003
 20
6.412500000000011
 30
0.0
 11
-51.50000000000003
 21
50.48119896099347
 31
0.0
  0
LINE
  5
134
330
12F
100
AcDbEntity
  8
치수문자_일반주서
 62
     0
370
    -2
100
AcDbLine
 10
75.37299999999999
 20
50.48119896099347
 30
0.0
 11
-48.19800000000003
 21
50.48119896099347
 31
0.0
  0
SOLID
  5
135
330
12F
100
AcDbEntity
  8
치수문자_일반주서
 62
     0
100
AcDbTrace
 10
75.37299999999999
 20
49.93086562766013
 30
0.0
 11
75.37299999999999
 21
51.0315322943268
 31
0.0
 12
78.67499999999998
 22
50.48119896099347
 32
0.0
 13
78.67499999999998
 23
50.48119896099347
 33
0.0
  0
SOLID
  5
136
330
12F
100
AcDbEntity
  8
치수문자_일반주서
 62
     0
100
AcDbTrace
 10
-48.19800000000003
 20
51.0315322943268
 30
0.0
 11
-48.19800000000003
 21
49.93086562766013
 31
0.0
 12
-51.50000000000003
 22
50.48119896099347
 32
0.0
 13
-51.50000000000003
 23
50.48119896099347
 33
0.0
  0
MTEXT
  5
137
330
12F
100
AcDbEntity
  8
치수문자_일반주서
 62
     0
100
AcDbMText
 10
13.58749999999998
 20
54.85619896099347
 30
0.0
 40
3.5
 41
0.0
 71
     2
 72
     1
  1
\A1;130.18 [5 1/8]
  7
SLDTEXTSTYLE0
 73
     1
 44
1.0
  0
POINT
  5
138
330
12F
100
AcDbEntity
  8
Defpoints
 62
     0
100
AcDbPoint
 10
78.67499999999998
 20
7.879576497803185
 30
0.0
  0
POINT
  5
139
330
12F
100
AcDbEntity
  8
Defpoints
 62
     0
100
AcDbPoint
 10
-51.50000000000003
 20
6.350000000000011
 30
0.0
  0
POINT
  5
13A
330
12F
100
AcDbEntity
  8
Defpoints
 62
     0
100
AcDbPoint
 10
-51.50000000000003
 20
50.48119896099347
 30
0.0
  0
ENDBLK
  5
131
330
12F
100
AcDbEntity
  8
0
100
AcDbBlockEnd
  0
BLOCK
  5
149
330
148
100
AcDbEntity
  8
0
100
AcDbBlockBegin
  2
SW_DOWELSYMBOL_0
 70
     0
 10
0.0
 20
0.0
 30
0.0
  3
SW_DOWELSYMBOL_0
  1

  0
CIRCLE
  5
14B
330
148
100
AcDbEntity
  8
해칭선
 62
     0
100
AcDbCircle
 10
0.0
 20
0.0
 30
0.0
 40
3.000000000000001
  0
HATCH
  5
14C
330
148
100
AcDbEntity
  8
0
  6
Continuous
 62
     0
370
     0
100
AcDbHatch
 10
0.0
 20
0.0
 30
0.0
210
0.0
220
0.0
230
1.0
  2
SOLID
 70
     1
 71
     0
 91
        1
 92
        0
 93
        3
 72
     2
 10
0.0
 20
0.0
 40
3.000000000000001
 50
0.0
 51
90.0
 73
     1
 72
     1
 10
0.0
 20
3.000000000000001
 11
0.0
 21
0.0
 72
     1
 10
0.0
 20
0.0
 11
3.000000000000001
 21
0.0
 97
        0
 75
     0
 76
     1
 98
        1
 10
0.0
 20
0.0
  0
HATCH
  5
14D
330
148
100
AcDbEntity
  8
0
  6
Continuous
 62
     0
370
     0
100
AcDbHatch
 10
0.0
 20
0.0
 30
0.0
210
0.0
220
0.0
230
1.0
  2
SOLID
 70
     1
 71
     0
 91
        1
 92
        0
 93
        3
 72
     2
 10
0.0
 20
0.0
 40
3.000000000000001
 50
180.0
 51
270.0000000000007
 73
     1
 72
     1
 10
0.0
 20
-3.000000000000001
 11
0.0
 21
0.0
 72
     1
 10
0.0
 20
0.0
 11
-3.000000000000001
 21
0.0
 97
        0
 75
     0
 76
     1
 98
        1
 10
0.0
 20
0.0
  0
ENDBLK
  5
14A
330
148
100
AcDbEntity
  8
0
100
AcDbBlockEnd
  0
ENDSEC
  0
SECTION
  2
ENTITIES
  0
LINE
  5
96
330
1F
100
AcDbEntity
  8
외형선
  6
Continuous
 62
     1
370
    15
100
AcDbLine
 10
27.134141611333
 20
-1.521003404189955
 30
0.0
 11
27.20295639909807
 21
-1.587386252142137
 31
0.0
  0
LINE
  5
97
330
1F
100
AcDbEntity
  8
외형선
  6
Continuous
 62
     1
370
    15
100
AcDbLine
 10
30.59056050240793
 20
1.404636767764643
 30
0.0
 11
30.40170683888444
 21
1.587160724643368
 31
0.0
  0
LINE
  5
98
330
1F
100
AcDbEntity
  8
외형선
  6
Continuous
 62
     1
370
    15
100
AcDbLine
 10
18.8154125490511
 20
-1.513208867747244
 30
0.0
 11
18.89286260578263
 21
-1.587685968696393
 31
0.0
  0
LINE
  5
99
330
1F
100
AcDbEntity
  8
외형선
  6
Continuous
 62
     1
370
    15
100
AcDbLine
 10
22.19650834696907
 20
1.48306656219875
 30
0.0
 11
22.08852930954023
 21
1.587338473294005
 31
0.0
  0
LINE
  5
9A
330
1F
100
AcDbEntity
  8
외형선
  6
Continuous
 62
     1
370
    15
100
AcDbLine
 10
77.71461767162077
 20
-7.9375
 30
0.0
 11
78.67499999999998
 21
-7.9375
 31
0.0
  0
LINE
  5
9B
330
1F
100
AcDbEntity
  8
외형선
  6
Continuous
 62
     1
370
    15
100
AcDbLine
 10
27.84309599783768
 20
-7.9375
 30
0.0
 11
29.76081316512715
 21
-7.9375
 31
0.0
  0
LINE
  5
9C
330
1F
100
AcDbEntity
  8
외형선
  6
Continuous
 62
     1
370
    15
100
AcDbLine
 10
54.69816469793153
 20
7.937500000000008
 30
0.0
 11
52.77978902939665
 21
7.937500000000008
 31
0.0
  0
LINE
  5
9D
330
1F
100
AcDbEntity
  8
외형선
  6
Continuous
 62
     1
370
    15
100
AcDbLine
 10
44.46700629205106
 20
-7.9375
 30
0.0
 11
46.38522287273732
 21
-7.9375
 31
0.0
  0
LINE
  5
9E
330
1F
100
AcDbEntity
  8
외형선
  6
Continuous
 62
     1
370
    15
100
AcDbLine
 10
21.45008941667464
 20
7.937500000000008
 30
0.0
 11
19.52971780327333
 21
7.937500000000008
 31
0.0
  0
LINE
  5
9F
330
1F
100
AcDbEntity
  8
외형선
  6
Continuous
 62
     1
370
    15
100
AcDbLine
 10
71.32225687302349
 20
7.937500000000008
 30
0.0
 11
69.4038696050417
 21
7.937500000000008
 31
0.0
  0
LINE
  5
A0
330
1F
100
AcDbEntity
  8
외형선
  6
Continuous
 62
     1
370
    15
100
AcDbLine
 10
52.77978902939661
 20
-7.9375
 30
0.0
 11
54.6981646979315
 21
-7.9375
 31
0.0
  0
LINE
  5
A1
330
1F
100
AcDbEntity
  8
외형선
  6
Continuous
 62
     1
370
    15
100
AcDbLine
 10
29.7608131651271
 20
7.937500000000008
 30
0.0
 11
27.84309599783769
 21
7.937500000000008
 31
0.0
  0
LINE
  5
A2
330
1F
100
AcDbEntity
  8
외형선
  6
Continuous
 62
     1
370
    15
100
AcDbLine
 10
78.67499999999998
 20
7.937500000000008
 30
0.0
 11
77.7146176716208
 21
7.937500000000008
 31
0.0
  0
LINE
  5
A3
330
1F
100
AcDbEntity
  8
외형선
  6
Continuous
 62
     1
370
    15
100
AcDbLine
 10
36.15537522314978
 20
-7.9375
 30
0.0
 11
38.07401877720815
 21
-7.9375
 31
0.0
  0
LINE
  5
A4
330
1F
100
AcDbEntity
  8
외형선
  6
Continuous
 62
     1
370
    15
100
AcDbLine
 10
13.13754464930908
 20
7.937500000000008
 30
0.0
 11
11.99999999999999
 21
7.937500000000008
 31
0.0
  0
LINE
  5
A5
330
1F
100
AcDbEntity
  8
외형선
  6
Continuous
 62
     1
370
    15
100
AcDbLine
 10
63.01097165339214
 20
7.937500000000008
 30
0.0
 11
61.09069643335739
 21
7.937500000000008
 31
0.0
  0
LINE
  5
A6
330
1F
100
AcDbEntity
  8
외형선
  6
Continuous
 62
     1
370
    15
100
AcDbLine
 10
69.40386960504165
 20
-7.9375
 30
0.0
 11
71.32225687302355
 21
-7.9375
 31
0.0
  0
LINE
  5
A7
330
1F
100
AcDbEntity
  8
외형선
  6
Continuous
 62
     1
370
    15
100
AcDbLine
 10
19.52971780327328
 20
-7.9375
 30
0.0
 11
21.45008941667462
 21
-7.9375
 31
0.0
  0
LINE
  5
A8
330
1F
100
AcDbEntity
  8
외형선
  6
Continuous
 62
     1
370
    15
100
AcDbLine
 10
46.38522287273735
 20
7.937500000000008
 30
0.0
 11
44.46700629205099
 21
7.937500000000008
 31
0.0
  0
LINE
  5
A9
330
1F
100
AcDbEntity
  8
외형선
  6
Continuous
 62
     1
370
    15
100
AcDbLine
 10
61.09069643335737
 20
-7.9375
 30
0.0
 11
63.0109716533921
 21
-7.9375
 31
0.0
  0
LINE
  5
AA
330
1F
100
AcDbEntity
  8
외형선
  6
Continuous
 62
     1
370
    15
100
AcDbLine
 10
11.99999999999999
 20
-7.9375
 30
0.0
 11
13.13754464930903
 21
-7.9375
 31
0.0
  0
LINE
  5
AB
330
1F
100
AcDbEntity
  8
외형선
  6
Continuous
 62
     1
370
    15
100
AcDbLine
 10
38.07401877720808
 20
7.937500000000008
 30
0.0
 11
36.15537522314974
 21
7.937500000000008
 31
0.0
  0
LINE
  5
AC
330
1F
100
AcDbEntity
  8
외형선
  6
Continuous
370
    15
100
AcDbLine
 10
11.21877253160255
 20
-7.937499999999996
 30
0.0
 11
11.99999999999999
 21
-7.937499999999996
 31
0.0
  0
LINE
  5
AD
330
1F
100
AcDbEntity
  8
외형선
  6
Continuous
370
    15
100
AcDbLine
 10
-49.91250000000003
 20
-7.937499999999996
 30
0.0
 11
11.00035706310408
 21
-7.937499999999996
 31
0.0
  0
LINE
  5
AE
330
1F
100
AcDbEntity
  8
외형선
  6
Continuous
370
    15
100
AcDbLine
 10
11.00035706310408
 20
7.937500000000004
 30
0.0
 11
-49.91250000000003
 21
7.937500000000004
 31
0.0
  0
LINE
  5
AF
330
1F
100
AcDbEntity
  8
외형선
  6
Continuous
370
    15
100
AcDbLine
 10
11.99999999999999
 20
7.937500000000004
 30
0.0
 11
11.2187725316026
 21
7.937500000000004
 31
0.0
  0
LINE
  5
B0
330
1F
100
AcDbEntity
  8
외형선
  6
Continuous
370
    15
100
AcDbLine
 10
-49.91250000000003
 20
7.937500000000008
 30
0.0
 11
-51.50000000000003
 21
6.350000000000011
 31
0.0
  0
LINE
  5
B1
330
1F
100
AcDbEntity
  8
외형선
  6
Continuous
370
    15
100
AcDbLine
 10
-51.50000000000003
 20
-6.350000000000003
 30
0.0
 11
-49.91250000000003
 21
-7.9375
 31
0.0
  0
SPLINE
  5
B2
330
1F
100
AcDbEntity
  8
외형선
  6
Continuous
 62
     1
370
    15
100
AcDbSpline
210
0.0
220
0.0
230
1.0
 70
     8
 71
     3
 72
    10
 73
     6
 74
     0
 42
0.000000001
 43
0.00000001
 40
0.0
 40
0.0
 40
0.0
 40
0.0
 40
0.3443617265073095
 40
0.6888027985427047
 40
0.9999999999999999
 40
0.9999999999999999
 40
0.9999999999999999
 40
0.9999999999999999
 10
12.0
 20
-7.856265121024347
 30
0.0
 10
12.49747729216895
 20
-7.899222767227873
 30
0.0
 10
13.49254650190044
 20
-7.985147957648729
 30
0.0
 10
14.93778061247778
 20
-7.787022116992291
 30
0.0
 10
15.88446010939693
 20
-7.450919917677033
 30
0.0
 10
16.33379935945144
 20
-7.291389780314308
 30
0.0
  0
SPLINE
  5
B3
330
1F
100
AcDbEntity
  8
외형선
  6
Continuous
 62
     1
370
    15
100
AcDbSpline
210
0.0
220
0.0
230
1.0
 70
     8
 71
     3
 72
    28
 73
    24
 74
     0
 42
0.000000001
 43
0.00000001
 40
0.0
 40
0.0
 40
0.0
 40
0.0
 40
0.0399266599815596
 40
0.0900250068959675
 40
0.1401956376190734
 40
0.1903048312862956
 40
0.2403791479449608
 40
0.2904928925297177
 40
0.3406620990186583
 40
0.3907569196660223
 40
0.4408336531764371
 40
0.4909665626256672
 40
0.5411238495494092
 40
0.5912080811278089
 40
0.6412910314792706
 40
0.6914455800527197
 40
0.7415817409936664
 40
0.7916591768409599
 40
0.8417521385076185
 40
0.8919202057500771
 40
0.9420366289417218
 40
0.9921110684240135
 40
1.0
 40
1.0
 40
1.0
 40
1.0
 10
38.07401877720808
 20
7.917308148527397
 30
0.0
 10
38.44829594133898
 20
7.910091999454626
 30
0.0
 10
39.29220084842235
 20
7.893821320406132
 30
0.0
 10
40.60640559376434
 20
7.571433319995399
 30
0.0
 10
42.01800413565771
 20
7.016224223611761
 30
0.0
 10
43.42771326004762
 20
6.23212753239138
 30
0.0
 10
44.83642341967365
 20
5.25386374254505
 30
0.0
 10
46.24627148229845
 20
4.109671171558613
 30
0.0
 10
47.65781206397213
 20
2.837473259696142
 30
0.0
 10
49.06710514821508
 20
1.474557743843074
 30
0.0
 10
50.47588477789046
 20
0.0653673945580089
 30
0.0
 10
51.88631146303641
 20
-1.345403433426599
 30
0.0
 10
53.29748371594634
 20
-2.713278210621321
 30
0.0
 10
54.70647968773786
 20
-3.996941804552446
 30
0.0
 10
56.11543948669689
 20
-5.154694282163061
 30
0.0
 10
57.52652750339283
 20
-6.149422777267057
 30
0.0
 10
58.93705349057934
 20
-6.95093997672577
 30
0.0
 10
60.34585233535068
 20
-7.534385324237142
 30
0.0
 10
61.75509725013261
 20
-7.879077131086362
 30
0.0
 10
63.16658458176234
 20
-7.981364360652316
 30
0.0
 10
64.57657983848469
 20
-7.811447998200409
 30
0.0
 10
65.58941336416271
 20
-7.569173162523218
 30
0.0
 10
66.13295339614893
 20
-7.3210190289166
 30
0.0
 10
66.20693028953633
 20
-7.287244751393084
 30
0.0
  0
SPLINE
  5
B4
330
1F
100
AcDbEntity
  8
외형선
  6
Continuous
370
    15
100
AcDbSpline
210
0.0
220
0.0
230
1.0
 70
    24
 71
     3
 72
    13
 73
     9
 74
     0
 42
0.000000001
 43
0.00000001
 40
0.0
 40
0.0
 40
0.0
 40
0.0
 40
0.0832204963100864
 40
0.2406563143202829
 40
0.402657781718236
 40
0.560093599728428
 40
0.7220950671263735
 40
1.0
 40
1.0
 40
1.0
 40
1.0
 10
12.0
 20
-4.716300165313959
 30
0.0
 10
12.00000000000001
 20
-4.785319373360717
 30
0.0
 10
12.00000000000003
 20
-4.984908524619166
 30
0.0
 10
11.99999999999992
 20
-5.379379074022491
 30
0.0
 10
12.00000000000004
 20
-5.875412125987469
 30
0.0
 10
11.99999999999988
 20
-6.404302179624366
 30
0.0
 10
12.00000000000004
 20
-7.076225664620367
 30
0.0
 10
12.0
 20
-7.554268199603661
 30
0.0
 10
11.99999999999999
 20
-7.856265121024347
 30
0.0
  0
SPLINE
  5
B5
330
1F
100
AcDbEntity
  8
외형선
  6
Continuous
 62
     1
370
    15
100
AcDbSpline
210
0.0
220
0.0
230
1.0
 70
     8
 71
     3
 72
    28
 73
    24
 74
     0
 42
0.000000001
 43
0.00000001
 40
0.0
 40
0.0
 40
0.0
 40
0.0
 40
0.0212249573527203
 40
0.0713967024359098
 40
0.1215041134337257
 40
0.1715792049128746
 40
0.2216962806480299
 40
0.2718650011064315
 40
0.3219586150111175
 40
0.3720367028942839
 40
0.4221735166357367
 40
0.4723287182491078
 40
0.5224123207082451
 40
0.5724972044110006
 40
0.6226551444103208
 40
0.6727887066177207
 40
0.7228660921548625
 40
0.7729615650644596
 40
0.8231314247841777
 40
0.8732458218775662
 40
0.9233207905314912
 40
0.9734306366480896
 40
1.0
 40
1.0
 40
1.0
 40
1.0
 10
69.40386960504165
 20
-7.906955733897779
 30
0.0
 10
69.20488552045148
 20
-7.914217324273753
 30
0.0
 10
68.53554106708572
 20
-7.93864392728968
 30
0.0
 10
67.39483898535377
 20
-7.716262686806393
 30
0.0
 10
65.98525109368745
 20
-7.253636370649
 30
0.0
 10
64.57652419598676
 20
-6.547754093177291
 30
0.0
 10
63.1665995142686
 20
-5.639772147287191
 30
0.0
 10
61.75509325387842
 20
-4.554203856055319
 30
0.0
 10
60.34585340505468
 20
-3.32442839955441
 30
0.0
 10
58.93705320361601
 20
-1.990012603827315
 30
0.0
 10
57.5265275803682
 20
-0.593542114970184
 30
0.0
 10
56.1154394660612
 20
0.8211514952748935
 30
0.0
 10
54.7064796934121
 20
2.211142577865379
 30
0.0
 10
53.29748371386921
 20
3.531504817681598
 30
0.0
 10
51.8863114656647
 20
4.73965856819759
 30
0.0
 10
50.47588476946448
 20
5.799250312073141
 30
0.0
 10
49.06710517925979
 20
6.676589447516003
 30
0.0
 10
47.6578119480866
 20
7.343971450271159
 30
0.0
 10
46.2462719152708
 20
7.778929984010177
 30
0.0
 10
44.83642180641159
 20
7.972593976939135
 30
0.0
 10
43.42771927751917
 20
7.903819559396555
 30
0.0
 10
42.23927307523225
 20
7.672051443671943
 30
0.0
 10
41.51973319779595
 20
7.376274455846414
 30
0.0
 10
41.27041246819653
 20
7.27378766294465
 30
0.0
  0
SPLINE
  5
B6
330
1F
100
AcDbEntity
  8
외형선
  6
Continuous
 62
     1
370
    15
100
AcDbSpline
210
0.0
220
0.0
230
1.0
 70
     8
 71
     3
 72
    13
 73
     9
 74
     0
 42
0.000000001
 43
0.00000001
 40
0.0
 40
0.0
 40
0.0
 40
0.0
 40
0.009595262949655
 40
0.2076541312055165
 40
0.4056032141532504
 40
0.6036068975754963
 40
0.8018262797199879
 40
1.0
 40
1.0
 40
1.0
 40
1.0
 10
19.52971780327329
 20
-7.931425896578536
 30
0.0
 10
19.5056230157429
 20
-7.933431924675925
 30
0.0
 10
18.98418007067114
 20
-7.976845015481542
 30
0.0
 10
17.96646220243451
 20
-7.811123840726599
 30
0.0
 10
16.47605934127266
 20
-7.405814671449325
 30
0.0
 10
14.98527269629156
 20
-6.706609583214127
 30
0.0
 10
13.49254935172909
 20
-5.791424643532278
 30
0.0
 10
12.49747824203885
 20
-5.014443891659869
 30
0.0
 10
11.99999999999998
 20
-4.625998267246308
 30
0.0
  0
LINE
  5
B7
330
1F
100
AcDbEntity
  8
외형선
  6
Continuous
 62
     1
370
    15
100
AcDbLine
 10
78.67499999999998
 20
-3.110851973334559
 30
0.0
 11
78.67499999999998
 21
3.110851973334716
 31
0.0
  0
SPLINE
  5
B8
330
1F
100
AcDbEntity
  8
외형선
  6
Continuous
 62
     1
370
    15
100
AcDbSpline
210
0.0
220
0.0
230
1.0
 70
     8
 71
     3
 72
    28
 73
    24
 74
     0
 42
0.000000001
 43
0.00000001
 40
0.0
 40
0.0
 40
0.0
 40
0.0
 40
0.0126145855913468
 40
0.065664066134358
 40
0.1186558191986275
 40
0.1716329595303832
 40
0.2246394817192726
 40
0.2748129041456047
 40
0.3249176561704597
 40
0.3749946422700993
 40
0.4251181608086493
 40
0.4752857102139724
 40
0.5253776908724924
 40
0.5754587048000201
 40
0.6256029806075797
 40
0.675754165347056
 40
0.7258371631368634
 40
0.7759260031154585
 40
0.8260896742421963
 40
0.8762191237694625
 40
0.9262969351537983
 40
0.9763973924654824
 40
1.0
 40
1.0
 40
1.0
 40
1.0
 10
13.13754464930907
 20
7.912121290848247
 30
0.0
 10
13.25587154774096
 20
7.919819332222305
 30
0.0
 10
13.87181134440261
 20
7.959890779217601
 30
0.0
 10
14.9852892013908
 20
7.755008754547975
 30
0.0
 10
16.47606159222902
 20
7.292382184843589
 30
0.0
 10
17.96643670706769
 20
6.550363661824478
 30
0.0
 10
19.43059890577293
 20
5.601031176569075
 30
0.0
 10
20.86935815528497
 20
4.484795417997775
 30
0.0
 10
22.27889558710257
 20
3.247786804537645
 30
0.0
 10
23.68761631280174
 20
1.908516081524851
 30
0.0
 10
25.09769588938747
 20
0.5093768543219418
 30
0.0
 10
26.50911933842633
 20
-0.904749397343763
 30
0.0
 10
27.91827246727473
 20
-2.291852621118118
 30
0.0
 10
29.32711545812213
 20
-3.606663097420406
 30
0.0
 10
30.73782424472078
 20
-4.807298913668729
 30
0.0
 10
32.14874440229614
 20
-5.856635413977934
 30
0.0
 10
33.5576452223106
 20
-6.722283373836441
 30
0.0
 10
34.96671093922889
 20
-7.376482521034883
 30
0.0
 10
36.37801528571825
 20
-7.797199197575351
 30
0.0
 10
37.78827092513104
 20
-7.976268676241958
 30
0.0
 10
39.19702766506823
 20
-7.891648286142883
 30
0.0
 10
40.35733089391539
 20
-7.656212714921704
 30
0.0
 10
41.04893405365526
 20
-7.36654924808498
 30
0.0
 10
41.27041246819659
 20
-7.273787662944641
 30
0.0
  0
SPLINE
  5
B9
330
1F
100
AcDbEntity
  8
외형선
  6
Continuous
 62
     1
370
    15
100
AcDbSpline
210
0.0
220
0.0
230
1.0
 70
     8
 71
     3
 72
    19
 73
    15
 74
     0
 42
0.000000001
 43
0.00000001
 40
0.0
 40
0.0
 40
0.0
 40
0.0
 40
0.0099459365070745
 40
0.0999564898101966
 40
0.1898916391505474
 40
0.279884834530395
 40
0.3699935742937842
 40
0.4599754397590281
 40
0.5499120360882636
 40
0.6399367882212148
 40
0.7300321066003573
 40
0.819992071355957
 40
0.9099369419374845
 40
1.0
 40
1.0
 40
1.0
 40
1.0
 10
63.01097165339213
 20
7.925213408091573
 30
0.0
 10
63.0629320269174
 20
7.929209455417645
 30
0.0
 10
63.5851328818211
 20
7.969369661904522
 30
0.0
 10
64.57651356254146
 20
7.808801438973894
 30
0.0
 10
65.98524358113565
 20
7.429447595819961
 30
0.0
 10
67.39487972743044
 20
6.790740881343387
 30
0.0
 10
68.80647984517711
 20
5.946020855819429
 30
0.0
 10
70.21593520605899
 20
4.91144928663446
 30
0.0
 10
71.62467150691523
 20
3.722782958487929
 30
0.0
 10
73.03483798762488
 20
2.41716139759485
 30
0.0
 10
74.44620552868
 20
1.035947032738041
 30
0.0
 10
75.85531369473404
 20
-0.3773768882419661
 30
0.0
 10
77.26418439736511
 20
-1.785735915939832
 30
0.0
 10
78.20452233379419
 20
-2.668953323383003
 30
0.0
 10
78.67500000000001
 20
-3.110851973334559
 30
0.0
  0
SPLINE
  5
BA
330
1F
100
AcDbEntity
  8
외형선
  6
Continuous
 62
     1
370
    15
100
AcDbSpline
210
0.0
220
0.0
230
1.0
 70
     8
 71
     3
 72
    16
 73
    12
 74
     0
 42
0.000000001
 43
0.00000001
 40
0.0
 40
0.0
 40
0.0
 40
0.0
 40
0.1131531298246437
 40
0.226157771649131
 40
0.3391813774425866
 40
0.4523750383781442
 40
0.5654800415244992
 40
0.6784742877710009
 40
0.7915254091062879
 40
0.904735932356615
 40
1.0
 40
1.0
 40
1.0
 40
1.0
 10
78.67499999999998
 20
3.110851973334714
 30
0.0
 10
78.2045223351947
 20
3.533816872956464
 30
0.0
 10
77.2641844015649
 20
4.379191626023346
 30
0.0
 10
75.85531367795954
 20
5.484249366548203
 30
0.0
 10
74.44620559163869
 20
6.423628120213931
 30
0.0
 10
73.03483775226351
 20
7.158339319850786
 30
0.0
 10
71.6246723841439
 20
7.668389710416183
 30
0.0
 10
70.21593193499066
 20
7.938699431541906
 30
0.0
 10
68.80649206751073
 20
7.952695572212688
 30
0.0
 10
67.46889045217276
 20
7.751618338334298
 30
0.0
 10
66.60272929278366
 20
7.432890080213707
 30
0.0
 10
66.20693028953639
 20
7.287244751393088
 30
0.0
  0
SPLINE
  5
BB
330
1F
100
AcDbEntity
  8
외형선
  6
Continuous
 62
     1
370
    15
100
AcDbSpline
210
0.0
220
0.0
230
1.0
 70
     8
 71
     3
 72
    28
 73
    24
 74
     0
 42
0.000000001
 43
0.00000001
 40
0.0
 40
0.0
 40
0.0
 40
0.0
 40
0.0369479692863243
 40
0.0870574029476264
 40
0.1372282739590614
 40
0.1873268608156005
 40
0.2374028025902561
 40
0.2875303805799788
 40
0.3376921788915422
 40
0.3877791488487145
 40
0.4378602768352114
 40
0.4880095892256804
 40
0.5381519929421709
 40
0.588231137140454
 40
0.6383212476602969
 40
0.6884869241056523
 40
0.7386085713280874
 40
0.7886836878488579
 40
0.8387865692582285
 40
0.8889581185053291
 40
0.9419626617437769
 40
0.9949378242220351
 40
1.0
 40
1.0
 40
1.0
 40
1.0
 10
44.46700629205106
 20
-7.913326076046502
 30
0.0
 10
44.12066950947121
 20
-7.909840880232792
 30
0.0
 10
43.30462517959243
 20
-7.901629005475765
 30
0.0
 10
42.01800579013111
 20
-7.596858461338357
 30
0.0
 10
40.60641536010846
 20
-7.05613551656235
 30
0.0
 10
39.1970223067455
 20
-6.284254731782023
 30
0.0
 10
37.78827236223508
 20
-5.316847899516989
 30
0.0
 10
36.37801490016872
 20
-4.181723087832483
 30
0.0
 10
34.96671104239086
 20
-2.915952552419939
 30
0.0
 10
33.55764519470537
 20
-1.557149983285131
 30
0.0
 10
32.14874440964862
 20
-0.1493780969167412
 30
0.0
 10
30.73782424295602
 20
1.262126220684958
 30
0.0
 10
29.32711545782474
 20
2.63410595877706
 30
0.0
 10
27.91827247022215
 20
3.923906117932837
 30
0.0
 10
26.50911932692251
 20
5.09021724059787
 30
0.0
 10
25.09769593250869
 20
6.095320113404394
 30
0.0
 10
23.68761615206411
 20
6.909279011086721
 30
0.0
 10
22.27889618652875
 20
7.506297294743332
 30
0.0
 10
20.86935591544239
 20
7.865258461241025
 30
0.0
 10
19.43060747742443
 20
7.985349894161956
 30
0.0
 10
17.9664027094693
 20
7.813526662846425
 30
0.0
 10
16.92547192793251
 20
7.567639355771123
 30
0.0
 10
16.38126645314463
 20
7.313551978089608
 30
0.0
 10
16.3337993594515
 20
7.291389780314316
 30
0.0
  0
LINE
  5
BC
330
1F
100
AcDbEntity
  8
외형선
  6
Continuous
 62
     1
370
    15
100
AcDbLine
 10
78.67499999999998
 20
-7.879576497803172
 30
0.0
 11
78.67499999999998
 21
-4.755014917964429
 31
0.0
  0
SPLINE
  5
BD
330
1F
100
AcDbEntity
  8
외형선
  6
Continuous
 62
     1
370
    15
100
AcDbSpline
210
0.0
220
0.0
230
1.0
 70
     8
 71
     3
 72
    22
 73
    18
 74
     0
 42
0.000000001
 43
0.00000001
 40
0.0
 40
0.0
 40
0.0
 40
0.0
 40
0.0711956800529114
 40
0.1424077645387095
 40
0.2135423573308811
 40
0.2846573344146289
 40
0.355811752851453
 40
0.4231631003141063
 40
0.4904222666209481
 40
0.557644160754867
 40
0.6249285186855489
 40
0.6922719823750908
 40
0.7595140047700765
 40
0.8267413057433636
 40
0.8940535276300968
 40
0.9613750238667076
 40
1.0
 40
1.0
 40
1.0
 40
1.0
 10
12.0
 20
4.909077741769655
 30
0.0
 10
12.49747840192005
 20
4.501551562755968
 30
0.0
 10
13.49254983140949
 20
3.686405305269406
 30
0.0
 10
14.98527077792445
 20
2.288513305886795
 30
0.0
 10
16.47606652551688
 20
0.8217358343892985
 30
0.0
 10
17.96643538224866
 20
-0.6769130662926871
 30
0.0
 10
19.430599239293
 20
-2.124570572995385
 30
0.0
 10
20.86935806987825
 20
-3.473073112190997
 30
0.0
 10
22.27889560342738
 20
-4.68813525498555
 30
0.0
 10
23.68761633279576
 20
-5.755497947032067
 30
0.0
 10
25.09769579292956
 20
-6.641495121055742
 30
0.0
 10
26.50911970434985
 20
-7.318250707119158
 30
0.0
 10
27.91827110253287
 20
-7.764609843525805
 30
0.0
 10
29.32712055354696
 20
-7.969234739031995
 30
0.0
 10
30.73780520016684
 20
-7.912432593033444
 30
0.0
 10
31.94886897307123
 20
-7.684093180141213
 30
0.0
 10
32.68863010210799
 20
-7.383841309838934
 30
0.0
 10
32.95832531058667
 20
-7.274378285115362
 30
0.0
  0
SPLINE
  5
BE
330
1F
100
AcDbEntity
  8
외형선
  6
Continuous
 62
     1
370
    15
100
AcDbSpline
210
0.0
220
0.0
230
1.0
 70
     8
 71
     3
 72
    25
 73
    21
 74
     0
 42
0.000000001
 43
0.00000001
 40
0.0
 40
0.0
 40
0.0
 40
0.0
 40
0.0003473278417956
 40
0.0591125963971193
 40
0.1179618753534607
 40
0.1767895790201174
 40
0.2355483770836646
 40
0.2943253925033805
 40
0.3531905337084368
 40
0.4119950779140338
 40
0.470750360166456
 40
0.5295435643154813
 40
0.5884122544443205
 40
0.6471980566783513
 40
0.7059542842590567
 40
0.7647681046626741
 40
0.8236280265043039
 40
0.8823995208466359
 40
0.9411611540560907
 40
1.0
 40
1.0
 40
1.0
 40
1.0
 10
54.69816469793155
 20
7.936766643503825
 30
0.0
 10
54.70093978271858
 20
7.937010948548887
 30
0.0
 10
55.17323842176715
 20
7.978589836817513
 30
0.0
 10
56.11539519302659
 20
7.833089501385261
 30
0.0
 10
57.52653944221782
 20
7.483354188333077
 30
0.0
 10
58.93705004425343
 20
6.867527164858235
 30
0.0
 10
60.34585419802205
 20
6.043469463905708
 30
0.0
 10
61.75509324056234
 20
5.026792705656182
 30
0.0
 10
63.16659877204864
 20
3.853752912350286
 30
0.0
 10
64.57652717318427
 20
2.55830203960431
 30
0.0
 10
65.98523993299051
 20
1.182278079279375
 30
0.0
 10
67.39488070665905
 20
-0.2310622379842137
 30
0.0
 10
68.80647958305906
 20
-1.635698141663265
 30
0.0
 10
70.21593527620973
 20
-2.990353379549512
 30
0.0
 10
71.62467148810234
 20
-4.250802469623795
 30
0.0
 10
73.03483799267235
 20
-5.376887480420429
 30
0.0
 10
74.44620552732982
 20
-6.334460807981992
 30
0.0
 10
75.85531369509377
 20
-7.088852263006015
 30
0.0
 10
77.26418439727507
 20
-7.637704653648912
 30
0.0
 10
78.20452233376415
 20
-7.798917267393422
 30
0.0
 10
78.67500000000001
 20
-7.879576497803172
 30
0.0
  0
SPLINE
  5
BF
330
1F
100
AcDbEntity
  8
외형선
  6
Continuous
370
    15
100
AcDbSpline
210
0.0
220
0.0
230
1.0
 70
    24
 71
     3
 72
    14
 73
    10
 74
     0
 42
0.000000001
 43
0.00000001
 40
0.0
 40
0.0
 40
0.0
 40
0.0
 40
0.0858788886107049
 40
0.2576072134774732
 40
0.4343156713990812
 40
0.6060439962658265
 40
0.7827524541874101
 40
0.9544807790541585
 40
0.9999999999999999
 40
0.9999999999999999
 40
0.9999999999999999
 40
0.9999999999999999
 10
11.99999999999999
 20
7.898966794742913
 30
0.0
 10
11.99999999999998
 20
7.814330820029725
 30
0.0
 10
11.9999999999999
 20
7.560451921984729
 30
0.0
 10
12.0
 20
7.116806820713927
 30
0.0
 10
12.0
 20
6.582706147056148
 30
0.0
 10
11.99999999999993
 20
6.052864985948641
 30
0.0
 10
12.00000000000001
 20
5.558201123939315
 30
0.0
 10
11.99999999999992
 20
5.200806774981891
 30
0.0
 10
11.99999999999998
 20
5.034272965132006
 30
0.0
 10
11.99999999999998
 20
4.999379639837326
 30
0.0
  0
SPLINE
  5
C0
330
1F
100
AcDbEntity
  8
외형선
  6
Continuous
 62
     1
370
    15
100
AcDbSpline
210
0.0
220
0.0
230
1.0
 70
     8
 71
     3
 72
    22
 73
    18
 74
     0
 42
0.000000001
 43
0.00000001
 40
0.0
 40
0.0
 40
0.0
 40
0.0
 40
0.0678925452046051
 40
0.1356959967334225
 40
0.2035108267554591
 40
0.2714276908656409
 40
0.3392913597794504
 40
0.4070885739001694
 40
0.4749199134095752
 40
0.5428468950080627
 40
0.6106867753860108
 40
0.6784828987181132
 40
0.7463358640791393
 40
0.8142587506709257
 40
0.882079951314103
 40
0.9498801314451113
 40
1.0
 40
1.0
 40
1.0
 40
1.0
 10
78.67499999999998
 20
-4.768724524468492
 30
0.0
 10
78.20452233376344
 20
-4.378461742928215
 30
0.0
 10
77.26418439727297
 20
-3.598448311858997
 30
0.0
 10
75.8553136951021
 20
-2.27398960104516
 30
0.0
 10
74.44620552729864
 20
-0.8885763811473366
 30
0.0
 10
73.03483799278868
 20
0.5262782504666556
 30
0.0
 10
71.62467148766873
 20
1.924743971873583
 30
0.0
 10
70.2159352778265
 20
3.263078442048585
 30
0.0
 10
68.80647957701785
 20
4.498731590953021
 30
0.0
 10
67.39488072922771
 20
5.591654497254191
 30
0.0
 10
65.98523984891031
 20
6.50969689019762
 30
0.0
 10
64.57652748687372
 20
7.222875874125186
 30
0.0
 10
63.166597599712
 20
7.70806928833653
 30
0.0
 10
61.75509761791479
 20
7.952638279163642
 30
0.0
 10
60.34583789147047
 20
7.939338845632612
 30
0.0
 10
59.06005246571121
 20
7.725683610298074
 30
0.0
 10
58.24300376892305
 20
7.413113016659521
 30
0.0
 10
57.89573141157317
 20
7.280260314834261
 30
0.0
  0
SPLINE
  5
C1
330
1F
100
AcDbEntity
  8
외형선
  6
Continuous
 62
     1
370
    15
100
AcDbSpline
210
0.0
220
0.0
230
1.0
 70
     8
 71
     3
 72
    24
 73
    20
 74
     0
 42
0.000000001
 43
0.00000001
 40
0.0
 40
0.0
 40
0.0
 40
0.0
 40
0.0492052852695639
 40
0.10754335284632
 40
0.165874616072956
 40
0.2242852960894279
 40
0.2826879293286688
 40
0.3410168819669228
 40
0.3993586074682342
 40
0.4577883472789122
 40
0.5161668046945028
 40
0.5744910661541308
 40
0.6328476663627147
 40
0.6912842464335517
 40
0.753020514927407
 40
0.8147225626094453
 40
0.8764416296230795
 40
0.9382279313651943
 40
1.0
 40
1.0
 40
1.0
 40
1.0
 10
36.15537522314978
 20
-7.920868725258812
 30
0.0
 10
35.75895321358394
 20
-7.9104649575416
 30
0.0
 10
34.89253100269277
 20
-7.887726423328987
 30
0.0
 10
33.55764031509911
 20
-7.551752490198067
 30
0.0
 10
32.14874571911542
 20
-6.984947914898395
 30
0.0
 10
30.73782389172474
 20
-6.191947240001259
 30
0.0
 10
29.3271155525378
 20
-5.205958951915982
 30
0.0
 10
27.9182724420964
 20
-4.055079134325251
 30
0.0
 10
26.50911934476749
 20
-2.776516083733864
 30
0.0
 10
25.09769588924929
 20
-1.411934259375076
 30
0.0
 10
23.687616307024
 20
-0.0019337712190006
 30
0.0
 10
22.27889561033321
 20
1.408323142880199
 30
0.0
 10
20.86935806802795
 20
2.774332651699841
 30
0.0
 10
19.43059923982031
 20
4.076402134122191
 30
0.0
 10
17.96643538210418
 20
5.267934647172376
 30
0.0
 10
16.47606652555553
 20
6.297018467622856
 30
0.0
 10
14.98527077791412
 20
7.09929801802593
 30
0.0
 10
13.49254983141206
 20
7.671301796035925
 30
0.0
 10
12.49747840192088
 20
7.823084289953823
 30
0.0
 10
11.99999999999999
 20
7.898966794742911
 30
0.0
  0
LINE
  5
C2
330
1F
100
AcDbEntity
  8
외형선
  6
Continuous
 62
     1
370
    15
100
AcDbLine
 10
78.67499999999998
 20
4.767854726781233
 30
0.0
 11
78.67499999999998
 21
7.879576497803185
 31
0.0
  0
SPLINE
  5
C3
330
1F
100
AcDbEntity
  8
외형선
  6
Continuous
 62
     1
370
    15
100
AcDbSpline
210
0.0
220
0.0
230
1.0
 70
     8
 71
     3
 72
    28
 73
    24
 74
     0
 42
0.000000001
 43
0.00000001
 40
0.0
 40
0.0
 40
0.0
 40
0.0
 40
0.029470968129536
 40
0.079546296454148
 40
0.129668155677236
 40
0.1798340443094759
 40
0.2299243666965806
 40
0.2800037227157414
 40
0.3301463385206793
 40
0.3802958630288171
 40
0.4303772028445828
 40
0.480464384655733
 40
0.5306263951377764
 40
0.5807541851532381
 40
0.6308303387352258
 40
0.6809291374948788
 40
0.7311002207151694
 40
0.7812098663254655
 40
0.831284634612643
 40
0.8813988311815193
 40
0.9315684901547993
 40
0.9816637626156045
 40
1.0
 40
1.0
 40
1.0
 40
1.0
 10
21.45008941667462
 20
7.907198800526639
 30
0.0
 10
21.72644551613604
 20
7.910697783709188
 30
0.0
 10
22.47236957665711
 20
7.9201420324459
 30
0.0
 10
23.68758543805724
 20
7.657009816868523
 30
0.0
 10
25.0977041739995
 20
7.152783127777722
 30
0.0
 10
26.50911712149911
 20
6.412871483046615
 30
0.0
 10
27.91827306061018
 20
5.473366828901813
 30
0.0
 10
29.32711529945303
 20
4.360761702517059
 30
0.0
 10
30.73782428531123
 20
3.1117732668805
 30
0.0
 10
32.14874439873203
 20
1.765024642364346
 30
0.0
 10
33.55764519607982
 20
0.3618065195025205
 30
0.0
 10
34.96671104780872
 20
-1.052875881406028
 30
0.0
 10
36.37801487708727
 20
-2.433098594359124
 30
0.0
 10
37.78827244902651
 20
-3.737588522763334
 30
0.0
 10
39.19702198293616
 20
-4.924719167682056
 30
0.0
 10
40.60641657002497
 20
-5.956907881719344
 30
0.0
 10
42.01800126979072
 20
-6.800632887232367
 30
0.0
 10
43.42771375480221
 20
-7.431490868189647
 30
0.0
 10
44.83642430220771
 20
-7.827269915203676
 30
0.0
 10
46.24626745135237
 20
-7.980644448127908
 30
0.0
 10
47.65782731293381
 20
-7.867963167807832
 30
0.0
 10
48.76952680782636
 20
-7.627891569132989
 30
0.0
 10
49.4110168692744
 20
-7.350209891150921
 30
0.0
 10
49.58290426549068
 20
-7.275805027422291
 30
0.0
  0
SPLINE
  5
C4
330
1F
100
AcDbEntity
  8
외형선
  6
Continuous
 62
     1
370
    15
100
AcDbSpline
210
0.0
220
0.0
230
1.0
 70
     8
 71
     3
 72
    13
 73
     9
 74
     0
 42
0.000000001
 43
0.00000001
 40
0.0
 40
0.0
 40
0.0
 40
0.0
 40
0.0411036584345477
 40
0.2328981794885524
 40
0.4248430394112586
 40
0.6164995332703522
 40
0.8081238695303599
 40
1.0
 40
1.0
 40
1.0
 40
1.0
 10
71.32225687302349
 20
7.916444468034879
 30
0.0
 10
71.42295153383756
 20
7.92294033800438
 30
0.0
 10
71.99349936536856
 20
7.95974670385379
 30
0.0
 10
73.03485940502011
 20
7.780748562893953
 30
0.0
 10
74.44619979956289
 20
7.373965652614397
 30
0.0
 10
75.85531522117574
 20
6.710527446407155
 30
0.0
 10
77.2641840151964
 20
5.852206066532973
 30
0.0
 10
78.20452220634886
 20
5.130043088237993
 30
0.0
 10
78.67500000000001
 20
4.76872452446854
 30
0.0
  0
SPLINE
  5
C5
330
1F
100
AcDbEntity
  8
외형선
  6
Continuous
 62
     1
370
    15
100
AcDbSpline
210
0.0
220
0.0
230
1.0
 70
     8
 71
     3
 72
    10
 73
     6
 74
     0
 42
0.000000001
 43
0.00000001
 40
0.0
 40
0.0
 40
0.0
 40
0.0
 40
0.3395103856019983
 40
0.6785752402825939
 40
1.0
 40
1.0
 40
1.0
 40
1.0
 10
78.67499999999998
 20
7.879576497803185
 30
0.0
 10
78.20451528568182
 20
7.911296846734125
 30
0.0
 10
77.26416326227726
 20
7.974695918781639
 30
0.0
 10
75.87989549196001
 20
7.77355738695658
 30
0.0
 10
74.96523702440416
 20
7.452876082498342
 30
0.0
 10
74.52012195862736
 20
7.296817744888746
 30
0.0
  0
SPLINE
  5
C6
330
1F
100
AcDbEntity
  8
외형선
  6
Continuous
 62
     1
370
    15
100
AcDbSpline
210
0.0
220
0.0
230
1.0
 70
     8
 71
     3
 72
    28
 73
    24
 74
     0
 42
0.000000001
 43
0.00000001
 40
0.0
 40
0.0
 40
0.0
 40
0.0
 40
0.0317484355781208
 40
0.0818798671915997
 40
0.1319551245222365
 40
0.1820484684566449
 40
0.2322161960398573
 40
0.2823284633538105
 40
0.332401303903944
 40
0.3825090204345162
 40
0.43267817220991
 40
0.4827750423074132
 40
0.532849268099026
 40
0.582975128336256
 40
0.6331352077226778
 40
0.6832204613188978
 40
0.7332998731446327
 40
0.7834474670378229
 40
0.8335881524937785
 40
0.8836655805992792
 40
0.9337539746505502
 40
0.9839179320378697
 40
1.0
 40
1.0
 40
1.0
 40
1.0
 10
52.77978902939661
 20
-7.908408812820864
 30
0.0
 10
52.48191843931853
 20
-7.910176369333923
 30
0.0
 10
51.71370407184642
 20
-7.914734933871278
 30
0.0
 10
50.47586672343215
 20
-7.639650480636659
 30
0.0
 10
49.0671099890883
 20
-7.124177682876096
 30
0.0
 10
47.65781075038787
 20
-6.37395184776889
 30
0.0
 10
46.2462718867
 20
-5.426919410498773
 30
0.0
 10
44.83642311538507
 20
-4.307529028660396
 30
0.0
 10
43.42771407294519
 20
-3.052699720388908
 30
0.0
 10
42.01800118437639
 20
-1.701657523291959
 30
0.0
 10
40.60641659297113
 20
-0.2984720674083253
 30
0.0
 10
39.19702197648161
 20
1.115637235846096
 30
0.0
 10
37.78827245192643
 20
2.494461718634914
 30
0.0
 10
36.37801487194036
 20
3.79445768859611
 30
0.0
 10
34.9667110654938
 20
4.974393867773886
 30
0.0
 10
33.55764513059952
 20
5.998913865544083
 30
0.0
 10
32.14874464311882
 20
6.834364427108152
 30
0.0
 10
30.73782337194056
 20
7.454577752922366
 30
0.0
 10
29.32711870569789
 20
7.839254397498169
 30
0.0
 10
27.91826036499394
 20
7.981720043651729
 30
0.0
 10
26.50916454595178
 20
7.856594327549106
 30
0.0
 10
25.41706140972017
 20
7.615626281860567
 30
0.0
 10
24.79581390206616
 20
7.343482235537227
 30
0.0
 10
24.64499814237803
 20
7.27741579569613
 30
0.0
  0
SPLINE
  5
C7
330
1F
100
AcDbEntity
  8
외형선
  6
Continuous
 62
     1
370
    15
100
AcDbSpline
210
0.0
220
0.0
230
1.0
 70
     8
 71
     3
 72
    28
 73
    24
 74
     0
 42
0.000000001
 43
0.00000001
 40
0.0
 40
0.0
 40
0.0
 40
0.0
 40
0.0347160410200095
 40
0.0848633619240665
 40
0.134942501131833
 40
0.1850274820782828
 40
0.2351872884076033
 40
0.2853128757740124
 40
0.3353868289758875
 40
0.3854834263603835
 40
0.4356523050292889
 40
0.4857597487878099
 40
0.5358323167557457
 40
0.5859443112728747
 40
0.6361117657573518
 40
0.6862048369979479
 40
0.7362798217332321
 40
0.7864109804455608
 40
0.8365665157810933
 40
0.8866489983225155
 40
0.9367301996817426
 40
0.9868829967626107
 40
0.9999999999999999
 40
0.9999999999999999
 40
0.9999999999999999
 40
0.9999999999999999
 10
29.7608131651271
 20
7.910840333019292
 30
0.0
 10
30.08645527068801
 20
7.909833349361252
 30
0.0
 10
30.88248739445475
 20
7.907371777819311
 30
0.0
 10
32.14876488582278
 20
7.615865400669168
 30
0.0
 10
33.55763970926089
 20
7.085679576797249
 30
0.0
 10
34.96671252065312
 20
6.323038849045776
 30
0.0
 10
36.37801448210075
 20
5.364780126187823
 30
0.0
 10
37.7882725561138
 20
4.236532702446105
 30
0.0
 10
39.19702194900439
 20
2.97483286591283
 30
0.0
 10
40.60641659870208
 20
1.619264106679062
 30
0.0
 10
42.01800118898948
 20
0.2142775342820742
 30
0.0
 10
43.42771404881091
 20
-1.198844100218519
 30
0.0
 10
44.8364232072806
 20
-2.574170843755671
 30
0.0
 10
46.24627154277121
 20
-3.86843045373406
 30
0.0
 10
47.65781203482675
 20
-5.039900903907262
 30
0.0
 10
49.06710520428808
 20
-6.054048936064132
 30
0.0
 10
50.47588458267769
 20
-6.877347419196616
 30
0.0
 10
51.88631218886928
 20
-7.484291571076032
 30
0.0
 10
53.29748100841466
 20
-7.854378001037571
 30
0.0
 10
54.70648977543166
 20
-7.982353285969708
 30
0.0
 10
56.11540181553062
 20
-7.84105339330041
 30
0.0
 10
57.17924541691536
 20
-7.599008793560062
 30
0.0
 10
57.7726977372471
 20
-7.334995224959317
 30
0.0
 10
57.8957314115731
 20
-7.280260314834255
 30
0.0
  0
SPLINE
  5
C8
330
1F
100
AcDbEntity
  8
외형선
  6
Continuous
 62
     1
370
    15
100
AcDbSpline
210
0.0
220
0.0
230
1.0
 70
     8
 71
     3
 72
    28
 73
    24
 74
     0
 42
0.000000001
 43
0.00000001
 40
0.0
 40
0.0
 40
0.0
 40
0.0
 40
0.0264861728526689
 40
0.0765647187366243
 40
0.1267019910159569
 40
0.1768576513353785
 40
0.2269417118457394
 40
0.2770270536114368
 40
0.3271854523418518
 40
0.3773194730573941
 40
0.4273973165889013
 40
0.4774932476582862
 40
0.5276635662181137
 40
0.5777784216443654
 40
0.6278538482705517
 40
0.6779641526783913
 40
0.7281358955039545
 40
0.7782353529185474
 40
0.8283121648577555
 40
0.8784406139093079
 40
0.9286032838773441
 40
0.9786911241907046
 40
1.0
 40
1.0
 40
1.0
 40
1.0
 10
61.09069643335736
 20
-7.906333046538586
 30
0.0
 10
60.84236122993591
 20
-7.911657337401977
 30
0.0
 10
60.12448797931088
 20
-7.92704849393846
 30
0.0
 10
58.93708574140203
 20
-7.679194930062761
 30
0.0
 10
57.52651885359315
 20
-7.190024323753309
 30
0.0
 10
56.11544180106432
 20
-6.462492662455826
 30
0.0
 10
54.70647906801019
 20
-5.534296598688089
 30
0.0
 10
53.29748388220474
 20
-4.430885071536948
 30
0.0
 10
51.88631141875072
 20
-3.189327446778386
 30
0.0
 10
50.47588478873991
 20
-1.846863439222391
 30
0.0
 10
49.06710514903368
 20
-0.4458224225334287
 30
0.0
 10
47.65781204983404
 20
0.9694178441511686
 30
0.0
 10
46.24627153809951
 20
2.352649097133188
 30
0.0
 10
44.83642321096261
 20
3.663115645380035
 30
0.0
 10
43.42771403875314
 20
4.858275607741749
 30
0.0
 10
42.01800122558773
 20
5.900528068609856
 30
0.0
 10
40.60641646228014
 20
6.756196805848142
 30
0.0
 10
39.19702245713184
 20
7.400436372819112
 30
0.0
 10
37.78827065981801
 20
7.810596844843811
 30
0.0
 10
36.37802156946639
 20
7.978490461686379
 30
0.0
 10
34.96668606770771
 20
7.881820661130451
 30
0.0
 10
33.82740600106499
 20
7.644076047047869
 30
0.0
 10
33.15808815245764
 20
7.359355291699578
 30
0.0
 10
32.95832531058662
 20
7.274378285115372
 30
0.0
  0
SPLINE
  5
C9
330
1F
100
AcDbEntity
  8
외형선
  6
Continuous
 62
     1
370
    15
100
AcDbSpline
210
0.0
220
0.0
230
1.0
 70
     8
 71
     3
 72
    16
 73
    12
 74
     0
 42
0.000000001
 43
0.00000001
 40
0.0
 40
0.0
 40
0.0
 40
0.0
 40
0.1180028064813365
 40
0.2360328023808781
 40
0.353934360188107
 40
0.4718034060698452
 40
0.5897378237599709
 40
0.7013688667528346
 40
0.8128471247019659
 40
0.924263606135931
 40
1.0
 40
1.0
 40
1.0
 40
1.0
 10
12.0
 20
-2.947187379254758
 30
0.0
 10
12.49747840497684
 20
-3.398883463615691
 30
0.0
 10
13.49254984058058
 20
-4.302379709131197
 30
0.0
 10
14.98527074124688
 20
-5.477451062079941
 30
0.0
 10
16.47606666287374
 20
-6.467684260018173
 30
0.0
 10
17.9664348694686
 20
-7.228178475936424
 30
0.0
 10
19.43060111100483
 20
-7.724985533588513
 30
0.0
 10
20.86935150273471
 20
-7.959386008937441
 30
0.0
 10
22.27892011405744
 20
-7.930438067942475
 30
0.0
 10
23.5367989335758
 20
-7.710755122254089
 30
0.0
 10
24.32573440055544
 20
-7.402257551381278
 30
0.0
 10
24.64499814237802
 20
-7.277415795696122
 30
0.0
  0
SPLINE
  5
CA
330
1F
100
AcDbEntity
  8
외형선
  6
Continuous
 62
     1
370
    15
100
AcDbSpline
210
0.0
220
0.0
230
1.0
 70
     8
 71
     3
 72
    28
 73
    24
 74
     0
 42
0.000000001
 43
0.00000001
 40
0.0
 40
0.0
 40
0.0
 40
0.0
 40
0.0452220051873953
 40
0.0953154452892136
 40
0.1453907987525397
 40
0.1955223266065484
 40
0.2456782312632586
 40
0.295761082587933
 40
0.3458426527209784
 40
0.395995819102861
 40
0.4461305983589794
 40
0.496206654139829
 40
0.5462982353121729
 40
0.5964649199905087
 40
0.6465799620412708
 40
0.6966530215396943
 40
0.7467583992453002
 40
0.796928108425688
 40
0.8470271779915707
 40
0.897101043127846
 40
0.9472239906399996
 40
0.997386227216218
 40
1.0
 40
1.0
 40
1.0
 40
1.0
 10
46.38522287273735
 20
7.926381683625632
 30
0.0
 10
46.80961778639187
 20
7.911278323321239
 30
0.0
 10
47.70412456480271
 20
7.879444628490346
 30
0.0
 10
49.06711934893487
 20
7.52480915830759
 30
0.0
 10
50.47588096860343
 20
6.943786845604962
 30
0.0
 10
51.88631248516619
 20
6.138401026364233
 30
0.0
 10
53.29748344115529
 20
5.141974847471364
 30
0.0
 10
54.70647976616275
 20
3.982402910826901
 30
0.0
 10
56.11543944755389
 20
2.697526668870294
 30
0.0
 10
57.52652758152578
 20
1.328820937798756
 30
0.0
 10
58.93705321748372
 20
-0.0821087873904939
 30
0.0
 10
60.34585334849664
 20
-1.491029242801679
 30
0.0
 10
61.75509346647681
 20
-2.853135513881574
 30
0.0
 10
63.16659871951737
 20
-4.124088937660807
 30
0.0
 10
64.5765271575356
 20
-5.266363181991824
 30
0.0
 10
65.98524004796818
 20
-6.242937580693074
 30
0.0
 10
67.39488026179822
 20
-7.022863813028963
 30
0.0
 10
68.8064812487336
 20
-7.581716132137057
 30
0.0
 10
70.21592907007485
 20
-7.900756617913763
 30
0.0
 10
71.62469464763649
 20
-7.977772225892768
 30
0.0
 10
73.03475143532134
 20
-7.778324893599108
 30
0.0
 10
74.00082452542586
 20
-7.539367549233257
 30
0.0
 10
74.49561697873656
 20
-7.308263359093569
 30
0.0
 10
74.52012195862736
 20
-7.296817744888738
 30
0.0
  0
SPLINE
  5
CB
330
1F
100
AcDbEntity
  8
외형선
  6
Continuous
370
    15
100
AcDbSpline
210
0.0
220
0.0
230
1.0
 70
    24
 71
     3
 72
    24
 73
    20
 74
     0
 42
0.000000001
 43
0.00000001
 40
0.0
 40
0.0
 40
0.0
 40
0.0
 40
0.1250000000000001
 40
0.1250000000000001
 40
0.1875000000000001
 40
0.1875000000000001
 40
0.2500000000000001
 40
0.2500000000000001
 40
0.3750000000000001
 40
0.3750000000000001
 40
0.5000000000000001
 40
0.5000000000000001
 40
0.625
 40
0.625
 40
0.75
 40
0.75
 40
0.875
 40
0.875
 40
1.0
 40
1.0
 40
1.0
 40
1.0
 10
11.99999999999998
 20
3.272968527496599
 30
0.0
 10
11.99999999999996
 20
3.206140512084462
 30
0.0
 10
11.99999999999995
 20
3.10527504025239
 30
0.0
 10
11.99999999999998
 20
2.936262029048594
 30
0.0
 10
11.99999999999998
 20
2.879142646981783
 30
0.0
 10
11.99999999999998
 20
2.74569272988672
 30
0.0
 10
11.99999999999996
 20
2.669752130655842
 30
0.0
 10
11.99999999999996
 20
2.408956665888145
 30
0.0
 10
11.99999999999999
 20
2.190499221953951
 30
0.0
 10
12.0
 20
1.642856970166915
 30
0.0
 10
12.00000000000001
 20
1.31234693902544
 30
0.0
 10
11.99999999999999
 20
0.5538636517163926
 30
0.0
 10
11.99999999999995
 20
0.1254527626831881
 30
0.0
 10
11.99999999999998
 20
-0.7447196004203915
 30
0.0
 10
11.99999999999998
 20
-1.183766403309775
 30
0.0
 10
11.99999999999999
 20
-1.948528388553426
 30
0.0
 10
12.0
 20
-2.271336563362242
 30
0.0
 10
12.00000000000001
 20
-2.736288848093713
 30
0.0
 10
12.0
 20
-2.879412038393208
 30
0.0
 10
11.99999999999999
 20
-2.947187379254711
 30
0.0
  0
SPLINE
  5
CC
330
1F
100
AcDbEntity
  8
외형선
  6
Continuous
 62
     1
370
    15
100
AcDbSpline
210
0.0
220
0.0
230
1.0
 70
     8
 71
     3
 72
    28
 73
    24
 74
     0
 42
0.000000001
 43
0.00000001
 40
0.0
 40
0.0
 40
0.0
 40
0.0
 40
0.0160201862190058
 40
0.0661026918887968
 40
0.11619360219638
 40
0.1663598792099764
 40
0.2164868639948755
 40
0.2665647624504406
 40
0.3166678673657632
 40
0.366841617585428
 40
0.4169510311485783
 40
0.4670281239013975
 40
0.5171472025881428
 40
0.5673179280621392
 40
0.6174135439807527
 40
0.667493633257342
 40
0.7176324507392231
 40
0.7677896568279022
 40
0.8178752609008548
 40
0.8679621462686314
 40
0.9181220908527004
 40
0.9682576566705798
 40
1.0
 40
1.0
 40
1.0
 40
1.0
 10
77.71461767162077
 20
-7.91028517623718
 30
0.0
 10
77.56433312081177
 20
-7.917928232603519
 30
0.0
 10
76.94422713565251
 20
-7.949465106967272
 30
0.0
 10
75.85534974700411
 20
-7.750096041400633
 30
0.0
 10
74.44619585010594
 20
-7.314409334923074
 30
0.0
 10
73.0348405851486
 20
-6.63139912380201
 30
0.0
 10
71.62467079443039
 20
-5.744088500652232
 30
0.0
 10
70.21593546217554
 20
-4.674511850034114
 30
0.0
 10
68.80647953284722
 20
-3.457962769632295
 30
0.0
 10
67.39488072119082
 20
-2.133931456266914
 30
0.0
 10
65.98523992504713
 20
-0.7414211126496174
 30
0.0
 10
64.57652719044032
 20
0.6743591550259664
 30
0.0
 10
63.16659871088348
 20
2.068828482906969
 30
0.0
 10
61.75509346805308
 20
3.397072269008766
 30
0.0
 10
60.34585335080957
 20
4.619818764106632
 30
0.0
 10
58.9370532066544
 20
5.696964972485644
 30
0.0
 10
57.52652762259052
 20
6.59436631718745
 30
0.0
 10
56.11543929417601
 20
7.2843168408337
 30
0.0
 10
54.70648033770705
 20
7.744862104448296
 30
0.0
 10
53.29748130663608
 20
7.964027194721529
 30
0.0
 10
51.88632046262079
 20
7.923005938121017
 30
0.0
 10
50.6478469285729
 20
7.69942156600287
 30
0.0
 10
49.88041967230277
 20
7.394151724551848
 30
0.0
 10
49.58290426549068
 20
7.275805027422299
 30
0.0
  0
SPLINE
  5
CD
330
1F
100
AcDbEntity
  8
외형선
  6
Continuous
 62
     1
370
    15
100
AcDbSpline
210
0.0
220
0.0
230
1.0
 70
     8
 71
     3
 72
    18
 73
    14
 74
     0
 42
0.000000001
 43
0.00000001
 40
0.0
 40
0.0
 40
0.0
 40
0.0
 40
0.0842015527592239
 40
0.1732894272491119
 40
0.2622991114271504
 40
0.3512261629845694
 40
0.4402025214603059
 40
0.5293008253007352
 40
0.6234301669147035
 40
0.7175073320274936
 40
0.8116104465297904
 40
0.9058160738803667
 40
1.0
 40
1.0
 40
1.0
 40
1.0
 10
27.84309599783768
 20
-7.931185130203837
 30
0.0
 10
27.39866641879471
 20
-7.912103144011872
 30
0.0
 10
26.48401645473589
 20
-7.87283182003241
 30
0.0
 10
25.09769229283815
 20
-7.503810742967482
 30
0.0
 10
23.68761726929626
 20
-6.912205727401238
 30
0.0
 10
22.27889535248088
 20
-6.097441269653304
 30
0.0
 10
20.86935813711445
 20
-5.092065724081576
 30
0.0
 10
19.43059922012988
 20
-3.904818316564746
 30
0.0
 10
17.96643538749864
 20
-2.561901361512797
 30
0.0
 10
16.47606652411054
 20
-1.10378383052313
 30
0.0
 10
14.98527077829995
 20
0.3913500097861965
 30
0.0
 10
13.49254983131557
 20
1.880211820579861
 30
0.0
 10
12.49747840188871
 20
2.808751945751989
 30
0.0
 10
11.99999999999998
 20
3.272968527496561
 30
0.0
  0
LINE
  5
CE
330
1F
100
AcDbEntity
  8
외형선
  6
Continuous
 62
     1
370
    15
100
AcDbLine
 10
78.67499999999998
 20
-7.937499999999998
 30
0.0
 11
78.67499999999998
 21
-7.879576497803172
 31
0.0
  0
LINE
  5
CF
330
1F
100
AcDbEntity
  8
외형선
  6
Continuous
370
    15
100
AcDbLine
 10
11.99999999999999
 20
3.272968527496572
 30
0.0
 11
12.0
 21
4.909077741769667
 31
0.0
  0
LINE
  5
D0
330
1F
100
AcDbEntity
  8
외형선
  6
Continuous
 62
     1
370
    15
100
AcDbLine
 10
78.67499999999998
 20
3.110851973334716
 30
0.0
 11
78.67499999999998
 21
4.768724524468541
 31
0.0
  0
LINE
  5
D1
330
1F
100
AcDbEntity
  8
외형선
  6
Continuous
 62
     1
370
    15
100
AcDbLine
 10
78.67499999999998
 20
7.879576497803185
 30
0.0
 11
78.67499999999998
 21
7.937500000000006
 31
0.0
  0
LINE
  5
D2
330
1F
100
AcDbEntity
  8
외형선
  6
Continuous
 62
     1
370
    15
100
AcDbLine
 10
78.67499999999998
 20
-4.768724524468492
 30
0.0
 11
78.67499999999998
 21
-3.110851973334559
 31
0.0
  0
LINE
  5
D3
330
1F
100
AcDbEntity
  8
외형선
  6
Continuous
370
    15
100
AcDbLine
 10
11.99999999999999
 20
-4.6259982672463
 30
0.0
 11
11.99999999999999
 21
-2.947187379254747
 31
0.0
  0
SPLINE
  5
D4
330
1F
100
AcDbEntity
  8
외형선
  6
Continuous
370
    15
100
AcDbSpline
210
0.0
220
0.0
230
1.0
 70
     8
 71
     3
 72
     8
 73
     4
 74
     0
 42
0.000000001
 43
0.00000001
 40
0.0
 40
0.0
 40
0.0
 40
0.0
 40
1.0
 40
1.0
 40
1.0
 40
1.0
 10
11.99999999999998
 20
7.898966794742909
 30
0.0
 10
11.66569103095592
 20
7.931852321117201
 30
0.0
 10
11.33494625702478
 20
7.943698623368371
 30
0.0
 10
11.00035706310407
 20
7.934481301356118
 30
0.0
  0
LINE
  5
D5
330
1F
100
AcDbEntity
  8
외형선
  6
Continuous
370
    15
100
AcDbLine
 10
11.00035706310408
 20
5.654847276512932
 30
0.0
 11
11.00035706310408
 21
7.937500000000004
 31
0.0
  0
SPLINE
  5
D6
330
1F
100
AcDbEntity
  8
외형선
  6
Continuous
370
    15
100
AcDbSpline
210
0.0
220
0.0
230
1.0
 70
     8
 71
     3
 72
     8
 73
     4
 74
     0
 42
0.000000001
 43
0.00000001
 40
0.0
 40
0.0
 40
0.0
 40
0.0
 40
1.0
 40
1.0
 40
1.0
 40
1.0
 10
12.0
 20
4.909077741769653
 30
0.0
 10
11.66569103095594
 20
5.171656761057941
 30
0.0
 10
11.33494625702478
 20
5.420301015753445
 30
0.0
 10
11.00035706310408
 20
5.654856572414539
 30
0.0
  0
SPLINE
  5
D7
330
1F
100
AcDbEntity
  8
외형선
  6
Continuous
370
    15
100
AcDbSpline
210
0.0
220
0.0
230
1.0
 70
     8
 71
     3
 72
     8
 73
     4
 74
     0
 42
0.000000001
 43
0.00000001
 40
0.0
 40
0.0
 40
0.0
 40
0.0
 40
1.0
 40
1.0
 40
1.0
 40
1.0
 10
11.99999999999998
 20
3.27296852749659
 30
0.0
 10
11.66569103095592
 20
3.577389085879401
 30
0.0
 10
11.33494625702478
 20
3.872060079507226
 30
0.0
 10
11.00035706310407
 20
4.156804746230447
 30
0.0
  0
LINE
  5
D8
330
1F
100
AcDbEntity
  8
외형선
  6
Continuous
370
    15
100
AcDbLine
 10
11.00035706310408
 20
-1.996470680339912
 30
0.0
 11
11.00035706310408
 21
4.1568105955734
 31
0.0
  0
SPLINE
  5
D9
330
1F
100
AcDbEntity
  8
외형선
  6
Continuous
370
    15
100
AcDbSpline
210
0.0
220
0.0
230
1.0
 70
     8
 71
     3
 72
     8
 73
     4
 74
     0
 42
0.000000001
 43
0.00000001
 40
0.0
 40
0.0
 40
0.0
 40
0.0
 40
1.0
 40
1.0
 40
1.0
 40
1.0
 10
12.0
 20
-2.947187379254757
 30
0.0
 10
11.66569103095594
 20
-2.636924413808793
 30
0.0
 10
11.33494625702478
 20
-2.319955994872914
 30
0.0
 10
11.00035706310408
 20
-1.996457859481259
 30
0.0
  0
SPLINE
  5
DA
330
1F
100
AcDbEntity
  8
외형선
  6
Continuous
370
    15
100
AcDbSpline
210
0.0
220
0.0
230
1.0
 70
     8
 71
     3
 72
     8
 73
     4
 74
     0
 42
0.000000001
 43
0.00000001
 40
0.0
 40
0.0
 40
0.0
 40
0.0
 40
1.0
 40
1.0
 40
1.0
 40
1.0
 10
11.99999999999998
 20
-4.625998267246279
 30
0.0
 10
11.66569103095592
 20
-4.354463235237762
 30
0.0
 10
11.33494625702478
 20
-4.07163854386111
 30
0.0
 10
11.00035706310407
 20
-3.777676555125638
 30
0.0
  0
LINE
  5
DB
330
1F
100
AcDbEntity
  8
외형선
  6
Continuous
370
    15
100
AcDbLine
 10
11.00035706310408
 20
-7.65131795685278
 30
0.0
 11
11.00035706310408
 21
-3.777670516433618
 31
0.0
  0
SPLINE
  5
DC
330
1F
100
AcDbEntity
  8
외형선
  6
Continuous
370
    15
100
AcDbSpline
210
0.0
220
0.0
230
1.0
 70
     8
 71
     3
 72
     8
 73
     4
 74
     0
 42
0.000000001
 43
0.00000001
 40
0.0
 40
0.0
 40
0.0
 40
0.0
 40
1.0
 40
1.0
 40
1.0
 40
1.0
 10
12.0
 20
-7.856265121024344
 30
0.0
 10
11.66569103095594
 20
-7.80858117486667
 30
0.0
 10
11.33494625702478
 20
-7.740257010626294
 30
0.0
 10
11.00035706310408
 20
-7.651314431895734
 30
0.0
  0
LINE
  5
DD
330
1F
100
AcDbEntity
  8
외형선
  6
Continuous
370
    15
100
AcDbLine
 10
11.21877253160255
 20
-7.926721613057303
 30
0.0
 11
11.00035706310407
 21
-7.934481301356112
 31
0.0
  0
LINE
  5
DE
330
1F
100
AcDbEntity
  8
외형선
  6
Continuous
370
    15
100
AcDbLine
 10
11.00035706310408
 20
-7.937499999999996
 30
0.0
 11
11.00035706310408
 21
-7.934481112007045
 31
0.0
  0
LINE
  5
DF
330
1F
100
AcDbEntity
  8
외형선
  6
Continuous
370
    15
100
AcDbLine
 10
-49.91250000000003
 20
0.000000000000004
 30
0.0
 11
-49.91250000000003
 21
7.937500000000004
 31
0.0
  0
LINE
  5
E0
330
1F
100
AcDbEntity
  8
외형선
  6
Continuous
370
    15
100
AcDbLine
 10
-49.91250000000003
 20
-7.937499999999996
 30
0.0
 11
-49.91250000000003
 21
0.000000000000004
 31
0.0
  0
LINE
  5
E1
330
1F
100
AcDbEntity
  8
외형선
  6
Continuous
370
    15
100
AcDbLine
 10
-51.50000000000003
 20
0.000000000000004
 30
0.0
 11
-51.50000000000003
 21
6.350000000000013
 31
0.0
  0
LINE
  5
E2
330
1F
100
AcDbEntity
  8
외형선
  6
Continuous
370
    15
100
AcDbLine
 10
-51.50000000000003
 20
-6.350000000000009
 30
0.0
 11
-51.50000000000003
 21
0.000000000000004
 31
0.0
  0
SPLINE
  5
E3
330
1F
100
AcDbEntity
  8
외형선
  6
Continuous
370
    15
100
AcDbSpline
210
0.0
220
0.0
230
1.0
 70
    24
 71
     3
 72
    24
 73
    20
 74
     0
 42
0.000000001
 43
0.00000001
 40
0.0
 40
0.0
 40
0.0
 40
0.0
 40
0.1250000000000001
 40
0.1250000000000001
 40
0.2500000000000002
 40
0.2500000000000002
 40
0.3750000000000002
 40
0.3750000000000002
 40
0.5000000000000003
 40
0.5000000000000003
 40
0.6250000000000006
 40
0.6250000000000006
 40
0.7500000000000007
 40
0.7500000000000007
 40
0.8125000000000006
 40
0.8125000000000006
 40
0.8750000000000004
 40
0.8750000000000004
 40
1.0
 40
1.0
 40
1.0
 40
1.0
 10
11.99999999999996
 20
-2.947187379254713
 30
0.0
 10
11.99999999999996
 20
-2.879412038393208
 30
0.0
 10
11.99999999999998
 20
-2.736288848093708
 30
0.0
 10
11.99999999999999
 20
-2.271336563362211
 30
0.0
 10
12.0
 20
-1.948528388553375
 30
0.0
 10
12.00000000000001
 20
-1.183766403309684
 30
0.0
 10
11.99999999999998
 20
-0.7447196004202801
 30
0.0
 10
11.99999999999999
 20
0.1254527626833288
 30
0.0
 10
11.99999999999996
 20
0.5538636517165411
 30
0.0
 10
12.0
 20
1.31234693902559
 30
0.0
 10
11.99999999999998
 20
1.642856970167061
 30
0.0
 10
11.99999999999998
 20
2.190499221954078
 30
0.0
 10
11.99999999999998
 20
2.408956665888262
 30
0.0
 10
11.99999999999999
 20
2.669752130655942
 30
0.0
 10
11.99999999999998
 20
2.745692729886815
 30
0.0
 10
11.99999999999999
 20
2.879142646981867
 30
0.0
 10
11.99999999999998
 20
2.936262029048677
 30
0.0
 10
11.99999999999999
 20
3.105275040252471
 30
0.0
 10
11.99999999999996
 20
3.206140512084533
 30
0.0
 10
11.99999999999995
 20
3.272968527496652
 30
0.0
  0
SPLINE
  5
E4
330
1F
100
AcDbEntity
  8
외형선
  6
Continuous
370
    15
100
AcDbSpline
210
0.0
220
0.0
230
1.0
 70
    24
 71
     3
 72
    14
 73
    10
 74
     0
 42
0.000000001
 43
0.00000001
 40
0.0
 40
0.0
 40
0.0
 40
0.0
 40
0.1208878510625057
 40
0.2804946895267995
 40
0.4401015279910933
 40
0.5997083664553783
 40
0.7593152049196638
 40
0.9189220433839609
 40
1.0
 40
1.0
 40
1.0
 40
1.0
 10
11.99999999999999
 20
-7.856265121024342
 30
0.0
 10
11.99999999999999
 20
-7.727368675067643
 30
0.0
 10
11.99999999999998
 20
-7.42829173497845
 30
0.0
 10
11.99999999999999
 20
-6.937061293399148
 30
0.0
 10
12.0
 20
-6.400508703083513
 30
0.0
 10
11.99999999999996
 20
-5.87372681315355
 30
0.0
 10
11.99999999999996
 20
-5.375434247462233
 30
0.0
 10
11.99999999999998
 20
-4.983439632752935
 30
0.0
 10
11.99999999999999
 20
-4.783614116469771
 30
0.0
 10
12.0
 20
-4.716300165313959
 30
0.0
  0
SPLINE
  5
E5
330
1F
100
AcDbEntity
  8
외형선
  6
Continuous
370
    15
100
AcDbSpline
210
0.0
220
0.0
230
1.0
 70
    24
 71
     3
 72
    13
 73
     9
 74
     0
 42
0.000000001
 43
0.00000001
 40
0.0
 40
0.0
 40
0.0
 40
0.0
 40
0.04524426746832
 40
0.2195435586927848
 40
0.3938428499172505
 40
0.5681421411417363
 40
0.7424414323662217
 40
1.0
 40
1.0
 40
1.0
 40
1.0
 10
11.99999999999995
 20
4.999379639837326
 30
0.0
 10
11.99999999999993
 20
5.034059083345285
 30
0.0
 10
11.99999999999988
 20
5.202337825984966
 30
0.0
 10
11.99999999999998
 20
5.55999458730501
 30
0.0
 10
12.00000000000003
 20
6.056979861918789
 30
0.0
 10
11.99999999999999
 20
6.584163108112651
 30
0.0
 10
11.99999999999999
 20
7.20832663193715
 30
0.0
 10
11.99999999999999
 20
7.640951052374271
 30
0.0
 10
11.99999999999999
 20
7.898966794743217
 30
0.0
  0
LINE
  5
E6
330
1F
100
AcDbEntity
  8
중심선
 62
     1
100
AcDbLine
 10
-54.50000000000001
 20
-0.0000000000000047
 30
0.0
 11
81.67500000000001
 21
0.0000000000000077
 31
0.0
  0
LINE
  5
E7
330
1F
100
AcDbEntity
  8
참조1
100
AcDbLine
 10
13.5875
 20
-0.0000000000000086
 30
0.0
 11
13.5875
 21
-40.00000000000001
 31
0.0
  0
LINE
  5
E8
330
1F
100
AcDbEntity
  8
참조1
100
AcDbLine
 10
13.5875
 20
-40.00000000000001
 30
0.0
 11
-17.4463568143087
 21
-40.0
 31
0.0
  0
INSERT
  5
EA
330
1F
100
AcDbEntity
  8
0
  6
Continuous
 62
     7
100
AcDbBlockReference
 66
     1
  2
블럭10
 10
-0.3527729321252102
 20
-52.04717430164393
 30
0.0
  0
ATTRIB
  5
EB
330
EA
100
AcDbEntity
  8
FORMAT
 62
     2
100
AcDbText
 10
-10.49440894426184
 20
-49.97180738881174
 30
0.0
 40
4.233333333333333
  1
EM218040 [ 6 FLUTE ]
 41
0.75
  7
SLDTEXTSTYLE0
 11
-10.49440894426184
 21
-52.08847405547841
 31
0.0
100
AcDbAttribute
  2
AUTOATTR0
 70
     0
 74
     1
  0
SEQEND
  5
EC
330
EA
100
AcDbEntity
  8
0
  6
Continuous
 62
     7
  0
HATCH
  5
ED
330
1F
100
AcDbEntity
  8
중심선
100
AcDbHatch
 10
0.0
 20
0.0
 30
0.0
210
0.0
220
0.0
230
1.0
  2
SOLID
 70
     1
 71
     0
 91
        1
 92
        0
 93
        4
 72
     1
 10
5.362136372255637
 20
-35.8
 11
1.915861128418355
 21
-35.8
 72
     1
 10
1.915861128418355
 20
-35.8
 11
-0.2123687307856681
 21
-38.3363255805726
 72
     1
 10
-0.2123687307856681
 20
-38.3363255805726
 11
3.233939598164763
 21
-38.33628615127011
 72
     1
 10
3.233939598164763
 20
-38.33628615127011
 11
5.362136372255637
 21
-35.8
 97
        0
 75
     0
 76
     1
 98
        1
 10
-4.350000000000016
 20
-0.0010749287238978
  0
HATCH
  5
EE
330
1F
100
AcDbEntity
  8
중심선
100
AcDbHatch
 10
0.0
 20
0.0
 30
0.0
210
0.0
220
0.0
230
1.0
  2
SOLID
 70
     1
 71
     0
 91
        1
 92
        0
 93
        4
 72
     1
 10
10.37490036329162
 20
-35.8
 11
6.928625119454306
 21
-35.8
 72
     1
 10
6.928625119454306
 20
-35.8
 11
2.397487111096918
 21
-41.20000000000002
 72
     1
 10
2.397487111096918
 20
-41.20000000000002
 11
5.843762354934201
 21
-41.20000000000002
 72
     1
 10
5.843762354934201
 20
-41.20000000000002
 11
10.37490036329162
 21
-35.8
 97
        0
 75
     0
 76
     1
 98
        1
 10
-4.350000000000016
 20
-0.0010749287238978
  0
HATCH
  5
EF
330
1F
100
AcDbEntity
  8
중심선
100
AcDbHatch
 10
0.0
 20
0.0
 30
0.0
210
0.0
220
0.0
230
1.0
  2
SOLID
 70
     1
 71
     0
 91
        1
 92
        0
 93
        4
 72
     1
 10
15.38766435432748
 20
-35.79999999999998
 11
11.94138911049039
 21
-35.79999999999998
 72
     1
 10
11.94138911049039
 20
-35.79999999999998
 11
4.89295220860112
 21
-44.20000000000002
 72
     1
 10
4.89295220860112
 20
-44.20000000000002
 11
8.339227452438402
 21
-44.20000000000002
 72
     1
 10
8.339227452438402
 20
-44.20000000000002
 11
15.38766435432748
 21
-35.79999999999998
 97
        0
 75
     0
 76
     1
 98
        1
 10
-4.350000000000016
 20
-0.0010749287238978
  0
HATCH
  5
F0
330
1F
100
AcDbEntity
  8
중심선
100
AcDbHatch
 10
0.0
 20
0.0
 30
0.0
210
0.0
220
0.0
230
1.0
  2
SOLID
 70
     1
 71
     0
 91
        1
 92
        0
 93
        6
 72
     3
 10
20.18755478533969
 20
-40.00000000005127
 11
3.960054785062283
 21
1.540882976769353E-10
 40
0.3939339440162628
 50
17.09539180608436
 51
320.0019657685086
 73
     0
 72
     1
 10
21.87055444104028
 20
-38.58789400463833
 11
24.17585631474132
 21
-36.65356729459038
 72
     3
 10
20.18755478528684
 20
-40.00000000000015
 11
6.600054785286829
 21
-1.278976924368180E-13
 40
0.636358354079598
 50
39.99873849337408
 51
368.4976242363724
 73
     1
 72
     1
 10
26.61288727718745
 20
-39.03999999993002
 11
18.86762209212276
 21
-39.03999999993002
 72
     1
 10
18.86762209212276
 20
-39.03999999993002
 11
18.86759704767682
 21
-40.95999999992991
 72
     1
 10
18.86759704767682
 20
-40.95999999992991
 11
23.30897681714886
 21
-40.95999999992988
 97
        0
 75
     0
 76
     1
 98
        1
 10
-4.350000000000016
 20
-0.0010749287238978
  0
DIMENSION
  5
F1
330
1F
100
AcDbEntity
  8
치수문자_일반주서
100
AcDbDimension
  2
_D
 10
94.24856698000356
 20
-7.937499999999943
 30
0.0
 11
94.24856698000343
 21
28.54607649780324
 31
0.0
 70
   160
  1
%%c<>
 71
     2
 42
15.87957649780319
 52
-270.0
  3
SLDDIMSTYLE0
100
AcDbAlignedDimension
 13
78.67499999999998
 23
7.942076497803185
 33
0.0
 14
78.67499999999998
 24
-7.9375
 34
0.0
 50
90.0000000000002
100
AcDbRotatedDimension
1001
PE_URL
1000

1001
ACAD
1000
DSTYLE
1002
{
1070
   171
1070
     6
1070
   273
1070
     7
1002
}
1001
ACAD_DSTYLE_DIMFLIPARROW_SYMBOL
1070
   385
1070
     0
1001
ACAD_DSTYLE_DIMFLIPARROW_WHICH_SYMBOL
1070
   386
1070
     3
  0
DIMENSION
  5
106
330
1F
100
AcDbEntity
  8
치수문자_일반주서
100
AcDbDimension
  2
_D_1
 10
-64.81750000000002
 20
-7.937500000000065
 30
0.0
 11
-64.81750000000005
 21
0.0000000000000135
 31
0.0
 70
   160
  1
%%c<>
 71
     2
 42
15.87500000000003
 52
-270.0
  3
SLDDIMSTYLE0
100
AcDbAlignedDimension
 13
-49.91250000000004
 23
7.937500000000018
 33
0.0
 14
-49.91250000000004
 24
-7.93750000000001
 34
0.0
 50
90.0000000000002
100
AcDbRotatedDimension
1001
ACAD
1000
DSTYLE
1002
{
1070
   171
1070
     6
1070
   273
1070
     7
1002
}
1001
ACAD_DSTYLE_DIMFLIPARROW_SYMBOL
1070
   385
1070
     0
1001
ACAD_DSTYLE_DIMFLIPARROW_WHICH_SYMBOL
1070
   386
1070
     3
  0
DIMENSION
  5
11A
330
1F
100
AcDbEntity
  8
치수문자_일반주서
100
AcDbDimension
  2
_D_2
 10
11.99999999999999
 20
29.21163772939833
 30
0.0
 11
45.33749999999999
 21
29.21163772939833
 31
0.0
 70
   160
  1
<>
 71
     2
 42
66.675
  3
SLDDIMSTYLE0
100
AcDbAlignedDimension
 13
78.67499999999998
 23
7.879576497803185
 33
0.0
 14
11.99999999999999
 24
7.898966794743217
 34
0.0
 50
0.0000000000000061
100
AcDbRotatedDimension
1001
PE_URL
1000

1001
ACAD
1000
DSTYLE
1002
{
1070
   171
1070
     6
1070
   273
1070
     7
1002
}
  0
DIMENSION
  5
12E
330
1F
100
AcDbEntity
  8
치수문자_일반주서
100
AcDbDimension
  2
_D_3
 10
-51.50000000000003
 20
50.48119896099347
 30
0.0
 11
13.58749999999998
 21
50.48119896099347
 31
0.0
 70
   160
  1
<>
 71
     2
 42
130.175
  3
SLDDIMSTYLE0
100
AcDbAlignedDimension
 13
78.67499999999998
 23
7.879576497803185
 33
0.0
 14
-51.50000000000003
 24
6.350000000000011
 34
0.0
 50
0.0000000000000063
100
AcDbRotatedDimension
1001
PE_URL
1000

1001
ACAD
1000
DSTYLE
1002
{
1070
   171
1070
     6
1070
   273
1070
     7
1002
}
  0
LINE
  5
141
330
1F
100
AcDbEntity
  8
참조1
100
AcDbLine
 10
80.52598381534557
 20
7.439999999999998
 30
0.0
 11
80.52598381534557
 21
-7.440000000000007
 31
0.0
  0
LINE
  5
142
330
1F
100
AcDbEntity
  8
참조1
100
AcDbLine
 10
93.22598381534559
 20
5.439999999999998
 30
0.0
 11
80.52598381534557
 21
5.439999999999998
 31
0.0
  0
SOLID
  5
143
330
1F
100
AcDbEntity
  8
참조1
100
AcDbTrace
 10
80.52598381534557
 20
5.439999999999998
 30
0.0
 11
86.87598381534556
 21
4.423999999999998
 31
0.0
 12
86.87598381534556
 22
6.455999999999998
 32
0.0
 13
86.87598381534556
 23
6.455999999999998
 33
0.0
  0
LINE
  5
144
330
1F
100
AcDbEntity
  8
참조1
100
AcDbLine
 10
93.22598381534559
 20
-5.440000000000007
 30
0.0
 11
80.52598381534557
 21
-5.440000000000007
 31
0.0
  0
SOLID
  5
145
330
1F
100
AcDbEntity
  8
참조1
100
AcDbTrace
 10
80.52598381534557
 20
-5.440000000000007
 30
0.0
 11
86.87598381534556
 21
-6.456000000000007
 31
0.0
 12
86.87598381534556
 22
-4.424000000000007
 32
0.0
 13
86.87598381534556
 23
-4.424000000000007
 33
0.0
  0
MTEXT
  5
146
330
1F
100
AcDbEntity
  8
참조1
100
AcDbMText
 10
89.92347390781583
 20
10.98821664464993
 30
0.0
 40
3.5
 41
0.0
 71
     1
 72
     1
  1
A
  7
SLDTEXTSTYLE0
 73
     1
 44
1.0
  0
MTEXT
  5
147
330
1F
100
AcDbEntity
  8
참조1
100
AcDbMText
 10
89.92347390781583
 20
0.1082166446499281
 30
0.0
 40
3.5
 41
0.0
 71
     1
 72
     1
  1
A
  7
SLDTEXTSTYLE0
 73
     1
 44
1.0
  0
INSERT
  5
14E
330
1F
100
AcDbEntity
  8
해칭선
100
AcDbBlockReference
  2
SW_DOWELSYMBOL_0
 10
0.0
 20
0.0
 30
0.0
  0
ENDSEC
  0
SECTION
  2
OBJECTS
  0
DICTIONARY
  5
C
330
0
100
AcDbDictionary
281
     1
  3
ACAD_GROUP
350
D
  3
ACAD_LAYOUT
350
1A
  3
ACAD_MLINESTYLE
350
17
  3
ACAD_PLOTSETTINGS
350
19
  3
ACAD_PLOTSTYLENAME
350
E
  3
ACAD_SCALELIST
350
47
  3
APPDATA
350
170
  3
DWGPROPS
350
19E
  0
DICTIONARY
  5
19C
330
1F
100
AcDbDictionary
280
     1
281
     1
  3
DIM_BOUNDING_BOXES_V1
360
19D
  0
DICTIONARY
  5
D
102
{ACAD_REACTORS
330
C
102
}
330
C
100
AcDbDictionary
281
     1
  0
DICTIONARY
  5
1A
102
{ACAD_REACTORS
330
C
102
}
330
C
100
AcDbDictionary
281
     1
  3
Layout1
350
1E
  3
Layout2
350
26
  3
Model
350
22
  0
DICTIONARY
  5
17
102
{ACAD_REACTORS
330
C
102
}
330
C
100
AcDbDictionary
281
     1
  3
Standard
350
18
  0
DICTIONARY
  5
19
102
{ACAD_REACTORS
330
C
102
}
330
C
100
AcDbDictionary
281
     1
  0
ACDBDICTIONARYWDFLT
  5
E
102
{ACAD_REACTORS
330
C
102
}
330
C
100
AcDbDictionary
281
     1
  3
Normal
350
F
100
AcDbDictionaryWithDefault
340
F
  0
DICTIONARY
  5
47
102
{ACAD_REACTORS
330
C
102
}
330
C
100
AcDbDictionary
281
     1
  3
A0
350
48
  3
A1
350
49
  3
A2
350
4A
  3
A3
350
4B
  3
A4
350
4C
  3
A5
350
4D
  3
A6
350
4E
  3
A7
350
4F
  3
A8
350
50
  3
A9
350
51
  3
B0
350
52
  3
B1
350
53
  3
B2
350
54
  3
B3
350
55
  3
B4
350
56
  3
B5
350
57
  3
B6
350
58
  3
B7
350
59
  3
B8
350
5A
  3
B9
350
5B
  3
C0
350
5C
  3
C1
350
5D
  3
C2
350
5E
  3
C3
350
5F
  3
C4
350
60
  3
C5
350
61
  3
C6
350
62
  3
C7
350
63
  3
C8
350
64
  3
C9
350
65
  3
D0
350
66
  3
D1
350
67
  3
D2
350
68
  0
DICTIONARY
  5
170
102
{ACAD_REACTORS
330
C
102
}
330
C
100
AcDbDictionary
281
     1
  0
XRECORD
  5
19E
102
{ACAD_REACTORS
330
C
102
}
330
C
100
AcDbXrecord
280
     1
  1
DWGPROPS COOKIE
  2

  3

  4

  6

  7

  8
12017165
  9

300
=
301
=
302
=
303
=
304
=
305
=
306
=
307
=
308
=
309
=
 40
0.0
 41
2458292.27205588
 42
2459697.019544387
  1

 90
        0
  0
DICTIONARY
  5
19D
102
{ACAD_REACTORS
330
19C
102
}
330
19C
100
AcDbDictionary
281
     1
  0
LAYOUT
  5
1E
102
{ACAD_REACTORS
330
1A
102
}
330
1A
100
AcDbPlotSettings
  1

  2
none_device
  4

  6

 40
0.0
 41
0.0
 42
0.0
 43
0.0
 44
0.0
 45
0.0
 46
0.0
 47
0.0
 48
0.0
 49
0.0
140
0.0
141
0.0
142
1.0
143
1.0
 70
   688
 72
     1
 73
     0
 74
     5
  7

 75
    16
147
1.0
148
0.0
149
0.0
100
AcDbLayout
  1
Layout1
 70
     1
 71
     1
 10
0.0
 20
0.0
 11
420.0
 21
297.0
 12
0.0
 22
0.0
 32
0.0
 14
1.000000000000000E+20
 24
1.000000000000000E+20
 34
1.000000000000000E+20
 15
-1.000000000000000E+20
 25
-1.000000000000000E+20
 35
-1.000000000000000E+20
146
0.0
 13
0.0
 23
0.0
 33
0.0
 16
1.0
 26
0.0
 36
0.0
 17
0.0
 27
1.0
 37
0.0
 76
     0
330
1B
  0
LAYOUT
  5
26
102
{ACAD_REACTORS
330
1A
102
}
330
1A
100
AcDbPlotSettings
  1

  2
none_device
  4

  6

 40
0.0
 41
0.0
 42
0.0
 43
0.0
 44
0.0
 45
0.0
 46
0.0
 47
0.0
 48
0.0
 49
0.0
140
0.0
141
0.0
142
1.0
143
1.0
 70
   688
 72
     1
 73
     0
 74
     5
  7

 75
    16
147
1.0
148
0.0
149
0.0
100
AcDbLayout
  1
Layout2
 70
     1
 71
     2
 10
0.0
 20
0.0
 11
0.0
 21
0.0
 12
0.0
 22
0.0
 32
0.0
 14
0.0
 24
0.0
 34
0.0
 15
0.0
 25
0.0
 35
0.0
146
0.0
 13
0.0
 23
0.0
 33
0.0
 16
1.0
 26
0.0
 36
0.0
 17
0.0
 27
1.0
 37
0.0
 76
     0
330
23
  0
LAYOUT
  5
22
102
{ACAD_REACTORS
330
1A
102
}
330
1A
100
AcDbPlotSettings
  1

  2
none_device
  4
ANSI_A_(11.00_x_8.50_Inches)
  6

 40
6.35
 41
19.05
 42
6.35000508
 43
19.05000254
 44
279.4
 45
215.9
 46
110.4114503925367
 47
80.35176082957267
 48
0.0
 49
0.0
140
0.0
141
0.0
142
0.0637367845413413
143
1.0
 70
  1696
 72
     0
 73
     0
 74
     0
  7

 75
     0
147
0.0235690232323232
148
0.0
149
0.0
100
AcDbLayout
  1
Model
 70
     1
 71
     0
 10
0.0
 20
0.0
 11
420.0
 21
297.0
 12
0.0
 22
0.0
 32
0.0
 14
-69.19250000000011
 24
-49.97180738881175
 34
0.0
 15
94.79890031333687
 25
54.85619896099346
 35
0.0
146
0.0
 13
0.0
 23
0.0
 33
0.0
 16
1.0
 26
0.0
 36
0.0
 17
0.0
 27
1.0
 37
0.0
 76
     0
330
1F
331
29
  0
MLINESTYLE
  5
18
102
{ACAD_REACTORS
330
17
102
}
330
17
100
AcDbMlineStyle
  2
Standard
 70
     0
  3

 62
   256
 51
90.0
 52
90.0
 71
     2
 49
0.5
 62
   256
  6
BYLAYER
 49
-0.5
 62
   256
  6
BYLAYER
  0
ACDBPLACEHOLDER
  5
F
102
{ACAD_REACTORS
330
E
102
}
330
E
  0
SCALE
  5
48
102
{ACAD_REACTORS
330
47
102
}
330
47
100
AcDbScale
 70
     0
300
1:1
140
1.0
141
1.0
290
     1
  0
SCALE
  5
49
102
{ACAD_REACTORS
330
47
102
}
330
47
100
AcDbScale
 70
     0
300
1:2
140
1.0
141
2.0
290
     0
  0
SCALE
  5
4A
102
{ACAD_REACTORS
330
47
102
}
330
47
100
AcDbScale
 70
     0
300
1:4
140
1.0
141
4.0
290
     0
  0
SCALE
  5
4B
102
{ACAD_REACTORS
330
47
102
}
330
47
100
AcDbScale
 70
     0
300
1:5
140
1.0
141
5.0
290
     0
  0
SCALE
  5
4C
102
{ACAD_REACTORS
330
47
102
}
330
47
100
AcDbScale
 70
     0
300
1:8
140
1.0
141
8.0
290
     0
  0
SCALE
  5
4D
102
{ACAD_REACTORS
330
47
102
}
330
47
100
AcDbScale
 70
     0
300
1:10
140
1.0
141
10.0
290
     0
  0
SCALE
  5
4E
102
{ACAD_REACTORS
330
47
102
}
330
47
100
AcDbScale
 70
     0
300
1:16
140
1.0
141
16.0
290
     0
  0
SCALE
  5
4F
102
{ACAD_REACTORS
330
47
102
}
330
47
100
AcDbScale
 70
     0
300
1:20
140
1.0
141
20.0
290
     0
  0
SCALE
  5
50
102
{ACAD_REACTORS
330
47
102
}
330
47
100
AcDbScale
 70
     0
300
1:30
140
1.0
141
30.0
290
     0
  0
SCALE
  5
51
102
{ACAD_REACTORS
330
47
102
}
330
47
100
AcDbScale
 70
     0
300
1:40
140
1.0
141
40.0
290
     0
  0
SCALE
  5
52
102
{ACAD_REACTORS
330
47
102
}
330
47
100
AcDbScale
 70
     0
300
1:50
140
1.0
141
50.0
290
     0
  0
SCALE
  5
53
102
{ACAD_REACTORS
330
47
102
}
330
47
100
AcDbScale
 70
     0
300
1:100
140
1.0
141
100.0
290
     0
  0
SCALE
  5
54
102
{ACAD_REACTORS
330
47
102
}
330
47
100
AcDbScale
 70
     0
300
2:1
140
2.0
141
1.0
290
     0
  0
SCALE
  5
55
102
{ACAD_REACTORS
330
47
102
}
330
47
100
AcDbScale
 70
     0
300
4:1
140
4.0
141
1.0
290
     0
  0
SCALE
  5
56
102
{ACAD_REACTORS
330
47
102
}
330
47
100
AcDbScale
 70
     0
300
8:1
140
8.0
141
1.0
290
     0
  0
SCALE
  5
57
102
{ACAD_REACTORS
330
47
102
}
330
47
100
AcDbScale
 70
     0
300
10:1
140
10.0
141
1.0
290
     0
  0
SCALE
  5
58
102
{ACAD_REACTORS
330
47
102
}
330
47
100
AcDbScale
 70
     0
300
100:1
140
100.0
141
1.0
290
     0
  0
SCALE
  5
59
102
{ACAD_REACTORS
330
47
102
}
330
47
100
AcDbScale
 70
     0
300
1/128" = 1'-0"
140
0.0078125
141
12.0
290
     0
  0
SCALE
  5
5A
102
{ACAD_REACTORS
330
47
102
}
330
47
100
AcDbScale
 70
     0
300
1/64" = 1'-0"
140
0.015625
141
12.0
290
     0
  0
SCALE
  5
5B
102
{ACAD_REACTORS
330
47
102
}
330
47
100
AcDbScale
 70
     0
300
1/32" = 1'-0"
140
0.03125
141
12.0
290
     0
  0
SCALE
  5
5C
102
{ACAD_REACTORS
330
47
102
}
330
47
100
AcDbScale
 70
     0
300
1/16" = 1'-0"
140
0.0625
141
12.0
290
     0
  0
SCALE
  5
5D
102
{ACAD_REACTORS
330
47
102
}
330
47
100
AcDbScale
 70
     0
300
3/32" = 1'-0"
140
0.09375
141
12.0
290
     0
  0
SCALE
  5
5E
102
{ACAD_REACTORS
330
47
102
}
330
47
100
AcDbScale
 70
     0
300
1/8" = 1'-0"
140
0.125
141
12.0
290
     0
  0
SCALE
  5
5F
102
{ACAD_REACTORS
330
47
102
}
330
47
100
AcDbScale
 70
     0
300
3/16" = 1'-0"
140
0.1875
141
12.0
290
     0
  0
SCALE
  5
60
102
{ACAD_REACTORS
330
47
102
}
330
47
100
AcDbScale
 70
     0
300
1/4" = 1'-0"
140
0.25
141
12.0
290
     0
  0
SCALE
  5
61
102
{ACAD_REACTORS
330
47
102
}
330
47
100
AcDbScale
 70
     0
300
3/8" = 1'-0"
140
0.375
141
12.0
290
     0
  0
SCALE
  5
62
102
{ACAD_REACTORS
330
47
102
}
330
47
100
AcDbScale
 70
     0
300
1/2" = 1'-0"
140
0.5
141
12.0
290
     0
  0
SCALE
  5
63
102
{ACAD_REACTORS
330
47
102
}
330
47
100
AcDbScale
 70
     0
300
3/4" = 1'-0"
140
0.75
141
12.0
290
     0
  0
SCALE
  5
64
102
{ACAD_REACTORS
330
47
102
}
330
47
100
AcDbScale
 70
     0
300
1" = 1'-0"
140
1.0
141
12.0
290
     0
  0
SCALE
  5
65
102
{ACAD_REACTORS
330
47
102
}
330
47
100
AcDbScale
 70
     0
300
1-1/2" = 1'-0"
140
1.5
141
12.0
290
     0
  0
SCALE
  5
66
102
{ACAD_REACTORS
330
47
102
}
330
47
100
AcDbScale
 70
     0
300
3" = 1'-0"
140
3.0
141
12.0
290
     0
  0
SCALE
  5
67
102
{ACAD_REACTORS
330
47
102
}
330
47
100
AcDbScale
 70
     0
300
6" = 1'-0"
140
6.0
141
12.0
290
     0
  0
SCALE
  5
68
102
{ACAD_REACTORS
330
47
102
}
330
47
100
AcDbScale
 70
     0
300
1'-0" = 1'-0"
140
12.0
141
12.0
290
     0
  0
ENDSEC
  0
EOF
