  0
SECTION
  2
HEADER
  9
$ACADVER
  1
AC1015
  9
$ACADMAINTVER
 70
     6
  9
$DWGCODEPAGE
  3
ANSI_949
  9
$INSBASE
 10
0.0
 20
0.0
 30
0.0
  9
$EXTMIN
 10
-75.2250000000001
 20
-49.97180738881175
 30
0.0
  9
$EXTMAX
 10
90.05098381534559
 20
58.57180952475195
 30
0.0
  9
$LIMMIN
 10
0.0
 20
0.0
  9
$LIMMAX
 10
420.0
 20
297.0
  9
$ORTHOMODE
 70
     1
  9
$REGENMODE
 70
     1
  9
$FILLMODE
 70
     1
  9
$QTEXTMODE
 70
     0
  9
$MIRRTEXT
 70
     1
  9
$LTSCALE
 40
1.0
  9
$ATTMODE
 70
     1
  9
$TEXTSIZE
 40
3.5
  9
$TRACEWID
 40
1.0
  9
$TEXTSTYLE
  7
Standard
  9
$CLAYER
  8
0
  9
$CELTYPE
  6
ByLayer
  9
$CECOLOR
 62
   256
  9
$CELTSCALE
 40
1.0
  9
$DISPSILH
 70
     0
  9
$DIMSCALE
 40
1.0
  9
$DIMASZ
 40
3.302
  9
$DIMEXO
 40
1.0
  9
$DIMDLI
 40
3.75
  9
$DIMRND
 40
0.0
  9
$DIMDLE
 40
0.0
  9
$DIMEXE
 40
1.0
  9
$DIMTP
 40
0.0
  9
$DIMTM
 40
0.0
  9
$DIMTXT
 40
3.5
  9
$DIMCEN
 40
2.5
  9
$DIMTSZ
 40
0.0
  9
$DIMTOL
 70
     0
  9
$DIMLIM
 70
     0
  9
$DIMTIH
 70
     1
  9
$DIMTOH
 70
     1
  9
$DIMSE1
 70
     0
  9
$DIMSE2
 70
     0
  9
$DIMTAD
 70
     1
  9
$DIMZIN
 70
     0
  9
$DIMBLK
  1

  9
$DIMASO
 70
     1
  9
$DIMSHO
 70
     1
  9
$DIMPOST
  1

  9
$DIMAPOST
  1

  9
$DIMALT
 70
     0
  9
$DIMALTD
 70
     3
  9
$DIMALTF
 40
0.0393700787401575
  9
$DIMLFAC
 40
1.0
  9
$DIMTOFL
 70
     1
  9
$DIMTVP
 40
0.0
  9
$DIMTIX
 70
     0
  9
$DIMSOXD
 70
     0
  9
$DIMSAH
 70
     0
  9
$DIMBLK1
  1

  9
$DIMBLK2
  1

  9
$DIMSTYLE
  2
ISO-25
  9
$DIMCLRD
 70
     0
  9
$DIMCLRE
 70
     0
  9
$DIMCLRT
 70
     0
  9
$DIMTFAC
 40
1.0
  9
$DIMGAP
 40
1.524
  9
$DIMJUST
 70
     0
  9
$DIMSD1
 70
     0
  9
$DIMSD2
 70
     0
  9
$DIMTOLJ
 70
     0
  9
$DIMTZIN
 70
     0
  9
$DIMALTZ
 70
     0
  9
$DIMALTTZ
 70
     0
  9
$DIMUPT
 70
     0
  9
$DIMDEC
 70
     2
  9
$DIMTDEC
 70
     2
  9
$DIMALTU
 70
     2
  9
$DIMALTTD
 70
     3
  9
$DIMTXSTY
  7
Standard
  9
$DIMAUNIT
 70
     0
  9
$DIMADEC
 70
     2
  9
$DIMALTRND
 40
0.0
  9
$DIMAZIN
 70
     0
  9
$DIMDSEP
 70
    44
  9
$DIMATFIT
 70
     3
  9
$DIMFRAC
 70
     0
  9
$DIMLDRBLK
  1

  9
$DIMLUNIT
 70
     2
  9
$DIMLWD
 70
    -2
  9
$DIMLWE
 70
    -2
  9
$DIMTMOVE
 70
     0
  9
$LUNITS
 70
     2
  9
$LUPREC
 70
     2
  9
$SKETCHINC
 40
1.0
  9
$FILLETRAD
 40
10.0
  9
$AUNITS
 70
     0
  9
$AUPREC
 70
     2
  9
$MENU
  1
.
  9
$ELEVATION
 40
0.0
  9
$PELEVATION
 40
0.0
  9
$THICKNESS
 40
0.0
  9
$LIMCHECK
 70
     0
  9
$CHAMFERA
 40
0.0
  9
$CHAMFERB
 40
0.0
  9
$CHAMFERC
 40
0.0
  9
$CHAMFERD
 40
0.0
  9
$SKPOLY
 70
     0
  9
$TDCREATE
 40
2458292.674979653
  9
$TDUCREATE
 40
2458292.299979653
  9
$TDUPDATE
 40
2459697.395067488
  9
$TDUUPDATE
 40
2459697.020067488
  9
$TDINDWG
 40
0.0006688657
  9
$TDUSRTIMER
 40
0.0002843981
  9
$USRTIMER
 70
     1
  9
$ANGBASE
 50
0.0
  9
$ANGDIR
 70
     0
  9
$PDMODE
 70
     0
  9
$PDSIZE
 40
-1.0
  9
$PLINEWID
 40
0.0
  9
$SPLFRAME
 70
     0
  9
$SPLINETYPE
 70
     6
  9
$SPLINESEGS
 70
     8
  9
$HANDSEED
  5
1B6
  9
$SURFTAB1
 70
     6
  9
$SURFTAB2
 70
     6
  9
$SURFTYPE
 70
     6
  9
$SURFU
 70
     6
  9
$SURFV
 70
     6
  9
$UCSBASE
  2

  9
$UCSNAME
  2

  9
$UCSORG
 10
0.0
 20
0.0
 30
0.0
  9
$UCSXDIR
 10
1.0
 20
0.0
 30
0.0
  9
$UCSYDIR
 10
0.0
 20
1.0
 30
0.0
  9
$UCSORTHOREF
  2

  9
$UCSORTHOVIEW
 70
     0
  9
$UCSORGTOP
 10
0.0
 20
0.0
 30
0.0
  9
$UCSORGBOTTOM
 10
0.0
 20
0.0
 30
0.0
  9
$UCSORGLEFT
 10
0.0
 20
0.0
 30
0.0
  9
$UCSORGRIGHT
 10
0.0
 20
0.0
 30
0.0
  9
$UCSORGFRONT
 10
0.0
 20
0.0
 30
0.0
  9
$UCSORGBACK
 10
0.0
 20
0.0
 30
0.0
  9
$PUCSBASE
  2

  9
$PUCSNAME
  2

  9
$PUCSORG
 10
0.0
 20
0.0
 30
0.0
  9
$PUCSXDIR
 10
1.0
 20
0.0
 30
0.0
  9
$PUCSYDIR
 10
0.0
 20
1.0
 30
0.0
  9
$PUCSORTHOREF
  2

  9
$PUCSORTHOVIEW
 70
     0
  9
$PUCSORGTOP
 10
0.0
 20
0.0
 30
0.0
  9
$PUCSORGBOTTOM
 10
0.0
 20
0.0
 30
0.0
  9
$PUCSORGLEFT
 10
0.0
 20
0.0
 30
0.0
  9
$PUCSORGRIGHT
 10
0.0
 20
0.0
 30
0.0
  9
$PUCSORGFRONT
 10
0.0
 20
0.0
 30
0.0
  9
$PUCSORGBACK
 10
0.0
 20
0.0
 30
0.0
  9
$USERI1
 70
     0
  9
$USERI2
 70
     0
  9
$USERI3
 70
     0
  9
$USERI4
 70
     0
  9
$USERI5
 70
     0
  9
$USERR1
 40
0.0
  9
$USERR2
 40
0.0
  9
$USERR3
 40
0.0
  9
$USERR4
 40
0.0
  9
$USERR5
 40
0.0
  9
$WORLDVIEW
 70
     1
  9
$SHADEDGE
 70
     3
  9
$SHADEDIF
 70
    70
  9
$TILEMODE
 70
     1
  9
$MAXACTVP
 70
    64
  9
$PINSBASE
 10
0.0
 20
0.0
 30
0.0
  9
$PLIMCHECK
 70
     0
  9
$PEXTMIN
 10
1.000000000000000E+20
 20
1.000000000000000E+20
 30
1.000000000000000E+20
  9
$PEXTMAX
 10
-1.000000000000000E+20
 20
-1.000000000000000E+20
 30
-1.000000000000000E+20
  9
$PLIMMIN
 10
0.0
 20
0.0
  9
$PLIMMAX
 10
0.0
 20
0.0
  9
$UNITMODE
 70
     0
  9
$VISRETAIN
 70
     1
  9
$PLINEGEN
 70
     0
  9
$PSLTSCALE
 70
     1
  9
$TREEDEPTH
 70
  3020
  9
$CMLSTYLE
  2
Standard
  9
$CMLJUST
 70
     0
  9
$CMLSCALE
 40
20.0
  9
$PROXYGRAPHICS
 70
     1
  9
$MEASUREMENT
 70
     1
  9
$CELWEIGHT
370
    -1
  9
$ENDCAPS
280
     0
  9
$JOINSTYLE
280
     0
  9
$LWDISPLAY
290
     1
  9
$INSUNITS
 70
     4
  9
$HYPERLINKBASE
  1

  9
$STYLESHEET
  1

  9
$XEDIT
290
     1
  9
$CEPSNTYPE
380
     0
  9
$PSTYLEMODE
290
     1
  9
$FINGERPRINTGUID
  2
{7E51705B-75C2-45C4-8322-1F177B351E04}
  9
$VERSIONGUID
  2
{FAEB1C32-E019-11D5-929B-00C0DF256EC4}
  9
$EXTNAMES
290
     1
  9
$PSVPSCALE
 40
0.0
  9
$OLESTARTUP
290
     0
  0
ENDSEC
  0
SECTION
  2
CLASSES
  0
CLASS
  1
ACDBDICTIONARYWDFLT
  2
AcDbDictionaryWithDefault
  3
ObjectDBX Classes
 90
        0
280
     0
281
     0
  0
CLASS
  1
VISUALSTYLE
  2
AcDbVisualStyle
  3
ObjectDBX Classes
 90
     4095
280
     0
281
     0
  0
CLASS
  1
MATERIAL
  2
AcDbMaterial
  3
ObjectDBX Classes
 90
     1153
280
     0
281
     0
  0
CLASS
  1
SCALE
  2
AcDbScale
  3
ObjectDBX Classes
 90
     1153
280
     0
281
     0
  0
CLASS
  1
SUN
  2
AcDbSun
  3
SCENEOE
 90
     1153
280
     0
281
     0
  0
CLASS
  1
ACDBPLACEHOLDER
  2
AcDbPlaceHolder
  3
ObjectDBX Classes
 90
        0
280
     0
281
     0
  0
CLASS
  1
LAYOUT
  2
AcDbLayout
  3
ObjectDBX Classes
 90
        0
280
     0
281
     0
  0
CLASS
  1
TABLESTYLE
  2
AcDbTableStyle
  3
ObjectDBX Classes
 90
     4095
280
     0
281
     0
  0
CLASS
  1
MLEADERSTYLE
  2
AcDbMLeaderStyle
  3
ACDB_MLEADERSTYLE_CLASS
 90
     4095
280
     0
281
     0
  0
CLASS
  1
DICTIONARYVAR
  2
AcDbDictionaryVar
  3
ObjectDBX Classes
 90
        0
280
     0
281
     0
  0
ENDSEC
  0
SECTION
  2
TABLES
  0
TABLE
  2
VPORT
  5
8
330
0
100
AcDbSymbolTable
 70
     1
  0
VPORT
  5
29
330
8
100
AcDbSymbolTableRecord
100
AcDbViewportTableRecord
  2
*Active
 70
     0
 10
0.0
 20
0.0
 11
1.0
 21
1.0
 12
7.412991907672748
 22
4.300001067970115
 13
0.0
 23
0.0
 14
10.0
 24
10.0
 15
10.0
 25
10.0
 16
0.0
 26
0.0
 36
1.0
 17
0.0
 27
0.0
 37
0.0
 40
110.714489251835
 41
2.008253094910592
 42
50.0
 43
0.0
 44
0.0
 50
0.0
 51
0.0
 71
    16
 72
  2000
 73
     1
 74
     3
 75
     0
 76
     0
 77
     0
 78
     0
281
     0
 65
     1
110
0.0
120
0.0
130
0.0
111
1.0
121
0.0
131
0.0
112
0.0
122
1.0
132
0.0
 79
     0
146
0.0
  0
ENDTAB
  0
TABLE
  2
LTYPE
  5
5
330
0
100
AcDbSymbolTable
 70
     6
  0
LTYPE
  5
14
330
5
100
AcDbSymbolTableRecord
100
AcDbLinetypeTableRecord
  2
ByBlock
 70
     0
  3

 72
    65
 73
     0
 40
0.0
  0
LTYPE
  5
15
330
5
100
AcDbSymbolTableRecord
100
AcDbLinetypeTableRecord
  2
ByLayer
 70
     0
  3

 72
    65
 73
     0
 40
0.0
  0
LTYPE
  5
16
330
5
100
AcDbSymbolTableRecord
100
AcDbLinetypeTableRecord
  2
Continuous
 70
     0
  3
Solid line
 72
    65
 73
     0
 40
0.0
  0
LTYPE
  5
6A
330
5
100
AcDbSymbolTableRecord
100
AcDbLinetypeTableRecord
  2
HIDDEN
 70
     0
  3
Hidden __ __ __ __ __ __ __ __ __ __ __ __ __ __
 72
    65
 73
     2
 40
1.905
 49
1.27
 74
     0
 49
-0.635
 74
     0
  0
LTYPE
  5
6B
330
5
100
AcDbSymbolTableRecord
100
AcDbLinetypeTableRecord
  2
PHANTOM
 70
     0
  3
Phantom ______  __  __  ______  __  __  ______
 72
    65
 73
     6
 40
12.7
 49
6.35
 74
     0
 49
-1.27
 74
     0
 49
1.27
 74
     0
 49
-1.27
 74
     0
 49
1.27
 74
     0
 49
-1.27
 74
     0
  0
LTYPE
  5
6C
330
5
100
AcDbSymbolTableRecord
100
AcDbLinetypeTableRecord
  2
CENTER
 70
     0
  3
Center ____ _ ____ _ ____ _ ____ _ ____ _ ____
 72
    65
 73
     4
 40
10.16
 49
6.35
 74
     0
 49
-1.27
 74
     0
 49
1.27
 74
     0
 49
-1.27
 74
     0
  0
LTYPE
  5
6D
330
5
100
AcDbSymbolTableRecord
100
AcDbLinetypeTableRecord
  2
CENTERX2
 70
     0
  3
Center (2x) ________  __  ________  __  _____
 72
    65
 73
     4
 40
20.32
 49
12.7
 74
     0
 49
-2.54
 74
     0
 49
2.54
 74
     0
 49
-2.54
 74
     0
  0
LTYPE
  5
6E
330
5
100
AcDbSymbolTableRecord
100
AcDbLinetypeTableRecord
  2
DOT2
 70
     0
  3
Dot (.5x) ........................................
 72
    65
 73
     2
 40
0.635
 49
0.0
 74
     0
 49
-0.635
 74
     0
  0
ENDTAB
  0
TABLE
  2
LAYER
  5
2
330
0
100
AcDbSymbolTable
 70
    18
  0
LAYER
  5
10
330
2
100
AcDbSymbolTableRecord
100
AcDbLayerTableRecord
  2
0
 70
     0
 62
     7
  6
Continuous
370
    -3
390
F
  0
LAYER
  5
6F
330
2
100
AcDbSymbolTableRecord
100
AcDbLayerTableRecord
  2
FORMAT
 70
     0
 62
     2
  6
Continuous
370
    -3
390
F
  0
LAYER
  5
70
330
2
100
AcDbSymbolTableRecord
100
AcDbLayerTableRecord
  2
외형선
 70
     0
 62
     4
  6
Continuous
370
    30
390
F
  0
LAYER
  5
71
330
2
100
AcDbSymbolTableRecord
100
AcDbLayerTableRecord
  2
숨은선
 70
     0
 62
     2
  6
HIDDEN
370
    15
390
F
  0
LAYER
  5
72
330
2
100
AcDbSymbolTableRecord
100
AcDbLayerTableRecord
  2
중심선
 70
     0
 62
     1
  6
CENTERX2
370
    -3
390
F
  0
LAYER
  5
73
330
2
100
AcDbSymbolTableRecord
100
AcDbLayerTableRecord
  2
파단선
 70
     0
 62
     4
  6
Continuous
370
    -3
390
F
  0
LAYER
  5
74
330
2
100
AcDbSymbolTableRecord
100
AcDbLayerTableRecord
  2
해칭선
 70
     0
 62
   100
  6
Continuous
370
    -3
390
F
  0
LAYER
  5
75
330
2
100
AcDbSymbolTableRecord
100
AcDbLayerTableRecord
  2
가는실선
 70
     0
 62
     4
  6
Continuous
370
    -3
390
F
  0
LAYER
  5
76
330
2
100
AcDbSymbolTableRecord
100
AcDbLayerTableRecord
  2
치수_보조선
 70
     0
 62
     4
  6
Continuous
370
    -3
390
F
  0
LAYER
  5
77
330
2
100
AcDbSymbolTableRecord
100
AcDbLayerTableRecord
  2
치수문자_일반주서
 70
     0
 62
     7
  6
Continuous
370
    15
390
F
  0
LAYER
  5
78
330
2
100
AcDbSymbolTableRecord
100
AcDbLayerTableRecord
  2
개별주서
 70
     0
 62
   100
  6
Continuous
370
    30
390
F
  0
LAYER
  5
79
330
2
100
AcDbSymbolTableRecord
100
AcDbLayerTableRecord
  2
중간선
 70
     0
 62
     2
  6
Continuous
370
    15
390
F
  0
LAYER
  5
7A
330
2
100
AcDbSymbolTableRecord
100
AcDbLayerTableRecord
  2
윤곽선
 70
     0
 62
     3
  6
Continuous
370
    40
390
F
  0
LAYER
  5
7B
330
2
100
AcDbSymbolTableRecord
100
AcDbLayerTableRecord
  2
중심마크
 70
     0
 62
   100
  6
Continuous
370
    30
390
F
  0
LAYER
  5
7C
330
2
100
AcDbSymbolTableRecord
100
AcDbLayerTableRecord
  2
가상선
 70
     0
 62
     4
  6
PHANTOM
370
    -3
390
F
  0
LAYER
  5
7D
330
2
100
AcDbSymbolTableRecord
100
AcDbLayerTableRecord
  2
특수지정선
 70
     0
 62
     5
  6
CENTERX2
370
    60
390
F
  0
LAYER
  5
7E
330
2
100
AcDbSymbolTableRecord
100
AcDbLayerTableRecord
  2
참조1
 70
     0
 62
    -4
  6
Continuous
370
    -3
390
F
  0
LAYER
  5
180
330
2
100
AcDbSymbolTableRecord
100
AcDbLayerTableRecord
  2
Defpoints
 70
     0
 62
     7
  6
Continuous
290
     0
370
    -3
390
F
  0
ENDTAB
  0
TABLE
  2
STYLE
  5
3
330
0
100
AcDbSymbolTable
 70
     2
  0
STYLE
  5
11
330
3
100
AcDbSymbolTableRecord
100
AcDbTextStyleTableRecord
  2
Standard
 70
     0
 40
0.0
 41
1.0
 50
0.0
 71
     0
 42
3.5
  3
txt
  4

  0
STYLE
  5
94
330
3
100
AcDbSymbolTableRecord
100
AcDbTextStyleTableRecord
  2
SLDTEXTSTYLE0
 70
     0
 40
0.0
 41
0.75
 50
0.0
 71
     0
 42
3.5
  3
TXT
  4

  0
ENDTAB
  0
TABLE
  2
VIEW
  5
6
330
0
100
AcDbSymbolTable
 70
     0
  0
ENDTAB
  0
TABLE
  2
UCS
  5
7
330
0
100
AcDbSymbolTable
 70
     0
  0
ENDTAB
  0
TABLE
  2
APPID
  5
9
330
0
100
AcDbSymbolTable
 70
     4
  0
APPID
  5
12
330
9
100
AcDbSymbolTableRecord
100
AcDbRegAppTableRecord
  2
ACAD
 70
     0
  0
APPID
  5
181
330
9
100
AcDbSymbolTableRecord
100
AcDbRegAppTableRecord
  2
PE_URL
 70
     0
  0
APPID
  5
190
330
9
100
AcDbSymbolTableRecord
100
AcDbRegAppTableRecord
  2
ACAD_DSTYLE_DIMFLIPARROW_SYMBOL
 70
     0
  0
APPID
  5
191
330
9
100
AcDbSymbolTableRecord
100
AcDbRegAppTableRecord
  2
ACAD_DSTYLE_DIMFLIPARROW_WHICH_SYMBOL
 70
     0
  0
ENDTAB
  0
TABLE
  2
DIMSTYLE
  5
A
330
0
100
AcDbSymbolTable
 70
     4
100
AcDbDimStyleTable
  0
DIMSTYLE
105
27
330
A
100
AcDbSymbolTableRecord
100
AcDbDimStyleTableRecord
  2
ISO-25
 70
     0
 41
2.5
 42
0.625
 43
3.75
 44
1.25
 73
     0
 74
     0
 77
     1
 78
     8
140
2.5
141
2.5
143
0.03937007874016
147
0.625
171
     3
172
     1
178
     0
271
     2
272
     2
274
     3
278
    44
283
     0
284
     8
340
11
  0
DIMSTYLE
105
100
330
A
100
AcDbSymbolTableRecord
100
AcDbDimStyleTableRecord
  2
SLDDIMSTYLE0
 70
     0
 41
3.302
 44
0.0
 45
0.000000001
 73
     0
 74
     0
 77
     1
 78
     4
 79
     1
140
3.5
143
0.0393700787401575
147
0.875
148
0.000000001
170
     1
172
     1
173
     1
178
     0
271
     2
272
     2
276
     2
284
    12
289
     0
340
94
  0
DIMSTYLE
105
115
330
A
100
AcDbSymbolTableRecord
100
AcDbDimStyleTableRecord
  2
SLDDIMSTYLE1
 70
     0
 41
3.302
 44
0.0
 45
0.000000001
 73
     0
 74
     0
 77
     1
 78
    12
 79
     3
140
3.5
143
0.0393700787401575
147
0.875
148
0.000000001
170
     1
173
     1
178
     0
271
     2
272
     2
276
     2
284
    12
340
94
  0
DIMSTYLE
105
13C
102
{ACAD_REACTORS
330
13B
330
114
330
128
330
FF
102
}
330
A
100
AcDbSymbolTableRecord
100
AcDbDimStyleTableRecord
  2
SLDDIMSTYLE2
 70
     0
 41
3.302
 44
0.0
 45
0.000000001
 73
     0
 74
     0
 77
     1
 78
    12
 79
     3
140
3.5
143
0.0393700787401575
147
0.875
148
0.000000001
170
     1
172
     1
173
     1
178
     0
271
     2
272
     2
276
     2
284
    12
289
     0
340
94
  0
ENDTAB
  0
TABLE
  2
BLOCK_RECORD
  5
1
330
0
100
AcDbSymbolTable
 70
     7
  0
BLOCK_RECORD
  5
1F
102
{ACAD_XDICTIONARY
360
1B3
102
}
330
1
100
AcDbSymbolTableRecord
100
AcDbBlockTableRecord
  2
*Model_Space
340
22
  0
BLOCK_RECORD
  5
1B
330
1
100
AcDbSymbolTableRecord
100
AcDbBlockTableRecord
  2
*Paper_Space
340
1E
  0
BLOCK_RECORD
  5
23
330
1
100
AcDbSymbolTableRecord
100
AcDbBlockTableRecord
  2
*Paper_Space0
340
26
  0
BLOCK_RECORD
  5
7F
330
1
100
AcDbSymbolTableRecord
100
AcDbBlockTableRecord
  2
블럭10
340
0
102
{BLKREFS
331
F8
102
}
  0
BLOCK_RECORD
  5
101
330
1
100
AcDbSymbolTableRecord
100
AcDbBlockTableRecord
  2
_D
340
0
  0
BLOCK_RECORD
  5
116
330
1
100
AcDbSymbolTableRecord
100
AcDbBlockTableRecord
  2
_D_1
340
0
  0
BLOCK_RECORD
  5
129
330
1
100
AcDbSymbolTableRecord
100
AcDbBlockTableRecord
  2
_D_2
340
0
  0
BLOCK_RECORD
  5
13D
330
1
100
AcDbSymbolTableRecord
100
AcDbBlockTableRecord
  2
_D_3
340
0
  0
BLOCK_RECORD
  5
157
330
1
100
AcDbSymbolTableRecord
100
AcDbBlockTableRecord
  2
SW_DOWELSYMBOL_0
340
0
102
{BLKREFS
331
15D
102
}
  0
ENDTAB
  0
ENDSEC
  0
SECTION
  2
BLOCKS
  0
BLOCK
  5
20
330
1F
100
AcDbEntity
  8
0
100
AcDbBlockBegin
  2
*Model_Space
 70
     0
 10
0.0
 20
0.0
 30
0.0
  3
*Model_Space
  1

  0
ENDBLK
  5
21
330
1F
100
AcDbEntity
  8
0
100
AcDbBlockEnd
  0
BLOCK
  5
1C
330
1B
100
AcDbEntity
 67
     1
  8
0
100
AcDbBlockBegin
  2
*Paper_Space
 70
     0
 10
0.0
 20
0.0
 30
0.0
  3
*Paper_Space
  1

  0
ENDBLK
  5
1D
330
1B
100
AcDbEntity
 67
     1
  8
0
100
AcDbBlockEnd
  0
BLOCK
  5
24
330
23
100
AcDbEntity
  8
0
100
AcDbBlockBegin
  2
*Paper_Space0
 70
     0
 10
0.0
 20
0.0
 30
0.0
  3
*Paper_Space0
  1

  0
ENDBLK
  5
25
330
23
100
AcDbEntity
  8
0
100
AcDbBlockEnd
  0
BLOCK
  5
80
330
7F
100
AcDbEntity
  8
0
100
AcDbBlockBegin
  2
블럭10
 70
     2
 10
0.0
 20
0.0
 30
0.0
  3
블럭10
  1

  0
ELLIPSE
  5
82
330
7F
100
AcDbEntity
  8
중심선
100
AcDbEllipse
 10
20.54032771741204
 20
12.0471743016438
 30
0.0
 11
6.600054785286829
 21
-1.261213355974178E-13
 31
0.0
210
0.0
220
0.0
230
1.0
 40
0.636358354079598
 41
0.9219305317359503
 42
6.513795318482858
  0
ELLIPSE
  5
83
330
7F
100
AcDbEntity
  8
중심선
100
AcDbEllipse
 10
20.54032771746488
 20
12.04717430159265
 30
0.0
 11
3.960054785062283
 21
1.540847449632565E-10
 31
0.0
210
0.0
220
0.0
230
1.0
 40
0.3939339440162632
 41
1.131841032648279
 42
5.62031148352944
  0
LINE
  5
84
330
7F
100
AcDbEntity
  8
중심선
100
AcDbLine
 10
2.268634060543552
 20
16.24717430164393
 30
0.0
 11
5.714909304380834
 21
16.24717430164393
 31
0.0
  0
LINE
  5
85
330
7F
100
AcDbEntity
  8
중심선
100
AcDbLine
 10
5.245725140726316
 20
7.84717430164391
 30
0.0
 11
8.692000384563599
 21
7.84717430164391
 31
0.0
  0
LINE
  5
86
330
7F
100
AcDbEntity
  8
중심선
100
AcDbLine
 10
15.74043728645272
 20
16.24717430164393
 30
0.0
 11
8.692000384563599
 21
7.84717430164391
 31
0.0
  0
LINE
  5
87
330
7F
100
AcDbEntity
  8
중심선
100
AcDbLine
 10
0.1404042013395286
 20
13.71084872107135
 30
0.0
 11
3.58671253028996
 21
13.71088815037384
 31
0.0
  0
LINE
  5
88
330
7F
100
AcDbEntity
  8
중심선
100
AcDbLine
 10
2.750260043222114
 20
10.84717430164391
 30
0.0
 11
6.196535287059397
 21
10.84717430164391
 31
0.0
  0
LINE
  5
89
330
7F
100
AcDbEntity
  8
중심선
100
AcDbLine
 10
12.29416204261559
 20
16.24717430164393
 30
0.0
 11
5.245725140726316
 21
7.84717430164391
 31
0.0
  0
LINE
  5
8A
330
7F
100
AcDbEntity
  8
중심선
100
AcDbLine
 10
10.72767329541681
 20
16.24717430164393
 30
0.0
 11
6.196535287059397
 21
10.84717430164391
 31
0.0
  0
LINE
  5
8B
330
7F
100
AcDbEntity
  8
중심선
100
AcDbLine
 10
7.28139805157953
 20
16.24717430164393
 30
0.0
 11
2.750260043222114
 21
10.84717430164391
 31
0.0
  0
LINE
  5
8C
330
7F
100
AcDbEntity
  8
중심선
100
AcDbLine
 10
5.714909304380834
 20
16.24717430164393
 30
0.0
 11
3.58671253028996
 21
13.71088815037384
 31
0.0
  0
LINE
  5
8D
330
7F
100
AcDbEntity
  8
중심선
100
AcDbLine
 10
2.268634060543552
 20
16.24717430164393
 30
0.0
 11
0.1404042013395286
 21
13.71084872107135
 31
0.0
  0
LINE
  5
8E
330
7F
100
AcDbEntity
  8
중심선
100
AcDbLine
 10
7.28139805157953
 20
16.24717430164393
 30
0.0
 11
10.72767329541681
 21
16.24717430164393
 31
0.0
  0
LINE
  5
8F
330
7F
100
AcDbEntity
  8
중심선
100
AcDbLine
 10
12.29416204261559
 20
16.24717430164393
 30
0.0
 11
15.74043728645272
 21
16.24717430164393
 31
0.0
  0
LINE
  5
90
330
7F
100
AcDbEntity
  8
중심선
100
AcDbLine
 10
19.22036997980202
 20
11.08717430171403
 30
0.0
 11
23.66174974927406
 21
11.08717430171406
 31
0.0
  0
LINE
  5
91
330
7F
100
AcDbEntity
  8
중심선
100
AcDbLine
 10
19.22039502424796
 20
13.00717430171391
 30
0.0
 11
19.22036997980202
 21
11.08717430171403
 31
0.0
  0
LINE
  5
92
330
7F
100
AcDbEntity
  8
중심선
100
AcDbLine
 10
19.22039502424796
 20
13.00717430171391
 30
0.0
 11
26.96566020931264
 21
13.00717430171391
 31
0.0
  0
LINE
  5
93
330
7F
100
AcDbEntity
  8
중심선
100
AcDbLine
 10
22.22332737316547
 20
13.45928029700563
 30
0.0
 11
24.52862924686651
 21
15.39360700705356
 31
0.0
  0
ATTDEF
  5
95
330
7F
100
AcDbEntity
  8
FORMAT
 62
     2
100
AcDbText
 10
3.448148490846466
 20
2.075366912832191
 30
0.0
 40
4.233333333333333
  1
EM218048
 41
0.75
  7
SLDTEXTSTYLE0
 11
3.448148490846466
 21
-0.0412997538344756
 31
0.0
100
AcDbAttributeDefinition
  3

  2
AUTOATTR0
 70
     0
 74
     1
  0
ENDBLK
  5
81
330
7F
100
AcDbEntity
  8
0
100
AcDbBlockEnd
  0
BLOCK
  5
102
330
101
100
AcDbEntity
  8
0
100
AcDbBlockBegin
  2
_D
 70
     0
 10
0.0
 20
0.0
 30
0.0
  3
_D
  1

  0
LINE
  5
104
330
101
100
AcDbEntity
  8
치수문자_일반주서
 62
     0
370
    -2
100
AcDbLine
 10
69.21249999999999
 20
-9.524999999999999
 30
0.0
 11
87.86207171449693
 21
-9.524999999999928
 31
0.0
  0
LINE
  5
105
330
101
100
AcDbEntity
  8
치수문자_일반주서
 62
     0
370
    -2
100
AcDbLine
 10
69.21249999999999
 20
9.525000000000006
 30
0.0
 11
87.86207171449686
 21
9.525000000000073
 31
0.0
  0
LINE
  5
106
330
101
100
AcDbEntity
  8
치수문자_일반주서
 62
     0
370
    -2
100
AcDbLine
 10
87.86207171449686
 20
9.525000000000073
 30
0.0
 11
87.86207171449674
 21
43.69150000000008
 31
0.0
  0
LINE
  5
107
330
101
100
AcDbEntity
  8
치수문자_일반주서
 62
     0
370
    -2
100
AcDbLine
 10
87.86207171449693
 20
-9.524999999999928
 30
0.0
 11
87.86207171449686
 21
9.525000000000073
 31
0.0
  0
LINE
  5
108
330
101
100
AcDbEntity
  8
치수문자_일반주서
 62
     0
370
    -2
100
AcDbLine
 10
87.86207171449695
 20
-12.82699999999993
 30
0.0
 11
87.86207171449696
 21
-16.12899999999993
 31
0.0
  0
LINE
  5
109
330
101
100
AcDbEntity
  8
치수문자_일반주서
 62
     0
370
    -2
100
AcDbLine
 10
87.86207171449685
 20
12.82700000000007
 30
0.0
 11
87.86207171449684
 21
16.12900000000007
 31
0.0
  0
SOLID
  5
10A
330
101
100
AcDbEntity
  8
치수문자_일반주서
 62
     0
100
AcDbTrace
 10
88.41240504783028
 20
-12.82699999999993
 30
0.0
 11
87.31173838116362
 21
-12.82699999999993
 31
0.0
 12
87.86207171449693
 22
-9.524999999999928
 32
0.0
 13
87.86207171449693
 23
-9.524999999999928
 33
0.0
  0
SOLID
  5
10B
330
101
100
AcDbEntity
  8
치수문자_일반주서
 62
     0
100
AcDbTrace
 10
87.31173838116352
 20
12.82700000000007
 30
0.0
 11
88.41240504783018
 21
12.82700000000007
 31
0.0
 12
87.86207171449686
 22
9.525000000000073
 32
0.0
 13
87.86207171449686
 23
9.525000000000073
 33
0.0
  0
MTEXT
  5
10C
330
101
100
AcDbEntity
  8
치수문자_일반주서
 62
     0
100
AcDbMText
 10
83.48707171449679
 20
29.91025000000005
 30
0.0
 40
3.5
 41
0.0
 71
     2
 72
     1
  1
\A1;%%c19.05 [3/4]
  7
SLDTEXTSTYLE0
 11
-3.729883127349606E-15
 21
1.0
 31
0.0
 73
     1
 44
1.0
  0
POINT
  5
182
330
101
100
AcDbEntity
  8
Defpoints
 62
     0
100
AcDbPoint
 10
69.14999999999999
 20
-9.524999999999999
 30
0.0
  0
POINT
  5
183
330
101
100
AcDbEntity
  8
Defpoints
 62
     0
100
AcDbPoint
 10
69.14999999999999
 20
9.525000000000006
 30
0.0
  0
POINT
  5
184
330
101
100
AcDbEntity
  8
Defpoints
 62
     0
100
AcDbPoint
 10
87.86207171449686
 20
9.525000000000075
 30
0.0
  0
ENDBLK
  5
103
330
101
100
AcDbEntity
  8
0
100
AcDbBlockEnd
  0
BLOCK
  5
117
330
116
100
AcDbEntity
  8
0
100
AcDbBlockBegin
  2
_D_1
 70
     0
 10
0.0
 20
0.0
 30
0.0
  3
_D_1
  1

  0
LINE
  5
119
330
116
100
AcDbEntity
  8
치수문자_일반주서
 62
     0
370
    -2
100
AcDbLine
 10
69.14999999999999
 20
9.587500000000007
 30
0.0
 11
69.14999999999999
 21
31.89215476237598
 31
0.0
  0
LINE
  5
11A
330
116
100
AcDbEntity
  8
치수문자_일반주서
 62
     0
370
    -2
100
AcDbLine
 10
12.00000000000001
 20
9.435545355800228
 30
0.0
 11
12.00000000000001
 21
31.89215476237598
 31
0.0
  0
LINE
  5
11B
330
116
100
AcDbEntity
  8
치수문자_일반주서
 62
     0
370
    -2
100
AcDbLine
 10
65.84799999999998
 20
31.89215476237598
 30
0.0
 11
15.30200000000001
 21
31.89215476237598
 31
0.0
  0
SOLID
  5
11C
330
116
100
AcDbEntity
  8
치수문자_일반주서
 62
     0
100
AcDbTrace
 10
65.84799999999998
 20
31.34182142904264
 30
0.0
 11
65.84799999999998
 21
32.44248809570931
 31
0.0
 12
69.14999999999999
 22
31.89215476237598
 32
0.0
 13
69.14999999999999
 23
31.89215476237598
 33
0.0
  0
SOLID
  5
11D
330
116
100
AcDbEntity
  8
치수문자_일반주서
 62
     0
100
AcDbTrace
 10
15.30200000000001
 20
32.44248809570931
 30
0.0
 11
15.30200000000001
 21
31.34182142904264
 31
0.0
 12
12.00000000000001
 22
31.89215476237598
 32
0.0
 13
12.00000000000001
 23
31.89215476237598
 33
0.0
  0
MTEXT
  5
11E
330
116
100
AcDbEntity
  8
치수문자_일반주서
 62
     0
100
AcDbMText
 10
40.575
 20
36.26715476237598
 30
0.0
 40
3.5
 41
0.0
 71
     2
 72
     1
  1
\A1;57.15 [2 1/4]
  7
SLDTEXTSTYLE0
 73
     1
 44
1.0
  0
POINT
  5
11F
330
116
100
AcDbEntity
  8
Defpoints
 62
     0
100
AcDbPoint
 10
69.14999999999999
 20
9.525000000000007
 30
0.0
  0
POINT
  5
120
330
116
100
AcDbEntity
  8
Defpoints
 62
     0
100
AcDbPoint
 10
12.00000000000001
 20
9.373045355800228
 30
0.0
  0
POINT
  5
121
330
116
100
AcDbEntity
  8
Defpoints
 62
     0
100
AcDbPoint
 10
12.00000000000001
 20
31.89215476237598
 30
0.0
  0
ENDBLK
  5
118
330
116
100
AcDbEntity
  8
0
100
AcDbBlockEnd
  0
BLOCK
  5
12A
330
129
100
AcDbEntity
  8
0
100
AcDbBlockBegin
  2
_D_2
 70
     0
 10
0.0
 20
0.0
 30
0.0
  3
_D_2
  1

  0
LINE
  5
12C
330
129
100
AcDbEntity
  8
치수문자_일반주서
 62
     0
370
    -2
100
AcDbLine
 10
69.14999999999999
 20
9.587500000000007
 30
0.0
 11
69.14999999999998
 21
54.19680952475196
 31
0.0
  0
LINE
  5
12D
330
129
100
AcDbEntity
  8
치수문자_일반주서
 62
     0
370
    -2
100
AcDbLine
 10
-57.85000000000002
 20
7.68250000000001
 30
0.0
 11
-57.85000000000003
 21
54.19680952475196
 31
0.0
  0
LINE
  5
12E
330
129
100
AcDbEntity
  8
치수문자_일반주서
 62
     0
370
    -2
100
AcDbLine
 10
65.84799999999998
 20
54.19680952475196
 30
0.0
 11
-54.54800000000003
 21
54.19680952475196
 31
0.0
  0
SOLID
  5
12F
330
129
100
AcDbEntity
  8
치수문자_일반주서
 62
     0
100
AcDbTrace
 10
65.84799999999998
 20
53.64647619141862
 30
0.0
 11
65.84799999999998
 21
54.74714285808529
 31
0.0
 12
69.14999999999998
 22
54.19680952475196
 32
0.0
 13
69.14999999999998
 23
54.19680952475196
 33
0.0
  0
SOLID
  5
130
330
129
100
AcDbEntity
  8
치수문자_일반주서
 62
     0
100
AcDbTrace
 10
-54.54800000000003
 20
54.74714285808529
 30
0.0
 11
-54.54800000000003
 21
53.64647619141862
 31
0.0
 12
-57.85000000000003
 22
54.19680952475196
 32
0.0
 13
-57.85000000000003
 23
54.19680952475196
 33
0.0
  0
MTEXT
  5
131
330
129
100
AcDbEntity
  8
치수문자_일반주서
 62
     0
100
AcDbMText
 10
5.649999999999985
 20
58.57180952475196
 30
0.0
 40
3.5
 41
0.0
 71
     2
 72
     1
  1
\A1;127 [5]
  7
SLDTEXTSTYLE0
 73
     1
 44
1.0
  0
POINT
  5
132
330
129
100
AcDbEntity
  8
Defpoints
 62
     0
100
AcDbPoint
 10
69.14999999999999
 20
9.525000000000007
 30
0.0
  0
POINT
  5
133
330
129
100
AcDbEntity
  8
Defpoints
 62
     0
100
AcDbPoint
 10
-57.85000000000002
 20
7.62000000000001
 30
0.0
  0
POINT
  5
134
330
129
100
AcDbEntity
  8
Defpoints
 62
     0
100
AcDbPoint
 10
-57.85000000000002
 20
54.19680952475196
 30
0.0
  0
ENDBLK
  5
12B
330
129
100
AcDbEntity
  8
0
100
AcDbBlockEnd
  0
BLOCK
  5
13E
330
13D
100
AcDbEntity
  8
0
100
AcDbBlockBegin
  2
_D_3
 70
     0
 10
0.0
 20
0.0
 30
0.0
  3
_D_3
  1

  0
LINE
  5
140
330
13D
100
AcDbEntity
  8
치수문자_일반주서
 62
     0
370
    -2
100
AcDbLine
 10
-56.00750000000003
 20
9.52500000000001
 30
0.0
 11
-70.85000000000007
 21
9.524999999999954
 31
0.0
  0
LINE
  5
141
330
13D
100
AcDbEntity
  8
치수문자_일반주서
 62
     0
370
    -2
100
AcDbLine
 10
-56.00750000000003
 20
-9.525000000000002
 30
0.0
 11
-70.85
 21
-9.525000000000057
 31
0.0
  0
LINE
  5
142
330
13D
100
AcDbEntity
  8
치수문자_일반주서
 62
     0
370
    -2
100
AcDbLine
 10
-70.85000000000007
 20
9.524999999999954
 30
0.0
 11
-70.85
 21
-9.525000000000057
 31
0.0
  0
LINE
  5
143
330
13D
100
AcDbEntity
  8
치수문자_일반주서
 62
     0
370
    -2
100
AcDbLine
 10
-70.85000000000008
 20
12.82699999999995
 30
0.0
 11
-70.8500000000001
 21
16.12899999999996
 31
0.0
  0
LINE
  5
144
330
13D
100
AcDbEntity
  8
치수문자_일반주서
 62
     0
370
    -2
100
AcDbLine
 10
-70.84999999999998
 20
-12.82700000000006
 30
0.0
 11
-70.84999999999997
 21
-16.12900000000005
 31
0.0
  0
SOLID
  5
145
330
13D
100
AcDbEntity
  8
치수문자_일반주서
 62
     0
100
AcDbTrace
 10
-71.4003333333334
 20
12.82699999999995
 30
0.0
 11
-70.29966666666675
 21
12.82699999999996
 31
0.0
 12
-70.85000000000007
 22
9.524999999999954
 32
0.0
 13
-70.85000000000007
 23
9.524999999999954
 33
0.0
  0
SOLID
  5
146
330
13D
100
AcDbEntity
  8
치수문자_일반주서
 62
     0
100
AcDbTrace
 10
-70.29966666666665
 20
-12.82700000000006
 30
0.0
 11
-71.40033333333331
 21
-12.82700000000006
 31
0.0
 12
-70.85
 22
-9.525000000000057
 32
0.0
 13
-70.85
 23
-9.525000000000057
 33
0.0
  0
MTEXT
  5
147
330
13D
100
AcDbEntity
  8
치수문자_일반주서
 62
     0
100
AcDbMText
 10
-75.22500000000004
 20
-0.0000000000000054
 30
0.0
 40
3.5
 41
0.0
 71
     2
 72
     1
  1
\A1;%%c19.05 [3/4]
  7
SLDTEXTSTYLE0
 11
-3.729883127349605E-15
 21
1.0
 31
0.0
 73
     1
 44
1.0
  0
POINT
  5
148
330
13D
100
AcDbEntity
  8
Defpoints
 62
     0
100
AcDbPoint
 10
-55.94500000000003
 20
9.52500000000001
 30
0.0
  0
POINT
  5
18D
330
13D
100
AcDbEntity
  8
Defpoints
 62
     0
100
AcDbPoint
 10
-55.94500000000003
 20
-9.525000000000002
 30
0.0
  0
POINT
  5
18E
330
13D
100
AcDbEntity
  8
Defpoints
 62
     0
100
AcDbPoint
 10
-70.85
 20
-9.525000000000057
 30
0.0
  0
ENDBLK
  5
13F
330
13D
100
AcDbEntity
  8
0
100
AcDbBlockEnd
  0
BLOCK
  5
158
330
157
100
AcDbEntity
  8
0
100
AcDbBlockBegin
  2
SW_DOWELSYMBOL_0
 70
     0
 10
0.0
 20
0.0
 30
0.0
  3
SW_DOWELSYMBOL_0
  1

  0
CIRCLE
  5
15A
330
157
100
AcDbEntity
  8
해칭선
 62
     0
100
AcDbCircle
 10
0.0
 20
0.0
 30
0.0
 40
3.000000000000001
  0
HATCH
  5
15B
330
157
100
AcDbEntity
  8
0
  6
Continuous
 62
     0
370
     0
100
AcDbHatch
 10
0.0
 20
0.0
 30
0.0
210
0.0
220
0.0
230
1.0
  2
SOLID
 70
     1
 71
     0
 91
        1
 92
        0
 93
        3
 72
     2
 10
0.0
 20
0.0
 40
3.000000000000001
 50
0.0
 51
90.0
 73
     1
 72
     1
 10
0.0
 20
3.000000000000001
 11
0.0
 21
0.0
 72
     1
 10
0.0
 20
0.0
 11
3.000000000000001
 21
0.0
 97
        0
 75
     0
 76
     1
 98
        1
 10
0.0
 20
0.0
  0
HATCH
  5
15C
330
157
100
AcDbEntity
  8
0
  6
Continuous
 62
     0
370
     0
100
AcDbHatch
 10
0.0
 20
0.0
 30
0.0
210
0.0
220
0.0
230
1.0
  2
SOLID
 70
     1
 71
     0
 91
        1
 92
        0
 93
        3
 72
     2
 10
0.0
 20
0.0
 40
3.000000000000001
 50
180.0
 51
270.0000000000007
 73
     1
 72
     1
 10
0.0
 20
-3.000000000000001
 11
0.0
 21
0.0
 72
     1
 10
0.0
 20
0.0
 11
-3.000000000000001
 21
0.0
 97
        0
 75
     0
 76
     1
 98
        1
 10
0.0
 20
0.0
  0
ENDBLK
  5
159
330
157
100
AcDbEntity
  8
0
100
AcDbBlockEnd
  0
ENDSEC
  0
SECTION
  2
ENTITIES
  0
LINE
  5
96
330
1F
100
AcDbEntity
  8
외형선
  6
Continuous
 62
     1
370
    15
100
AcDbLine
 10
50.2898751514952
 20
0.8142885306946164
 30
0.0
 11
50.15395277257841
 21
0.9528307141783305
 31
0.0
  0
LINE
  5
97
330
1F
100
AcDbEntity
  8
외형선
  6
Continuous
 62
     1
370
    15
100
AcDbLine
 10
48.0773280061061
 20
-0.7852177113918573
 30
0.0
 11
48.24594242637293
 21
-0.9525133098669427
 31
0.0
  0
LINE
  5
98
330
1F
100
AcDbEntity
  8
외형선
  6
Continuous
 62
     1
370
    15
100
AcDbLine
 10
33.03853542306942
 20
-0.7045425054411285
 30
0.0
 11
33.28374919924536
 21
-0.9521569355805722
 31
0.0
  0
LINE
  5
99
330
1F
100
AcDbEntity
  8
외형선
  6
Continuous
 62
     1
370
    15
100
AcDbLine
 10
35.32742572503678
 20
0.8194358413833615
 30
0.0
 11
35.19240851169967
 21
0.9525409346626074
 31
0.0
  0
LINE
  5
9A
330
1F
100
AcDbEntity
  8
외형선
  6
Continuous
 62
     1
370
    15
100
AcDbLine
 10
65.1903612922567
 20
0.879902159258123
 30
0.0
 11
65.11612470006136
 21
0.9524949261099541
 31
0.0
  0
LINE
  5
9B
330
1F
100
AcDbEntity
  8
외형선
  6
Continuous
 62
     1
370
    15
100
AcDbLine
 10
63.07793508184211
 20
-0.824045234291484
 30
0.0
 11
63.20758963986448
 21
-0.9523264756202111
 31
0.0
  0
LINE
  5
9C
330
1F
100
AcDbEntity
  8
외형선
  6
Continuous
 62
     1
370
    15
100
AcDbLine
 10
57.73168918731423
 20
0.8583240848938806
 30
0.0
 11
57.63652494410159
 21
0.9523566175202677
 31
0.0
  0
LINE
  5
9D
330
1F
100
AcDbEntity
  8
외형선
  6
Continuous
 62
     1
370
    15
100
AcDbLine
 10
55.59564006596744
 20
-0.8213779317115107
 30
0.0
 11
55.72849731151729
 21
-0.9524906899098633
 31
0.0
  0
LINE
  5
9E
330
1F
100
AcDbEntity
  8
외형선
  6
Continuous
 62
     1
370
    15
100
AcDbLine
 10
42.75080636612649
 20
0.8755375050463667
 30
0.0
 11
42.67449921968443
 21
0.9525460364460053
 31
0.0
  0
LINE
  5
9F
330
1F
100
AcDbEntity
  8
외형선
  6
Continuous
 62
     1
370
    15
100
AcDbLine
 10
40.6121198964401
 20
-0.8002826282991125
 30
0.0
 11
40.76693671941587
 21
-0.9527634955076876
 31
0.0
  0
LINE
  5
A0
330
1F
100
AcDbEntity
  8
외형선
  6
Continuous
 62
     1
370
    15
100
AcDbLine
 10
25.57136577924978
 20
-0.7198991424776715
 30
0.0
 11
25.80480667499313
 21
-0.9524702001128629
 31
0.0
  0
LINE
  5
A1
330
1F
100
AcDbEntity
  8
외형선
  6
Continuous
 62
     1
370
    15
100
AcDbLine
 10
27.80710501472963
 20
0.8591208340155316
 30
0.0
 11
27.71279412516968
 21
0.9524169989625976
 31
0.0
  0
LINE
  5
A2
330
1F
100
AcDbEntity
  8
외형선
  6
Continuous
370
    15
100
AcDbLine
 10
12.84999199660042
 20
0.8547065877178928
 30
0.0
 11
12.75084099106137
 21
0.9525343196068207
 31
0.0
  0
LINE
  5
A3
330
1F
100
AcDbEntity
  8
외형선
  6
Continuous
 62
     1
370
    15
100
AcDbLine
 10
28.66619552983065
 20
-9.524999999999999
 30
0.0
 11
32.33119020375396
 21
-9.524999999999999
 31
0.0
  0
LINE
  5
A4
330
1F
100
AcDbEntity
  8
외형선
  6
Continuous
 62
     1
370
    15
100
AcDbLine
 10
62.25429641686087
 20
9.525000000000006
 30
0.0
 11
58.59015416671756
 21
9.525000000000006
 31
0.0
  0
LINE
  5
A5
330
1F
100
AcDbEntity
  8
외형선
  6
Continuous
 62
     1
370
    15
100
AcDbLine
 10
21.18595016753968
 20
-9.524999999999999
 30
0.0
 11
24.85083369592992
 21
-9.524999999999999
 31
0.0
  0
LINE
  5
A6
330
1F
100
AcDbEntity
  8
외형선
  6
Continuous
 62
     1
370
    15
100
AcDbLine
 10
54.77242881905537
 20
9.525000000000006
 30
0.0
 11
51.10870708712797
 21
9.525000000000006
 31
0.0
  0
LINE
  5
A7
330
1F
100
AcDbEntity
  8
외형선
  6
Continuous
 62
     1
370
    15
100
AcDbLine
 10
13.70436290184491
 20
-9.524999999999999
 30
0.0
 11
17.36843489725616
 21
-9.524999999999999
 31
0.0
  0
LINE
  5
A8
330
1F
100
AcDbEntity
  8
외형선
  6
Continuous
 62
     1
370
    15
100
AcDbLine
 10
47.29368949896015
 20
9.525000000000006
 30
0.0
 11
43.62772778985248
 21
9.525000000000006
 31
0.0
  0
LINE
  5
A9
330
1F
100
AcDbEntity
  8
외형선
  6
Continuous
 62
     1
370
    15
100
AcDbLine
 10
66.06968667651253
 20
-9.524999999999999
 30
0.0
 11
69.14999999999999
 21
-9.524999999999999
 31
0.0
  0
LINE
  5
AA
330
1F
100
AcDbEntity
  8
외형선
  6
Continuous
 62
     1
370
    15
100
AcDbLine
 10
39.81191445053636
 20
9.525000000000006
 30
0.0
 11
36.14850308134154
 21
9.525000000000006
 31
0.0
  0
LINE
  5
AB
330
1F
100
AcDbEntity
  8
외형선
  6
Continuous
 62
     1
370
    15
100
AcDbLine
 10
58.5901541667175
 20
-9.524999999999999
 30
0.0
 11
62.25429641686089
 21
-9.524999999999999
 31
0.0
  0
LINE
  5
AC
330
1F
100
AcDbEntity
  8
외형선
  6
Continuous
 62
     1
370
    15
100
AcDbLine
 10
32.33119020375396
 20
9.525000000000006
 30
0.0
 11
28.66619552983058
 21
9.525000000000006
 31
0.0
  0
LINE
  5
AD
330
1F
100
AcDbEntity
  8
외형선
  6
Continuous
 62
     1
370
    15
100
AcDbLine
 10
51.10870708712789
 20
-9.524999999999999
 30
0.0
 11
54.77242881905529
 21
-9.524999999999999
 31
0.0
  0
LINE
  5
AE
330
1F
100
AcDbEntity
  8
외형선
  6
Continuous
 62
     1
370
    15
100
AcDbLine
 10
24.85083369592985
 20
9.525000000000006
 30
0.0
 11
21.18595016753963
 21
9.525000000000006
 31
0.0
  0
LINE
  5
AF
330
1F
100
AcDbEntity
  8
외형선
  6
Continuous
 62
     1
370
    15
100
AcDbLine
 10
43.62772778985242
 20
-9.524999999999999
 30
0.0
 11
47.29368949896009
 21
-9.524999999999999
 31
0.0
  0
LINE
  5
B0
330
1F
100
AcDbEntity
  8
외형선
  6
Continuous
 62
     1
370
    15
100
AcDbLine
 10
17.36843489725612
 20
9.525000000000006
 30
0.0
 11
13.70436290184486
 21
9.525000000000006
 31
0.0
  0
LINE
  5
B1
330
1F
100
AcDbEntity
  8
외형선
  6
Continuous
 62
     1
370
    15
100
AcDbLine
 10
36.14850308134155
 20
-9.524999999999999
 30
0.0
 11
39.81191445053631
 21
-9.524999999999999
 31
0.0
  0
LINE
  5
B2
330
1F
100
AcDbEntity
  8
외형선
  6
Continuous
 62
     1
370
    15
100
AcDbLine
 10
69.14999999999999
 20
9.525000000000006
 30
0.0
 11
66.06968667651256
 21
9.525000000000006
 31
0.0
  0
LINE
  5
B3
330
1F
100
AcDbEntity
  8
외형선
  6
Continuous
370
    15
100
AcDbLine
 10
-55.94500000000002
 20
-9.524999999999995
 30
0.0
 11
11.00039431954921
 21
-9.524999999999995
 31
0.0
  0
LINE
  5
B4
330
1F
100
AcDbEntity
  8
외형선
  6
Continuous
370
    15
100
AcDbLine
 10
11.00039431954921
 20
9.525000000000002
 30
0.0
 11
-55.94500000000002
 21
9.525000000000002
 31
0.0
  0
LINE
  5
B5
330
1F
100
AcDbEntity
  8
외형선
  6
Continuous
370
    15
100
AcDbLine
 10
-55.94500000000002
 20
9.525000000000004
 30
0.0
 11
-57.85000000000002
 21
7.62000000000001
 31
0.0
  0
LINE
  5
B6
330
1F
100
AcDbEntity
  8
외형선
  6
Continuous
370
    15
100
AcDbLine
 10
-57.85000000000002
 20
-7.620000000000004
 30
0.0
 11
-55.94500000000002
 21
-9.524999999999997
 31
0.0
  0
SPLINE
  5
B7
330
1F
100
AcDbEntity
  8
외형선
  6
Continuous
 62
     1
370
    15
100
AcDbSpline
210
0.0
220
0.0
230
1.0
 70
     8
 71
     3
 72
    26
 73
    22
 74
     0
 42
0.000000001
 43
0.00000001
 40
0.0
 40
0.0
 40
0.0
 40
0.0
 40
0.0149044012278171
 40
0.0720158906942904
 40
0.1291011127050443
 40
0.1861713870359687
 40
0.243238107213651
 40
0.3003126843271208
 40
0.3574064906548896
 40
0.4145261544297734
 40
0.4716278845819792
 40
0.5287070097186661
 40
0.5857748796754582
 40
0.6428428998587676
 40
0.6999224749326135
 40
0.757024952513246
 40
0.8141443412808244
 40
0.8712374964008234
 40
0.9283117206788876
 40
0.9853783881353423
 40
1.0
 40
1.0
 40
1.0
 40
1.0
 10
32.33119020375396
 20
9.491595441917205
 30
0.0
 10
32.48937251813914
 20
9.501540515874588
 30
0.0
 10
33.2536863666735
 20
9.549593661258578
 30
0.0
 10
34.62394135139848
 20
9.289854875668828
 30
0.0
 10
36.4411091607944
 20
8.709378884433875
 30
0.0
 10
38.25762043922559
 20
7.785820782924248
 30
0.0
 10
40.07394329493074
 20
6.587084476539671
 30
0.0
 10
41.89065917951699
 20
5.147326624926494
 30
0.0
 10
43.70819060504498
 20
3.521020429602747
 30
0.0
 10
45.52668964257031
 20
1.76714675829354
 30
0.0
 10
47.3445277557221
 20
-0.0511515696583538
 30
0.0
 10
49.16144714761353
 20
-1.8674263788083
 30
0.0
 10
50.97783124956153
 20
-3.615750225425405
 30
0.0
 10
52.79422311128612
 20
-5.23293079618373
 30
0.0
 10
54.61116221926054
 20
-6.660260230476986
 30
0.0
 10
56.42902848756287
 20
-7.846488245204302
 30
0.0
 10
58.24751805692414
 20
-8.745868384138157
 30
0.0
 10
60.06502161012528
 20
-9.335154696708013
 30
0.0
 10
61.88172886448636
 20
-9.558898065645549
 30
0.0
 10
63.24770221616983
 20
-9.541180649639946
 30
0.0
 10
64.00826228673542
 20
-9.342667501333134
 30
0.0
 10
64.16338686577232
 20
-9.302178564619059
 30
0.0
  0
SPLINE
  5
B8
330
1F
100
AcDbEntity
  8
외형선
  6
Continuous
 62
     1
370
    15
100
AcDbSpline
210
0.0
220
0.0
230
1.0
 70
     8
 71
     3
 72
    26
 73
    22
 74
     0
 42
0.000000001
 43
0.00000001
 40
0.0
 40
0.0
 40
0.0
 40
0.0
 40
0.0174435251564769
 40
0.074514990115811
 40
0.1315826004834414
 40
0.1886577677975428
 40
0.2457518662663745
 40
0.3028721988162426
 40
0.3599756198997417
 40
0.4170561380980369
 40
0.4741251012148738
 40
0.5311939141027112
 40
0.5882739823564128
 40
0.6453766559991354
 40
0.7024972635608525
 40
0.7595920132482141
 40
0.8166675334035516
 40
0.8737351964932808
 40
0.9308064137949789
 40
0.9878925790234854
 40
1.0
 40
1.0
 40
1.0
 40
1.0
 10
66.06968667651255
 20
-9.488258083357941
 30
0.0
 10
65.88459997829672
 20
-9.498735046837403
 30
0.0
 10
65.0939493864926
 20
-9.543490382878291
 30
0.0
 10
63.69805996000389
 20
-9.271425417310313
 30
0.0
 10
61.88171822845571
 20
-8.674978514327345
 30
0.0
 10
60.06502446121215
 20
-7.738571488288572
 30
0.0
 10
58.24751729246938
 20
-6.527871804403432
 30
0.0
 10
56.42902869238089
 20
-5.078733631408424
 30
0.0
 10
54.61116216438125
 20
-3.44550004095226
 30
0.0
 10
52.7942231260951
 20
-1.687234811537256
 30
0.0
 10
50.97783124518342
 20
0.1320270473116081
 30
0.0
 10
49.16144715031849
 20
1.94650908430658
 30
0.0
 10
47.34452774927879
 20
3.690531000855032
 30
0.0
 10
45.52668966565064
 20
5.300812704202721
 30
0.0
 10
43.70819051915815
 20
6.718299135244317
 30
0.0
 10
41.89065949977007
 20
7.892796579543979
 30
0.0
 10
40.07394210024924
 20
8.778604680036537
 30
0.0
 10
38.25762489732127
 20
9.353553821120062
 30
0.0
 10
36.44109251986985
 20
9.560457886127992
 30
0.0
 10
35.10148466828035
 20
9.53622234357903
 30
0.0
 10
34.36712958174876
 20
9.340414324578632
 30
0.0
 10
34.23863290067576
 20
9.30615204325113
 30
0.0
  0
SPLINE
  5
B9
330
1F
100
AcDbEntity
  8
외형선
  6
Continuous
 62
     1
370
    15
100
AcDbSpline
210
0.0
220
0.0
230
1.0
 70
     8
 71
     3
 72
    26
 73
    22
 74
     0
 42
0.000000001
 43
0.00000001
 40
0.0
 40
0.0
 40
0.0
 40
0.0
 40
0.0282289456500666
 40
0.0853310464541315
 40
0.1424489833041681
 40
0.1995403632557254
 40
0.2566131111717806
 40
0.3136786025501446
 40
0.3707482487357218
 40
0.4278334405435861
 40
0.4849454659339427
 40
0.5420558232444384
 40
0.5991399136199302
 40
0.6562090566119096
 40
0.7132746455211032
 40
0.7703480912103313
 40
0.827440765732666
 40
0.8845592971895276
 40
0.9416598953792205
 40
0.9987378890015076
 40
1.0
 40
1.0
 40
1.0
 40
1.0
 10
17.36843489725612
 20
9.493521718433213
 30
0.0
 10
17.66782006299755
 20
9.497360462887489
 30
0.0
 10
18.5728077944646
 20
9.508964299793549
 30
0.0
 10
20.08482021418138
 20
9.186878789017124
 30
0.0
 10
21.9032056741557
 20
8.520383187299881
 30
0.0
 10
23.72071034702232
 20
7.530003271229276
 30
0.0
 10
25.53738707421036
 20
6.270416917206648
 30
0.0
 10
27.35370732962411
 20
4.782366936434438
 30
0.0
 10
29.17024024966629
 20
3.121040946812205
 30
0.0
 10
30.98746783094476
 20
1.346102641631354
 30
0.0
 10
32.80572973818877
 20
-0.4775066737331977
 30
0.0
 10
34.62393085639792
 20
-2.283833490717161
 30
0.0
 10
36.44111196858488
 20
-4.007357396047984
 30
0.0
 10
38.2576196981186
 20
-5.585264345803648
 30
0.0
 10
40.07394345211181
 20
-6.960291004784642
 30
0.0
 10
41.89065929201308
 20
-8.083628101449003
 30
0.0
 10
43.70818999746846
 20
-8.91089379899616
 30
0.0
 10
45.52669196115826
 20
-9.425291730247515
 30
0.0
 10
47.34451909378912
 20
-9.557954708567086
 30
0.0
 10
48.56937691166621
 20
-9.513509977972205
 30
0.0
 10
49.18831687606938
 20
-9.334705783878922
 30
0.0
 10
49.20170682354302
 20
-9.330837591639492
 30
0.0
  0
SPLINE
  5
BA
330
1F
100
AcDbEntity
  8
외형선
  6
Continuous
 62
     1
370
    15
100
AcDbSpline
210
0.0
220
0.0
230
1.0
 70
     8
 71
     3
 72
    26
 73
    22
 74
     0
 42
0.000000001
 43
0.00000001
 40
0.0
 40
0.0
 40
0.0
 40
0.0
 40
0.0041121664944766
 40
0.0611803579655835
 40
0.118259804679996
 40
0.1753618565372817
 40
0.2324818421182811
 40
0.2895759701064889
 40
0.3466508687720612
 40
0.4037179104575798
 40
0.4607885063163661
 40
0.5178740499391941
 40
0.5749858611657311
 40
0.6320993405145946
 40
0.689185985597836
 40
0.7462570846630299
 40
0.803324028815237
 40
0.8603982296898725
 40
0.9174910630743446
 40
0.9746104540333821
 40
1.0
 40
1.0
 40
1.0
 40
1.0
 10
51.10870708712789
 20
-9.513441083744679
 30
0.0
 10
51.06508141321019
 20
-9.517244759958118
 30
0.0
 10
50.416023465202
 20
-9.57383543366645
 30
0.0
 10
49.16145156540421
 20
-9.359671009862073
 30
0.0
 10
47.34452657233531
 20
-8.850123653299043
 30
0.0
 10
45.52668995621871
 20
-7.981726683251757
 30
0.0
 10
43.7081905345016
 20
-6.833936061909625
 30
0.0
 10
41.89065914817979
 20
-5.435170991042552
 30
0.0
 10
40.07394349070172
 20
-3.840119880037423
 30
0.0
 10
38.25761968754956
 20
-2.105652271512168
 30
0.0
 10
36.44111197227229
 20
-0.294797644536285
 30
0.0
 10
34.62393085221829
 20
1.527047351585458
 30
0.0
 10
32.80572975122446
 20
3.293356446522583
 30
0.0
 10
30.98746778299241
 20
4.94014665556874
 30
0.0
 10
29.17024042832797
 20
6.407683573055152
 30
0.0
 10
27.35370666311143
 20
7.642846923242859
 30
0.0
 10
25.53738956161365
 20
8.599291308065968
 30
0.0
 10
23.7207010612858
 20
9.249001153545224
 30
0.0
 10
21.90324034826696
 20
9.543646737315933
 30
0.0
 10
20.42134099338269
 20
9.560743497710648
 30
0.0
 10
19.54576837724352
 20
9.3556753155482
 30
0.0
 10
19.27633827654294
 20
9.292571993274203
 30
0.0
  0
LINE
  5
BB
330
1F
100
AcDbEntity
  8
외형선
  6
Continuous
 62
     1
370
    15
100
AcDbLine
 10
69.14999999999999
 20
7.115613698969456
 30
0.0
 11
69.14999999999999
 21
9.031639665469896
 31
0.0
  0
SPLINE
  5
BC
330
1F
100
AcDbEntity
  8
외형선
  6
Continuous
 62
     1
370
    15
100
AcDbSpline
210
0.0
220
0.0
230
1.0
 70
     8
 71
     3
 72
    20
 73
    16
 74
     0
 42
0.000000001
 43
0.00000001
 40
0.0
 40
0.0
 40
0.0
 40
0.0
 40
0.0704996947598661
 40
0.14099520821756
 40
0.2114117461847768
 40
0.2818416149336286
 40
0.363577166521666
 40
0.4453353857162229
 40
0.5270555915502362
 40
0.6087491276176816
 40
0.6904322767273364
 40
0.7721213729992589
 40
0.8538327211672506
 40
0.935582478739366
 40
1.0
 40
1.0
 40
1.0
 40
1.0
 10
11.99999999999999
 20
5.088492976641381
 30
0.0
 10
12.52264299299452
 20
4.633610939678226
 30
0.0
 10
13.56789798128505
 20
3.723873844581481
 30
0.0
 10
15.13547792630929
 20
2.222768315091189
 30
0.0
 10
16.7010692210023
 20
0.6705486675229907
 30
0.0
 10
18.3502567684663
 20
-0.9854764874565537
 30
0.0
 10
20.08479631597989
 20
-2.695828291408213
 30
0.0
 10
21.90321208530998
 20
-4.390664499615069
 30
0.0
 10
23.72070859228499
 20
-5.926380216058601
 30
0.0
 10
25.53738768537884
 20
-7.246978513179094
 30
0.0
 10
27.35370663924063
 20
-8.303824340550122
 30
0.0
 10
29.17024240047552
 20
-9.062230103985087
 30
0.0
 10
30.98745991428757
 20
-9.4814055966597
 30
0.0
 10
32.67725289174638
 20
-9.587453836448844
 30
0.0
 10
33.76100949254502
 20
-9.39220176875806
 30
0.0
 10
34.23863290067577
 20
-9.306152043251123
 30
0.0
  0
SPLINE
  5
BD
330
1F
100
AcDbEntity
  8
외형선
  6
Continuous
 62
     1
370
    15
100
AcDbSpline
210
0.0
220
0.0
230
1.0
 70
     8
 71
     3
 72
    11
 73
     7
 74
     0
 42
0.000000001
 43
0.00000001
 40
0.0
 40
0.0
 40
0.0
 40
0.0
 40
0.2093982135314336
 40
0.4728443468980882
 40
0.7363608619362851
 40
1.0
 40
1.0
 40
1.0
 40
1.0
 10
62.25429641686089
 20
9.496791871321626
 30
0.0
 10
62.73553453652585
 20
9.487197657864794
 30
0.0
 10
63.82222348462079
 20
9.46553286178326
 30
0.0
 10
65.51456252478903
 20
9.017193069362804
 30
0.0
 10
67.33176847595973
 20
8.266232050912304
 30
0.0
 10
68.54382884516515
 20
7.512928158140719
 30
0.0
 10
69.15000000000002
 20
7.136188597781782
 30
0.0
  0
SPLINE
  5
BE
330
1F
100
AcDbEntity
  8
외형선
  6
Continuous
370
    15
100
AcDbSpline
210
0.0
220
0.0
230
1.0
 70
    24
 71
     3
 72
    14
 73
    10
 74
     0
 42
0.000000001
 43
0.00000001
 40
0.0
 40
0.0
 40
0.0
 40
0.0
 40
0.0270906871593912
 40
0.2447856871249473
 40
0.2734885786556095
 40
0.3811630164420221
 40
0.5988580164077951
 40
0.8165530163735821
 40
1.0
 40
1.0
 40
1.0
 40
1.0
 10
12.00000000000001
 20
7.826002200384244
 30
0.0
 10
12.00000000000001
 20
7.80560254928186
 30
0.0
 10
12.00000000000012
 20
7.621275640819702
 30
0.0
 10
11.99999999999997
 20
7.378518671379322
 30
0.0
 10
11.99999999999999
 20
7.04792942293358
 30
0.0
 10
12.00000000000004
 20
6.706201417581252
 30
0.0
 10
11.99999999999994
 20
6.167237035423496
 30
0.0
 10
11.99999999999999
 20
5.583690547688817
 30
0.0
 10
11.99999999999998
 20
5.305193630687145
 30
0.0
 10
11.99999999999995
 20
5.177833689661498
 30
0.0
  0
SPLINE
  5
BF
330
1F
100
AcDbEntity
  8
외형선
  6
Continuous
 62
     1
370
    15
100
AcDbSpline
210
0.0
220
0.0
230
1.0
 70
     8
 71
     3
 72
    10
 73
     6
 74
     0
 42
0.000000001
 43
0.00000001
 40
0.0
 40
0.0
 40
0.0
 40
0.0
 40
0.364592545505434
 40
0.729015512846797
 40
1.0
 40
1.0
 40
1.0
 40
1.0
 10
69.14999999999999
 20
9.031639665469896
 30
0.0
 10
68.54382949505566
 20
9.190172023205864
 30
0.0
 10
67.33177042532903
 20
9.507163002594867
 30
0.0
 10
65.66969478076703
 20
9.581948759804233
 30
0.0
 10
64.61372855470833
 20
9.385821610612147
 30
0.0
 10
64.16338686577232
 20
9.302178564619064
 30
0.0
  0
SPLINE
  5
C0
330
1F
100
AcDbEntity
  8
외형선
  6
Continuous
 62
     1
370
    15
100
AcDbSpline
210
0.0
220
0.0
230
1.0
 70
     8
 71
     3
 72
    21
 73
    17
 74
     0
 42
0.000000001
 43
0.00000001
 40
0.0
 40
0.0
 40
0.0
 40
0.0
 40
0.0631255158517579
 40
0.1384079083844606
 40
0.2136924997660014
 40
0.2889417193448539
 40
0.3641704468151942
 40
0.4393936974536204
 40
0.5146265135989813
 40
0.5898838903367885
 40
0.6651762741547459
 40
0.7404477830301328
 40
0.8053077171422975
 40
0.8701553747355096
 40
0.9350757620554668
 40
1.0
 40
1.0
 40
1.0
 40
1.0
 10
36.14850308134155
 20
-9.501615828746885
 30
0.0
 10
35.64040030741099
 20
-9.48752854500317
 30
0.0
 10
34.52634300054914
 20
-9.456641011626573
 30
0.0
 10
32.8057247551612
 20
-8.993275268928867
 30
0.0
 10
30.98746915726663
 20
-8.213088594006805
 30
0.0
 10
29.17023992506427
 20
-7.125145152259972
 30
0.0
 10
27.3537073023917
 20
-5.78140029677118
 30
0.0
 10
25.53738750767013
 20
-4.227256971485854
 30
0.0
 10
23.72070863992226
 20
-2.519828941118268
 30
0.0
 10
21.90321207253261
 20
-0.7206207197021901
 30
0.0
 10
20.08479631942014
 20
1.104451562117953
 30
0.0
 10
18.35025676768542
 20
2.807367082536372
 30
0.0
 10
16.70106922119811
 20
4.34041844574771
 30
0.0
 10
15.13547792625704
 20
5.675328321069261
 30
0.0
 10
13.56789798129816
 20
6.871393671446414
 30
0.0
 10
12.52264299299889
 20
7.507793066462629
 30
0.0
 10
11.99999999999999
 20
7.826002200384237
 30
0.0
  0
LINE
  5
C1
330
1F
100
AcDbEntity
  8
외형선
  6
Continuous
 62
     1
370
    15
100
AcDbLine
 10
69.14999999999999
 20
-6.308758776248177
 30
0.0
 11
69.14999999999999
 21
-3.025741223751674
 31
0.0
  0
SPLINE
  5
C2
330
1F
100
AcDbEntity
  8
외형선
  6
Continuous
 62
     1
370
    15
100
AcDbSpline
210
0.0
220
0.0
230
1.0
 70
     8
 71
     3
 72
    12
 73
     8
 74
     0
 42
0.000000001
 43
0.00000001
 40
0.0
 40
0.0
 40
0.0
 40
0.0
 40
0.2154401274318386
 40
0.4308674772158324
 40
0.6460534856750114
 40
0.8612802316906295
 40
1.0
 40
1.0
 40
1.0
 40
1.0
 10
12.00000000000001
 20
-8.051885755937585
 30
0.0
 10
12.5226434117843
 20
-8.309748337666495
 30
0.0
 10
13.56789923762952
 20
-8.825458207421597
 30
0.0
 10
15.13547290362474
 20
-9.30545108506694
 30
0.0
 10
16.70108803404931
 20
-9.537083253894256
 30
0.0
 10
18.08093022727587
 20
-9.553555417963263
 30
0.0
 10
18.93974790396305
 20
-9.366056949484044
 30
0.0
 10
19.27633827654301
 20
-9.292571993274196
 30
0.0
  0
SPLINE
  5
C3
330
1F
100
AcDbEntity
  8
외형선
  6
Continuous
 62
     1
370
    15
100
AcDbSpline
210
0.0
220
0.0
230
1.0
 70
     8
 71
     3
 72
    20
 73
    16
 74
     0
 42
0.000000001
 43
0.00000001
 40
0.0
 40
0.0
 40
0.0
 40
0.0
 40
0.0023338386048528
 40
0.0854642351435556
 40
0.1685782395675308
 40
0.2516924627823502
 40
0.3348235146123585
 40
0.417987921797172
 40
0.5011769585409247
 40
0.5843277884354886
 40
0.6674510473328956
 40
0.750563300427823
 40
0.8336811672815713
 40
0.9168212397161322
 40
1.0
 40
1.0
 40
1.0
 40
1.0
 10
47.29368949896015
 20
9.520283760165166
 30
0.0
 10
47.31069507637113
 20
9.521850208674598
 30
0.0
 10
47.93343251142058
 20
9.57921292581881
 30
0.0
 10
49.1614166273076
 20
9.37382662009336
 30
0.0
 10
50.97783942458765
 20
8.88143932402684
 30
0.0
 10
52.79422092833188
 20
8.026224185905587
 30
0.0
 10
54.61116277460849
 20
6.890559246908188
 30
0.0
 10
56.42902845025611
 20
5.501769125339028
 30
0.0
 10
58.24751765044795
 20
3.914393687466953
 30
0.0
 10
60.06502327216055
 20
2.184327023466213
 30
0.0
 10
61.88172262511085
 20
0.3756581722055573
 30
0.0
 10
63.6980435636988
 20
-1.447726802800835
 30
0.0
 10
65.51456395234393
 20
-3.214231506392964
 30
0.0
 10
67.33176811883759
 20
-4.880793186315087
 30
0.0
 10
68.54382872610599
 20
-5.832696438053342
 30
0.0
 10
69.15000000000002
 20
-6.308758776248177
 30
0.0
  0
SPLINE
  5
C4
330
1F
100
AcDbEntity
  8
외형선
  6
Continuous
370
    15
100
AcDbSpline
210
0.0
220
0.0
230
1.0
 70
    24
 71
     3
 72
    12
 73
     8
 74
     0
 42
0.000000001
 43
0.00000001
 40
0.0
 40
0.0
 40
0.0
 40
0.0
 40
0.0905586900358984
 40
0.319605041008077
 40
0.5486513919803093
 40
0.7776977429525226
 40
1.0
 40
1.0
 40
1.0
 40
1.0
 10
11.99999999999995
 20
-5.518816375546553
 30
0.0
 10
11.99999999999994
 20
-5.572401424659957
 30
0.0
 10
11.99999999999991
 20
-5.761516923266663
 30
0.0
 10
11.99999999999994
 20
-6.240515878269859
 30
0.0
 10
12.00000000000005
 20
-6.873134045033375
 30
0.0
 10
11.99999999999992
 20
-7.519129560653363
 30
0.0
 10
11.99999999999995
 20
-7.876078211096236
 30
0.0
 10
11.99999999999998
 20
-8.051885755937583
 30
0.0
  0
SPLINE
  5
C5
330
1F
100
AcDbEntity
  8
외형선
  6
Continuous
 62
     1
370
    15
100
AcDbSpline
210
0.0
220
0.0
230
1.0
 70
     8
 71
     3
 72
    18
 73
    14
 74
     0
 42
0.000000001
 43
0.00000001
 40
0.0
 40
0.0
 40
0.0
 40
0.0
 40
0.0911350724728345
 40
0.182227756480894
 40
0.2732961108739214
 40
0.3643583145342916
 40
0.4554325767370498
 40
0.5465370471902756
 40
0.6376833790989714
 40
0.7288027255533129
 40
0.8198855261073895
 40
0.9109498883358679
 40
0.9999999999999999
 40
0.9999999999999999
 40
0.9999999999999999
 40
0.9999999999999999
 10
69.15000000000002
 20
-3.025741223751675
 30
0.0
 10
68.54382872610628
 20
-2.440654230181666
 30
0.0
 10
67.33176811883857
 20
-1.270752376905645
 30
0.0
 10
65.51456395233977
 20
0.5599093443676996
 30
0.0
 10
63.69804356371428
 20
2.362086321076579
 30
0.0
 10
61.88172262505292
 20
4.080636710171865
 30
0.0
 10
60.06502327237695
 20
5.650631193336013
 30
0.0
 10
58.24751764963993
 20
7.016081280591349
 30
0.0
 10
56.42902845327284
 20
8.126122076321499
 30
0.0
 10
54.61116276335584
 20
8.943299844455177
 30
0.0
 10
52.79422097030527
 20
9.428936412181534
 30
0.0
 10
50.99122895077578
 20
9.596861676724282
 30
0.0
 10
49.79375033077453
 20
9.418848703625676
 30
0.0
 10
49.20170682354309
 20
9.33083759163949
 30
0.0
  0
SPLINE
  5
C6
330
1F
100
AcDbEntity
  8
외형선
  6
Continuous
 62
     1
370
    15
100
AcDbSpline
210
0.0
220
0.0
230
1.0
 70
     8
 71
     3
 72
    13
 73
     9
 74
     0
 42
0.000000001
 43
0.00000001
 40
0.0
 40
0.0
 40
0.0
 40
0.0
 40
0.1198468937631082
 40
0.3177135538409204
 40
0.4882112458280341
 40
0.6586766664572483
 40
0.8293332721488379
 40
1.0
 40
1.0
 40
1.0
 40
1.0
 10
21.18595016753968
 20
-9.483605960470316
 30
0.0
 10
20.81885179797381
 20
-9.487605060090841
 30
0.0
 10
19.84567574024042
 20
-9.498206654447653
 30
0.0
 10
18.35025052344802
 20
-9.146287210395304
 30
0.0
 10
16.70107078711291
 20
-8.529727448386039
 30
0.0
 10
15.13547750819097
 20
-7.69896046396317
 30
0.0
 10
13.56789808587073
 20
-6.674676164504025
 30
0.0
 10
12.52264302785708
 20
-5.844557369085133
 30
0.0
 10
11.99999999999999
 20
-5.429485662526444
 30
0.0
  0
LINE
  5
C7
330
1F
100
AcDbEntity
  8
외형선
  6
Continuous
 62
     1
370
    15
100
AcDbLine
 10
69.14999999999999
 20
-9.507013460872894
 30
0.0
 11
69.14999999999999
 21
-8.525855790117683
 31
0.0
  0
SPLINE
  5
C8
330
1F
100
AcDbEntity
  8
외형선
  6
Continuous
 62
     1
370
    15
100
AcDbSpline
210
0.0
220
0.0
230
1.0
 70
     8
 71
     3
 72
    24
 73
    20
 74
     0
 42
0.000000001
 43
0.00000001
 40
0.0
 40
0.0
 40
0.0
 40
0.0
 40
0.0089309835062047
 40
0.0708581715717662
 40
0.1328062237633618
 40
0.1947823318613063
 40
0.2567389815789972
 40
0.3186711043511013
 40
0.3805910150021994
 40
0.4425110886524168
 40
0.5044436996163649
 40
0.5664011603105551
 40
0.6283769700194446
 40
0.690324315636098
 40
0.7522511208673813
 40
0.814169726778816
 40
0.8760925149390429
 40
0.938031846250925
 40
1.0
 40
1.0
 40
1.0
 40
1.0
 10
39.81191445053637
 20
9.503651597837342
 30
0.0
 10
39.8992373157509
 20
9.510499604955893
 30
0.0
 10
40.59205446866688
 20
9.564831500540954
 30
0.0
 10
41.89066293566241
 20
9.334685407963768
 30
0.0
 10
43.70818959791547
 20
8.797497219544866
 30
0.0
 10
45.52668991243208
 20
7.908048406018604
 30
0.0
 10
47.34452768329982
 20
6.740312337151338
 30
0.0
 10
49.16144716758612
 20
5.32568724765176
 30
0.0
 10
50.97783124206619
 20
3.718615122978817
 30
0.0
 10
52.7942231212978
 20
1.976455196968669
 30
0.0
 10
54.61116218669742
 20
0.1624421591909771
 30
0.0
 10
56.42902860786764
 20
-1.657650444465452
 30
0.0
 10
58.24751760823193
 20
-3.417229946190696
 30
0.0
 10
60.06502328346593
 20
-5.05327144811796
 30
0.0
 10
61.88172262208253
 20
-6.505174725763358
 30
0.0
 10
63.69804356450997
 20
-7.722757409744421
 30
0.0
 10
65.51456395212753
 20
-8.653549766818086
 30
0.0
 10
67.33176811889169
 20
-9.295193314506783
 30
0.0
 10
68.54382872612402
 20
-9.43639579692726
 30
0.0
 10
69.15000000000002
 20
-9.507013460872892
 30
0.0
  0
SPLINE
  5
C9
330
1F
100
AcDbEntity
  8
외형선
  6
Continuous
 62
     1
370
    15
100
AcDbSpline
210
0.0
220
0.0
230
1.0
 70
     8
 71
     3
 72
    23
 73
    19
 74
     0
 42
0.000000001
 43
0.00000001
 40
0.0
 40
0.0
 40
0.0
 40
0.0
 40
0.0662754860254899
 40
0.132520146200639
 40
0.1987471133294414
 40
0.2649696075063364
 40
0.3312008709279999
 40
0.3974541024726637
 40
0.4637377766145815
 40
0.5300018263237269
 40
0.5962392990275925
 40
0.6624633629640388
 40
0.7286872525714922
 40
0.7949242031498817
 40
0.8611873855125208
 40
0.9274713787841595
 40
0.9937253660169453
 40
1.0
 40
1.0
 40
1.0
 40
1.0
 10
69.14999999999999
 20
-8.525855790117685
 30
0.0
 10
68.54382872612385
 20
-8.225781799928127
 30
0.0
 10
67.33176811889113
 20
-7.625773389040945
 30
0.0
 10
65.51456395212959
 20
-6.365948049184588
 30
0.0
 10
63.69804356450224
 20
-4.897524185708711
 30
0.0
 10
61.88172262211118
 20
-3.245509632165855
 30
0.0
 10
60.06502328335907
 20
-1.477234611477365
 30
0.0
 10
58.24751760863109
 20
0.3453859110768495
 30
0.0
 10
56.42902860637735
 20
2.15498883239512
 30
0.0
 10
54.61116219225622
 20
3.886723116396301
 30
0.0
 10
52.7942231005627
 20
5.477281996840698
 30
0.0
 10
50.97783131943417
 20
6.868766237675354
 30
0.0
 10
49.16144687881933
 20
8.011717162327852
 30
0.0
 10
47.34452876141001
 20
8.861557305576868
 30
0.0
 10
45.52668588658795
 20
9.399226923183134
 30
0.0
 10
43.70820462474259
 20
9.56068926396675
 30
0.0
 10
42.43886854080363
 20
9.522455615327964
 30
0.0
 10
41.77576268062265
 20
9.336089630485631
 30
0.0
 10
41.71839571989863
 20
9.319966639007589
 30
0.0
  0
SPLINE
  5
CA
330
1F
100
AcDbEntity
  8
외형선
  6
Continuous
370
    15
100
AcDbSpline
210
0.0
220
0.0
230
1.0
 70
     8
 71
     3
 72
     9
 73
     5
 74
     0
 42
0.000000001
 43
0.00000001
 40
0.0
 40
0.0
 40
0.0
 40
0.0
 40
0.0800227910534343
 40
0.9999999999999999
 40
0.9999999999999999
 40
0.9999999999999999
 40
0.9999999999999999
 10
13.70436290184491
 20
-9.514779482712168
 30
0.0
 10
13.658901568704
 20
-9.518158475628042
 30
0.0
 10
13.09079675078331
 20
-9.560383857564792
 30
0.0
 10
12.5226666991866
 20
-9.462810563000835
 30
0.0
 10
12.00000000000001
 20
-9.37304535580016
 30
0.0
  0
SPLINE
  5
CB
330
1F
100
AcDbEntity
  8
외형선
  6
Continuous
 62
     1
370
    15
100
AcDbSpline
210
0.0
220
0.0
230
1.0
 70
     8
 71
     3
 72
    26
 73
    22
 74
     0
 42
0.000000001
 43
0.00000001
 40
0.0
 40
0.0
 40
0.0
 40
0.0
 40
0.0215722341183271
 40
0.0786391976116819
 40
0.1357103160194311
 40
0.1927969804504971
 40
0.2499104791562796
 40
0.3070223097391697
 40
0.3641078727094496
 40
0.4211784879106202
 40
0.4782455489373205
 40
0.5353204669467363
 40
0.5924146142853036
 40
0.6495346192254278
 40
0.7066366904357597
 40
0.7637161564955572
 40
0.8207843673082346
 40
0.8778527283483267
 40
0.9349326443479705
 40
0.9920354629911934
 40
1.0
 40
1.0
 40
1.0
 40
1.0
 10
24.85083369592985
 20
9.484290409579586
 30
0.0
 10
25.07970585517492
 20
9.494833569748966
 30
0.0
 10
25.91403404111816
 20
9.533267496038833
 30
0.0
 10
27.35369964791627
 20
9.2397610778335
 30
0.0
 10
29.1702423086447
 20
8.617360508810199
 30
0.0
 10
30.98746727883236
 20
7.659836322361155
 30
0.0
 10
32.80572988636796
 20
6.430383486213183
 30
0.0
 10
34.6239308159148
 20
4.965950722619988
 30
0.0
 10
36.44111198240728
 20
3.321626040216768
 30
0.0
 10
38.25761968329662
 20
1.556909462964507
 30
0.0
 10
40.07394349758032
 20
-0.2642165844377619
 30
0.0
 10
41.89065912491157
 20
-2.075880871560825
 30
0.0
 10
43.70819062074246
 20
-3.812488141323702
 30
0.0
 10
45.52668963442066
 20
-5.410434070488492
 30
0.0
 10
47.34452777261571
 20
-6.812150991135579
 30
0.0
 10
49.16144708821487
 20
-7.9671213539007
 30
0.0
 10
50.97783147022592
 20
-8.830581232705851
 30
0.0
 10
52.79422228793599
 20
-9.382350703908477
 30
0.0
 10
54.61116529319058
 20
-9.561286351916044
 30
0.0
 10
55.90738498220534
 20
-9.52780474997064
 30
0.0
 10
56.5979945264986
 20
-9.3374445027522
 30
0.0
 10
56.68252824112463
 20
-9.314143552240473
 30
0.0
  0
SPLINE
  5
CC
330
1F
100
AcDbEntity
  8
외형선
  6
Continuous
 62
     1
370
    15
100
AcDbSpline
210
0.0
220
0.0
230
1.0
 70
     8
 71
     3
 72
    26
 73
    22
 74
     0
 42
0.000000001
 43
0.00000001
 40
0.0
 40
0.0
 40
0.0
 40
0.0
 40
0.0107579938585822
 40
0.0678769516448026
 40
0.1249789983716768
 40
0.1820581427645702
 40
0.2391257323541114
 40
0.2961931717182686
 40
0.3532718661773976
 40
0.4103731654814846
 40
0.467492398272935
 40
0.5245857738123735
 40
0.5816599202826014
 40
0.6387262098763236
 40
0.6957960535964726
 40
0.7528808448836654
 40
0.8099919034283841
 40
0.8671046300734447
 40
0.9241905228065346
 40
0.9812608697264593
 40
1.0
 40
1.0
 40
1.0
 40
1.0
 10
58.59015416671749
 20
-9.498531591235837
 30
0.0
 10
58.47599942620908
 20
-9.50683040040133
 30
0.0
 10
57.75574657020543
 20
-9.559191265804355
 30
0.0
 10
56.42899988600954
 20
-9.318295620646213
 30
0.0
 10
54.61116987869954
 20
-8.764520354869244
 30
0.0
 10
52.79422105973837
 20
-7.861991902118828
 30
0.0
 10
50.97783179928855
 20
-6.682531205513632
 30
0.0
 10
49.16144700002593
 20
-5.258420234033977
 30
0.0
 10
47.34452779625376
 20
-3.643948965689741
 30
0.0
 10
45.52668962809935
 20
-1.896897370009526
 30
0.0
 10
43.70819062237674
 20
-0.0813844477576087
 30
0.0
 10
41.89065912469371
 20
1.737475589021716
 30
0.0
 10
40.07394349681876
 20
3.492965239498873
 30
0.0
 10
38.25761968656022
 20
5.12165213153246
 30
0.0
 10
36.44111197011224
 20
6.564437300572245
 30
0.0
 10
34.623930861853
 20
7.769666342014515
 30
0.0
 10
32.80572971482793
 20
8.691146789873859
 30
0.0
 10
30.98746791891406
 20
9.303561564364621
 30
0.0
 10
29.170239921356
 20
9.554701113448461
 30
0.0
 10
27.76032764785488
 20
9.54900042687202
 30
0.0
 10
26.956072031104
 20
9.347014037686824
 30
0.0
 10
26.75727035968418
 20
9.297085593374195
 30
0.0
  0
SPLINE
  5
CD
330
1F
100
AcDbEntity
  8
외형선
  6
Continuous
 62
     1
370
    15
100
AcDbSpline
210
0.0
220
0.0
230
1.0
 70
     8
 71
     3
 72
    24
 73
    20
 74
     0
 42
0.000000001
 43
0.00000001
 40
0.0
 40
0.0
 40
0.0
 40
0.0
 40
0.0527547696483387
 40
0.1055064104372731
 40
0.158198954036891
 40
0.2109014730316758
 40
0.2720640101290915
 40
0.3332435093476129
 40
0.3943945632503655
 40
0.4555256602242738
 40
0.5166489846600534
 40
0.5777767593445406
 40
0.6389211850748993
 40
0.700094352479584
 40
0.7612657331899975
 40
0.8224089791669426
 40
0.8835362148765645
 40
0.9446596437784303
 40
1.0
 40
1.0
 40
1.0
 40
1.0
 10
12.00000000000001
 20
9.29165090916612
 30
0.0
 10
12.52264299299826
 20
9.152465465759821
 30
0.0
 10
13.56789798129629
 20
8.874102833967319
 30
0.0
 10
15.13547792626449
 20
8.150142775766634
 30
0.0
 10
16.70106922117023
 20
7.223651516881927
 30
0.0
 10
18.35025676779669
 20
6.037827980515885
 30
0.0
 10
20.08479631892994
 20
4.596332894237807
 30
0.0
 10
21.90321207435318
 20
2.918425823029768
 30
0.0
 10
23.7207086331348
 20
1.134373004281731
 30
0.0
 10
25.53738753299048
 20
-0.6905690905874885
 30
0.0
 10
27.35370720790461
 20
-2.490343467470867
 30
0.0
 10
29.17024027776581
 20
-4.199830891867136
 30
0.0
 10
30.9874678403086
 20
-5.757130070451861
 30
0.0
 10
32.80572967258155
 20
-7.105512020169576
 30
0.0
 10
34.62393110939396
 20
-8.195480064868297
 30
0.0
 10
36.44111102278184
 20
-8.990247951751657
 30
0.0
 10
38.25762322742435
 20
-9.450515436734982
 30
0.0
 10
40.016568644244
 20
-9.593692268813335
 30
0.0
 10
41.17021500750754
 20
-9.408137236886269
 30
0.0
 10
41.71839571989857
 20
-9.319966639007577
 30
0.0
  0
SPLINE
  5
CE
330
1F
100
AcDbEntity
  8
외형선
  6
Continuous
 62
     1
370
    15
100
AcDbSpline
210
0.0
220
0.0
230
1.0
 70
     8
 71
     3
 72
    25
 73
    21
 74
     0
 42
0.000000001
 43
0.00000001
 40
0.0
 40
0.0
 40
0.0
 40
0.0
 40
0.0549222977562251
 40
0.1123639680100383
 40
0.1697977307937031
 40
0.227235070590269
 40
0.2846874542073794
 40
0.3421662742276353
 40
0.3996467730898139
 40
0.4571002652454823
 40
0.5145381114821331
 40
0.5719717761057231
 40
0.6294127440844935
 40
0.6868724643083153
 40
0.7443589127695335
 40
0.801829423014303
 40
0.8513505972747957
 40
0.9008623982967444
 40
0.9504297291541975
 40
1.0
 40
1.0
 40
1.0
 40
1.0
 10
43.62772778985242
 20
-9.517698100052758
 30
0.0
 10
43.04862833420835
 20
-9.490127092056666
 30
0.0
 10
41.86386521673212
 20
-9.43372035040452
 30
0.0
 10
40.0739520898053
 20
-8.919046295968473
 30
0.0
 10
38.25761738361033
 20
-8.100726212625649
 30
0.0
 10
36.44111258910092
 20
-6.98108428163943
 30
0.0
 10
34.62393068943856
 20
-5.609902113652283
 30
0.0
 10
32.80572978513567
 20
-4.034670608548286
 30
0.0
 10
30.98746781016489
 20
-2.313200472187944
 30
0.0
 10
29.17024028583874
 20
-0.5075804524629794
 30
0.0
 10
27.35370720574188
 20
1.316157177580301
 30
0.0
 10
25.53738753357
 20
3.092090991253487
 30
0.0
 10
23.72070863297945
 20
4.755943540718943
 30
0.0
 10
21.90321207439481
 20
6.247429331359551
 30
0.0
 10
20.08479631891872
 20
7.512035432338771
 30
0.0
 10
18.35025676779923
 20
8.45817822106388
 30
0.0
 10
16.70106922116956
 20
9.09914597642139
 30
0.0
 10
15.13547792626464
 20
9.457429793168671
 30
0.0
 10
13.56789798129624
 20
9.578422913620713
 30
0.0
 10
12.52264299299825
 20
9.441505895193982
 30
0.0
 10
12.00000000000001
 20
9.37304535580018
 30
0.0
  0
LINE
  5
CF
330
1F
100
AcDbEntity
  8
외형선
  6
Continuous
 62
     1
370
    15
100
AcDbLine
 10
69.14999999999999
 20
0.5850812377624486
 30
0.0
 11
69.14999999999999
 21
4.246811515256709
 31
0.0
  0
SPLINE
  5
D0
330
1F
100
AcDbEntity
  8
외형선
  6
Continuous
 62
     1
370
    15
100
AcDbSpline
210
0.0
220
0.0
230
1.0
 70
     8
 71
     3
 72
    16
 73
    12
 74
     0
 42
0.000000001
 43
0.00000001
 40
0.0
 40
0.0
 40
0.0
 40
0.0
 40
0.1062367099950436
 40
0.2124671191431425
 40
0.3185785193181233
 40
0.4247100077840868
 40
0.5478781451770224
 40
0.67108044061771
 40
0.794225453337192
 40
0.917330277113074
 40
1.0
 40
1.0
 40
1.0
 40
1.0
 10
12.00000000000001
 20
-2.095435129559527
 30
0.0
 10
12.52264299299413
 20
-2.599549287394398
 30
0.0
 10
13.56789798128389
 20
-3.607747704301731
 30
0.0
 10
15.13547792631402
 20
-5.006682610129555
 30
0.0
 10
16.70106922098467
 20
-6.275319042778958
 30
0.0
 10
18.35025676853668
 20
-7.431635596591242
 30
0.0
 10
20.08479631566981
 20
-8.408222123466649
 30
0.0
 10
21.90321208646173
 20
-9.129945884134365
 30
0.0
 10
23.72070858799102
 20
-9.507402349261108
 30
0.0
 10
25.33857531878049
 20
-9.579682244283687
 30
0.0
 10
26.35066451490303
 20
-9.378079356418713
 30
0.0
 10
26.75727035968425
 20
-9.29708559337419
 30
0.0
  0
SPLINE
  5
D1
330
1F
100
AcDbEntity
  8
외형선
  6
Continuous
 62
     1
370
    15
100
AcDbSpline
210
0.0
220
0.0
230
1.0
 70
     8
 71
     3
 72
    15
 73
    11
 74
     0
 42
0.000000001
 43
0.00000001
 40
0.0
 40
0.0
 40
0.0
 40
0.0
 40
0.1152020210683819
 40
0.2416693133064124
 40
0.3680785219681569
 40
0.4944458161001605
 40
0.6207963787721906
 40
0.7471554757043246
 40
0.8735483304462355
 40
1.0
 40
1.0
 40
1.0
 40
1.0
 10
54.77242881905537
 20
9.511001096714274
 30
0.0
 10
55.32456737366702
 20
9.48891749140524
 30
0.0
 10
56.48283650909995
 20
9.442590789140219
 30
0.0
 10
58.24752348044836
 20
8.947834151884738
 30
0.0
 10
60.06502171089272
 20
8.14376473565487
 30
0.0
 10
61.88172304331943
 20
7.036063707976545
 30
0.0
 10
63.69804345167761
 20
5.675462147533127
 30
0.0
 10
65.51456398222555
 20
4.10791340508732
 30
0.0
 10
67.33176811136221
 20
2.392716042823924
 30
0.0
 10
68.54382872361377
 20
1.187719605217964
 30
0.0
 10
69.15000000000002
 20
0.5850812377624492
 30
0.0
  0
SPLINE
  5
D2
330
1F
100
AcDbEntity
  8
외형선
  6
Continuous
370
    15
100
AcDbSpline
210
0.0
220
0.0
230
1.0
 70
    24
 71
     3
 72
    24
 73
    20
 74
     0
 42
0.000000001
 43
0.00000001
 40
0.0
 40
0.0
 40
0.0
 40
0.0
 40
0.1250000000000007
 40
0.1250000000000007
 40
0.187500000000001
 40
0.187500000000001
 40
0.2500000000000013
 40
0.2500000000000013
 40
0.375000000000001
 40
0.375000000000001
 40
0.5000000000000008
 40
0.5000000000000008
 40
0.6250000000000007
 40
0.6250000000000007
 40
0.7500000000000004
 40
0.7500000000000004
 40
0.8750000000000002
 40
0.8750000000000002
 40
1.0
 40
1.0
 40
1.0
 40
1.0
 10
11.99999999999997
 20
1.694593095145047
 30
0.0
 10
11.99999999999998
 20
1.678163095514334
 30
0.0
 10
11.99999999999995
 20
1.629822175053757
 30
0.0
 10
11.99999999999998
 20
1.538268232411152
 30
0.0
 10
12.00000000000001
 20
1.504445989879978
 30
0.0
 10
11.99999999999998
 20
1.43338366880271
 30
0.0
 10
11.99999999999997
 20
1.392576758427587
 30
0.0
 10
11.99999999999998
 20
1.247810918701465
 30
0.0
 10
11.99999999999999
 20
1.122198156672448
 30
0.0
 10
11.99999999999997
 20
0.7933782802746097
 30
0.0
 10
11.99999999999999
 20
0.5890354469859198
 30
0.0
 10
11.99999999999999
 20
0.1072666810963081
 30
0.0
 10
11.99999999999999
 20
-0.1706632235333203
 30
0.0
 10
11.99999999999998
 20
-0.7381316246152824
 30
0.0
 10
12.00000000000001
 20
-1.025255311787334
 30
0.0
 10
11.99999999999999
 20
-1.51534067971193
 30
0.0
 10
12.00000000000001
 20
-1.716043772324271
 30
0.0
 10
12.00000000000002
 20
-1.99122150188502
 30
0.0
 10
11.99999999999998
 20
-2.066962132196265
 30
0.0
 10
11.99999999999998
 20
-2.09543512955953
 30
0.0
  0
SPLINE
  5
D3
330
1F
100
AcDbEntity
  8
외형선
  6
Continuous
 62
     1
370
    15
100
AcDbSpline
210
0.0
220
0.0
230
1.0
 70
     8
 71
     3
 72
    14
 73
    10
 74
     0
 42
0.000000001
 43
0.00000001
 40
0.0
 40
0.0
 40
0.0
 40
0.0
 40
0.1458221087627787
 40
0.2915763931945617
 40
0.4372917486424409
 40
0.5829972625136124
 40
0.7287220708455431
 40
0.8744952143646385
 40
1.0
 40
1.0
 40
1.0
 40
1.0
 10
69.14999999999999
 20
4.246811515256709
 30
0.0
 10
68.543828732062
 20
4.774166544255125
 30
0.0
 10
67.3317681367029
 20
5.828631320501863
 30
0.0
 10
65.51456388092912
 20
7.157886658343668
 30
0.0
 10
63.69804383142085
 20
8.237616744161915
 30
0.0
 10
61.8817216256242
 20
9.017902018905366
 30
0.0
 10
60.06502700347155
 20
9.462831769766332
 30
0.0
 10
58.3320148862251
 20
9.591496107655239
 30
0.0
 10
57.20427089796238
 20
9.4018718521771
 30
0.0
 10
56.68252824112469
 20
9.314143552240473
 30
0.0
  0
SPLINE
  5
D4
330
1F
100
AcDbEntity
  8
외형선
  6
Continuous
 62
     1
370
    15
100
AcDbSpline
210
0.0
220
0.0
230
1.0
 70
     8
 71
     3
 72
    17
 73
    13
 74
     0
 42
0.000000001
 43
0.00000001
 40
0.0
 40
0.0
 40
0.0
 40
0.0
 40
0.0787594086242859
 40
0.1877488564350036
 40
0.2967521635154282
 40
0.4057910559419515
 40
0.514880669419515
 40
0.6239400376146088
 40
0.7179142855223866
 40
0.8118707462299258
 40
0.9059325835688936
 40
0.9999999999999999
 40
0.9999999999999999
 40
0.9999999999999999
 40
0.9999999999999999
 10
28.66619552983065
 20
-9.490302993290022
 30
0.0
 10
28.22868464510305
 20
-9.486681797921154
 30
0.0
 10
27.18573409836487
 20
-9.478049492253696
 30
0.0
 10
25.53739098872616
 20
-9.062813398700916
 30
0.0
 10
23.720707706777
 20
-8.321536108834943
 30
0.0
 10
21.90321232282331
 20
-7.266000107858137
 30
0.0
 10
20.08479625203057
 20
-5.950250666986294
 30
0.0
 10
18.35025678298213
 20
-4.487928565843541
 30
0.0
 10
16.70106921736204
 20
-2.960875632906173
 30
0.0
 10
15.1354779272812
 20
-1.431301297648918
 30
0.0
 10
13.56789798104198
 20
0.1391946554110794
 30
0.0
 10
12.52264299291349
 20
1.176116698373787
 30
0.0
 10
11.99999999999999
 20
1.694593095145007
 30
0.0
  0
LINE
  5
D5
330
1F
100
AcDbEntity
  8
외형선
  6
Continuous
370
    15
100
AcDbLine
 10
12.00000000000001
 20
1.694593095145021
 30
0.0
 11
11.99999999999999
 21
5.088492976641381
 31
0.0
  0
LINE
  5
D6
330
1F
100
AcDbEntity
  8
외형선
  6
Continuous
 62
     1
370
    15
100
AcDbLine
 10
69.14999999999999
 20
4.246811515256709
 30
0.0
 11
69.14999999999999
 21
7.136188597781782
 31
0.0
  0
LINE
  5
D7
330
1F
100
AcDbEntity
  8
외형선
  6
Continuous
370
    15
100
AcDbLine
 10
12.00000000000001
 20
-5.429485662526432
 30
0.0
 11
11.99999999999998
 21
-2.095435129559539
 31
0.0
  0
LINE
  5
D8
330
1F
100
AcDbEntity
  8
외형선
  6
Continuous
 62
     1
370
    15
100
AcDbLine
 10
69.14999999999999
 20
-3.025741223751674
 30
0.0
 11
69.14999999999999
 21
0.5850812377624486
 31
0.0
  0
LINE
  5
D9
330
1F
100
AcDbEntity
  8
외형선
  6
Continuous
370
    15
100
AcDbLine
 10
12.00000000000001
 20
-9.373045355800155
 30
0.0
 11
11.99999999999998
 21
-8.051885755937583
 31
0.0
  0
LINE
  5
DA
330
1F
100
AcDbEntity
  8
외형선
  6
Continuous
 62
     1
370
    15
100
AcDbLine
 10
69.14999999999999
 20
-8.525855790117683
 30
0.0
 11
69.14999999999999
 21
-6.308758776248177
 31
0.0
  0
LINE
  5
DB
330
1F
100
AcDbEntity
  8
외형선
  6
Continuous
 62
     1
370
    15
100
AcDbLine
 10
69.14999999999999
 20
-9.524999999999999
 30
0.0
 11
69.14999999999999
 21
-9.507013460872894
 31
0.0
  0
LINE
  5
DC
330
1F
100
AcDbEntity
  8
외형선
  6
Continuous
370
    15
100
AcDbLine
 10
12.00000000000001
 20
7.826002200384244
 30
0.0
 11
11.99999999999999
 21
9.29165090916612
 31
0.0
  0
LINE
  5
DD
330
1F
100
AcDbEntity
  8
외형선
  6
Continuous
 62
     1
370
    15
100
AcDbLine
 10
69.14999999999999
 20
9.031639665469896
 30
0.0
 11
69.14999999999999
 21
9.525000000000006
 31
0.0
  0
SPLINE
  5
DE
330
1F
100
AcDbEntity
  8
외형선
  6
Continuous
370
    15
100
AcDbSpline
210
0.0
220
0.0
230
1.0
 70
     8
 71
     3
 72
     8
 73
     4
 74
     0
 42
0.000000001
 43
0.00000001
 40
0.0
 40
0.0
 40
0.0
 40
0.0
 40
1.0
 40
1.0
 40
1.0
 40
1.0
 10
11.99999999999998
 20
-2.09543512955952
 30
0.0
 10
11.66561410393657
 20
-1.769461794149261
 30
0.0
 10
11.33440251634904
 20
-1.440663114832333
 30
0.0
 10
11.00039431954921
 20
-1.108900528890574
 30
0.0
  0
SPLINE
  5
DF
330
1F
100
AcDbEntity
  8
외형선
  6
Continuous
370
    15
100
AcDbSpline
210
0.0
220
0.0
230
1.0
 70
     8
 71
     3
 72
     8
 73
     4
 74
     0
 42
0.000000001
 43
0.00000001
 40
0.0
 40
0.0
 40
0.0
 40
0.0
 40
1.0
 40
1.0
 40
1.0
 40
1.0
 10
11.99999999999998
 20
-5.429485662526428
 30
0.0
 10
11.66561410393657
 20
-5.154930789003283
 30
0.0
 10
11.33440251634907
 20
-4.871251443089017
 30
0.0
 10
11.0003943195492
 20
-4.578335625852129
 30
0.0
  0
LINE
  5
E0
330
1F
100
AcDbEntity
  8
외형선
  6
Continuous
370
    15
100
AcDbLine
 10
11.00039431954921
 20
-7.473501329487461
 30
0.0
 11
11.00039431954921
 21
-4.57833949136862
 31
0.0
  0
SPLINE
  5
E1
330
1F
100
AcDbEntity
  8
외형선
  6
Continuous
370
    15
100
AcDbSpline
210
0.0
220
0.0
230
1.0
 70
     8
 71
     3
 72
     8
 73
     4
 74
     0
 42
0.000000001
 43
0.00000001
 40
0.0
 40
0.0
 40
0.0
 40
0.0
 40
1.0
 40
1.0
 40
1.0
 40
1.0
 10
11.99999999999998
 20
-8.051885755937578
 30
0.0
 10
11.66561410393657
 20
-7.873369252893841
 30
0.0
 10
11.33440251634904
 20
-7.680597789849029
 30
0.0
 10
11.00039431954921
 20
-7.473504352727379
 30
0.0
  0
SPLINE
  5
E2
330
1F
100
AcDbEntity
  8
외형선
  6
Continuous
370
    15
100
AcDbSpline
210
0.0
220
0.0
230
1.0
 70
     8
 71
     3
 72
     8
 73
     4
 74
     0
 42
0.000000001
 43
0.00000001
 40
0.0
 40
0.0
 40
0.0
 40
0.0
 40
1.0
 40
1.0
 40
1.0
 40
1.0
 10
11.99999999999998
 20
-9.373045355800153
 30
0.0
 10
11.66561410393657
 20
-9.313594977305769
 30
0.0
 10
11.33440251634907
 20
-9.237081271467485
 30
0.0
 10
11.0003943195492
 20
-9.143490516260549
 30
0.0
  0
LINE
  5
E3
330
1F
100
AcDbEntity
  8
외형선
  6
Continuous
370
    15
100
AcDbLine
 10
11.00039431954921
 20
-9.524999999999995
 30
0.0
 11
11.00039431954921
 21
-9.143491751347034
 31
0.0
  0
LINE
  5
E4
330
1F
100
AcDbEntity
  8
외형선
  6
Continuous
370
    15
100
AcDbLine
 10
11.00039431954921
 20
-9.460230685190824
 30
0.0
 11
11.79564110220055
 21
-9.326115276359543
 31
0.0
  0
LINE
  5
E5
330
1F
100
AcDbEntity
  8
외형선
  6
Continuous
370
    15
100
AcDbLine
 10
11.99999999999998
 20
9.373045355800175
 30
0.0
 11
11.79564110220048
 21
9.326115276359548
 31
0.0
  0
LINE
  5
E6
330
1F
100
AcDbEntity
  8
외형선
  6
Continuous
370
    15
100
AcDbLine
 10
11.00039431954921
 20
9.46023125289679
 30
0.0
 11
11.00039431954921
 21
9.525000000000002
 31
0.0
  0
SPLINE
  5
E7
330
1F
100
AcDbEntity
  8
외형선
  6
Continuous
370
    15
100
AcDbSpline
210
0.0
220
0.0
230
1.0
 70
     8
 71
     3
 72
     8
 73
     4
 74
     0
 42
0.000000001
 43
0.00000001
 40
0.0
 40
0.0
 40
0.0
 40
0.0
 40
1.0
 40
1.0
 40
1.0
 40
1.0
 10
11.99999999999998
 20
9.291650909166115
 30
0.0
 10
11.66561410393657
 20
9.365163784864507
 30
0.0
 10
11.33440251634904
 20
9.42134244670496
 30
0.0
 10
11.00039431954921
 20
9.460230685190824
 30
0.0
  0
SPLINE
  5
E8
330
1F
100
AcDbEntity
  8
외형선
  6
Continuous
370
    15
100
AcDbSpline
210
0.0
220
0.0
230
1.0
 70
     8
 71
     3
 72
     8
 73
     4
 74
     0
 42
0.000000001
 43
0.00000001
 40
0.0
 40
0.0
 40
0.0
 40
0.0
 40
1.0
 40
1.0
 40
1.0
 40
1.0
 10
11.99999999999998
 20
7.826002200384248
 30
0.0
 10
11.66561410393657
 20
8.016481542352421
 30
0.0
 10
11.33440251634907
 20
8.191954167762761
 30
0.0
 10
11.0003943195492
 20
8.35251266967326
 30
0.0
  0
LINE
  5
E9
330
1F
100
AcDbEntity
  8
외형선
  6
Continuous
370
    15
100
AcDbLine
 10
11.00039431954921
 20
5.905286011544928
 30
0.0
 11
11.00039431954921
 21
8.352510550832827
 31
0.0
  0
SPLINE
  5
EA
330
1F
100
AcDbEntity
  8
외형선
  6
Continuous
370
    15
100
AcDbSpline
210
0.0
220
0.0
230
1.0
 70
     8
 71
     3
 72
     8
 73
     4
 74
     0
 42
0.000000001
 43
0.00000001
 40
0.0
 40
0.0
 40
0.0
 40
0.0
 40
1.0
 40
1.0
 40
1.0
 40
1.0
 10
11.99999999999998
 20
5.088492976641377
 30
0.0
 10
11.66561410393657
 20
5.370972385506825
 30
0.0
 10
11.33440251634904
 20
5.643192474042377
 30
0.0
 10
11.00039431954921
 20
5.905282185447533
 30
0.0
  0
SPLINE
  5
EB
330
1F
100
AcDbEntity
  8
외형선
  6
Continuous
370
    15
100
AcDbSpline
210
0.0
220
0.0
230
1.0
 70
     8
 71
     3
 72
     8
 73
     4
 74
     0
 42
0.000000001
 43
0.00000001
 40
0.0
 40
0.0
 40
0.0
 40
0.0
 40
1.0
 40
1.0
 40
1.0
 40
1.0
 10
11.99999999999998
 20
1.694593095145027
 30
0.0
 10
11.66561410393657
 20
2.023421942402703
 30
0.0
 10
11.33440251634907
 20
2.3480914149215
 30
0.0
 10
11.0003943195492
 20
2.668746181084567
 30
0.0
  0
LINE
  5
EC
330
1F
100
AcDbEntity
  8
외형선
  6
Continuous
370
    15
100
AcDbLine
 10
-55.94500000000002
 20
0.0000000000000031
 30
0.0
 11
-55.94500000000002
 21
9.524999999999997
 31
0.0
  0
LINE
  5
ED
330
1F
100
AcDbEntity
  8
외형선
  6
Continuous
370
    15
100
AcDbLine
 10
-55.94500000000002
 20
-9.524999999999974
 30
0.0
 11
-55.94500000000002
 21
0.0000000000000031
 31
0.0
  0
LINE
  5
EE
330
1F
100
AcDbEntity
  8
외형선
  6
Continuous
370
    15
100
AcDbLine
 10
11.00039431954921
 20
-1.108895685677712
 30
0.0
 11
11.00039431954921
 21
2.668741949505205
 31
0.0
  0
LINE
  5
EF
330
1F
100
AcDbEntity
  8
외형선
  6
Continuous
370
    15
100
AcDbLine
 10
-57.85000000000002
 20
0.0000000000000031
 30
0.0
 11
-57.85000000000002
 21
7.62000000000001
 31
0.0
  0
LINE
  5
F0
330
1F
100
AcDbEntity
  8
외형선
  6
Continuous
370
    15
100
AcDbLine
 10
-57.85000000000002
 20
-7.620000000000004
 30
0.0
 11
-57.85000000000002
 21
0.0000000000000031
 31
0.0
  0
SPLINE
  5
F1
330
1F
100
AcDbEntity
  8
외형선
  6
Continuous
370
    15
100
AcDbSpline
210
0.0
220
0.0
230
1.0
 70
    24
 71
     3
 72
    24
 73
    20
 74
     0
 42
0.000000001
 43
0.00000001
 40
0.0
 40
0.0
 40
0.0
 40
0.0
 40
0.1249999999999999
 40
0.1249999999999999
 40
0.2499999999999999
 40
0.2499999999999999
 40
0.3749999999999996
 40
0.3749999999999996
 40
0.4999999999999993
 40
0.4999999999999993
 40
0.6249999999999991
 40
0.6249999999999991
 40
0.7499999999999988
 40
0.7499999999999988
 40
0.8124999999999991
 40
0.8124999999999991
 40
0.8749999999999994
 40
0.8749999999999994
 40
1.0
 40
1.0
 40
1.0
 40
1.0
 10
11.99999999999998
 20
-2.095435129559529
 30
0.0
 10
11.99999999999999
 20
-2.066962132196263
 30
0.0
 10
12.00000000000001
 20
-1.991221501885015
 30
0.0
 10
11.99999999999999
 20
-1.716043772324257
 30
0.0
 10
11.99999999999998
 20
-1.515340679711912
 30
0.0
 10
11.99999999999998
 20
-1.025255311787305
 30
0.0
 10
11.99999999999998
 20
-0.7381316246152501
 30
0.0
 10
11.99999999999998
 20
-0.1706632235332821
 30
0.0
 10
12.00000000000001
 20
0.107266681096349
 30
0.0
 10
11.99999999999999
 20
0.5890354469859586
 30
0.0
 10
11.99999999999999
 20
0.7933782802746461
 30
0.0
 10
12.00000000000001
 20
1.122198156672478
 30
0.0
 10
12.00000000000002
 20
1.247810918701491
 30
0.0
 10
11.99999999999999
 20
1.392576758427608
 30
0.0
 10
12.00000000000001
 20
1.433383668802727
 30
0.0
 10
12.00000000000001
 20
1.504445989879995
 30
0.0
 10
12.00000000000001
 20
1.538268232411169
 30
0.0
 10
12.00000000000001
 20
1.629822175053773
 30
0.0
 10
12.00000000000001
 20
1.678163095514345
 30
0.0
 10
11.99999999999999
 20
1.694593095145051
 30
0.0
  0
SPLINE
  5
F2
330
1F
100
AcDbEntity
  8
외형선
  6
Continuous
370
    15
100
AcDbSpline
210
0.0
220
0.0
230
1.0
 70
    24
 71
     3
 72
    12
 73
     8
 74
     0
 42
0.000000001
 43
0.00000001
 40
0.0
 40
0.0
 40
0.0
 40
0.0
 40
0.1923844284210552
 40
0.4213505606927167
 40
0.6503166929643689
 40
0.8792828252360245
 40
1.0
 40
1.0
 40
1.0
 40
1.0
 10
11.99999999999998
 20
-8.051885755937578
 30
0.0
 10
11.99999999999998
 20
-7.901230177480125
 30
0.0
 10
11.99999999999995
 20
-7.571272015192668
 30
0.0
 10
12.00000000000008
 20
-6.959496996423072
 30
0.0
 10
11.99999999999998
 20
-6.320816886953053
 30
0.0
 10
11.99999999999999
 20
-5.809610703733816
 30
0.0
 10
11.99999999999997
 20
-5.593441872531288
 30
0.0
 10
11.99999999999995
 20
-5.518816375546553
 30
0.0
  0
SPLINE
  5
F3
330
1F
100
AcDbEntity
  8
외형선
  6
Continuous
370
    15
100
AcDbSpline
210
0.0
220
0.0
230
1.0
 70
    24
 71
     3
 72
    13
 73
     9
 74
     0
 42
0.000000001
 43
0.00000001
 40
0.0
 40
0.0
 40
0.0
 40
0.0
 40
0.1572468178997286
 40
0.3743327916201931
 40
0.5914187653406184
 40
0.7272894030074533
 40
0.9443753767279212
 40
1.0
 40
1.0
 40
1.0
 40
1.0
 10
11.99999999999997
 20
5.177823689661503
 30
0.0
 10
11.99999999999998
 20
5.282777432781259
 30
0.0
 10
11.99999999999997
 20
5.532624317937684
 30
0.0
 10
11.9999999999999
 20
6.08443778746479
 30
0.0
 10
11.99999999999992
 20
6.649475937941636
 30
0.0
 10
12.00000000000001
 20
7.203743949694014
 30
0.0
 10
12.00000000000001
 20
7.575218429427205
 30
0.0
 10
12.00000000000001
 20
7.783515887855899
 30
0.0
 10
12.00000000000001
 20
7.826002200384284
 30
0.0
  0
LINE
  5
F4
330
1F
100
AcDbEntity
  8
중심선
 62
     1
100
AcDbLine
 10
-60.85000000000003
 20
-0.0000000000000056
 30
0.0
 11
72.14999999999998
 21
0.0000000000000064
 31
0.0
  0
LINE
  5
F5
330
1F
100
AcDbEntity
  8
참조1
100
AcDbLine
 10
5.649999999999972
 20
-0.0000000000000095
 30
0.0
 11
5.649999999999976
 21
-40.00000000000001
 31
0.0
  0
LINE
  5
F6
330
1F
100
AcDbEntity
  8
참조1
100
AcDbLine
 10
5.649999999999976
 20
-40.00000000000001
 30
0.0
 11
-20.62135681430867
 21
-40.0
 31
0.0
  0
INSERT
  5
F8
330
1F
100
AcDbEntity
  8
0
  6
Continuous
 62
     7
100
AcDbBlockReference
 66
     1
  2
블럭10
 10
-8.290272932125234
 20
-52.04717430164393
 30
0.0
  0
ATTRIB
  5
F9
330
F8
100
AcDbEntity
  8
FORMAT
 62
     2
100
AcDbText
 10
-18.43190894426186
 20
-49.97180738881174
 30
0.0
 40
4.233333333333333
  1
EM218048 [ 8 FLUTE ]
 41
0.75
  7
SLDTEXTSTYLE0
 11
-18.43190894426186
 21
-52.08847405547841
 31
0.0
100
AcDbAttribute
  2
AUTOATTR0
 70
     0
 74
     1
  0
SEQEND
  5
FA
330
F8
100
AcDbEntity
  8
0
  6
Continuous
 62
     7
  0
HATCH
  5
FB
330
1F
100
AcDbEntity
  8
중심선
100
AcDbHatch
 10
0.0
 20
0.0
 30
0.0
210
0.0
220
0.0
230
1.0
  2
SOLID
 70
     1
 71
     0
 91
        1
 92
        0
 93
        4
 72
     1
 10
-2.575363627744398
 20
-35.8
 11
-6.021638871581681
 21
-35.8
 72
     1
 10
-6.021638871581681
 20
-35.8
 11
-8.149868730785704
 21
-38.3363255805726
 72
     1
 10
-8.149868730785704
 20
-38.33632558057261
 11
-4.703560401835272
 21
-38.33628615127012
 72
     1
 10
-4.703560401835272
 20
-38.33628615127012
 11
-2.575363627744398
 21
-35.8
 97
        0
 75
     0
 76
     1
 98
        1
 10
-1.175000000000054
 20
-0.0010749287238987
  0
HATCH
  5
FC
330
1F
100
AcDbEntity
  8
중심선
100
AcDbHatch
 10
0.0
 20
0.0
 30
0.0
210
0.0
220
0.0
230
1.0
  2
SOLID
 70
     1
 71
     0
 91
        1
 92
        0
 93
        4
 72
     1
 10
2.437400363291581
 20
-35.79999999999998
 11
-1.008874880545702
 21
-35.80000000000003
 72
     1
 10
-1.008874880545702
 20
-35.80000000000003
 11
-5.540012888903117
 21
-41.20000000000002
 72
     1
 10
-5.540012888903117
 20
-41.20000000000002
 11
-2.093737645065835
 21
-41.20000000000002
 72
     1
 10
-2.093737645065835
 20
-41.20000000000002
 11
2.437400363291581
 21
-35.79999999999998
 97
        0
 75
     0
 76
     1
 98
        1
 10
-1.175000000000054
 20
-0.0010749287238987
  0
HATCH
  5
FD
330
1F
100
AcDbEntity
  8
중심선
100
AcDbHatch
 10
0.0
 20
0.0
 30
0.0
210
0.0
220
0.0
230
1.0
  2
SOLID
 70
     1
 71
     0
 91
        1
 92
        0
 93
        4
 72
     1
 10
7.450164354327477
 20
-35.8
 11
4.003889110490361
 21
-35.80000000000003
 72
     1
 10
4.003889110490361
 20
-35.80000000000003
 11
-3.044547791398916
 21
-44.20000000000002
 72
     1
 10
-3.044547791398916
 20
-44.20000000000002
 11
0.4017274524383661
 21
-44.20000000000002
 72
     1
 10
0.4017274524383661
 20
-44.20000000000002
 11
7.450164354327477
 21
-35.8
 97
        0
 75
     0
 76
     1
 98
        1
 10
-1.175000000000054
 20
-0.0010749287238987
  0
HATCH
  5
FE
330
1F
100
AcDbEntity
  8
중심선
100
AcDbHatch
 10
0.0
 20
0.0
 30
0.0
210
0.0
220
0.0
230
1.0
  2
SOLID
 70
     1
 71
     0
 91
        1
 92
        0
 93
        6
 72
     3
 10
12.25005478533965
 20
-40.00000000005127
 11
3.960054785062285
 21
1.540882976769353E-10
 40
0.3939339440162626
 50
17.09539180608436
 51
320.0019657685086
 73
     0
 72
     1
 10
13.93305444104024
 20
-38.58789400463833
 11
16.23835631474128
 21
-36.65356729459038
 72
     3
 10
12.2500547852868
 20
-40.00000000000016
 11
6.600054785286828
 21
-1.278976924368180E-13
 40
0.6363583540795982
 50
39.99873849337417
 51
368.4976242363724
 73
     1
 72
     1
 10
18.67538727718741
 20
-39.03999999993003
 11
10.93012209212272
 21
-39.03999999993003
 72
     1
 10
10.93012209212272
 20
-39.03999999993003
 11
10.93009704767679
 21
-40.95999999992992
 72
     1
 10
10.93009704767679
 20
-40.95999999992992
 11
15.37147681714883
 21
-40.95999999992989
 97
        0
 75
     0
 76
     1
 98
        1
 10
-1.175000000000054
 20
-0.0010749287238987
  0
DIMENSION
  5
FF
330
1F
100
AcDbEntity
  8
치수문자_일반주서
100
AcDbDimension
  2
_D
 10
87.86207171449686
 20
9.525000000000073
 30
0.0
 11
87.86207171449679
 21
29.91025000000007
 31
0.0
 70
   160
  1
%%c<>
 71
     2
 42
19.05
 52
-270.0
  3
SLDDIMSTYLE2
100
AcDbAlignedDimension
 13
69.14999999999999
 23
-9.524999999999999
 33
0.0
 14
69.14999999999999
 24
9.525000000000006
 34
0.0
 50
90.0000000000002
100
AcDbRotatedDimension
1001
PE_URL
1000

1001
ACAD
1000
DSTYLE
1002
{
1070
   171
1070
     6
1070
   273
1070
     7
1002
}
  0
DIMENSION
  5
114
330
1F
100
AcDbEntity
  8
치수문자_일반주서
100
AcDbDimension
  2
_D_1
 10
12.00000000000001
 20
31.89215476237598
 30
0.0
 11
40.575
 21
31.89215476237598
 31
0.0
 70
   160
  1
<>
 71
     2
 42
57.14999999999998
  3
SLDDIMSTYLE2
100
AcDbAlignedDimension
 13
69.14999999999999
 23
9.525000000000007
 33
0.0
 14
12.00000000000001
 24
9.373045355800228
 34
0.0
100
AcDbRotatedDimension
1001
PE_URL
1000

1001
ACAD
1000
DSTYLE
1002
{
1070
   171
1070
     6
1070
   273
1070
     7
1002
}
  0
DIMENSION
  5
128
330
1F
100
AcDbEntity
  8
치수문자_일반주서
100
AcDbDimension
  2
_D_2
 10
-57.85000000000003
 20
54.19680952475196
 30
0.0
 11
5.649999999999985
 21
54.19680952475196
 31
0.0
 70
   160
  1
<>
 71
     2
 42
127.0
  3
SLDDIMSTYLE2
100
AcDbAlignedDimension
 13
69.14999999999999
 23
9.525000000000007
 33
0.0
 14
-57.85000000000002
 24
7.62000000000001
 34
0.0
 50
0.0000000000000064
100
AcDbRotatedDimension
1001
PE_URL
1000

1001
ACAD
1000
DSTYLE
1002
{
1070
   171
1070
     6
1070
   273
1070
     7
1002
}
  0
DIMENSION
  5
13B
330
1F
100
AcDbEntity
  8
치수문자_일반주서
100
AcDbDimension
  2
_D_3
 10
-70.85
 20
-9.525000000000057
 30
0.0
 11
-70.85000000000004
 21
0.0000000000000109
 31
0.0
 70
   160
  1
%%c<>
 71
     2
 42
19.05000000000001
 52
-270.0
  3
SLDDIMSTYLE2
100
AcDbAlignedDimension
 13
-55.94500000000003
 23
9.52500000000001
 33
0.0
 14
-55.94500000000003
 24
-9.525000000000002
 34
0.0
 50
90.0000000000002
100
AcDbRotatedDimension
1001
ACAD
1000
DSTYLE
1002
{
1070
   171
1070
     6
1070
   273
1070
     7
1002
}
1001
ACAD_DSTYLE_DIMFLIPARROW_SYMBOL
1070
   385
1070
     0
1001
ACAD_DSTYLE_DIMFLIPARROW_WHICH_SYMBOL
1070
   386
1070
     3
  0
LINE
  5
150
330
1F
100
AcDbEntity
  8
참조1
100
AcDbLine
 10
77.35098381534559
 20
7.439999999999997
 30
0.0
 11
77.35098381534559
 21
-7.440000000000007
 31
0.0
  0
LINE
  5
151
330
1F
100
AcDbEntity
  8
참조1
100
AcDbLine
 10
90.05098381534559
 20
5.439999999999997
 30
0.0
 11
77.35098381534559
 21
5.439999999999997
 31
0.0
  0
SOLID
  5
152
330
1F
100
AcDbEntity
  8
참조1
100
AcDbTrace
 10
77.35098381534559
 20
5.439999999999997
 30
0.0
 11
83.70098381534558
 21
4.423999999999997
 31
0.0
 12
83.70098381534558
 22
6.455999999999997
 32
0.0
 13
83.70098381534558
 23
6.455999999999997
 33
0.0
  0
LINE
  5
153
330
1F
100
AcDbEntity
  8
참조1
100
AcDbLine
 10
90.05098381534559
 20
-5.440000000000007
 30
0.0
 11
77.35098381534559
 21
-5.440000000000007
 31
0.0
  0
SOLID
  5
154
330
1F
100
AcDbEntity
  8
참조1
100
AcDbTrace
 10
77.35098381534559
 20
-5.440000000000007
 30
0.0
 11
83.70098381534558
 21
-6.456000000000008
 31
0.0
 12
83.70098381534558
 22
-4.424000000000007
 32
0.0
 13
83.70098381534558
 23
-4.424000000000007
 33
0.0
  0
MTEXT
  5
155
330
1F
100
AcDbEntity
  8
참조1
100
AcDbMText
 10
86.74847390781586
 20
10.98821664464993
 30
0.0
 40
3.5
 41
0.0
 71
     1
 72
     1
  1
A
  7
SLDTEXTSTYLE0
 73
     1
 44
1.0
  0
MTEXT
  5
156
330
1F
100
AcDbEntity
  8
참조1
100
AcDbMText
 10
86.74847390781586
 20
0.1082166446499272
 30
0.0
 40
3.5
 41
0.0
 71
     1
 72
     1
  1
A
  7
SLDTEXTSTYLE0
 73
     1
 44
1.0
  0
INSERT
  5
15D
330
1F
100
AcDbEntity
  8
해칭선
100
AcDbBlockReference
  2
SW_DOWELSYMBOL_0
 10
0.0
 20
0.0
 30
0.0
  0
ENDSEC
  0
SECTION
  2
OBJECTS
  0
DICTIONARY
  5
C
330
0
100
AcDbDictionary
281
     1
  3
ACAD_DETAILVIEWSTYLE
350
18B
  3
ACAD_GROUP
350
D
  3
ACAD_LAYOUT
350
1A
  3
ACAD_MLINESTYLE
350
17
  3
ACAD_PLOTSETTINGS
350
19
  3
ACAD_PLOTSTYLENAME
350
E
  3
ACAD_SCALELIST
350
47
  3
ACAD_SECTIONVIEWSTYLE
350
18C
  3
AcDbVariableDictionary
350
186
  3
APPDATA
350
17F
  3
DWGPROPS
350
1B5
  0
DICTIONARY
  5
1B3
330
1F
100
AcDbDictionary
280
     1
281
     1
  3
DIM_BOUNDING_BOXES_V1
360
1B4
  0
DICTIONARY
  5
18B
102
{ACAD_REACTORS
330
C
102
}
330
C
100
AcDbDictionary
281
     1
  0
DICTIONARY
  5
D
102
{ACAD_REACTORS
330
C
102
}
330
C
100
AcDbDictionary
281
     1
  0
DICTIONARY
  5
1A
102
{ACAD_REACTORS
330
C
102
}
330
C
100
AcDbDictionary
281
     1
  3
Layout1
350
1E
  3
Layout2
350
26
  3
Model
350
22
  0
DICTIONARY
  5
17
102
{ACAD_REACTORS
330
C
102
}
330
C
100
AcDbDictionary
281
     1
  3
Standard
350
18
  0
DICTIONARY
  5
19
102
{ACAD_REACTORS
330
C
102
}
330
C
100
AcDbDictionary
281
     1
  0
ACDBDICTIONARYWDFLT
  5
E
102
{ACAD_REACTORS
330
C
102
}
330
C
100
AcDbDictionary
281
     1
  3
Normal
350
F
100
AcDbDictionaryWithDefault
340
F
  0
DICTIONARY
  5
47
102
{ACAD_REACTORS
330
C
102
}
330
C
100
AcDbDictionary
281
     1
  3
A0
350
48
  3
A1
350
49
  3
A2
350
4A
  3
A3
350
4B
  3
A4
350
4C
  3
A5
350
4D
  3
A6
350
4E
  3
A7
350
4F
  3
A8
350
50
  3
A9
350
51
  3
B0
350
52
  3
B1
350
53
  3
B2
350
54
  3
B3
350
55
  3
B4
350
56
  3
B5
350
57
  3
B6
350
58
  3
B7
350
59
  3
B8
350
5A
  3
B9
350
5B
  3
C0
350
5C
  3
C1
350
5D
  3
C2
350
5E
  3
C3
350
5F
  3
C4
350
60
  3
C5
350
61
  3
C6
350
62
  3
C7
350
63
  3
C8
350
64
  3
C9
350
65
  3
D0
350
66
  3
D1
350
67
  3
D2
350
68
  0
DICTIONARY
  5
18C
102
{ACAD_REACTORS
330
C
102
}
330
C
100
AcDbDictionary
281
     1
  0
DICTIONARY
  5
186
102
{ACAD_REACTORS
330
C
102
}
330
C
100
AcDbDictionary
281
     1
  0
DICTIONARY
  5
17F
102
{ACAD_REACTORS
330
C
102
}
330
C
100
AcDbDictionary
281
     1
  0
XRECORD
  5
1B5
102
{ACAD_REACTORS
330
C
102
}
330
C
100
AcDbXrecord
280
     1
  1
DWGPROPS COOKIE
  2

  3

  4

  6

  7

  8
12017165
  9

300
=
301
=
302
=
303
=
304
=
305
=
306
=
307
=
308
=
309
=
 40
0.0
 41
2458292.299979653
 42
2459697.020067488
  1

 90
        0
  0
DICTIONARY
  5
1B4
102
{ACAD_REACTORS
330
1B3
102
}
330
1B3
100
AcDbDictionary
281
     1
  0
LAYOUT
  5
1E
102
{ACAD_REACTORS
330
1A
102
}
330
1A
100
AcDbPlotSettings
  1

  2
none_device
  4

  6

 40
0.0
 41
0.0
 42
0.0
 43
0.0
 44
0.0
 45
0.0
 46
0.0
 47
0.0
 48
0.0
 49
0.0
140
0.0
141
0.0
142
1.0
143
1.0
 70
   688
 72
     1
 73
     0
 74
     5
  7

 75
    16
147
1.0
148
0.0
149
0.0
100
AcDbLayout
  1
Layout1
 70
     1
 71
     1
 10
0.0
 20
0.0
 11
420.0
 21
297.0
 12
0.0
 22
0.0
 32
0.0
 14
1.000000000000000E+20
 24
1.000000000000000E+20
 34
1.000000000000000E+20
 15
-1.000000000000000E+20
 25
-1.000000000000000E+20
 35
-1.000000000000000E+20
146
0.0
 13
0.0
 23
0.0
 33
0.0
 16
1.0
 26
0.0
 36
0.0
 17
0.0
 27
1.0
 37
0.0
 76
     0
330
1B
  0
LAYOUT
  5
26
102
{ACAD_REACTORS
330
1A
102
}
330
1A
100
AcDbPlotSettings
  1

  2
none_device
  4

  6

 40
0.0
 41
0.0
 42
0.0
 43
0.0
 44
0.0
 45
0.0
 46
0.0
 47
0.0
 48
0.0
 49
0.0
140
0.0
141
0.0
142
1.0
143
1.0
 70
   688
 72
     1
 73
     0
 74
     5
  7

 75
    16
147
1.0
148
0.0
149
0.0
100
AcDbLayout
  1
Layout2
 70
     1
 71
     2
 10
0.0
 20
0.0
 11
0.0
 21
0.0
 12
0.0
 22
0.0
 32
0.0
 14
0.0
 24
0.0
 34
0.0
 15
0.0
 25
0.0
 35
0.0
146
0.0
 13
0.0
 23
0.0
 33
0.0
 16
1.0
 26
0.0
 36
0.0
 17
0.0
 27
1.0
 37
0.0
 76
     0
330
23
  0
LAYOUT
  5
22
102
{ACAD_REACTORS
330
1A
102
}
330
1A
100
AcDbPlotSettings
  1

  2
none_device
  4
ANSI_A_(11.00_x_8.50_Inches)
  6

 40
6.35
 41
19.05
 42
6.35000508
 43
19.05000254
 44
279.4
 45
215.9
 46
124.6841211921733
 47
77.4003273669061
 48
0.0
 49
0.0
140
0.0
141
0.0
142
0.0634268438554616
143
1.0
 70
  1696
 72
     0
 73
     0
 74
     0
  7

 75
     0
147
0.0235690232323232
148
0.0
149
0.0
100
AcDbLayout
  1
Model
 70
     1
 71
     0
 10
0.0
 20
0.0
 11
420.0
 21
297.0
 12
0.0
 22
0.0
 32
0.0
 14
-75.2250000000001
 24
-49.97180738881175
 34
0.0
 15
90.05098381534559
 25
58.57180952475195
 35
0.0
146
0.0
 13
0.0
 23
0.0
 33
0.0
 16
1.0
 26
0.0
 36
0.0
 17
0.0
 27
1.0
 37
0.0
 76
     0
330
1F
331
29
  0
MLINESTYLE
  5
18
102
{ACAD_REACTORS
330
17
102
}
330
17
100
AcDbMlineStyle
  2
Standard
 70
     0
  3

 62
   256
 51
90.0
 52
90.0
 71
     2
 49
0.5
 62
   256
  6
BYLAYER
 49
-0.5
 62
   256
  6
BYLAYER
  0
ACDBPLACEHOLDER
  5
F
102
{ACAD_REACTORS
330
E
102
}
330
E
  0
SCALE
  5
48
102
{ACAD_REACTORS
330
47
102
}
330
47
100
AcDbScale
 70
     0
300
1:1
140
1.0
141
1.0
290
     1
  0
SCALE
  5
49
102
{ACAD_REACTORS
330
47
102
}
330
47
100
AcDbScale
 70
     0
300
1:2
140
1.0
141
2.0
290
     0
  0
SCALE
  5
4A
102
{ACAD_REACTORS
330
47
102
}
330
47
100
AcDbScale
 70
     0
300
1:4
140
1.0
141
4.0
290
     0
  0
SCALE
  5
4B
102
{ACAD_REACTORS
330
47
102
}
330
47
100
AcDbScale
 70
     0
300
1:5
140
1.0
141
5.0
290
     0
  0
SCALE
  5
4C
102
{ACAD_REACTORS
330
47
102
}
330
47
100
AcDbScale
 70
     0
300
1:8
140
1.0
141
8.0
290
     0
  0
SCALE
  5
4D
102
{ACAD_REACTORS
330
47
102
}
330
47
100
AcDbScale
 70
     0
300
1:10
140
1.0
141
10.0
290
     0
  0
SCALE
  5
4E
102
{ACAD_REACTORS
330
47
102
}
330
47
100
AcDbScale
 70
     0
300
1:16
140
1.0
141
16.0
290
     0
  0
SCALE
  5
4F
102
{ACAD_REACTORS
330
47
102
}
330
47
100
AcDbScale
 70
     0
300
1:20
140
1.0
141
20.0
290
     0
  0
SCALE
  5
50
102
{ACAD_REACTORS
330
47
102
}
330
47
100
AcDbScale
 70
     0
300
1:30
140
1.0
141
30.0
290
     0
  0
SCALE
  5
51
102
{ACAD_REACTORS
330
47
102
}
330
47
100
AcDbScale
 70
     0
300
1:40
140
1.0
141
40.0
290
     0
  0
SCALE
  5
52
102
{ACAD_REACTORS
330
47
102
}
330
47
100
AcDbScale
 70
     0
300
1:50
140
1.0
141
50.0
290
     0
  0
SCALE
  5
53
102
{ACAD_REACTORS
330
47
102
}
330
47
100
AcDbScale
 70
     0
300
1:100
140
1.0
141
100.0
290
     0
  0
SCALE
  5
54
102
{ACAD_REACTORS
330
47
102
}
330
47
100
AcDbScale
 70
     0
300
2:1
140
2.0
141
1.0
290
     0
  0
SCALE
  5
55
102
{ACAD_REACTORS
330
47
102
}
330
47
100
AcDbScale
 70
     0
300
4:1
140
4.0
141
1.0
290
     0
  0
SCALE
  5
56
102
{ACAD_REACTORS
330
47
102
}
330
47
100
AcDbScale
 70
     0
300
8:1
140
8.0
141
1.0
290
     0
  0
SCALE
  5
57
102
{ACAD_REACTORS
330
47
102
}
330
47
100
AcDbScale
 70
     0
300
10:1
140
10.0
141
1.0
290
     0
  0
SCALE
  5
58
102
{ACAD_REACTORS
330
47
102
}
330
47
100
AcDbScale
 70
     0
300
100:1
140
100.0
141
1.0
290
     0
  0
SCALE
  5
59
102
{ACAD_REACTORS
330
47
102
}
330
47
100
AcDbScale
 70
     0
300
1/128" = 1'-0"
140
0.0078125
141
12.0
290
     0
  0
SCALE
  5
5A
102
{ACAD_REACTORS
330
47
102
}
330
47
100
AcDbScale
 70
     0
300
1/64" = 1'-0"
140
0.015625
141
12.0
290
     0
  0
SCALE
  5
5B
102
{ACAD_REACTORS
330
47
102
}
330
47
100
AcDbScale
 70
     0
300
1/32" = 1'-0"
140
0.03125
141
12.0
290
     0
  0
SCALE
  5
5C
102
{ACAD_REACTORS
330
47
102
}
330
47
100
AcDbScale
 70
     0
300
1/16" = 1'-0"
140
0.0625
141
12.0
290
     0
  0
SCALE
  5
5D
102
{ACAD_REACTORS
330
47
102
}
330
47
100
AcDbScale
 70
     0
300
3/32" = 1'-0"
140
0.09375
141
12.0
290
     0
  0
SCALE
  5
5E
102
{ACAD_REACTORS
330
47
102
}
330
47
100
AcDbScale
 70
     0
300
1/8" = 1'-0"
140
0.125
141
12.0
290
     0
  0
SCALE
  5
5F
102
{ACAD_REACTORS
330
47
102
}
330
47
100
AcDbScale
 70
     0
300
3/16" = 1'-0"
140
0.1875
141
12.0
290
     0
  0
SCALE
  5
60
102
{ACAD_REACTORS
330
47
102
}
330
47
100
AcDbScale
 70
     0
300
1/4" = 1'-0"
140
0.25
141
12.0
290
     0
  0
SCALE
  5
61
102
{ACAD_REACTORS
330
47
102
}
330
47
100
AcDbScale
 70
     0
300
3/8" = 1'-0"
140
0.375
141
12.0
290
     0
  0
SCALE
  5
62
102
{ACAD_REACTORS
330
47
102
}
330
47
100
AcDbScale
 70
     0
300
1/2" = 1'-0"
140
0.5
141
12.0
290
     0
  0
SCALE
  5
63
102
{ACAD_REACTORS
330
47
102
}
330
47
100
AcDbScale
 70
     0
300
3/4" = 1'-0"
140
0.75
141
12.0
290
     0
  0
SCALE
  5
64
102
{ACAD_REACTORS
330
47
102
}
330
47
100
AcDbScale
 70
     0
300
1" = 1'-0"
140
1.0
141
12.0
290
     0
  0
SCALE
  5
65
102
{ACAD_REACTORS
330
47
102
}
330
47
100
AcDbScale
 70
     0
300
1-1/2" = 1'-0"
140
1.5
141
12.0
290
     0
  0
SCALE
  5
66
102
{ACAD_REACTORS
330
47
102
}
330
47
100
AcDbScale
 70
     0
300
3" = 1'-0"
140
3.0
141
12.0
290
     0
  0
SCALE
  5
67
102
{ACAD_REACTORS
330
47
102
}
330
47
100
AcDbScale
 70
     0
300
6" = 1'-0"
140
6.0
141
12.0
290
     0
  0
SCALE
  5
68
102
{ACAD_REACTORS
330
47
102
}
330
47
100
AcDbScale
 70
     0
300
1'-0" = 1'-0"
140
12.0
141
12.0
290
     0
  0
ENDSEC
  0
EOF
